  0
SECTION
  2
HEADER
  9
$ACADVER
  1
AC1015
  9
$DWGCODEPAGE
  3
ANSI_1252
  9
$EXTMAX
 10
297.0
 20
210.0
 30
0.0
  9
$EXTMIN
 10
0.0
 20
0.0
 30
0.0
  9
$LIMMIN
 10
0.0
 20
0.0
  9
$LIMMAX
 10
297.0
 20
210.0
  9
$VIEWCTR
 10
148.5
 20
105.0
  9
$VIEWSIZE
 40
210.0
  9
$CLAYER
  8
0
  9
$LTSCALE
 40
16.335
  9
$CELTYPE
  6
BYLAYER
  9
$DIMSCALE
 40
1.0
  9
$DIMASZ
 40
3.0
  9
$DIMEXO
 40
1.85625
  9
$DIMDLI
 40
11.286
  9
$DIMEXE
 40
5.346
  9
$DIMCEN
 40
2.673
  9
$DIMLFAC
 40
1.0
  9
$DIMBLK
  1
_FILLED
  9
$DIMTXT
 40
3.0
  9
$DIMTOL
 70
1
  9
$DIMLIM
 70
0
  9
$DIMTFAC
 40
1.0
  9
$DIMTP
 40
0.01
  9
$DIMTM
 40
0.01
  9
$PDMODE
 70
3
  9
$PDSIZE
 40
3.0
  9
$HANDSEED
  5
395
  9
$TILEMODE
 70
1
  9
$MEASUREMENT
 70
1
  9
$INSUNITS
 70
4
  0
ENDSEC
  0
SECTION
  2
CLASSES
  0
CLASS
  1
ACDBDICTIONARYWDFLT
  2
AcDbDictionaryWithDefault
  3
AutoCAD 2000
 90
0
280
0
281
0
  0
CLASS
  1
ACDBPLACEHOLDER
  2
AcDbPlaceHolder
  3
AutoCAD 2000
 90
0
280
0
281
0
  0
CLASS
  1
LAYOUT
  2
AcDbLayout
  3
AutoCAD 2000
 90
0
280
0
281
0
  0
ENDSEC
  0
SECTION
  2
TABLES
  0
TABLE
  2
VPORT
  5
8
100
AcDbSymbolTable
 70
2
  0
VPORT
  5
1F4
100
AcDbSymbolTableRecord
100
AcDbViewportTableRecord
  2
*ACTIVE
 70
0
 10
0.0
 20
0.0
 11
1.0
 21
1.0
 12
148.5
 22
105.0
 13
0.0
 23
0.0
 14
1.0
 24
1.0
 15
0.0
 25
0.0
 16
0.0
 26
0.0
 36
1.0
 17
0.0
 27
0.0
 37
0.0
 40
210.0
 41
1.4142857143
 42
50.0
 43
0.0
 44
0.0
 50
0.0
 51
0.0
 71
0
 72
100
 73
1
 74
1
 75
0
 76
0
 77
0
 78
0
  0
ENDTAB
  0
TABLE
  2
LTYPE
  5
5
100
AcDbSymbolTable
 70
6
  0
LTYPE
  5
14
100
AcDbSymbolTableRecord
100
AcDbLinetypeTableRecord
  2
BYBLOCK
 70
0
  3

 72
65
 73
0
 40
0.0
  0
LTYPE
  5
15
100
AcDbSymbolTableRecord
100
AcDbLinetypeTableRecord
  2
BYLAYER
 70
0
  3

 72
65
 73
0
 40
0.0
  0
LTYPE
  5
16
100
AcDbSymbolTableRecord
100
AcDbLinetypeTableRecord
  2
CONTINUOUS
 70
64
  3
Solid line
 72
65
 73
0
 40
0.0
  0
LTYPE
  5
1F5
100
AcDbSymbolTableRecord
100
AcDbLinetypeTableRecord
  2
CENTER
 70
64
  3
____ _ ____ _ ____ _ ____ _ ____ _ ____ _ ____
 72
65
 73
4
 40
0.6
 49
0.375
 74
0
 49
-0.075
 74
0
 49
0.075
 74
0
 49
-0.075
 74
0
  0
LTYPE
  5
1F6
100
AcDbSymbolTableRecord
100
AcDbLinetypeTableRecord
  2
HIDDEN
 70
64
  3
- - - - - - - - - - - - - - - - - - - -
 72
65
 73
2
 40
0.2
 49
0.1
 74
0
 49
-0.1
 74
0
  0
LTYPE
  5
1F7
100
AcDbSymbolTableRecord
100
AcDbLinetypeTableRecord
  2
PHANTOM
 70
64
  3
_____ _ _ _____ _ _ _____ _ _ _____
 72
65
 73
6
 40
0.8
 49
0.45
 74
0
 49
-0.05
 74
0
 49
0.1
 74
0
 49
-0.05
 74
0
 49
0.1
 74
0
 49
-0.05
 74
0
  0
LTYPE
  5
1F8
100
AcDbSymbolTableRecord
100
AcDbLinetypeTableRecord
  2
DOT
 70
64
  3
. . . . . . . . . . . . . . . . . . . .
 72
65
 73
2
 40
0.2
 49
0.1
 74
0
 49
-0.1
 74
0
  0
LTYPE
  5
1F9
100
AcDbSymbolTableRecord
100
AcDbLinetypeTableRecord
  2
DASHED
 70
64
  3
- - - - - - - - - - - - - - - - - - - -
 72
65
 73
2
 40
0.2
 49
0.1
 74
0
 49
-0.1
 74
0
  0
ENDTAB
  0
TABLE
  2
LAYER
  5
2
100
AcDbSymbolTable
 70
36
  0
LAYER
  5
10
100
AcDbSymbolTableRecord
100
AcDbLayerTableRecord
  2
0
 70
0
 62
7
  6
CONTINUOUS
370
-3
390
F
  0
LAYER
  5
1FA
100
AcDbSymbolTableRecord
100
AcDbLayerTableRecord
  2
DEFAULT_1
 70
0
 62
7
  6
CENTER
370
-3
390
F
  0
LAYER
  5
1FB
100
AcDbSymbolTableRecord
100
AcDbLayerTableRecord
  2
DEFAULT_2
 70
0
 62
7
  6
HIDDEN
370
-3
390
F
  0
LAYER
  5
1FC
100
AcDbSymbolTableRecord
100
AcDbLayerTableRecord
  2
DEFAULT_3
 70
0
 62
7
  6
PHANTOM
370
-3
390
F
  0
LAYER
  5
1FD
100
AcDbSymbolTableRecord
100
AcDbLayerTableRecord
  2
ASSI
 70
0
 62
7
  6
CONTINUOUS
370
-3
390
F
  0
LAYER
  5
1FE
100
AcDbSymbolTableRecord
100
AcDbLayerTableRecord
  2
COORDINATE
 70
0
 62
7
  6
CONTINUOUS
370
-3
390
F
  0
LAYER
  5
1FF
100
AcDbSymbolTableRecord
100
AcDbLayerTableRecord
  2
COORD_ORIGINE
 70
0
 62
7
  6
CONTINUOUS
370
-3
390
F
  0
LAYER
  5
200
100
AcDbSymbolTableRecord
100
AcDbLayerTableRecord
  2
COPY_PUBLISH
 70
0
 62
7
  6
CONTINUOUS
370
-3
390
F
  0
LAYER
  5
201
100
AcDbSymbolTableRecord
100
AcDbLayerTableRecord
  2
COSMETIC
 70
0
 62
7
  6
CONTINUOUS
370
-3
390
F
  0
LAYER
  5
202
100
AcDbSymbolTableRecord
100
AcDbLayerTableRecord
  2
CURVA_ASSE
 70
0
 62
7
  6
CONTINUOUS
370
-3
390
F
  0
LAYER
  5
203
100
AcDbSymbolTableRecord
100
AcDbLayerTableRecord
  2
CURVE
 70
0
 62
7
  6
CONTINUOUS
370
-3
390
F
  0
LAYER
  5
204
100
AcDbSymbolTableRecord
100
AcDbLayerTableRecord
  2
CURVE_GUIDA
 70
0
 62
7
  6
CONTINUOUS
370
-3
390
F
  0
LAYER
  5
205
100
AcDbSymbolTableRecord
100
AcDbLayerTableRecord
  2
CURVE_INC_PUNZONI
 70
0
 62
7
  6
CONTINUOUS
370
-3
390
F
  0
LAYER
  5
206
100
AcDbSymbolTableRecord
100
AcDbLayerTableRecord
  2
DRAFT
 70
0
 62
7
  6
CONTINUOUS
370
-3
390
F
  0
LAYER
  5
207
100
AcDbSymbolTableRecord
100
AcDbLayerTableRecord
  2
IMPORT_IGES
 70
0
 62
7
  6
CONTINUOUS
370
-3
390
F
  0
LAYER
  5
208
100
AcDbSymbolTableRecord
100
AcDbLayerTableRecord
  2
NOTE
 70
0
 62
7
  6
CONTINUOUS
370
-3
390
F
  0
LAYER
  5
209
100
AcDbSymbolTableRecord
100
AcDbLayerTableRecord
  2
PIANI
 70
0
 62
7
  6
CONTINUOUS
370
-3
390
F
  0
LAYER
  5
20A
100
AcDbSymbolTableRecord
100
AcDbLayerTableRecord
  2
PIANI_ORIGINE
 70
0
 62
7
  6
CONTINUOUS
370
-3
390
F
  0
LAYER
  5
20B
100
AcDbSymbolTableRecord
100
AcDbLayerTableRecord
  2
PUNTI
 70
0
 62
7
  6
CONTINUOUS
370
-3
390
F
  0
LAYER
  5
20C
100
AcDbSymbolTableRecord
100
AcDbLayerTableRecord
  2
RACCORDO
 70
0
 62
7
  6
CONTINUOUS
370
-3
390
F
  0
LAYER
  5
20D
100
AcDbSymbolTableRecord
100
AcDbLayerTableRecord
  2
SMUSSO
 70
0
 62
7
  6
CONTINUOUS
370
-3
390
F
  0
LAYER
  5
20E
100
AcDbSymbolTableRecord
100
AcDbLayerTableRecord
  2
SNAPLINE
 70
0
 62
7
  6
CONTINUOUS
370
-3
390
F
  0
LAYER
  5
20F
100
AcDbSymbolTableRecord
100
AcDbLayerTableRecord
  2
SUPERFICI
 70
0
 62
7
  6
CONTINUOUS
370
-3
390
F
  0
LAYER
  5
210
100
AcDbSymbolTableRecord
100
AcDbLayerTableRecord
  2
TRASH
 70
0
 62
7
  6
CONTINUOUS
370
-3
390
F
  0
LAYER
  5
211
100
AcDbSymbolTableRecord
100
AcDbLayerTableRecord
  2
XSEC_DATUMS
 70
0
 62
7
  6
CONTINUOUS
370
-3
390
F
  0
ENDTAB
  0
TABLE
  2
STYLE
  5
3
100
AcDbSymbolTable
 70
1
  0
STYLE
  5
11
100
AcDbSymbolTableRecord
100
AcDbTextStyleTableRecord
  2
STANDARD
 70
0
 40
0.0
 41
0.8
 50
0.0
 71
0
 42
0.2
  3
txt
  4

  0
STYLE
  5
212
100
AcDbSymbolTableRecord
100
AcDbTextStyleTableRecord
  2
TEXTSTYLE_1
 70
0
 40
0.0
 41
0.8
 50
0.0
 71
0
 42
0.2
  3
gdt
  4

  0
ENDTAB
  0
TABLE
  2
VIEW
  5
6
100
AcDbSymbolTable
 70
0
  0
ENDTAB
  0
TABLE
  2
UCS
  5
7
100
AcDbSymbolTable
 70
0
  0
ENDTAB
  0
TABLE
  2
APPID
  5
9
100
AcDbSymbolTable
 70
1
  0
APPID
  5
213
100
AcDbSymbolTableRecord
100
AcDbRegAppTableRecord
  2
ACAD
 70
0
  0
ENDTAB
  0
TABLE
  2
BLOCK_RECORD
  5
1
100
AcDbSymbolTable
 70
0
  0
BLOCK_RECORD
  5
214
100
AcDbSymbolTableRecord
100
AcDbBlockTableRecord
  2
*Model_Space
  0
BLOCK_RECORD
  5
215
100
AcDbSymbolTableRecord
100
AcDbBlockTableRecord
  2
*Paper_Space
  0
BLOCK_RECORD
  5
216
100
AcDbSymbolTableRecord
100
AcDbBlockTableRecord
  2
_FILLED
  0
BLOCK_RECORD
  5
217
100
AcDbSymbolTableRecord
100
AcDbBlockTableRecord
  2
_NONE
  0
BLOCK_RECORD
  5
218
100
AcDbSymbolTableRecord
100
AcDbBlockTableRecord
  2
*D0
  0
BLOCK_RECORD
  5
219
100
AcDbSymbolTableRecord
100
AcDbBlockTableRecord
  2
*D1
  0
BLOCK_RECORD
  5
21A
100
AcDbSymbolTableRecord
100
AcDbBlockTableRecord
  2
*D2
  0
BLOCK_RECORD
  5
21B
100
AcDbSymbolTableRecord
100
AcDbBlockTableRecord
  2
*D3
  0
BLOCK_RECORD
  5
21C
100
AcDbSymbolTableRecord
100
AcDbBlockTableRecord
  2
*D4
  0
BLOCK_RECORD
  5
21D
100
AcDbSymbolTableRecord
100
AcDbBlockTableRecord
  2
*D5
  0
BLOCK_RECORD
  5
21E
100
AcDbSymbolTableRecord
100
AcDbBlockTableRecord
  2
*D6
  0
ENDTAB
  0
TABLE
  2
DIMSTYLE
  5
A
100
AcDbSymbolTable
 70
1
100
AcDbDimStyleTable
 71
0
  0
DIMSTYLE
105
21F
100
AcDbSymbolTableRecord
100
AcDbDimStyleTableRecord
  2
STANDARD
 70
0
  3

  4

 40
1.0
 41
3.0
 42
0.0625
 43
0.38
 44
0.18
 45
0.0
 46
0.0
 47
0.01
 48
0.01
140
3.0
141
0.09
142
0.0
143
25.4
144
1.0
145
0.0
146
1.0
147
0.09
 71
1.0
 72
0.0
 73
0
 74
0
 75
0
 76
0
 77
1
 78
8
170
0
171
2
172
0
173
0
174
0
175
0
176
0
177
0
178
0
270
2
271
2
272
2
273
2
274
2
275
0
280
0
281
0
282
0
283
1
284
8
285
0
286
0
287
3
288
0
340
11
341
216
342
216
343
216
344
216
  0
DIMSTYLE
105
220
100
AcDbSymbolTableRecord
100
AcDbDimStyleTableRecord
  2
DIMSTYLE_1
 70
0
  3

  4

 40
1.0
 41
3.0
 42
0.0625
 43
0.38
 44
0.18
 45
0.0
 46
0.0
 47
0.0
 48
0.0
140
3.0
141
0.09
142
0.0
143
25.4
144
1.0
145
0.0
146
1.0
147
0.09
 71
0.0
 72
0.0
 73
0
 74
0
 75
0
 76
0
 77
1
 78
8
170
0
171
2
172
0
173
0
174
0
175
0
176
0
177
0
178
0
270
2
271
2
272
2
273
2
274
2
275
0
280
0
281
0
282
0
283
1
284
8
285
0
286
0
287
3
288
0
340
11
341
216
342
216
343
216
344
216
  0
ENDTAB
  0
ENDSEC
  0
SECTION
  2
BLOCKS
  0
BLOCK
  5
20
100
AcDbEntity
  8
0
100
AcDbBlockBegin
  2
*Model_Space
 70
0
 10
0.0
 20
0.0
 30
0.0
  3
*Model_Space
  1

  0
ENDBLK
  5
21
100
AcDbEntity
  8
0
100
AcDbBlockEnd
  0
BLOCK
  5
1C
100
AcDbEntity
  8
0
100
AcDbBlockBegin
  2
*Paper_Space
 70
0
 10
0.0
 20
0.0
 30
0.0
  3
*Paper_Space
  1

  0
ENDBLK
  5
1D
100
AcDbEntity
  8
0
100
AcDbBlockEnd
  0
BLOCK
  5
221
100
AcDbEntity
  8
0
100
AcDbBlockBegin
  2
_FILLED
 70
64
 10
0.0
 20
0.0
  3
_FILLED
  1

  0
SOLID
  5
222
100
AcDbEntity
  8
0
  6
BYBLOCK
 62
0
100
AcDbTrace
 10
0.0
 20
0.0
 11
-1.0
 21
0.3166666667
 12
-1.0
 22
-0.3166666667
 13
-1.0
 23
-0.3166666667
  0
ENDBLK
  5
223
100
AcDbEntity
  8
0
  6
BYBLOCK
 62
0
100
AcDbBlockEnd
  0
BLOCK
  5
224
100
AcDbEntity
  8
0
100
AcDbBlockBegin
  2
_NONE
 70
64
 10
0.0
 20
0.0
  3
_NONE
  1

  0
ENDBLK
  5
225
100
AcDbEntity
  8
0
  6
BYBLOCK
 62
0
100
AcDbBlockEnd
  0
BLOCK
  5
226
100
AcDbEntity
  8
0
100
AcDbBlockBegin
 62
7
  6
CONTINUOUS
  2
*D0
 70
65
 10
0.0
 20
0.0
  3
*D0
  1

  0
MTEXT
  5
227
100
AcDbEntity
  8
0
100
AcDbMText
 62
7
  6
CONTINUOUS
  7
STANDARD
 71
2
 72
1
 10
-140.7358581081
 20
80.75
 30
0.0
 11
1.0
 21
0.0
 31
0.0
 44
0.9
  1
75,3
 40
3.0
 41
8.3571428571
  0
LINE
  5
228
100
AcDbEntity
  8
0
100
AcDbLine
 62
7
  6
CONTINUOUS
 10
-103.0858581081
 20
35.4698652411
 11
-103.0858581081
 21
78.5
  0
LINE
  5
229
100
AcDbEntity
  8
0
100
AcDbLine
 62
7
  6
CONTINUOUS
 10
-178.3858581081
 20
57.4999996053
 11
-178.3858581081
 21
78.5
  0
LINE
  5
22A
100
AcDbEntity
  8
0
100
AcDbLine
 62
7
  6
CONTINUOUS
 10
-103.0858581081
 20
77.0
 11
-140.7358581081
 21
77.0
  0
LINE
  5
22B
100
AcDbEntity
  8
0
100
AcDbLine
 62
7
  6
CONTINUOUS
 10
-178.3858581081
 20
77.0
 11
-140.7358581081
 21
77.0
  0
INSERT
  5
22C
100
AcDbEntity
  8
0
100
AcDbBlockReference
 62
7
  6
CONTINUOUS
  2
_FILLED
 10
-103.0858581081
 20
77.0
 41
3.0
 42
3.0
 43
3.0
  0
INSERT
  5
22D
100
AcDbEntity
  8
0
100
AcDbBlockReference
 62
7
  6
CONTINUOUS
  2
_FILLED
 10
-178.3858581081
 20
77.0
 41
3.0
 42
3.0
 43
3.0
 50
180.0
  0
ENDBLK
  5
22E
100
AcDbEntity
  8
0
  6
BYBLOCK
 62
0
100
AcDbBlockEnd
  0
BLOCK
  5
22F
100
AcDbEntity
  8
0
100
AcDbBlockBegin
 62
7
  6
CONTINUOUS
  2
*D1
 70
65
 10
0.0
 20
0.0
  3
*D1
  1

  0
MTEXT
  5
230
100
AcDbEntity
  8
0
100
AcDbMText
 62
7
  6
CONTINUOUS
  7
STANDARD
 71
2
 72
1
 10
-138.0858581081
 20
70.75
 30
0.0
 11
1.0
 21
0.0
 31
0.0
 44
0.9
  1
70
 40
3.0
 41
4.7142857143
  0
LINE
  5
231
100
AcDbEntity
  8
0
100
AcDbLine
 62
7
  6
CONTINUOUS
 10
-173.0858581081
 20
59.5
 11
-173.0858581081
 21
68.5
  0
LINE
  5
232
100
AcDbEntity
  8
0
100
AcDbLine
 62
7
  6
CONTINUOUS
 10
-103.0858581081
 20
35.4698652411
 11
-103.0858581081
 21
68.5
  0
LINE
  5
233
100
AcDbEntity
  8
0
100
AcDbLine
 62
7
  6
CONTINUOUS
 10
-173.0858581081
 20
67.0
 11
-138.0858581081
 21
67.0
  0
LINE
  5
234
100
AcDbEntity
  8
0
100
AcDbLine
 62
7
  6
CONTINUOUS
 10
-103.0858581081
 20
67.0
 11
-138.0858581081
 21
67.0
  0
INSERT
  5
235
100
AcDbEntity
  8
0
100
AcDbBlockReference
 62
7
  6
CONTINUOUS
  2
_FILLED
 10
-173.0858581081
 20
67.0
 41
3.0
 42
3.0
 43
3.0
 50
180.0
  0
INSERT
  5
236
100
AcDbEntity
  8
0
100
AcDbBlockReference
 62
7
  6
CONTINUOUS
  2
_FILLED
 10
-103.0858581081
 20
67.0
 41
3.0
 42
3.0
 43
3.0
  0
ENDBLK
  5
237
100
AcDbEntity
  8
0
  6
BYBLOCK
 62
0
100
AcDbBlockEnd
  0
BLOCK
  5
238
100
AcDbEntity
  8
0
100
AcDbBlockBegin
 62
7
  6
CONTINUOUS
  2
*D2
 70
65
 10
0.0
 20
0.0
  3
*D2
  1

  0
MTEXT
  5
239
100
AcDbEntity
  8
0
100
AcDbMText
 62
7
  6
CONTINUOUS
  7
STANDARD
 71
3
 72
1
 10
-182.5230701782
 20
70.75
 30
0.0
 11
1.0
 21
0.0
 31
0.0
 44
0.9
  1
5,3
 40
3.0
 41
6.0
  0
LINE
  5
23A
100
AcDbEntity
  8
0
100
AcDbLine
 62
7
  6
CONTINUOUS
 10
-173.0858581081
 20
59.5
 11
-173.0858581081
 21
68.5
  0
LINE
  5
23B
100
AcDbEntity
  8
0
100
AcDbLine
 62
7
  6
CONTINUOUS
 10
-178.3858581081
 20
57.4999996053
 11
-178.3858581081
 21
68.5
  0
LINE
  5
23C
100
AcDbEntity
  8
0
100
AcDbLine
 62
7
  6
CONTINUOUS
 10
-173.0858581081
 20
67.0
 11
-169.0858581081
 21
67.0
  0
LINE
  5
23D
100
AcDbEntity
  8
0
100
AcDbLine
 62
7
  6
CONTINUOUS
 10
-169.0858581081
 20
67.0
 11
-175.7358581081
 21
67.0
  0
LINE
  5
23E
100
AcDbEntity
  8
0
100
AcDbLine
 62
7
  6
CONTINUOUS
 10
-178.3858581081
 20
67.0
 11
-188.5230701782
 21
67.0
  0
LINE
  5
23F
100
AcDbEntity
  8
0
100
AcDbLine
 62
7
  6
CONTINUOUS
 10
-188.5230701782
 20
67.0
 11
-175.7358581081
 21
67.0
  0
INSERT
  5
240
100
AcDbEntity
  8
0
100
AcDbBlockReference
 62
7
  6
CONTINUOUS
  2
_NONE
 10
-173.0858581081
 20
67.0
 41
3.0
 42
3.0
 43
3.0
 50
180.0
  0
INSERT
  5
241
100
AcDbEntity
  8
0
100
AcDbBlockReference
 62
7
  6
CONTINUOUS
  2
_FILLED
 10
-178.3858581081
 20
67.0
 41
3.0
 42
3.0
 43
3.0
  0
ENDBLK
  5
242
100
AcDbEntity
  8
0
  6
BYBLOCK
 62
0
100
AcDbBlockEnd
  0
BLOCK
  5
243
100
AcDbEntity
  8
0
100
AcDbBlockBegin
 62
7
  6
CONTINUOUS
  2
*D3
 70
65
 10
0.0
 20
0.0
  3
*D3
  1

  0
MTEXT
  5
244
100
AcDbEntity
  8
0
100
AcDbMText
 62
7
  6
CONTINUOUS
  7
STANDARD
 71
2
 72
1
 10
0.0
 20
80.75
 30
0.0
 11
1.0
 21
0.0
 31
0.0
 44
0.9
  1
142
 40
3.0
 41
6.4285714286
  0
LINE
  5
245
100
AcDbEntity
  8
0
100
AcDbLine
 62
7
  6
CONTINUOUS
 10
71.0
 20
49.4999999986
 11
71.0
 21
78.5
  0
LINE
  5
246
100
AcDbEntity
  8
0
100
AcDbLine
 62
7
  6
CONTINUOUS
 10
-71.0
 20
49.5
 11
-71.0
 21
78.5
  0
LINE
  5
247
100
AcDbEntity
  8
0
100
AcDbLine
 62
7
  6
CONTINUOUS
 10
71.0
 20
77.0
 11
0.0
 21
77.0
  0
LINE
  5
248
100
AcDbEntity
  8
0
100
AcDbLine
 62
7
  6
CONTINUOUS
 10
-71.0
 20
77.0
 11
0.0
 21
77.0
  0
INSERT
  5
249
100
AcDbEntity
  8
0
100
AcDbBlockReference
 62
7
  6
CONTINUOUS
  2
_FILLED
 10
71.0
 20
77.0
 41
3.0
 42
3.0
 43
3.0
  0
INSERT
  5
24A
100
AcDbEntity
  8
0
100
AcDbBlockReference
 62
7
  6
CONTINUOUS
  2
_FILLED
 10
-71.0
 20
77.0
 41
3.0
 42
3.0
 43
3.0
 50
180.0
  0
ENDBLK
  5
24B
100
AcDbEntity
  8
0
  6
BYBLOCK
 62
0
100
AcDbBlockEnd
  0
BLOCK
  5
24C
100
AcDbEntity
  8
0
100
AcDbBlockBegin
 62
7
  6
CONTINUOUS
  2
*D4
 70
65
 10
0.0
 20
0.0
  3
*D4
  1

  0
MTEXT
  5
24D
100
AcDbEntity
  8
0
100
AcDbMText
 62
7
  6
CONTINUOUS
  7
STANDARD
 71
2
 72
1
 10
85.25
 20
-0.0
 30
0.0
 11
0.0
 21
1.0
 31
0.0
 44
0.9
  1
118
 40
3.0
 41
5.7857142857
  0
LINE
  5
24E
100
AcDbEntity
  8
0
100
AcDbLine
 62
7
  6
CONTINUOUS
 10
61.5
 20
59.0
 11
90.5
 21
59.0
  0
LINE
  5
24F
100
AcDbEntity
  8
0
100
AcDbLine
 62
7
  6
CONTINUOUS
 10
61.4999999986
 20
-59.0
 11
90.5
 21
-59.0
  0
LINE
  5
250
100
AcDbEntity
  8
0
100
AcDbLine
 62
7
  6
CONTINUOUS
 10
89.0
 20
59.0
 11
89.0
 21
-0.0
  0
LINE
  5
251
100
AcDbEntity
  8
0
100
AcDbLine
 62
7
  6
CONTINUOUS
 10
89.0
 20
-59.0
 11
89.0
 21
-0.0
  0
INSERT
  5
252
100
AcDbEntity
  8
0
100
AcDbBlockReference
 62
7
  6
CONTINUOUS
  2
_FILLED
 10
89.0
 20
59.0
 41
3.0
 42
3.0
 43
3.0
 50
90.0
  0
INSERT
  5
253
100
AcDbEntity
  8
0
100
AcDbBlockReference
 62
7
  6
CONTINUOUS
  2
_FILLED
 10
89.0
 20
-59.0
 41
3.0
 42
3.0
 43
3.0
 50
270.0
  0
ENDBLK
  5
254
100
AcDbEntity
  8
0
  6
BYBLOCK
 62
0
100
AcDbBlockEnd
  0
BLOCK
  5
255
100
AcDbEntity
  8
0
100
AcDbBlockBegin
 62
7
  6
CONTINUOUS
  2
*D5
 70
65
 10
0.0
 20
0.0
  3
*D5
  1

  0
MTEXT
  5
256
100
AcDbEntity
  8
0
100
AcDbMText
 62
7
  6
CONTINUOUS
  7
STANDARD
 71
2
 72
1
 10
0.0
 20
70.75
 30
0.0
 11
1.0
 21
0.0
 31
0.0
 44
0.9
  1
102
 40
3.0
 41
6.4285714286
  0
LINE
  5
257
100
AcDbEntity
  8
0
100
AcDbLine
 62
7
  6
CONTINUOUS
 10
-51.0
 20
39.5
 11
-51.0
 21
68.5
  0
LINE
  5
258
100
AcDbEntity
  8
0
100
AcDbLine
 62
7
  6
CONTINUOUS
 10
51.0
 20
39.5
 11
51.0
 21
68.5
  0
LINE
  5
259
100
AcDbEntity
  8
0
100
AcDbLine
 62
7
  6
CONTINUOUS
 10
-51.0
 20
67.0
 11
0.0
 21
67.0
  0
LINE
  5
25A
100
AcDbEntity
  8
0
100
AcDbLine
 62
7
  6
CONTINUOUS
 10
51.0
 20
67.0
 11
0.0
 21
67.0
  0
INSERT
  5
25B
100
AcDbEntity
  8
0
100
AcDbBlockReference
 62
7
  6
CONTINUOUS
  2
_FILLED
 10
-51.0
 20
67.0
 41
3.0
 42
3.0
 43
3.0
 50
180.0
  0
INSERT
  5
25C
100
AcDbEntity
  8
0
100
AcDbBlockReference
 62
7
  6
CONTINUOUS
  2
_FILLED
 10
51.0
 20
67.0
 41
3.0
 42
3.0
 43
3.0
  0
ENDBLK
  5
25D
100
AcDbEntity
  8
0
  6
BYBLOCK
 62
0
100
AcDbBlockEnd
  0
BLOCK
  5
25E
100
AcDbEntity
  8
0
100
AcDbBlockBegin
 62
7
  6
CONTINUOUS
  2
*D6
 70
65
 10
0.0
 20
0.0
  3
*D6
  1

  0
MTEXT
  5
25F
100
AcDbEntity
  8
0
100
AcDbMText
 62
7
  6
CONTINUOUS
  7
STANDARD
 71
2
 72
1
 10
75.25
 20
0.0
 30
0.0
 11
0.0
 21
1.0
 31
0.0
 44
0.9
  1
78
 40
3.0
 41
4.7142857143
  0
LINE
  5
260
100
AcDbEntity
  8
0
100
AcDbLine
 62
7
  6
CONTINUOUS
 10
51.5
 20
39.0
 11
80.5
 21
39.0
  0
LINE
  5
261
100
AcDbEntity
  8
0
100
AcDbLine
 62
7
  6
CONTINUOUS
 10
51.5
 20
-39.0
 11
80.5
 21
-39.0
  0
LINE
  5
262
100
AcDbEntity
  8
0
100
AcDbLine
 62
7
  6
CONTINUOUS
 10
79.0
 20
39.0
 11
79.0
 21
0.0
  0
LINE
  5
263
100
AcDbEntity
  8
0
100
AcDbLine
 62
7
  6
CONTINUOUS
 10
79.0
 20
-39.0
 11
79.0
 21
0.0
  0
INSERT
  5
264
100
AcDbEntity
  8
0
100
AcDbBlockReference
 62
7
  6
CONTINUOUS
  2
_FILLED
 10
79.0
 20
39.0
 41
3.0
 42
3.0
 43
3.0
 50
90.0
  0
INSERT
  5
265
100
AcDbEntity
  8
0
100
AcDbBlockReference
 62
7
  6
CONTINUOUS
  2
_FILLED
 10
79.0
 20
-39.0
 41
3.0
 42
3.0
 43
3.0
 50
270.0
  0
ENDBLK
  5
266
100
AcDbEntity
  8
0
  6
BYBLOCK
 62
0
100
AcDbBlockEnd
  0
ENDSEC
  0
SECTION
  2
ENTITIES
  0
DIMENSION
  5
267
100
AcDbEntity
  8
0
100
AcDbDimension
 62
7
  6
CONTINUOUS
  2
*D0
 10
-178.3858581081
 20
77.0
 11
-144.9144295367
 21
79.25
 70
160
 71
2
 42
75.3
  3
DIMSTYLE_1
100
AcDbAlignedDimension
 13
-103.0858581081
 23
35.4698652411
 14
-178.3858581081
 24
57.4999996053
 50
180.0
100
AcDbRotatedDimension
  0
DIMENSION
  5
268
100
AcDbEntity
  8
0
100
AcDbDimension
 62
7
  6
CONTINUOUS
  2
*D1
 10
-103.0858581081
 20
67.0
 11
-140.4430009653
 21
69.25
 70
160
 71
2
 42
70.0
  3
DIMSTYLE_1
100
AcDbAlignedDimension
 13
-173.0858581081
 23
59.5
 14
-103.0858581081
 24
35.4698652411
100
AcDbRotatedDimension
  0
DIMENSION
  5
269
100
AcDbEntity
  8
0
100
AcDbDimension
 62
7
  6
CONTINUOUS
  2
*D2
 10
-178.3858581081
 20
67.0
 11
-191.5230701782
 21
69.25
 70
160
 71
3
 42
5.3
  3
DIMSTYLE_1
100
AcDbAlignedDimension
 13
-173.0858581081
 23
59.5
 14
-178.3858581081
 24
57.4999996053
 50
180.0
100
AcDbRotatedDimension
1001
ACAD
1000
DSTYLE
1002
{
1070
173
1070
1
1070
6
1000
_NONE
1002
}
  0
DIMENSION
  5
26A
100
AcDbEntity
  8
0
100
AcDbDimension
 62
7
  6
CONTINUOUS
  2
*D3
 10
-71.0
 20
77.0
 11
-3.2142857143
 21
79.25
 70
160
 71
2
 42
142.0
  3
DIMSTYLE_1
100
AcDbAlignedDimension
 13
71.0
 23
49.4999999986
 14
-71.0
 24
49.5
 50
180.0
100
AcDbRotatedDimension
  0
DIMENSION
  5
26B
100
AcDbEntity
  8
0
100
AcDbDimension
 62
7
  6
CONTINUOUS
  2
*D4
 10
89.0
 20
-59.0
 11
88.0462129609
 21
-2.586204634
 70
160
 71
2
 42
118.0
  3
DIMSTYLE_1
100
AcDbAlignedDimension
 13
61.5
 23
59.0
 14
61.4999999986
 24
-59.0
 50
270.0
100
AcDbRotatedDimension
  0
DIMENSION
  5
26C
100
AcDbEntity
  8
0
100
AcDbDimension
 62
7
  6
CONTINUOUS
  2
*D5
 10
51.0
 20
67.0
 11
-3.2142857143
 21
69.25
 70
160
 71
2
 42
102.0
  3
DIMSTYLE_1
100
AcDbAlignedDimension
 13
-51.0
 23
39.5
 14
51.0
 24
39.5
100
AcDbRotatedDimension
  0
DIMENSION
  5
26D
100
AcDbEntity
  8
0
100
AcDbDimension
 62
7
  6
CONTINUOUS
  2
*D6
 10
79.0
 20
-39.0
 11
77.8061735237
 21
-2.1072778499
 70
160
 71
2
 42
78.0
  3
DIMSTYLE_1
100
AcDbAlignedDimension
 13
51.5
 23
39.0
 14
51.5
 24
-39.0
 50
270.0
100
AcDbRotatedDimension
  0
LINE
  5
26E
100
AcDbEntity
  8
RACCORDO
100
AcDbLine
 62
7
  6
CONTINUOUS
 10
-71.0
 20
49.0
 11
-71.0
 21
-49.0
  0
LINE
  5
26F
100
AcDbEntity
  8
RACCORDO
100
AcDbLine
 62
253
  6
CONTINUOUS
 10
-69.0
 20
49.0
 11
-69.0
 21
-49.0
  0
LINE
  5
270
100
AcDbEntity
  8
RACCORDO
100
AcDbLine
 62
253
  6
CONTINUOUS
 10
-61.0
 20
-57.0
 11
-61.0
 21
-59.0
  0
LINE
  5
271
100
AcDbEntity
  8
RACCORDO
100
AcDbLine
 62
253
  6
CONTINUOUS
 10
-61.0
 20
57.0
 11
-60.9999999986
 21
59.0
  0
LINE
  5
272
100
AcDbEntity
  8
0
100
AcDbLine
 62
7
  6
CONTINUOUS
 10
-51.5197234842
 20
39.5197234842
 11
-51.35
 21
40.0901949367
  0
LINE
  5
273
100
AcDbEntity
  8
0
100
AcDbLine
 62
7
  6
CONTINUOUS
 10
-50.65
 20
37.9098050633
 11
-50.4802765158
 21
38.4802765158
  0
LINE
  5
274
100
AcDbEntity
  8
RACCORDO
100
AcDbLine
 62
7
  6
CONTINUOUS
 10
-61.0
 20
-59.0
 11
61.0
 21
-59.0
  0
LINE
  5
275
100
AcDbEntity
  8
RACCORDO
100
AcDbLine
 62
253
  6
CONTINUOUS
 10
-61.0
 20
-57.0
 11
61.0
 21
-57.0
  0
LINE
  5
276
100
AcDbEntity
  8
0
100
AcDbLine
 62
7
  6
CONTINUOUS
 10
-51.5197234842
 20
-39.5197234842
 11
-51.35
 21
-40.0901949367
  0
LINE
  5
277
100
AcDbEntity
  8
0
100
AcDbLine
 62
7
  6
CONTINUOUS
 10
-50.65
 20
-37.9098050633
 11
-50.4802765158
 21
-38.4802765158
  0
LINE
  5
278
100
AcDbEntity
  8
0
100
AcDbLine
 62
7
  6
CONTINUOUS
 10
-52.145
 20
-39.35
 11
-52.145
 21
-38.65
  0
LINE
  5
279
100
AcDbEntity
  8
0
100
AcDbLine
 62
7
  6
CONTINUOUS
 10
-52.145
 20
38.65
 11
-52.145
 21
39.35
  0
LINE
  5
27A
100
AcDbEntity
  8
0
100
AcDbLine
 62
7
  6
CONTINUOUS
 10
-51.5
 20
-41.7041634566
 11
-51.5
 21
-39.5860176963
  0
LINE
  5
27B
100
AcDbEntity
  8
0
100
AcDbLine
 62
7
  6
CONTINUOUS
 10
-51.5
 20
-38.4139823037
 11
-51.5
 21
-36.2958365434
  0
LINE
  5
27C
100
AcDbEntity
  8
0
100
AcDbLine
 62
7
  6
CONTINUOUS
 10
-51.5
 20
36.2958365434
 11
-51.5
 21
38.4139823037
  0
LINE
  5
27D
100
AcDbEntity
  8
0
100
AcDbLine
 62
7
  6
CONTINUOUS
 10
-51.5
 20
39.5860176963
 11
-51.5
 21
41.7041634566
  0
LINE
  5
27E
100
AcDbEntity
  8
0
100
AcDbLine
 62
7
  6
CONTINUOUS
 10
-51.35
 20
-40.5937234472
 11
-51.35
 21
-40.0901949367
  0
LINE
  5
27F
100
AcDbEntity
  8
0
100
AcDbLine
 62
7
  6
CONTINUOUS
 10
-51.35
 20
-37.9098050633
 11
-51.35
 21
-37.4062765528
  0
LINE
  5
280
100
AcDbEntity
  8
0
100
AcDbLine
 62
7
  6
CONTINUOUS
 10
-51.35
 20
37.4062765528
 11
-51.35
 21
37.9098050633
  0
LINE
  5
281
100
AcDbEntity
  8
0
100
AcDbLine
 62
7
  6
CONTINUOUS
 10
-51.35
 20
40.0901949367
 11
-51.35
 21
40.5937234472
  0
LINE
  5
282
100
AcDbEntity
  8
0
100
AcDbLine
 62
7
  6
CONTINUOUS
 10
-50.65
 20
-40.5937234472
 11
-50.65
 21
-40.0901949367
  0
LINE
  5
283
100
AcDbEntity
  8
0
100
AcDbLine
 62
7
  6
CONTINUOUS
 10
-50.65
 20
-37.9098050633
 11
-50.65
 21
-37.4062765528
  0
LINE
  5
284
100
AcDbEntity
  8
0
100
AcDbLine
 62
7
  6
CONTINUOUS
 10
-50.65
 20
37.4062765528
 11
-50.65
 21
37.9098050633
  0
LINE
  5
285
100
AcDbEntity
  8
0
100
AcDbLine
 62
7
  6
CONTINUOUS
 10
-50.65
 20
40.0901949367
 11
-50.65
 21
40.5937234472
  0
LINE
  5
286
100
AcDbEntity
  8
0
100
AcDbLine
 62
7
  6
CONTINUOUS
 10
-50.5
 20
41.7041634566
 11
-50.5
 21
39.5860176963
  0
LINE
  5
287
100
AcDbEntity
  8
0
100
AcDbLine
 62
7
  6
CONTINUOUS
 10
-50.5
 20
38.4139823037
 11
-50.5
 21
36.2958365434
  0
LINE
  5
288
100
AcDbEntity
  8
0
100
AcDbLine
 62
7
  6
CONTINUOUS
 10
-50.5
 20
-36.2958365434
 11
-50.5
 21
-38.4139823037
  0
LINE
  5
289
100
AcDbEntity
  8
0
100
AcDbLine
 62
7
  6
CONTINUOUS
 10
-50.5
 20
-39.5860176963
 11
-50.5
 21
-41.7041634566
  0
LINE
  5
28A
100
AcDbEntity
  8
0
100
AcDbLine
 62
7
  6
CONTINUOUS
 10
-49.855
 20
39.35
 11
-49.855
 21
38.65
  0
LINE
  5
28B
100
AcDbEntity
  8
0
100
AcDbLine
 62
7
  6
CONTINUOUS
 10
-49.855
 20
-38.65
 11
-49.855
 21
-39.35
  0
LINE
  5
28C
100
AcDbEntity
  8
0
100
AcDbLine
 62
7
  6
CONTINUOUS
 10
-52.0901949367
 20
39.35
 11
-51.5197234842
 21
39.5197234842
  0
LINE
  5
28D
100
AcDbEntity
  8
0
100
AcDbLine
 62
7
  6
CONTINUOUS
 10
-49.9098050633
 20
38.65
 11
-50.4802765158
 21
38.4802765158
  0
LINE
  5
28E
100
AcDbEntity
  8
RACCORDO
100
AcDbLine
 62
253
  6
CONTINUOUS
 10
69.0
 20
-49.0
 11
71.0
 21
-49.0
  0
LINE
  5
28F
100
AcDbEntity
  8
RACCORDO
100
AcDbLine
 62
253
  6
CONTINUOUS
 10
-69.0
 20
-49.0
 11
-71.0
 21
-48.9999999986
  0
LINE
  5
290
100
AcDbEntity
  8
0
100
AcDbLine
 62
7
  6
CONTINUOUS
 10
-51.5197234842
 20
-39.5197234842
 11
-52.0901949367
 21
-39.35
  0
LINE
  5
291
100
AcDbEntity
  8
0
100
AcDbLine
 62
7
  6
CONTINUOUS
 10
-50.4802765158
 20
-38.4802765158
 11
-49.9098050633
 21
-38.65
  0
LINE
  5
292
100
AcDbEntity
  8
0
100
AcDbLine
 62
7
  6
CONTINUOUS
 10
-51.35
 20
-37.9098050633
 11
-51.5197234842
 21
-38.4802765158
  0
LINE
  5
293
100
AcDbEntity
  8
0
100
AcDbLine
 62
7
  6
CONTINUOUS
 10
-50.4802765158
 20
-39.5197234842
 11
-50.65
 21
-40.0901949367
  0
LINE
  5
294
100
AcDbEntity
  8
0
100
AcDbLine
 62
7
  6
CONTINUOUS
 10
-51.35
 20
-40.5937234472
 11
-50.65
 21
-40.5937234472
  0
LINE
  5
295
100
AcDbEntity
  8
0
100
AcDbLine
 62
7
  6
CONTINUOUS
 10
50.65
 20
-40.5937234472
 11
51.35
 21
-40.5937234472
  0
LINE
  5
296
100
AcDbEntity
  8
0
100
AcDbLine
 62
7
  6
CONTINUOUS
 10
51.35
 20
-40.145
 11
50.65
 21
-40.145
  0
LINE
  5
297
100
AcDbEntity
  8
0
100
AcDbLine
 62
7
  6
CONTINUOUS
 10
-50.65
 20
-40.145
 11
-51.35
 21
-40.145
  0
LINE
  5
298
100
AcDbEntity
  8
0
100
AcDbLine
 62
7
  6
CONTINUOUS
 10
52.9418577643
 20
-39.35
 11
52.0901949367
 21
-39.35
  0
LINE
  5
299
100
AcDbEntity
  8
0
100
AcDbLine
 62
7
  6
CONTINUOUS
 10
49.9098050633
 20
-39.35
 11
49.0581422357
 21
-39.35
  0
LINE
  5
29A
100
AcDbEntity
  8
0
100
AcDbLine
 62
7
  6
CONTINUOUS
 10
-49.0581422357
 20
-39.35
 11
-49.9098050633
 21
-39.35
  0
LINE
  5
29B
100
AcDbEntity
  8
0
100
AcDbLine
 62
7
  6
CONTINUOUS
 10
-52.0901949367
 20
-39.35
 11
-52.9418577643
 21
-39.35
  0
LINE
  5
29C
100
AcDbEntity
  8
0
100
AcDbLine
 62
7
  6
CONTINUOUS
 10
52.9418577643
 20
-38.65
 11
52.0901949367
 21
-38.65
  0
LINE
  5
29D
100
AcDbEntity
  8
0
100
AcDbLine
 62
7
  6
CONTINUOUS
 10
49.9098050633
 20
-38.65
 11
49.0581422357
 21
-38.65
  0
LINE
  5
29E
100
AcDbEntity
  8
0
100
AcDbLine
 62
7
  6
CONTINUOUS
 10
-49.0581422357
 20
-38.65
 11
-49.9098050633
 21
-38.65
  0
LINE
  5
29F
100
AcDbEntity
  8
0
100
AcDbLine
 62
7
  6
CONTINUOUS
 10
-52.0901949367
 20
-38.65
 11
-52.9418577643
 21
-38.65
  0
LINE
  5
2A0
100
AcDbEntity
  8
0
100
AcDbLine
 62
7
  6
CONTINUOUS
 10
-51.35
 20
-37.855
 11
-50.65
 21
-37.855
  0
LINE
  5
2A1
100
AcDbEntity
  8
0
100
AcDbLine
 62
7
  6
CONTINUOUS
 10
50.65
 20
-37.855
 11
51.35
 21
-37.855
  0
LINE
  5
2A2
100
AcDbEntity
  8
0
100
AcDbLine
 62
7
  6
CONTINUOUS
 10
-51.35
 20
-37.4062765528
 11
-50.65
 21
-37.4062765528
  0
LINE
  5
2A3
100
AcDbEntity
  8
0
100
AcDbLine
 62
7
  6
CONTINUOUS
 10
50.65
 20
-37.4062765528
 11
51.35
 21
-37.4062765528
  0
LINE
  5
2A4
100
AcDbEntity
  8
0
100
AcDbLine
 62
7
  6
CONTINUOUS
 10
-51.35
 20
37.9098050633
 11
-51.5197234842
 21
38.4802765158
  0
LINE
  5
2A5
100
AcDbEntity
  8
0
100
AcDbLine
 62
7
  6
CONTINUOUS
 10
-50.4802765158
 20
39.5197234842
 11
-50.65
 21
40.0901949367
  0
LINE
  5
2A6
100
AcDbEntity
  8
0
100
AcDbLine
 62
7
  6
CONTINUOUS
 10
49.9098050633
 20
39.35
 11
50.4802765158
 21
39.5197234842
  0
LINE
  5
2A7
100
AcDbEntity
  8
0
100
AcDbLine
 62
7
  6
CONTINUOUS
 10
52.0901949367
 20
38.65
 11
51.5197234842
 21
38.4802765158
  0
LINE
  5
2A8
100
AcDbEntity
  8
0
100
AcDbLine
 62
7
  6
CONTINUOUS
 10
50.4802765158
 20
-39.5197234842
 11
49.9098050633
 21
-39.35
  0
LINE
  5
2A9
100
AcDbEntity
  8
0
100
AcDbLine
 62
7
  6
CONTINUOUS
 10
51.5197234842
 20
-38.4802765158
 11
52.0901949367
 21
-38.65
  0
LINE
  5
2AA
100
AcDbEntity
  8
0
100
AcDbLine
 62
7
  6
CONTINUOUS
 10
-52.0901949367
 20
-38.65
 11
-51.5197234842
 21
-38.4802765158
  0
LINE
  5
2AB
100
AcDbEntity
  8
0
100
AcDbLine
 62
7
  6
CONTINUOUS
 10
-49.9098050633
 20
-39.35
 11
-50.4802765158
 21
-39.5197234842
  0
LINE
  5
2AC
100
AcDbEntity
  8
0
100
AcDbLine
 62
7
  6
CONTINUOUS
 10
-51.5197234842
 20
38.4802765158
 11
-52.0901949367
 21
38.65
  0
LINE
  5
2AD
100
AcDbEntity
  8
0
100
AcDbLine
 62
7
  6
CONTINUOUS
 10
-50.4802765158
 20
39.5197234842
 11
-49.9098050633
 21
39.35
  0
LINE
  5
2AE
100
AcDbEntity
  8
0
100
AcDbLine
 62
7
  6
CONTINUOUS
 10
50.4802765158
 20
39.5197234842
 11
50.65
 21
40.0901949367
  0
LINE
  5
2AF
100
AcDbEntity
  8
0
100
AcDbLine
 62
7
  6
CONTINUOUS
 10
-51.35
 20
37.4062765528
 11
-50.65
 21
37.4062765528
  0
LINE
  5
2B0
100
AcDbEntity
  8
0
100
AcDbLine
 62
7
  6
CONTINUOUS
 10
50.65
 20
37.4062765528
 11
51.35
 21
37.4062765528
  0
LINE
  5
2B1
100
AcDbEntity
  8
0
100
AcDbLine
 62
7
  6
CONTINUOUS
 10
50.4802765158
 20
-39.5197234842
 11
50.65
 21
-40.0901949367
  0
LINE
  5
2B2
100
AcDbEntity
  8
0
100
AcDbLine
 62
7
  6
CONTINUOUS
 10
51.35
 20
37.9098050633
 11
51.5197234842
 21
38.4802765158
  0
LINE
  5
2B3
100
AcDbEntity
  8
0
100
AcDbLine
 62
7
  6
CONTINUOUS
 10
51.35
 20
37.855
 11
50.65
 21
37.855
  0
LINE
  5
2B4
100
AcDbEntity
  8
0
100
AcDbLine
 62
7
  6
CONTINUOUS
 10
-50.65
 20
37.855
 11
-51.35
 21
37.855
  0
LINE
  5
2B5
100
AcDbEntity
  8
0
100
AcDbLine
 62
7
  6
CONTINUOUS
 10
52.9418577643
 20
38.65
 11
52.0901949367
 21
38.65
  0
LINE
  5
2B6
100
AcDbEntity
  8
0
100
AcDbLine
 62
7
  6
CONTINUOUS
 10
49.9098050633
 20
38.65
 11
49.0581422357
 21
38.65
  0
LINE
  5
2B7
100
AcDbEntity
  8
0
100
AcDbLine
 62
7
  6
CONTINUOUS
 10
-49.0581422357
 20
38.65
 11
-49.9098050633
 21
38.65
  0
LINE
  5
2B8
100
AcDbEntity
  8
0
100
AcDbLine
 62
7
  6
CONTINUOUS
 10
-52.0901949367
 20
38.65
 11
-52.9418577643
 21
38.65
  0
LINE
  5
2B9
100
AcDbEntity
  8
0
100
AcDbLine
 62
7
  6
CONTINUOUS
 10
52.9418577643
 20
39.35
 11
52.0901949367
 21
39.35
  0
LINE
  5
2BA
100
AcDbEntity
  8
0
100
AcDbLine
 62
7
  6
CONTINUOUS
 10
49.9098050633
 20
39.35
 11
49.0581422357
 21
39.35
  0
LINE
  5
2BB
100
AcDbEntity
  8
0
100
AcDbLine
 62
7
  6
CONTINUOUS
 10
-49.0581422357
 20
39.35
 11
-49.9098050633
 21
39.35
  0
LINE
  5
2BC
100
AcDbEntity
  8
0
100
AcDbLine
 62
7
  6
CONTINUOUS
 10
-52.0901949367
 20
39.35
 11
-52.9418577643
 21
39.35
  0
LINE
  5
2BD
100
AcDbEntity
  8
0
100
AcDbLine
 62
7
  6
CONTINUOUS
 10
-51.35
 20
40.145
 11
-50.65
 21
40.145
  0
LINE
  5
2BE
100
AcDbEntity
  8
0
100
AcDbLine
 62
7
  6
CONTINUOUS
 10
50.65
 20
40.145
 11
51.35
 21
40.145
  0
LINE
  5
2BF
100
AcDbEntity
  8
0
100
AcDbLine
 62
7
  6
CONTINUOUS
 10
-51.35
 20
40.5937234472
 11
-50.65
 21
40.5937234472
  0
LINE
  5
2C0
100
AcDbEntity
  8
0
100
AcDbLine
 62
7
  6
CONTINUOUS
 10
50.65
 20
40.5937234472
 11
51.35
 21
40.5937234472
  0
LINE
  5
2C1
100
AcDbEntity
  8
0
100
AcDbLine
 62
7
  6
CONTINUOUS
 10
51.35
 20
-37.9098050633
 11
51.5197234842
 21
-38.4802765158
  0
LINE
  5
2C2
100
AcDbEntity
  8
0
100
AcDbLine
 62
7
  6
CONTINUOUS
 10
49.855
 20
-39.35
 11
49.855
 21
-38.65
  0
LINE
  5
2C3
100
AcDbEntity
  8
0
100
AcDbLine
 62
7
  6
CONTINUOUS
 10
49.855
 20
38.65
 11
49.855
 21
39.35
  0
LINE
  5
2C4
100
AcDbEntity
  8
RACCORDO
100
AcDbLine
 62
253
  6
CONTINUOUS
 10
69.0
 20
49.0
 11
71.0
 21
48.9999999986
  0
LINE
  5
2C5
100
AcDbEntity
  8
RACCORDO
100
AcDbLine
 62
253
  6
CONTINUOUS
 10
-69.0
 20
49.0
 11
-71.0
 21
49.0
  0
LINE
  5
2C6
100
AcDbEntity
  8
0
100
AcDbLine
 62
7
  6
CONTINUOUS
 10
50.5
 20
-41.7041634566
 11
50.5
 21
-39.5860176963
  0
LINE
  5
2C7
100
AcDbEntity
  8
0
100
AcDbLine
 62
7
  6
CONTINUOUS
 10
50.5
 20
-38.4139823037
 11
50.5
 21
-36.2958365434
  0
LINE
  5
2C8
100
AcDbEntity
  8
0
100
AcDbLine
 62
7
  6
CONTINUOUS
 10
50.5
 20
36.2958365434
 11
50.5
 21
38.4139823037
  0
LINE
  5
2C9
100
AcDbEntity
  8
0
100
AcDbLine
 62
7
  6
CONTINUOUS
 10
50.5
 20
39.5860176963
 11
50.5
 21
41.7041634566
  0
LINE
  5
2CA
100
AcDbEntity
  8
0
100
AcDbLine
 62
7
  6
CONTINUOUS
 10
50.65
 20
-40.5937234472
 11
50.65
 21
-40.0901949367
  0
LINE
  5
2CB
100
AcDbEntity
  8
0
100
AcDbLine
 62
7
  6
CONTINUOUS
 10
50.65
 20
-37.9098050633
 11
50.65
 21
-37.4062765528
  0
LINE
  5
2CC
100
AcDbEntity
  8
0
100
AcDbLine
 62
7
  6
CONTINUOUS
 10
50.65
 20
37.4062765528
 11
50.65
 21
37.9098050633
  0
LINE
  5
2CD
100
AcDbEntity
  8
0
100
AcDbLine
 62
7
  6
CONTINUOUS
 10
50.65
 20
40.0901949367
 11
50.65
 21
40.5937234472
  0
LINE
  5
2CE
100
AcDbEntity
  8
0
100
AcDbLine
 62
7
  6
CONTINUOUS
 10
51.35
 20
-40.5937234472
 11
51.35
 21
-40.0901949367
  0
LINE
  5
2CF
100
AcDbEntity
  8
0
100
AcDbLine
 62
7
  6
CONTINUOUS
 10
51.35
 20
-37.9098050633
 11
51.35
 21
-37.4062765528
  0
LINE
  5
2D0
100
AcDbEntity
  8
0
100
AcDbLine
 62
7
  6
CONTINUOUS
 10
51.35
 20
37.4062765528
 11
51.35
 21
37.9098050633
  0
LINE
  5
2D1
100
AcDbEntity
  8
0
100
AcDbLine
 62
7
  6
CONTINUOUS
 10
51.35
 20
40.0901949367
 11
51.35
 21
40.5937234472
  0
LINE
  5
2D2
100
AcDbEntity
  8
0
100
AcDbLine
 62
7
  6
CONTINUOUS
 10
51.5
 20
41.7041634566
 11
51.5
 21
39.5860176963
  0
LINE
  5
2D3
100
AcDbEntity
  8
0
100
AcDbLine
 62
7
  6
CONTINUOUS
 10
51.5
 20
38.4139823037
 11
51.5
 21
36.2958365434
  0
LINE
  5
2D4
100
AcDbEntity
  8
0
100
AcDbLine
 62
7
  6
CONTINUOUS
 10
51.5
 20
-36.2958365434
 11
51.5
 21
-38.4139823037
  0
LINE
  5
2D5
100
AcDbEntity
  8
0
100
AcDbLine
 62
7
  6
CONTINUOUS
 10
51.5
 20
-39.5860176963
 11
51.5
 21
-41.7041634566
  0
LINE
  5
2D6
100
AcDbEntity
  8
0
100
AcDbLine
 62
7
  6
CONTINUOUS
 10
52.145
 20
39.35
 11
52.145
 21
38.65
  0
LINE
  5
2D7
100
AcDbEntity
  8
0
100
AcDbLine
 62
7
  6
CONTINUOUS
 10
52.145
 20
-38.65
 11
52.145
 21
-39.35
  0
LINE
  5
2D8
100
AcDbEntity
  8
0
100
AcDbLine
 62
7
  6
CONTINUOUS
 10
49.9098050633
 20
-38.65
 11
50.4802765158
 21
-38.4802765158
  0
LINE
  5
2D9
100
AcDbEntity
  8
0
100
AcDbLine
 62
7
  6
CONTINUOUS
 10
52.0901949367
 20
-39.35
 11
51.5197234842
 21
-39.5197234842
  0
LINE
  5
2DA
100
AcDbEntity
  8
0
100
AcDbLine
 62
7
  6
CONTINUOUS
 10
50.4802765158
 20
38.4802765158
 11
49.9098050633
 21
38.65
  0
LINE
  5
2DB
100
AcDbEntity
  8
0
100
AcDbLine
 62
7
  6
CONTINUOUS
 10
51.5197234842
 20
39.5197234842
 11
52.0901949367
 21
39.35
  0
LINE
  5
2DC
100
AcDbEntity
  8
RACCORDO
100
AcDbLine
 62
253
  6
CONTINUOUS
 10
61.0
 20
-57.0
 11
60.9999999986
 21
-59.0
  0
LINE
  5
2DD
100
AcDbEntity
  8
RACCORDO
100
AcDbLine
 62
253
  6
CONTINUOUS
 10
61.0
 20
57.0
 11
61.0
 21
59.0
  0
LINE
  5
2DE
100
AcDbEntity
  8
0
100
AcDbLine
 62
7
  6
CONTINUOUS
 10
50.65
 20
-37.9098050633
 11
50.4802765158
 21
-38.4802765158
  0
LINE
  5
2DF
100
AcDbEntity
  8
0
100
AcDbLine
 62
7
  6
CONTINUOUS
 10
51.5197234842
 20
-39.5197234842
 11
51.35
 21
-40.0901949367
  0
LINE
  5
2E0
100
AcDbEntity
  8
RACCORDO
100
AcDbLine
 62
253
  6
CONTINUOUS
 10
61.0
 20
57.0
 11
-61.0
 21
57.0
  0
LINE
  5
2E1
100
AcDbEntity
  8
RACCORDO
100
AcDbLine
 62
7
  6
CONTINUOUS
 10
61.0
 20
59.0
 11
-61.0
 21
59.0
  0
LINE
  5
2E2
100
AcDbEntity
  8
0
100
AcDbLine
 62
7
  6
CONTINUOUS
 10
50.65
 20
37.9098050633
 11
50.4802765158
 21
38.4802765158
  0
LINE
  5
2E3
100
AcDbEntity
  8
0
100
AcDbLine
 62
7
  6
CONTINUOUS
 10
51.5197234842
 20
39.5197234842
 11
51.35
 21
40.0901949367
  0
LINE
  5
2E4
100
AcDbEntity
  8
RACCORDO
100
AcDbLine
 62
253
  6
CONTINUOUS
 10
69.0
 20
-49.0
 11
69.0
 21
49.0
  0
LINE
  5
2E5
100
AcDbEntity
  8
RACCORDO
100
AcDbLine
 62
7
  6
CONTINUOUS
 10
71.0
 20
-49.0
 11
71.0
 21
49.0
  0
LINE
  5
2E6
100
AcDbEntity
  8
RACCORDO
100
AcDbLine
 62
7
  6
CONTINUOUS
 10
-173.0858581081
 20
-59.0
 11
-176.3858581081
 21
-59.0
  0
LINE
  5
2E7
100
AcDbEntity
  8
ASSI
100
AcDbLine
 62
7
  6
CONTINUOUS
 10
-173.0858581081
 20
-59.0
 11
-176.3858581081
 21
-59.0
  0
LINE
  5
2E8
100
AcDbEntity
  8
DRAFT
100
AcDbLine
 62
7
  6
CONTINUOUS
 10
-161.0858581081
 20
51.3
 11
-169.8205984374
 21
46.2569953196
  0
LINE
  5
2E9
100
AcDbEntity
  8
RACCORDO
100
AcDbLine
 62
7
  6
CONTINUOUS
 10
-158.0684057017
 20
-52.9473301723
 11
-161.0858581081
 21
-53.0
  0
LINE
  5
2EA
100
AcDbEntity
  8
DRAFT
100
AcDbLine
 62
7
  6
CONTINUOUS
 10
-170.1858581081
 20
-53.5
 11
-165.3858581081
 21
-53.5
  0
LINE
  5
2EB
100
AcDbEntity
  8
RACCORDO
100
AcDbLine
 62
253
  6
CONTINUOUS
 10
-173.0858581081
 20
-51.8078419577
 11
-172.1033105145
 21
-51.8078419577
  0
LINE
  5
2EC
100
AcDbEntity
  8
RACCORDO
100
AcDbLine
 62
7
  6
CONTINUOUS
 10
-172.1033105145
 20
-52.8076896529
 11
-161.0858581081
 21
-53.0
  0
LINE
  5
2ED
100
AcDbEntity
  8
RACCORDO
100
AcDbLine
 62
253
  6
CONTINUOUS
 10
-172.1033105145
 20
-51.8078419577
 11
-161.0858581081
 21
-52.0001523048
  0
LINE
  5
2EE
100
AcDbEntity
  8
DRAFT
100
AcDbLine
 62
7
  6
CONTINUOUS
 10
-169.8205984374
 20
-46.2569953196
 11
-161.0858581081
 21
-51.3
  0
LINE
  5
2EF
100
AcDbEntity
  8
RACCORDO
100
AcDbLine
 62
253
  6
CONTINUOUS
 10
-173.0858581081
 20
-49.0
 11
-178.3858581081
 21
-49.0
  0
LINE
  5
2F0
100
AcDbEntity
  8
DRAFT
100
AcDbLine
 62
7
  6
CONTINUOUS
 10
-161.0858581081
 20
-46.4094607791
 11
-173.0858581081
 21
-46.2
  0
LINE
  5
2F1
100
AcDbEntity
  8
DRAFT
100
AcDbLine
 62
7
  6
CONTINUOUS
 10
-157.0858581081
 20
-44.2207189611
 11
-106.0858581081
 21
-43.3305106498
  0
LINE
  5
2F2
100
AcDbEntity
  8
RACCORDO
100
AcDbLine
 62
7
  6
CONTINUOUS
 10
-106.0858581081
 20
-43.3305106498
 11
-106.0335008888
 21
-43.3295967511
  0
LINE
  5
2F3
100
AcDbEntity
  8
DRAFT
100
AcDbLine
 62
7
  6
CONTINUOUS
 10
-106.0858581081
 20
-41.975461607
 11
-157.0858581081
 21
-42.4161096901
  0
LINE
  5
2F4
100
AcDbEntity
  8
RACCORDO
100
AcDbLine
 62
7
  6
CONTINUOUS
 10
-178.3858581081
 20
-57.0
 11
-178.3858581081
 21
57.0
  0
LINE
  5
2F5
100
AcDbEntity
  8
DRAFT
100
AcDbLine
 62
7
  6
CONTINUOUS
 10
-157.0858581081
 20
-40.9311854497
 11
-106.0858581081
 21
-40.1128888656
  0
LINE
  5
2F6
100
AcDbEntity
  8
DRAFT
100
AcDbLine
 62
7
  6
CONTINUOUS
 10
-157.0858581081
 20
-39.1265761787
 11
-106.0858581081
 21
-38.7578398228
  0
LINE
  5
2F7
100
AcDbEntity
  8
DRAFT
100
AcDbLine
 62
7
  6
CONTINUOUS
 10
-106.0856990027
 20
-38.7882264455
 11
-103.5832401262
 21
-38.7751234818
  0
LINE
  5
2F8
100
AcDbEntity
  8
RACCORDO
100
AcDbLine
 62
7
  6
CONTINUOUS
 10
-114.5400595527
 20
-40.2485367904
 11
-103.5832401262
 21
-40.2247732354
  0
LINE
  5
2F9
100
AcDbEntity
  8
RACCORDO
100
AcDbLine
 62
253
  6
CONTINUOUS
 10
-103.5832401262
 20
-40.3300536657
 11
-103.0858581081
 21
-40.3300536657
  0
LINE
  5
2FA
100
AcDbEntity
  8
DRAFT
100
AcDbLine
 62
253
  6
CONTINUOUS
 10
-161.0858581081
 20
-37.7
 11
-173.0858581081
 21
-37.7
  0
LINE
  5
2FB
100
AcDbEntity
  8
DRAFT
100
AcDbLine
 62
7
  6
CONTINUOUS
 10
-156.4610999786
 20
-40.9211611861
 11
-106.0858581081
 21
-41.2941834326
  0
LINE
  5
2FC
100
AcDbEntity
  8
RACCORDO
100
AcDbLine
 62
253
  6
CONTINUOUS
 10
-176.3858581081
 20
-59.0
 11
-176.3858581081
 21
59.0
  0
LINE
  5
2FD
100
AcDbEntity
  8
0
100
AcDbLine
 62
7
  6
CONTINUOUS
 10
-173.0858581081
 20
-59.0
 11
-173.0858581081
 21
59.0
  0
LINE
  5
2FE
100
AcDbEntity
  8
RACCORDO
100
AcDbLine
 62
7
  6
CONTINUOUS
 10
-104.2858581081
 20
-33.35
 11
-157.0858581081
 21
-34.2716274282
  0
LINE
  5
2FF
100
AcDbEntity
  8
RACCORDO
100
AcDbLine
 62
7
  6
CONTINUOUS
 10
-103.5832401262
 20
-35.4698583872
 11
-106.0396091101
 21
-35.4827200227
  0
LINE
  5
300
100
AcDbEntity
  8
RACCORDO
100
AcDbLine
 62
253
  6
CONTINUOUS
 10
-106.0335008888
 20
-34.9827268766
 11
-106.0858581081
 21
-34.9830010208
  0
LINE
  5
301
100
AcDbEntity
  8
DRAFT
100
AcDbLine
 62
253
  6
CONTINUOUS
 10
-110.2858581081
 20
-33.25
 11
-107.0858581081
 21
-33.25
  0
LINE
  5
302
100
AcDbEntity
  8
RACCORDO
100
AcDbLine
 62
253
  6
CONTINUOUS
 10
-172.1033105145
 20
-51.8078419577
 11
-172.1033105145
 21
-46.217150432
  0
LINE
  5
303
100
AcDbEntity
  8
RACCORDO
100
AcDbLine
 62
253
  6
CONTINUOUS
 10
-172.1033105145
 20
46.217150432
 11
-172.1033105145
 21
51.8078419577
  0
LINE
  5
304
100
AcDbEntity
  8
DRAFT
100
AcDbLine
 62
7
  6
CONTINUOUS
 10
-170.1858581081
 20
-52.8411589092
 11
-170.1858581081
 21
-53.5
  0
LINE
  5
305
100
AcDbEntity
  8
DRAFT
100
AcDbLine
 62
7
  6
CONTINUOUS
 10
-170.1858581081
 20
52.8411589092
 11
-170.1858581081
 21
53.5
  0
LINE
  5
306
100
AcDbEntity
  8
DRAFT
100
AcDbLine
 62
7
  6
CONTINUOUS
 10
-169.8205984374
 20
27.3073878911
 11
-169.8205984374
 21
26.2926121089
  0
LINE
  5
307
100
AcDbEntity
  8
DRAFT
100
AcDbLine
 62
7
  6
CONTINUOUS
 10
-169.8205984374
 20
0.5073878911
 11
-169.8205984374
 21
-0.5073878911
  0
LINE
  5
308
100
AcDbEntity
  8
DRAFT
100
AcDbLine
 62
7
  6
CONTINUOUS
 10
-169.8205984374
 20
-26.2926121089
 11
-169.8205984374
 21
-27.3073878911
  0
LINE
  5
309
100
AcDbEntity
  8
RACCORDO
100
AcDbLine
 62
253
  6
CONTINUOUS
 10
-157.0858581081
 20
-31.0
 11
-161.0858581081
 21
-31.0
  0
LINE
  5
30A
100
AcDbEntity
  8
RACCORDO
100
AcDbLine
 62
7
  6
CONTINUOUS
 10
-104.2858581081
 20
-31.7
 11
-154.0120367178
 21
-30.8320263237
  0
LINE
  5
30B
100
AcDbEntity
  8
DRAFT
100
AcDbLine
 62
7
  6
CONTINUOUS
 10
-161.0858581081
 20
-27.4598533507
 11
-169.8205984374
 21
-27.3073878911
  0
LINE
  5
30C
100
AcDbEntity
  8
DRAFT
100
AcDbLine
 62
7
  6
CONTINUOUS
 10
-165.3858581081
 20
-52.9249432208
 11
-165.3858581081
 21
-53.5
  0
LINE
  5
30D
100
AcDbEntity
  8
DRAFT
100
AcDbLine
 62
7
  6
CONTINUOUS
 10
-165.3858581081
 20
52.9249432208
 11
-165.3858581081
 21
53.5
  0
LINE
  5
30E
100
AcDbEntity
  8
DRAFT
100
AcDbLine
 62
7
  6
CONTINUOUS
 10
-161.0858581081
 20
-26.1401466493
 11
-169.8205984374
 21
-26.2926121089
  0
LINE
  5
30F
100
AcDbEntity
  8
DRAFT
100
AcDbLine
 62
7
  6
CONTINUOUS
 10
-161.0858581081
 20
-53.0
 11
-161.0858581081
 21
53.0
  0
LINE
  5
310
100
AcDbEntity
  8
SMUSSO
100
AcDbLine
 62
7
  6
CONTINUOUS
 10
-155.4858581081
 20
-18.25
 11
-157.0858581081
 21
-17.8212812921
  0
LINE
  5
311
100
AcDbEntity
  8
RACCORDO
100
AcDbLine
 62
253
  6
CONTINUOUS
 10
-158.0684057017
 20
52.9473301723
 11
-158.0684057017
 21
-52.9473301723
  0
LINE
  5
312
100
AcDbEntity
  8
RACCORDO
100
AcDbLine
 62
7
  6
CONTINUOUS
 10
-157.0858581081
 20
51.9474824772
 11
-157.0858581081
 21
-51.9474824772
  0
LINE
  5
313
100
AcDbEntity
  8
SMUSSO
100
AcDbLine
 62
7
  6
CONTINUOUS
 10
-156.5859342605
 20
17.9552354833
 11
-156.5859342605
 21
14.5447645167
  0
LINE
  5
314
100
AcDbEntity
  8
SMUSSO
100
AcDbLine
 62
7
  6
CONTINUOUS
 10
-156.5859342605
 20
-14.5447645167
 11
-156.5859342605
 21
-17.9552354833
  0
LINE
  5
315
100
AcDbEntity
  8
RACCORDO
100
AcDbLine
 62
7
  6
CONTINUOUS
 10
-155.4858581081
 20
29.332254781
 11
-155.4858581081
 21
18.25
  0
LINE
  5
316
100
AcDbEntity
  8
RACCORDO
100
AcDbLine
 62
7
  6
CONTINUOUS
 10
-155.4858581081
 20
14.25
 11
-155.4858581081
 21
3.167745219
  0
LINE
  5
317
100
AcDbEntity
  8
RACCORDO
100
AcDbLine
 62
7
  6
CONTINUOUS
 10
-155.4858581081
 20
-3.167745219
 11
-155.4858581081
 21
-14.25
  0
LINE
  5
318
100
AcDbEntity
  8
RACCORDO
100
AcDbLine
 62
7
  6
CONTINUOUS
 10
-155.4858581081
 20
-18.25
 11
-155.4858581081
 21
-29.332254781
  0
LINE
  5
319
100
AcDbEntity
  8
SMUSSO
100
AcDbLine
 62
7
  6
CONTINUOUS
 10
-155.4858581081
 20
-14.25
 11
-157.0858581081
 21
-14.6787187079
  0
LINE
  5
31A
100
AcDbEntity
  8
RACCORDO
100
AcDbLine
 62
7
  6
CONTINUOUS
 10
-104.2858581081
 20
-0.8
 11
-154.0120367178
 21
-1.6679736763
  0
LINE
  5
31B
100
AcDbEntity
  8
DRAFT
100
AcDbLine
 62
7
  6
CONTINUOUS
 10
-107.0858581081
 20
0.7011258182
 11
-110.2702849235
 21
0.6455414414
  0
LINE
  5
31C
100
AcDbEntity
  8
DRAFT
100
AcDbLine
 62
7
  6
CONTINUOUS
 10
-161.0858581081
 20
-0.6598533507
 11
-169.8205984374
 21
-0.5073878911
  0
LINE
  5
31D
100
AcDbEntity
  8
DRAFT
100
AcDbLine
 62
7
  6
CONTINUOUS
 10
-107.0858581081
 20
-0.7011258182
 11
-110.2702849235
 21
-0.6455414414
  0
LINE
  5
31E
100
AcDbEntity
  8
DRAFT
100
AcDbLine
 62
7
  6
CONTINUOUS
 10
-161.0858581081
 20
0.6598533507
 11
-169.8205984374
 21
0.5073878911
  0
LINE
  5
31F
100
AcDbEntity
  8
RACCORDO
100
AcDbLine
 62
7
  6
CONTINUOUS
 10
-104.2858581081
 20
0.8
 11
-154.0120367178
 21
1.6679736763
  0
LINE
  5
320
100
AcDbEntity
  8
SMUSSO
100
AcDbLine
 62
7
  6
CONTINUOUS
 10
-155.4858581081
 20
14.25
 11
-157.0858581081
 21
14.6787187079
  0
LINE
  5
321
100
AcDbEntity
  8
SMUSSO
100
AcDbLine
 62
7
  6
CONTINUOUS
 10
-157.0858581081
 20
-44.7207189611
 11
-156.5859342605
 21
-44.2119927579
  0
LINE
  5
322
100
AcDbEntity
  8
SMUSSO
100
AcDbLine
 62
7
  6
CONTINUOUS
 10
-155.4858581081
 20
18.25
 11
-157.0858581081
 21
17.8212812921
  0
LINE
  5
323
100
AcDbEntity
  8
SMUSSO
100
AcDbLine
 62
7
  6
CONTINUOUS
 10
-156.5859342605
 20
44.2119927579
 11
-157.0858581081
 21
44.7207189611
  0
LINE
  5
324
100
AcDbEntity
  8
DRAFT
100
AcDbLine
 62
7
  6
CONTINUOUS
 10
-161.0858581081
 20
27.4598533507
 11
-169.8205984374
 21
27.3073878911
  0
LINE
  5
325
100
AcDbEntity
  8
DRAFT
100
AcDbLine
 62
7
  6
CONTINUOUS
 10
-161.0858581081
 20
26.1401466493
 11
-169.8205984374
 21
26.2926121089
  0
LINE
  5
326
100
AcDbEntity
  8
DRAFT
100
AcDbLine
 62
7
  6
CONTINUOUS
 10
-110.2858581081
 20
-33.4547303896
 11
-110.2858581081
 21
-31.5952696104
  0
LINE
  5
327
100
AcDbEntity
  8
DRAFT
100
AcDbLine
 62
7
  6
CONTINUOUS
 10
-110.2858581081
 20
-0.9291722265
 11
-110.2858581081
 21
0.9047303896
  0
LINE
  5
328
100
AcDbEntity
  8
DRAFT
100
AcDbLine
 62
7
  6
CONTINUOUS
 10
-110.2858581081
 20
31.5952696104
 11
-110.2858581081
 21
33.4547303896
  0
LINE
  5
329
100
AcDbEntity
  8
RACCORDO
100
AcDbLine
 62
7
  6
CONTINUOUS
 10
-104.2858581081
 20
31.7
 11
-154.0120367178
 21
30.8320263237
  0
LINE
  5
32A
100
AcDbEntity
  8
RACCORDO
100
AcDbLine
 62
253
  6
CONTINUOUS
 10
-157.0858581081
 20
31.0
 11
-161.0858581081
 21
31.0
  0
LINE
  5
32B
100
AcDbEntity
  8
DRAFT
100
AcDbLine
 62
253
  6
CONTINUOUS
 10
-110.2858581081
 20
33.25
 11
-107.0858581081
 21
33.25
  0
LINE
  5
32C
100
AcDbEntity
  8
RACCORDO
100
AcDbLine
 62
7
  6
CONTINUOUS
 10
-103.0902414878
 20
-37.269338021
 11
-103.0858581081
 21
-37.3353998534
  0
LINE
  5
32D
100
AcDbEntity
  8
DRAFT
100
AcDbLine
 62
7
  6
CONTINUOUS
 10
-107.0858581081
 20
-33.3988741818
 11
-107.0858581081
 21
-31.6511258182
  0
LINE
  5
32E
100
AcDbEntity
  8
DRAFT
100
AcDbLine
 62
7
  6
CONTINUOUS
 10
-107.0858581081
 20
-0.8488741818
 11
-107.0858581081
 21
0.8488741818
  0
LINE
  5
32F
100
AcDbEntity
  8
DRAFT
100
AcDbLine
 62
7
  6
CONTINUOUS
 10
-107.0858581081
 20
31.6511258182
 11
-107.0858581081
 21
33.3988741818
  0
LINE
  5
330
100
AcDbEntity
  8
DRAFT
100
AcDbLine
 62
7
  6
CONTINUOUS
 10
-106.0858581081
 20
-40.1128888656
 11
-106.0858581081
 21
-38.7578398228
  0
LINE
  5
331
100
AcDbEntity
  8
RACCORDO
100
AcDbLine
 62
7
  6
CONTINUOUS
 10
-106.0858581081
 20
-38.7578398228
 11
-106.0858581081
 21
-34.9830010208
  0
LINE
  5
332
100
AcDbEntity
  8
DRAFT
100
AcDbLine
 62
7
  6
CONTINUOUS
 10
-106.0858581081
 20
-41.2941834326
 11
-106.0858581081
 21
-43.3305106498
  0
LINE
  5
333
100
AcDbEntity
  8
RACCORDO
100
AcDbLine
 62
7
  6
CONTINUOUS
 10
-106.0858581081
 20
34.9830010208
 11
-106.0858581081
 21
38.7578398228
  0
LINE
  5
334
100
AcDbEntity
  8
DRAFT
100
AcDbLine
 62
7
  6
CONTINUOUS
 10
-106.0858581081
 20
38.7578398228
 11
-106.0858581081
 21
40.1128888656
  0
LINE
  5
335
100
AcDbEntity
  8
DRAFT
100
AcDbLine
 62
7
  6
CONTINUOUS
 10
-106.0858581081
 20
41.2941834326
 11
-106.0858581081
 21
43.3305106498
  0
LINE
  5
336
100
AcDbEntity
  8
RACCORDO
100
AcDbLine
 62
253
  6
CONTINUOUS
 10
-106.0335008888
 20
34.9827268766
 11
-106.0335008888
 21
33.3805052182
  0
LINE
  5
337
100
AcDbEntity
  8
RACCORDO
100
AcDbLine
 62
253
  6
CONTINUOUS
 10
-106.0335008888
 20
31.6694947818
 11
-106.0335008888
 21
0.8305052182
  0
LINE
  5
338
100
AcDbEntity
  8
RACCORDO
100
AcDbLine
 62
253
  6
CONTINUOUS
 10
-106.0335008888
 20
-0.8305052182
 11
-106.0335008888
 21
-31.6694947818
  0
LINE
  5
339
100
AcDbEntity
  8
RACCORDO
100
AcDbLine
 62
253
  6
CONTINUOUS
 10
-106.0335008888
 20
-33.3805052182
 11
-106.0335008888
 21
-34.9827268766
  0
LINE
  5
33A
100
AcDbEntity
  8
RACCORDO
100
AcDbLine
 62
7
  6
CONTINUOUS
 10
-104.2858581081
 20
-33.35
 11
-104.2858581081
 21
-31.7
  0
LINE
  5
33B
100
AcDbEntity
  8
RACCORDO
100
AcDbLine
 62
7
  6
CONTINUOUS
 10
-104.2858581081
 20
-0.8
 11
-104.2858581081
 21
0.8
  0
LINE
  5
33C
100
AcDbEntity
  8
RACCORDO
100
AcDbLine
 62
7
  6
CONTINUOUS
 10
-104.2858581081
 20
31.7
 11
-104.2858581081
 21
33.35
  0
LINE
  5
33D
100
AcDbEntity
  8
RACCORDO
100
AcDbLine
 62
253
  6
CONTINUOUS
 10
-103.5832401262
 20
-35.4698583872
 11
-103.5832401262
 21
-40.3300536657
  0
LINE
  5
33E
100
AcDbEntity
  8
RACCORDO
100
AcDbLine
 62
253
  6
CONTINUOUS
 10
-103.5832401262
 20
35.4698583872
 11
-103.5832401262
 21
40.3300536657
  0
LINE
  5
33F
100
AcDbEntity
  8
RACCORDO
100
AcDbLine
 62
7
  6
CONTINUOUS
 10
-103.0858581081
 20
-40.3300536657
 11
-103.0858581081
 21
40.3300536657
  0
LINE
  5
340
100
AcDbEntity
  8
RACCORDO
100
AcDbLine
 62
7
  6
CONTINUOUS
 10
-103.0902414878
 20
37.269338021
 11
-103.0858581081
 21
37.3353998534
  0
LINE
  5
341
100
AcDbEntity
  8
DRAFT
100
AcDbLine
 62
253
  6
CONTINUOUS
 10
-161.0858581081
 20
37.7
 11
-173.0858581081
 21
37.7
  0
LINE
  5
342
100
AcDbEntity
  8
RACCORDO
100
AcDbLine
 62
253
  6
CONTINUOUS
 10
-106.0858581081
 20
34.9830010208
 11
-106.0335008888
 21
34.9827268766
  0
LINE
  5
343
100
AcDbEntity
  8
RACCORDO
100
AcDbLine
 62
7
  6
CONTINUOUS
 10
-106.0396091101
 20
35.4827200227
 11
-103.5832401262
 21
35.4698583872
  0
LINE
  5
344
100
AcDbEntity
  8
RACCORDO
100
AcDbLine
 62
7
  6
CONTINUOUS
 10
-104.2858581081
 20
33.35
 11
-157.0858581081
 21
34.2716274282
  0
LINE
  5
345
100
AcDbEntity
  8
DRAFT
100
AcDbLine
 62
7
  6
CONTINUOUS
 10
-156.4610999786
 20
40.9211611861
 11
-106.0858581081
 21
41.2941834326
  0
LINE
  5
346
100
AcDbEntity
  8
RACCORDO
100
AcDbLine
 62
253
  6
CONTINUOUS
 10
-103.5832401262
 20
40.3300536657
 11
-103.0858581081
 21
40.3300536497
  0
LINE
  5
347
100
AcDbEntity
  8
RACCORDO
100
AcDbLine
 62
7
  6
CONTINUOUS
 10
-114.5400595527
 20
40.2485367904
 11
-103.5832401262
 21
40.2247732354
  0
LINE
  5
348
100
AcDbEntity
  8
DRAFT
100
AcDbLine
 62
7
  6
CONTINUOUS
 10
-106.0856990027
 20
38.7882264455
 11
-103.5832401262
 21
38.7751234818
  0
LINE
  5
349
100
AcDbEntity
  8
DRAFT
100
AcDbLine
 62
7
  6
CONTINUOUS
 10
-157.0858581081
 20
39.1265761787
 11
-106.0858581081
 21
38.7578398228
  0
LINE
  5
34A
100
AcDbEntity
  8
DRAFT
100
AcDbLine
 62
7
  6
CONTINUOUS
 10
-157.0858581081
 20
42.4161096901
 11
-106.0858581081
 21
41.975461607
  0
LINE
  5
34B
100
AcDbEntity
  8
DRAFT
100
AcDbLine
 62
7
  6
CONTINUOUS
 10
-106.0858581081
 20
40.1128888656
 11
-157.0858581081
 21
40.9311854497
  0
LINE
  5
34C
100
AcDbEntity
  8
DRAFT
100
AcDbLine
 62
7
  6
CONTINUOUS
 10
-161.0858581081
 20
46.4094607791
 11
-173.0858581081
 21
46.2
  0
LINE
  5
34D
100
AcDbEntity
  8
DRAFT
100
AcDbLine
 62
7
  6
CONTINUOUS
 10
-157.0858581081
 20
44.2207189611
 11
-106.0858581081
 21
43.3305106498
  0
LINE
  5
34E
100
AcDbEntity
  8
RACCORDO
100
AcDbLine
 62
7
  6
CONTINUOUS
 10
-106.0335008888
 20
43.3295967511
 11
-106.0858581081
 21
43.3305106498
  0
LINE
  5
34F
100
AcDbEntity
  8
RACCORDO
100
AcDbLine
 62
253
  6
CONTINUOUS
 10
-173.0858581081
 20
49.0
 11
-178.3858581081
 21
49.0
  0
LINE
  5
350
100
AcDbEntity
  8
RACCORDO
100
AcDbLine
 62
253
  6
CONTINUOUS
 10
-173.0858581081
 20
51.8078419577
 11
-172.1033105145
 21
51.807841958
  0
LINE
  5
351
100
AcDbEntity
  8
RACCORDO
100
AcDbLine
 62
253
  6
CONTINUOUS
 10
-172.1033105145
 20
51.8078419577
 11
-161.0858581081
 21
52.0001523048
  0
LINE
  5
352
100
AcDbEntity
  8
RACCORDO
100
AcDbLine
 62
7
  6
CONTINUOUS
 10
-172.1033105145
 20
52.8076896529
 11
-161.0858581081
 21
53.0
  0
LINE
  5
353
100
AcDbEntity
  8
DRAFT
100
AcDbLine
 62
7
  6
CONTINUOUS
 10
-170.1858581081
 20
53.5
 11
-165.3858581081
 21
53.5
  0
LINE
  5
354
100
AcDbEntity
  8
DRAFT
100
AcDbLine
 62
7
  6
CONTINUOUS
 10
-161.0858581081
 20
53.0
 11
-158.0684057017
 21
52.9473301723
  0
LINE
  5
355
100
AcDbEntity
  8
RACCORDO
100
AcDbLine
 62
7
  6
CONTINUOUS
 10
-161.0858581081
 20
53.0
 11
-158.0684057017
 21
52.9473301723
  0
LINE
  5
356
100
AcDbEntity
  8
RACCORDO
100
AcDbLine
 62
7
  6
CONTINUOUS
 10
-173.0858581081
 20
59.0
 11
-176.3858581081
 21
59.0
  0
ARC
  5
357
100
AcDbEntity
  8
0
100
AcDbCircle
 62
7
  6
CONTINUOUS
 10
-38.3559837131
 20
-39.0
 40
14.5900727153
100
AcDbArc
 50
178.6254046104
 51
181.3745953896
  0
ARC
  5
358
100
AcDbEntity
  8
0
100
AcDbCircle
 62
7
  6
CONTINUOUS
 10
-63.6440162869
 20
-39.0
 40
14.5900727153
100
AcDbArc
 50
358.6254046104
 51
1.3745953896
  0
ARC
  5
359
100
AcDbEntity
  8
RACCORDO
100
AcDbCircle
 62
7
  6
CONTINUOUS
 10
-61.0
 20
-49.0
 40
10.0
100
AcDbArc
 50
179.9999999921
 51
270.0000000138
  0
ARC
  5
35A
100
AcDbEntity
  8
RACCORDO
100
AcDbCircle
 62
253
  6
CONTINUOUS
 10
-61.0
 20
-49.0
 40
7.9999996053
100
AcDbArc
 50
180.0
 51
270.0
  0
CIRCLE
  5
35B
100
AcDbEntity
  8
0
100
AcDbCircle
 62
7
  6
CONTINUOUS
 10
-51.0
 20
-39.0
 40
3.0
  0
CIRCLE
  5
35C
100
AcDbEntity
  8
0
100
AcDbCircle
 62
7
  6
CONTINUOUS
 10
-51.0
 20
-39.0
 40
2.75
  0
ARC
  5
35D
100
AcDbEntity
  8
0
100
AcDbCircle
 62
7
  6
CONTINUOUS
 10
-38.3559837131
 20
39.0
 40
14.5900727153
100
AcDbArc
 50
178.6254046104
 51
181.3745953896
  0
ARC
  5
35E
100
AcDbEntity
  8
0
100
AcDbCircle
 62
7
  6
CONTINUOUS
 10
-63.6440162869
 20
39.0
 40
14.5900727153
100
AcDbArc
 50
358.6254046104
 51
1.3745953896
  0
ARC
  5
35F
100
AcDbEntity
  8
RACCORDO
100
AcDbCircle
 62
7
  6
CONTINUOUS
 10
-61.0
 20
49.0
 40
10.0
100
AcDbArc
 50
89.9999999921
 51
180.0000000138
  0
ARC
  5
360
100
AcDbEntity
  8
RACCORDO
100
AcDbCircle
 62
253
  6
CONTINUOUS
 10
-61.0
 20
49.0
 40
7.9999996053
100
AcDbArc
 50
90.0
 51
180.0
  0
CIRCLE
  5
361
100
AcDbEntity
  8
0
100
AcDbCircle
 62
7
  6
CONTINUOUS
 10
-51.0
 20
39.0
 40
3.0
  0
CIRCLE
  5
362
100
AcDbEntity
  8
0
100
AcDbCircle
 62
7
  6
CONTINUOUS
 10
-51.0
 20
39.0
 40
2.75
  0
ARC
  5
363
100
AcDbEntity
  8
0
100
AcDbCircle
 62
7
  6
CONTINUOUS
 10
63.6440162869
 20
-39.0
 40
14.5900727153
100
AcDbArc
 50
178.6254046104
 51
181.3745953896
  0
ARC
  5
364
100
AcDbEntity
  8
0
100
AcDbCircle
 62
7
  6
CONTINUOUS
 10
38.3559837131
 20
-39.0
 40
14.5900727153
100
AcDbArc
 50
358.6254046104
 51
1.3745953896
  0
ARC
  5
365
100
AcDbEntity
  8
RACCORDO
100
AcDbCircle
 62
7
  6
CONTINUOUS
 10
61.0
 20
-49.0
 40
10.0
100
AcDbArc
 50
269.9999999921
 51
360.0
  0
ARC
  5
366
100
AcDbEntity
  8
RACCORDO
100
AcDbCircle
 62
253
  6
CONTINUOUS
 10
61.0
 20
-49.0
 40
7.9999996053
100
AcDbArc
 50
270.0
 51
360.0
  0
CIRCLE
  5
367
100
AcDbEntity
  8
0
100
AcDbCircle
 62
7
  6
CONTINUOUS
 10
51.0
 20
-39.0
 40
3.0
  0
CIRCLE
  5
368
100
AcDbEntity
  8
0
100
AcDbCircle
 62
7
  6
CONTINUOUS
 10
51.0
 20
-39.0
 40
2.75
  0
ARC
  5
369
100
AcDbEntity
  8
0
100
AcDbCircle
 62
7
  6
CONTINUOUS
 10
63.6440162869
 20
39.0
 40
14.5900727153
100
AcDbArc
 50
178.6254046104
 51
181.3745953896
  0
ARC
  5
36A
100
AcDbEntity
  8
0
100
AcDbCircle
 62
7
  6
CONTINUOUS
 10
38.3559837131
 20
39.0
 40
14.5900727153
100
AcDbArc
 50
358.6254046104
 51
1.3745953896
  0
ARC
  5
36B
100
AcDbEntity
  8
RACCORDO
100
AcDbCircle
 62
7
  6
CONTINUOUS
 10
61.0
 20
49.0
 40
10.0
100
AcDbArc
 50
0.0
 51
90.0000000138
  0
ARC
  5
36C
100
AcDbEntity
  8
RACCORDO
100
AcDbCircle
 62
253
  6
CONTINUOUS
 10
61.0
 20
49.0
 40
7.9999996053
100
AcDbArc
 50
0.0
 51
90.0
  0
CIRCLE
  5
36D
100
AcDbEntity
  8
0
100
AcDbCircle
 62
7
  6
CONTINUOUS
 10
51.0
 20
39.0
 40
3.0
  0
CIRCLE
  5
36E
100
AcDbEntity
  8
0
100
AcDbCircle
 62
7
  6
CONTINUOUS
 10
51.0
 20
39.0
 40
2.75
  0
ARC
  5
36F
100
AcDbEntity
  8
RACCORDO
100
AcDbCircle
 62
7
  6
CONTINUOUS
 10
-176.3858581081
 20
-57.0
 40
2.0
100
AcDbArc
 50
180.0
 51
270.0
  0
ARC
  5
370
100
AcDbEntity
  8
RACCORDO
100
AcDbCircle
 62
7
  6
CONTINUOUS
 10
-153.9858581081
 20
-29.332254781
 40
1.5
100
AcDbArc
 50
180.0
 51
269.0
  0
ARC
  5
371
100
AcDbEntity
  8
RACCORDO
100
AcDbCircle
 62
7
  6
CONTINUOUS
 10
-153.9858581081
 20
-3.167745219
 40
1.5
100
AcDbArc
 50
91.0
 51
180.0
  0
ARC
  5
372
100
AcDbEntity
  8
RACCORDO
100
AcDbCircle
 62
7
  6
CONTINUOUS
 10
-158.0858581081
 20
-51.9474824772
 40
1.0
100
AcDbArc
 50
271.0
 51
360.0
  0
ARC
  5
373
100
AcDbEntity
  8
RACCORDO
100
AcDbCircle
 62
7
  6
CONTINUOUS
 10
-172.0858581081
 20
-51.8078419577
 40
1.0
100
AcDbArc
 50
180.0
 51
269.0
  0
ARC
  5
374
100
AcDbEntity
  8
RACCORDO
100
AcDbCircle
 62
7
  6
CONTINUOUS
 10
-176.3858581081
 20
57.0
 40
2.0
100
AcDbArc
 50
90.0
 51
180.0
  0
ARC
  5
375
100
AcDbEntity
  8
RACCORDO
100
AcDbCircle
 62
7
  6
CONTINUOUS
 10
-153.9858581081
 20
3.167745219
 40
1.5
100
AcDbArc
 50
180.0
 51
269.0
  0
ARC
  5
376
100
AcDbEntity
  8
RACCORDO
100
AcDbCircle
 62
7
  6
CONTINUOUS
 10
-153.9858581081
 20
29.332254781
 40
1.5
100
AcDbArc
 50
91.0
 51
180.0
  0
ARC
  5
377
100
AcDbEntity
  8
RACCORDO
100
AcDbCircle
 62
7
  6
CONTINUOUS
 10
-158.0858581081
 20
51.9474824772
 40
1.0
100
AcDbArc
 50
0.0
 51
88.9999999982
  0
ARC
  5
378
100
AcDbEntity
  8
RACCORDO
100
AcDbCircle
 62
7
  6
CONTINUOUS
 10
-172.0858581081
 20
51.8078419577
 40
1.0
100
AcDbArc
 50
91.0
 51
180.0
  0
ARC
  5
379
100
AcDbEntity
  8
RACCORDO
100
AcDbCircle
 62
7
  6
CONTINUOUS
 10
-106.0858581081
 20
-40.3300536657
 40
3.0
100
AcDbArc
 50
271.0
 51
360.0
  0
ARC
  5
37A
100
AcDbEntity
  8
RACCORDO
100
AcDbCircle
 62
253
  6
CONTINUOUS
 10
-106.0834432646
 20
-40.3298540406
 40
2.5002155588
100
AcDbArc
 50
271.0045746618
 51
359.9954253025
  0
ARC
  5
37B
100
AcDbEntity
  8
RACCORDO
100
AcDbCircle
 62
7
  6
CONTINUOUS
 10
-103.5858581081
 20
-38.2751303356
 40
0.5
100
AcDbArc
 50
270.3
 51
360.0
  0
ARC
  5
37C
100
AcDbEntity
  8
RACCORDO
100
AcDbCircle
 62
7
  6
CONTINUOUS
 10
-103.5860184342
 20
-34.9698660806
 40
0.5
100
AcDbArc
 50
270.3183722724
 51
0.0000961192
  0
ARC
  5
37D
100
AcDbEntity
  8
RACCORDO
100
AcDbCircle
 62
7
  6
CONTINUOUS
 10
-106.0858581081
 20
40.3300536657
 40
3.0
100
AcDbArc
 50
0.0
 51
89.0
  0
ARC
  5
37E
100
AcDbEntity
  8
RACCORDO
100
AcDbCircle
 62
253
  6
CONTINUOUS
 10
-106.0834235689
 20
40.3298733962
 40
2.5001913007
100
AcDbArc
 50
0.004131169
 51
88.9958688516
  0
ARC
  5
37F
100
AcDbEntity
  8
RACCORDO
100
AcDbCircle
 62
7
  6
CONTINUOUS
 10
-103.5858581081
 20
38.2751303356
 40
0.5
100
AcDbArc
 50
0.0
 51
89.7
  0
ARC
  5
380
100
AcDbEntity
  8
RACCORDO
100
AcDbCircle
 62
7
  6
CONTINUOUS
 10
-103.5858581081
 20
34.9698652411
 40
0.5
100
AcDbArc
 50
0.0
 51
89.7
  0
LINE
  5
381
100
AcDbEntity
  8
RACCORDO
100
AcDbLine
 62
7
  6
CONTINUOUS
 10
-106.0858583796
 20
-37.1635288312
 11
-103.5832401262
 21
-37.1628127924
  0
SPLINE
  5
382
100
AcDbEntity
  8
RACCORDO
100
AcDbSpline
 62
7
  6
CONTINUOUS
 70
0
 71
3
 72
10
 73
6
 74
4
 42
0.0000001
 43
0.0000001
 44
0.0000000001
 12
-0.0375155786
 22
0.2991037336
 32
0.0
 13
-0.2877972707
 23
-0.0056599154
 33
0.0
 40
0.0
 40
0.0
 40
0.0
 40
0.0
 40
0.2257760631
 40
0.4914438038
 40
1.0
 40
1.0
 40
1.0
 40
1.0
 10
-103.0899446003
 20
-37.2714704772
 30
0.0
 10
-103.0927679736
 20
-37.2489603227
 30
0.0
 10
-103.1040347921
 20
-37.1996989258
 30
0.0
 10
-103.2019935426
 20
-37.1581071197
 30
0.0
 10
-103.2758597714
 20
-37.1606422474
 30
0.0
 10
-103.3246467999
 20
-37.1616017091
 30
0.0
 11
-103.0899446003
 21
-37.2714704772
 31
0.0
 11
-103.1109029869
 21
-37.2097806585
 31
0.0
 11
-103.1779678536
 21
-37.1722993571
 31
0.0
 11
-103.3246467999
 21
-37.1616017091
 31
0.0
  0
SPLINE
  5
383
100
AcDbEntity
  8
RACCORDO
100
AcDbSpline
 62
7
  6
CONTINUOUS
 70
0
 71
3
 72
8
 73
4
 74
2
 42
0.0000001
 43
0.0000001
 44
0.0000000001
 12
-0.2573522329
 22
-0.0050611733
 32
0.0
 13
-0.258596156
 23
-0.0000570127
 33
0.0
 40
0.0
 40
0.0
 40
0.0
 40
0.0
 40
1.0
 40
1.0
 40
1.0
 40
1.0
 10
-103.3246467999
 20
-37.1616017091
 30
0.0
 10
-103.4104308775
 20
-37.1632887668
 30
0.0
 10
-103.4970414075
 20
-37.1627937882
 30
0.0
 10
-103.5832401262
 20
-37.1628127924
 30
0.0
 11
-103.3246467999
 21
-37.1616017091
 31
0.0
 11
-103.5832401262
 21
-37.1628127924
 31
0.0
  0
SPLINE
  5
384
100
AcDbEntity
  8
RACCORDO
100
AcDbSpline
 62
253
  6
CONTINUOUS
 70
0
 71
3
 72
13
 73
9
 74
7
 42
0.0000001
 43
0.0000001
 44
0.0000000001
 12
-0.017449441
 22
0.9999823849
 32
0.0
 13
0.9999822921
 23
0.0174547614
 33
0.0
 40
0.0
 40
0.0
 40
0.0
 40
0.0
 40
0.2189107853
 40
0.4463660111
 40
0.6618950058
 40
0.8404182776
 40
0.9585151087
 40
1.0
 40
1.0
 40
1.0
 40
1.0
 10
-172.1033105145
 20
51.8078419577
 30
0.0
 10
-172.1045838048
 20
51.8808109341
 30
0.0
 10
-172.1066194542
 20
52.0292553142
 30
0.0
 10
-172.1104136388
 20
52.2514856737
 30
0.0
 10
-172.1074937117
 20
52.4534372092
 30
0.0
 10
-172.1188581269
 20
52.6386225929
 30
0.0
 10
-172.094198447
 20
52.7226638593
 30
0.0
 10
-172.1171385668
 20
52.8074482833
 30
0.0
 10
-172.1033105145
 20
52.8076896529
 30
0.0
 11
-172.1033105145
 21
51.8078419577
 31
0.0
 11
-172.1067062933
 21
52.0267558763
 31
0.0
 11
-172.109263838
 21
52.2542273443
 31
0.0
 11
-172.1104895147
 21
52.4697818683
 31
0.0
 11
-172.1099782346
 21
52.6483284404
 31
0.0
 11
-172.1075483704
 21
52.7664161727
 31
0.0
 11
-172.1033105145
 21
52.8076896529
 31
0.0
  0
SPLINE
  5
385
100
AcDbEntity
  8
RACCORDO
100
AcDbSpline
 62
253
  6
CONTINUOUS
 70
0
 71
3
 72
13
 73
9
 74
7
 42
0.0000001
 43
0.0000001
 44
0.0000000001
 12
-1.0000204919
 22
0.0174554297
 32
0.0
 13
0.0174501075
 23
1.0000205848
 33
0.0
 40
0.0
 40
0.0
 40
0.0
 40
0.0
 40
0.0245578967
 40
0.1055710331
 40
0.2509336515
 40
0.4587550671
 40
0.7160016093
 40
1.0
 40
1.0
 40
1.0
 40
1.0
 10
-172.1033105145
 20
-52.8076896529
 30
0.0
 10
-172.1114966478
 20
-52.8075467634
 30
0.0
 10
-172.0988784024
 20
-52.7521882939
 30
0.0
 10
-172.116332467
 20
-52.6896378135
 30
0.0
 10
-172.1077044433
 20
-52.5319583147
 30
0.0
 10
-172.1113274074
 20
-52.3342943803
 30
0.0
 10
-172.1072569049
 20
-52.0823707136
 30
0.0
 10
-172.1049624487
 20
-51.9025100366
 30
0.0
 10
-172.1033105145
 20
-51.8078419577
 30
0.0
 11
-172.1033105145
 21
-52.8076896529
 31
0.0
 11
-172.1067062933
 21
-52.7833633821
 31
0.0
 11
-172.109263838
 21
-52.702376618
 31
0.0
 11
-172.1104895147
 21
-52.5569940442
 31
0.0
 11
-172.1099782346
 21
-52.349137341
 31
0.0
 11
-172.1075483704
 21
-52.0918578147
 31
0.0
 11
-172.1033105145
 21
-51.8078419577
 31
0.0
  0
SPLINE
  5
386
100
AcDbEntity
  8
RACCORDO
100
AcDbSpline
 62
253
  6
CONTINUOUS
 70
0
 71
3
 72
10
 73
6
 74
4
 42
0.0000001
 43
0.0000001
 44
0.0000000001
 12
0.0087251373
 22
-0.4998937071
 32
0.0
 13
-0.4998936977
 23
-0.0087256779
 33
0.0
 40
0.0
 40
0.0
 40
0.0
 40
0.0
 40
0.499940076
 40
0.8659812704
 40
1.0
 40
1.0
 40
1.0
 40
1.0
 10
-106.0396091101
 20
-42.8296729036
 30
0.0
 10
-106.0381550948
 20
-42.9129785362
 30
0.0
 10
-106.0203152252
 20
-43.0728658199
 30
0.0
 10
-106.0622211582
 20
-43.1951590122
 30
0.0
 10
-106.0111691214
 20
-43.3292069487
 30
0.0
 10
-106.0335008275
 20
-43.3295967501
 30
0.0
 11
-106.0396091101
 21
-42.8296729036
 31
0.0
 11
-106.0355975285
 21
-43.0795956727
 31
0.0
 11
-106.0333614845
 21
-43.2625915714
 31
0.0
 11
-106.0335008275
 21
-43.3295967501
 31
0.0
  0
SPLINE
  5
387
100
AcDbEntity
  8
RACCORDO
100
AcDbSpline
 62
7
  6
CONTINUOUS
 70
0
 71
3
 72
10
 73
6
 74
4
 42
0.0000001
 43
0.0000001
 44
0.0000000001
 12
0.5364155592
 22
0.0011633979
 32
0.0
 13
0.2046679233
 23
0.4955571376
 33
0.0
 40
0.0
 40
0.0
 40
0.0
 40
0.0
 40
0.4830690892
 40
0.8447680478
 40
1.0
 40
1.0
 40
1.0
 40
1.0
 10
-103.5832401262
 20
-40.2247732354
 30
0.0
 10
-103.4968648677
 20
-40.2245859016
 30
0.0
 10
-103.3450124338
 20
-40.206091637
 30
0.0
 10
-103.1749710518
 20
-40.1521382535
 30
0.0
 10
-103.1033108911
 20
-40.0763038671
 30
0.0
 10
-103.0927205573
 20
-40.0506617664
 30
0.0
 11
-103.5832401262
 21
-40.2247732354
 31
0.0
 11
-103.325879013
 21
-40.1945781891
 31
0.0
 11
-103.1478137511
 21
-40.1175258154
 31
0.0
 11
-103.0927205573
 21
-40.0506617664
 31
0.0
  0
SPLINE
  5
388
100
AcDbEntity
  8
RACCORDO
100
AcDbSpline
 62
7
  6
CONTINUOUS
 70
0
 71
3
 72
8
 73
4
 74
2
 42
0.0000001
 43
0.0000001
 44
0.0000000001
 12
0.0130665111
 22
0.0316376047
 32
0.0
 13
0.0
 23
0.0342461889
 33
0.0
 40
0.0
 40
0.0
 40
0.0
 40
0.0
 40
1.0
 40
1.0
 40
1.0
 40
1.0
 10
-103.0927205573
 20
-40.0506617664
 30
0.0
 10
-103.0883650536
 20
-40.0401158982
 30
0.0
 10
-103.0858581081
 20
-40.0290846895
 30
0.0
 10
-103.0858581081
 20
-40.0176692932
 30
0.0
 11
-103.0927205573
 21
-40.0506617664
 31
0.0
 11
-103.0858581081
 21
-40.0176692932
 31
0.0
  0
SPLINE
  5
389
100
AcDbEntity
  8
RACCORDO
100
AcDbSpline
 62
253
  6
CONTINUOUS
 70
0
 71
3
 72
10
 73
6
 74
4
 42
0.0000001
 43
0.0000001
 44
0.0000000001
 12
0.5001199992
 22
0.0026186461
 32
0.0
 13
-0.0026179277
 23
0.500120003
 33
0.0
 40
0.0
 40
0.0
 40
0.0
 40
0.0
 40
0.134209185
 40
0.5001599488
 40
1.0
 40
1.0
 40
1.0
 40
1.0
 10
-106.0396091101
 20
-35.4827200227
 30
0.0
 10
-106.0172355443
 20
-35.4826028739
 30
0.0
 10
-106.0599164539
 20
-35.3481187715
 30
0.0
 10
-106.0190775935
 20
-35.2260865887
 30
0.0
 10
-106.0330647071
 20
-35.0660535459
 30
0.0
 10
-106.0335008888
 20
-34.9827268766
 30
0.0
 11
-106.0396091101
 21
-35.4827200227
 31
0.0
 11
-106.0355970544
 21
-35.4157184186
 31
0.0
 11
-106.0333612997
 21
-35.2327102703
 31
0.0
 11
-106.0335008888
 21
-34.9827268766
 31
0.0
  0
LINE
  5
38A
100
AcDbEntity
  8
RACCORDO
100
AcDbLine
 62
253
  6
CONTINUOUS
 10
-103.0858581081
 20
-34.9698652411
 11
-106.0335008888
 21
-34.9827268766
  0
SPLINE
  5
38B
100
AcDbEntity
  8
RACCORDO
100
AcDbSpline
 62
253
  6
CONTINUOUS
 70
0
 71
3
 72
10
 73
6
 74
4
 42
0.0000001
 43
0.0000001
 44
0.0000000001
 12
0.5001200019
 22
-0.0026186461
 32
0.0
 13
-0.0026175531
 23
-0.5001200076
 33
0.0
 40
0.0
 40
0.0
 40
0.0
 40
0.0
 40
0.1341792051
 40
0.500115438
 40
1.0
 40
1.0
 40
1.0
 40
1.0
 10
-106.0396091101
 20
35.4827200227
 30
0.0
 10
-106.017240542
 20
35.4826029001
 30
0.0
 10
-106.0599154785
 20
35.3481322694
 30
0.0
 10
-106.0190760049
 20
35.2261011137
 30
0.0
 10
-106.0330646694
 20
35.0660609666
 30
0.0
 10
-106.0335008275
 20
34.9827268763
 30
0.0
 11
-106.0396091101
 21
35.4827200227
 31
0.0
 11
-106.0355975285
 21
35.4157334104
 31
0.0
 11
-106.0333614845
 21
35.2327325326
 31
0.0
 11
-106.0335008275
 21
34.9827268763
 31
0.0
  0
SPLINE
  5
38C
100
AcDbEntity
  8
RACCORDO
100
AcDbSpline
 62
7
  6
CONTINUOUS
 70
0
 71
3
 72
11
 73
7
 74
5
 42
0.0000001
 43
0.0000001
 44
0.0000000001
 12
0.5477845072
 22
-0.0001207701
 32
0.0
 13
0.071062519
 23
0.5665663594
 33
0.0
 40
0.0
 40
0.0
 40
0.0
 40
0.0
 40
0.4720764327
 40
0.740555234
 40
0.8808074954
 40
1.0
 40
1.0
 40
1.0
 40
1.0
 10
-103.5832401262
 20
37.1628127924
 30
0.0
 10
-103.4970414075
 20
37.1627937882
 30
0.0
 10
-103.36117383
 20
37.1635702706
 30
0.0
 10
-103.2019935426
 20
37.1581071197
 30
0.0
 10
-103.1040347921
 20
37.1996989258
 30
0.0
 10
-103.0927679736
 20
37.2489603227
 30
0.0
 10
-103.0899446003
 20
37.2714704772
 30
0.0
 11
-103.5832401262
 21
37.1628127924
 31
0.0
 11
-103.3246467999
 21
37.1616017091
 31
0.0
 11
-103.1779678536
 21
37.1722993571
 31
0.0
 11
-103.1109029869
 21
37.2097806585
 31
0.0
 11
-103.0899446003
 21
37.2714704772
 31
0.0
  0
SPLINE
  5
38D
100
AcDbEntity
  8
RACCORDO
100
AcDbSpline
 62
7
  6
CONTINUOUS
 70
0
 71
3
 72
10
 73
6
 74
4
 42
0.0000001
 43
0.0000001
 44
0.0000000001
 12
0.5338379167
 22
-0.0011578074
 32
0.0
 13
0.216523497
 23
-0.4897323287
 33
0.0
 40
0.0
 40
0.0
 40
0.0
 40
0.0
 40
0.4854015938
 40
0.84884702
 40
1.0
 40
1.0
 40
1.0
 40
1.0
 10
-103.5832401262
 20
40.2247732354
 30
0.0
 10
-103.4968648677
 20
40.2245859016
 30
0.0
 10
-103.3450124338
 20
40.206091637
 30
0.0
 10
-103.1757881532
 20
40.1523975162
 30
0.0
 10
-103.1046445777
 20
40.0777096133
 30
0.0
 10
-103.0937351871
 20
40.0530347797
 30
0.0
 11
-103.5832401262
 21
40.2247732354
 31
0.0
 11
-103.325879013
 21
40.1945781891
 31
0.0
 11
-103.1478137511
 21
40.1175258154
 31
0.0
 11
-103.0937351871
 21
40.0530347797
 31
0.0
  0
SPLINE
  5
38E
100
AcDbEntity
  8
RACCORDO
100
AcDbSpline
 62
7
  6
CONTINUOUS
 70
0
 71
3
 72
8
 73
4
 74
2
 42
0.0000001
 43
0.0000001
 44
0.0000000001
 12
0.0149356332
 22
-0.0337813795
 32
0.0
 13
0.0
 23
-0.0368238374
 33
0.0
 40
0.0
 40
0.0
 40
0.0
 40
0.0
 40
1.0
 40
1.0
 40
1.0
 40
1.0
 10
-103.0937351871
 20
40.0530347797
 30
0.0
 10
-103.0887566427
 20
40.0417743199
 30
0.0
 10
-103.0858581081
 20
40.0299439057
 30
0.0
 10
-103.0858581081
 20
40.0176692932
 30
0.0
 11
-103.0937351871
 21
40.0530347797
 31
0.0
 11
-103.0858581081
 21
40.0176692932
 31
0.0
  0
SPLINE
  5
38F
100
AcDbEntity
  8
RACCORDO
100
AcDbSpline
 62
253
  6
CONTINUOUS
 70
0
 71
3
 72
10
 73
6
 74
4
 42
0.0000001
 43
0.0000001
 44
0.0000000001
 12
0.0087254439
 22
0.4998937051
 32
0.0
 13
-0.499893701
 23
0.008725677
 33
0.0
 40
0.0
 40
0.0
 40
0.0
 40
0.0
 40
0.4999920041
 40
0.8660069729
 40
1.0
 40
1.0
 40
1.0
 40
1.0
 10
-106.0396091101
 20
42.8296729036
 30
0.0
 10
-106.0381548927
 20
42.9129871887
 30
0.0
 10
-106.0203129519
 20
43.0728808669
 30
0.0
 10
-106.0622186125
 20
43.1951739953
 30
0.0
 10
-106.0111734654
 20
43.3292070245
 30
0.0
 10
-106.0335008888
 20
43.3295967511
 30
0.0
 11
-106.0396091101
 21
42.8296729036
 31
0.0
 11
-106.0355970544
 21
43.0796216326
 31
0.0
 11
-106.0333612997
 21
43.2626044231
 31
0.0
 11
-106.0335008888
 21
43.3295967511
 31
0.0
  0
LINE
  5
390
100
AcDbEntity
  8
RACCORDO
100
AcDbLine
 62
253
  6
CONTINUOUS
 10
-106.0335008888
 20
34.9827268766
 11
-103.0858581081
 21
34.9698652411
  0
SPLINE
  5
391
100
AcDbEntity
  8
DRAFT
100
AcDbSpline
 62
7
  6
CONTINUOUS
 70
0
 71
3
 72
10
 73
6
 74
4
 42
0.0000001
 43
0.0000001
 44
0.0000000001
 12
0.3378428345
 22
1.2586487541
 32
0.0
 13
-0.3378338647
 23
1.2586511617
 33
0.0
 40
0.0
 40
0.0
 40
0.0
 40
0.0
 40
0.3350846297
 40
0.664917665
 40
1.0
 40
1.0
 40
1.0
 40
1.0
 10
-110.2702849235
 20
-0.6455414414
 30
0.0
 10
-110.2325496098
 20
-0.5049568242
 30
0.0
 10
-110.1864470287
 20
-0.2178396286
 30
0.0
 10
-110.1864466913
 20
0.2178417225
 30
0.0
 10
-110.2325508701
 20
0.504957518
 30
0.0
 10
-110.2702849235
 20
0.6455414414
 30
0.0
 11
-110.2702849235
 21
-0.6455414414
 31
0.0
 11
-110.1977912743
 21
-0.2149179779
 31
0.0
 11
-110.1977915223
 21
0.2149209686
 31
0.0
 11
-110.2702849235
 21
0.6455414414
 31
0.0
  0
LINE
  5
392
100
AcDbEntity
  8
RACCORDO
100
AcDbLine
 62
7
  6
CONTINUOUS
 10
-106.0858583796
 20
37.1635288312
 11
-103.5832401262
 21
37.1628127924
  0
ENDSEC
  0
SECTION
  2
OBJECTS
  0
DICTIONARY
  5
C
100
AcDbDictionary
280
0
281
1
  3
ACAD_GROUP
350
D
  3
ACAD_MLINESTYLE
350
17
  3
ACAD_LAYOUT
350
1A
  3
ACAD_PLOTSETTINGS
350
19
  3
ACAD_PLOTSTYLENAME
350
E
  0
DICTIONARY
  5
D
102
{ACAD_REACTORS
330
C
102
}
100
AcDbDictionary
280
0
281
1
  0
ACDBDICTIONARYWDFLT
  5
E
102
{ACAD_REACTORS
330
C
102
}
100
AcDbDictionary
281
1
  3
Normal
350
F
100
AcDbDictionaryWithDefault
340
F
  0
DICTIONARY
  5
17
102
{ACAD_REACTORS
330
C
102
}
100
AcDbDictionary
280
0
281
1
  3
Standard
350
18
  0
DICTIONARY
  5
19
102
{ACAD_REACTORS
330
C
102
}
100
AcDbDictionary
281
1
  0
DICTIONARY
  5
1A
102
{ACAD_REACTORS
330
C
102
}
100
AcDbDictionary
281
1
  3
Model
350
393
  3
Layout1
350
394
  0
ACDBPLACEHOLDER
  5
F
102
{ACAD_REACTORS
330
E
102
}
  0
MLINESTYLE
  5
18
102
{ACAD_REACTORS
330
17
102
}
100
AcDbMlineStyle
  2
STANDARD
 70
0
  3

 62
256
 51
90.0
 52
90.0
 71
2
 49
0.5
 62
256
  6
BYLAYER
 49
-0.5
 62
256
  6
BYLAYER
  0
LAYOUT
  5
393
102
{ACAD_REACTORS
330
1A
102
}
100
AcDbPlotSettings
  1

  2
none_device
  4
ISO_A4_(297.00_x_210.00_MM)
  6

 40
0.0
 41
0.0
 42
0.0
 43
0.0
 44
297.0
 45
210.0
 46
0.0
 47
0.0
 48
0.0
 49
0.0
140
0.0
141
0.0
142
1.0
143
1.0
 70
1024
 72
1
 73
0
 74
0
  7

 75
0
147
1.0
148
0.0
149
0.0
100
AcDbLayout
  1
Model
 70
0
 71
0
 10
0.0
 20
0.0
 11
297.0
 21
210.0
 12
0.0
 22
0.0
 32
0.0
 14
0.0
 24
0.0
 34
0.0
 15
0.0
 25
0.0
 35
0.0
146
0.0
 13
0.0
 23
0.0
 33
0.0
 16
1.0
 26
0.0
 36
0.0
 17
0.0
 27
1.0
 37
0.0
 76
0
330
214
345
0
346
0
  0
LAYOUT
  5
394
102
{ACAD_REACTORS
330
1A
102
}
100
AcDbPlotSettings
  1

  2
none_device
  4
ISO_A4_(297.00_x_210.00_MM)
  6

 40
0.0
 41
0.0
 42
0.0
 43
0.0
 44
297.0
 45
210.0
 46
0.0
 47
0.0
 48
0.0
 49
0.0
140
0.0
141
0.0
142
1.0
143
1.0
 70
0
 72
1
 73
0
 74
0
  7

 75
0
147
1.0
148
0.0
149
0.0
100
AcDbLayout
  1
Layout1
 70
0
 71
1
 10
0.0
 20
0.0
 11
297.0
 21
210.0
 12
0.0
 22
0.0
 32
0.0
 14
0.0
 24
0.0
 34
0.0
 15
0.0
 25
0.0
 35
0.0
146
0.0
 13
0.0
 23
0.0
 33
0.0
 16
1.0
 26
0.0
 36
0.0
 17
0.0
 27
1.0
 37
0.0
 76
0
330
215
345
0
346
0
  0
ENDSEC
  0
EOF
