  0
SECTION
  2
HEADER
  9
$ACADVER
  1
AC1015
  9
$DWGCODEPAGE
  3
ANSI_1252
  9
$EXTMAX
 10
297.0
 20
210.0
 30
0.0
  9
$EXTMIN
 10
0.0
 20
0.0
 30
0.0
  9
$LIMMIN
 10
0.0
 20
0.0
  9
$LIMMAX
 10
297.0
 20
210.0
  9
$VIEWCTR
 10
148.5
 20
105.0
  9
$VIEWSIZE
 40
210.0
  9
$CLAYER
  8
0
  9
$LTSCALE
 40
16.335
  9
$CELTYPE
  6
BYLAYER
  9
$DIMSCALE
 40
1.0
  9
$DIMASZ
 40
3.0
  9
$DIMEXO
 40
1.85625
  9
$DIMDLI
 40
11.286
  9
$DIMEXE
 40
5.346
  9
$DIMCEN
 40
2.673
  9
$DIMLFAC
 40
1.0
  9
$DIMBLK
  1
_FILLED
  9
$DIMTXT
 40
3.0
  9
$DIMTOL
 70
1
  9
$DIMLIM
 70
0
  9
$DIMTFAC
 40
1.0
  9
$DIMTP
 40
0.01
  9
$DIMTM
 40
0.01
  9
$PDMODE
 70
3
  9
$PDSIZE
 40
3.0
  9
$HANDSEED
  5
3AB
  9
$TILEMODE
 70
1
  9
$MEASUREMENT
 70
1
  9
$INSUNITS
 70
4
  0
ENDSEC
  0
SECTION
  2
CLASSES
  0
CLASS
  1
ACDBDICTIONARYWDFLT
  2
AcDbDictionaryWithDefault
  3
AutoCAD 2000
 90
0
280
0
281
0
  0
CLASS
  1
ACDBPLACEHOLDER
  2
AcDbPlaceHolder
  3
AutoCAD 2000
 90
0
280
0
281
0
  0
CLASS
  1
LAYOUT
  2
AcDbLayout
  3
AutoCAD 2000
 90
0
280
0
281
0
  0
ENDSEC
  0
SECTION
  2
TABLES
  0
TABLE
  2
VPORT
  5
8
100
AcDbSymbolTable
 70
2
  0
VPORT
  5
1F4
100
AcDbSymbolTableRecord
100
AcDbViewportTableRecord
  2
*ACTIVE
 70
0
 10
0.0
 20
0.0
 11
1.0
 21
1.0
 12
148.5
 22
105.0
 13
0.0
 23
0.0
 14
1.0
 24
1.0
 15
0.0
 25
0.0
 16
0.0
 26
0.0
 36
1.0
 17
0.0
 27
0.0
 37
0.0
 40
210.0
 41
1.4142857143
 42
50.0
 43
0.0
 44
0.0
 50
0.0
 51
0.0
 71
0
 72
100
 73
1
 74
1
 75
0
 76
0
 77
0
 78
0
  0
ENDTAB
  0
TABLE
  2
LTYPE
  5
5
100
AcDbSymbolTable
 70
6
  0
LTYPE
  5
14
100
AcDbSymbolTableRecord
100
AcDbLinetypeTableRecord
  2
BYBLOCK
 70
0
  3

 72
65
 73
0
 40
0.0
  0
LTYPE
  5
15
100
AcDbSymbolTableRecord
100
AcDbLinetypeTableRecord
  2
BYLAYER
 70
0
  3

 72
65
 73
0
 40
0.0
  0
LTYPE
  5
16
100
AcDbSymbolTableRecord
100
AcDbLinetypeTableRecord
  2
CONTINUOUS
 70
64
  3
Solid line
 72
65
 73
0
 40
0.0
  0
LTYPE
  5
1F5
100
AcDbSymbolTableRecord
100
AcDbLinetypeTableRecord
  2
CENTER
 70
64
  3
____ _ ____ _ ____ _ ____ _ ____ _ ____ _ ____
 72
65
 73
4
 40
0.6
 49
0.375
 74
0
 49
-0.075
 74
0
 49
0.075
 74
0
 49
-0.075
 74
0
  0
LTYPE
  5
1F6
100
AcDbSymbolTableRecord
100
AcDbLinetypeTableRecord
  2
HIDDEN
 70
64
  3
- - - - - - - - - - - - - - - - - - - -
 72
65
 73
2
 40
0.2
 49
0.1
 74
0
 49
-0.1
 74
0
  0
LTYPE
  5
1F7
100
AcDbSymbolTableRecord
100
AcDbLinetypeTableRecord
  2
PHANTOM
 70
64
  3
_____ _ _ _____ _ _ _____ _ _ _____
 72
65
 73
6
 40
0.8
 49
0.45
 74
0
 49
-0.05
 74
0
 49
0.1
 74
0
 49
-0.05
 74
0
 49
0.1
 74
0
 49
-0.05
 74
0
  0
LTYPE
  5
1F8
100
AcDbSymbolTableRecord
100
AcDbLinetypeTableRecord
  2
DOT
 70
64
  3
. . . . . . . . . . . . . . . . . . . .
 72
65
 73
2
 40
0.2
 49
0.1
 74
0
 49
-0.1
 74
0
  0
LTYPE
  5
1F9
100
AcDbSymbolTableRecord
100
AcDbLinetypeTableRecord
  2
DASHED
 70
64
  3
- - - - - - - - - - - - - - - - - - - -
 72
65
 73
2
 40
0.2
 49
0.1
 74
0
 49
-0.1
 74
0
  0
ENDTAB
  0
TABLE
  2
LAYER
  5
2
100
AcDbSymbolTable
 70
36
  0
LAYER
  5
10
100
AcDbSymbolTableRecord
100
AcDbLayerTableRecord
  2
0
 70
0
 62
7
  6
CONTINUOUS
370
-3
390
F
  0
LAYER
  5
1FA
100
AcDbSymbolTableRecord
100
AcDbLayerTableRecord
  2
DEFAULT_1
 70
0
 62
7
  6
CENTER
370
-3
390
F
  0
LAYER
  5
1FB
100
AcDbSymbolTableRecord
100
AcDbLayerTableRecord
  2
DEFAULT_2
 70
0
 62
7
  6
HIDDEN
370
-3
390
F
  0
LAYER
  5
1FC
100
AcDbSymbolTableRecord
100
AcDbLayerTableRecord
  2
DEFAULT_3
 70
0
 62
7
  6
PHANTOM
370
-3
390
F
  0
LAYER
  5
1FD
100
AcDbSymbolTableRecord
100
AcDbLayerTableRecord
  2
ASSI
 70
0
 62
7
  6
CONTINUOUS
370
-3
390
F
  0
LAYER
  5
1FE
100
AcDbSymbolTableRecord
100
AcDbLayerTableRecord
  2
COORDINATE
 70
0
 62
7
  6
CONTINUOUS
370
-3
390
F
  0
LAYER
  5
1FF
100
AcDbSymbolTableRecord
100
AcDbLayerTableRecord
  2
COORD_ORIGINE
 70
0
 62
7
  6
CONTINUOUS
370
-3
390
F
  0
LAYER
  5
200
100
AcDbSymbolTableRecord
100
AcDbLayerTableRecord
  2
COPY_PUBLISH
 70
0
 62
7
  6
CONTINUOUS
370
-3
390
F
  0
LAYER
  5
201
100
AcDbSymbolTableRecord
100
AcDbLayerTableRecord
  2
COSMETIC
 70
0
 62
7
  6
CONTINUOUS
370
-3
390
F
  0
LAYER
  5
202
100
AcDbSymbolTableRecord
100
AcDbLayerTableRecord
  2
CURVE
 70
0
 62
7
  6
CONTINUOUS
370
-3
390
F
  0
LAYER
  5
203
100
AcDbSymbolTableRecord
100
AcDbLayerTableRecord
  2
DRAFT
 70
0
 62
7
  6
CONTINUOUS
370
-3
390
F
  0
LAYER
  5
204
100
AcDbSymbolTableRecord
100
AcDbLayerTableRecord
  2
IMPORT_IGES
 70
0
 62
7
  6
CONTINUOUS
370
-3
390
F
  0
LAYER
  5
205
100
AcDbSymbolTableRecord
100
AcDbLayerTableRecord
  2
NOTE
 70
0
 62
7
  6
CONTINUOUS
370
-3
390
F
  0
LAYER
  5
206
100
AcDbSymbolTableRecord
100
AcDbLayerTableRecord
  2
PIANI
 70
0
 62
7
  6
CONTINUOUS
370
-3
390
F
  0
LAYER
  5
207
100
AcDbSymbolTableRecord
100
AcDbLayerTableRecord
  2
PIANI_ORIGINE
 70
0
 62
7
  6
CONTINUOUS
370
-3
390
F
  0
LAYER
  5
208
100
AcDbSymbolTableRecord
100
AcDbLayerTableRecord
  2
PUNTI
 70
0
 62
7
  6
CONTINUOUS
370
-3
390
F
  0
LAYER
  5
209
100
AcDbSymbolTableRecord
100
AcDbLayerTableRecord
  2
RACCORDO
 70
0
 62
7
  6
CONTINUOUS
370
-3
390
F
  0
LAYER
  5
20A
100
AcDbSymbolTableRecord
100
AcDbLayerTableRecord
  2
SMUSSO
 70
0
 62
7
  6
CONTINUOUS
370
-3
390
F
  0
LAYER
  5
20B
100
AcDbSymbolTableRecord
100
AcDbLayerTableRecord
  2
SNAPLINE
 70
0
 62
7
  6
CONTINUOUS
370
-3
390
F
  0
LAYER
  5
20C
100
AcDbSymbolTableRecord
100
AcDbLayerTableRecord
  2
SUPERFICI
 70
0
 62
7
  6
CONTINUOUS
370
-3
390
F
  0
LAYER
  5
20D
100
AcDbSymbolTableRecord
100
AcDbLayerTableRecord
  2
TRASH
 70
0
 62
7
  6
CONTINUOUS
370
-3
390
F
  0
LAYER
  5
20E
100
AcDbSymbolTableRecord
100
AcDbLayerTableRecord
  2
XSEC_DATUMS
 70
0
 62
7
  6
CONTINUOUS
370
-3
390
F
  0
ENDTAB
  0
TABLE
  2
STYLE
  5
3
100
AcDbSymbolTable
 70
1
  0
STYLE
  5
11
100
AcDbSymbolTableRecord
100
AcDbTextStyleTableRecord
  2
STANDARD
 70
0
 40
0.0
 41
0.8
 50
0.0
 71
0
 42
0.2
  3
txt
  4

  0
STYLE
  5
20F
100
AcDbSymbolTableRecord
100
AcDbTextStyleTableRecord
  2
TEXTSTYLE_1
 70
0
 40
0.0
 41
0.8
 50
0.0
 71
0
 42
0.2
  3
gdt
  4

  0
ENDTAB
  0
TABLE
  2
VIEW
  5
6
100
AcDbSymbolTable
 70
0
  0
ENDTAB
  0
TABLE
  2
UCS
  5
7
100
AcDbSymbolTable
 70
0
  0
ENDTAB
  0
TABLE
  2
APPID
  5
9
100
AcDbSymbolTable
 70
1
  0
APPID
  5
210
100
AcDbSymbolTableRecord
100
AcDbRegAppTableRecord
  2
ACAD
 70
0
  0
ENDTAB
  0
TABLE
  2
BLOCK_RECORD
  5
1
100
AcDbSymbolTable
 70
0
  0
BLOCK_RECORD
  5
211
100
AcDbSymbolTableRecord
100
AcDbBlockTableRecord
  2
*Model_Space
  0
BLOCK_RECORD
  5
212
100
AcDbSymbolTableRecord
100
AcDbBlockTableRecord
  2
*Paper_Space
  0
BLOCK_RECORD
  5
213
100
AcDbSymbolTableRecord
100
AcDbBlockTableRecord
  2
_FILLED
  0
BLOCK_RECORD
  5
214
100
AcDbSymbolTableRecord
100
AcDbBlockTableRecord
  2
_NONE
  0
BLOCK_RECORD
  5
215
100
AcDbSymbolTableRecord
100
AcDbBlockTableRecord
  2
*D0
  0
BLOCK_RECORD
  5
216
100
AcDbSymbolTableRecord
100
AcDbBlockTableRecord
  2
*D1
  0
BLOCK_RECORD
  5
217
100
AcDbSymbolTableRecord
100
AcDbBlockTableRecord
  2
*D2
  0
BLOCK_RECORD
  5
218
100
AcDbSymbolTableRecord
100
AcDbBlockTableRecord
  2
*D3
  0
BLOCK_RECORD
  5
219
100
AcDbSymbolTableRecord
100
AcDbBlockTableRecord
  2
*D4
  0
BLOCK_RECORD
  5
21A
100
AcDbSymbolTableRecord
100
AcDbBlockTableRecord
  2
*D5
  0
BLOCK_RECORD
  5
21B
100
AcDbSymbolTableRecord
100
AcDbBlockTableRecord
  2
*D6
  0
ENDTAB
  0
TABLE
  2
DIMSTYLE
  5
A
100
AcDbSymbolTable
 70
1
100
AcDbDimStyleTable
 71
0
  0
DIMSTYLE
105
21C
100
AcDbSymbolTableRecord
100
AcDbDimStyleTableRecord
  2
STANDARD
 70
0
  3

  4

 40
1.0
 41
3.0
 42
0.0625
 43
0.38
 44
0.18
 45
0.0
 46
0.0
 47
0.01
 48
0.01
140
3.0
141
0.09
142
0.0
143
25.4
144
1.0
145
0.0
146
1.0
147
0.09
 71
1.0
 72
0.0
 73
0
 74
0
 75
0
 76
0
 77
1
 78
8
170
0
171
2
172
0
173
0
174
0
175
0
176
0
177
0
178
0
270
2
271
2
272
2
273
2
274
2
275
0
280
0
281
0
282
0
283
1
284
8
285
0
286
0
287
3
288
0
340
11
341
213
342
213
343
213
344
213
  0
DIMSTYLE
105
21D
100
AcDbSymbolTableRecord
100
AcDbDimStyleTableRecord
  2
DIMSTYLE_1
 70
0
  3

  4

 40
1.0
 41
3.0
 42
0.0625
 43
0.38
 44
0.18
 45
0.0
 46
0.0
 47
0.0
 48
0.0
140
3.0
141
0.09
142
0.0
143
25.4
144
1.0
145
0.0
146
1.0
147
0.09
 71
0.0
 72
0.0
 73
0
 74
0
 75
0
 76
0
 77
1
 78
8
170
0
171
2
172
0
173
0
174
0
175
0
176
0
177
0
178
0
270
2
271
2
272
2
273
2
274
2
275
0
280
0
281
0
282
0
283
1
284
8
285
0
286
0
287
3
288
0
340
11
341
213
342
213
343
213
344
213
  0
ENDTAB
  0
ENDSEC
  0
SECTION
  2
BLOCKS
  0
BLOCK
  5
20
100
AcDbEntity
  8
0
100
AcDbBlockBegin
  2
*Model_Space
 70
0
 10
0.0
 20
0.0
 30
0.0
  3
*Model_Space
  1

  0
ENDBLK
  5
21
100
AcDbEntity
  8
0
100
AcDbBlockEnd
  0
BLOCK
  5
1C
100
AcDbEntity
  8
0
100
AcDbBlockBegin
  2
*Paper_Space
 70
0
 10
0.0
 20
0.0
 30
0.0
  3
*Paper_Space
  1

  0
ENDBLK
  5
1D
100
AcDbEntity
  8
0
100
AcDbBlockEnd
  0
BLOCK
  5
21E
100
AcDbEntity
  8
0
100
AcDbBlockBegin
  2
_FILLED
 70
64
 10
0.0
 20
0.0
  3
_FILLED
  1

  0
SOLID
  5
21F
100
AcDbEntity
  8
0
  6
BYBLOCK
 62
0
100
AcDbTrace
 10
0.0
 20
0.0
 11
-1.0
 21
0.3166666667
 12
-1.0
 22
-0.3166666667
 13
-1.0
 23
-0.3166666667
  0
ENDBLK
  5
220
100
AcDbEntity
  8
0
  6
BYBLOCK
 62
0
100
AcDbBlockEnd
  0
BLOCK
  5
221
100
AcDbEntity
  8
0
100
AcDbBlockBegin
  2
_NONE
 70
64
 10
0.0
 20
0.0
  3
_NONE
  1

  0
ENDBLK
  5
222
100
AcDbEntity
  8
0
  6
BYBLOCK
 62
0
100
AcDbBlockEnd
  0
BLOCK
  5
223
100
AcDbEntity
  8
0
100
AcDbBlockBegin
 62
7
  6
CONTINUOUS
  2
*D0
 70
65
 10
0.0
 20
0.0
  3
*D0
  1

  0
MTEXT
  5
224
100
AcDbEntity
  8
0
100
AcDbMText
 62
7
  6
CONTINUOUS
  7
STANDARD
 71
2
 72
1
 10
-181.5640126772
 20
80.75
 30
0.0
 11
1.0
 21
0.0
 31
0.0
 44
0.9
  1
75,7
 40
3.0
 41
8.5714285714
  0
LINE
  5
225
100
AcDbEntity
  8
0
100
AcDbLine
 62
7
  6
CONTINUOUS
 10
-219.4140126772
 20
57.4999996828
 11
-219.4140126772
 21
78.5
  0
LINE
  5
226
100
AcDbEntity
  8
0
100
AcDbLine
 62
7
  6
CONTINUOUS
 10
-143.7140126772
 20
41.2726713389
 11
-143.7140126772
 21
78.5
  0
LINE
  5
227
100
AcDbEntity
  8
0
100
AcDbLine
 62
7
  6
CONTINUOUS
 10
-219.4140126772
 20
77.0
 11
-181.5640126772
 21
77.0
  0
LINE
  5
228
100
AcDbEntity
  8
0
100
AcDbLine
 62
7
  6
CONTINUOUS
 10
-143.7140126772
 20
77.0
 11
-181.5640126772
 21
77.0
  0
INSERT
  5
229
100
AcDbEntity
  8
0
100
AcDbBlockReference
 62
7
  6
CONTINUOUS
  2
_FILLED
 10
-219.4140126772
 20
77.0
 41
3.0
 42
3.0
 43
3.0
 50
180.0
  0
INSERT
  5
22A
100
AcDbEntity
  8
0
100
AcDbBlockReference
 62
7
  6
CONTINUOUS
  2
_FILLED
 10
-143.7140126772
 20
77.0
 41
3.0
 42
3.0
 43
3.0
  0
ENDBLK
  5
22B
100
AcDbEntity
  8
0
  6
BYBLOCK
 62
0
100
AcDbBlockEnd
  0
BLOCK
  5
22C
100
AcDbEntity
  8
0
100
AcDbBlockBegin
 62
7
  6
CONTINUOUS
  2
*D1
 70
65
 10
0.0
 20
0.0
  3
*D1
  1

  0
MTEXT
  5
22D
100
AcDbEntity
  8
0
100
AcDbMText
 62
7
  6
CONTINUOUS
  7
STANDARD
 71
2
 72
1
 10
-178.7140126772
 20
70.75
 30
0.0
 11
1.0
 21
0.0
 31
0.0
 44
0.9
  1
70
 40
3.0
 41
4.7142857143
  0
LINE
  5
22E
100
AcDbEntity
  8
0
100
AcDbLine
 62
7
  6
CONTINUOUS
 10
-213.7140126772
 20
59.5
 11
-213.7140126772
 21
68.5
  0
LINE
  5
22F
100
AcDbEntity
  8
0
100
AcDbLine
 62
7
  6
CONTINUOUS
 10
-143.7140126772
 20
40.6151428405
 11
-143.7140126772
 21
68.5
  0
LINE
  5
230
100
AcDbEntity
  8
0
100
AcDbLine
 62
7
  6
CONTINUOUS
 10
-213.7140126772
 20
67.0
 11
-178.7140126772
 21
67.0
  0
LINE
  5
231
100
AcDbEntity
  8
0
100
AcDbLine
 62
7
  6
CONTINUOUS
 10
-143.7140126772
 20
67.0
 11
-178.7140126772
 21
67.0
  0
INSERT
  5
232
100
AcDbEntity
  8
0
100
AcDbBlockReference
 62
7
  6
CONTINUOUS
  2
_FILLED
 10
-213.7140126772
 20
67.0
 41
3.0
 42
3.0
 43
3.0
 50
180.0
  0
INSERT
  5
233
100
AcDbEntity
  8
0
100
AcDbBlockReference
 62
7
  6
CONTINUOUS
  2
_FILLED
 10
-143.7140126772
 20
67.0
 41
3.0
 42
3.0
 43
3.0
  0
ENDBLK
  5
234
100
AcDbEntity
  8
0
  6
BYBLOCK
 62
0
100
AcDbBlockEnd
  0
BLOCK
  5
235
100
AcDbEntity
  8
0
100
AcDbBlockBegin
 62
7
  6
CONTINUOUS
  2
*D2
 70
65
 10
0.0
 20
0.0
  3
*D2
  1

  0
MTEXT
  5
236
100
AcDbEntity
  8
0
100
AcDbMText
 62
7
  6
CONTINUOUS
  7
STANDARD
 71
3
 72
1
 10
-222.5247684614
 20
70.75
 30
0.0
 11
1.0
 21
0.0
 31
0.0
 44
0.9
  1
5,7
 40
3.0
 41
6.2142857143
  0
LINE
  5
237
100
AcDbEntity
  8
0
100
AcDbLine
 62
7
  6
CONTINUOUS
 10
-213.7140126772
 20
59.5
 11
-213.7140126772
 21
68.5
  0
LINE
  5
238
100
AcDbEntity
  8
0
100
AcDbLine
 62
7
  6
CONTINUOUS
 10
-219.4140126772
 20
57.4999996828
 11
-219.4140126772
 21
68.5
  0
LINE
  5
239
100
AcDbEntity
  8
0
100
AcDbLine
 62
7
  6
CONTINUOUS
 10
-213.7140126772
 20
67.0
 11
-209.7140126772
 21
67.0
  0
LINE
  5
23A
100
AcDbEntity
  8
0
100
AcDbLine
 62
7
  6
CONTINUOUS
 10
-209.7140126772
 20
67.0
 11
-216.5640126772
 21
67.0
  0
LINE
  5
23B
100
AcDbEntity
  8
0
100
AcDbLine
 62
7
  6
CONTINUOUS
 10
-219.4140126772
 20
67.0
 11
-228.7390541757
 21
67.0
  0
LINE
  5
23C
100
AcDbEntity
  8
0
100
AcDbLine
 62
7
  6
CONTINUOUS
 10
-228.7390541757
 20
67.0
 11
-216.5640126772
 21
67.0
  0
INSERT
  5
23D
100
AcDbEntity
  8
0
100
AcDbBlockReference
 62
7
  6
CONTINUOUS
  2
_NONE
 10
-213.7140126772
 20
67.0
 41
3.0
 42
3.0
 43
3.0
 50
180.0
  0
INSERT
  5
23E
100
AcDbEntity
  8
0
100
AcDbBlockReference
 62
7
  6
CONTINUOUS
  2
_FILLED
 10
-219.4140126772
 20
67.0
 41
3.0
 42
3.0
 43
3.0
  0
ENDBLK
  5
23F
100
AcDbEntity
  8
0
  6
BYBLOCK
 62
0
100
AcDbBlockEnd
  0
BLOCK
  5
240
100
AcDbEntity
  8
0
100
AcDbBlockBegin
 62
7
  6
CONTINUOUS
  2
*D3
 70
65
 10
0.0
 20
0.0
  3
*D3
  1

  0
MTEXT
  5
241
100
AcDbEntity
  8
0
100
AcDbMText
 62
7
  6
CONTINUOUS
  7
STANDARD
 71
2
 72
1
 10
0.0
 20
80.75
 30
0.0
 11
1.0
 21
0.0
 31
0.0
 44
0.9
  1
179
 40
3.0
 41
6.4285714286
  0
LINE
  5
242
100
AcDbEntity
  8
0
100
AcDbLine
 62
7
  6
CONTINUOUS
 10
89.5
 20
49.4999999965
 11
89.5
 21
78.5
  0
LINE
  5
243
100
AcDbEntity
  8
0
100
AcDbLine
 62
7
  6
CONTINUOUS
 10
-89.5
 20
49.5
 11
-89.5
 21
78.5
  0
LINE
  5
244
100
AcDbEntity
  8
0
100
AcDbLine
 62
7
  6
CONTINUOUS
 10
89.5
 20
77.0
 11
0.0
 21
77.0
  0
LINE
  5
245
100
AcDbEntity
  8
0
100
AcDbLine
 62
7
  6
CONTINUOUS
 10
-89.5
 20
77.0
 11
0.0
 21
77.0
  0
INSERT
  5
246
100
AcDbEntity
  8
0
100
AcDbBlockReference
 62
7
  6
CONTINUOUS
  2
_FILLED
 10
89.5
 20
77.0
 41
3.0
 42
3.0
 43
3.0
  0
INSERT
  5
247
100
AcDbEntity
  8
0
100
AcDbBlockReference
 62
7
  6
CONTINUOUS
  2
_FILLED
 10
-89.5
 20
77.0
 41
3.0
 42
3.0
 43
3.0
 50
180.0
  0
ENDBLK
  5
248
100
AcDbEntity
  8
0
  6
BYBLOCK
 62
0
100
AcDbBlockEnd
  0
BLOCK
  5
249
100
AcDbEntity
  8
0
100
AcDbBlockBegin
 62
7
  6
CONTINUOUS
  2
*D4
 70
65
 10
0.0
 20
0.0
  3
*D4
  1

  0
MTEXT
  5
24A
100
AcDbEntity
  8
0
100
AcDbMText
 62
7
  6
CONTINUOUS
  7
STANDARD
 71
2
 72
1
 10
103.75
 20
-0.0
 30
0.0
 11
0.0
 21
1.0
 31
0.0
 44
0.9
  1
118
 40
3.0
 41
5.7857142857
  0
LINE
  5
24B
100
AcDbEntity
  8
0
100
AcDbLine
 62
7
  6
CONTINUOUS
 10
80.0
 20
59.0
 11
109.0
 21
59.0
  0
LINE
  5
24C
100
AcDbEntity
  8
0
100
AcDbLine
 62
7
  6
CONTINUOUS
 10
79.9999999965
 20
-59.0
 11
109.0
 21
-59.0
  0
LINE
  5
24D
100
AcDbEntity
  8
0
100
AcDbLine
 62
7
  6
CONTINUOUS
 10
107.5
 20
59.0
 11
107.5
 21
-0.0
  0
LINE
  5
24E
100
AcDbEntity
  8
0
100
AcDbLine
 62
7
  6
CONTINUOUS
 10
107.5
 20
-59.0
 11
107.5
 21
-0.0
  0
INSERT
  5
24F
100
AcDbEntity
  8
0
100
AcDbBlockReference
 62
7
  6
CONTINUOUS
  2
_FILLED
 10
107.5
 20
59.0
 41
3.0
 42
3.0
 43
3.0
 50
90.0
  0
INSERT
  5
250
100
AcDbEntity
  8
0
100
AcDbBlockReference
 62
7
  6
CONTINUOUS
  2
_FILLED
 10
107.5
 20
-59.0
 41
3.0
 42
3.0
 43
3.0
 50
270.0
  0
ENDBLK
  5
251
100
AcDbEntity
  8
0
  6
BYBLOCK
 62
0
100
AcDbBlockEnd
  0
BLOCK
  5
252
100
AcDbEntity
  8
0
100
AcDbBlockBegin
 62
7
  6
CONTINUOUS
  2
*D5
 70
65
 10
0.0
 20
0.0
  3
*D5
  1

  0
MTEXT
  5
253
100
AcDbEntity
  8
0
100
AcDbMText
 62
7
  6
CONTINUOUS
  7
STANDARD
 71
2
 72
1
 10
0.0
 20
70.75
 30
0.0
 11
1.0
 21
0.0
 31
0.0
 44
0.9
  1
139
 40
3.0
 41
6.2142857143
  0
LINE
  5
254
100
AcDbEntity
  8
0
100
AcDbLine
 62
7
  6
CONTINUOUS
 10
69.5
 20
39.5
 11
69.5
 21
68.5
  0
LINE
  5
255
100
AcDbEntity
  8
0
100
AcDbLine
 62
7
  6
CONTINUOUS
 10
-69.5
 20
39.5
 11
-69.5
 21
68.5
  0
LINE
  5
256
100
AcDbEntity
  8
0
100
AcDbLine
 62
7
  6
CONTINUOUS
 10
69.5
 20
67.0
 11
0.0
 21
67.0
  0
LINE
  5
257
100
AcDbEntity
  8
0
100
AcDbLine
 62
7
  6
CONTINUOUS
 10
-69.5
 20
67.0
 11
0.0
 21
67.0
  0
INSERT
  5
258
100
AcDbEntity
  8
0
100
AcDbBlockReference
 62
7
  6
CONTINUOUS
  2
_FILLED
 10
69.5
 20
67.0
 41
3.0
 42
3.0
 43
3.0
  0
INSERT
  5
259
100
AcDbEntity
  8
0
100
AcDbBlockReference
 62
7
  6
CONTINUOUS
  2
_FILLED
 10
-69.5
 20
67.0
 41
3.0
 42
3.0
 43
3.0
 50
180.0
  0
ENDBLK
  5
25A
100
AcDbEntity
  8
0
  6
BYBLOCK
 62
0
100
AcDbBlockEnd
  0
BLOCK
  5
25B
100
AcDbEntity
  8
0
100
AcDbBlockBegin
 62
7
  6
CONTINUOUS
  2
*D6
 70
65
 10
0.0
 20
0.0
  3
*D6
  1

  0
MTEXT
  5
25C
100
AcDbEntity
  8
0
100
AcDbMText
 62
7
  6
CONTINUOUS
  7
STANDARD
 71
2
 72
1
 10
93.75
 20
-0.0
 30
0.0
 11
0.0
 21
1.0
 31
0.0
 44
0.9
  1
78
 40
3.0
 41
4.7142857143
  0
LINE
  5
25D
100
AcDbEntity
  8
0
100
AcDbLine
 62
7
  6
CONTINUOUS
 10
70.0
 20
39.0
 11
99.0
 21
39.0
  0
LINE
  5
25E
100
AcDbEntity
  8
0
100
AcDbLine
 62
7
  6
CONTINUOUS
 10
70.0
 20
-39.0
 11
99.0
 21
-39.0
  0
LINE
  5
25F
100
AcDbEntity
  8
0
100
AcDbLine
 62
7
  6
CONTINUOUS
 10
97.5
 20
39.0
 11
97.5
 21
-0.0
  0
LINE
  5
260
100
AcDbEntity
  8
0
100
AcDbLine
 62
7
  6
CONTINUOUS
 10
97.5
 20
-39.0
 11
97.5
 21
-0.0
  0
INSERT
  5
261
100
AcDbEntity
  8
0
100
AcDbBlockReference
 62
7
  6
CONTINUOUS
  2
_FILLED
 10
97.5
 20
39.0
 41
3.0
 42
3.0
 43
3.0
 50
90.0
  0
INSERT
  5
262
100
AcDbEntity
  8
0
100
AcDbBlockReference
 62
7
  6
CONTINUOUS
  2
_FILLED
 10
97.5
 20
-39.0
 41
3.0
 42
3.0
 43
3.0
 50
270.0
  0
ENDBLK
  5
263
100
AcDbEntity
  8
0
  6
BYBLOCK
 62
0
100
AcDbBlockEnd
  0
ENDSEC
  0
SECTION
  2
ENTITIES
  0
DIMENSION
  5
264
100
AcDbEntity
  8
0
100
AcDbDimension
 62
7
  6
CONTINUOUS
  2
*D0
 10
-143.7140126772
 20
77.0
 11
-185.8497269629
 21
79.25
 70
160
 71
2
 42
75.7
  3
DIMSTYLE_1
100
AcDbAlignedDimension
 13
-219.4140126772
 23
57.4999996828
 14
-143.7140126772
 24
41.2726713389
100
AcDbRotatedDimension
  0
DIMENSION
  5
265
100
AcDbEntity
  8
0
100
AcDbDimension
 62
7
  6
CONTINUOUS
  2
*D1
 10
-143.7140126772
 20
67.0
 11
-181.0711555344
 21
69.25
 70
160
 71
2
 42
70.0
  3
DIMSTYLE_1
100
AcDbAlignedDimension
 13
-213.7140126772
 23
59.5
 14
-143.7140126772
 24
40.6151428405
100
AcDbRotatedDimension
  0
DIMENSION
  5
266
100
AcDbEntity
  8
0
100
AcDbDimension
 62
7
  6
CONTINUOUS
  2
*D2
 10
-219.4140126772
 20
67.0
 11
-231.8461970328
 21
69.25
 70
160
 71
3
 42
5.7
  3
DIMSTYLE_1
100
AcDbAlignedDimension
 13
-213.7140126772
 23
59.5
 14
-219.4140126772
 24
57.4999996828
 50
180.0
100
AcDbRotatedDimension
1001
ACAD
1000
DSTYLE
1002
{
1070
173
1070
1
1070
6
1000
_NONE
1002
}
  0
DIMENSION
  5
267
100
AcDbEntity
  8
0
100
AcDbDimension
 62
7
  6
CONTINUOUS
  2
*D3
 10
-89.5
 20
77.0
 11
-3.2142857143
 21
79.25
 70
160
 71
2
 42
179.0
  3
DIMSTYLE_1
100
AcDbAlignedDimension
 13
89.5
 23
49.4999999965
 14
-89.5
 24
49.5
 50
180.0
100
AcDbRotatedDimension
  0
DIMENSION
  5
268
100
AcDbEntity
  8
0
100
AcDbDimension
 62
7
  6
CONTINUOUS
  2
*D4
 10
107.5
 20
-59.0
 11
106.5462129609
 21
-2.586204634
 70
160
 71
2
 42
118.0
  3
DIMSTYLE_1
100
AcDbAlignedDimension
 13
80.0
 23
59.0
 14
79.9999999965
 24
-59.0
 50
270.0
100
AcDbRotatedDimension
  0
DIMENSION
  5
269
100
AcDbEntity
  8
0
100
AcDbDimension
 62
7
  6
CONTINUOUS
  2
*D5
 10
-69.5
 20
67.0
 11
-3.1071428571
 21
69.25
 70
160
 71
2
 42
139.0
  3
DIMSTYLE_1
100
AcDbAlignedDimension
 13
69.5
 23
39.5
 14
-69.5
 24
39.5
 50
180.0
100
AcDbRotatedDimension
  0
DIMENSION
  5
26A
100
AcDbEntity
  8
0
100
AcDbDimension
 62
7
  6
CONTINUOUS
  2
*D6
 10
97.5
 20
-39.0
 11
96.3061735237
 21
-2.1072778499
 70
160
 71
2
 42
78.0
  3
DIMSTYLE_1
100
AcDbAlignedDimension
 13
70.0
 23
39.0
 14
70.0
 24
-39.0
 50
270.0
100
AcDbRotatedDimension
  0
LINE
  5
26B
100
AcDbEntity
  8
RACCORDO
100
AcDbLine
 62
7
  6
CONTINUOUS
 10
-89.5
 20
49.0
 11
-89.5
 21
-49.0
  0
LINE
  5
26C
100
AcDbEntity
  8
CURVE
100
AcDbLine
 62
7
  6
CONTINUOUS
 10
-89.5
 20
49.0
 11
-89.5
 21
-49.0
  0
LINE
  5
26D
100
AcDbEntity
  8
RACCORDO
100
AcDbLine
 62
253
  6
CONTINUOUS
 10
-87.5
 20
49.0
 11
-87.5
 21
-49.0
  0
LINE
  5
26E
100
AcDbEntity
  8
RACCORDO
100
AcDbLine
 62
253
  6
CONTINUOUS
 10
-79.5
 20
-57.0
 11
-79.5
 21
-59.0
  0
LINE
  5
26F
100
AcDbEntity
  8
RACCORDO
100
AcDbLine
 62
253
  6
CONTINUOUS
 10
-79.5
 20
57.0
 11
-79.4999999965
 21
59.0
  0
LINE
  5
270
100
AcDbEntity
  8
0
100
AcDbLine
 62
7
  6
CONTINUOUS
 10
-70.0197234842
 20
39.5197234842
 11
-69.85
 21
40.0901949367
  0
LINE
  5
271
100
AcDbEntity
  8
0
100
AcDbLine
 62
7
  6
CONTINUOUS
 10
-69.85
 20
-40.0901949367
 11
-70.0197234842
 21
-39.5197234842
  0
LINE
  5
272
100
AcDbEntity
  8
0
100
AcDbLine
 62
7
  6
CONTINUOUS
 10
-70.645
 20
-39.35
 11
-70.645
 21
-38.65
  0
LINE
  5
273
100
AcDbEntity
  8
0
100
AcDbLine
 62
7
  6
CONTINUOUS
 10
-70.645
 20
38.65
 11
-70.645
 21
39.35
  0
LINE
  5
274
100
AcDbEntity
  8
0
100
AcDbLine
 62
7
  6
CONTINUOUS
 10
-69.15
 20
37.9098050633
 11
-68.9802765158
 21
38.4802765158
  0
LINE
  5
275
100
AcDbEntity
  8
0
100
AcDbLine
 62
7
  6
CONTINUOUS
 10
-68.9802765158
 20
-38.4802765158
 11
-69.15
 21
-37.9098050633
  0
LINE
  5
276
100
AcDbEntity
  8
0
100
AcDbLine
 62
7
  6
CONTINUOUS
 10
-70.0
 20
-41.7041634566
 11
-70.0
 21
-39.5860176963
  0
LINE
  5
277
100
AcDbEntity
  8
0
100
AcDbLine
 62
7
  6
CONTINUOUS
 10
-70.0
 20
-38.4139823037
 11
-70.0
 21
-36.2958365434
  0
LINE
  5
278
100
AcDbEntity
  8
0
100
AcDbLine
 62
7
  6
CONTINUOUS
 10
-70.0
 20
36.2958365434
 11
-70.0
 21
38.4139823037
  0
LINE
  5
279
100
AcDbEntity
  8
0
100
AcDbLine
 62
7
  6
CONTINUOUS
 10
-70.0
 20
39.5860176963
 11
-70.0
 21
41.7041634566
  0
LINE
  5
27A
100
AcDbEntity
  8
0
100
AcDbLine
 62
7
  6
CONTINUOUS
 10
-69.85
 20
-40.5937234472
 11
-69.85
 21
-40.0901949367
  0
LINE
  5
27B
100
AcDbEntity
  8
0
100
AcDbLine
 62
7
  6
CONTINUOUS
 10
-69.85
 20
-37.9098050633
 11
-69.85
 21
-37.4062765528
  0
LINE
  5
27C
100
AcDbEntity
  8
0
100
AcDbLine
 62
7
  6
CONTINUOUS
 10
-69.85
 20
37.4062765528
 11
-69.85
 21
37.9098050633
  0
LINE
  5
27D
100
AcDbEntity
  8
0
100
AcDbLine
 62
7
  6
CONTINUOUS
 10
-69.85
 20
40.0901949367
 11
-69.85
 21
40.5937234472
  0
LINE
  5
27E
100
AcDbEntity
  8
0
100
AcDbLine
 62
7
  6
CONTINUOUS
 10
-69.15
 20
-40.5937234472
 11
-69.15
 21
-40.0901949367
  0
LINE
  5
27F
100
AcDbEntity
  8
0
100
AcDbLine
 62
7
  6
CONTINUOUS
 10
-69.15
 20
-37.9098050633
 11
-69.15
 21
-37.4062765528
  0
LINE
  5
280
100
AcDbEntity
  8
0
100
AcDbLine
 62
7
  6
CONTINUOUS
 10
-69.15
 20
37.4062765528
 11
-69.15
 21
37.9098050633
  0
LINE
  5
281
100
AcDbEntity
  8
0
100
AcDbLine
 62
7
  6
CONTINUOUS
 10
-69.15
 20
40.0901949367
 11
-69.15
 21
40.5937234472
  0
LINE
  5
282
100
AcDbEntity
  8
0
100
AcDbLine
 62
7
  6
CONTINUOUS
 10
-69.0
 20
41.7041634566
 11
-69.0
 21
39.5860176963
  0
LINE
  5
283
100
AcDbEntity
  8
0
100
AcDbLine
 62
7
  6
CONTINUOUS
 10
-69.0
 20
38.4139823037
 11
-69.0
 21
36.2958365434
  0
LINE
  5
284
100
AcDbEntity
  8
0
100
AcDbLine
 62
7
  6
CONTINUOUS
 10
-69.0
 20
-36.2958365434
 11
-69.0
 21
-38.4139823037
  0
LINE
  5
285
100
AcDbEntity
  8
0
100
AcDbLine
 62
7
  6
CONTINUOUS
 10
-69.0
 20
-39.5860176963
 11
-69.0
 21
-41.7041634566
  0
LINE
  5
286
100
AcDbEntity
  8
0
100
AcDbLine
 62
7
  6
CONTINUOUS
 10
-68.355
 20
39.35
 11
-68.355
 21
38.65
  0
LINE
  5
287
100
AcDbEntity
  8
0
100
AcDbLine
 62
7
  6
CONTINUOUS
 10
-68.355
 20
-38.65
 11
-68.355
 21
-39.35
  0
LINE
  5
288
100
AcDbEntity
  8
0
100
AcDbLine
 62
7
  6
CONTINUOUS
 10
-70.5901949367
 20
39.35
 11
-70.0197234842
 21
39.5197234842
  0
LINE
  5
289
100
AcDbEntity
  8
0
100
AcDbLine
 62
7
  6
CONTINUOUS
 10
-68.4098050633
 20
38.65
 11
-68.9802765158
 21
38.4802765158
  0
LINE
  5
28A
100
AcDbEntity
  8
RACCORDO
100
AcDbLine
 62
7
  6
CONTINUOUS
 10
-79.5
 20
-59.0
 11
79.5
 21
-59.0
  0
LINE
  5
28B
100
AcDbEntity
  8
CURVE
100
AcDbLine
 62
7
  6
CONTINUOUS
 10
-79.5
 20
-59.0
 11
79.5
 21
-59.0
  0
LINE
  5
28C
100
AcDbEntity
  8
RACCORDO
100
AcDbLine
 62
253
  6
CONTINUOUS
 10
-79.5
 20
-57.0
 11
79.5
 21
-57.0
  0
LINE
  5
28D
100
AcDbEntity
  8
0
100
AcDbLine
 62
7
  6
CONTINUOUS
 10
-70.0197234842
 20
-39.5197234842
 11
-70.5901949367
 21
-39.35
  0
LINE
  5
28E
100
AcDbEntity
  8
0
100
AcDbLine
 62
7
  6
CONTINUOUS
 10
-68.9802765158
 20
-38.4802765158
 11
-68.4098050633
 21
-38.65
  0
LINE
  5
28F
100
AcDbEntity
  8
0
100
AcDbLine
 62
7
  6
CONTINUOUS
 10
-69.85
 20
-37.9098050633
 11
-70.0197234842
 21
-38.4802765158
  0
LINE
  5
290
100
AcDbEntity
  8
0
100
AcDbLine
 62
7
  6
CONTINUOUS
 10
-68.9802765158
 20
-39.5197234842
 11
-69.15
 21
-40.0901949367
  0
LINE
  5
291
100
AcDbEntity
  8
0
100
AcDbLine
 62
7
  6
CONTINUOUS
 10
-69.85
 20
37.9098050633
 11
-70.0197234842
 21
38.4802765158
  0
LINE
  5
292
100
AcDbEntity
  8
0
100
AcDbLine
 62
7
  6
CONTINUOUS
 10
-68.9802765158
 20
39.5197234842
 11
-69.15
 21
40.0901949367
  0
LINE
  5
293
100
AcDbEntity
  8
RACCORDO
100
AcDbLine
 62
253
  6
CONTINUOUS
 10
87.5
 20
-49.0
 11
89.5
 21
-49.0
  0
LINE
  5
294
100
AcDbEntity
  8
RACCORDO
100
AcDbLine
 62
253
  6
CONTINUOUS
 10
-87.5
 20
-49.0
 11
-89.5
 21
-48.9999999965
  0
LINE
  5
295
100
AcDbEntity
  8
0
100
AcDbLine
 62
7
  6
CONTINUOUS
 10
-69.85
 20
-40.5937234472
 11
-69.15
 21
-40.5937234472
  0
LINE
  5
296
100
AcDbEntity
  8
0
100
AcDbLine
 62
7
  6
CONTINUOUS
 10
69.15
 20
-40.5937234472
 11
69.85
 21
-40.5937234472
  0
LINE
  5
297
100
AcDbEntity
  8
0
100
AcDbLine
 62
7
  6
CONTINUOUS
 10
69.85
 20
-40.145
 11
69.15
 21
-40.145
  0
LINE
  5
298
100
AcDbEntity
  8
0
100
AcDbLine
 62
7
  6
CONTINUOUS
 10
-69.15
 20
-40.145
 11
-69.85
 21
-40.145
  0
LINE
  5
299
100
AcDbEntity
  8
0
100
AcDbLine
 62
7
  6
CONTINUOUS
 10
71.4418577643
 20
-39.35
 11
70.5901949367
 21
-39.35
  0
LINE
  5
29A
100
AcDbEntity
  8
0
100
AcDbLine
 62
7
  6
CONTINUOUS
 10
68.4098050633
 20
-39.35
 11
67.5581422357
 21
-39.35
  0
LINE
  5
29B
100
AcDbEntity
  8
0
100
AcDbLine
 62
7
  6
CONTINUOUS
 10
-67.5581422357
 20
-39.35
 11
-68.4098050633
 21
-39.35
  0
LINE
  5
29C
100
AcDbEntity
  8
0
100
AcDbLine
 62
7
  6
CONTINUOUS
 10
-70.5901949367
 20
-39.35
 11
-71.4418577643
 21
-39.35
  0
LINE
  5
29D
100
AcDbEntity
  8
0
100
AcDbLine
 62
7
  6
CONTINUOUS
 10
71.4418577643
 20
-38.65
 11
70.5901949367
 21
-38.65
  0
LINE
  5
29E
100
AcDbEntity
  8
0
100
AcDbLine
 62
7
  6
CONTINUOUS
 10
68.4098050633
 20
-38.65
 11
67.5581422357
 21
-38.65
  0
LINE
  5
29F
100
AcDbEntity
  8
0
100
AcDbLine
 62
7
  6
CONTINUOUS
 10
-67.5581422357
 20
-38.65
 11
-68.4098050633
 21
-38.65
  0
LINE
  5
2A0
100
AcDbEntity
  8
0
100
AcDbLine
 62
7
  6
CONTINUOUS
 10
-70.5901949367
 20
-38.65
 11
-71.4418577643
 21
-38.65
  0
LINE
  5
2A1
100
AcDbEntity
  8
0
100
AcDbLine
 62
7
  6
CONTINUOUS
 10
-69.85
 20
-37.855
 11
-69.15
 21
-37.855
  0
LINE
  5
2A2
100
AcDbEntity
  8
0
100
AcDbLine
 62
7
  6
CONTINUOUS
 10
69.15
 20
-37.855
 11
69.85
 21
-37.855
  0
LINE
  5
2A3
100
AcDbEntity
  8
0
100
AcDbLine
 62
7
  6
CONTINUOUS
 10
-69.85
 20
-37.4062765528
 11
-69.15
 21
-37.4062765528
  0
LINE
  5
2A4
100
AcDbEntity
  8
0
100
AcDbLine
 62
7
  6
CONTINUOUS
 10
69.15
 20
-37.4062765528
 11
69.85
 21
-37.4062765528
  0
LINE
  5
2A5
100
AcDbEntity
  8
0
100
AcDbLine
 62
7
  6
CONTINUOUS
 10
68.4098050633
 20
39.35
 11
68.9802765158
 21
39.5197234842
  0
LINE
  5
2A6
100
AcDbEntity
  8
0
100
AcDbLine
 62
7
  6
CONTINUOUS
 10
70.5901949367
 20
38.65
 11
70.0197234842
 21
38.4802765158
  0
LINE
  5
2A7
100
AcDbEntity
  8
0
100
AcDbLine
 62
7
  6
CONTINUOUS
 10
68.9802765158
 20
-39.5197234842
 11
68.4098050633
 21
-39.35
  0
LINE
  5
2A8
100
AcDbEntity
  8
0
100
AcDbLine
 62
7
  6
CONTINUOUS
 10
70.0197234842
 20
-38.4802765158
 11
70.5901949367
 21
-38.65
  0
LINE
  5
2A9
100
AcDbEntity
  8
0
100
AcDbLine
 62
7
  6
CONTINUOUS
 10
-70.5901949367
 20
-38.65
 11
-70.0197234842
 21
-38.4802765158
  0
LINE
  5
2AA
100
AcDbEntity
  8
0
100
AcDbLine
 62
7
  6
CONTINUOUS
 10
-68.4098050633
 20
-39.35
 11
-68.9802765158
 21
-39.5197234842
  0
LINE
  5
2AB
100
AcDbEntity
  8
0
100
AcDbLine
 62
7
  6
CONTINUOUS
 10
-70.0197234842
 20
38.4802765158
 11
-70.5901949367
 21
38.65
  0
LINE
  5
2AC
100
AcDbEntity
  8
0
100
AcDbLine
 62
7
  6
CONTINUOUS
 10
-68.9802765158
 20
39.5197234842
 11
-68.4098050633
 21
39.35
  0
LINE
  5
2AD
100
AcDbEntity
  8
0
100
AcDbLine
 62
7
  6
CONTINUOUS
 10
-69.85
 20
37.4062765528
 11
-69.15
 21
37.4062765528
  0
LINE
  5
2AE
100
AcDbEntity
  8
0
100
AcDbLine
 62
7
  6
CONTINUOUS
 10
69.15
 20
37.4062765528
 11
69.85
 21
37.4062765528
  0
LINE
  5
2AF
100
AcDbEntity
  8
0
100
AcDbLine
 62
7
  6
CONTINUOUS
 10
69.85
 20
37.855
 11
69.15
 21
37.855
  0
LINE
  5
2B0
100
AcDbEntity
  8
0
100
AcDbLine
 62
7
  6
CONTINUOUS
 10
-69.15
 20
37.855
 11
-69.85
 21
37.855
  0
LINE
  5
2B1
100
AcDbEntity
  8
0
100
AcDbLine
 62
7
  6
CONTINUOUS
 10
71.4418577643
 20
38.65
 11
70.5901949367
 21
38.65
  0
LINE
  5
2B2
100
AcDbEntity
  8
0
100
AcDbLine
 62
7
  6
CONTINUOUS
 10
68.4098050633
 20
38.65
 11
67.5581422357
 21
38.65
  0
LINE
  5
2B3
100
AcDbEntity
  8
0
100
AcDbLine
 62
7
  6
CONTINUOUS
 10
-67.5581422357
 20
38.65
 11
-68.4098050633
 21
38.65
  0
LINE
  5
2B4
100
AcDbEntity
  8
0
100
AcDbLine
 62
7
  6
CONTINUOUS
 10
-70.5901949367
 20
38.65
 11
-71.4418577643
 21
38.65
  0
LINE
  5
2B5
100
AcDbEntity
  8
0
100
AcDbLine
 62
7
  6
CONTINUOUS
 10
71.4418577643
 20
39.35
 11
70.5901949367
 21
39.35
  0
LINE
  5
2B6
100
AcDbEntity
  8
0
100
AcDbLine
 62
7
  6
CONTINUOUS
 10
68.4098050633
 20
39.35
 11
67.5581422357
 21
39.35
  0
LINE
  5
2B7
100
AcDbEntity
  8
0
100
AcDbLine
 62
7
  6
CONTINUOUS
 10
-67.5581422357
 20
39.35
 11
-68.4098050633
 21
39.35
  0
LINE
  5
2B8
100
AcDbEntity
  8
0
100
AcDbLine
 62
7
  6
CONTINUOUS
 10
-70.5901949367
 20
39.35
 11
-71.4418577643
 21
39.35
  0
LINE
  5
2B9
100
AcDbEntity
  8
0
100
AcDbLine
 62
7
  6
CONTINUOUS
 10
-69.85
 20
40.145
 11
-69.15
 21
40.145
  0
LINE
  5
2BA
100
AcDbEntity
  8
0
100
AcDbLine
 62
7
  6
CONTINUOUS
 10
69.15
 20
40.145
 11
69.85
 21
40.145
  0
LINE
  5
2BB
100
AcDbEntity
  8
0
100
AcDbLine
 62
7
  6
CONTINUOUS
 10
-69.85
 20
40.5937234472
 11
-69.15
 21
40.5937234472
  0
LINE
  5
2BC
100
AcDbEntity
  8
0
100
AcDbLine
 62
7
  6
CONTINUOUS
 10
69.15
 20
40.5937234472
 11
69.85
 21
40.5937234472
  0
LINE
  5
2BD
100
AcDbEntity
  8
RACCORDO
100
AcDbLine
 62
253
  6
CONTINUOUS
 10
87.5
 20
49.0
 11
89.5
 21
48.9999999965
  0
LINE
  5
2BE
100
AcDbEntity
  8
RACCORDO
100
AcDbLine
 62
253
  6
CONTINUOUS
 10
-87.5
 20
49.0
 11
-89.5
 21
49.0
  0
LINE
  5
2BF
100
AcDbEntity
  8
0
100
AcDbLine
 62
7
  6
CONTINUOUS
 10
68.9802765158
 20
39.5197234842
 11
69.15
 21
40.0901949367
  0
LINE
  5
2C0
100
AcDbEntity
  8
0
100
AcDbLine
 62
7
  6
CONTINUOUS
 10
69.85
 20
37.9098050633
 11
70.0197234842
 21
38.4802765158
  0
LINE
  5
2C1
100
AcDbEntity
  8
0
100
AcDbLine
 62
7
  6
CONTINUOUS
 10
68.4098050633
 20
-38.65
 11
68.9802765158
 21
-38.4802765158
  0
LINE
  5
2C2
100
AcDbEntity
  8
0
100
AcDbLine
 62
7
  6
CONTINUOUS
 10
70.5901949367
 20
-39.35
 11
70.0197234842
 21
-39.5197234842
  0
LINE
  5
2C3
100
AcDbEntity
  8
RACCORDO
100
AcDbLine
 62
253
  6
CONTINUOUS
 10
79.5
 20
57.0
 11
-79.5
 21
57.0
  0
LINE
  5
2C4
100
AcDbEntity
  8
0
100
AcDbLine
 62
7
  6
CONTINUOUS
 10
68.9802765158
 20
38.4802765158
 11
68.4098050633
 21
38.65
  0
LINE
  5
2C5
100
AcDbEntity
  8
0
100
AcDbLine
 62
7
  6
CONTINUOUS
 10
70.0197234842
 20
39.5197234842
 11
70.5901949367
 21
39.35
  0
LINE
  5
2C6
100
AcDbEntity
  8
0
100
AcDbLine
 62
7
  6
CONTINUOUS
 10
68.9802765158
 20
-39.5197234842
 11
69.15
 21
-40.0901949367
  0
LINE
  5
2C7
100
AcDbEntity
  8
0
100
AcDbLine
 62
7
  6
CONTINUOUS
 10
69.85
 20
-37.9098050633
 11
70.0197234842
 21
-38.4802765158
  0
LINE
  5
2C8
100
AcDbEntity
  8
RACCORDO
100
AcDbLine
 62
7
  6
CONTINUOUS
 10
79.5
 20
59.0
 11
-79.5
 21
59.0
  0
LINE
  5
2C9
100
AcDbEntity
  8
CURVE
100
AcDbLine
 62
7
  6
CONTINUOUS
 10
79.5
 20
59.0
 11
-79.5
 21
59.0
  0
LINE
  5
2CA
100
AcDbEntity
  8
0
100
AcDbLine
 62
7
  6
CONTINUOUS
 10
68.355
 20
-39.35
 11
68.355
 21
-38.65
  0
LINE
  5
2CB
100
AcDbEntity
  8
0
100
AcDbLine
 62
7
  6
CONTINUOUS
 10
68.355
 20
38.65
 11
68.355
 21
39.35
  0
LINE
  5
2CC
100
AcDbEntity
  8
0
100
AcDbLine
 62
7
  6
CONTINUOUS
 10
69.0
 20
-41.7041634566
 11
69.0
 21
-39.5860176963
  0
LINE
  5
2CD
100
AcDbEntity
  8
0
100
AcDbLine
 62
7
  6
CONTINUOUS
 10
69.0
 20
-38.4139823037
 11
69.0
 21
-36.2958365434
  0
LINE
  5
2CE
100
AcDbEntity
  8
0
100
AcDbLine
 62
7
  6
CONTINUOUS
 10
69.0
 20
36.2958365434
 11
69.0
 21
38.4139823037
  0
LINE
  5
2CF
100
AcDbEntity
  8
0
100
AcDbLine
 62
7
  6
CONTINUOUS
 10
69.0
 20
39.5860176963
 11
69.0
 21
41.7041634566
  0
LINE
  5
2D0
100
AcDbEntity
  8
0
100
AcDbLine
 62
7
  6
CONTINUOUS
 10
69.15
 20
-40.5937234472
 11
69.15
 21
-40.0901949367
  0
LINE
  5
2D1
100
AcDbEntity
  8
0
100
AcDbLine
 62
7
  6
CONTINUOUS
 10
69.15
 20
-37.9098050633
 11
69.15
 21
-37.4062765528
  0
LINE
  5
2D2
100
AcDbEntity
  8
0
100
AcDbLine
 62
7
  6
CONTINUOUS
 10
69.15
 20
37.4062765528
 11
69.15
 21
37.9098050633
  0
LINE
  5
2D3
100
AcDbEntity
  8
0
100
AcDbLine
 62
7
  6
CONTINUOUS
 10
69.15
 20
40.0901949367
 11
69.15
 21
40.5937234472
  0
LINE
  5
2D4
100
AcDbEntity
  8
0
100
AcDbLine
 62
7
  6
CONTINUOUS
 10
69.85
 20
-40.5937234472
 11
69.85
 21
-40.0901949367
  0
LINE
  5
2D5
100
AcDbEntity
  8
0
100
AcDbLine
 62
7
  6
CONTINUOUS
 10
69.85
 20
-37.9098050633
 11
69.85
 21
-37.4062765528
  0
LINE
  5
2D6
100
AcDbEntity
  8
0
100
AcDbLine
 62
7
  6
CONTINUOUS
 10
69.85
 20
37.4062765528
 11
69.85
 21
37.9098050633
  0
LINE
  5
2D7
100
AcDbEntity
  8
0
100
AcDbLine
 62
7
  6
CONTINUOUS
 10
69.85
 20
40.0901949367
 11
69.85
 21
40.5937234472
  0
LINE
  5
2D8
100
AcDbEntity
  8
0
100
AcDbLine
 62
7
  6
CONTINUOUS
 10
70.0
 20
41.7041634566
 11
70.0
 21
39.5860176963
  0
LINE
  5
2D9
100
AcDbEntity
  8
0
100
AcDbLine
 62
7
  6
CONTINUOUS
 10
70.0
 20
38.4139823037
 11
70.0
 21
36.2958365434
  0
LINE
  5
2DA
100
AcDbEntity
  8
0
100
AcDbLine
 62
7
  6
CONTINUOUS
 10
70.0
 20
-36.2958365434
 11
70.0
 21
-38.4139823037
  0
LINE
  5
2DB
100
AcDbEntity
  8
0
100
AcDbLine
 62
7
  6
CONTINUOUS
 10
70.0
 20
-39.5860176963
 11
70.0
 21
-41.7041634566
  0
LINE
  5
2DC
100
AcDbEntity
  8
0
100
AcDbLine
 62
7
  6
CONTINUOUS
 10
70.645
 20
39.35
 11
70.645
 21
38.65
  0
LINE
  5
2DD
100
AcDbEntity
  8
0
100
AcDbLine
 62
7
  6
CONTINUOUS
 10
70.645
 20
-38.65
 11
70.645
 21
-39.35
  0
LINE
  5
2DE
100
AcDbEntity
  8
RACCORDO
100
AcDbLine
 62
253
  6
CONTINUOUS
 10
79.5
 20
-57.0
 11
79.4999999965
 21
-59.0
  0
LINE
  5
2DF
100
AcDbEntity
  8
RACCORDO
100
AcDbLine
 62
253
  6
CONTINUOUS
 10
79.5
 20
57.0
 11
79.5
 21
59.0
  0
LINE
  5
2E0
100
AcDbEntity
  8
0
100
AcDbLine
 62
7
  6
CONTINUOUS
 10
68.9802765158
 20
-38.4802765158
 11
69.15
 21
-37.9098050633
  0
LINE
  5
2E1
100
AcDbEntity
  8
0
100
AcDbLine
 62
7
  6
CONTINUOUS
 10
69.85
 20
-40.0901949367
 11
70.0197234842
 21
-39.5197234842
  0
LINE
  5
2E2
100
AcDbEntity
  8
0
100
AcDbLine
 62
7
  6
CONTINUOUS
 10
69.15
 20
37.9098050633
 11
68.9802765158
 21
38.4802765158
  0
LINE
  5
2E3
100
AcDbEntity
  8
0
100
AcDbLine
 62
7
  6
CONTINUOUS
 10
70.0197234842
 20
39.5197234842
 11
69.85
 21
40.0901949367
  0
LINE
  5
2E4
100
AcDbEntity
  8
RACCORDO
100
AcDbLine
 62
253
  6
CONTINUOUS
 10
87.5
 20
-49.0
 11
87.5
 21
49.0
  0
LINE
  5
2E5
100
AcDbEntity
  8
RACCORDO
100
AcDbLine
 62
7
  6
CONTINUOUS
 10
89.5
 20
-49.0
 11
89.5
 21
49.0
  0
LINE
  5
2E6
100
AcDbEntity
  8
CURVE
100
AcDbLine
 62
7
  6
CONTINUOUS
 10
89.5
 20
-49.0
 11
89.5
 21
49.0
  0
LINE
  5
2E7
100
AcDbEntity
  8
RACCORDO
100
AcDbLine
 62
7
  6
CONTINUOUS
 10
-213.7140126772
 20
-59.0
 11
-217.4140126772
 21
-59.0
  0
LINE
  5
2E8
100
AcDbEntity
  8
ASSI
100
AcDbLine
 62
7
  6
CONTINUOUS
 10
-213.7140126772
 20
-59.0
 11
-217.4140126772
 21
-59.0
  0
LINE
  5
2E9
100
AcDbEntity
  8
DRAFT
100
AcDbLine
 62
7
  6
CONTINUOUS
 10
-201.7140126772
 20
51.2
 11
-210.0915433029
 21
46.3632304381
  0
LINE
  5
2EA
100
AcDbEntity
  8
DRAFT
100
AcDbLine
 62
7
  6
CONTINUOUS
 10
-198.6965602708
 20
-52.9473301723
 11
-201.7140126772
 21
-53.0
  0
LINE
  5
2EB
100
AcDbEntity
  8
RACCORDO
100
AcDbLine
 62
7
  6
CONTINUOUS
 10
-198.6965602708
 20
-52.9473301723
 11
-201.7140126772
 21
-53.0
  0
LINE
  5
2EC
100
AcDbEntity
  8
DRAFT
100
AcDbLine
 62
7
  6
CONTINUOUS
 10
-210.8140126772
 20
-53.5
 11
-206.0140126772
 21
-53.5
  0
LINE
  5
2ED
100
AcDbEntity
  8
RACCORDO
100
AcDbLine
 62
253
  6
CONTINUOUS
 10
-212.7314650837
 20
-51.8078419577
 11
-213.7140126772
 21
-51.8078419577
  0
LINE
  5
2EE
100
AcDbEntity
  8
RACCORDO
100
AcDbLine
 62
7
  6
CONTINUOUS
 10
-212.7314650837
 20
-52.8076896529
 11
-201.7140126772
 21
-53.0
  0
LINE
  5
2EF
100
AcDbEntity
  8
RACCORDO
100
AcDbLine
 62
253
  6
CONTINUOUS
 10
-212.7314650837
 20
-51.8078419577
 11
-201.7140126772
 21
-52.0001523048
  0
LINE
  5
2F0
100
AcDbEntity
  8
DRAFT
100
AcDbLine
 62
7
  6
CONTINUOUS
 10
-210.0915433029
 20
-46.3632304381
 11
-201.7140126772
 21
-51.2
  0
LINE
  5
2F1
100
AcDbEntity
  8
RACCORDO
100
AcDbLine
 62
253
  6
CONTINUOUS
 10
-213.7140126772
 20
-49.0
 11
-219.4140126772
 21
-49.0
  0
LINE
  5
2F2
100
AcDbEntity
  8
DRAFT
100
AcDbLine
 62
7
  6
CONTINUOUS
 10
-201.7140126772
 20
-46.5094607791
 11
-213.7140126772
 21
-46.3
  0
LINE
  5
2F3
100
AcDbEntity
  8
DRAFT
100
AcDbLine
 62
7
  6
CONTINUOUS
 10
-197.7140126772
 20
-44.3207189611
 11
-146.7140126772
 21
-43.4305106498
  0
LINE
  5
2F4
100
AcDbEntity
  8
RACCORDO
100
AcDbLine
 62
7
  6
CONTINUOUS
 10
-146.6616554579
 20
-43.4295967511
 11
-146.7140126772
 21
-43.4305106498
  0
LINE
  5
2F5
100
AcDbEntity
  8
DRAFT
100
AcDbLine
 62
7
  6
CONTINUOUS
 10
-146.7140126772
 20
-42.1851590653
 11
-197.7140126772
 21
-42.4999192018
  0
LINE
  5
2F6
100
AcDbEntity
  8
RACCORDO
100
AcDbLine
 62
7
  6
CONTINUOUS
 10
-219.4140126772
 20
-57.0
 11
-219.4140126772
 21
57.0
  0
LINE
  5
2F7
100
AcDbEntity
  8
DRAFT
100
AcDbLine
 62
7
  6
CONTINUOUS
 10
-146.7140126772
 20
-40.0708104306
 11
-197.7140126772
 21
-41.0149949613
  0
LINE
  5
2F8
100
AcDbEntity
  8
DRAFT
100
AcDbLine
 62
7
  6
CONTINUOUS
 10
-146.7154682937
 20
-38.6586617128
 11
-144.2096494095
 21
-38.6367937626
  0
LINE
  5
2F9
100
AcDbEntity
  8
DRAFT
100
AcDbLine
 62
7
  6
CONTINUOUS
 10
-197.7140126772
 20
-39.194195202
 11
-146.7140126772
 21
-38.8254588461
  0
LINE
  5
2FA
100
AcDbEntity
  8
RACCORDO
100
AcDbLine
 62
7
  6
CONTINUOUS
 10
-155.8186804389
 20
-40.2393689886
 11
-144.2096494095
 21
-40.1974048142
  0
LINE
  5
2FB
100
AcDbEntity
  8
RACCORDO
100
AcDbLine
 62
253
  6
CONTINUOUS
 10
-143.7140126772
 20
-40.4300536657
 11
-144.2096494095
 21
-40.4300536657
  0
LINE
  5
2FC
100
AcDbEntity
  8
DRAFT
100
AcDbLine
 62
253
  6
CONTINUOUS
 10
-201.7140126772
 20
-37.5
 11
-213.7140126772
 21
-37.5
  0
LINE
  5
2FD
100
AcDbEntity
  8
DRAFT
100
AcDbLine
 62
7
  6
CONTINUOUS
 10
-196.0933439926
 20
-40.9849908378
 11
-146.7140126772
 21
-41.5944134985
  0
LINE
  5
2FE
100
AcDbEntity
  8
RACCORDO
100
AcDbLine
 62
253
  6
CONTINUOUS
 10
-217.4140126772
 20
-59.0
 11
-217.4140126772
 21
59.0
  0
LINE
  5
2FF
100
AcDbEntity
  8
CURVE
100
AcDbLine
 62
7
  6
CONTINUOUS
 10
-217.4140126772
 20
-59.0
 11
-217.4140126772
 21
59.0
  0
LINE
  5
300
100
AcDbEntity
  8
0
100
AcDbLine
 62
7
  6
CONTINUOUS
 10
-213.7140126772
 20
-59.0
 11
-213.7140126772
 21
59.0
  0
LINE
  5
301
100
AcDbEntity
  8
RACCORDO
100
AcDbLine
 62
7
  6
CONTINUOUS
 10
-145.0140126772
 20
-33.3
 11
-197.7140126772
 21
-34.2198819217
  0
LINE
  5
302
100
AcDbEntity
  8
RACCORDO
100
AcDbLine
 62
7
  6
CONTINUOUS
 10
-146.6660183934
 20
-35.2545109029
 11
-144.2096494095
 21
-35.2330744955
  0
LINE
  5
303
100
AcDbEntity
  8
RACCORDO
100
AcDbLine
 62
253
  6
CONTINUOUS
 10
-146.7140126772
 20
-34.7549868559
 11
-146.6616554579
 21
-34.7545299414
  0
LINE
  5
304
100
AcDbEntity
  8
DRAFT
100
AcDbLine
 62
253
  6
CONTINUOUS
 10
-150.9140126772
 20
-33.25
 11
-147.8140126772
 21
-33.25
  0
LINE
  5
305
100
AcDbEntity
  8
RACCORDO
100
AcDbLine
 62
253
  6
CONTINUOUS
 10
-212.7314650837
 20
-46.317150432
 11
-212.7314650837
 21
-51.8078419577
  0
LINE
  5
306
100
AcDbEntity
  8
RACCORDO
100
AcDbLine
 62
253
  6
CONTINUOUS
 10
-212.7314650837
 20
46.317150432
 11
-212.7314650837
 21
51.8078419577
  0
LINE
  5
307
100
AcDbEntity
  8
DRAFT
100
AcDbLine
 62
7
  6
CONTINUOUS
 10
-210.8140126772
 20
-52.8411589092
 11
-210.8140126772
 21
-53.5
  0
LINE
  5
308
100
AcDbEntity
  8
DRAFT
100
AcDbLine
 62
7
  6
CONTINUOUS
 10
-210.8140126772
 20
52.8411589092
 11
-210.8140126772
 21
53.5
  0
LINE
  5
309
100
AcDbEntity
  8
DRAFT
100
AcDbLine
 62
7
  6
CONTINUOUS
 10
-210.0915433029
 20
27.3153685161
 11
-210.0915433029
 21
26.2846314839
  0
LINE
  5
30A
100
AcDbEntity
  8
DRAFT
100
AcDbLine
 62
7
  6
CONTINUOUS
 10
-210.0915433029
 20
0.5153685161
 11
-210.0915433029
 21
-0.5153685161
  0
LINE
  5
30B
100
AcDbEntity
  8
DRAFT
100
AcDbLine
 62
7
  6
CONTINUOUS
 10
-210.0915433029
 20
-26.2846314839
 11
-210.0915433029
 21
-27.3153685161
  0
LINE
  5
30C
100
AcDbEntity
  8
RACCORDO
100
AcDbLine
 62
253
  6
CONTINUOUS
 10
-197.7140126772
 20
-31.0
 11
-201.7140126772
 21
-31.0
  0
LINE
  5
30D
100
AcDbEntity
  8
RACCORDO
100
AcDbLine
 62
7
  6
CONTINUOUS
 10
-145.0140126772
 20
-31.7
 11
-194.6401912869
 21
-30.8337718302
  0
LINE
  5
30E
100
AcDbEntity
  8
DRAFT
100
AcDbLine
 62
7
  6
CONTINUOUS
 10
-201.7140126772
 20
-27.4615988572
 11
-210.0915433029
 21
-27.3153685161
  0
LINE
  5
30F
100
AcDbEntity
  8
DRAFT
100
AcDbLine
 62
7
  6
CONTINUOUS
 10
-206.0140126772
 20
-52.9249432208
 11
-206.0140126772
 21
-53.5
  0
LINE
  5
310
100
AcDbEntity
  8
DRAFT
100
AcDbLine
 62
7
  6
CONTINUOUS
 10
-206.0140126772
 20
52.9249432208
 11
-206.0140126772
 21
53.5
  0
LINE
  5
311
100
AcDbEntity
  8
DRAFT
100
AcDbLine
 62
7
  6
CONTINUOUS
 10
-201.7140126772
 20
-26.1384011428
 11
-210.0915433029
 21
-26.2846314839
  0
LINE
  5
312
100
AcDbEntity
  8
DRAFT
100
AcDbLine
 62
7
  6
CONTINUOUS
 10
-201.7140126772
 20
-53.0
 11
-201.7140126772
 21
53.0
  0
LINE
  5
313
100
AcDbEntity
  8
SMUSSO
100
AcDbLine
 62
7
  6
CONTINUOUS
 10
-196.1140126772
 20
-18.25
 11
-197.7140126772
 21
-17.8212812921
  0
LINE
  5
314
100
AcDbEntity
  8
RACCORDO
100
AcDbLine
 62
253
  6
CONTINUOUS
 10
-198.6965602708
 20
52.9473301723
 11
-198.6965602708
 21
-52.9473301723
  0
LINE
  5
315
100
AcDbEntity
  8
RACCORDO
100
AcDbLine
 62
7
  6
CONTINUOUS
 10
-197.7140126772
 20
-51.9474824772
 11
-197.7140126772
 21
51.9474824772
  0
LINE
  5
316
100
AcDbEntity
  8
SMUSSO
100
AcDbLine
 62
7
  6
CONTINUOUS
 10
-197.2140888296
 20
17.9552354833
 11
-197.2140888296
 21
14.5447645167
  0
LINE
  5
317
100
AcDbEntity
  8
SMUSSO
100
AcDbLine
 62
7
  6
CONTINUOUS
 10
-197.2140888296
 20
-14.5447645167
 11
-197.2140888296
 21
-17.9552354833
  0
LINE
  5
318
100
AcDbEntity
  8
RACCORDO
100
AcDbLine
 62
7
  6
CONTINUOUS
 10
-196.1140126772
 20
29.3340002875
 11
-196.1140126772
 21
18.25
  0
LINE
  5
319
100
AcDbEntity
  8
RACCORDO
100
AcDbLine
 62
7
  6
CONTINUOUS
 10
-196.1140126772
 20
14.25
 11
-196.1140126772
 21
3.1659997125
  0
LINE
  5
31A
100
AcDbEntity
  8
RACCORDO
100
AcDbLine
 62
7
  6
CONTINUOUS
 10
-196.1140126772
 20
-3.1659997125
 11
-196.1140126772
 21
-14.25
  0
LINE
  5
31B
100
AcDbEntity
  8
RACCORDO
100
AcDbLine
 62
7
  6
CONTINUOUS
 10
-196.1140126772
 20
-18.25
 11
-196.1140126772
 21
-29.3340002875
  0
LINE
  5
31C
100
AcDbEntity
  8
SMUSSO
100
AcDbLine
 62
7
  6
CONTINUOUS
 10
-196.1140126772
 20
-14.25
 11
-197.7140126772
 21
-14.6787187079
  0
LINE
  5
31D
100
AcDbEntity
  8
RACCORDO
100
AcDbLine
 62
7
  6
CONTINUOUS
 10
-145.0140126772
 20
-0.8
 11
-194.6401912869
 21
-1.6662281698
  0
LINE
  5
31E
100
AcDbEntity
  8
DRAFT
100
AcDbLine
 62
7
  6
CONTINUOUS
 10
-147.8140126772
 20
0.7011258182
 11
-150.9140126772
 21
0.6470151169
  0
LINE
  5
31F
100
AcDbEntity
  8
DRAFT
100
AcDbLine
 62
7
  6
CONTINUOUS
 10
-201.7140126772
 20
-0.6615988572
 11
-210.0915433029
 21
-0.5153685161
  0
LINE
  5
320
100
AcDbEntity
  8
DRAFT
100
AcDbLine
 62
7
  6
CONTINUOUS
 10
-147.8140126772
 20
-0.7011258182
 11
-150.9140126772
 21
-0.6470151169
  0
LINE
  5
321
100
AcDbEntity
  8
DRAFT
100
AcDbLine
 62
7
  6
CONTINUOUS
 10
-201.7140126772
 20
0.6615988572
 11
-210.0915433029
 21
0.5153685161
  0
LINE
  5
322
100
AcDbEntity
  8
RACCORDO
100
AcDbLine
 62
7
  6
CONTINUOUS
 10
-145.0140126772
 20
0.8
 11
-194.6401912869
 21
1.6662281698
  0
LINE
  5
323
100
AcDbEntity
  8
SMUSSO
100
AcDbLine
 62
7
  6
CONTINUOUS
 10
-196.1140126772
 20
14.25
 11
-197.7140126772
 21
14.6787187079
  0
LINE
  5
324
100
AcDbEntity
  8
SMUSSO
100
AcDbLine
 62
7
  6
CONTINUOUS
 10
-197.7140126772
 20
-44.8207189611
 11
-197.2140888296
 21
-44.3119927579
  0
LINE
  5
325
100
AcDbEntity
  8
SMUSSO
100
AcDbLine
 62
7
  6
CONTINUOUS
 10
-196.1140126772
 20
18.25
 11
-197.7140126772
 21
17.8212812921
  0
LINE
  5
326
100
AcDbEntity
  8
SMUSSO
100
AcDbLine
 62
7
  6
CONTINUOUS
 10
-197.2140888296
 20
44.3119927579
 11
-197.7140126772
 21
44.8207189611
  0
LINE
  5
327
100
AcDbEntity
  8
DRAFT
100
AcDbLine
 62
7
  6
CONTINUOUS
 10
-201.7140126772
 20
27.4615988572
 11
-210.0915433029
 21
27.3153685161
  0
LINE
  5
328
100
AcDbEntity
  8
DRAFT
100
AcDbLine
 62
7
  6
CONTINUOUS
 10
-201.7140126772
 20
26.1384011428
 11
-210.0915433029
 21
26.2846314839
  0
LINE
  5
329
100
AcDbEntity
  8
RACCORDO
100
AcDbLine
 62
7
  6
CONTINUOUS
 10
-150.9140126772
 20
0.6470151169
 11
-150.9140126772
 21
-0.6470151169
  0
LINE
  5
32A
100
AcDbEntity
  8
DRAFT
100
AcDbLine
 62
7
  6
CONTINUOUS
 10
-150.9140126772
 20
-33.4029848831
 11
-150.9140126772
 21
-31.5970151169
  0
LINE
  5
32B
100
AcDbEntity
  8
DRAFT
100
AcDbLine
 62
7
  6
CONTINUOUS
 10
-150.9140126772
 20
-0.9029848831
 11
-150.9140126772
 21
-0.6470151169
  0
LINE
  5
32C
100
AcDbEntity
  8
DRAFT
100
AcDbLine
 62
7
  6
CONTINUOUS
 10
-150.9140126772
 20
0.6470151169
 11
-150.9140126772
 21
0.9029848831
  0
LINE
  5
32D
100
AcDbEntity
  8
DRAFT
100
AcDbLine
 62
7
  6
CONTINUOUS
 10
-150.9140126772
 20
31.5970151169
 11
-150.9140126772
 21
33.4029848831
  0
LINE
  5
32E
100
AcDbEntity
  8
RACCORDO
100
AcDbLine
 62
7
  6
CONTINUOUS
 10
-145.0140126772
 20
31.7
 11
-194.6401912869
 21
30.8337718302
  0
LINE
  5
32F
100
AcDbEntity
  8
RACCORDO
100
AcDbLine
 62
253
  6
CONTINUOUS
 10
-197.7140126772
 20
31.0
 11
-201.7140126772
 21
31.0
  0
LINE
  5
330
100
AcDbEntity
  8
DRAFT
100
AcDbLine
 62
253
  6
CONTINUOUS
 10
-150.9140126772
 20
33.25
 11
-147.8140126772
 21
33.25
  0
LINE
  5
331
100
AcDbEntity
  8
DRAFT
100
AcDbLine
 62
7
  6
CONTINUOUS
 10
-147.8140126772
 20
-33.3488741818
 11
-147.8140126772
 21
-31.6511258182
  0
LINE
  5
332
100
AcDbEntity
  8
DRAFT
100
AcDbLine
 62
7
  6
CONTINUOUS
 10
-147.8140126772
 20
-0.8488741818
 11
-147.8140126772
 21
0.8488741818
  0
LINE
  5
333
100
AcDbEntity
  8
DRAFT
100
AcDbLine
 62
7
  6
CONTINUOUS
 10
-147.8140126772
 20
31.6511258182
 11
-147.8140126772
 21
33.3488741818
  0
LINE
  5
334
100
AcDbEntity
  8
DRAFT
100
AcDbLine
 62
7
  6
CONTINUOUS
 10
-146.7140126772
 20
-43.4305106498
 11
-146.7140126772
 21
-41.5944134985
  0
LINE
  5
335
100
AcDbEntity
  8
DRAFT
100
AcDbLine
 62
7
  6
CONTINUOUS
 10
-146.7140126772
 20
-40.0708104306
 11
-146.7140126772
 21
-38.8254588461
  0
LINE
  5
336
100
AcDbEntity
  8
RACCORDO
100
AcDbLine
 62
7
  6
CONTINUOUS
 10
-146.7140126772
 20
-38.8254588461
 11
-146.7140126772
 21
-34.7549868559
  0
LINE
  5
337
100
AcDbEntity
  8
RACCORDO
100
AcDbLine
 62
7
  6
CONTINUOUS
 10
-146.7140126772
 20
34.7549868559
 11
-146.7140126772
 21
38.8254588461
  0
LINE
  5
338
100
AcDbEntity
  8
DRAFT
100
AcDbLine
 62
7
  6
CONTINUOUS
 10
-146.7140126772
 20
38.8254588461
 11
-146.7140126772
 21
40.0708104306
  0
LINE
  5
339
100
AcDbEntity
  8
DRAFT
100
AcDbLine
 62
7
  6
CONTINUOUS
 10
-146.7140126772
 20
41.5944134985
 11
-146.7140126772
 21
43.4305106498
  0
LINE
  5
33A
100
AcDbEntity
  8
RACCORDO
100
AcDbLine
 62
253
  6
CONTINUOUS
 10
-146.6616554579
 20
34.7545299414
 11
-146.6616554579
 21
33.3287597117
  0
LINE
  5
33B
100
AcDbEntity
  8
RACCORDO
100
AcDbLine
 62
253
  6
CONTINUOUS
 10
-146.6616554579
 20
31.6712402883
 11
-146.6616554579
 21
0.8287597117
  0
LINE
  5
33C
100
AcDbEntity
  8
RACCORDO
100
AcDbLine
 62
253
  6
CONTINUOUS
 10
-146.6616554579
 20
-0.8287597117
 11
-146.6616554579
 21
-31.6712402883
  0
LINE
  5
33D
100
AcDbEntity
  8
RACCORDO
100
AcDbLine
 62
253
  6
CONTINUOUS
 10
-146.6616554579
 20
-33.3287597117
 11
-146.6616554579
 21
-34.7545299414
  0
LINE
  5
33E
100
AcDbEntity
  8
RACCORDO
100
AcDbLine
 62
7
  6
CONTINUOUS
 10
-145.0140126772
 20
-33.3
 11
-145.0140126772
 21
-31.7
  0
LINE
  5
33F
100
AcDbEntity
  8
RACCORDO
100
AcDbLine
 62
7
  6
CONTINUOUS
 10
-145.0140126772
 20
-0.8
 11
-145.0140126772
 21
0.8
  0
LINE
  5
340
100
AcDbEntity
  8
RACCORDO
100
AcDbLine
 62
7
  6
CONTINUOUS
 10
-145.0140126772
 20
31.7
 11
-145.0140126772
 21
33.3
  0
LINE
  5
341
100
AcDbEntity
  8
RACCORDO
100
AcDbLine
 62
253
  6
CONTINUOUS
 10
-144.2096494095
 20
40.4300536657
 11
-144.2096494095
 21
35.2330744955
  0
LINE
  5
342
100
AcDbEntity
  8
RACCORDO
100
AcDbLine
 62
253
  6
CONTINUOUS
 10
-144.2096494095
 20
-35.2330744955
 11
-144.2096494095
 21
-40.4300536657
  0
LINE
  5
343
100
AcDbEntity
  8
RACCORDO
100
AcDbLine
 62
7
  6
CONTINUOUS
 10
-143.7140126772
 20
40.4300536657
 11
-143.7140126772
 21
-40.4300536657
  0
LINE
  5
344
100
AcDbEntity
  8
DRAFT
100
AcDbLine
 62
253
  6
CONTINUOUS
 10
-201.7140126772
 20
37.5
 11
-213.7140126772
 21
37.5
  0
LINE
  5
345
100
AcDbEntity
  8
RACCORDO
100
AcDbLine
 62
253
  6
CONTINUOUS
 10
-146.6616554579
 20
34.7545299414
 11
-146.7140126772
 21
34.7549868559
  0
LINE
  5
346
100
AcDbEntity
  8
RACCORDO
100
AcDbLine
 62
7
  6
CONTINUOUS
 10
-144.2096494095
 20
35.2330744955
 11
-146.6660183934
 21
35.2545109029
  0
LINE
  5
347
100
AcDbEntity
  8
RACCORDO
100
AcDbLine
 62
7
  6
CONTINUOUS
 10
-145.0140126772
 20
33.3
 11
-197.7140126772
 21
34.2198819217
  0
LINE
  5
348
100
AcDbEntity
  8
DRAFT
100
AcDbLine
 62
7
  6
CONTINUOUS
 10
-196.0933439926
 20
40.9849908378
 11
-146.7140126772
 21
41.5944134985
  0
LINE
  5
349
100
AcDbEntity
  8
RACCORDO
100
AcDbLine
 62
253
  6
CONTINUOUS
 10
-143.7140126772
 20
40.4300536657
 11
-144.2096494095
 21
40.4300536657
  0
LINE
  5
34A
100
AcDbEntity
  8
RACCORDO
100
AcDbLine
 62
7
  6
CONTINUOUS
 10
-155.8186804389
 20
40.2393689886
 11
-144.2096494095
 21
40.1974048142
  0
LINE
  5
34B
100
AcDbEntity
  8
DRAFT
100
AcDbLine
 62
7
  6
CONTINUOUS
 10
-146.7140126772
 20
42.1851590653
 11
-197.7140126772
 21
42.4999192018
  0
LINE
  5
34C
100
AcDbEntity
  8
DRAFT
100
AcDbLine
 62
7
  6
CONTINUOUS
 10
-197.7140126772
 20
39.194195202
 11
-146.7140126772
 21
38.8254588461
  0
LINE
  5
34D
100
AcDbEntity
  8
DRAFT
100
AcDbLine
 62
7
  6
CONTINUOUS
 10
-146.7154682937
 20
38.6586617128
 11
-144.2096494095
 21
38.6367937626
  0
LINE
  5
34E
100
AcDbEntity
  8
DRAFT
100
AcDbLine
 62
7
  6
CONTINUOUS
 10
-146.7140126772
 20
40.0708104306
 11
-197.7140126772
 21
41.0149949613
  0
LINE
  5
34F
100
AcDbEntity
  8
DRAFT
100
AcDbLine
 62
7
  6
CONTINUOUS
 10
-201.7140126772
 20
46.5094607791
 11
-213.7140126772
 21
46.3
  0
LINE
  5
350
100
AcDbEntity
  8
DRAFT
100
AcDbLine
 62
7
  6
CONTINUOUS
 10
-197.7140126772
 20
44.3207189611
 11
-146.7140126772
 21
43.4305106498
  0
LINE
  5
351
100
AcDbEntity
  8
RACCORDO
100
AcDbLine
 62
7
  6
CONTINUOUS
 10
-146.7140126772
 20
43.4305106498
 11
-146.6616554579
 21
43.4295967511
  0
LINE
  5
352
100
AcDbEntity
  8
RACCORDO
100
AcDbLine
 62
253
  6
CONTINUOUS
 10
-213.7140126772
 20
49.0
 11
-219.4140126772
 21
49.0
  0
LINE
  5
353
100
AcDbEntity
  8
RACCORDO
100
AcDbLine
 62
253
  6
CONTINUOUS
 10
-213.7140126772
 20
51.8078419577
 11
-212.7314650837
 21
51.8078419577
  0
LINE
  5
354
100
AcDbEntity
  8
RACCORDO
100
AcDbLine
 62
253
  6
CONTINUOUS
 10
-201.7140126772
 20
52.0001523048
 11
-212.7314650837
 21
51.8078419577
  0
LINE
  5
355
100
AcDbEntity
  8
RACCORDO
100
AcDbLine
 62
7
  6
CONTINUOUS
 10
-201.7140126772
 20
53.0
 11
-212.7314650837
 21
52.8076896529
  0
LINE
  5
356
100
AcDbEntity
  8
DRAFT
100
AcDbLine
 62
7
  6
CONTINUOUS
 10
-210.8140126772
 20
53.5
 11
-206.0140126772
 21
53.5
  0
LINE
  5
357
100
AcDbEntity
  8
RACCORDO
100
AcDbLine
 62
7
  6
CONTINUOUS
 10
-198.6965602708
 20
52.9473301723
 11
-201.7140126772
 21
53.0
  0
LINE
  5
358
100
AcDbEntity
  8
RACCORDO
100
AcDbLine
 62
7
  6
CONTINUOUS
 10
-213.7140126772
 20
59.0
 11
-217.4140126772
 21
59.0
  0
ARC
  5
359
100
AcDbEntity
  8
0
100
AcDbCircle
 62
7
  6
CONTINUOUS
 10
-56.8559837131
 20
-39.0
 40
14.5900727153
100
AcDbArc
 50
178.6254046104
 51
181.3745953896
  0
ARC
  5
35A
100
AcDbEntity
  8
0
100
AcDbCircle
 62
7
  6
CONTINUOUS
 10
-82.1440162869
 20
-39.0
 40
14.5900727153
100
AcDbArc
 50
358.6254046104
 51
1.3745953896
  0
ARC
  5
35B
100
AcDbEntity
  8
RACCORDO
100
AcDbCircle
 62
7
  6
CONTINUOUS
 10
-79.5
 20
-49.0
 40
10.0
100
AcDbArc
 50
179.9999999802
 51
270.0000000341
  0
ARC
  5
35C
100
AcDbEntity
  8
CURVE
100
AcDbCircle
 62
7
  6
CONTINUOUS
 10
-79.5
 20
-49.0
 40
10.0
100
AcDbArc
 50
180.0
 51
270.0
  0
ARC
  5
35D
100
AcDbEntity
  8
RACCORDO
100
AcDbCircle
 62
253
  6
CONTINUOUS
 10
-79.5
 20
-49.0
 40
7.9999996828
100
AcDbArc
 50
180.0
 51
270.0
  0
CIRCLE
  5
35E
100
AcDbEntity
  8
0
100
AcDbCircle
 62
7
  6
CONTINUOUS
 10
-69.5
 20
-39.0
 40
3.0
  0
CIRCLE
  5
35F
100
AcDbEntity
  8
0
100
AcDbCircle
 62
7
  6
CONTINUOUS
 10
-69.5
 20
-39.0
 40
2.75
  0
ARC
  5
360
100
AcDbEntity
  8
0
100
AcDbCircle
 62
7
  6
CONTINUOUS
 10
-56.8559837131
 20
39.0
 40
14.5900727153
100
AcDbArc
 50
178.6254046104
 51
181.3745953896
  0
ARC
  5
361
100
AcDbEntity
  8
0
100
AcDbCircle
 62
7
  6
CONTINUOUS
 10
-82.1440162869
 20
39.0
 40
14.5900727153
100
AcDbArc
 50
358.6254046104
 51
1.3745953896
  0
ARC
  5
362
100
AcDbEntity
  8
RACCORDO
100
AcDbCircle
 62
7
  6
CONTINUOUS
 10
-79.5
 20
49.0
 40
10.0
100
AcDbArc
 50
89.9999999802
 51
180.0000000341
  0
ARC
  5
363
100
AcDbEntity
  8
CURVE
100
AcDbCircle
 62
7
  6
CONTINUOUS
 10
-79.5
 20
49.0
 40
10.0
100
AcDbArc
 50
90.0
 51
180.0
  0
ARC
  5
364
100
AcDbEntity
  8
RACCORDO
100
AcDbCircle
 62
253
  6
CONTINUOUS
 10
-79.5
 20
49.0
 40
7.9999996828
100
AcDbArc
 50
90.0
 51
180.0
  0
CIRCLE
  5
365
100
AcDbEntity
  8
0
100
AcDbCircle
 62
7
  6
CONTINUOUS
 10
-69.5
 20
39.0
 40
3.0
  0
CIRCLE
  5
366
100
AcDbEntity
  8
0
100
AcDbCircle
 62
7
  6
CONTINUOUS
 10
-69.5
 20
39.0
 40
2.75
  0
ARC
  5
367
100
AcDbEntity
  8
0
100
AcDbCircle
 62
7
  6
CONTINUOUS
 10
82.1440162869
 20
-39.0
 40
14.5900727153
100
AcDbArc
 50
178.6254046104
 51
181.3745953896
  0
ARC
  5
368
100
AcDbEntity
  8
0
100
AcDbCircle
 62
7
  6
CONTINUOUS
 10
56.8559837131
 20
-39.0
 40
14.5900727153
100
AcDbArc
 50
358.6254046104
 51
1.3745953896
  0
ARC
  5
369
100
AcDbEntity
  8
RACCORDO
100
AcDbCircle
 62
7
  6
CONTINUOUS
 10
79.5
 20
-49.0
 40
10.0
100
AcDbArc
 50
269.9999999802
 51
360.0
  0
ARC
  5
36A
100
AcDbEntity
  8
CURVE
100
AcDbCircle
 62
7
  6
CONTINUOUS
 10
79.5
 20
-49.0
 40
10.0
100
AcDbArc
 50
270.0
 51
360.0
  0
ARC
  5
36B
100
AcDbEntity
  8
RACCORDO
100
AcDbCircle
 62
253
  6
CONTINUOUS
 10
79.5
 20
-49.0
 40
7.9999996828
100
AcDbArc
 50
270.0
 51
360.0
  0
CIRCLE
  5
36C
100
AcDbEntity
  8
0
100
AcDbCircle
 62
7
  6
CONTINUOUS
 10
69.5
 20
-39.0
 40
3.0
  0
CIRCLE
  5
36D
100
AcDbEntity
  8
0
100
AcDbCircle
 62
7
  6
CONTINUOUS
 10
69.5
 20
-39.0
 40
2.75
  0
ARC
  5
36E
100
AcDbEntity
  8
0
100
AcDbCircle
 62
7
  6
CONTINUOUS
 10
82.1440162869
 20
39.0
 40
14.5900727153
100
AcDbArc
 50
178.6254046104
 51
181.3745953896
  0
ARC
  5
36F
100
AcDbEntity
  8
0
100
AcDbCircle
 62
7
  6
CONTINUOUS
 10
56.8559837131
 20
39.0
 40
14.5900727153
100
AcDbArc
 50
358.6254046104
 51
1.3745953896
  0
ARC
  5
370
100
AcDbEntity
  8
RACCORDO
100
AcDbCircle
 62
7
  6
CONTINUOUS
 10
79.5
 20
49.0
 40
10.0
100
AcDbArc
 50
0.0
 51
90.0000000341
  0
ARC
  5
371
100
AcDbEntity
  8
CURVE
100
AcDbCircle
 62
7
  6
CONTINUOUS
 10
79.5
 20
49.0
 40
10.0
100
AcDbArc
 50
0.0
 51
90.0
  0
ARC
  5
372
100
AcDbEntity
  8
RACCORDO
100
AcDbCircle
 62
253
  6
CONTINUOUS
 10
79.5
 20
49.0
 40
7.9999996828
100
AcDbArc
 50
0.0
 51
90.0
  0
CIRCLE
  5
373
100
AcDbEntity
  8
0
100
AcDbCircle
 62
7
  6
CONTINUOUS
 10
69.5
 20
39.0
 40
3.0
  0
CIRCLE
  5
374
100
AcDbEntity
  8
0
100
AcDbCircle
 62
7
  6
CONTINUOUS
 10
69.5
 20
39.0
 40
2.75
  0
ARC
  5
375
100
AcDbEntity
  8
RACCORDO
100
AcDbCircle
 62
7
  6
CONTINUOUS
 10
-146.7140126772
 20
40.4300536657
 40
3.0
100
AcDbArc
 50
0.0
 51
89.0
  0
ARC
  5
376
100
AcDbEntity
  8
RACCORDO
100
AcDbCircle
 62
7
  6
CONTINUOUS
 10
-146.7140126772
 20
-40.4300536657
 40
3.0
100
AcDbArc
 50
271.0
 51
360.0
  0
ARC
  5
377
100
AcDbEntity
  8
RACCORDO
100
AcDbCircle
 62
253
  6
CONTINUOUS
 10
-146.7096995442
 20
40.4300082985
 40
2.5000495798
100
AcDbArc
 50
0.0010397185
 51
88.9988693388
  0
ARC
  5
378
100
AcDbEntity
  8
RACCORDO
100
AcDbCircle
 62
253
  6
CONTINUOUS
 10
-146.7096994953
 20
-40.4300082966
 40
2.5000495541
100
AcDbArc
 50
271.0011295411
 51
359.9989602386
  0
ARC
  5
379
100
AcDbEntity
  8
RACCORDO
100
AcDbCircle
 62
7
  6
CONTINUOUS
 10
-217.4140126772
 20
57.0
 40
2.0
100
AcDbArc
 50
90.0
 51
180.0
  0
ARC
  5
37A
100
AcDbEntity
  8
RACCORDO
100
AcDbCircle
 62
7
  6
CONTINUOUS
 10
-217.4140126772
 20
-57.0
 40
2.0
100
AcDbArc
 50
180.0
 51
270.0
  0
ARC
  5
37B
100
AcDbEntity
  8
RACCORDO
100
AcDbCircle
 62
7
  6
CONTINUOUS
 10
-194.6140126772
 20
-29.3340002875
 40
1.5
100
AcDbArc
 50
180.0
 51
269.0
  0
ARC
  5
37C
100
AcDbEntity
  8
RACCORDO
100
AcDbCircle
 62
7
  6
CONTINUOUS
 10
-194.6140126772
 20
-3.1659997125
 40
1.5
100
AcDbArc
 50
91.0
 51
180.0
  0
ARC
  5
37D
100
AcDbEntity
  8
RACCORDO
100
AcDbCircle
 62
7
  6
CONTINUOUS
 10
-194.6140126772
 20
3.1659997125
 40
1.5
100
AcDbArc
 50
180.0
 51
269.0
  0
ARC
  5
37E
100
AcDbEntity
  8
RACCORDO
100
AcDbCircle
 62
7
  6
CONTINUOUS
 10
-194.6140126772
 20
29.3340002875
 40
1.5
100
AcDbArc
 50
91.0
 51
180.0
  0
ARC
  5
37F
100
AcDbEntity
  8
RACCORDO
100
AcDbCircle
 62
7
  6
CONTINUOUS
 10
-198.7140126772
 20
-51.9474824772
 40
1.0
100
AcDbArc
 50
271.0
 51
360.0
  0
ARC
  5
380
100
AcDbEntity
  8
RACCORDO
100
AcDbCircle
 62
7
  6
CONTINUOUS
 10
-198.7140126772
 20
51.9474824772
 40
1.0
100
AcDbArc
 50
0.0
 51
88.9999999953
  0
ARC
  5
381
100
AcDbEntity
  8
RACCORDO
100
AcDbCircle
 62
7
  6
CONTINUOUS
 10
-212.7140126772
 20
51.8078419577
 40
1.0
100
AcDbArc
 50
91.0
 51
180.0
  0
ARC
  5
382
100
AcDbEntity
  8
RACCORDO
100
AcDbCircle
 62
7
  6
CONTINUOUS
 10
-212.7140126772
 20
-51.8078419577
 40
1.0
100
AcDbArc
 50
180.0
 51
269.0
  0
ARC
  5
383
100
AcDbEntity
  8
RACCORDO
100
AcDbCircle
 62
7
  6
CONTINUOUS
 10
-144.2140126772
 20
-38.1368128011
 40
0.5
100
AcDbArc
 50
270.5
 51
360.0
  0
ARC
  5
384
100
AcDbEntity
  8
RACCORDO
100
AcDbCircle
 62
7
  6
CONTINUOUS
 10
-144.2140126772
 20
38.1368128011
 40
0.5
100
AcDbArc
 50
0.0
 51
89.5
  0
ARC
  5
385
100
AcDbEntity
  8
RACCORDO
100
AcDbCircle
 62
7
  6
CONTINUOUS
 10
-144.2140126772
 20
-34.733093534
 40
0.5
100
AcDbArc
 50
270.5
 51
360.0
  0
ARC
  5
386
100
AcDbEntity
  8
RACCORDO
100
AcDbCircle
 62
7
  6
CONTINUOUS
 10
-144.2141540983
 20
34.7330947682
 40
0.5
100
AcDbArc
 50
359.9998586153
 51
89.4837937162
  0
SPLINE
  5
387
100
AcDbEntity
  8
RACCORDO
100
AcDbSpline
 62
253
  6
CONTINUOUS
 70
0
 71
3
 72
10
 73
6
 74
4
 42
0.0000001
 43
0.0000001
 44
0.0000000001
 12
0.0
 22
-0.4954310571
 32
0.0
 13
-0.4954211419
 23
0.0031344082
 33
0.0
 40
0.0
 40
0.0
 40
0.0
 40
0.0
 40
0.1363646286
 40
0.5006796143
 40
1.0
 40
1.0
 40
1.0
 40
1.0
 10
-143.7140126772
 20
-37.1484678577
 30
0.0
 10
-143.7140126772
 20
-37.170987615
 30
0.0
 10
-143.844158622
 20
-37.1528967556
 30
0.0
 10
-143.967663471
 20
-37.1851820627
 30
0.0
 10
-144.1248677193
 20
-37.1796470686
 30
0.0
 10
-144.2073256779
 20
-37.1791253773
 30
0.0
 11
-143.7140126772
 21
-37.1484678577
 31
0.0
 11
-143.7798383634
 21
-37.1636742472
 31
0.0
 11
-143.9599833382
 21
-37.1748767526
 31
0.0
 11
-144.2073256779
 21
-37.1791253773
 31
0.0
  0
SPLINE
  5
388
100
AcDbEntity
  8
RACCORDO
100
AcDbSpline
 62
7
  6
CONTINUOUS
 70
0
 71
3
 72
9
 73
5
 74
3
 42
0.0000001
 43
0.0000001
 44
0.0000000001
 12
0.3753506546
 22
0.0013568127
 32
0.0
 13
0.3412382827
 23
0.1590408193
 33
0.0
 40
0.0
 40
0.0
 40
0.0
 40
0.0
 40
0.6883575444
 40
1.0
 40
1.0
 40
1.0
 40
1.0
 10
-144.2096494095
 20
-40.1974048142
 30
0.0
 10
-144.1235242579
 20
-40.1970934902
 30
0.0
 10
-143.9977682522
 20
-40.1816361581
 30
0.0
 10
-143.8776614143
 20
-40.1475190169
 30
0.0
 10
-143.8422133021
 20
-40.1309977264
 30
0.0
 11
-144.2096494095
 21
-40.1974048142
 31
0.0
 11
-143.953070847
 21
-40.1669714565
 31
0.0
 11
-143.8422133021
 21
-40.1309977264
 31
0.0
  0
SPLINE
  5
389
100
AcDbEntity
  8
RACCORDO
100
AcDbSpline
 62
7
  6
CONTINUOUS
 70
0
 71
3
 72
9
 73
5
 74
3
 42
0.0000001
 43
0.0000001
 44
0.0000000001
 12
0.1449312579
 22
0.0675480659
 32
0.0
 13
0.060733374
 23
0.1473318263
 33
0.0
 40
0.0
 40
0.0
 40
0.0
 40
0.0
 40
0.479110093
 40
1.0
 40
1.0
 40
1.0
 40
1.0
 10
-143.8422133021
 20
-40.1309977264
 30
0.0
 10
-143.8190672926
 20
-40.1202100731
 30
0.0
 10
-143.7725208597
 20
-40.0924536093
 30
0.0
 10
-143.7313948814
 20
-40.0488152037
 30
0.0
 10
-143.7208497476
 20
-40.0232339833
 30
0.0
 11
-143.8422133021
 21
-40.1309977264
 31
0.0
 11
-143.7757098073
 21
-40.0899676253
 31
0.0
 11
-143.7208497476
 21
-40.0232339833
 31
0.0
  0
SPLINE
  5
38A
100
AcDbEntity
  8
RACCORDO
100
AcDbSpline
 62
7
  6
CONTINUOUS
 70
0
 71
3
 72
8
 73
4
 74
2
 42
0.0000001
 43
0.0000001
 44
0.0000000001
 12
0.0130186129
 22
0.0315815817
 32
0.0
 13
0.0
 23
0.0341728841
 33
0.0
 40
0.0
 40
0.0
 40
0.0
 40
0.0
 40
1.0
 40
1.0
 40
1.0
 40
1.0
 10
-143.7208497476
 20
-40.0232339833
 30
0.0
 10
-143.7165102099
 20
-40.0127067894
 30
0.0
 10
-143.7140126772
 20
-40.0016968804
 30
0.0
 10
-143.7140126772
 20
-39.990305919
 30
0.0
 11
-143.7208497476
 21
-40.0232339833
 31
0.0
 11
-143.7140126772
 21
-39.990305919
 31
0.0
  0
SPLINE
  5
38B
100
AcDbEntity
  8
RACCORDO
100
AcDbSpline
 62
253
  6
CONTINUOUS
 70
0
 71
3
 72
8
 73
4
 74
2
 42
0.0000001
 43
0.0000001
 44
0.0000000001
 12
0.0
 22
0.0742948723
 32
0.0
 13
-0.0153663077
 23
0.0736560837
 33
0.0
 40
0.0
 40
0.0
 40
0.0
 40
0.0
 40
1.0
 40
1.0
 40
1.0
 40
1.0
 10
-143.7140126772
 20
-37.609840549
 30
0.0
 10
-143.7140126772
 20
-37.5850755915
 30
0.0
 10
-143.7167097985
 20
-37.5601605457
 30
0.0
 10
-143.7218319011
 20
-37.5356085178
 30
0.0
 11
-143.7140126772
 21
-37.609840549
 31
0.0
 11
-143.7218319011
 21
-37.5356085178
 31
0.0
  0
SPLINE
  5
38C
100
AcDbEntity
  8
RACCORDO
100
AcDbSpline
 62
253
  6
CONTINUOUS
 70
0
 71
3
 72
9
 73
5
 74
3
 42
0.0000001
 43
0.0000001
 44
0.0000000001
 12
-0.0806627483
 22
0.386644746
 32
0.0
 13
-0.352858133
 23
0.1774263395
 33
0.0
 40
0.0
 40
0.0
 40
0.0
 40
0.0
 40
0.3841692677
 40
1.0
 40
1.0
 40
1.0
 40
1.0
 10
-143.7218319011
 20
-37.5356085178
 30
0.0
 10
-143.7321612841
 20
-37.4860961749
 30
0.0
 10
-143.784719583
 20
-37.3610574801
 30
0.0
 10
-143.8889766815
 20
-37.2745347312
 30
0.0
 10
-143.961410309
 20
-37.2381132004
 30
0.0
 11
-143.7218319011
 21
-37.5356085178
 31
0.0
 11
-143.7801738709
 21
-37.3957085427
 31
0.0
 11
-143.961410309
 21
-37.2381132004
 31
0.0
  0
SPLINE
  5
38D
100
AcDbEntity
  8
RACCORDO
100
AcDbSpline
 62
253
  6
CONTINUOUS
 70
0
 71
3
 72
8
 73
4
 74
2
 42
0.0000001
 43
0.0000001
 44
0.0000000001
 12
-0.2308545892
 22
0.1160797524
 32
0.0
 13
-0.255145808
 23
0.0019181873
 33
0.0
 40
0.0
 40
0.0
 40
0.0
 40
0.0
 40
1.0
 40
1.0
 40
1.0
 40
1.0
 10
-143.961410309
 20
-37.2381132004
 30
0.0
 10
-144.0383618387
 20
-37.1994199496
 30
0.0
 10
-144.1246008068
 20
-37.1797575813
 30
0.0
 10
-144.2096494095
 20
-37.1791181856
 30
0.0
 11
-143.961410309
 21
-37.2381132004
 31
0.0
 11
-144.2096494095
 21
-37.1791181856
 31
0.0
  0
SPLINE
  5
38E
100
AcDbEntity
  8
RACCORDO
100
AcDbSpline
 62
253
  6
CONTINUOUS
 70
0
 71
3
 72
10
 73
6
 74
4
 42
0.0000001
 43
0.0000001
 44
0.0000000001
 12
0.0043381535
 22
-0.4972809153
 32
0.0
 13
-0.4358670125
 23
-0.0691723517
 33
0.0
 40
0.0
 40
0.0
 40
0.0
 40
0.0
 40
0.50270329
 40
0.8706937085
 40
1.0
 40
1.0
 40
1.0
 40
1.0
 10
-146.6616554579
 20
-34.7545299414
 30
0.0
 10
-146.6609285232
 20
-34.8378581921
 30
0.0
 10
-146.6463820673
 20
-34.9978397633
 30
0.0
 10
-146.6865667738
 20
-35.1193221135
 30
0.0
 10
-146.6446092345
 20
-35.2513212446
 30
0.0
 10
-146.6633960168
 20
-35.254302718
 30
0.0
 11
-146.6616554579
 21
-34.7545299414
 31
0.0
 11
-146.6606436581
 21
-35.0045221582
 31
0.0
 11
-146.6622408767
 21
-35.1875167632
 31
0.0
 11
-146.6633960168
 21
-35.254302718
 31
0.0
  0
LINE
  5
38F
100
AcDbEntity
  8
RACCORDO
100
AcDbLine
 62
253
  6
CONTINUOUS
 10
-146.6633960168
 20
-35.254302718
 11
-146.6660183934
 21
-35.2545109029
  0
SPLINE
  5
390
100
AcDbEntity
  8
RACCORDO
100
AcDbSpline
 62
253
  6
CONTINUOUS
 70
0
 71
3
 72
10
 73
6
 74
4
 42
0.0000001
 43
0.0000001
 44
0.0000000001
 12
0.0
 22
-0.5379704995
 32
0.0
 13
-0.5379669383
 23
0.0019574585
 33
0.0
 40
0.0
 40
0.0
 40
0.0
 40
0.0
 40
0.1877787808
 40
0.5387011237
 40
1.0
 40
1.0
 40
1.0
 40
1.0
 10
-143.7140126772
 20
37.3336018731
 30
0.0
 10
-143.7140126772
 20
37.2999287249
 30
0.0
 10
-143.8094476315
 20
37.2293013252
 30
0.0
 10
-143.9758223549
 20
37.1942006363
 30
0.0
 10
-144.1245066555
 20
37.178811215
 30
0.0
 10
-144.2072278369
 20
37.1791122061
 30
0.0
 11
-143.7140126772
 21
37.3336018731
 31
0.0
 11
-143.7798397313
 21
37.2569746773
 31
0.0
 11
-143.9599880892
 21
37.2005240518
 31
0.0
 11
-144.2072278369
 21
37.1791122061
 31
0.0
  0
SPLINE
  5
391
100
AcDbEntity
  8
RACCORDO
100
AcDbSpline
 62
253
  6
CONTINUOUS
 70
0
 71
3
 72
10
 73
6
 74
4
 42
0.0000001
 43
0.0000001
 44
0.0000000001
 12
0.0043383589
 22
0.4972801288
 32
0.0
 13
-0.4358627346
 23
0.0691755707
 33
0.0
 40
0.0
 40
0.0
 40
0.0
 40
0.0
 40
0.5026564177
 40
0.8706629402
 40
1.0
 40
1.0
 40
1.0
 40
1.0
 10
-146.6616554579
 20
34.7545299414
 30
0.0
 10
-146.6609285566
 20
34.8378502908
 30
0.0
 10
-146.646383793
 20
34.9978242983
 30
0.0
 10
-146.6865678915
 20
35.1193075421
 30
0.0
 10
-146.6446042273
 20
35.2513203288
 30
0.0
 10
-146.6633952955
 20
35.2543026504
 30
0.0
 11
-146.6616554579
 21
34.7545299414
 31
0.0
 11
-146.6606435533
 21
35.0044984536
 31
0.0
 11
-146.6622404655
 21
35.1875007813
 31
0.0
 11
-146.6633952955
 21
35.2543026504
 31
0.0
  0
LINE
  5
392
100
AcDbEntity
  8
RACCORDO
100
AcDbLine
 62
253
  6
CONTINUOUS
 10
-146.6633952955
 20
35.2543026504
 11
-146.6660183934
 21
35.2545109029
  0
SPLINE
  5
393
100
AcDbEntity
  8
RACCORDO
100
AcDbSpline
 62
253
  6
CONTINUOUS
 70
0
 71
3
 72
9
 73
5
 74
3
 42
0.0000001
 43
0.0000001
 44
0.0000000001
 12
0.0
 22
0.408271526
 32
0.0
 13
-0.3819618706
 23
0.1582412181
 33
0.0
 40
0.0
 40
0.0
 40
0.0
 40
0.0
 40
0.4511893113
 40
1.0
 40
1.0
 40
1.0
 40
1.0
 10
-143.7140126772
 20
36.8255782573
 30
0.0
 10
-143.7140126772
 20
36.8869808402
 30
0.0
 10
-143.7707329164
 20
37.0240183177
 30
0.0
 10
-143.8894068853
 20
37.1008604256
 30
0.0
 10
-143.9592818044
 20
37.1298085829
 30
0.0
 11
-143.7140126772
 21
36.8255782573
 31
0.0
 11
-143.7778078405
 21
36.998386451
 31
0.0
 11
-143.9592818044
 21
37.1298085829
 31
0.0
  0
SPLINE
  5
394
100
AcDbEntity
  8
RACCORDO
100
AcDbSpline
 62
253
  6
CONTINUOUS
 70
0
 71
3
 72
8
 73
4
 74
2
 42
0.0000001
 43
0.0000001
 44
0.0000000001
 12
-0.2387331295
 22
0.0989036449
 32
0.0
 13
-0.2551722853
 23
0.0015746271
 33
0.0
 40
0.0
 40
0.0
 40
0.0
 40
0.0
 40
1.0
 40
1.0
 40
1.0
 40
1.0
 10
-143.9592818044
 20
37.1298085829
 30
0.0
 10
-144.0388595142
 20
37.1627764645
 30
0.0
 10
-144.124591981
 20
37.17859331
 30
0.0
 10
-144.2096494095
 20
37.1791181856
 30
0.0
 11
-143.9592818044
 21
37.1298085829
 31
0.0
 11
-144.2096494095
 21
37.1791181856
 31
0.0
  0
SPLINE
  5
395
100
AcDbEntity
  8
RACCORDO
100
AcDbSpline
 62
253
  6
CONTINUOUS
 70
0
 71
3
 72
8
 73
4
 74
2
 42
0.0000001
 43
0.0000001
 44
0.0000000001
 12
0.0
 22
-0.1451804422
 32
0.0
 13
-0.0550018509
 23
-0.1355363555
 33
0.0
 40
0.0
 40
0.0
 40
0.0
 40
0.0
 40
1.0
 40
1.0
 40
1.0
 40
1.0
 10
-143.7140126772
 20
37.609840549
 30
0.0
 10
-143.7140126772
 20
37.5614470682
 30
0.0
 10
-143.7238045271
 20
37.5125893507
 30
0.0
 10
-143.7421384774
 20
37.4674105656
 30
0.0
 11
-143.7140126772
 21
37.609840549
 31
0.0
 11
-143.7421384774
 21
37.4674105656
 31
0.0
  0
SPLINE
  5
396
100
AcDbEntity
  8
RACCORDO
100
AcDbSpline
 62
253
  6
CONTINUOUS
 70
0
 71
3
 72
9
 73
5
 74
3
 42
0.0000001
 43
0.0000001
 44
0.0000000001
 12
-0.1379312015
 22
-0.3398920591
 32
0.0
 13
-0.3398320407
 23
-0.1386055063
 33
0.0
 40
0.0
 40
0.0
 40
0.0
 40
0.0
 40
0.4655249564
 40
1.0
 40
1.0
 40
1.0
 40
1.0
 10
-143.7421384774
 20
37.4674105656
 30
0.0
 10
-143.7635419496
 20
37.4146678202
 30
0.0
 10
-143.8345269655
 20
37.3121409507
 30
0.0
 10
-143.9393821838
 20
37.2452770717
 30
0.0
 10
-143.9999260988
 20
37.2205833437
 30
0.0
 11
-143.7421384774
 21
37.4674105656
 31
0.0
 11
-143.8369726721
 21
37.3269388383
 31
0.0
 11
-143.9999260988
 21
37.2205833437
 31
0.0
  0
SPLINE
  5
397
100
AcDbEntity
  8
RACCORDO
100
AcDbSpline
 62
253
  6
CONTINUOUS
 70
0
 71
3
 72
8
 73
4
 74
2
 42
0.0000001
 43
0.0000001
 44
0.0000000001
 12
-0.1995466419
 22
-0.0813880389
 32
0.0
 13
-0.213777088
 23
-0.0016071762
 33
0.0
 40
0.0
 40
0.0
 40
0.0
 40
0.0
 40
1.0
 40
1.0
 40
1.0
 40
1.0
 10
-143.9999260988
 20
37.2205833437
 30
0.0
 10
-144.0664416461
 20
37.1934539974
 30
0.0
 10
-144.1383903801
 20
37.1796539112
 30
0.0
 10
-144.2096494095
 20
37.1791181858
 30
0.0
 11
-143.9999260988
 21
37.2205833437
 31
0.0
 11
-144.2096494095
 21
37.1791181858
 31
0.0
  0
SPLINE
  5
398
100
AcDbEntity
  8
RACCORDO
100
AcDbSpline
 62
7
  6
CONTINUOUS
 70
0
 71
3
 72
9
 73
5
 74
3
 42
0.0000001
 43
0.0000001
 44
0.0000000001
 12
0.3706618776
 22
-0.0013398637
 32
0.0
 13
0.338464388
 23
-0.15262854
 33
0.0
 40
0.0
 40
0.0
 40
0.0
 40
0.0
 40
0.6970650894
 40
1.0
 40
1.0
 40
1.0
 40
1.0
 10
-144.2096494095
 20
40.1974048142
 30
0.0
 10
-144.1235242579
 20
40.1970934902
 30
0.0
 10
-143.9993391616
 20
40.1818292469
 30
0.0
 10
-143.8806629788
 20
40.1483684691
 30
0.0
 10
-143.8464854191
 20
40.132956298
 30
0.0
 11
-144.2096494095
 21
40.1974048142
 31
0.0
 11
-143.953070847
 21
40.1669714565
 31
0.0
 11
-143.8464854191
 21
40.132956298
 31
0.0
  0
SPLINE
  5
399
100
AcDbEntity
  8
RACCORDO
100
AcDbSpline
 62
7
  6
CONTINUOUS
 70
0
 71
3
 72
9
 73
5
 74
3
 42
0.0000001
 43
0.0000001
 44
0.0000000001
 12
0.1475138186
 22
-0.0665204954
 32
0.0
 13
0.0654081511
 23
-0.1482630539
 33
0.0
 40
0.0
 40
0.0
 40
0.0
 40
0.0
 40
0.5018261592
 40
1.0
 40
1.0
 40
1.0
 40
1.0
 10
-143.8464854191
 20
40.132956298
 30
0.0
 10
-143.8218099881
 20
40.1218290564
 30
0.0
 10
-143.7744809694
 20
40.0941756037
 30
0.0
 10
-143.7327180125
 20
40.05021358
 30
0.0
 10
-143.7218564693
 20
40.0255933217
 30
0.0
 11
-143.8464854191
 21
40.132956298
 31
0.0
 11
-143.7757098073
 21
40.0899676253
 31
0.0
 11
-143.7218564693
 21
40.0255933217
 31
0.0
  0
SPLINE
  5
39A
100
AcDbEntity
  8
RACCORDO
100
AcDbSpline
 62
7
  6
CONTINUOUS
 70
0
 71
3
 72
8
 73
4
 74
2
 42
0.0000001
 43
0.0000001
 44
0.0000000001
 12
0.014873303
 22
-0.0337138612
 32
0.0
 13
0.0
 23
-0.0367346611
 33
0.0
 40
0.0
 40
0.0
 40
0.0
 40
0.0
 40
1.0
 40
1.0
 40
1.0
 40
1.0
 10
-143.7218564693
 20
40.0255933217
 30
0.0
 10
-143.7168987016
 20
40.0143553679
 30
0.0
 10
-143.7140126772
 20
40.0025508061
 30
0.0
 10
-143.7140126772
 20
39.990305919
 30
0.0
 11
-143.7218564693
 21
40.0255933217
 31
0.0
 11
-143.7140126772
 21
39.990305919
 31
0.0
  0
SPLINE
  5
39B
100
AcDbEntity
  8
RACCORDO
100
AcDbSpline
 62
253
  6
CONTINUOUS
 70
0
 71
3
 72
9
 73
5
 74
3
 42
0.0000001
 43
0.0000001
 44
0.0000000001
 12
0.2499881111
 22
-0.0043635587
 32
0.0
 13
0.0229912428
 23
-0.2230221018
 33
0.0
 40
0.0
 40
0.0
 40
0.0
 40
0.0
 40
0.2680671207
 40
1.0
 40
1.0
 40
1.0
 40
1.0
 10
-146.6616554579
 20
43.4295967511
 30
0.0
 10
-146.6393175935
 20
43.4292068423
 30
0.0
 10
-146.6884384109
 20
43.2951686001
 30
0.0
 10
-146.6678502255
 20
43.2339975708
 30
0.0
 10
-146.6622408767
 20
43.1795851677
 30
0.0
 11
-146.6616554579
 21
43.4295967511
 31
0.0
 11
-146.6606436581
 21
43.3625805875
 31
0.0
 11
-146.6622408767
 21
43.1795851677
 31
0.0
  0
SPLINE
  5
39C
100
AcDbEntity
  8
RACCORDO
100
AcDbSpline
 62
253
  6
CONTINUOUS
 70
0
 71
3
 72
8
 73
4
 74
2
 42
0.0000001
 43
0.0000001
 44
0.0000000001
 12
0.015198654
 22
-0.1474316024
 32
0.0
 13
-0.0083912659
 23
-0.1712068145
 33
0.0
 40
0.0
 40
0.0
 40
0.0
 40
0.0
 40
1.0
 40
1.0
 40
1.0
 40
1.0
 10
-146.6622408767
 20
43.1795851677
 30
0.0
 10
-146.6571746586
 20
43.1304413002
 30
0.0
 10
-146.6598250367
 20
43.0734344189
 30
0.0
 10
-146.6626221253
 20
43.0163654807
 30
0.0
 11
-146.6622408767
 21
43.1795851677
 31
0.0
 11
-146.6626221253
 21
43.0163654807
 31
0.0
  0
SPLINE
  5
39D
100
AcDbEntity
  8
RACCORDO
100
AcDbSpline
 62
253
  6
CONTINUOUS
 70
0
 71
3
 72
8
 73
4
 74
2
 42
0.0000001
 43
0.0000001
 44
0.0000000001
 12
-0.0042979993
 22
-0.0876919847
 32
0.0
 13
-0.001477338
 23
-0.0846449207
 33
0.0
 40
0.0
 40
0.0
 40
0.0
 40
0.0
 40
1.0
 40
1.0
 40
1.0
 40
1.0
 10
-146.6626221253
 20
43.0163654807
 30
0.0
 10
-146.6640547918
 20
42.9871348192
 30
0.0
 10
-146.6655259474
 20
42.9578878771
 30
0.0
 10
-146.6660183934
 20
42.9296729036
 30
0.0
 11
-146.6626221253
 21
43.0163654807
 31
0.0
 11
-146.6660183934
 21
42.9296729036
 31
0.0
  0
LINE
  5
39E
100
AcDbEntity
  8
RACCORDO
100
AcDbLine
 62
253
  6
CONTINUOUS
 10
-146.6616554579
 20
-34.7545299414
 11
-143.7140126772
 21
-34.733093534
  0
LINE
  5
39F
100
AcDbEntity
  8
RACCORDO
100
AcDbLine
 62
7
  6
CONTINUOUS
 10
-146.7140115669
 20
37.1749637843
 11
-144.2096494095
 21
37.1791181856
  0
LINE
  5
3A0
100
AcDbEntity
  8
RACCORDO
100
AcDbLine
 62
7
  6
CONTINUOUS
 10
-146.7140115669
 20
-37.1749637843
 11
-144.2096494095
 21
-37.1791181856
  0
SPLINE
  5
3A1
100
AcDbEntity
  8
RACCORDO
100
AcDbSpline
 62
253
  6
CONTINUOUS
 70
0
 71
3
 72
9
 73
5
 74
3
 42
0.0000001
 43
0.0000001
 44
0.0000000001
 12
0.0
 22
-0.4093516304
 32
0.0
 13
-0.3832074428
 23
-0.1578105804
 33
0.0
 40
0.0
 40
0.0
 40
0.0
 40
0.0
 40
0.4542841574
 40
1.0
 40
1.0
 40
1.0
 40
1.0
 10
-143.7140126772
 20
-36.8255782573
 30
0.0
 10
-143.7140126772
 20
-36.8875655774
 30
0.0
 10
-143.7714900728
 20
-37.0249269887
 30
0.0
 10
-143.8906206057
 20
-37.1015388064
 30
0.0
 10
-143.9603280632
 20
-37.1302453843
 30
0.0
 11
-143.7140126772
 21
-36.8255782573
 31
0.0
 11
-143.7789584281
 21
-36.9998306609
 31
0.0
 11
-143.9603280632
 21
-37.1302453843
 31
0.0
  0
SPLINE
  5
3A2
100
AcDbEntity
  8
RACCORDO
100
AcDbSpline
 62
253
  6
CONTINUOUS
 70
0
 71
3
 72
8
 73
4
 74
2
 42
0.0000001
 43
0.0000001
 44
0.0000000001
 12
-0.2378397681
 22
-0.0979459886
 32
0.0
 13
-0.2540614621
 23
-0.0015677694
 33
0.0
 40
0.0
 40
0.0
 40
0.0
 40
0.0
 40
1.0
 40
1.0
 40
1.0
 40
1.0
 10
-143.9603280632
 20
-37.1302453843
 30
0.0
 10
-144.0396079859
 20
-37.1628940472
 30
0.0
 10
-144.1249622554
 20
-37.1785955958
 30
0.0
 10
-144.2096494095
 20
-37.1791181856
 30
0.0
 11
-143.9603280632
 21
-37.1302453843
 31
0.0
 11
-144.2096494095
 21
-37.1791181856
 31
0.0
  0
SPLINE
  5
3A3
100
AcDbEntity
  8
RACCORDO
100
AcDbSpline
 62
253
  6
CONTINUOUS
 70
0
 71
3
 72
14
 73
10
 74
8
 42
0.0000001
 43
0.0000001
 44
0.0000000001
 12
-0.017449702
 22
0.9999973457
 32
0.0
 13
0.9999972541
 23
0.0174549509
 33
0.0
 40
0.0
 40
0.0
 40
0.0
 40
0.0
 40
0.1752355747
 40
0.3614693039
 40
0.5486134381
 40
0.7232014826
 40
0.8685776682
 40
0.9656471699
 40
1.0
 40
1.0
 40
1.0
 40
1.0
 10
-212.7314650837
 20
51.8078419577
 30
0.0
 10
-212.7324843532
 20
51.866253661
 30
0.0
 10
-212.7344627857
 20
51.9868202135
 30
0.0
 10
-212.7365024817
 20
52.1693541369
 30
0.0
 10
-212.739090158
 20
52.353308043
 30
0.0
 10
-212.7363883293
 20
52.5181549671
 30
0.0
 10
-212.7448964093
 20
52.6688519982
 30
0.0
 10
-212.7249249048
 20
52.7377394534
 30
0.0
 10
-212.7429159956
 20
52.8074897772
 30
0.0
 10
-212.7314650837
 20
52.8076896529
 30
0.0
 11
-212.7314650837
 21
51.8078419577
 31
0.0
 11
-212.7342534652
 21
51.9830815616
 31
0.0
 11
-212.7365923973
 21
52.1693284618
 31
0.0
 11
-212.738176387
 21
52.3564938866
 31
0.0
 11
-212.7386837631
 21
52.531107309
 31
0.0
 11
-212.7378139787
 21
52.6765026384
 31
0.0
 11
-212.7353876719
 21
52.7735563362
 31
0.0
 11
-212.7314650837
 21
52.8076896529
 31
0.0
  0
SPLINE
  5
3A4
100
AcDbEntity
  8
RACCORDO
100
AcDbSpline
 62
253
  6
CONTINUOUS
 70
0
 71
3
 72
14
 73
10
 74
8
 42
0.0000001
 43
0.0000001
 44
0.0000000001
 12
-0.0174497288
 22
-0.9999988806
 32
0.0
 13
0.9999987878
 23
-0.0174550457
 33
0.0
 40
0.0
 40
0.0
 40
0.0
 40
0.0
 40
0.1758955309
 40
0.3631591071
 40
0.5524022872
 40
0.7278423993
 40
0.8714830167
 40
0.9663773864
 40
1.0
 40
1.0
 40
1.0
 40
1.0
 10
-212.7314650837
 20
-51.8078419577
 30
0.0
 10
-212.7324881934
 20
-51.8664737357
 30
0.0
 10
-212.7344748915
 20
-51.987604869
 30
0.0
 10
-212.7365225753
 20
-52.1713957834
 30
0.0
 10
-212.7391296264
 20
-52.3567053934
 30
0.0
 10
-212.7363747746
 20
-52.521905516
 30
0.0
 10
-212.744762136
 20
-52.6715068155
 30
0.0
 10
-212.7251838947
 20
-52.7392969497
 30
0.0
 10
-212.7426726079
 20
-52.8074940248
 30
0.0
 10
-212.7314650837
 20
-52.8076896529
 30
0.0
 11
-212.7314650837
 21
-51.8078419577
 31
0.0
 11
-212.7342624411
 21
-51.9837418273
 31
0.0
 11
-212.7366099137
 21
-52.1710189901
 31
0.0
 11
-212.7381987651
 21
-52.3602840988
 31
0.0
 11
-212.73867959
 21
-52.5357500638
 31
0.0
 11
-212.7377749122
 21
-52.6794095391
 31
0.0
 11
-212.7353516131
 21
-52.7742873068
 31
0.0
 11
-212.7314650837
 21
-52.8076896529
 31
0.0
  0
SPLINE
  5
3A5
100
AcDbEntity
  8
RACCORDO
100
AcDbSpline
 62
253
  6
CONTINUOUS
 70
0
 71
3
 72
9
 73
5
 74
3
 42
0.0000001
 43
0.0000001
 44
0.0000000001
 12
0.2499604423
 22
0.0043630757
 32
0.0
 13
0.0229915026
 23
0.2229943829
 33
0.0
 40
0.0
 40
0.0
 40
0.0
 40
0.0
 40
0.2680420639
 40
1.0
 40
1.0
 40
1.0
 40
1.0
 10
-146.6616554579
 20
-43.4295967511
 30
0.0
 10
-146.6393221536
 20
-43.4292069219
 30
0.0
 10
-146.6884358331
 20
-43.2951845749
 30
0.0
 10
-146.6678500698
 20
-43.2340203445
 30
0.0
 10
-146.6622404655
 20
-43.1796128418
 30
0.0
 11
-146.6616554579
 21
-43.4295967511
 31
0.0
 11
-146.6606435533
 21
-43.362594273
 31
0.0
 11
-146.6622404655
 21
-43.1796128418
 31
0.0
  0
SPLINE
  5
3A6
100
AcDbEntity
  8
RACCORDO
100
AcDbSpline
 62
253
  6
CONTINUOUS
 70
0
 71
3
 72
8
 73
4
 74
2
 42
0.0000001
 43
0.0000001
 44
0.0000000001
 12
0.0152017809
 22
0.1474419398
 32
0.0
 13
-0.0083925556
 23
0.1712218076
 33
0.0
 40
0.0
 40
0.0
 40
0.0
 40
0.0
 40
1.0
 40
1.0
 40
1.0
 40
1.0
 10
-146.6622404655
 20
-43.1796128418
 30
0.0
 10
-146.6571732052
 20
-43.1304655285
 30
0.0
 10
-146.6598237793
 20
-43.0734538705
 30
0.0
 10
-146.6626212978
 20
-43.0163799347
 30
0.0
 11
-146.6622404655
 21
-43.1796128418
 31
0.0
 11
-146.6626212978
 21
-43.0163799347
 31
0.0
  0
SPLINE
  5
3A7
100
AcDbEntity
  8
RACCORDO
100
AcDbSpline
 62
253
  6
CONTINUOUS
 70
0
 71
3
 72
8
 73
4
 74
2
 42
0.0000001
 43
0.0000001
 44
0.0000000001
 12
-0.0042990026
 22
0.0877066567
 32
0.0
 13
-0.0014776114
 23
0.0846587566
 33
0.0
 40
0.0
 40
0.0
 40
0.0
 40
0.0
 40
1.0
 40
1.0
 40
1.0
 40
1.0
 10
-146.6626212978
 20
-43.0163799347
 30
0.0
 10
-146.6640542987
 20
-42.9871443824
 30
0.0
 10
-146.6655258562
 20
-42.9578924891
 30
0.0
 10
-146.6660183934
 20
-42.9296729036
 30
0.0
 11
-146.6626212978
 21
-43.0163799347
 31
0.0
 11
-146.6660183934
 21
-42.9296729036
 31
0.0
  0
LINE
  5
3A8
100
AcDbEntity
  8
RACCORDO
100
AcDbLine
 62
253
  6
CONTINUOUS
 10
-143.7140126772
 20
34.733093534
 11
-146.6616554579
 21
34.7545299414
  0
ENDSEC
  0
SECTION
  2
OBJECTS
  0
DICTIONARY
  5
C
100
AcDbDictionary
280
0
281
1
  3
ACAD_GROUP
350
D
  3
ACAD_MLINESTYLE
350
17
  3
ACAD_LAYOUT
350
1A
  3
ACAD_PLOTSETTINGS
350
19
  3
ACAD_PLOTSTYLENAME
350
E
  0
DICTIONARY
  5
D
102
{ACAD_REACTORS
330
C
102
}
100
AcDbDictionary
280
0
281
1
  0
ACDBDICTIONARYWDFLT
  5
E
102
{ACAD_REACTORS
330
C
102
}
100
AcDbDictionary
281
1
  3
Normal
350
F
100
AcDbDictionaryWithDefault
340
F
  0
DICTIONARY
  5
17
102
{ACAD_REACTORS
330
C
102
}
100
AcDbDictionary
280
0
281
1
  3
Standard
350
18
  0
DICTIONARY
  5
19
102
{ACAD_REACTORS
330
C
102
}
100
AcDbDictionary
281
1
  0
DICTIONARY
  5
1A
102
{ACAD_REACTORS
330
C
102
}
100
AcDbDictionary
281
1
  3
Model
350
3A9
  3
Layout1
350
3AA
  0
ACDBPLACEHOLDER
  5
F
102
{ACAD_REACTORS
330
E
102
}
  0
MLINESTYLE
  5
18
102
{ACAD_REACTORS
330
17
102
}
100
AcDbMlineStyle
  2
STANDARD
 70
0
  3

 62
256
 51
90.0
 52
90.0
 71
2
 49
0.5
 62
256
  6
BYLAYER
 49
-0.5
 62
256
  6
BYLAYER
  0
LAYOUT
  5
3A9
102
{ACAD_REACTORS
330
1A
102
}
100
AcDbPlotSettings
  1

  2
none_device
  4
ISO_A4_(297.00_x_210.00_MM)
  6

 40
0.0
 41
0.0
 42
0.0
 43
0.0
 44
297.0
 45
210.0
 46
0.0
 47
0.0
 48
0.0
 49
0.0
140
0.0
141
0.0
142
1.0
143
1.0
 70
1024
 72
1
 73
0
 74
0
  7

 75
0
147
1.0
148
0.0
149
0.0
100
AcDbLayout
  1
Model
 70
0
 71
0
 10
0.0
 20
0.0
 11
297.0
 21
210.0
 12
0.0
 22
0.0
 32
0.0
 14
0.0
 24
0.0
 34
0.0
 15
0.0
 25
0.0
 35
0.0
146
0.0
 13
0.0
 23
0.0
 33
0.0
 16
1.0
 26
0.0
 36
0.0
 17
0.0
 27
1.0
 37
0.0
 76
0
330
211
345
0
346
0
  0
LAYOUT
  5
3AA
102
{ACAD_REACTORS
330
1A
102
}
100
AcDbPlotSettings
  1

  2
none_device
  4
ISO_A4_(297.00_x_210.00_MM)
  6

 40
0.0
 41
0.0
 42
0.0
 43
0.0
 44
297.0
 45
210.0
 46
0.0
 47
0.0
 48
0.0
 49
0.0
140
0.0
141
0.0
142
1.0
143
1.0
 70
0
 72
1
 73
0
 74
0
  7

 75
0
147
1.0
148
0.0
149
0.0
100
AcDbLayout
  1
Layout1
 70
0
 71
1
 10
0.0
 20
0.0
 11
297.0
 21
210.0
 12
0.0
 22
0.0
 32
0.0
 14
0.0
 24
0.0
 34
0.0
 15
0.0
 25
0.0
 35
0.0
146
0.0
 13
0.0
 23
0.0
 33
0.0
 16
1.0
 26
0.0
 36
0.0
 17
0.0
 27
1.0
 37
0.0
 76
0
330
212
345
0
346
0
  0
ENDSEC
  0
EOF
