  0
SECTION
  2
HEADER
  9
$ACADVER
  1
AC1015
  9
$DWGCODEPAGE
  3
ANSI_1252
  9
$EXTMAX
 10
297.0
 20
210.0
 30
0.0
  9
$EXTMIN
 10
0.0
 20
0.0
 30
0.0
  9
$LIMMIN
 10
0.0
 20
0.0
  9
$LIMMAX
 10
297.0
 20
210.0
  9
$VIEWCTR
 10
148.5
 20
105.0
  9
$VIEWSIZE
 40
210.0
  9
$CLAYER
  8
0
  9
$LTSCALE
 40
16.335
  9
$CELTYPE
  6
BYLAYER
  9
$DIMSCALE
 40
1.0
  9
$DIMASZ
 40
3.0
  9
$DIMEXO
 40
1.85625
  9
$DIMDLI
 40
11.286
  9
$DIMEXE
 40
5.346
  9
$DIMCEN
 40
2.673
  9
$DIMLFAC
 40
1.0
  9
$DIMBLK
  1
_FILLED
  9
$DIMTXT
 40
3.0
  9
$DIMTOL
 70
1
  9
$DIMLIM
 70
0
  9
$DIMTFAC
 40
1.0
  9
$DIMTP
 40
0.01
  9
$DIMTM
 40
0.01
  9
$PDMODE
 70
3
  9
$PDSIZE
 40
3.0
  9
$HANDSEED
  5
3BE
  9
$TILEMODE
 70
1
  9
$MEASUREMENT
 70
1
  9
$INSUNITS
 70
4
  0
ENDSEC
  0
SECTION
  2
CLASSES
  0
CLASS
  1
ACDBDICTIONARYWDFLT
  2
AcDbDictionaryWithDefault
  3
AutoCAD 2000
 90
0
280
0
281
0
  0
CLASS
  1
ACDBPLACEHOLDER
  2
AcDbPlaceHolder
  3
AutoCAD 2000
 90
0
280
0
281
0
  0
CLASS
  1
LAYOUT
  2
AcDbLayout
  3
AutoCAD 2000
 90
0
280
0
281
0
  0
ENDSEC
  0
SECTION
  2
TABLES
  0
TABLE
  2
VPORT
  5
8
100
AcDbSymbolTable
 70
2
  0
VPORT
  5
1F4
100
AcDbSymbolTableRecord
100
AcDbViewportTableRecord
  2
*ACTIVE
 70
0
 10
0.0
 20
0.0
 11
1.0
 21
1.0
 12
148.5
 22
105.0
 13
0.0
 23
0.0
 14
1.0
 24
1.0
 15
0.0
 25
0.0
 16
0.0
 26
0.0
 36
1.0
 17
0.0
 27
0.0
 37
0.0
 40
210.0
 41
1.4142857143
 42
50.0
 43
0.0
 44
0.0
 50
0.0
 51
0.0
 71
0
 72
100
 73
1
 74
1
 75
0
 76
0
 77
0
 78
0
  0
ENDTAB
  0
TABLE
  2
LTYPE
  5
5
100
AcDbSymbolTable
 70
6
  0
LTYPE
  5
14
100
AcDbSymbolTableRecord
100
AcDbLinetypeTableRecord
  2
BYBLOCK
 70
0
  3

 72
65
 73
0
 40
0.0
  0
LTYPE
  5
15
100
AcDbSymbolTableRecord
100
AcDbLinetypeTableRecord
  2
BYLAYER
 70
0
  3

 72
65
 73
0
 40
0.0
  0
LTYPE
  5
16
100
AcDbSymbolTableRecord
100
AcDbLinetypeTableRecord
  2
CONTINUOUS
 70
64
  3
Solid line
 72
65
 73
0
 40
0.0
  0
LTYPE
  5
1F5
100
AcDbSymbolTableRecord
100
AcDbLinetypeTableRecord
  2
CENTER
 70
64
  3
____ _ ____ _ ____ _ ____ _ ____ _ ____ _ ____
 72
65
 73
4
 40
0.6
 49
0.375
 74
0
 49
-0.075
 74
0
 49
0.075
 74
0
 49
-0.075
 74
0
  0
LTYPE
  5
1F6
100
AcDbSymbolTableRecord
100
AcDbLinetypeTableRecord
  2
HIDDEN
 70
64
  3
- - - - - - - - - - - - - - - - - - - -
 72
65
 73
2
 40
0.2
 49
0.1
 74
0
 49
-0.1
 74
0
  0
LTYPE
  5
1F7
100
AcDbSymbolTableRecord
100
AcDbLinetypeTableRecord
  2
PHANTOM
 70
64
  3
_____ _ _ _____ _ _ _____ _ _ _____
 72
65
 73
6
 40
0.8
 49
0.45
 74
0
 49
-0.05
 74
0
 49
0.1
 74
0
 49
-0.05
 74
0
 49
0.1
 74
0
 49
-0.05
 74
0
  0
LTYPE
  5
1F8
100
AcDbSymbolTableRecord
100
AcDbLinetypeTableRecord
  2
DOT
 70
64
  3
. . . . . . . . . . . . . . . . . . . .
 72
65
 73
2
 40
0.2
 49
0.1
 74
0
 49
-0.1
 74
0
  0
LTYPE
  5
1F9
100
AcDbSymbolTableRecord
100
AcDbLinetypeTableRecord
  2
DASHED
 70
64
  3
- - - - - - - - - - - - - - - - - - - -
 72
65
 73
2
 40
0.2
 49
0.1
 74
0
 49
-0.1
 74
0
  0
ENDTAB
  0
TABLE
  2
LAYER
  5
2
100
AcDbSymbolTable
 70
36
  0
LAYER
  5
10
100
AcDbSymbolTableRecord
100
AcDbLayerTableRecord
  2
0
 70
0
 62
7
  6
CONTINUOUS
370
-3
390
F
  0
LAYER
  5
1FA
100
AcDbSymbolTableRecord
100
AcDbLayerTableRecord
  2
DEFAULT_1
 70
0
 62
7
  6
CENTER
370
-3
390
F
  0
LAYER
  5
1FB
100
AcDbSymbolTableRecord
100
AcDbLayerTableRecord
  2
DEFAULT_2
 70
0
 62
7
  6
HIDDEN
370
-3
390
F
  0
LAYER
  5
1FC
100
AcDbSymbolTableRecord
100
AcDbLayerTableRecord
  2
DEFAULT_3
 70
0
 62
7
  6
PHANTOM
370
-3
390
F
  0
LAYER
  5
1FD
100
AcDbSymbolTableRecord
100
AcDbLayerTableRecord
  2
ASSI
 70
0
 62
7
  6
CONTINUOUS
370
-3
390
F
  0
LAYER
  5
1FE
100
AcDbSymbolTableRecord
100
AcDbLayerTableRecord
  2
COORDINATE
 70
0
 62
7
  6
CONTINUOUS
370
-3
390
F
  0
LAYER
  5
1FF
100
AcDbSymbolTableRecord
100
AcDbLayerTableRecord
  2
COORD_ORIGINE
 70
0
 62
7
  6
CONTINUOUS
370
-3
390
F
  0
LAYER
  5
200
100
AcDbSymbolTableRecord
100
AcDbLayerTableRecord
  2
COPY_PUBLISH
 70
0
 62
7
  6
CONTINUOUS
370
-3
390
F
  0
LAYER
  5
201
100
AcDbSymbolTableRecord
100
AcDbLayerTableRecord
  2
COSMETIC
 70
0
 62
7
  6
CONTINUOUS
370
-3
390
F
  0
LAYER
  5
202
100
AcDbSymbolTableRecord
100
AcDbLayerTableRecord
  2
CURVA_ASSE
 70
0
 62
7
  6
CONTINUOUS
370
-3
390
F
  0
LAYER
  5
203
100
AcDbSymbolTableRecord
100
AcDbLayerTableRecord
  2
CURVE
 70
0
 62
7
  6
CONTINUOUS
370
-3
390
F
  0
LAYER
  5
204
100
AcDbSymbolTableRecord
100
AcDbLayerTableRecord
  2
CURVE_GUIDA
 70
0
 62
7
  6
CONTINUOUS
370
-3
390
F
  0
LAYER
  5
205
100
AcDbSymbolTableRecord
100
AcDbLayerTableRecord
  2
CURVE_INC_PUNZONI
 70
0
 62
7
  6
CONTINUOUS
370
-3
390
F
  0
LAYER
  5
206
100
AcDbSymbolTableRecord
100
AcDbLayerTableRecord
  2
DRAFT
 70
0
 62
7
  6
CONTINUOUS
370
-3
390
F
  0
LAYER
  5
207
100
AcDbSymbolTableRecord
100
AcDbLayerTableRecord
  2
IMPORT_IGES
 70
0
 62
7
  6
CONTINUOUS
370
-3
390
F
  0
LAYER
  5
208
100
AcDbSymbolTableRecord
100
AcDbLayerTableRecord
  2
NOTE
 70
0
 62
7
  6
CONTINUOUS
370
-3
390
F
  0
LAYER
  5
209
100
AcDbSymbolTableRecord
100
AcDbLayerTableRecord
  2
PIANI
 70
0
 62
7
  6
CONTINUOUS
370
-3
390
F
  0
LAYER
  5
20A
100
AcDbSymbolTableRecord
100
AcDbLayerTableRecord
  2
PIANI_ORIGINE
 70
0
 62
7
  6
CONTINUOUS
370
-3
390
F
  0
LAYER
  5
20B
100
AcDbSymbolTableRecord
100
AcDbLayerTableRecord
  2
PUNTI
 70
0
 62
7
  6
CONTINUOUS
370
-3
390
F
  0
LAYER
  5
20C
100
AcDbSymbolTableRecord
100
AcDbLayerTableRecord
  2
RACCORDO
 70
0
 62
7
  6
CONTINUOUS
370
-3
390
F
  0
LAYER
  5
20D
100
AcDbSymbolTableRecord
100
AcDbLayerTableRecord
  2
SMUSSO
 70
0
 62
7
  6
CONTINUOUS
370
-3
390
F
  0
LAYER
  5
20E
100
AcDbSymbolTableRecord
100
AcDbLayerTableRecord
  2
SNAPLINE
 70
0
 62
7
  6
CONTINUOUS
370
-3
390
F
  0
LAYER
  5
20F
100
AcDbSymbolTableRecord
100
AcDbLayerTableRecord
  2
SUPERFICI
 70
0
 62
7
  6
CONTINUOUS
370
-3
390
F
  0
LAYER
  5
210
100
AcDbSymbolTableRecord
100
AcDbLayerTableRecord
  2
TRASH
 70
0
 62
7
  6
CONTINUOUS
370
-3
390
F
  0
LAYER
  5
211
100
AcDbSymbolTableRecord
100
AcDbLayerTableRecord
  2
XSEC_DATUMS
 70
0
 62
7
  6
CONTINUOUS
370
-3
390
F
  0
ENDTAB
  0
TABLE
  2
STYLE
  5
3
100
AcDbSymbolTable
 70
1
  0
STYLE
  5
11
100
AcDbSymbolTableRecord
100
AcDbTextStyleTableRecord
  2
STANDARD
 70
0
 40
0.0
 41
0.8
 50
0.0
 71
0
 42
0.2
  3
txt
  4

  0
STYLE
  5
212
100
AcDbSymbolTableRecord
100
AcDbTextStyleTableRecord
  2
TEXTSTYLE_1
 70
0
 40
0.0
 41
0.8
 50
0.0
 71
0
 42
0.2
  3
gdt
  4

  0
ENDTAB
  0
TABLE
  2
VIEW
  5
6
100
AcDbSymbolTable
 70
0
  0
ENDTAB
  0
TABLE
  2
UCS
  5
7
100
AcDbSymbolTable
 70
0
  0
ENDTAB
  0
TABLE
  2
APPID
  5
9
100
AcDbSymbolTable
 70
1
  0
APPID
  5
213
100
AcDbSymbolTableRecord
100
AcDbRegAppTableRecord
  2
ACAD
 70
0
  0
ENDTAB
  0
TABLE
  2
BLOCK_RECORD
  5
1
100
AcDbSymbolTable
 70
0
  0
BLOCK_RECORD
  5
214
100
AcDbSymbolTableRecord
100
AcDbBlockTableRecord
  2
*Model_Space
  0
BLOCK_RECORD
  5
215
100
AcDbSymbolTableRecord
100
AcDbBlockTableRecord
  2
*Paper_Space
  0
BLOCK_RECORD
  5
216
100
AcDbSymbolTableRecord
100
AcDbBlockTableRecord
  2
_FILLED
  0
BLOCK_RECORD
  5
217
100
AcDbSymbolTableRecord
100
AcDbBlockTableRecord
  2
_NONE
  0
BLOCK_RECORD
  5
218
100
AcDbSymbolTableRecord
100
AcDbBlockTableRecord
  2
*D0
  0
BLOCK_RECORD
  5
219
100
AcDbSymbolTableRecord
100
AcDbBlockTableRecord
  2
*D1
  0
BLOCK_RECORD
  5
21A
100
AcDbSymbolTableRecord
100
AcDbBlockTableRecord
  2
*D2
  0
BLOCK_RECORD
  5
21B
100
AcDbSymbolTableRecord
100
AcDbBlockTableRecord
  2
*D3
  0
BLOCK_RECORD
  5
21C
100
AcDbSymbolTableRecord
100
AcDbBlockTableRecord
  2
*D4
  0
BLOCK_RECORD
  5
21D
100
AcDbSymbolTableRecord
100
AcDbBlockTableRecord
  2
*D5
  0
BLOCK_RECORD
  5
21E
100
AcDbSymbolTableRecord
100
AcDbBlockTableRecord
  2
*D6
  0
ENDTAB
  0
TABLE
  2
DIMSTYLE
  5
A
100
AcDbSymbolTable
 70
1
100
AcDbDimStyleTable
 71
0
  0
DIMSTYLE
105
21F
100
AcDbSymbolTableRecord
100
AcDbDimStyleTableRecord
  2
STANDARD
 70
0
  3

  4

 40
1.0
 41
3.0
 42
0.0625
 43
0.38
 44
0.18
 45
0.0
 46
0.0
 47
0.01
 48
0.01
140
3.0
141
0.09
142
0.0
143
25.4
144
1.0
145
0.0
146
1.0
147
0.09
 71
1.0
 72
0.0
 73
0
 74
0
 75
0
 76
0
 77
1
 78
8
170
0
171
2
172
0
173
0
174
0
175
0
176
0
177
0
178
0
270
2
271
2
272
2
273
2
274
2
275
0
280
0
281
0
282
0
283
1
284
8
285
0
286
0
287
3
288
0
340
11
341
216
342
216
343
216
344
216
  0
DIMSTYLE
105
220
100
AcDbSymbolTableRecord
100
AcDbDimStyleTableRecord
  2
DIMSTYLE_1
 70
0
  3

  4

 40
1.0
 41
3.0
 42
0.0625
 43
0.38
 44
0.18
 45
0.0
 46
0.0
 47
0.0
 48
0.0
140
3.0
141
0.09
142
0.0
143
25.4
144
1.0
145
0.0
146
1.0
147
0.09
 71
0.0
 72
0.0
 73
0
 74
0
 75
0
 76
0
 77
1
 78
8
170
0
171
2
172
0
173
0
174
0
175
0
176
0
177
0
178
0
270
2
271
2
272
2
273
2
274
2
275
0
280
0
281
0
282
0
283
1
284
8
285
0
286
0
287
3
288
0
340
11
341
216
342
216
343
216
344
216
  0
ENDTAB
  0
ENDSEC
  0
SECTION
  2
BLOCKS
  0
BLOCK
  5
20
100
AcDbEntity
  8
0
100
AcDbBlockBegin
  2
*Model_Space
 70
0
 10
0.0
 20
0.0
 30
0.0
  3
*Model_Space
  1

  0
ENDBLK
  5
21
100
AcDbEntity
  8
0
100
AcDbBlockEnd
  0
BLOCK
  5
1C
100
AcDbEntity
  8
0
100
AcDbBlockBegin
  2
*Paper_Space
 70
0
 10
0.0
 20
0.0
 30
0.0
  3
*Paper_Space
  1

  0
ENDBLK
  5
1D
100
AcDbEntity
  8
0
100
AcDbBlockEnd
  0
BLOCK
  5
221
100
AcDbEntity
  8
0
100
AcDbBlockBegin
  2
_FILLED
 70
64
 10
0.0
 20
0.0
  3
_FILLED
  1

  0
SOLID
  5
222
100
AcDbEntity
  8
0
  6
BYBLOCK
 62
0
100
AcDbTrace
 10
0.0
 20
0.0
 11
-1.0
 21
0.3166666667
 12
-1.0
 22
-0.3166666667
 13
-1.0
 23
-0.3166666667
  0
ENDBLK
  5
223
100
AcDbEntity
  8
0
  6
BYBLOCK
 62
0
100
AcDbBlockEnd
  0
BLOCK
  5
224
100
AcDbEntity
  8
0
100
AcDbBlockBegin
  2
_NONE
 70
64
 10
0.0
 20
0.0
  3
_NONE
  1

  0
ENDBLK
  5
225
100
AcDbEntity
  8
0
  6
BYBLOCK
 62
0
100
AcDbBlockEnd
  0
BLOCK
  5
226
100
AcDbEntity
  8
0
100
AcDbBlockBegin
 62
7
  6
CONTINUOUS
  2
*D0
 70
65
 10
0.0
 20
0.0
  3
*D0
  1

  0
MTEXT
  5
227
100
AcDbEntity
  8
0
100
AcDbMText
 62
7
  6
CONTINUOUS
  7
STANDARD
 71
2
 72
1
 10
-166.0213546632
 20
98.2617650694
 30
0.0
 11
1.0
 21
0.0
 31
0.0
 44
0.9
  1
75,7
 40
3.0
 41
8.5714285714
  0
LINE
  5
228
100
AcDbEntity
  8
0
100
AcDbLine
 62
7
  6
CONTINUOUS
 10
-203.8713546632
 20
67.0117650694
 11
-203.8713546632
 21
96.0117650694
  0
LINE
  5
229
100
AcDbEntity
  8
0
100
AcDbLine
 62
7
  6
CONTINUOUS
 10
-128.1713546632
 20
52.6448586034
 11
-128.1713546632
 21
96.0117650694
  0
LINE
  5
22A
100
AcDbEntity
  8
0
100
AcDbLine
 62
7
  6
CONTINUOUS
 10
-203.8713546632
 20
94.5117650694
 11
-166.0213546632
 21
94.5117650694
  0
LINE
  5
22B
100
AcDbEntity
  8
0
100
AcDbLine
 62
7
  6
CONTINUOUS
 10
-128.1713546632
 20
94.5117650694
 11
-166.0213546632
 21
94.5117650694
  0
INSERT
  5
22C
100
AcDbEntity
  8
0
100
AcDbBlockReference
 62
7
  6
CONTINUOUS
  2
_FILLED
 10
-203.8713546632
 20
94.5117650694
 41
3.0
 42
3.0
 43
3.0
 50
180.0
  0
INSERT
  5
22D
100
AcDbEntity
  8
0
100
AcDbBlockReference
 62
7
  6
CONTINUOUS
  2
_FILLED
 10
-128.1713546632
 20
94.5117650694
 41
3.0
 42
3.0
 43
3.0
  0
ENDBLK
  5
22E
100
AcDbEntity
  8
0
  6
BYBLOCK
 62
0
100
AcDbBlockEnd
  0
BLOCK
  5
22F
100
AcDbEntity
  8
0
100
AcDbBlockBegin
 62
7
  6
CONTINUOUS
  2
*D1
 70
65
 10
0.0
 20
0.0
  3
*D1
  1

  0
MTEXT
  5
230
100
AcDbEntity
  8
0
100
AcDbMText
 62
7
  6
CONTINUOUS
  7
STANDARD
 71
2
 72
1
 10
-163.1713546632
 20
88.2617650694
 30
0.0
 11
1.0
 21
0.0
 31
0.0
 44
0.9
  1
70
 40
3.0
 41
4.7142857143
  0
LINE
  5
231
100
AcDbEntity
  8
0
100
AcDbLine
 62
7
  6
CONTINUOUS
 10
-128.1713546632
 20
52.6448586034
 11
-128.1713546632
 21
86.0117650694
  0
LINE
  5
232
100
AcDbEntity
  8
0
100
AcDbLine
 62
7
  6
CONTINUOUS
 10
-198.1713546632
 20
77.0117650694
 11
-198.1713546632
 21
86.0117650694
  0
LINE
  5
233
100
AcDbEntity
  8
0
100
AcDbLine
 62
7
  6
CONTINUOUS
 10
-128.1713546632
 20
84.5117650694
 11
-163.1713546632
 21
84.5117650694
  0
LINE
  5
234
100
AcDbEntity
  8
0
100
AcDbLine
 62
7
  6
CONTINUOUS
 10
-198.1713546632
 20
84.5117650694
 11
-163.1713546632
 21
84.5117650694
  0
INSERT
  5
235
100
AcDbEntity
  8
0
100
AcDbBlockReference
 62
7
  6
CONTINUOUS
  2
_FILLED
 10
-128.1713546632
 20
84.5117650694
 41
3.0
 42
3.0
 43
3.0
  0
INSERT
  5
236
100
AcDbEntity
  8
0
100
AcDbBlockReference
 62
7
  6
CONTINUOUS
  2
_FILLED
 10
-198.1713546632
 20
84.5117650694
 41
3.0
 42
3.0
 43
3.0
 50
180.0
  0
ENDBLK
  5
237
100
AcDbEntity
  8
0
  6
BYBLOCK
 62
0
100
AcDbBlockEnd
  0
BLOCK
  5
238
100
AcDbEntity
  8
0
100
AcDbBlockBegin
 62
7
  6
CONTINUOUS
  2
*D2
 70
65
 10
0.0
 20
0.0
  3
*D2
  1

  0
MTEXT
  5
239
100
AcDbEntity
  8
0
100
AcDbMText
 62
7
  6
CONTINUOUS
  7
STANDARD
 71
3
 72
1
 10
-206.75587079
 20
88.2617650694
 30
0.0
 11
1.0
 21
0.0
 31
0.0
 44
0.9
  1
5,7
 40
3.0
 41
6.2142857143
  0
LINE
  5
23A
100
AcDbEntity
  8
0
100
AcDbLine
 62
7
  6
CONTINUOUS
 10
-198.1713546632
 20
77.0117650694
 11
-198.1713546632
 21
86.0117650694
  0
LINE
  5
23B
100
AcDbEntity
  8
0
100
AcDbLine
 62
7
  6
CONTINUOUS
 10
-203.8713546632
 20
67.0117650694
 11
-203.8713546632
 21
86.0117650694
  0
LINE
  5
23C
100
AcDbEntity
  8
0
100
AcDbLine
 62
7
  6
CONTINUOUS
 10
-198.1713546632
 20
84.5117650694
 11
-194.1713546632
 21
84.5117650694
  0
LINE
  5
23D
100
AcDbEntity
  8
0
100
AcDbLine
 62
7
  6
CONTINUOUS
 10
-194.1713546632
 20
84.5117650694
 11
-201.0213546632
 21
84.5117650694
  0
LINE
  5
23E
100
AcDbEntity
  8
0
100
AcDbLine
 62
7
  6
CONTINUOUS
 10
-203.8713546632
 20
84.5117650694
 11
-212.9701565043
 21
84.5117650694
  0
LINE
  5
23F
100
AcDbEntity
  8
0
100
AcDbLine
 62
7
  6
CONTINUOUS
 10
-212.9701565043
 20
84.5117650694
 11
-201.0213546632
 21
84.5117650694
  0
INSERT
  5
240
100
AcDbEntity
  8
0
100
AcDbBlockReference
 62
7
  6
CONTINUOUS
  2
_NONE
 10
-198.1713546632
 20
84.5117650694
 41
3.0
 42
3.0
 43
3.0
 50
180.0
  0
INSERT
  5
241
100
AcDbEntity
  8
0
100
AcDbBlockReference
 62
7
  6
CONTINUOUS
  2
_FILLED
 10
-203.8713546632
 20
84.5117650694
 41
3.0
 42
3.0
 43
3.0
  0
ENDBLK
  5
242
100
AcDbEntity
  8
0
  6
BYBLOCK
 62
0
100
AcDbBlockEnd
  0
BLOCK
  5
243
100
AcDbEntity
  8
0
100
AcDbBlockBegin
 62
7
  6
CONTINUOUS
  2
*D3
 70
65
 10
0.0
 20
0.0
  3
*D3
  1

  0
MTEXT
  5
244
100
AcDbEntity
  8
0
100
AcDbMText
 62
7
  6
CONTINUOUS
  7
STANDARD
 71
2
 72
1
 10
0.0117650694
 20
98.2617650694
 30
0.0
 11
1.0
 21
0.0
 31
0.0
 44
0.9
  1
179
 40
3.0
 41
6.4285714286
  0
LINE
  5
245
100
AcDbEntity
  8
0
100
AcDbLine
 62
7
  6
CONTINUOUS
 10
-89.4882349306
 20
67.0117650694
 11
-89.4882349306
 21
96.0117650694
  0
LINE
  5
246
100
AcDbEntity
  8
0
100
AcDbLine
 62
7
  6
CONTINUOUS
 10
89.5117650694
 20
67.0117650653
 11
89.5117650694
 21
96.0117650694
  0
LINE
  5
247
100
AcDbEntity
  8
0
100
AcDbLine
 62
7
  6
CONTINUOUS
 10
-89.4882349306
 20
94.5117650694
 11
0.0117650694
 21
94.5117650694
  0
LINE
  5
248
100
AcDbEntity
  8
0
100
AcDbLine
 62
7
  6
CONTINUOUS
 10
89.5117650694
 20
94.5117650694
 11
0.0117650694
 21
94.5117650694
  0
INSERT
  5
249
100
AcDbEntity
  8
0
100
AcDbBlockReference
 62
7
  6
CONTINUOUS
  2
_FILLED
 10
-89.4882349306
 20
94.5117650694
 41
3.0
 42
3.0
 43
3.0
 50
180.0
  0
INSERT
  5
24A
100
AcDbEntity
  8
0
100
AcDbBlockReference
 62
7
  6
CONTINUOUS
  2
_FILLED
 10
89.5117650694
 20
94.5117650694
 41
3.0
 42
3.0
 43
3.0
  0
ENDBLK
  5
24B
100
AcDbEntity
  8
0
  6
BYBLOCK
 62
0
100
AcDbBlockEnd
  0
BLOCK
  5
24C
100
AcDbEntity
  8
0
100
AcDbBlockBegin
 62
7
  6
CONTINUOUS
  2
*D4
 70
65
 10
0.0
 20
0.0
  3
*D4
  1

  0
MTEXT
  5
24D
100
AcDbEntity
  8
0
100
AcDbMText
 62
7
  6
CONTINUOUS
  7
STANDARD
 71
2
 72
1
 10
103.7617650694
 20
0.0117650694
 30
0.0
 11
0.0
 21
1.0
 31
0.0
 44
0.9
  1
153
 40
3.0
 41
6.0
  0
LINE
  5
24E
100
AcDbEntity
  8
0
100
AcDbLine
 62
7
  6
CONTINUOUS
 10
80.0117650694
 20
76.5117650694
 11
109.0117650694
 21
76.5117650694
  0
LINE
  5
24F
100
AcDbEntity
  8
0
100
AcDbLine
 62
7
  6
CONTINUOUS
 10
80.0117650653
 20
-76.4882349306
 11
109.0117650694
 21
-76.4882349306
  0
LINE
  5
250
100
AcDbEntity
  8
0
100
AcDbLine
 62
7
  6
CONTINUOUS
 10
107.5117650694
 20
76.5117650694
 11
107.5117650694
 21
0.0117650694
  0
LINE
  5
251
100
AcDbEntity
  8
0
100
AcDbLine
 62
7
  6
CONTINUOUS
 10
107.5117650694
 20
-76.4882349306
 11
107.5117650694
 21
0.0117650694
  0
INSERT
  5
252
100
AcDbEntity
  8
0
100
AcDbBlockReference
 62
7
  6
CONTINUOUS
  2
_FILLED
 10
107.5117650694
 20
76.5117650694
 41
3.0
 42
3.0
 43
3.0
 50
90.0
  0
INSERT
  5
253
100
AcDbEntity
  8
0
100
AcDbBlockReference
 62
7
  6
CONTINUOUS
  2
_FILLED
 10
107.5117650694
 20
-76.4882349306
 41
3.0
 42
3.0
 43
3.0
 50
270.0
  0
ENDBLK
  5
254
100
AcDbEntity
  8
0
  6
BYBLOCK
 62
0
100
AcDbBlockEnd
  0
BLOCK
  5
255
100
AcDbEntity
  8
0
100
AcDbBlockBegin
 62
7
  6
CONTINUOUS
  2
*D5
 70
65
 10
0.0
 20
0.0
  3
*D5
  1

  0
MTEXT
  5
256
100
AcDbEntity
  8
0
100
AcDbMText
 62
7
  6
CONTINUOUS
  7
STANDARD
 71
2
 72
1
 10
0.0117650694
 20
88.2617650694
 30
0.0
 11
1.0
 21
0.0
 31
0.0
 44
0.9
  1
139
 40
3.0
 41
6.2142857143
  0
LINE
  5
257
100
AcDbEntity
  8
0
100
AcDbLine
 62
7
  6
CONTINUOUS
 10
-69.4882349306
 20
57.0117650694
 11
-69.4882349306
 21
86.0117650694
  0
LINE
  5
258
100
AcDbEntity
  8
0
100
AcDbLine
 62
7
  6
CONTINUOUS
 10
69.5117650694
 20
57.0117650694
 11
69.5117650694
 21
86.0117650694
  0
LINE
  5
259
100
AcDbEntity
  8
0
100
AcDbLine
 62
7
  6
CONTINUOUS
 10
-69.4882349306
 20
84.5117650694
 11
0.0117650694
 21
84.5117650694
  0
LINE
  5
25A
100
AcDbEntity
  8
0
100
AcDbLine
 62
7
  6
CONTINUOUS
 10
69.5117650694
 20
84.5117650694
 11
0.0117650694
 21
84.5117650694
  0
INSERT
  5
25B
100
AcDbEntity
  8
0
100
AcDbBlockReference
 62
7
  6
CONTINUOUS
  2
_FILLED
 10
-69.4882349306
 20
84.5117650694
 41
3.0
 42
3.0
 43
3.0
 50
180.0
  0
INSERT
  5
25C
100
AcDbEntity
  8
0
100
AcDbBlockReference
 62
7
  6
CONTINUOUS
  2
_FILLED
 10
69.5117650694
 20
84.5117650694
 41
3.0
 42
3.0
 43
3.0
  0
ENDBLK
  5
25D
100
AcDbEntity
  8
0
  6
BYBLOCK
 62
0
100
AcDbBlockEnd
  0
BLOCK
  5
25E
100
AcDbEntity
  8
0
100
AcDbBlockBegin
 62
7
  6
CONTINUOUS
  2
*D6
 70
65
 10
0.0
 20
0.0
  3
*D6
  1

  0
MTEXT
  5
25F
100
AcDbEntity
  8
0
100
AcDbMText
 62
7
  6
CONTINUOUS
  7
STANDARD
 71
2
 72
1
 10
93.7617650694
 20
0.0117650694
 30
0.0
 11
0.0
 21
1.0
 31
0.0
 44
0.9
  1
113
 40
3.0
 41
5.5714285714
  0
LINE
  5
260
100
AcDbEntity
  8
0
100
AcDbLine
 62
7
  6
CONTINUOUS
 10
70.0117650694
 20
56.5117650694
 11
99.0117650694
 21
56.5117650694
  0
LINE
  5
261
100
AcDbEntity
  8
0
100
AcDbLine
 62
7
  6
CONTINUOUS
 10
70.0117650694
 20
-56.4882349306
 11
99.0117650694
 21
-56.4882349306
  0
LINE
  5
262
100
AcDbEntity
  8
0
100
AcDbLine
 62
7
  6
CONTINUOUS
 10
97.5117650694
 20
56.5117650694
 11
97.5117650694
 21
0.0117650694
  0
LINE
  5
263
100
AcDbEntity
  8
0
100
AcDbLine
 62
7
  6
CONTINUOUS
 10
97.5117650694
 20
-56.4882349306
 11
97.5117650694
 21
0.0117650694
  0
INSERT
  5
264
100
AcDbEntity
  8
0
100
AcDbBlockReference
 62
7
  6
CONTINUOUS
  2
_FILLED
 10
97.5117650694
 20
56.5117650694
 41
3.0
 42
3.0
 43
3.0
 50
90.0
  0
INSERT
  5
265
100
AcDbEntity
  8
0
100
AcDbBlockReference
 62
7
  6
CONTINUOUS
  2
_FILLED
 10
97.5117650694
 20
-56.4882349306
 41
3.0
 42
3.0
 43
3.0
 50
270.0
  0
ENDBLK
  5
266
100
AcDbEntity
  8
0
  6
BYBLOCK
 62
0
100
AcDbBlockEnd
  0
ENDSEC
  0
SECTION
  2
ENTITIES
  0
DIMENSION
  5
267
100
AcDbEntity
  8
0
100
AcDbDimension
 62
7
  6
CONTINUOUS
  2
*D0
 10
-128.1713546632
 20
94.5117650694
 11
-170.3070689489
 21
96.7617650694
 70
160
 71
2
 42
75.7
  3
DIMSTYLE_1
100
AcDbAlignedDimension
 13
-203.8713546632
 23
67.0117650694
 14
-128.1713546632
 24
52.6448586034
100
AcDbRotatedDimension
  0
DIMENSION
  5
268
100
AcDbEntity
  8
0
100
AcDbDimension
 62
7
  6
CONTINUOUS
  2
*D1
 10
-198.1713546632
 20
84.5117650694
 11
-165.5284975203
 21
86.7617650694
 70
160
 71
2
 42
70.0
  3
DIMSTYLE_1
100
AcDbAlignedDimension
 13
-128.1713546632
 23
52.6448586034
 14
-198.1713546632
 24
77.0117650694
 50
180.0
100
AcDbRotatedDimension
  0
DIMENSION
  5
269
100
AcDbEntity
  8
0
100
AcDbDimension
 62
7
  6
CONTINUOUS
  2
*D2
 10
-203.8713546632
 20
84.5117650694
 11
-216.0772993614
 21
86.7617650694
 70
160
 71
3
 42
5.7
  3
DIMSTYLE_1
100
AcDbAlignedDimension
 13
-198.1713546632
 23
77.0117650694
 14
-203.8713546632
 24
67.0117650694
 50
180.0
100
AcDbRotatedDimension
1001
ACAD
1000
DSTYLE
1002
{
1070
173
1070
1
1070
6
1000
_NONE
1002
}
  0
DIMENSION
  5
26A
100
AcDbEntity
  8
0
100
AcDbDimension
 62
7
  6
CONTINUOUS
  2
*D3
 10
89.5117650694
 20
94.5117650694
 11
-3.2025206449
 21
96.7617650694
 70
160
 71
2
 42
179.0
  3
DIMSTYLE_1
100
AcDbAlignedDimension
 13
-89.4882349306
 23
67.0117650694
 14
89.5117650694
 24
67.0117650653
100
AcDbRotatedDimension
  0
DIMENSION
  5
26B
100
AcDbEntity
  8
0
100
AcDbDimension
 62
7
  6
CONTINUOUS
  2
*D4
 10
107.5117650694
 20
-76.4882349306
 11
106.6059859178
 21
-2.6702249214
 70
160
 71
2
 42
153.0
  3
DIMSTYLE_1
100
AcDbAlignedDimension
 13
80.0117650694
 23
76.5117650694
 14
80.0117650653
 24
-76.4882349306
 50
270.0
100
AcDbRotatedDimension
  0
DIMENSION
  5
26C
100
AcDbEntity
  8
0
100
AcDbDimension
 62
7
  6
CONTINUOUS
  2
*D5
 10
69.5117650694
 20
84.5117650694
 11
-3.0953777877
 21
86.7617650694
 70
160
 71
2
 42
139.0
  3
DIMSTYLE_1
100
AcDbAlignedDimension
 13
-69.4882349306
 23
57.0117650694
 14
69.5117650694
 24
57.0117650694
100
AcDbRotatedDimension
  0
DIMENSION
  5
26D
100
AcDbEntity
  8
0
100
AcDbDimension
 62
7
  6
CONTINUOUS
  2
*D6
 10
97.5117650694
 20
-56.4882349306
 11
96.5099701429
 21
-2.4786542078
 70
160
 71
2
 42
113.0
  3
DIMSTYLE_1
100
AcDbAlignedDimension
 13
70.0117650694
 23
56.5117650694
 14
70.0117650694
 24
-56.4882349306
 50
270.0
100
AcDbRotatedDimension
  0
LINE
  5
26E
100
AcDbEntity
  8
RACCORDO
100
AcDbLine
 62
7
  6
CONTINUOUS
 10
-89.4882349306
 20
66.5117650694
 11
-89.4882349306
 21
-66.4882349306
  0
LINE
  5
26F
100
AcDbEntity
  8
CURVE
100
AcDbLine
 62
7
  6
CONTINUOUS
 10
-89.4882349306
 20
66.5117650694
 11
-89.4882349306
 21
-66.4882349306
  0
LINE
  5
270
100
AcDbEntity
  8
RACCORDO
100
AcDbLine
 62
253
  6
CONTINUOUS
 10
-87.4882349306
 20
66.5117650694
 11
-87.4882349306
 21
-66.4882349306
  0
LINE
  5
271
100
AcDbEntity
  8
RACCORDO
100
AcDbLine
 62
253
  6
CONTINUOUS
 10
-79.4882349306
 20
-74.4882349306
 11
-79.4882349306
 21
-76.4882349306
  0
LINE
  5
272
100
AcDbEntity
  8
RACCORDO
100
AcDbLine
 62
253
  6
CONTINUOUS
 10
-79.4882349306
 20
74.5117650694
 11
-79.4882349265
 21
76.5117650694
  0
LINE
  5
273
100
AcDbEntity
  8
0
100
AcDbLine
 62
7
  6
CONTINUOUS
 10
-70.0079584148
 20
57.0314885536
 11
-69.8382349306
 21
57.6019600061
  0
LINE
  5
274
100
AcDbEntity
  8
0
100
AcDbLine
 62
7
  6
CONTINUOUS
 10
-69.1382349306
 20
55.4215701327
 11
-68.9685114464
 21
55.9920415852
  0
LINE
  5
275
100
AcDbEntity
  8
0
100
AcDbLine
 62
7
  6
CONTINUOUS
 10
-70.0079584148
 20
-57.0079584148
 11
-69.8382349306
 21
-57.5784298673
  0
LINE
  5
276
100
AcDbEntity
  8
0
100
AcDbLine
 62
7
  6
CONTINUOUS
 10
-69.1382349306
 20
-55.3980399939
 11
-68.9685114464
 21
-55.9685114464
  0
LINE
  5
277
100
AcDbEntity
  8
0
100
AcDbLine
 62
7
  6
CONTINUOUS
 10
-70.6332349306
 20
-56.8382349306
 11
-70.6332349306
 21
-56.1382349306
  0
LINE
  5
278
100
AcDbEntity
  8
0
100
AcDbLine
 62
7
  6
CONTINUOUS
 10
-70.6332349306
 20
56.1617650694
 11
-70.6332349306
 21
56.8617650694
  0
LINE
  5
279
100
AcDbEntity
  8
0
100
AcDbLine
 62
7
  6
CONTINUOUS
 10
-69.9882349306
 20
-59.1923983872
 11
-69.9882349306
 21
-57.0742526269
  0
LINE
  5
27A
100
AcDbEntity
  8
0
100
AcDbLine
 62
7
  6
CONTINUOUS
 10
-69.9882349306
 20
-55.9022172343
 11
-69.9882349306
 21
-53.784071474
  0
LINE
  5
27B
100
AcDbEntity
  8
0
100
AcDbLine
 62
7
  6
CONTINUOUS
 10
-69.9882349306
 20
53.8076016128
 11
-69.9882349306
 21
55.9257473731
  0
LINE
  5
27C
100
AcDbEntity
  8
0
100
AcDbLine
 62
7
  6
CONTINUOUS
 10
-69.9882349306
 20
57.0977827657
 11
-69.9882349306
 21
59.215928526
  0
LINE
  5
27D
100
AcDbEntity
  8
0
100
AcDbLine
 62
7
  6
CONTINUOUS
 10
-69.8382349306
 20
-58.0819583778
 11
-69.8382349306
 21
-57.5784298673
  0
LINE
  5
27E
100
AcDbEntity
  8
0
100
AcDbLine
 62
7
  6
CONTINUOUS
 10
-69.8382349306
 20
-55.3980399939
 11
-69.8382349306
 21
-54.8945114833
  0
LINE
  5
27F
100
AcDbEntity
  8
0
100
AcDbLine
 62
7
  6
CONTINUOUS
 10
-69.8382349306
 20
54.9180416222
 11
-69.8382349306
 21
55.4215701327
  0
LINE
  5
280
100
AcDbEntity
  8
0
100
AcDbLine
 62
7
  6
CONTINUOUS
 10
-69.8382349306
 20
57.6019600061
 11
-69.8382349306
 21
58.1054885167
  0
LINE
  5
281
100
AcDbEntity
  8
0
100
AcDbLine
 62
7
  6
CONTINUOUS
 10
-70.5784298673
 20
56.8617650694
 11
-70.0079584148
 21
57.0314885536
  0
LINE
  5
282
100
AcDbEntity
  8
0
100
AcDbLine
 62
7
  6
CONTINUOUS
 10
-68.3980399939
 20
56.1617650694
 11
-68.9685114464
 21
55.9920415852
  0
LINE
  5
283
100
AcDbEntity
  8
RACCORDO
100
AcDbLine
 62
7
  6
CONTINUOUS
 10
-79.4882349306
 20
-76.4882349306
 11
79.5117650694
 21
-76.4882349306
  0
LINE
  5
284
100
AcDbEntity
  8
CURVE
100
AcDbLine
 62
7
  6
CONTINUOUS
 10
-79.4882349306
 20
-76.4882349306
 11
79.5117650694
 21
-76.4882349306
  0
LINE
  5
285
100
AcDbEntity
  8
RACCORDO
100
AcDbLine
 62
253
  6
CONTINUOUS
 10
-79.4882349306
 20
-74.4882349306
 11
79.5117650694
 21
-74.4882349306
  0
LINE
  5
286
100
AcDbEntity
  8
0
100
AcDbLine
 62
7
  6
CONTINUOUS
 10
-70.0079584148
 20
-57.0079584148
 11
-70.5784298673
 21
-56.8382349306
  0
LINE
  5
287
100
AcDbEntity
  8
0
100
AcDbLine
 62
7
  6
CONTINUOUS
 10
-68.9685114464
 20
-55.9685114464
 11
-68.3980399939
 21
-56.1382349306
  0
LINE
  5
288
100
AcDbEntity
  8
0
100
AcDbLine
 62
7
  6
CONTINUOUS
 10
-69.1382349306
 20
-58.0819583778
 11
-69.1382349306
 21
-57.5784298673
  0
LINE
  5
289
100
AcDbEntity
  8
0
100
AcDbLine
 62
7
  6
CONTINUOUS
 10
-69.1382349306
 20
-55.3980399939
 11
-69.1382349306
 21
-54.8945114833
  0
LINE
  5
28A
100
AcDbEntity
  8
0
100
AcDbLine
 62
7
  6
CONTINUOUS
 10
-69.1382349306
 20
54.9180416222
 11
-69.1382349306
 21
55.4215701327
  0
LINE
  5
28B
100
AcDbEntity
  8
0
100
AcDbLine
 62
7
  6
CONTINUOUS
 10
-69.1382349306
 20
57.6019600061
 11
-69.1382349306
 21
58.1054885167
  0
LINE
  5
28C
100
AcDbEntity
  8
0
100
AcDbLine
 62
7
  6
CONTINUOUS
 10
-68.9882349306
 20
59.215928526
 11
-68.9882349306
 21
57.0977827657
  0
LINE
  5
28D
100
AcDbEntity
  8
0
100
AcDbLine
 62
7
  6
CONTINUOUS
 10
-68.9882349306
 20
55.9257473731
 11
-68.9882349306
 21
53.8076016128
  0
LINE
  5
28E
100
AcDbEntity
  8
0
100
AcDbLine
 62
7
  6
CONTINUOUS
 10
-68.9882349306
 20
-53.784071474
 11
-68.9882349306
 21
-55.9022172343
  0
LINE
  5
28F
100
AcDbEntity
  8
0
100
AcDbLine
 62
7
  6
CONTINUOUS
 10
-68.9882349306
 20
-57.0742526269
 11
-68.9882349306
 21
-59.1923983872
  0
LINE
  5
290
100
AcDbEntity
  8
0
100
AcDbLine
 62
7
  6
CONTINUOUS
 10
-68.3432349306
 20
56.8617650694
 11
-68.3432349306
 21
56.1617650694
  0
LINE
  5
291
100
AcDbEntity
  8
0
100
AcDbLine
 62
7
  6
CONTINUOUS
 10
-68.3432349306
 20
-56.1382349306
 11
-68.3432349306
 21
-56.8382349306
  0
LINE
  5
292
100
AcDbEntity
  8
RACCORDO
100
AcDbLine
 62
253
  6
CONTINUOUS
 10
87.5117650694
 20
-66.4882349306
 11
89.5117650694
 21
-66.4882349306
  0
LINE
  5
293
100
AcDbEntity
  8
RACCORDO
100
AcDbLine
 62
253
  6
CONTINUOUS
 10
-87.4882349306
 20
-66.4882349306
 11
-89.4882349306
 21
-66.4882349265
  0
LINE
  5
294
100
AcDbEntity
  8
0
100
AcDbLine
 62
7
  6
CONTINUOUS
 10
-69.8382349306
 20
-58.0819583778
 11
-69.1382349306
 21
-58.0819583778
  0
LINE
  5
295
100
AcDbEntity
  8
0
100
AcDbLine
 62
7
  6
CONTINUOUS
 10
69.1617650694
 20
-58.0819583778
 11
69.8617650694
 21
-58.0819583778
  0
LINE
  5
296
100
AcDbEntity
  8
0
100
AcDbLine
 62
7
  6
CONTINUOUS
 10
69.8617650694
 20
-57.6332349306
 11
69.1617650694
 21
-57.6332349306
  0
LINE
  5
297
100
AcDbEntity
  8
0
100
AcDbLine
 62
7
  6
CONTINUOUS
 10
-69.1382349306
 20
-57.6332349306
 11
-69.8382349306
 21
-57.6332349306
  0
LINE
  5
298
100
AcDbEntity
  8
0
100
AcDbLine
 62
7
  6
CONTINUOUS
 10
71.4536228338
 20
-56.8382349306
 11
70.6019600061
 21
-56.8382349306
  0
LINE
  5
299
100
AcDbEntity
  8
0
100
AcDbLine
 62
7
  6
CONTINUOUS
 10
68.4215701327
 20
-56.8382349306
 11
67.5699073051
 21
-56.8382349306
  0
LINE
  5
29A
100
AcDbEntity
  8
0
100
AcDbLine
 62
7
  6
CONTINUOUS
 10
-67.5463771662
 20
-56.8382349306
 11
-68.3980399939
 21
-56.8382349306
  0
LINE
  5
29B
100
AcDbEntity
  8
0
100
AcDbLine
 62
7
  6
CONTINUOUS
 10
-70.5784298673
 20
-56.8382349306
 11
-71.4300926949
 21
-56.8382349306
  0
LINE
  5
29C
100
AcDbEntity
  8
0
100
AcDbLine
 62
7
  6
CONTINUOUS
 10
71.4536228338
 20
-56.1382349306
 11
70.6019600061
 21
-56.1382349306
  0
LINE
  5
29D
100
AcDbEntity
  8
0
100
AcDbLine
 62
7
  6
CONTINUOUS
 10
68.4215701327
 20
-56.1382349306
 11
67.5699073051
 21
-56.1382349306
  0
LINE
  5
29E
100
AcDbEntity
  8
0
100
AcDbLine
 62
7
  6
CONTINUOUS
 10
-67.5463771662
 20
-56.1382349306
 11
-68.3980399939
 21
-56.1382349306
  0
LINE
  5
29F
100
AcDbEntity
  8
0
100
AcDbLine
 62
7
  6
CONTINUOUS
 10
-70.5784298673
 20
-56.1382349306
 11
-71.4300926949
 21
-56.1382349306
  0
LINE
  5
2A0
100
AcDbEntity
  8
0
100
AcDbLine
 62
7
  6
CONTINUOUS
 10
-69.8382349306
 20
-55.3432349306
 11
-69.1382349306
 21
-55.3432349306
  0
LINE
  5
2A1
100
AcDbEntity
  8
0
100
AcDbLine
 62
7
  6
CONTINUOUS
 10
69.1617650694
 20
-55.3432349306
 11
69.8617650694
 21
-55.3432349306
  0
LINE
  5
2A2
100
AcDbEntity
  8
0
100
AcDbLine
 62
7
  6
CONTINUOUS
 10
-69.8382349306
 20
-54.8945114833
 11
-69.1382349306
 21
-54.8945114833
  0
LINE
  5
2A3
100
AcDbEntity
  8
0
100
AcDbLine
 62
7
  6
CONTINUOUS
 10
69.1617650694
 20
-54.8945114833
 11
69.8617650694
 21
-54.8945114833
  0
LINE
  5
2A4
100
AcDbEntity
  8
0
100
AcDbLine
 62
7
  6
CONTINUOUS
 10
-69.8382349306
 20
-55.3980399939
 11
-70.0079584148
 21
-55.9685114464
  0
LINE
  5
2A5
100
AcDbEntity
  8
0
100
AcDbLine
 62
7
  6
CONTINUOUS
 10
-68.9685114464
 20
-57.0079584148
 11
-69.1382349306
 21
-57.5784298673
  0
LINE
  5
2A6
100
AcDbEntity
  8
0
100
AcDbLine
 62
7
  6
CONTINUOUS
 10
-69.8382349306
 20
55.4215701327
 11
-70.0079584148
 21
55.9920415852
  0
LINE
  5
2A7
100
AcDbEntity
  8
0
100
AcDbLine
 62
7
  6
CONTINUOUS
 10
-68.9685114464
 20
57.0314885536
 11
-69.1382349306
 21
57.6019600061
  0
LINE
  5
2A8
100
AcDbEntity
  8
0
100
AcDbLine
 62
7
  6
CONTINUOUS
 10
68.4215701327
 20
56.8617650694
 11
68.9920415852
 21
57.0314885536
  0
LINE
  5
2A9
100
AcDbEntity
  8
0
100
AcDbLine
 62
7
  6
CONTINUOUS
 10
70.6019600061
 20
56.1617650694
 11
70.0314885536
 21
55.9920415852
  0
LINE
  5
2AA
100
AcDbEntity
  8
0
100
AcDbLine
 62
7
  6
CONTINUOUS
 10
68.9920415852
 20
-57.0079584148
 11
68.4215701327
 21
-56.8382349306
  0
LINE
  5
2AB
100
AcDbEntity
  8
0
100
AcDbLine
 62
7
  6
CONTINUOUS
 10
70.0314885536
 20
-55.9685114464
 11
70.6019600061
 21
-56.1382349306
  0
LINE
  5
2AC
100
AcDbEntity
  8
0
100
AcDbLine
 62
7
  6
CONTINUOUS
 10
-70.5784298673
 20
-56.1382349306
 11
-70.0079584148
 21
-55.9685114464
  0
LINE
  5
2AD
100
AcDbEntity
  8
0
100
AcDbLine
 62
7
  6
CONTINUOUS
 10
-68.3980399939
 20
-56.8382349306
 11
-68.9685114464
 21
-57.0079584148
  0
LINE
  5
2AE
100
AcDbEntity
  8
0
100
AcDbLine
 62
7
  6
CONTINUOUS
 10
-70.0079584148
 20
55.9920415852
 11
-70.5784298673
 21
56.1617650694
  0
LINE
  5
2AF
100
AcDbEntity
  8
0
100
AcDbLine
 62
7
  6
CONTINUOUS
 10
-68.9685114464
 20
57.0314885536
 11
-68.3980399939
 21
56.8617650694
  0
LINE
  5
2B0
100
AcDbEntity
  8
0
100
AcDbLine
 62
7
  6
CONTINUOUS
 10
68.9920415852
 20
57.0314885536
 11
69.1617650694
 21
57.6019600061
  0
LINE
  5
2B1
100
AcDbEntity
  8
0
100
AcDbLine
 62
7
  6
CONTINUOUS
 10
69.8617650694
 20
55.4215701327
 11
70.0314885536
 21
55.9920415852
  0
LINE
  5
2B2
100
AcDbEntity
  8
0
100
AcDbLine
 62
7
  6
CONTINUOUS
 10
-69.8382349306
 20
54.9180416222
 11
-69.1382349306
 21
54.9180416222
  0
LINE
  5
2B3
100
AcDbEntity
  8
0
100
AcDbLine
 62
7
  6
CONTINUOUS
 10
69.1617650694
 20
54.9180416222
 11
69.8617650694
 21
54.9180416222
  0
LINE
  5
2B4
100
AcDbEntity
  8
0
100
AcDbLine
 62
7
  6
CONTINUOUS
 10
69.8617650694
 20
55.3667650694
 11
69.1617650694
 21
55.3667650694
  0
LINE
  5
2B5
100
AcDbEntity
  8
0
100
AcDbLine
 62
7
  6
CONTINUOUS
 10
-69.1382349306
 20
55.3667650694
 11
-69.8382349306
 21
55.3667650694
  0
LINE
  5
2B6
100
AcDbEntity
  8
0
100
AcDbLine
 62
7
  6
CONTINUOUS
 10
68.9920415852
 20
-57.0079584148
 11
69.1617650694
 21
-57.5784298673
  0
LINE
  5
2B7
100
AcDbEntity
  8
0
100
AcDbLine
 62
7
  6
CONTINUOUS
 10
69.8617650694
 20
-55.3980399939
 11
70.0314885536
 21
-55.9685114464
  0
LINE
  5
2B8
100
AcDbEntity
  8
0
100
AcDbLine
 62
7
  6
CONTINUOUS
 10
71.4536228338
 20
56.1617650694
 11
70.6019600061
 21
56.1617650694
  0
LINE
  5
2B9
100
AcDbEntity
  8
0
100
AcDbLine
 62
7
  6
CONTINUOUS
 10
68.4215701327
 20
56.1617650694
 11
67.5699073051
 21
56.1617650694
  0
LINE
  5
2BA
100
AcDbEntity
  8
0
100
AcDbLine
 62
7
  6
CONTINUOUS
 10
-67.5463771662
 20
56.1617650694
 11
-68.3980399939
 21
56.1617650694
  0
LINE
  5
2BB
100
AcDbEntity
  8
0
100
AcDbLine
 62
7
  6
CONTINUOUS
 10
-70.5784298673
 20
56.1617650694
 11
-71.4300926949
 21
56.1617650694
  0
LINE
  5
2BC
100
AcDbEntity
  8
0
100
AcDbLine
 62
7
  6
CONTINUOUS
 10
71.4536228338
 20
56.8617650694
 11
70.6019600061
 21
56.8617650694
  0
LINE
  5
2BD
100
AcDbEntity
  8
0
100
AcDbLine
 62
7
  6
CONTINUOUS
 10
68.4215701327
 20
56.8617650694
 11
67.5699073051
 21
56.8617650694
  0
LINE
  5
2BE
100
AcDbEntity
  8
0
100
AcDbLine
 62
7
  6
CONTINUOUS
 10
-67.5463771662
 20
56.8617650694
 11
-68.3980399939
 21
56.8617650694
  0
LINE
  5
2BF
100
AcDbEntity
  8
0
100
AcDbLine
 62
7
  6
CONTINUOUS
 10
-70.5784298673
 20
56.8617650694
 11
-71.4300926949
 21
56.8617650694
  0
LINE
  5
2C0
100
AcDbEntity
  8
0
100
AcDbLine
 62
7
  6
CONTINUOUS
 10
-69.8382349306
 20
57.6567650694
 11
-69.1382349306
 21
57.6567650694
  0
LINE
  5
2C1
100
AcDbEntity
  8
0
100
AcDbLine
 62
7
  6
CONTINUOUS
 10
69.1617650694
 20
57.6567650694
 11
69.8617650694
 21
57.6567650694
  0
LINE
  5
2C2
100
AcDbEntity
  8
0
100
AcDbLine
 62
7
  6
CONTINUOUS
 10
-69.8382349306
 20
58.1054885167
 11
-69.1382349306
 21
58.1054885167
  0
LINE
  5
2C3
100
AcDbEntity
  8
0
100
AcDbLine
 62
7
  6
CONTINUOUS
 10
69.1617650694
 20
58.1054885167
 11
69.8617650694
 21
58.1054885167
  0
LINE
  5
2C4
100
AcDbEntity
  8
0
100
AcDbLine
 62
7
  6
CONTINUOUS
 10
68.3667650694
 20
-56.8382349306
 11
68.3667650694
 21
-56.1382349306
  0
LINE
  5
2C5
100
AcDbEntity
  8
0
100
AcDbLine
 62
7
  6
CONTINUOUS
 10
68.3667650694
 20
56.1617650694
 11
68.3667650694
 21
56.8617650694
  0
LINE
  5
2C6
100
AcDbEntity
  8
0
100
AcDbLine
 62
7
  6
CONTINUOUS
 10
69.0117650694
 20
-59.1923983872
 11
69.0117650694
 21
-57.0742526269
  0
LINE
  5
2C7
100
AcDbEntity
  8
0
100
AcDbLine
 62
7
  6
CONTINUOUS
 10
69.0117650694
 20
-55.9022172343
 11
69.0117650694
 21
-53.784071474
  0
LINE
  5
2C8
100
AcDbEntity
  8
0
100
AcDbLine
 62
7
  6
CONTINUOUS
 10
69.0117650694
 20
53.8076016128
 11
69.0117650694
 21
55.9257473731
  0
LINE
  5
2C9
100
AcDbEntity
  8
0
100
AcDbLine
 62
7
  6
CONTINUOUS
 10
69.0117650694
 20
57.0977827657
 11
69.0117650694
 21
59.215928526
  0
LINE
  5
2CA
100
AcDbEntity
  8
0
100
AcDbLine
 62
7
  6
CONTINUOUS
 10
69.1617650694
 20
-58.0819583778
 11
69.1617650694
 21
-57.5784298673
  0
LINE
  5
2CB
100
AcDbEntity
  8
0
100
AcDbLine
 62
7
  6
CONTINUOUS
 10
69.1617650694
 20
-55.3980399939
 11
69.1617650694
 21
-54.8945114833
  0
LINE
  5
2CC
100
AcDbEntity
  8
0
100
AcDbLine
 62
7
  6
CONTINUOUS
 10
69.1617650694
 20
54.9180416222
 11
69.1617650694
 21
55.4215701327
  0
LINE
  5
2CD
100
AcDbEntity
  8
0
100
AcDbLine
 62
7
  6
CONTINUOUS
 10
69.1617650694
 20
57.6019600061
 11
69.1617650694
 21
58.1054885167
  0
LINE
  5
2CE
100
AcDbEntity
  8
0
100
AcDbLine
 62
7
  6
CONTINUOUS
 10
69.8617650694
 20
-58.0819583778
 11
69.8617650694
 21
-57.5784298673
  0
LINE
  5
2CF
100
AcDbEntity
  8
0
100
AcDbLine
 62
7
  6
CONTINUOUS
 10
69.8617650694
 20
-55.3980399939
 11
69.8617650694
 21
-54.8945114833
  0
LINE
  5
2D0
100
AcDbEntity
  8
0
100
AcDbLine
 62
7
  6
CONTINUOUS
 10
69.8617650694
 20
54.9180416222
 11
69.8617650694
 21
55.4215701327
  0
LINE
  5
2D1
100
AcDbEntity
  8
0
100
AcDbLine
 62
7
  6
CONTINUOUS
 10
69.8617650694
 20
57.6019600061
 11
69.8617650694
 21
58.1054885167
  0
LINE
  5
2D2
100
AcDbEntity
  8
0
100
AcDbLine
 62
7
  6
CONTINUOUS
 10
70.0117650694
 20
59.215928526
 11
70.0117650694
 21
57.0977827657
  0
LINE
  5
2D3
100
AcDbEntity
  8
0
100
AcDbLine
 62
7
  6
CONTINUOUS
 10
70.0117650694
 20
55.9257473731
 11
70.0117650694
 21
53.8076016128
  0
LINE
  5
2D4
100
AcDbEntity
  8
0
100
AcDbLine
 62
7
  6
CONTINUOUS
 10
70.0117650694
 20
-53.784071474
 11
70.0117650694
 21
-55.9022172343
  0
LINE
  5
2D5
100
AcDbEntity
  8
0
100
AcDbLine
 62
7
  6
CONTINUOUS
 10
70.0117650694
 20
-57.0742526269
 11
70.0117650694
 21
-59.1923983872
  0
LINE
  5
2D6
100
AcDbEntity
  8
0
100
AcDbLine
 62
7
  6
CONTINUOUS
 10
70.6567650694
 20
56.8617650694
 11
70.6567650694
 21
56.1617650694
  0
LINE
  5
2D7
100
AcDbEntity
  8
0
100
AcDbLine
 62
7
  6
CONTINUOUS
 10
70.6567650694
 20
-56.1382349306
 11
70.6567650694
 21
-56.8382349306
  0
LINE
  5
2D8
100
AcDbEntity
  8
RACCORDO
100
AcDbLine
 62
253
  6
CONTINUOUS
 10
87.5117650694
 20
66.5117650694
 11
89.5117650694
 21
66.5117650653
  0
LINE
  5
2D9
100
AcDbEntity
  8
RACCORDO
100
AcDbLine
 62
253
  6
CONTINUOUS
 10
-87.4882349306
 20
66.5117650694
 11
-89.4882349306
 21
66.5117650694
  0
LINE
  5
2DA
100
AcDbEntity
  8
RACCORDO
100
AcDbLine
 62
253
  6
CONTINUOUS
 10
79.5117650694
 20
-74.4882349306
 11
79.5117650653
 21
-76.4882349306
  0
LINE
  5
2DB
100
AcDbEntity
  8
RACCORDO
100
AcDbLine
 62
253
  6
CONTINUOUS
 10
79.5117650694
 20
74.5117650694
 11
79.5117650694
 21
76.5117650694
  0
LINE
  5
2DC
100
AcDbEntity
  8
0
100
AcDbLine
 62
7
  6
CONTINUOUS
 10
68.4215701327
 20
-56.1382349306
 11
68.9920415852
 21
-55.9685114464
  0
LINE
  5
2DD
100
AcDbEntity
  8
0
100
AcDbLine
 62
7
  6
CONTINUOUS
 10
70.6019600061
 20
-56.8382349306
 11
70.0314885536
 21
-57.0079584148
  0
LINE
  5
2DE
100
AcDbEntity
  8
RACCORDO
100
AcDbLine
 62
253
  6
CONTINUOUS
 10
79.5117650694
 20
74.5117650694
 11
-79.4882349306
 21
74.5117650694
  0
LINE
  5
2DF
100
AcDbEntity
  8
RACCORDO
100
AcDbLine
 62
7
  6
CONTINUOUS
 10
79.5117650694
 20
76.5117650694
 11
-79.4882349306
 21
76.5117650694
  0
LINE
  5
2E0
100
AcDbEntity
  8
CURVE
100
AcDbLine
 62
7
  6
CONTINUOUS
 10
79.5117650694
 20
76.5117650694
 11
-79.4882349306
 21
76.5117650694
  0
LINE
  5
2E1
100
AcDbEntity
  8
0
100
AcDbLine
 62
7
  6
CONTINUOUS
 10
68.9920415852
 20
55.9920415852
 11
68.4215701327
 21
56.1617650694
  0
LINE
  5
2E2
100
AcDbEntity
  8
0
100
AcDbLine
 62
7
  6
CONTINUOUS
 10
70.0314885536
 20
57.0314885536
 11
70.6019600061
 21
56.8617650694
  0
LINE
  5
2E3
100
AcDbEntity
  8
0
100
AcDbLine
 62
7
  6
CONTINUOUS
 10
69.1617650694
 20
-55.3980399939
 11
68.9920415852
 21
-55.9685114464
  0
LINE
  5
2E4
100
AcDbEntity
  8
0
100
AcDbLine
 62
7
  6
CONTINUOUS
 10
70.0314885536
 20
-57.0079584148
 11
69.8617650694
 21
-57.5784298673
  0
LINE
  5
2E5
100
AcDbEntity
  8
0
100
AcDbLine
 62
7
  6
CONTINUOUS
 10
69.1617650694
 20
55.4215701327
 11
68.9920415852
 21
55.9920415852
  0
LINE
  5
2E6
100
AcDbEntity
  8
0
100
AcDbLine
 62
7
  6
CONTINUOUS
 10
70.0314885536
 20
57.0314885536
 11
69.8617650694
 21
57.6019600061
  0
LINE
  5
2E7
100
AcDbEntity
  8
RACCORDO
100
AcDbLine
 62
253
  6
CONTINUOUS
 10
87.5117650694
 20
-66.4882349306
 11
87.5117650694
 21
66.5117650694
  0
LINE
  5
2E8
100
AcDbEntity
  8
RACCORDO
100
AcDbLine
 62
7
  6
CONTINUOUS
 10
89.5117650694
 20
-66.4882349306
 11
89.5117650694
 21
66.5117650694
  0
LINE
  5
2E9
100
AcDbEntity
  8
CURVE
100
AcDbLine
 62
7
  6
CONTINUOUS
 10
89.5117650694
 20
-66.4882349306
 11
89.5117650694
 21
66.5117650694
  0
LINE
  5
2EA
100
AcDbEntity
  8
RACCORDO
100
AcDbLine
 62
7
  6
CONTINUOUS
 10
-198.1713546632
 20
-76.4882349306
 11
-201.8713546632
 21
-76.4882349306
  0
LINE
  5
2EB
100
AcDbEntity
  8
ASSI
100
AcDbLine
 62
7
  6
CONTINUOUS
 10
-198.1713546632
 20
-76.4882349306
 11
-201.8713546632
 21
-76.4882349306
  0
LINE
  5
2EC
100
AcDbEntity
  8
DRAFT
100
AcDbLine
 62
7
  6
CONTINUOUS
 10
-186.1713546632
 20
68.5117650694
 11
-193.8344658815
 21
64.0874657447
  0
LINE
  5
2ED
100
AcDbEntity
  8
DRAFT
100
AcDbLine
 62
7
  6
CONTINUOUS
 10
-183.1539022568
 20
-70.4355651029
 11
-186.1713546632
 21
-70.4882349306
  0
LINE
  5
2EE
100
AcDbEntity
  8
RACCORDO
100
AcDbLine
 62
7
  6
CONTINUOUS
 10
-183.1539022568
 20
-70.4355651029
 11
-186.1713546632
 21
-70.4882349306
  0
LINE
  5
2EF
100
AcDbEntity
  8
DRAFT
100
AcDbLine
 62
7
  6
CONTINUOUS
 10
-195.2713546632
 20
-71.4882349306
 11
-190.4713546632
 21
-71.4882349306
  0
LINE
  5
2F0
100
AcDbEntity
  8
RACCORDO
100
AcDbLine
 62
253
  6
CONTINUOUS
 10
-197.1888070696
 20
-69.2960768883
 11
-198.1713546632
 21
-69.2960768883
  0
LINE
  5
2F1
100
AcDbEntity
  8
RACCORDO
100
AcDbLine
 62
7
  6
CONTINUOUS
 10
-197.1888070696
 20
-70.2959245835
 11
-186.1713546632
 21
-70.4882349306
  0
LINE
  5
2F2
100
AcDbEntity
  8
RACCORDO
100
AcDbLine
 62
253
  6
CONTINUOUS
 10
-197.1888070696
 20
-69.2960768883
 11
-186.1713546632
 21
-69.4883872354
  0
LINE
  5
2F3
100
AcDbEntity
  8
DRAFT
100
AcDbLine
 62
7
  6
CONTINUOUS
 10
-193.8344658815
 20
-64.0639356059
 11
-186.1713546632
 21
-68.4882349306
  0
LINE
  5
2F4
100
AcDbEntity
  8
RACCORDO
100
AcDbLine
 62
253
  6
CONTINUOUS
 10
-198.1713546632
 20
-66.4882349306
 11
-203.8713546632
 21
-66.4882349306
  0
LINE
  5
2F5
100
AcDbEntity
  8
DRAFT
100
AcDbLine
 62
7
  6
CONTINUOUS
 10
-186.1713546632
 20
-64.1976957097
 11
-198.1713546632
 21
-63.9882349306
  0
LINE
  5
2F6
100
AcDbEntity
  8
DRAFT
100
AcDbLine
 62
7
  6
CONTINUOUS
 10
-131.1713546632
 20
-57.4711034308
 11
-182.1713546632
 21
-58.4152879614
  0
LINE
  5
2F7
100
AcDbEntity
  8
DRAFT
100
AcDbLine
 62
7
  6
CONTINUOUS
 10
-182.1713546632
 20
-61.7089538917
 11
-131.1713546632
 21
-60.8187455804
  0
LINE
  5
2F8
100
AcDbEntity
  8
RACCORDO
100
AcDbLine
 62
7
  6
CONTINUOUS
 10
-131.1189974439
 20
-60.8178316817
 11
-131.1713546632
 21
-60.8187455804
  0
LINE
  5
2F9
100
AcDbEntity
  8
DRAFT
100
AcDbLine
 62
7
  6
CONTINUOUS
 10
-131.172606983
 20
-56.0943082778
 11
-128.6669913954
 21
-56.0724421018
  0
LINE
  5
2FA
100
AcDbEntity
  8
DRAFT
100
AcDbLine
 62
7
  6
CONTINUOUS
 10
-182.1713546632
 20
-56.6065462716
 11
-131.1713546632
 21
-56.2378099157
  0
LINE
  5
2FB
100
AcDbEntity
  8
DRAFT
100
AcDbLine
 62
7
  6
CONTINUOUS
 10
-131.1713546632
 20
-59.5854520654
 11
-182.1713546632
 21
-59.9002122019
  0
LINE
  5
2FC
100
AcDbEntity
  8
RACCORDO
100
AcDbLine
 62
7
  6
CONTINUOUS
 10
-143.829970894
 20
-57.7054577371
 11
-128.6669913954
 21
-57.650646796
  0
LINE
  5
2FD
100
AcDbEntity
  8
RACCORDO
100
AcDbLine
 62
253
  6
CONTINUOUS
 10
-128.1713546632
 20
-57.8182885963
 11
-128.6669913954
 21
-57.8182885963
  0
LINE
  5
2FE
100
AcDbEntity
  8
DRAFT
100
AcDbLine
 62
7
  6
CONTINUOUS
 10
-181.6965375708
 20
-58.4064974721
 11
-131.1713546632
 21
-59.0300618376
  0
LINE
  5
2FF
100
AcDbEntity
  8
RACCORDO
100
AcDbLine
 62
7
  6
CONTINUOUS
 10
-131.1233603793
 20
-52.6427458335
 11
-128.6669913954
 21
-52.6213094261
  0
LINE
  5
300
100
AcDbEntity
  8
RACCORDO
100
AcDbLine
 62
253
  6
CONTINUOUS
 10
-131.1713546632
 20
-52.1432217865
 11
-131.1189974439
 21
-52.142764872
  0
LINE
  5
301
100
AcDbEntity
  8
RACCORDO
100
AcDbLine
 62
7
  6
CONTINUOUS
 10
-129.5213546632
 20
-50.7382349306
 11
-182.1713546632
 21
-51.1793248583
  0
LINE
  5
302
100
AcDbEntity
  8
DRAFT
100
AcDbLine
 62
253
  6
CONTINUOUS
 10
-186.1713546632
 20
-54.9882349306
 11
-198.1713546632
 21
-54.9882349306
  0
LINE
  5
303
100
AcDbEntity
  8
RACCORDO
100
AcDbLine
 62
253
  6
CONTINUOUS
 10
-135.3713546632
 20
-50.6382349306
 11
-132.3213546632
 21
-50.6382349306
  0
LINE
  5
304
100
AcDbEntity
  8
RACCORDO
100
AcDbLine
 62
253
  6
CONTINUOUS
 10
-182.1713546632
 20
-48.4882349306
 11
-186.1713546632
 21
-48.4882349306
  0
LINE
  5
305
100
AcDbEntity
  8
RACCORDO
100
AcDbLine
 62
7
  6
CONTINUOUS
 10
-129.5213546632
 20
-49.1382349306
 11
-179.0975332728
 21
-48.2728795141
  0
LINE
  5
306
100
AcDbEntity
  8
DRAFT
100
AcDbLine
 62
7
  6
CONTINUOUS
 10
-186.1713546632
 20
-42.5231450604
 11
-193.8344658815
 21
-42.6569051643
  0
LINE
  5
307
100
AcDbEntity
  8
DRAFT
100
AcDbLine
 62
7
  6
CONTINUOUS
 10
-186.1713546632
 20
-43.8533248007
 11
-193.8344658815
 21
-43.7195646969
  0
LINE
  5
308
100
AcDbEntity
  8
RACCORDO
100
AcDbLine
 62
7
  6
CONTINUOUS
 10
-203.8713546632
 20
-74.4882349306
 11
-203.8713546632
 21
74.5117650694
  0
LINE
  5
309
100
AcDbEntity
  8
RACCORDO
100
AcDbLine
 62
253
  6
CONTINUOUS
 10
-201.8713546632
 20
-76.4882349306
 11
-201.8713546632
 21
76.5117650694
  0
LINE
  5
30A
100
AcDbEntity
  8
CURVE
100
AcDbLine
 62
7
  6
CONTINUOUS
 10
-201.8713546632
 20
-76.4882349306
 11
-201.8713546632
 21
76.5117650694
  0
LINE
  5
30B
100
AcDbEntity
  8
SMUSSO
100
AcDbLine
 62
7
  6
CONTINUOUS
 10
-180.5713546632
 20
-35.2882349306
 11
-182.1713546632
 21
-34.8595162227
  0
LINE
  5
30C
100
AcDbEntity
  8
0
100
AcDbLine
 62
7
  6
CONTINUOUS
 10
-198.1713546632
 20
-76.4882349306
 11
-198.1713546632
 21
76.5117650694
  0
LINE
  5
30D
100
AcDbEntity
  8
RACCORDO
100
AcDbLine
 62
253
  6
CONTINUOUS
 10
-197.1888070696
 20
-64.0053853626
 11
-197.1888070696
 21
-69.2960768883
  0
LINE
  5
30E
100
AcDbEntity
  8
RACCORDO
100
AcDbLine
 62
253
  6
CONTINUOUS
 10
-197.1888070696
 20
64.0289155015
 11
-197.1888070696
 21
69.3196070272
  0
LINE
  5
30F
100
AcDbEntity
  8
DRAFT
100
AcDbLine
 62
7
  6
CONTINUOUS
 10
-195.2713546632
 20
-70.3293938397
 11
-195.2713546632
 21
-71.4882349306
  0
LINE
  5
310
100
AcDbEntity
  8
DRAFT
100
AcDbLine
 62
7
  6
CONTINUOUS
 10
-195.2713546632
 20
70.3529239786
 11
-195.2713546632
 21
71.5117650694
  0
LINE
  5
311
100
AcDbEntity
  8
DRAFT
100
AcDbLine
 62
7
  6
CONTINUOUS
 10
-193.8344658815
 20
43.7430948357
 11
-193.8344658815
 21
42.6804353031
  0
LINE
  5
312
100
AcDbEntity
  8
DRAFT
100
AcDbLine
 62
7
  6
CONTINUOUS
 10
-193.8344658815
 20
14.9430948357
 11
-193.8344658815
 21
13.8804353031
  0
LINE
  5
313
100
AcDbEntity
  8
DRAFT
100
AcDbLine
 62
7
  6
CONTINUOUS
 10
-193.8344658815
 20
-13.8569051643
 11
-193.8344658815
 21
-14.9195646969
  0
LINE
  5
314
100
AcDbEntity
  8
DRAFT
100
AcDbLine
 62
7
  6
CONTINUOUS
 10
-193.8344658815
 20
-42.6569051643
 11
-193.8344658815
 21
-43.7195646969
  0
LINE
  5
315
100
AcDbEntity
  8
DRAFT
100
AcDbLine
 62
7
  6
CONTINUOUS
 10
-190.4713546632
 20
-70.4131781514
 11
-190.4713546632
 21
-71.4882349306
  0
LINE
  5
316
100
AcDbEntity
  8
DRAFT
100
AcDbLine
 62
7
  6
CONTINUOUS
 10
-190.4713546632
 20
70.4367082902
 11
-190.4713546632
 21
71.5117650694
  0
LINE
  5
317
100
AcDbEntity
  8
SMUSSO
100
AcDbLine
 62
7
  6
CONTINUOUS
 10
-180.5713546632
 20
-31.2882349306
 11
-182.1713546632
 21
-31.7169536385
  0
LINE
  5
318
100
AcDbEntity
  8
DRAFT
100
AcDbLine
 62
7
  6
CONTINUOUS
 10
-186.1713546632
 20
-70.4882349306
 11
-186.1713546632
 21
70.5117650694
  0
LINE
  5
319
100
AcDbEntity
  8
RACCORDO
100
AcDbLine
 62
253
  6
CONTINUOUS
 10
-183.1539022568
 20
70.4590952417
 11
-183.1539022568
 21
-70.4355651029
  0
LINE
  5
31A
100
AcDbEntity
  8
RACCORDO
100
AcDbLine
 62
7
  6
CONTINUOUS
 10
-129.5213546632
 20
-17.4382349306
 11
-179.0975332728
 21
-18.3035903471
  0
LINE
  5
31B
100
AcDbEntity
  8
RACCORDO
100
AcDbLine
 62
7
  6
CONTINUOUS
 10
-182.1713546632
 20
-69.4357174078
 11
-182.1713546632
 21
69.4592475466
  0
LINE
  5
31C
100
AcDbEntity
  8
SMUSSO
100
AcDbLine
 62
7
  6
CONTINUOUS
 10
-181.6714308156
 20
35.0170005528
 11
-181.6714308156
 21
31.6065295861
  0
LINE
  5
31D
100
AcDbEntity
  8
SMUSSO
100
AcDbLine
 62
7
  6
CONTINUOUS
 10
-181.6714308156
 20
1.7170005528
 11
-181.6714308156
 21
-1.6934704139
  0
LINE
  5
31E
100
AcDbEntity
  8
SMUSSO
100
AcDbLine
 62
7
  6
CONTINUOUS
 10
-181.6714308156
 20
-31.5829994472
 11
-181.6714308156
 21
-34.9934704139
  0
LINE
  5
31F
100
AcDbEntity
  8
RACCORDO
100
AcDbLine
 62
7
  6
CONTINUOUS
 10
-180.5713546632
 20
46.7966381102
 11
-180.5713546632
 21
35.3117650694
  0
LINE
  5
320
100
AcDbEntity
  8
RACCORDO
100
AcDbLine
 62
7
  6
CONTINUOUS
 10
-180.5713546632
 20
31.3117650694
 11
-180.5713546632
 21
19.8268920287
  0
LINE
  5
321
100
AcDbEntity
  8
RACCORDO
100
AcDbLine
 62
7
  6
CONTINUOUS
 10
-180.5713546632
 20
13.4966381102
 11
-180.5713546632
 21
2.0117650694
  0
LINE
  5
322
100
AcDbEntity
  8
RACCORDO
100
AcDbLine
 62
7
  6
CONTINUOUS
 10
-180.5713546632
 20
-1.9882349306
 11
-180.5713546632
 21
-13.4731079713
  0
LINE
  5
323
100
AcDbEntity
  8
RACCORDO
100
AcDbLine
 62
7
  6
CONTINUOUS
 10
-180.5713546632
 20
-19.8033618898
 11
-180.5713546632
 21
-31.2882349306
  0
LINE
  5
324
100
AcDbEntity
  8
RACCORDO
100
AcDbLine
 62
7
  6
CONTINUOUS
 10
-180.5713546632
 20
-35.2882349306
 11
-180.5713546632
 21
-46.7731079713
  0
LINE
  5
325
100
AcDbEntity
  8
DRAFT
100
AcDbLine
 62
7
  6
CONTINUOUS
 10
-186.1713546632
 20
-13.7231450604
 11
-193.8344658815
 21
-13.8569051643
  0
LINE
  5
326
100
AcDbEntity
  8
DRAFT
100
AcDbLine
 62
7
  6
CONTINUOUS
 10
-186.1713546632
 20
-15.0533248007
 11
-193.8344658815
 21
-14.9195646969
  0
LINE
  5
327
100
AcDbEntity
  8
RACCORDO
100
AcDbLine
 62
7
  6
CONTINUOUS
 10
-129.5213546632
 20
-15.8382349306
 11
-179.0975332728
 21
-14.9728795141
  0
LINE
  5
328
100
AcDbEntity
  8
SMUSSO
100
AcDbLine
 62
7
  6
CONTINUOUS
 10
-180.5713546632
 20
-1.9882349306
 11
-182.1713546632
 21
-1.5595162227
  0
LINE
  5
329
100
AcDbEntity
  8
SMUSSO
100
AcDbLine
 62
7
  6
CONTINUOUS
 10
-180.5713546632
 20
2.0117650694
 11
-182.1713546632
 21
1.5830463615
  0
LINE
  5
32A
100
AcDbEntity
  8
RACCORDO
100
AcDbLine
 62
7
  6
CONTINUOUS
 10
-129.5213546632
 20
15.8617650694
 11
-179.0975332728
 21
14.9964096529
  0
LINE
  5
32B
100
AcDbEntity
  8
DRAFT
100
AcDbLine
 62
7
  6
CONTINUOUS
 10
-186.1713546632
 20
15.0768549396
 11
-193.8344658815
 21
14.9430948357
  0
LINE
  5
32C
100
AcDbEntity
  8
DRAFT
100
AcDbLine
 62
7
  6
CONTINUOUS
 10
-186.1713546632
 20
13.7466751993
 11
-193.8344658815
 21
13.8804353031
  0
LINE
  5
32D
100
AcDbEntity
  8
RACCORDO
100
AcDbLine
 62
7
  6
CONTINUOUS
 10
-129.5213546632
 20
17.4617650694
 11
-179.0975332728
 21
18.3271204859
  0
LINE
  5
32E
100
AcDbEntity
  8
SMUSSO
100
AcDbLine
 62
7
  6
CONTINUOUS
 10
-180.5713546632
 20
31.3117650694
 11
-182.1713546632
 21
31.7404837773
  0
LINE
  5
32F
100
AcDbEntity
  8
DRAFT
100
AcDbLine
 62
7
  6
CONTINUOUS
 10
-135.3713546632
 20
-50.7872449226
 11
-135.3713546632
 21
-49.0361228008
  0
LINE
  5
330
100
AcDbEntity
  8
DRAFT
100
AcDbLine
 62
7
  6
CONTINUOUS
 10
-135.3713546632
 20
-17.5403470604
 11
-135.3713546632
 21
-15.7361228008
  0
LINE
  5
331
100
AcDbEntity
  8
DRAFT
100
AcDbLine
 62
7
  6
CONTINUOUS
 10
-135.3713546632
 20
15.7596529396
 11
-135.3713546632
 21
17.5638771992
  0
LINE
  5
332
100
AcDbEntity
  8
DRAFT
100
AcDbLine
 62
7
  6
CONTINUOUS
 10
-135.3713546632
 20
49.0596529396
 11
-135.3713546632
 21
50.8107750614
  0
LINE
  5
333
100
AcDbEntity
  8
DRAFT
100
AcDbLine
 62
7
  6
CONTINUOUS
 10
-132.3213546632
 20
-50.7616927045
 11
-132.3213546632
 21
-49.0893607488
  0
LINE
  5
334
100
AcDbEntity
  8
DRAFT
100
AcDbLine
 62
7
  6
CONTINUOUS
 10
-132.3213546632
 20
-17.4871091124
 11
-132.3213546632
 21
-15.7893607488
  0
LINE
  5
335
100
AcDbEntity
  8
DRAFT
100
AcDbLine
 62
7
  6
CONTINUOUS
 10
-132.3213546632
 20
15.8128908876
 11
-132.3213546632
 21
17.5106392512
  0
LINE
  5
336
100
AcDbEntity
  8
DRAFT
100
AcDbLine
 62
7
  6
CONTINUOUS
 10
-132.3213546632
 20
49.1128908876
 11
-132.3213546632
 21
50.7852228434
  0
LINE
  5
337
100
AcDbEntity
  8
DRAFT
100
AcDbLine
 62
7
  6
CONTINUOUS
 10
-131.1713546632
 20
-60.8187455804
 11
-131.1713546632
 21
-59.0300618376
  0
LINE
  5
338
100
AcDbEntity
  8
DRAFT
100
AcDbLine
 62
7
  6
CONTINUOUS
 10
-131.1713546632
 20
-57.4711034308
 11
-131.1713546632
 21
-56.2378099157
  0
LINE
  5
339
100
AcDbEntity
  8
RACCORDO
100
AcDbLine
 62
7
  6
CONTINUOUS
 10
-131.1713546632
 20
-56.2378099157
 11
-131.1713546632
 21
-52.1432217865
  0
LINE
  5
33A
100
AcDbEntity
  8
RACCORDO
100
AcDbLine
 62
7
  6
CONTINUOUS
 10
-131.1713546632
 20
52.1667519253
 11
-131.1713546632
 21
56.2613400546
  0
LINE
  5
33B
100
AcDbEntity
  8
DRAFT
100
AcDbLine
 62
7
  6
CONTINUOUS
 10
-131.1713546632
 20
56.2613400546
 11
-131.1713546632
 21
57.4946335696
  0
LINE
  5
33C
100
AcDbEntity
  8
DRAFT
100
AcDbLine
 62
7
  6
CONTINUOUS
 10
-131.1713546632
 20
59.0535919765
 11
-131.1713546632
 21
60.8422757192
  0
LINE
  5
33D
100
AcDbEntity
  8
RACCORDO
100
AcDbLine
 62
253
  6
CONTINUOUS
 10
-131.1189974439
 20
52.1662950108
 11
-131.1189974439
 21
50.7751497634
  0
LINE
  5
33E
100
AcDbEntity
  8
RACCORDO
100
AcDbLine
 62
253
  6
CONTINUOUS
 10
-131.1189974439
 20
49.133878111
 11
-131.1189974439
 21
17.4896520279
  0
LINE
  5
33F
100
AcDbEntity
  8
RACCORDO
100
AcDbLine
 62
253
  6
CONTINUOUS
 10
-131.1189974439
 20
15.833878111
 11
-131.1189974439
 21
-15.8103479721
  0
LINE
  5
340
100
AcDbEntity
  8
RACCORDO
100
AcDbLine
 62
253
  6
CONTINUOUS
 10
-131.1189974439
 20
-17.466121889
 11
-131.1189974439
 21
-49.1103479721
  0
LINE
  5
341
100
AcDbEntity
  8
RACCORDO
100
AcDbLine
 62
253
  6
CONTINUOUS
 10
-131.1189974439
 20
-50.7516196246
 11
-131.1189974439
 21
-52.142764872
  0
LINE
  5
342
100
AcDbEntity
  8
SMUSSO
100
AcDbLine
 62
7
  6
CONTINUOUS
 10
-182.1713546632
 20
-62.2089538917
 11
-181.6714308156
 21
-61.7002276885
  0
LINE
  5
343
100
AcDbEntity
  8
SMUSSO
100
AcDbLine
 62
7
  6
CONTINUOUS
 10
-181.6714308156
 20
61.7237578273
 11
-182.1713546632
 21
62.2324840306
  0
LINE
  5
344
100
AcDbEntity
  8
RACCORDO
100
AcDbLine
 62
253
  6
CONTINUOUS
 10
-129.8188414185
 20
-50.7407272081
 11
-129.8188414185
 21
-49.1382349306
  0
LINE
  5
345
100
AcDbEntity
  8
RACCORDO
100
AcDbLine
 62
253
  6
CONTINUOUS
 10
-129.8188414185
 20
-17.4382349306
 11
-129.8188414185
 21
-15.8382349306
  0
LINE
  5
346
100
AcDbEntity
  8
RACCORDO
100
AcDbLine
 62
253
  6
CONTINUOUS
 10
-129.8188414185
 20
15.8617650694
 11
-129.8188414185
 21
17.4617650694
  0
LINE
  5
347
100
AcDbEntity
  8
RACCORDO
100
AcDbLine
 62
253
  6
CONTINUOUS
 10
-129.8188414185
 20
49.1617650694
 11
-129.8188414185
 21
50.7642573469
  0
LINE
  5
348
100
AcDbEntity
  8
RACCORDO
100
AcDbLine
 62
7
  6
CONTINUOUS
 10
-129.5213546632
 20
-50.7382349306
 11
-129.5213546632
 21
-49.1382349306
  0
LINE
  5
349
100
AcDbEntity
  8
RACCORDO
100
AcDbLine
 62
7
  6
CONTINUOUS
 10
-129.5213546632
 20
-17.4382349306
 11
-129.5213546632
 21
-15.8382349306
  0
LINE
  5
34A
100
AcDbEntity
  8
RACCORDO
100
AcDbLine
 62
7
  6
CONTINUOUS
 10
-129.5213546632
 20
15.8617650694
 11
-129.5213546632
 21
17.4617650694
  0
LINE
  5
34B
100
AcDbEntity
  8
RACCORDO
100
AcDbLine
 62
7
  6
CONTINUOUS
 10
-129.5213546632
 20
49.1617650694
 11
-129.5213546632
 21
50.7617650694
  0
LINE
  5
34C
100
AcDbEntity
  8
RACCORDO
100
AcDbLine
 62
253
  6
CONTINUOUS
 10
-128.6669913954
 20
57.8418187351
 11
-128.6669913954
 21
52.644839565
  0
LINE
  5
34D
100
AcDbEntity
  8
RACCORDO
100
AcDbLine
 62
253
  6
CONTINUOUS
 10
-128.6669913954
 20
-52.6213094261
 11
-128.6669913954
 21
-57.8182885963
  0
LINE
  5
34E
100
AcDbEntity
  8
RACCORDO
100
AcDbLine
 62
7
  6
CONTINUOUS
 10
-128.1713546632
 20
57.8418187351
 11
-128.1713546632
 21
-57.8182885963
  0
LINE
  5
34F
100
AcDbEntity
  8
SMUSSO
100
AcDbLine
 62
7
  6
CONTINUOUS
 10
-180.5713546632
 20
35.3117650694
 11
-182.1713546632
 21
34.8830463615
  0
LINE
  5
350
100
AcDbEntity
  8
DRAFT
100
AcDbLine
 62
7
  6
CONTINUOUS
 10
-186.1713546632
 20
43.8768549396
 11
-193.8344658815
 21
43.7430948357
  0
LINE
  5
351
100
AcDbEntity
  8
DRAFT
100
AcDbLine
 62
7
  6
CONTINUOUS
 10
-186.1713546632
 20
42.5466751993
 11
-193.8344658815
 21
42.6804353031
  0
LINE
  5
352
100
AcDbEntity
  8
RACCORDO
100
AcDbLine
 62
7
  6
CONTINUOUS
 10
-129.5213546632
 20
49.1617650694
 11
-179.0975332728
 21
48.2964096529
  0
LINE
  5
353
100
AcDbEntity
  8
RACCORDO
100
AcDbLine
 62
253
  6
CONTINUOUS
 10
-182.1713546632
 20
48.5117650694
 11
-186.1713546632
 21
48.5117650694
  0
LINE
  5
354
100
AcDbEntity
  8
RACCORDO
100
AcDbLine
 62
253
  6
CONTINUOUS
 10
-135.3713546632
 20
50.6617650694
 11
-132.3213546632
 21
50.6617650694
  0
LINE
  5
355
100
AcDbEntity
  8
RACCORDO
100
AcDbLine
 62
7
  6
CONTINUOUS
 10
-129.5213546632
 20
50.7617650694
 11
-182.1713546632
 21
51.2028549972
  0
LINE
  5
356
100
AcDbEntity
  8
DRAFT
100
AcDbLine
 62
253
  6
CONTINUOUS
 10
-186.1713546632
 20
55.0117650694
 11
-198.1713546632
 21
55.0117650694
  0
LINE
  5
357
100
AcDbEntity
  8
DRAFT
100
AcDbLine
 62
7
  6
CONTINUOUS
 10
-182.1713546632
 20
56.6300764105
 11
-131.1713546632
 21
56.2613400546
  0
LINE
  5
358
100
AcDbEntity
  8
RACCORDO
100
AcDbLine
 62
253
  6
CONTINUOUS
 10
-131.1189974439
 20
52.1662950108
 11
-131.1713546632
 21
52.1667519253
  0
LINE
  5
359
100
AcDbEntity
  8
RACCORDO
100
AcDbLine
 62
7
  6
CONTINUOUS
 10
-128.6669913954
 20
52.644839565
 11
-131.1233603793
 21
52.6662759723
  0
LINE
  5
35A
100
AcDbEntity
  8
DRAFT
100
AcDbLine
 62
7
  6
CONTINUOUS
 10
-131.172606983
 20
56.1178384166
 11
-128.6669913954
 21
56.0959722407
  0
LINE
  5
35B
100
AcDbEntity
  8
DRAFT
100
AcDbLine
 62
7
  6
CONTINUOUS
 10
-181.6965375708
 20
58.430027611
 11
-131.1713546632
 21
59.0535919765
  0
LINE
  5
35C
100
AcDbEntity
  8
RACCORDO
100
AcDbLine
 62
253
  6
CONTINUOUS
 10
-128.1713546632
 20
57.8418187351
 11
-128.6669913954
 21
57.8418187351
  0
LINE
  5
35D
100
AcDbEntity
  8
RACCORDO
100
AcDbLine
 62
7
  6
CONTINUOUS
 10
-143.829970894
 20
57.728987876
 11
-128.6669913954
 21
57.6741769349
  0
LINE
  5
35E
100
AcDbEntity
  8
DRAFT
100
AcDbLine
 62
7
  6
CONTINUOUS
 10
-131.1713546632
 20
59.6089822042
 11
-182.1713546632
 21
59.9237423408
  0
LINE
  5
35F
100
AcDbEntity
  8
DRAFT
100
AcDbLine
 62
7
  6
CONTINUOUS
 10
-182.1713546632
 20
61.7324840306
 11
-131.1713546632
 21
60.8422757192
  0
LINE
  5
360
100
AcDbEntity
  8
RACCORDO
100
AcDbLine
 62
7
  6
CONTINUOUS
 10
-131.1713546632
 20
60.8422757192
 11
-131.1189974439
 21
60.8413618206
  0
LINE
  5
361
100
AcDbEntity
  8
DRAFT
100
AcDbLine
 62
7
  6
CONTINUOUS
 10
-131.1713546632
 20
57.4946335696
 11
-182.1713546632
 21
58.4388181003
  0
LINE
  5
362
100
AcDbEntity
  8
DRAFT
100
AcDbLine
 62
7
  6
CONTINUOUS
 10
-186.1713546632
 20
64.2212258486
 11
-198.1713546632
 21
64.0117650694
  0
LINE
  5
363
100
AcDbEntity
  8
RACCORDO
100
AcDbLine
 62
253
  6
CONTINUOUS
 10
-198.1713546632
 20
66.5117650694
 11
-203.8713546632
 21
66.5117650694
  0
LINE
  5
364
100
AcDbEntity
  8
RACCORDO
100
AcDbLine
 62
253
  6
CONTINUOUS
 10
-186.1713546632
 20
69.5119173743
 11
-197.1888070696
 21
69.3196070272
  0
LINE
  5
365
100
AcDbEntity
  8
RACCORDO
100
AcDbLine
 62
7
  6
CONTINUOUS
 10
-186.1713546632
 20
70.5117650694
 11
-197.1888070696
 21
70.3194547223
  0
LINE
  5
366
100
AcDbEntity
  8
RACCORDO
100
AcDbLine
 62
253
  6
CONTINUOUS
 10
-198.1713546632
 20
69.3196070272
 11
-197.1888070696
 21
69.3196070271
  0
LINE
  5
367
100
AcDbEntity
  8
DRAFT
100
AcDbLine
 62
7
  6
CONTINUOUS
 10
-195.2713546632
 20
71.5117650694
 11
-190.4713546632
 21
71.5117650694
  0
LINE
  5
368
100
AcDbEntity
  8
RACCORDO
100
AcDbLine
 62
7
  6
CONTINUOUS
 10
-183.1539022568
 20
70.4590952417
 11
-186.1713546632
 21
70.5117650694
  0
LINE
  5
369
100
AcDbEntity
  8
RACCORDO
100
AcDbLine
 62
7
  6
CONTINUOUS
 10
-198.1713546632
 20
76.5117650694
 11
-201.8713546632
 21
76.5117650694
  0
ARC
  5
36A
100
AcDbEntity
  8
0
100
AcDbCircle
 62
7
  6
CONTINUOUS
 10
-56.8442186437
 20
-56.4882349306
 40
14.5900727153
100
AcDbArc
 50
178.6254046104
 51
181.3745953896
  0
ARC
  5
36B
100
AcDbEntity
  8
0
100
AcDbCircle
 62
7
  6
CONTINUOUS
 10
-82.1322512174
 20
-56.4882349306
 40
14.5900727153
100
AcDbArc
 50
358.6254046104
 51
1.3745953896
  0
ARC
  5
36C
100
AcDbEntity
  8
RACCORDO
100
AcDbCircle
 62
7
  6
CONTINUOUS
 10
-79.4882349306
 20
-66.4882349306
 40
10.0
100
AcDbArc
 50
179.9999999764
 51
270.0000000393
  0
ARC
  5
36D
100
AcDbEntity
  8
CURVE
100
AcDbCircle
 62
7
  6
CONTINUOUS
 10
-79.4882349306
 20
-66.4882349306
 40
10.0
100
AcDbArc
 50
180.0
 51
270.0
  0
ARC
  5
36E
100
AcDbEntity
  8
RACCORDO
100
AcDbCircle
 62
253
  6
CONTINUOUS
 10
-79.4882349306
 20
-66.4882349306
 40
7.9999993404
100
AcDbArc
 50
180.0
 51
270.0
  0
CIRCLE
  5
36F
100
AcDbEntity
  8
0
100
AcDbCircle
 62
7
  6
CONTINUOUS
 10
-69.4882349306
 20
-56.4882349306
 40
3.0
  0
CIRCLE
  5
370
100
AcDbEntity
  8
0
100
AcDbCircle
 62
7
  6
CONTINUOUS
 10
-69.4882349306
 20
-56.4882349306
 40
2.75
  0
ARC
  5
371
100
AcDbEntity
  8
0
100
AcDbCircle
 62
7
  6
CONTINUOUS
 10
-56.8442186437
 20
56.5117650694
 40
14.5900727153
100
AcDbArc
 50
178.6254046104
 51
181.3745953896
  0
ARC
  5
372
100
AcDbEntity
  8
0
100
AcDbCircle
 62
7
  6
CONTINUOUS
 10
-82.1322512174
 20
56.5117650694
 40
14.5900727153
100
AcDbArc
 50
358.6254046104
 51
1.3745953896
  0
ARC
  5
373
100
AcDbEntity
  8
RACCORDO
100
AcDbCircle
 62
7
  6
CONTINUOUS
 10
-79.4882349306
 20
66.5117650694
 40
10.0
100
AcDbArc
 50
89.9999999764
 51
180.0000000393
  0
ARC
  5
374
100
AcDbEntity
  8
CURVE
100
AcDbCircle
 62
7
  6
CONTINUOUS
 10
-79.4882349306
 20
66.5117650694
 40
10.0
100
AcDbArc
 50
90.0
 51
180.0
  0
ARC
  5
375
100
AcDbEntity
  8
RACCORDO
100
AcDbCircle
 62
253
  6
CONTINUOUS
 10
-79.4882349306
 20
66.5117650694
 40
7.9999993404
100
AcDbArc
 50
90.0
 51
180.0
  0
CIRCLE
  5
376
100
AcDbEntity
  8
0
100
AcDbCircle
 62
7
  6
CONTINUOUS
 10
-69.4882349306
 20
56.5117650694
 40
3.0
  0
CIRCLE
  5
377
100
AcDbEntity
  8
0
100
AcDbCircle
 62
7
  6
CONTINUOUS
 10
-69.4882349306
 20
56.5117650694
 40
2.75
  0
ARC
  5
378
100
AcDbEntity
  8
0
100
AcDbCircle
 62
7
  6
CONTINUOUS
 10
82.1557813563
 20
-56.4882349306
 40
14.5900727153
100
AcDbArc
 50
178.6254046104
 51
181.3745953896
  0
ARC
  5
379
100
AcDbEntity
  8
0
100
AcDbCircle
 62
7
  6
CONTINUOUS
 10
56.8677487826
 20
-56.4882349306
 40
14.5900727153
100
AcDbArc
 50
358.6254046104
 51
1.3745953896
  0
ARC
  5
37A
100
AcDbEntity
  8
RACCORDO
100
AcDbCircle
 62
7
  6
CONTINUOUS
 10
79.5117650694
 20
-66.4882349306
 40
10.0
100
AcDbArc
 50
269.9999999764
 51
360.0
  0
ARC
  5
37B
100
AcDbEntity
  8
CURVE
100
AcDbCircle
 62
7
  6
CONTINUOUS
 10
79.5117650694
 20
-66.4882349306
 40
10.0
100
AcDbArc
 50
270.0
 51
360.0
  0
ARC
  5
37C
100
AcDbEntity
  8
RACCORDO
100
AcDbCircle
 62
253
  6
CONTINUOUS
 10
79.5117650694
 20
-66.4882349306
 40
7.9999993404
100
AcDbArc
 50
270.0
 51
360.0
  0
CIRCLE
  5
37D
100
AcDbEntity
  8
0
100
AcDbCircle
 62
7
  6
CONTINUOUS
 10
69.5117650694
 20
-56.4882349306
 40
3.0
  0
CIRCLE
  5
37E
100
AcDbEntity
  8
0
100
AcDbCircle
 62
7
  6
CONTINUOUS
 10
69.5117650694
 20
-56.4882349306
 40
2.75
  0
ARC
  5
37F
100
AcDbEntity
  8
0
100
AcDbCircle
 62
7
  6
CONTINUOUS
 10
82.1557813563
 20
56.5117650694
 40
14.5900727153
100
AcDbArc
 50
178.6254046104
 51
181.3745953896
  0
ARC
  5
380
100
AcDbEntity
  8
0
100
AcDbCircle
 62
7
  6
CONTINUOUS
 10
56.8677487826
 20
56.5117650694
 40
14.5900727153
100
AcDbArc
 50
358.6254046104
 51
1.3745953896
  0
ARC
  5
381
100
AcDbEntity
  8
RACCORDO
100
AcDbCircle
 62
7
  6
CONTINUOUS
 10
79.5117650694
 20
66.5117650694
 40
10.0
100
AcDbArc
 50
0.0
 51
90.0000000393
  0
ARC
  5
382
100
AcDbEntity
  8
CURVE
100
AcDbCircle
 62
7
  6
CONTINUOUS
 10
79.5117650694
 20
66.5117650694
 40
10.0
100
AcDbArc
 50
0.0
 51
90.0
  0
ARC
  5
383
100
AcDbEntity
  8
RACCORDO
100
AcDbCircle
 62
253
  6
CONTINUOUS
 10
79.5117650694
 20
66.5117650694
 40
7.9999993404
100
AcDbArc
 50
0.0
 51
90.0
  0
CIRCLE
  5
384
100
AcDbEntity
  8
0
100
AcDbCircle
 62
7
  6
CONTINUOUS
 10
69.5117650694
 20
56.5117650694
 40
3.0
  0
CIRCLE
  5
385
100
AcDbEntity
  8
0
100
AcDbCircle
 62
7
  6
CONTINUOUS
 10
69.5117650694
 20
56.5117650694
 40
2.75
  0
ARC
  5
386
100
AcDbEntity
  8
RACCORDO
100
AcDbCircle
 62
7
  6
CONTINUOUS
 10
-131.1713546632
 20
-57.8182885963
 40
3.0
100
AcDbArc
 50
271.0
 51
360.0
  0
ARC
  5
387
100
AcDbEntity
  8
RACCORDO
100
AcDbCircle
 62
7
  6
CONTINUOUS
 10
-131.1713546632
 20
57.8418187351
 40
3.0
100
AcDbArc
 50
0.0
 51
89.0
  0
ARC
  5
388
100
AcDbEntity
  8
RACCORDO
100
AcDbCircle
 62
253
  6
CONTINUOUS
 10
-131.1670415302
 20
57.8417733679
 40
2.5000495798
100
AcDbArc
 50
0.0010397185
 51
88.9988693388
  0
ARC
  5
389
100
AcDbEntity
  8
RACCORDO
100
AcDbCircle
 62
253
  6
CONTINUOUS
 10
-131.1670414813
 20
-57.8182432272
 40
2.5000495541
100
AcDbArc
 50
271.0011295411
 51
359.9989602386
  0
ARC
  5
38A
100
AcDbEntity
  8
RACCORDO
100
AcDbCircle
 62
7
  6
CONTINUOUS
 10
-201.8713546632
 20
74.5117650694
 40
2.0
100
AcDbArc
 50
90.0
 51
180.0
  0
ARC
  5
38B
100
AcDbEntity
  8
RACCORDO
100
AcDbCircle
 62
7
  6
CONTINUOUS
 10
-201.8713546632
 20
-74.4882349306
 40
2.0
100
AcDbArc
 50
180.0
 51
270.0
  0
ARC
  5
38C
100
AcDbEntity
  8
RACCORDO
100
AcDbCircle
 62
7
  6
CONTINUOUS
 10
-179.0713546632
 20
-46.7731079713
 40
1.5
100
AcDbArc
 50
180.0
 51
269.0
  0
ARC
  5
38D
100
AcDbEntity
  8
RACCORDO
100
AcDbCircle
 62
7
  6
CONTINUOUS
 10
-179.0713546632
 20
-19.8033618898
 40
1.5
100
AcDbArc
 50
91.0
 51
180.0
  0
ARC
  5
38E
100
AcDbEntity
  8
RACCORDO
100
AcDbCircle
 62
7
  6
CONTINUOUS
 10
-179.0713546632
 20
-13.4731079713
 40
1.5
100
AcDbArc
 50
180.0
 51
269.0
  0
ARC
  5
38F
100
AcDbEntity
  8
RACCORDO
100
AcDbCircle
 62
7
  6
CONTINUOUS
 10
-179.0713546632
 20
13.4966381102
 40
1.5
100
AcDbArc
 50
91.0
 51
180.0
  0
ARC
  5
390
100
AcDbEntity
  8
RACCORDO
100
AcDbCircle
 62
7
  6
CONTINUOUS
 10
-179.0713546632
 20
19.8268920287
 40
1.5
100
AcDbArc
 50
180.0
 51
269.0
  0
ARC
  5
391
100
AcDbEntity
  8
RACCORDO
100
AcDbCircle
 62
7
  6
CONTINUOUS
 10
-179.0713546632
 20
46.7966381102
 40
1.5
100
AcDbArc
 50
91.0
 51
180.0
  0
ARC
  5
392
100
AcDbEntity
  8
RACCORDO
100
AcDbCircle
 62
7
  6
CONTINUOUS
 10
-183.1713546632
 20
-69.4357174078
 40
1.0
100
AcDbArc
 50
271.0
 51
360.0
  0
ARC
  5
393
100
AcDbEntity
  8
RACCORDO
100
AcDbCircle
 62
7
  6
CONTINUOUS
 10
-183.1713546632
 20
69.4592475466
 40
1.0
100
AcDbArc
 50
0.0
 51
88.9999999953
  0
ARC
  5
394
100
AcDbEntity
  8
RACCORDO
100
AcDbCircle
 62
7
  6
CONTINUOUS
 10
-197.1713546632
 20
69.3196070272
 40
1.0
100
AcDbArc
 50
91.0
 51
180.0
  0
ARC
  5
395
100
AcDbEntity
  8
RACCORDO
100
AcDbCircle
 62
7
  6
CONTINUOUS
 10
-197.1713546632
 20
-69.2960768883
 40
1.0
100
AcDbArc
 50
180.0
 51
269.0
  0
ARC
  5
396
100
AcDbEntity
  8
RACCORDO
100
AcDbCircle
 62
7
  6
CONTINUOUS
 10
-128.6713546632
 20
-55.5724611403
 40
0.5
100
AcDbArc
 50
270.5
 51
360.0
  0
ARC
  5
397
100
AcDbEntity
  8
RACCORDO
100
AcDbCircle
 62
7
  6
CONTINUOUS
 10
-128.6713546632
 20
55.5959912791
 40
0.5
100
AcDbArc
 50
0.0
 51
89.5
  0
ARC
  5
398
100
AcDbEntity
  8
RACCORDO
100
AcDbCircle
 62
7
  6
CONTINUOUS
 10
-128.6713546632
 20
-52.1213284646
 40
0.5
100
AcDbArc
 50
270.5
 51
360.0
  0
ARC
  5
399
100
AcDbEntity
  8
RACCORDO
100
AcDbCircle
 62
7
  6
CONTINUOUS
 10
-128.6714960843
 20
52.1448598376
 40
0.5
100
AcDbArc
 50
359.9998586153
 51
89.4837937162
  0
SPLINE
  5
39A
100
AcDbEntity
  8
RACCORDO
100
AcDbSpline
 62
253
  6
CONTINUOUS
 70
0
 71
3
 72
10
 73
6
 74
4
 42
0.0000001
 43
0.0000001
 44
0.0000000001
 12
0.0
 22
-0.4950513728
 32
0.0
 13
-0.4950403799
 23
0.0032990846
 33
0.0
 40
0.0
 40
0.0
 40
0.0
 40
0.0
 40
0.1360138362
 40
0.5004292059
 40
1.0
 40
1.0
 40
1.0
 40
1.0
 10
-128.1713546632
 20
-54.5751885229
 30
0.0
 10
-128.1713546632
 20
-54.597633135
 30
0.0
 10
-128.3017686887
 20
-54.57761478
 30
0.0
 10
-128.4248256207
 20
-54.6105403489
 30
0.0
 10
-128.5821047852
 20
-54.6044888427
 30
0.0
 10
-128.6645406904
 20
-54.6039394673
 30
0.0
 11
-128.1713546632
 21
-54.5751885229
 31
0.0
 11
-128.2371614322
 21
-54.589447368
 31
0.0
 11
-128.4172596159
 21
-54.5999528991
 31
0.0
 11
-128.6645406904
 21
-54.6039394673
 31
0.0
  0
SPLINE
  5
39B
100
AcDbEntity
  8
RACCORDO
100
AcDbSpline
 62
253
  6
CONTINUOUS
 70
0
 71
3
 72
9
 73
5
 74
3
 42
0.0000001
 43
0.0000001
 44
0.0000000001
 12
0.2499604423
 22
0.0043630757
 32
0.0
 13
0.0229915026
 23
0.2229943829
 33
0.0
 40
0.0
 40
0.0
 40
0.0
 40
0.0
 40
0.2680420639
 40
1.0
 40
1.0
 40
1.0
 40
1.0
 10
-131.1189974439
 20
-60.8178316817
 30
0.0
 10
-131.0966641396
 20
-60.8174418525
 30
0.0
 10
-131.145777819
 20
-60.6834195055
 30
0.0
 10
-131.1251920558
 20
-60.6222552751
 30
0.0
 10
-131.1195824515
 20
-60.5678477723
 30
0.0
 11
-131.1189974439
 21
-60.8178316817
 31
0.0
 11
-131.1179855392
 21
-60.7508292036
 31
0.0
 11
-131.1195824515
 21
-60.5678477723
 31
0.0
  0
SPLINE
  5
39C
100
AcDbEntity
  8
RACCORDO
100
AcDbSpline
 62
253
  6
CONTINUOUS
 70
0
 71
3
 72
8
 73
4
 74
2
 42
0.0000001
 43
0.0000001
 44
0.0000000001
 12
0.0152017809
 22
0.1474419398
 32
0.0
 13
-0.0083925556
 23
0.1712218076
 33
0.0
 40
0.0
 40
0.0
 40
0.0
 40
0.0
 40
1.0
 40
1.0
 40
1.0
 40
1.0
 10
-131.1195824515
 20
-60.5678477723
 30
0.0
 10
-131.1145151912
 20
-60.5187004591
 30
0.0
 10
-131.1171657652
 20
-60.4616888011
 30
0.0
 10
-131.1199632838
 20
-60.4046148652
 30
0.0
 11
-131.1195824515
 21
-60.5678477723
 31
0.0
 11
-131.1199632838
 21
-60.4046148652
 31
0.0
  0
SPLINE
  5
39D
100
AcDbEntity
  8
RACCORDO
100
AcDbSpline
 62
253
  6
CONTINUOUS
 70
0
 71
3
 72
8
 73
4
 74
2
 42
0.0000001
 43
0.0000001
 44
0.0000000001
 12
-0.0042990026
 22
0.0877066567
 32
0.0
 13
-0.0014776114
 23
0.0846587566
 33
0.0
 40
0.0
 40
0.0
 40
0.0
 40
0.0
 40
1.0
 40
1.0
 40
1.0
 40
1.0
 10
-131.1199632838
 20
-60.4046148652
 30
0.0
 10
-131.1213962846
 20
-60.375379313
 30
0.0
 10
-131.1228678422
 20
-60.3461274197
 30
0.0
 10
-131.1233603793
 20
-60.3179078341
 30
0.0
 11
-131.1199632838
 21
-60.4046148652
 31
0.0
 11
-131.1233603793
 21
-60.3179078341
 31
0.0
  0
SPLINE
  5
39E
100
AcDbEntity
  8
RACCORDO
100
AcDbSpline
 62
7
  6
CONTINUOUS
 70
0
 71
3
 72
9
 73
5
 74
3
 42
0.0000001
 43
0.0000001
 44
0.0000000001
 12
0.4517301546
 22
0.0016329083
 32
0.0
 13
0.3736045662
 23
0.300635763
 33
0.0
 40
0.0
 40
0.0
 40
0.0
 40
0.0
 40
0.5719685795
 40
1.0
 40
1.0
 40
1.0
 40
1.0
 10
-128.6669913954
 20
-57.650646796
 30
0.0
 10
-128.5808662438
 20
-57.6503354719
 30
0.0
 10
-128.4295203512
 20
-57.6317327523
 30
0.0
 10
-128.2863566243
 20
-57.586103458
 30
0.0
 10
-128.2330517933
 20
-57.5432096071
 30
0.0
 11
-128.6669913954
 21
-57.650646796
 31
0.0
 11
-128.410412833
 21
-57.6202134383
 31
0.0
 11
-128.2330517933
 21
-57.5432096071
 31
0.0
  0
SPLINE
  5
39F
100
AcDbEntity
  8
RACCORDO
100
AcDbSpline
 62
7
  6
CONTINUOUS
 70
0
 71
3
 72
8
 73
4
 74
2
 42
0.0000001
 43
0.0000001
 44
0.0000000001
 12
0.0686784567
 22
0.0552648498
 32
0.0
 13
0.0316354015
 23
0.0767436613
 33
0.0
 40
0.0
 40
0.0
 40
0.0
 40
0.0
 40
1.0
 40
1.0
 40
1.0
 40
1.0
 10
-128.2330517933
 20
-57.5432096071
 30
0.0
 10
-128.2101589744
 20
-57.5247879905
 30
0.0
 10
-128.1887368674
 20
-57.5020571855
 30
0.0
 10
-128.1781917335
 20
-57.4764759651
 30
0.0
 11
-128.2330517933
 21
-57.5432096071
 31
0.0
 11
-128.1781917335
 21
-57.4764759651
 31
0.0
  0
SPLINE
  5
3A0
100
AcDbEntity
  8
RACCORDO
100
AcDbSpline
 62
7
  6
CONTINUOUS
 70
0
 71
3
 72
8
 73
4
 74
2
 42
0.0000001
 43
0.0000001
 44
0.0000000001
 12
0.0130186129
 22
0.0315815817
 32
0.0
 13
0.0
 23
0.0341728841
 33
0.0
 40
0.0
 40
0.0
 40
0.0
 40
0.0
 40
1.0
 40
1.0
 40
1.0
 40
1.0
 10
-128.1781917335
 20
-57.4764759651
 30
0.0
 10
-128.1738521959
 20
-57.4659487712
 30
0.0
 10
-128.1713546632
 20
-57.4549388622
 30
0.0
 10
-128.1713546632
 20
-57.4435479008
 30
0.0
 11
-128.1781917335
 21
-57.4764759651
 31
0.0
 11
-128.1713546632
 21
-57.4435479008
 31
0.0
  0
SPLINE
  5
3A1
100
AcDbEntity
  8
RACCORDO
100
AcDbSpline
 62
253
  6
CONTINUOUS
 70
0
 71
3
 72
8
 73
4
 74
2
 42
0.0000001
 43
0.0000001
 44
0.0000000001
 12
0.0
 22
0.0754115039
 32
0.0
 13
-0.015322062
 23
0.0748033534
 33
0.0
 40
0.0
 40
0.0
 40
0.0
 40
0.0
 40
1.0
 40
1.0
 40
1.0
 40
1.0
 10
-128.1713546632
 20
-55.0415715537
 30
0.0
 10
-128.1713546632
 20
-55.0164343857
 30
0.0
 10
-128.1740356141
 20
-54.9911419161
 30
0.0
 10
-128.1791429681
 20
-54.9662074649
 30
0.0
 11
-128.1713546632
 21
-55.0415715537
 31
0.0
 11
-128.1791429681
 21
-54.9662074649
 31
0.0
  0
SPLINE
  5
3A2
100
AcDbEntity
  8
RACCORDO
100
AcDbSpline
 62
253
  6
CONTINUOUS
 70
0
 71
3
 72
9
 73
5
 74
3
 42
0.0000001
 43
0.0000001
 44
0.0000000001
 12
-0.0800052777
 22
0.3905912315
 32
0.0
 13
-0.3550855385
 23
0.1815041963
 33
0.0
 40
0.0
 40
0.0
 40
0.0
 40
0.0
 40
0.3856679305
 40
1.0
 40
1.0
 40
1.0
 40
1.0
 10
-128.1791429681
 20
-54.9662074649
 30
0.0
 10
-128.1894281248
 20
-54.9159946276
 30
0.0
 10
-128.2416105955
 20
-54.789562177
 30
0.0
 10
-128.3459723984
 20
-54.7010752746
 30
0.0
 10
-128.4186858763
 20
-54.663907325
 30
0.0
 11
-128.1791429681
 21
-54.9662074649
 31
0.0
 11
-128.2374394767
 21
-54.8241167559
 31
0.0
 11
-128.4186858763
 21
-54.663907325
 31
0.0
  0
SPLINE
  5
3A3
100
AcDbEntity
  8
RACCORDO
100
AcDbSpline
 62
253
  6
CONTINUOUS
 70
0
 71
3
 72
8
 73
4
 74
2
 42
0.0000001
 43
0.0000001
 44
0.0000000001
 12
-0.2303528784
 22
0.1177463161
 32
0.0
 13
-0.2554388859
 23
0.001951237
 33
0.0
 40
0.0
 40
0.0
 40
0.0
 40
0.0
 40
1.0
 40
1.0
 40
1.0
 40
1.0
 10
-128.4186858763
 20
-54.663907325
 30
0.0
 10
-128.4954701691
 20
-54.624658553
 30
0.0
 10
-128.5818451001
 20
-54.6045810674
 30
0.0
 10
-128.6669913954
 20
-54.6039306551
 30
0.0
 11
-128.4186858763
 21
-54.663907325
 31
0.0
 11
-128.6669913954
 21
-54.6039306551
 31
0.0
  0
SPLINE
  5
3A4
100
AcDbEntity
  8
RACCORDO
100
AcDbSpline
 62
253
  6
CONTINUOUS
 70
0
 71
3
 72
10
 73
6
 74
4
 42
0.0000001
 43
0.0000001
 44
0.0000000001
 12
0.0043381535
 22
-0.4972809153
 32
0.0
 13
-0.4358670125
 23
-0.0691723517
 33
0.0
 40
0.0
 40
0.0
 40
0.0
 40
0.0
 40
0.50270329
 40
0.8706937085
 40
1.0
 40
1.0
 40
1.0
 40
1.0
 10
-131.1189974439
 20
-52.142764872
 30
0.0
 10
-131.1182705092
 20
-52.2260931227
 30
0.0
 10
-131.1037240533
 20
-52.3860746939
 30
0.0
 10
-131.1439087598
 20
-52.5075570441
 30
0.0
 10
-131.1019512204
 20
-52.6395561752
 30
0.0
 10
-131.1207380028
 20
-52.6425376486
 30
0.0
 11
-131.1189974439
 21
-52.142764872
 31
0.0
 11
-131.117985644
 21
-52.3927570888
 31
0.0
 11
-131.1195828626
 21
-52.5757516938
 31
0.0
 11
-131.1207380028
 21
-52.6425376486
 31
0.0
  0
LINE
  5
3A5
100
AcDbEntity
  8
RACCORDO
100
AcDbLine
 62
253
  6
CONTINUOUS
 10
-131.1207380028
 20
-52.6425376486
 11
-131.1233603793
 21
-52.6427458335
  0
SPLINE
  5
3A6
100
AcDbEntity
  8
RACCORDO
100
AcDbSpline
 62
253
  6
CONTINUOUS
 70
0
 71
3
 72
10
 73
6
 74
4
 42
0.0000001
 43
0.0000001
 44
0.0000000001
 12
0.0
 22
-0.5436223995
 32
0.0
 13
-0.543618856
 23
0.0019628019
 33
0.0
 40
0.0
 40
0.0
 40
0.0
 40
0.0
 40
0.1938054991
 40
0.5433670348
 40
1.0
 40
1.0
 40
1.0
 40
1.0
 10
-128.1713546632
 20
54.7933557753
 30
0.0
 10
-128.1713546632
 20
54.7582367718
 30
0.0
 10
-128.2636304101
 20
54.6823702533
 30
0.0
 10
-128.433210175
 20
54.6434644472
 30
0.0
 10
-128.5816872709
 20
54.6271564164
 30
0.0
 10
-128.6644320343
 20
54.6274551764
 30
0.0
 11
-128.1713546632
 21
54.7933557753
 31
0.0
 11
-128.2371628347
 21
54.7110795076
 31
0.0
 11
-128.4172644874
 21
54.6504610429
 31
0.0
 11
-128.6644320343
 21
54.6274551764
 31
0.0
  0
SPLINE
  5
3A7
100
AcDbEntity
  8
RACCORDO
100
AcDbSpline
 62
7
  6
CONTINUOUS
 70
0
 71
3
 72
9
 73
5
 74
3
 42
0.0000001
 43
0.0000001
 44
0.0000000001
 12
0.4517301546
 22
-0.0016329083
 32
0.0
 13
0.3736045662
 23
-0.300635763
 33
0.0
 40
0.0
 40
0.0
 40
0.0
 40
0.0
 40
0.5719685795
 40
1.0
 40
1.0
 40
1.0
 40
1.0
 10
-128.6669913954
 20
57.6741769349
 30
0.0
 10
-128.5808662438
 20
57.6738656108
 30
0.0
 10
-128.4295203512
 20
57.6552628911
 30
0.0
 10
-128.2863566243
 20
57.6096335969
 30
0.0
 10
-128.2330517933
 20
57.566739746
 30
0.0
 11
-128.6669913954
 21
57.6741769349
 31
0.0
 11
-128.410412833
 21
57.6437435772
 31
0.0
 11
-128.2330517933
 21
57.566739746
 31
0.0
  0
SPLINE
  5
3A8
100
AcDbEntity
  8
RACCORDO
100
AcDbSpline
 62
7
  6
CONTINUOUS
 70
0
 71
3
 72
8
 73
4
 74
2
 42
0.0000001
 43
0.0000001
 44
0.0000000001
 12
0.0665597464
 22
-0.0535599453
 32
0.0
 13
0.0325846298
 23
-0.073860775
 33
0.0
 40
0.0
 40
0.0
 40
0.0
 40
0.0
 40
1.0
 40
1.0
 40
1.0
 40
1.0
 10
-128.2330517933
 20
57.566739746
 30
0.0
 10
-128.2108652111
 20
57.5488864308
 30
0.0
 10
-128.1900599985
 20
57.5269857006
 30
0.0
 10
-128.1791984552
 20
57.5023654423
 30
0.0
 11
-128.2330517933
 21
57.566739746
 31
0.0
 11
-128.1791984552
 21
57.5023654423
 31
0.0
  0
SPLINE
  5
3A9
100
AcDbEntity
  8
RACCORDO
100
AcDbSpline
 62
7
  6
CONTINUOUS
 70
0
 71
3
 72
8
 73
4
 74
2
 42
0.0000001
 43
0.0000001
 44
0.0000000001
 12
0.014873303
 22
-0.0337138612
 32
0.0
 13
0.0
 23
-0.0367346611
 33
0.0
 40
0.0
 40
0.0
 40
0.0
 40
0.0
 40
1.0
 40
1.0
 40
1.0
 40
1.0
 10
-128.1791984552
 20
57.5023654423
 30
0.0
 10
-128.1742406876
 20
57.4911274886
 30
0.0
 10
-128.1713546632
 20
57.4793229267
 30
0.0
 10
-128.1713546632
 20
57.4670780397
 30
0.0
 11
-128.1791984552
 21
57.5023654423
 31
0.0
 11
-128.1713546632
 21
57.4670780397
 31
0.0
  0
SPLINE
  5
3AA
100
AcDbEntity
  8
RACCORDO
100
AcDbSpline
 62
253
  6
CONTINUOUS
 70
0
 71
3
 72
8
 73
4
 74
2
 42
0.0000001
 43
0.0000001
 44
0.0000000001
 12
0.0
 22
-0.1466952404
 32
0.0
 13
-0.0545639652
 23
-0.1373418302
 33
0.0
 40
0.0
 40
0.0
 40
0.0
 40
0.0
 40
1.0
 40
1.0
 40
1.0
 40
1.0
 10
-128.1713546632
 20
55.0651016925
 30
0.0
 10
-128.1713546632
 20
55.0162032791
 30
0.0
 10
-128.1810169947
 20
54.966855037
 30
0.0
 10
-128.1992049831
 20
54.9210744269
 30
0.0
 11
-128.1713546632
 21
55.0651016925
 31
0.0
 11
-128.1992049831
 21
54.9210744269
 31
0.0
  0
SPLINE
  5
3AB
100
AcDbEntity
  8
RACCORDO
100
AcDbSpline
 62
253
  6
CONTINUOUS
 70
0
 71
3
 72
9
 73
5
 74
3
 42
0.0000001
 43
0.0000001
 44
0.0000000001
 12
-0.1364938368
 22
-0.3435658185
 32
0.0
 13
-0.3416949056
 23
-0.1419309686
 33
0.0
 40
0.0
 40
0.0
 40
0.0
 40
0.0
 40
0.4667691199
 40
1.0
 40
1.0
 40
1.0
 40
1.0
 10
-128.1992049831
 20
54.9210744269
 30
0.0
 10
-128.2204420191
 20
54.867619122
 30
0.0
 10
-128.2908425367
 20
54.7635178708
 30
0.0
 10
-128.3960144217
 20
54.6952177534
 30
0.0
 10
-128.4567485135
 20
54.6699904283
 30
0.0
 11
-128.1992049831
 21
54.9210744269
 31
0.0
 11
-128.2937393508
 21
54.7782367383
 31
0.0
 11
-128.4567485135
 21
54.6699904283
 31
0.0
  0
SPLINE
  5
3AC
100
AcDbEntity
  8
RACCORDO
100
AcDbSpline
 62
253
  6
CONTINUOUS
 70
0
 71
3
 72
8
 73
4
 74
2
 42
0.0000001
 43
0.0000001
 44
0.0000000001
 12
-0.1997309827
 22
-0.0829629338
 32
0.0
 13
-0.2144919407
 23
-0.0020115901
 33
0.0
 40
0.0
 40
0.0
 40
0.0
 40
0.0
 40
1.0
 40
1.0
 40
1.0
 40
1.0
 10
-128.4567485135
 20
54.6699904283
 30
0.0
 10
-128.5233255077
 20
54.6423361171
 30
0.0
 10
-128.5954940819
 20
54.6281313251
 30
0.0
 10
-128.6669913954
 20
54.6274607951
 30
0.0
 11
-128.4567485135
 21
54.6699904283
 31
0.0
 11
-128.6669913954
 21
54.6274607951
 31
0.0
  0
SPLINE
  5
3AD
100
AcDbEntity
  8
RACCORDO
100
AcDbSpline
 62
253
  6
CONTINUOUS
 70
0
 71
3
 72
9
 73
5
 74
3
 42
0.0000001
 43
0.0000001
 44
0.0000000001
 12
0.0
 22
0.4077204537
 32
0.0
 13
-0.3813256449
 23
0.1584588298
 33
0.0
 40
0.0
 40
0.0
 40
0.0
 40
0.0
 40
0.449632039
 40
1.0
 40
1.0
 40
1.0
 40
1.0
 10
-128.1713546632
 20
54.2739208654
 30
0.0
 10
-128.1713546632
 20
54.3350289251
 30
0.0
 10
-128.2276939447
 20
54.4719003502
 30
0.0
 10
-128.346134681
 20
54.5488576676
 30
0.0
 10
-128.4160911536
 20
54.5779278887
 30
0.0
 11
-128.1713546632
 21
54.2739208654
 31
0.0
 11
-128.2345735424
 21
54.4459997075
 31
0.0
 11
-128.4160911536
 21
54.5779278887
 31
0.0
  0
SPLINE
  5
3AE
100
AcDbEntity
  8
RACCORDO
100
AcDbSpline
 62
253
  6
CONTINUOUS
 70
0
 71
3
 72
8
 73
4
 74
2
 42
0.0000001
 43
0.0000001
 44
0.0000000001
 12
-0.2391867571
 22
0.0993934034
 32
0.0
 13
-0.2557380488
 23
0.0015781181
 33
0.0
 40
0.0
 40
0.0
 40
0.0
 40
0.0
 40
1.0
 40
1.0
 40
1.0
 40
1.0
 10
-128.4160911536
 20
54.5779278887
 30
0.0
 10
-128.4958200726
 20
54.6110590231
 30
0.0
 10
-128.5817453792
 20
54.6269347544
 30
0.0
 10
-128.6669913954
 20
54.6274607938
 30
0.0
 11
-128.4160911536
 21
54.5779278887
 31
0.0
 11
-128.6669913954
 21
54.6274607938
 31
0.0
  0
SPLINE
  5
3AF
100
AcDbEntity
  8
RACCORDO
100
AcDbSpline
 62
253
  6
CONTINUOUS
 70
0
 71
3
 72
10
 73
6
 74
4
 42
0.0000001
 43
0.0000001
 44
0.0000000001
 12
0.0043383589
 22
0.4972801288
 32
0.0
 13
-0.4358627346
 23
0.0691755707
 33
0.0
 40
0.0
 40
0.0
 40
0.0
 40
0.0
 40
0.5026564177
 40
0.8706629402
 40
1.0
 40
1.0
 40
1.0
 40
1.0
 10
-131.1189974439
 20
52.1662950108
 30
0.0
 10
-131.1182705426
 20
52.2496153602
 30
0.0
 10
-131.1037257789
 20
52.4095893677
 30
0.0
 10
-131.1439098775
 20
52.5310726115
 30
0.0
 10
-131.1019462133
 20
52.6630853982
 30
0.0
 10
-131.1207372815
 20
52.6660677199
 30
0.0
 11
-131.1189974439
 21
52.1662950108
 31
0.0
 11
-131.1179855392
 21
52.416263523
 31
0.0
 11
-131.1195824515
 21
52.5992658507
 31
0.0
 11
-131.1207372815
 21
52.6660677199
 31
0.0
  0
LINE
  5
3B0
100
AcDbEntity
  8
RACCORDO
100
AcDbLine
 62
253
  6
CONTINUOUS
 10
-131.1207372815
 20
52.6660677199
 11
-131.1233603793
 21
52.6662759723
  0
LINE
  5
3B1
100
AcDbEntity
  8
RACCORDO
100
AcDbLine
 62
253
  6
CONTINUOUS
 10
-131.1189974439
 20
-52.142764872
 11
-128.1713546632
 21
-52.1213284646
  0
SPLINE
  5
3B2
100
AcDbEntity
  8
RACCORDO
100
AcDbSpline
 62
253
  6
CONTINUOUS
 70
0
 71
3
 72
9
 73
5
 74
3
 42
0.0000001
 43
0.0000001
 44
0.0000000001
 12
0.0
 22
-0.4088943358
 32
0.0
 13
-0.3826803394
 23
-0.1579935965
 33
0.0
 40
0.0
 40
0.0
 40
0.0
 40
0.0
 40
0.4529661335
 40
1.0
 40
1.0
 40
1.0
 40
1.0
 10
-128.1713546632
 20
-54.2503907266
 30
0.0
 10
-128.1713546632
 20
-54.3121291554
 30
0.0
 10
-128.228509677
 20
-54.4493536754
 30
0.0
 10
-128.347447004
 20
-54.5260637762
 30
0.0
 10
-128.4172267059
 20
-54.5548730589
 30
0.0
 11
-128.1713546632
 21
-54.2503907266
 31
0.0
 11
-128.2358096256
 21
-54.4240290291
 31
0.0
 11
-128.4172267059
 21
-54.5548730589
 31
0.0
  0
SPLINE
  5
3B3
100
AcDbEntity
  8
RACCORDO
100
AcDbSpline
 62
253
  6
CONTINUOUS
 70
0
 71
3
 72
8
 73
4
 74
2
 42
0.0000001
 43
0.0000001
 44
0.0000000001
 12
-0.2382187024
 22
-0.0983510927
 32
0.0
 13
-0.2545320821
 23
-0.0015706735
 33
0.0
 40
0.0
 40
0.0
 40
0.0
 40
0.0
 40
1.0
 40
1.0
 40
1.0
 40
1.0
 10
-128.4172267059
 20
-54.5548730589
 30
0.0
 10
-128.4966329401
 20
-54.5876567565
 30
0.0
 10
-128.5821473681
 20
-54.6034070971
 30
0.0
 10
-128.6669913954
 20
-54.603930655
 30
0.0
 11
-128.4172267059
 21
-54.5548730589
 31
0.0
 11
-128.6669913954
 21
-54.603930655
 31
0.0
  0
LINE
  5
3B4
100
AcDbEntity
  8
RACCORDO
100
AcDbLine
 62
7
  6
CONTINUOUS
 10
-131.1713533053
 20
54.6227425703
 11
-128.6669913954
 21
54.6274607938
  0
LINE
  5
3B5
100
AcDbEntity
  8
RACCORDO
100
AcDbLine
 62
7
  6
CONTINUOUS
 10
-131.1713533053
 20
-54.5992124315
 11
-128.6669913954
 21
-54.603930655
  0
LINE
  5
3B6
100
AcDbEntity
  8
RACCORDO
100
AcDbLine
 62
253
  6
CONTINUOUS
 10
-128.1713546632
 20
52.1448586034
 11
-131.1189974439
 21
52.1662950108
  0
SPLINE
  5
3B7
100
AcDbEntity
  8
RACCORDO
100
AcDbSpline
 62
253
  6
CONTINUOUS
 70
0
 71
3
 72
9
 73
5
 74
3
 42
0.0000001
 43
0.0000001
 44
0.0000000001
 12
0.2499881111
 22
-0.0043635587
 32
0.0
 13
0.0229912428
 23
-0.2230221018
 33
0.0
 40
0.0
 40
0.0
 40
0.0
 40
0.0
 40
0.2680671207
 40
1.0
 40
1.0
 40
1.0
 40
1.0
 10
-131.1189974439
 20
60.8413618206
 30
0.0
 10
-131.0966595795
 20
60.8409719117
 30
0.0
 10
-131.1457803969
 20
60.7069336695
 30
0.0
 10
-131.1251922115
 20
60.6457626402
 30
0.0
 10
-131.1195828626
 20
60.5913502371
 30
0.0
 11
-131.1189974439
 21
60.8413618206
 31
0.0
 11
-131.117985644
 21
60.7743456569
 31
0.0
 11
-131.1195828626
 21
60.5913502371
 31
0.0
  0
SPLINE
  5
3B8
100
AcDbEntity
  8
RACCORDO
100
AcDbSpline
 62
253
  6
CONTINUOUS
 70
0
 71
3
 72
8
 73
4
 74
2
 42
0.0000001
 43
0.0000001
 44
0.0000000001
 12
0.015198654
 22
-0.1474316024
 32
0.0
 13
-0.0083912659
 23
-0.1712068145
 33
0.0
 40
0.0
 40
0.0
 40
0.0
 40
0.0
 40
1.0
 40
1.0
 40
1.0
 40
1.0
 10
-131.1195828626
 20
60.5913502371
 30
0.0
 10
-131.1145166446
 20
60.5422063697
 30
0.0
 10
-131.1171670227
 20
60.4851994883
 30
0.0
 10
-131.1199641113
 20
60.4281305502
 30
0.0
 11
-131.1195828626
 21
60.5913502371
 31
0.0
 11
-131.1199641113
 21
60.4281305502
 31
0.0
  0
SPLINE
  5
3B9
100
AcDbEntity
  8
RACCORDO
100
AcDbSpline
 62
253
  6
CONTINUOUS
 70
0
 71
3
 72
8
 73
4
 74
2
 42
0.0000001
 43
0.0000001
 44
0.0000000001
 12
-0.0042979993
 22
-0.0876919847
 32
0.0
 13
-0.001477338
 23
-0.0846449207
 33
0.0
 40
0.0
 40
0.0
 40
0.0
 40
0.0
 40
1.0
 40
1.0
 40
1.0
 40
1.0
 10
-131.1199641113
 20
60.4281305502
 30
0.0
 10
-131.1213967777
 20
60.3988998886
 30
0.0
 10
-131.1228679334
 20
60.3696529465
 30
0.0
 10
-131.1233603793
 20
60.341437973
 30
0.0
 11
-131.1199641113
 21
60.4281305502
 31
0.0
 11
-131.1233603793
 21
60.341437973
 31
0.0
  0
SPLINE
  5
3BA
100
AcDbEntity
  8
RACCORDO
100
AcDbSpline
 62
253
  6
CONTINUOUS
 70
0
 71
3
 72
14
 73
10
 74
8
 42
0.0000001
 43
0.0000001
 44
0.0000000001
 12
-0.0174497019
 22
-0.9999973385
 32
0.0
 13
0.9999972457
 23
-0.017455015
 33
0.0
 40
0.0
 40
0.0
 40
0.0
 40
0.0
 40
0.1737319388
 40
0.3593913654
 40
0.5481231578
 40
0.7241743489
 40
0.8692258136
 40
0.9656518911
 40
1.0
 40
1.0
 40
1.0
 40
1.0
 10
-197.1888070696
 20
-69.2960768883
 30
0.0
 10
-197.1898175931
 20
-69.3539873805
 30
0.0
 10
-197.1917858324
 20
-69.4738605293
 30
0.0
 10
-197.1938296413
 20
-69.6562313113
 30
0.0
 10
-197.1964420251
 20
-69.8410249531
 30
0.0
 10
-197.1937088441
 20
-70.0067369088
 30
0.0
 10
-197.2022088272
 20
-70.157597186
 30
0.0
 10
-197.1823358166
 20
-70.2262954271
 30
0.0
 10
-197.2002564077
 20
-70.2957247346
 30
0.0
 10
-197.1888070696
 20
-70.2959245835
 30
0.0
 11
-197.1888070696
 21
-69.2960768883
 31
0.0
 11
-197.1915737206
 21
-69.4698127855
 31
0.0
 11
-197.1939118395
 21
-69.6554852607
 31
0.0
 11
-197.195515307
 21
-69.8442384717
 31
0.0
 11
-197.1960251273
 21
-70.0203152573
 31
0.0
 11
-197.195147316
 21
-70.1653857621
 31
0.0
 11
-197.1927289182
 21
-70.261795935
 31
0.0
 11
-197.1888070696
 21
-70.2959245835
 31
0.0
  0
SPLINE
  5
3BB
100
AcDbEntity
  8
RACCORDO
100
AcDbSpline
 62
253
  6
CONTINUOUS
 70
0
 71
3
 72
14
 73
10
 74
8
 42
0.0000001
 43
0.0000001
 44
0.0000000001
 12
-0.0174496714
 22
0.9999955899
 32
0.0
 13
0.9999954987
 23
0.0174549
 33
0.0
 40
0.0
 40
0.0
 40
0.0
 40
0.0
 40
0.1727167963
 40
0.3570076235
 40
0.5433480922
 40
0.7185615623
 40
0.8657953262
 40
0.9648255009
 40
1.0
 40
1.0
 40
1.0
 40
1.0
 10
-197.1888070696
 20
69.3196070272
 30
0.0
 10
-197.1898116867
 20
69.3771790387
 30
0.0
 10
-197.1917677972
 20
69.4962559772
 30
0.0
 10
-197.1938026264
 20
69.6770422224
 30
0.0
 10
-197.1963942611
 20
69.860270748
 30
0.0
 10
-197.1937210701
 20
70.0256885904
 30
0.0
 10
-197.2023742815
 20
70.177970966
 30
0.0
 10
-197.1820251735
 20
70.2479926825
 30
0.0
 10
-197.2005318499
 20
70.3192500665
 30
0.0
 10
-197.1888070696
 20
70.3194547223
 30
0.0
 11
-197.1888070696
 21
69.3196070272
 31
0.0
 11
-197.1915594734
 21
69.4923274261
 31
0.0
 11
-197.1938868568
 21
69.6766308014
 31
0.0
 11
-197.1954865259
 21
69.8629919503
 31
0.0
 11
-197.1960289901
 21
70.0382304817
 31
0.0
 11
-197.1951920171
 21
70.1854836318
 31
0.0
 11
-197.1927686802
 21
70.2844987951
 31
0.0
 11
-197.1888070696
 21
70.3194547223
 31
0.0
  0
ENDSEC
  0
SECTION
  2
OBJECTS
  0
DICTIONARY
  5
C
100
AcDbDictionary
280
0
281
1
  3
ACAD_GROUP
350
D
  3
ACAD_MLINESTYLE
350
17
  3
ACAD_LAYOUT
350
1A
  3
ACAD_PLOTSETTINGS
350
19
  3
ACAD_PLOTSTYLENAME
350
E
  0
DICTIONARY
  5
D
102
{ACAD_REACTORS
330
C
102
}
100
AcDbDictionary
280
0
281
1
  0
ACDBDICTIONARYWDFLT
  5
E
102
{ACAD_REACTORS
330
C
102
}
100
AcDbDictionary
281
1
  3
Normal
350
F
100
AcDbDictionaryWithDefault
340
F
  0
DICTIONARY
  5
17
102
{ACAD_REACTORS
330
C
102
}
100
AcDbDictionary
280
0
281
1
  3
Standard
350
18
  0
DICTIONARY
  5
19
102
{ACAD_REACTORS
330
C
102
}
100
AcDbDictionary
281
1
  0
DICTIONARY
  5
1A
102
{ACAD_REACTORS
330
C
102
}
100
AcDbDictionary
281
1
  3
Model
350
3BC
  3
Layout1
350
3BD
  0
ACDBPLACEHOLDER
  5
F
102
{ACAD_REACTORS
330
E
102
}
  0
MLINESTYLE
  5
18
102
{ACAD_REACTORS
330
17
102
}
100
AcDbMlineStyle
  2
STANDARD
 70
0
  3

 62
256
 51
90.0
 52
90.0
 71
2
 49
0.5
 62
256
  6
BYLAYER
 49
-0.5
 62
256
  6
BYLAYER
  0
LAYOUT
  5
3BC
102
{ACAD_REACTORS
330
1A
102
}
100
AcDbPlotSettings
  1

  2
none_device
  4
ISO_A4_(297.00_x_210.00_MM)
  6

 40
0.0
 41
0.0
 42
0.0
 43
0.0
 44
297.0
 45
210.0
 46
0.0
 47
0.0
 48
0.0
 49
0.0
140
0.0
141
0.0
142
1.0
143
1.0
 70
1024
 72
1
 73
0
 74
0
  7

 75
0
147
1.0
148
0.0
149
0.0
100
AcDbLayout
  1
Model
 70
0
 71
0
 10
0.0
 20
0.0
 11
297.0
 21
210.0
 12
0.0
 22
0.0
 32
0.0
 14
0.0
 24
0.0
 34
0.0
 15
0.0
 25
0.0
 35
0.0
146
0.0
 13
0.0
 23
0.0
 33
0.0
 16
1.0
 26
0.0
 36
0.0
 17
0.0
 27
1.0
 37
0.0
 76
0
330
214
345
0
346
0
  0
LAYOUT
  5
3BD
102
{ACAD_REACTORS
330
1A
102
}
100
AcDbPlotSettings
  1

  2
none_device
  4
ISO_A4_(297.00_x_210.00_MM)
  6

 40
0.0
 41
0.0
 42
0.0
 43
0.0
 44
297.0
 45
210.0
 46
0.0
 47
0.0
 48
0.0
 49
0.0
140
0.0
141
0.0
142
1.0
143
1.0
 70
0
 72
1
 73
0
 74
0
  7

 75
0
147
1.0
148
0.0
149
0.0
100
AcDbLayout
  1
Layout1
 70
0
 71
1
 10
0.0
 20
0.0
 11
297.0
 21
210.0
 12
0.0
 22
0.0
 32
0.0
 14
0.0
 24
0.0
 34
0.0
 15
0.0
 25
0.0
 35
0.0
146
0.0
 13
0.0
 23
0.0
 33
0.0
 16
1.0
 26
0.0
 36
0.0
 17
0.0
 27
1.0
 37
0.0
 76
0
330
215
345
0
346
0
  0
ENDSEC
  0
EOF
