  0
SECTION
  2
HEADER
  9
$ACADVER
  1
AC1015
  9
$DWGCODEPAGE
  3
ANSI_1252
  9
$EXTMAX
 10
297.0
 20
210.0
 30
0.0
  9
$EXTMIN
 10
0.0
 20
0.0
 30
0.0
  9
$LIMMIN
 10
0.0
 20
0.0
  9
$LIMMAX
 10
297.0
 20
210.0
  9
$VIEWCTR
 10
148.5
 20
105.0
  9
$VIEWSIZE
 40
210.0
  9
$CLAYER
  8
0
  9
$LTSCALE
 40
16.335
  9
$CELTYPE
  6
BYLAYER
  9
$DIMSCALE
 40
1.0
  9
$DIMASZ
 40
3.0
  9
$DIMEXO
 40
1.85625
  9
$DIMDLI
 40
11.286
  9
$DIMEXE
 40
5.346
  9
$DIMCEN
 40
2.673
  9
$DIMLFAC
 40
1.0
  9
$DIMBLK
  1
_FILLED
  9
$DIMTXT
 40
3.0
  9
$DIMTOL
 70
1
  9
$DIMLIM
 70
0
  9
$DIMTFAC
 40
1.0
  9
$DIMTP
 40
0.01
  9
$DIMTM
 40
0.01
  9
$PDMODE
 70
3
  9
$PDSIZE
 40
3.0
  9
$HANDSEED
  5
3AF
  9
$TILEMODE
 70
1
  9
$MEASUREMENT
 70
1
  9
$INSUNITS
 70
4
  0
ENDSEC
  0
SECTION
  2
CLASSES
  0
CLASS
  1
ACDBDICTIONARYWDFLT
  2
AcDbDictionaryWithDefault
  3
AutoCAD 2000
 90
0
280
0
281
0
  0
CLASS
  1
ACDBPLACEHOLDER
  2
AcDbPlaceHolder
  3
AutoCAD 2000
 90
0
280
0
281
0
  0
CLASS
  1
LAYOUT
  2
AcDbLayout
  3
AutoCAD 2000
 90
0
280
0
281
0
  0
ENDSEC
  0
SECTION
  2
TABLES
  0
TABLE
  2
VPORT
  5
8
100
AcDbSymbolTable
 70
2
  0
VPORT
  5
1F4
100
AcDbSymbolTableRecord
100
AcDbViewportTableRecord
  2
*ACTIVE
 70
0
 10
0.0
 20
0.0
 11
1.0
 21
1.0
 12
148.5
 22
105.0
 13
0.0
 23
0.0
 14
1.0
 24
1.0
 15
0.0
 25
0.0
 16
0.0
 26
0.0
 36
1.0
 17
0.0
 27
0.0
 37
0.0
 40
210.0
 41
1.4142857143
 42
50.0
 43
0.0
 44
0.0
 50
0.0
 51
0.0
 71
0
 72
100
 73
1
 74
1
 75
0
 76
0
 77
0
 78
0
  0
ENDTAB
  0
TABLE
  2
LTYPE
  5
5
100
AcDbSymbolTable
 70
6
  0
LTYPE
  5
14
100
AcDbSymbolTableRecord
100
AcDbLinetypeTableRecord
  2
BYBLOCK
 70
0
  3

 72
65
 73
0
 40
0.0
  0
LTYPE
  5
15
100
AcDbSymbolTableRecord
100
AcDbLinetypeTableRecord
  2
BYLAYER
 70
0
  3

 72
65
 73
0
 40
0.0
  0
LTYPE
  5
16
100
AcDbSymbolTableRecord
100
AcDbLinetypeTableRecord
  2
CONTINUOUS
 70
64
  3
Solid line
 72
65
 73
0
 40
0.0
  0
LTYPE
  5
1F5
100
AcDbSymbolTableRecord
100
AcDbLinetypeTableRecord
  2
CENTER
 70
64
  3
____ _ ____ _ ____ _ ____ _ ____ _ ____ _ ____
 72
65
 73
4
 40
0.6
 49
0.375
 74
0
 49
-0.075
 74
0
 49
0.075
 74
0
 49
-0.075
 74
0
  0
LTYPE
  5
1F6
100
AcDbSymbolTableRecord
100
AcDbLinetypeTableRecord
  2
HIDDEN
 70
64
  3
- - - - - - - - - - - - - - - - - - - -
 72
65
 73
2
 40
0.2
 49
0.1
 74
0
 49
-0.1
 74
0
  0
LTYPE
  5
1F7
100
AcDbSymbolTableRecord
100
AcDbLinetypeTableRecord
  2
PHANTOM
 70
64
  3
_____ _ _ _____ _ _ _____ _ _ _____
 72
65
 73
6
 40
0.8
 49
0.45
 74
0
 49
-0.05
 74
0
 49
0.1
 74
0
 49
-0.05
 74
0
 49
0.1
 74
0
 49
-0.05
 74
0
  0
LTYPE
  5
1F8
100
AcDbSymbolTableRecord
100
AcDbLinetypeTableRecord
  2
DOT
 70
64
  3
. . . . . . . . . . . . . . . . . . . .
 72
65
 73
2
 40
0.2
 49
0.1
 74
0
 49
-0.1
 74
0
  0
LTYPE
  5
1F9
100
AcDbSymbolTableRecord
100
AcDbLinetypeTableRecord
  2
DASHED
 70
64
  3
- - - - - - - - - - - - - - - - - - - -
 72
65
 73
2
 40
0.2
 49
0.1
 74
0
 49
-0.1
 74
0
  0
ENDTAB
  0
TABLE
  2
LAYER
  5
2
100
AcDbSymbolTable
 70
36
  0
LAYER
  5
10
100
AcDbSymbolTableRecord
100
AcDbLayerTableRecord
  2
0
 70
0
 62
7
  6
CONTINUOUS
370
-3
390
F
  0
LAYER
  5
1FA
100
AcDbSymbolTableRecord
100
AcDbLayerTableRecord
  2
DEFAULT_1
 70
0
 62
7
  6
CENTER
370
-3
390
F
  0
LAYER
  5
1FB
100
AcDbSymbolTableRecord
100
AcDbLayerTableRecord
  2
DEFAULT_2
 70
0
 62
7
  6
HIDDEN
370
-3
390
F
  0
LAYER
  5
1FC
100
AcDbSymbolTableRecord
100
AcDbLayerTableRecord
  2
DEFAULT_3
 70
0
 62
7
  6
PHANTOM
370
-3
390
F
  0
LAYER
  5
1FD
100
AcDbSymbolTableRecord
100
AcDbLayerTableRecord
  2
ASSI
 70
0
 62
7
  6
CONTINUOUS
370
-3
390
F
  0
LAYER
  5
1FE
100
AcDbSymbolTableRecord
100
AcDbLayerTableRecord
  2
COORDINATE
 70
0
 62
7
  6
CONTINUOUS
370
-3
390
F
  0
LAYER
  5
1FF
100
AcDbSymbolTableRecord
100
AcDbLayerTableRecord
  2
COORD_ORIGINE
 70
0
 62
7
  6
CONTINUOUS
370
-3
390
F
  0
LAYER
  5
200
100
AcDbSymbolTableRecord
100
AcDbLayerTableRecord
  2
COPY_PUBLISH
 70
0
 62
7
  6
CONTINUOUS
370
-3
390
F
  0
LAYER
  5
201
100
AcDbSymbolTableRecord
100
AcDbLayerTableRecord
  2
COSMETIC
 70
0
 62
7
  6
CONTINUOUS
370
-3
390
F
  0
LAYER
  5
202
100
AcDbSymbolTableRecord
100
AcDbLayerTableRecord
  2
CURVE
 70
0
 62
7
  6
CONTINUOUS
370
-3
390
F
  0
LAYER
  5
203
100
AcDbSymbolTableRecord
100
AcDbLayerTableRecord
  2
DRAFT
 70
0
 62
7
  6
CONTINUOUS
370
-3
390
F
  0
LAYER
  5
204
100
AcDbSymbolTableRecord
100
AcDbLayerTableRecord
  2
IMPORT_IGES
 70
0
 62
7
  6
CONTINUOUS
370
-3
390
F
  0
LAYER
  5
205
100
AcDbSymbolTableRecord
100
AcDbLayerTableRecord
  2
NOTE
 70
0
 62
7
  6
CONTINUOUS
370
-3
390
F
  0
LAYER
  5
206
100
AcDbSymbolTableRecord
100
AcDbLayerTableRecord
  2
PIANI
 70
0
 62
7
  6
CONTINUOUS
370
-3
390
F
  0
LAYER
  5
207
100
AcDbSymbolTableRecord
100
AcDbLayerTableRecord
  2
PIANI_ORIGINE
 70
0
 62
7
  6
CONTINUOUS
370
-3
390
F
  0
LAYER
  5
208
100
AcDbSymbolTableRecord
100
AcDbLayerTableRecord
  2
PUNTI
 70
0
 62
7
  6
CONTINUOUS
370
-3
390
F
  0
LAYER
  5
209
100
AcDbSymbolTableRecord
100
AcDbLayerTableRecord
  2
RACCORDO
 70
0
 62
7
  6
CONTINUOUS
370
-3
390
F
  0
LAYER
  5
20A
100
AcDbSymbolTableRecord
100
AcDbLayerTableRecord
  2
SMUSSO
 70
0
 62
7
  6
CONTINUOUS
370
-3
390
F
  0
LAYER
  5
20B
100
AcDbSymbolTableRecord
100
AcDbLayerTableRecord
  2
SNAPLINE
 70
0
 62
7
  6
CONTINUOUS
370
-3
390
F
  0
LAYER
  5
20C
100
AcDbSymbolTableRecord
100
AcDbLayerTableRecord
  2
TRASH
 70
0
 62
7
  6
CONTINUOUS
370
-3
390
F
  0
LAYER
  5
20D
100
AcDbSymbolTableRecord
100
AcDbLayerTableRecord
  2
XSEC_DATUMS
 70
0
 62
7
  6
CONTINUOUS
370
-3
390
F
  0
ENDTAB
  0
TABLE
  2
STYLE
  5
3
100
AcDbSymbolTable
 70
1
  0
STYLE
  5
11
100
AcDbSymbolTableRecord
100
AcDbTextStyleTableRecord
  2
STANDARD
 70
0
 40
0.0
 41
0.8
 50
0.0
 71
0
 42
0.2
  3
txt
  4

  0
STYLE
  5
20E
100
AcDbSymbolTableRecord
100
AcDbTextStyleTableRecord
  2
TEXTSTYLE_1
 70
0
 40
0.0
 41
0.8
 50
0.0
 71
0
 42
0.2
  3
gdt
  4

  0
ENDTAB
  0
TABLE
  2
VIEW
  5
6
100
AcDbSymbolTable
 70
0
  0
ENDTAB
  0
TABLE
  2
UCS
  5
7
100
AcDbSymbolTable
 70
0
  0
ENDTAB
  0
TABLE
  2
APPID
  5
9
100
AcDbSymbolTable
 70
1
  0
APPID
  5
20F
100
AcDbSymbolTableRecord
100
AcDbRegAppTableRecord
  2
ACAD
 70
0
  0
ENDTAB
  0
TABLE
  2
BLOCK_RECORD
  5
1
100
AcDbSymbolTable
 70
0
  0
BLOCK_RECORD
  5
210
100
AcDbSymbolTableRecord
100
AcDbBlockTableRecord
  2
*Model_Space
  0
BLOCK_RECORD
  5
211
100
AcDbSymbolTableRecord
100
AcDbBlockTableRecord
  2
*Paper_Space
  0
BLOCK_RECORD
  5
212
100
AcDbSymbolTableRecord
100
AcDbBlockTableRecord
  2
_FILLED
  0
BLOCK_RECORD
  5
213
100
AcDbSymbolTableRecord
100
AcDbBlockTableRecord
  2
_NONE
  0
BLOCK_RECORD
  5
214
100
AcDbSymbolTableRecord
100
AcDbBlockTableRecord
  2
*D0
  0
BLOCK_RECORD
  5
215
100
AcDbSymbolTableRecord
100
AcDbBlockTableRecord
  2
*D1
  0
BLOCK_RECORD
  5
216
100
AcDbSymbolTableRecord
100
AcDbBlockTableRecord
  2
*D2
  0
BLOCK_RECORD
  5
217
100
AcDbSymbolTableRecord
100
AcDbBlockTableRecord
  2
*D3
  0
BLOCK_RECORD
  5
218
100
AcDbSymbolTableRecord
100
AcDbBlockTableRecord
  2
*D4
  0
BLOCK_RECORD
  5
219
100
AcDbSymbolTableRecord
100
AcDbBlockTableRecord
  2
*D5
  0
BLOCK_RECORD
  5
21A
100
AcDbSymbolTableRecord
100
AcDbBlockTableRecord
  2
*D6
  0
ENDTAB
  0
TABLE
  2
DIMSTYLE
  5
A
100
AcDbSymbolTable
 70
1
100
AcDbDimStyleTable
 71
0
  0
DIMSTYLE
105
21B
100
AcDbSymbolTableRecord
100
AcDbDimStyleTableRecord
  2
STANDARD
 70
0
  3

  4

 40
1.0
 41
3.0
 42
0.0625
 43
0.38
 44
0.18
 45
0.0
 46
0.0
 47
0.01
 48
0.01
140
3.0
141
0.09
142
0.0
143
25.4
144
1.0
145
0.0
146
1.0
147
0.09
 71
1.0
 72
0.0
 73
0
 74
0
 75
0
 76
0
 77
1
 78
8
170
0
171
2
172
0
173
0
174
0
175
0
176
0
177
0
178
0
270
2
271
2
272
2
273
2
274
2
275
0
280
0
281
0
282
0
283
1
284
8
285
0
286
0
287
3
288
0
340
11
341
212
342
212
343
212
344
212
  0
DIMSTYLE
105
21C
100
AcDbSymbolTableRecord
100
AcDbDimStyleTableRecord
  2
DIMSTYLE_1
 70
0
  3

  4

 40
1.0
 41
3.0
 42
0.0625
 43
0.38
 44
0.18
 45
0.0
 46
0.0
 47
0.0
 48
0.0
140
3.0
141
0.09
142
0.0
143
25.4
144
1.0
145
0.0
146
1.0
147
0.09
 71
0.0
 72
0.0
 73
0
 74
0
 75
0
 76
0
 77
1
 78
8
170
0
171
2
172
0
173
0
174
0
175
0
176
0
177
0
178
0
270
2
271
2
272
2
273
2
274
2
275
0
280
0
281
0
282
0
283
1
284
8
285
0
286
0
287
3
288
0
340
11
341
212
342
212
343
212
344
212
  0
ENDTAB
  0
ENDSEC
  0
SECTION
  2
BLOCKS
  0
BLOCK
  5
20
100
AcDbEntity
  8
0
100
AcDbBlockBegin
  2
*Model_Space
 70
0
 10
0.0
 20
0.0
 30
0.0
  3
*Model_Space
  1

  0
ENDBLK
  5
21
100
AcDbEntity
  8
0
100
AcDbBlockEnd
  0
BLOCK
  5
1C
100
AcDbEntity
  8
0
100
AcDbBlockBegin
  2
*Paper_Space
 70
0
 10
0.0
 20
0.0
 30
0.0
  3
*Paper_Space
  1

  0
ENDBLK
  5
1D
100
AcDbEntity
  8
0
100
AcDbBlockEnd
  0
BLOCK
  5
21D
100
AcDbEntity
  8
0
100
AcDbBlockBegin
  2
_FILLED
 70
64
 10
0.0
 20
0.0
  3
_FILLED
  1

  0
SOLID
  5
21E
100
AcDbEntity
  8
0
  6
BYBLOCK
 62
0
100
AcDbTrace
 10
0.0
 20
0.0
 11
-1.0
 21
0.3166666667
 12
-1.0
 22
-0.3166666667
 13
-1.0
 23
-0.3166666667
  0
ENDBLK
  5
21F
100
AcDbEntity
  8
0
  6
BYBLOCK
 62
0
100
AcDbBlockEnd
  0
BLOCK
  5
220
100
AcDbEntity
  8
0
100
AcDbBlockBegin
  2
_NONE
 70
64
 10
0.0
 20
0.0
  3
_NONE
  1

  0
ENDBLK
  5
221
100
AcDbEntity
  8
0
  6
BYBLOCK
 62
0
100
AcDbBlockEnd
  0
BLOCK
  5
222
100
AcDbEntity
  8
0
100
AcDbBlockBegin
 62
7
  6
CONTINUOUS
  2
*D0
 70
65
 10
0.0
 20
0.0
  3
*D0
  1

  0
MTEXT
  5
223
100
AcDbEntity
  8
0
100
AcDbMText
 62
7
  6
CONTINUOUS
  7
STANDARD
 71
2
 72
1
 10
0.0
 20
101.25
 30
0.0
 11
1.0
 21
0.0
 31
0.0
 44
0.9
  1
180
 40
3.0
 41
6.4285714286
  0
LINE
  5
224
100
AcDbEntity
  8
0
100
AcDbLine
 62
7
  6
CONTINUOUS
 10
-90.0
 20
70.0
 11
-90.0
 21
99.0
  0
LINE
  5
225
100
AcDbEntity
  8
0
100
AcDbLine
 62
7
  6
CONTINUOUS
 10
90.0
 20
70.0
 11
90.0
 21
99.0
  0
LINE
  5
226
100
AcDbEntity
  8
0
100
AcDbLine
 62
7
  6
CONTINUOUS
 10
-90.0
 20
97.5
 11
0.0
 21
97.5
  0
LINE
  5
227
100
AcDbEntity
  8
0
100
AcDbLine
 62
7
  6
CONTINUOUS
 10
90.0
 20
97.5
 11
0.0
 21
97.5
  0
INSERT
  5
228
100
AcDbEntity
  8
0
100
AcDbBlockReference
 62
7
  6
CONTINUOUS
  2
_FILLED
 10
-90.0
 20
97.5
 41
3.0
 42
3.0
 43
3.0
 50
180.0
  0
INSERT
  5
229
100
AcDbEntity
  8
0
100
AcDbBlockReference
 62
7
  6
CONTINUOUS
  2
_FILLED
 10
90.0
 20
97.5
 41
3.0
 42
3.0
 43
3.0
  0
ENDBLK
  5
22A
100
AcDbEntity
  8
0
  6
BYBLOCK
 62
0
100
AcDbBlockEnd
  0
BLOCK
  5
22B
100
AcDbEntity
  8
0
100
AcDbBlockBegin
 62
7
  6
CONTINUOUS
  2
*D1
 70
65
 10
0.0
 20
0.0
  3
*D1
  1

  0
MTEXT
  5
22C
100
AcDbEntity
  8
0
100
AcDbMText
 62
7
  6
CONTINUOUS
  7
STANDARD
 71
2
 72
1
 10
114.25
 20
-0.0
 30
0.0
 11
0.0
 21
1.0
 31
0.0
 44
0.9
  1
139
 40
3.0
 41
6.2142857143
  0
LINE
  5
22D
100
AcDbEntity
  8
0
100
AcDbLine
 62
7
  6
CONTINUOUS
 10
90.5
 20
69.5
 11
119.5
 21
69.5
  0
LINE
  5
22E
100
AcDbEntity
  8
0
100
AcDbLine
 62
7
  6
CONTINUOUS
 10
90.5
 20
-69.5
 11
119.5
 21
-69.5
  0
LINE
  5
22F
100
AcDbEntity
  8
0
100
AcDbLine
 62
7
  6
CONTINUOUS
 10
118.0
 20
69.5
 11
118.0
 21
-0.0
  0
LINE
  5
230
100
AcDbEntity
  8
0
100
AcDbLine
 62
7
  6
CONTINUOUS
 10
118.0
 20
-69.5
 11
118.0
 21
-0.0
  0
INSERT
  5
231
100
AcDbEntity
  8
0
100
AcDbBlockReference
 62
7
  6
CONTINUOUS
  2
_FILLED
 10
118.0
 20
69.5
 41
3.0
 42
3.0
 43
3.0
 50
90.0
  0
INSERT
  5
232
100
AcDbEntity
  8
0
100
AcDbBlockReference
 62
7
  6
CONTINUOUS
  2
_FILLED
 10
118.0
 20
-69.5
 41
3.0
 42
3.0
 43
3.0
 50
270.0
  0
ENDBLK
  5
233
100
AcDbEntity
  8
0
  6
BYBLOCK
 62
0
100
AcDbBlockEnd
  0
BLOCK
  5
234
100
AcDbEntity
  8
0
100
AcDbBlockBegin
 62
7
  6
CONTINUOUS
  2
*D2
 70
65
 10
0.0
 20
0.0
  3
*D2
  1

  0
MTEXT
  5
235
100
AcDbEntity
  8
0
100
AcDbMText
 62
7
  6
CONTINUOUS
  7
STANDARD
 71
2
 72
1
 10
0.0
 20
111.25
 30
0.0
 11
1.0
 21
0.0
 31
0.0
 44
0.9
  1
220
 40
3.0
 41
7.0714285714
  0
LINE
  5
236
100
AcDbEntity
  8
0
100
AcDbLine
 62
7
  6
CONTINUOUS
 10
110.0
 20
79.9999999942
 11
110.0
 21
109.0
  0
LINE
  5
237
100
AcDbEntity
  8
0
100
AcDbLine
 62
7
  6
CONTINUOUS
 10
-110.0
 20
80.0
 11
-110.0
 21
109.0
  0
LINE
  5
238
100
AcDbEntity
  8
0
100
AcDbLine
 62
7
  6
CONTINUOUS
 10
110.0
 20
107.5
 11
0.0
 21
107.5
  0
LINE
  5
239
100
AcDbEntity
  8
0
100
AcDbLine
 62
7
  6
CONTINUOUS
 10
-110.0
 20
107.5
 11
0.0
 21
107.5
  0
INSERT
  5
23A
100
AcDbEntity
  8
0
100
AcDbBlockReference
 62
7
  6
CONTINUOUS
  2
_FILLED
 10
110.0
 20
107.5
 41
3.0
 42
3.0
 43
3.0
  0
INSERT
  5
23B
100
AcDbEntity
  8
0
100
AcDbBlockReference
 62
7
  6
CONTINUOUS
  2
_FILLED
 10
-110.0
 20
107.5
 41
3.0
 42
3.0
 43
3.0
 50
180.0
  0
ENDBLK
  5
23C
100
AcDbEntity
  8
0
  6
BYBLOCK
 62
0
100
AcDbBlockEnd
  0
BLOCK
  5
23D
100
AcDbEntity
  8
0
100
AcDbBlockBegin
 62
7
  6
CONTINUOUS
  2
*D3
 70
65
 10
0.0
 20
0.0
  3
*D3
  1

  0
MTEXT
  5
23E
100
AcDbEntity
  8
0
100
AcDbMText
 62
7
  6
CONTINUOUS
  7
STANDARD
 71
2
 72
1
 10
124.25
 20
-0.0
 30
0.0
 11
0.0
 21
1.0
 31
0.0
 44
0.9
  1
179
 40
3.0
 41
6.4285714286
  0
LINE
  5
23F
100
AcDbEntity
  8
0
100
AcDbLine
 62
7
  6
CONTINUOUS
 10
100.5
 20
89.5
 11
129.5
 21
89.5
  0
LINE
  5
240
100
AcDbEntity
  8
0
100
AcDbLine
 62
7
  6
CONTINUOUS
 10
100.4999999942
 20
-89.5
 11
129.5
 21
-89.5
  0
LINE
  5
241
100
AcDbEntity
  8
0
100
AcDbLine
 62
7
  6
CONTINUOUS
 10
128.0
 20
89.5
 11
128.0
 21
0.0
  0
LINE
  5
242
100
AcDbEntity
  8
0
100
AcDbLine
 62
7
  6
CONTINUOUS
 10
128.0
 20
-89.5
 11
128.0
 21
0.0
  0
INSERT
  5
243
100
AcDbEntity
  8
0
100
AcDbBlockReference
 62
7
  6
CONTINUOUS
  2
_FILLED
 10
128.0
 20
89.5
 41
3.0
 42
3.0
 43
3.0
 50
90.0
  0
INSERT
  5
244
100
AcDbEntity
  8
0
100
AcDbBlockReference
 62
7
  6
CONTINUOUS
  2
_FILLED
 10
128.0
 20
-89.5
 41
3.0
 42
3.0
 43
3.0
 50
270.0
  0
ENDBLK
  5
245
100
AcDbEntity
  8
0
  6
BYBLOCK
 62
0
100
AcDbBlockEnd
  0
BLOCK
  5
246
100
AcDbEntity
  8
0
100
AcDbBlockBegin
 62
7
  6
CONTINUOUS
  2
*D4
 70
65
 10
0.0
 20
0.0
  3
*D4
  1

  0
MTEXT
  5
247
100
AcDbEntity
  8
0
100
AcDbMText
 62
7
  6
CONTINUOUS
  7
STANDARD
 71
2
 72
1
 10
-192.2028399168
 20
111.25
 30
0.0
 11
1.0
 21
0.0
 31
0.0
 44
0.9
  1
75,7
 40
3.0
 41
8.5714285714
  0
LINE
  5
248
100
AcDbEntity
  8
0
100
AcDbLine
 62
7
  6
CONTINUOUS
 10
-230.0528399168
 20
80.0
 11
-230.0528399168
 21
109.0
  0
LINE
  5
249
100
AcDbEntity
  8
0
100
AcDbLine
 62
7
  6
CONTINUOUS
 10
-154.3528399168
 20
66.2586280076
 11
-154.3528399168
 21
109.0
  0
LINE
  5
24A
100
AcDbEntity
  8
0
100
AcDbLine
 62
7
  6
CONTINUOUS
 10
-230.0528399168
 20
107.5
 11
-192.2028399168
 21
107.5
  0
LINE
  5
24B
100
AcDbEntity
  8
0
100
AcDbLine
 62
7
  6
CONTINUOUS
 10
-154.3528399168
 20
107.5
 11
-192.2028399168
 21
107.5
  0
INSERT
  5
24C
100
AcDbEntity
  8
0
100
AcDbBlockReference
 62
7
  6
CONTINUOUS
  2
_FILLED
 10
-230.0528399168
 20
107.5
 41
3.0
 42
3.0
 43
3.0
 50
180.0
  0
INSERT
  5
24D
100
AcDbEntity
  8
0
100
AcDbBlockReference
 62
7
  6
CONTINUOUS
  2
_FILLED
 10
-154.3528399168
 20
107.5
 41
3.0
 42
3.0
 43
3.0
  0
ENDBLK
  5
24E
100
AcDbEntity
  8
0
  6
BYBLOCK
 62
0
100
AcDbBlockEnd
  0
BLOCK
  5
24F
100
AcDbEntity
  8
0
100
AcDbBlockBegin
 62
7
  6
CONTINUOUS
  2
*D5
 70
65
 10
0.0
 20
0.0
  3
*D5
  1

  0
MTEXT
  5
250
100
AcDbEntity
  8
0
100
AcDbMText
 62
7
  6
CONTINUOUS
  7
STANDARD
 71
2
 72
1
 10
-189.3528399168
 20
101.25
 30
0.0
 11
1.0
 21
0.0
 31
0.0
 44
0.9
  1
70
 40
3.0
 41
4.7142857143
  0
LINE
  5
251
100
AcDbEntity
  8
0
100
AcDbLine
 62
7
  6
CONTINUOUS
 10
-154.3528399168
 20
66.2586280076
 11
-154.3528399168
 21
99.0
  0
LINE
  5
252
100
AcDbEntity
  8
0
100
AcDbLine
 62
7
  6
CONTINUOUS
 10
-224.3528399168
 20
90.0
 11
-224.3528399168
 21
99.0
  0
LINE
  5
253
100
AcDbEntity
  8
0
100
AcDbLine
 62
7
  6
CONTINUOUS
 10
-154.3528399168
 20
97.5
 11
-189.3528399168
 21
97.5
  0
LINE
  5
254
100
AcDbEntity
  8
0
100
AcDbLine
 62
7
  6
CONTINUOUS
 10
-224.3528399168
 20
97.5
 11
-189.3528399168
 21
97.5
  0
INSERT
  5
255
100
AcDbEntity
  8
0
100
AcDbBlockReference
 62
7
  6
CONTINUOUS
  2
_FILLED
 10
-154.3528399168
 20
97.5
 41
3.0
 42
3.0
 43
3.0
  0
INSERT
  5
256
100
AcDbEntity
  8
0
100
AcDbBlockReference
 62
7
  6
CONTINUOUS
  2
_FILLED
 10
-224.3528399168
 20
97.5
 41
3.0
 42
3.0
 43
3.0
 50
180.0
  0
ENDBLK
  5
257
100
AcDbEntity
  8
0
  6
BYBLOCK
 62
0
100
AcDbBlockEnd
  0
BLOCK
  5
258
100
AcDbEntity
  8
0
100
AcDbBlockBegin
 62
7
  6
CONTINUOUS
  2
*D6
 70
65
 10
0.0
 20
0.0
  3
*D6
  1

  0
MTEXT
  5
259
100
AcDbEntity
  8
0
100
AcDbMText
 62
7
  6
CONTINUOUS
  7
STANDARD
 71
3
 72
1
 10
-234.5125161865
 20
101.25
 30
0.0
 11
1.0
 21
0.0
 31
0.0
 44
0.9
  1
5,7
 40
3.0
 41
6.2142857143
  0
LINE
  5
25A
100
AcDbEntity
  8
0
100
AcDbLine
 62
7
  6
CONTINUOUS
 10
-224.3528399168
 20
90.0
 11
-224.3528399168
 21
99.0
  0
LINE
  5
25B
100
AcDbEntity
  8
0
100
AcDbLine
 62
7
  6
CONTINUOUS
 10
-230.0528399168
 20
80.0
 11
-230.0528399168
 21
99.0
  0
LINE
  5
25C
100
AcDbEntity
  8
0
100
AcDbLine
 62
7
  6
CONTINUOUS
 10
-224.3528399168
 20
97.5
 11
-220.3528399168
 21
97.5
  0
LINE
  5
25D
100
AcDbEntity
  8
0
100
AcDbLine
 62
7
  6
CONTINUOUS
 10
-220.3528399168
 20
97.5
 11
-227.2028399168
 21
97.5
  0
LINE
  5
25E
100
AcDbEntity
  8
0
100
AcDbLine
 62
7
  6
CONTINUOUS
 10
-230.0528399168
 20
97.5
 11
-240.7268019008
 21
97.5
  0
LINE
  5
25F
100
AcDbEntity
  8
0
100
AcDbLine
 62
7
  6
CONTINUOUS
 10
-240.7268019008
 20
97.5
 11
-227.2028399168
 21
97.5
  0
INSERT
  5
260
100
AcDbEntity
  8
0
100
AcDbBlockReference
 62
7
  6
CONTINUOUS
  2
_NONE
 10
-224.3528399168
 20
97.5
 41
3.0
 42
3.0
 43
3.0
 50
180.0
  0
INSERT
  5
261
100
AcDbEntity
  8
0
100
AcDbBlockReference
 62
7
  6
CONTINUOUS
  2
_FILLED
 10
-230.0528399168
 20
97.5
 41
3.0
 42
3.0
 43
3.0
  0
ENDBLK
  5
262
100
AcDbEntity
  8
0
  6
BYBLOCK
 62
0
100
AcDbBlockEnd
  0
ENDSEC
  0
SECTION
  2
ENTITIES
  0
DIMENSION
  5
263
100
AcDbEntity
  8
0
100
AcDbDimension
 62
7
  6
CONTINUOUS
  2
*D0
 10
90.0
 20
97.5
 11
-3.2142857143
 21
99.75
 70
160
 71
2
 42
180.0
  3
DIMSTYLE_1
100
AcDbAlignedDimension
 13
-90.0
 23
70.0
 14
90.0
 24
70.0
100
AcDbRotatedDimension
  0
DIMENSION
  5
264
100
AcDbEntity
  8
0
100
AcDbDimension
 62
7
  6
CONTINUOUS
  2
*D1
 10
118.0
 20
-69.5
 11
117.1422287358
 21
-2.7777753476
 70
160
 71
2
 42
139.0
  3
DIMSTYLE_1
100
AcDbAlignedDimension
 13
90.5
 23
69.5
 14
90.5
 24
-69.5
 50
270.0
100
AcDbRotatedDimension
  0
DIMENSION
  5
265
100
AcDbEntity
  8
0
100
AcDbDimension
 62
7
  6
CONTINUOUS
  2
*D2
 10
-110.0
 20
107.5
 11
-3.5357142857
 21
109.75
 70
160
 71
2
 42
220.0
  3
DIMSTYLE_1
100
AcDbAlignedDimension
 13
110.0
 23
79.9999999942
 14
-110.0
 24
80.0
 50
180.0
100
AcDbRotatedDimension
  0
DIMENSION
  5
266
100
AcDbEntity
  8
0
100
AcDbDimension
 62
7
  6
CONTINUOUS
  2
*D3
 10
128.0
 20
-89.5
 11
127.1902366233
 21
-2.8735607044
 70
160
 71
2
 42
179.0
  3
DIMSTYLE_1
100
AcDbAlignedDimension
 13
100.5
 23
89.5
 14
100.4999999942
 24
-89.5
 50
270.0
100
AcDbRotatedDimension
  0
DIMENSION
  5
267
100
AcDbEntity
  8
0
100
AcDbDimension
 62
7
  6
CONTINUOUS
  2
*D4
 10
-154.3528399168
 20
107.5
 11
-196.4885542026
 21
109.75
 70
160
 71
2
 42
75.7
  3
DIMSTYLE_1
100
AcDbAlignedDimension
 13
-230.0528399168
 23
80.0
 14
-154.3528399168
 24
66.2586280076
100
AcDbRotatedDimension
  0
DIMENSION
  5
268
100
AcDbEntity
  8
0
100
AcDbDimension
 62
7
  6
CONTINUOUS
  2
*D5
 10
-224.3528399168
 20
97.5
 11
-191.709982774
 21
99.75
 70
160
 71
2
 42
70.0
  3
DIMSTYLE_1
100
AcDbAlignedDimension
 13
-154.3528399168
 23
66.2586280076
 14
-224.3528399168
 24
90.0
 50
180.0
100
AcDbRotatedDimension
  0
DIMENSION
  5
269
100
AcDbEntity
  8
0
100
AcDbDimension
 62
7
  6
CONTINUOUS
  2
*D6
 10
-230.0528399168
 20
97.5
 11
-243.8339447579
 21
99.75
 70
160
 71
3
 42
5.7
  3
DIMSTYLE_1
100
AcDbAlignedDimension
 13
-224.3528399168
 23
90.0
 14
-230.0528399168
 24
80.0
 50
180.0
100
AcDbRotatedDimension
1001
ACAD
1000
DSTYLE
1002
{
1070
173
1070
1
1070
6
1000
_NONE
1002
}
  0
LINE
  5
26A
100
AcDbEntity
  8
RACCORDO
100
AcDbLine
 62
7
  6
CONTINUOUS
 10
-110.0
 20
79.5
 11
-110.0
 21
-79.5
  0
LINE
  5
26B
100
AcDbEntity
  8
CURVE
100
AcDbLine
 62
7
  6
CONTINUOUS
 10
-110.0
 20
79.5
 11
-110.0
 21
-79.5
  0
LINE
  5
26C
100
AcDbEntity
  8
RACCORDO
100
AcDbLine
 62
253
  6
CONTINUOUS
 10
-108.0
 20
79.5
 11
-108.0
 21
-79.5
  0
LINE
  5
26D
100
AcDbEntity
  8
0
100
AcDbLine
 62
7
  6
CONTINUOUS
 10
-90.5197234842
 20
70.0197234842
 11
-90.35
 21
70.5901949367
  0
LINE
  5
26E
100
AcDbEntity
  8
0
100
AcDbLine
 62
7
  6
CONTINUOUS
 10
-89.65
 20
68.4098050633
 11
-89.4802765158
 21
68.9802765158
  0
LINE
  5
26F
100
AcDbEntity
  8
0
100
AcDbLine
 62
7
  6
CONTINUOUS
 10
-90.5197234842
 20
-70.0197234842
 11
-90.35
 21
-70.5901949367
  0
LINE
  5
270
100
AcDbEntity
  8
0
100
AcDbLine
 62
7
  6
CONTINUOUS
 10
-89.65
 20
-68.4098050633
 11
-89.4802765158
 21
-68.9802765158
  0
LINE
  5
271
100
AcDbEntity
  8
RACCORDO
100
AcDbLine
 62
253
  6
CONTINUOUS
 10
-100.0
 20
-87.5
 11
-100.0
 21
-89.5
  0
LINE
  5
272
100
AcDbEntity
  8
RACCORDO
100
AcDbLine
 62
253
  6
CONTINUOUS
 10
-100.0
 20
87.5
 11
-99.9999999942
 21
89.5
  0
LINE
  5
273
100
AcDbEntity
  8
0
100
AcDbLine
 62
7
  6
CONTINUOUS
 10
-91.145
 20
-69.85
 11
-91.145
 21
-69.15
  0
LINE
  5
274
100
AcDbEntity
  8
0
100
AcDbLine
 62
7
  6
CONTINUOUS
 10
-91.145
 20
69.15
 11
-91.145
 21
69.85
  0
LINE
  5
275
100
AcDbEntity
  8
0
100
AcDbLine
 62
7
  6
CONTINUOUS
 10
-90.5
 20
-72.2041634566
 11
-90.5
 21
-70.0860176963
  0
LINE
  5
276
100
AcDbEntity
  8
0
100
AcDbLine
 62
7
  6
CONTINUOUS
 10
-90.5
 20
-68.9139823037
 11
-90.5
 21
-66.7958365434
  0
LINE
  5
277
100
AcDbEntity
  8
0
100
AcDbLine
 62
7
  6
CONTINUOUS
 10
-90.5
 20
66.7958365434
 11
-90.5
 21
68.9139823037
  0
LINE
  5
278
100
AcDbEntity
  8
0
100
AcDbLine
 62
7
  6
CONTINUOUS
 10
-90.5
 20
70.0860176963
 11
-90.5
 21
72.2041634566
  0
LINE
  5
279
100
AcDbEntity
  8
0
100
AcDbLine
 62
7
  6
CONTINUOUS
 10
-90.35
 20
-71.0937234472
 11
-90.35
 21
-70.5901949367
  0
LINE
  5
27A
100
AcDbEntity
  8
0
100
AcDbLine
 62
7
  6
CONTINUOUS
 10
-90.35
 20
-68.4098050633
 11
-90.35
 21
-67.9062765528
  0
LINE
  5
27B
100
AcDbEntity
  8
0
100
AcDbLine
 62
7
  6
CONTINUOUS
 10
-90.35
 20
67.9062765528
 11
-90.35
 21
68.4098050633
  0
LINE
  5
27C
100
AcDbEntity
  8
0
100
AcDbLine
 62
7
  6
CONTINUOUS
 10
-90.35
 20
70.5901949367
 11
-90.35
 21
71.0937234472
  0
LINE
  5
27D
100
AcDbEntity
  8
0
100
AcDbLine
 62
7
  6
CONTINUOUS
 10
-89.65
 20
-71.0937234472
 11
-89.65
 21
-70.5901949367
  0
LINE
  5
27E
100
AcDbEntity
  8
0
100
AcDbLine
 62
7
  6
CONTINUOUS
 10
-89.65
 20
-68.4098050633
 11
-89.65
 21
-67.9062765528
  0
LINE
  5
27F
100
AcDbEntity
  8
0
100
AcDbLine
 62
7
  6
CONTINUOUS
 10
-89.65
 20
67.9062765528
 11
-89.65
 21
68.4098050633
  0
LINE
  5
280
100
AcDbEntity
  8
0
100
AcDbLine
 62
7
  6
CONTINUOUS
 10
-89.65
 20
70.5901949367
 11
-89.65
 21
71.0937234472
  0
LINE
  5
281
100
AcDbEntity
  8
0
100
AcDbLine
 62
7
  6
CONTINUOUS
 10
-89.5
 20
72.2041634566
 11
-89.5
 21
70.0860176963
  0
LINE
  5
282
100
AcDbEntity
  8
0
100
AcDbLine
 62
7
  6
CONTINUOUS
 10
-89.5
 20
68.9139823037
 11
-89.5
 21
66.7958365434
  0
LINE
  5
283
100
AcDbEntity
  8
0
100
AcDbLine
 62
7
  6
CONTINUOUS
 10
-89.5
 20
-66.7958365434
 11
-89.5
 21
-68.9139823037
  0
LINE
  5
284
100
AcDbEntity
  8
0
100
AcDbLine
 62
7
  6
CONTINUOUS
 10
-89.5
 20
-70.0860176963
 11
-89.5
 21
-72.2041634566
  0
LINE
  5
285
100
AcDbEntity
  8
0
100
AcDbLine
 62
7
  6
CONTINUOUS
 10
-88.855
 20
69.85
 11
-88.855
 21
69.15
  0
LINE
  5
286
100
AcDbEntity
  8
0
100
AcDbLine
 62
7
  6
CONTINUOUS
 10
-88.855
 20
-69.15
 11
-88.855
 21
-69.85
  0
LINE
  5
287
100
AcDbEntity
  8
0
100
AcDbLine
 62
7
  6
CONTINUOUS
 10
-91.0901949367
 20
69.85
 11
-90.5197234842
 21
70.0197234842
  0
LINE
  5
288
100
AcDbEntity
  8
0
100
AcDbLine
 62
7
  6
CONTINUOUS
 10
-88.9098050633
 20
69.15
 11
-89.4802765158
 21
68.9802765158
  0
LINE
  5
289
100
AcDbEntity
  8
RACCORDO
100
AcDbLine
 62
7
  6
CONTINUOUS
 10
-100.0
 20
-89.5
 11
100.0
 21
-89.5
  0
LINE
  5
28A
100
AcDbEntity
  8
CURVE
100
AcDbLine
 62
7
  6
CONTINUOUS
 10
-100.0
 20
-89.5
 11
100.0
 21
-89.5
  0
LINE
  5
28B
100
AcDbEntity
  8
RACCORDO
100
AcDbLine
 62
253
  6
CONTINUOUS
 10
-100.0
 20
-87.5
 11
100.0
 21
-87.5
  0
LINE
  5
28C
100
AcDbEntity
  8
0
100
AcDbLine
 62
7
  6
CONTINUOUS
 10
-90.5197234842
 20
-70.0197234842
 11
-91.0901949367
 21
-69.85
  0
LINE
  5
28D
100
AcDbEntity
  8
0
100
AcDbLine
 62
7
  6
CONTINUOUS
 10
-89.4802765158
 20
-68.9802765158
 11
-88.9098050633
 21
-69.15
  0
LINE
  5
28E
100
AcDbEntity
  8
RACCORDO
100
AcDbLine
 62
253
  6
CONTINUOUS
 10
108.0
 20
-79.5
 11
110.0
 21
-79.5
  0
LINE
  5
28F
100
AcDbEntity
  8
RACCORDO
100
AcDbLine
 62
253
  6
CONTINUOUS
 10
-108.0
 20
-79.5
 11
-110.0
 21
-79.4999999942
  0
LINE
  5
290
100
AcDbEntity
  8
0
100
AcDbLine
 62
7
  6
CONTINUOUS
 10
-90.35
 20
-68.4098050633
 11
-90.5197234842
 21
-68.9802765158
  0
LINE
  5
291
100
AcDbEntity
  8
0
100
AcDbLine
 62
7
  6
CONTINUOUS
 10
-89.4802765158
 20
-70.0197234842
 11
-89.65
 21
-70.5901949367
  0
LINE
  5
292
100
AcDbEntity
  8
0
100
AcDbLine
 62
7
  6
CONTINUOUS
 10
-90.35
 20
-71.0937234472
 11
-89.65
 21
-71.0937234472
  0
LINE
  5
293
100
AcDbEntity
  8
0
100
AcDbLine
 62
7
  6
CONTINUOUS
 10
89.65
 20
-71.0937234472
 11
90.35
 21
-71.0937234472
  0
LINE
  5
294
100
AcDbEntity
  8
0
100
AcDbLine
 62
7
  6
CONTINUOUS
 10
90.35
 20
-70.645
 11
89.65
 21
-70.645
  0
LINE
  5
295
100
AcDbEntity
  8
0
100
AcDbLine
 62
7
  6
CONTINUOUS
 10
-89.65
 20
-70.645
 11
-90.35
 21
-70.645
  0
LINE
  5
296
100
AcDbEntity
  8
0
100
AcDbLine
 62
7
  6
CONTINUOUS
 10
91.9418577643
 20
-69.85
 11
91.0901949367
 21
-69.85
  0
LINE
  5
297
100
AcDbEntity
  8
0
100
AcDbLine
 62
7
  6
CONTINUOUS
 10
88.9098050633
 20
-69.85
 11
88.0581422357
 21
-69.85
  0
LINE
  5
298
100
AcDbEntity
  8
0
100
AcDbLine
 62
7
  6
CONTINUOUS
 10
-88.0581422357
 20
-69.85
 11
-88.9098050633
 21
-69.85
  0
LINE
  5
299
100
AcDbEntity
  8
0
100
AcDbLine
 62
7
  6
CONTINUOUS
 10
-91.0901949367
 20
-69.85
 11
-91.9418577643
 21
-69.85
  0
LINE
  5
29A
100
AcDbEntity
  8
0
100
AcDbLine
 62
7
  6
CONTINUOUS
 10
91.9418577643
 20
-69.15
 11
91.0901949367
 21
-69.15
  0
LINE
  5
29B
100
AcDbEntity
  8
0
100
AcDbLine
 62
7
  6
CONTINUOUS
 10
88.9098050633
 20
-69.15
 11
88.0581422357
 21
-69.15
  0
LINE
  5
29C
100
AcDbEntity
  8
0
100
AcDbLine
 62
7
  6
CONTINUOUS
 10
-88.0581422357
 20
-69.15
 11
-88.9098050633
 21
-69.15
  0
LINE
  5
29D
100
AcDbEntity
  8
0
100
AcDbLine
 62
7
  6
CONTINUOUS
 10
-91.0901949367
 20
-69.15
 11
-91.9418577643
 21
-69.15
  0
LINE
  5
29E
100
AcDbEntity
  8
0
100
AcDbLine
 62
7
  6
CONTINUOUS
 10
-90.35
 20
-68.355
 11
-89.65
 21
-68.355
  0
LINE
  5
29F
100
AcDbEntity
  8
0
100
AcDbLine
 62
7
  6
CONTINUOUS
 10
89.65
 20
-68.355
 11
90.35
 21
-68.355
  0
LINE
  5
2A0
100
AcDbEntity
  8
0
100
AcDbLine
 62
7
  6
CONTINUOUS
 10
-90.35
 20
-67.9062765528
 11
-89.65
 21
-67.9062765528
  0
LINE
  5
2A1
100
AcDbEntity
  8
0
100
AcDbLine
 62
7
  6
CONTINUOUS
 10
89.65
 20
-67.9062765528
 11
90.35
 21
-67.9062765528
  0
LINE
  5
2A2
100
AcDbEntity
  8
0
100
AcDbLine
 62
7
  6
CONTINUOUS
 10
-90.35
 20
68.4098050633
 11
-90.5197234842
 21
68.9802765158
  0
LINE
  5
2A3
100
AcDbEntity
  8
0
100
AcDbLine
 62
7
  6
CONTINUOUS
 10
-89.4802765158
 20
70.0197234842
 11
-89.65
 21
70.5901949367
  0
LINE
  5
2A4
100
AcDbEntity
  8
0
100
AcDbLine
 62
7
  6
CONTINUOUS
 10
88.9098050633
 20
69.85
 11
89.4802765158
 21
70.0197234842
  0
LINE
  5
2A5
100
AcDbEntity
  8
0
100
AcDbLine
 62
7
  6
CONTINUOUS
 10
91.0901949367
 20
69.15
 11
90.5197234842
 21
68.9802765158
  0
LINE
  5
2A6
100
AcDbEntity
  8
0
100
AcDbLine
 62
7
  6
CONTINUOUS
 10
89.4802765158
 20
-70.0197234842
 11
88.9098050633
 21
-69.85
  0
LINE
  5
2A7
100
AcDbEntity
  8
0
100
AcDbLine
 62
7
  6
CONTINUOUS
 10
90.5197234842
 20
-68.9802765158
 11
91.0901949367
 21
-69.15
  0
LINE
  5
2A8
100
AcDbEntity
  8
0
100
AcDbLine
 62
7
  6
CONTINUOUS
 10
-91.0901949367
 20
-69.15
 11
-90.5197234842
 21
-68.9802765158
  0
LINE
  5
2A9
100
AcDbEntity
  8
0
100
AcDbLine
 62
7
  6
CONTINUOUS
 10
-88.9098050633
 20
-69.85
 11
-89.4802765158
 21
-70.0197234842
  0
LINE
  5
2AA
100
AcDbEntity
  8
0
100
AcDbLine
 62
7
  6
CONTINUOUS
 10
-90.5197234842
 20
68.9802765158
 11
-91.0901949367
 21
69.15
  0
LINE
  5
2AB
100
AcDbEntity
  8
0
100
AcDbLine
 62
7
  6
CONTINUOUS
 10
-89.4802765158
 20
70.0197234842
 11
-88.9098050633
 21
69.85
  0
LINE
  5
2AC
100
AcDbEntity
  8
0
100
AcDbLine
 62
7
  6
CONTINUOUS
 10
89.4802765158
 20
70.0197234842
 11
89.65
 21
70.5901949367
  0
LINE
  5
2AD
100
AcDbEntity
  8
0
100
AcDbLine
 62
7
  6
CONTINUOUS
 10
90.35
 20
68.4098050633
 11
90.5197234842
 21
68.9802765158
  0
LINE
  5
2AE
100
AcDbEntity
  8
0
100
AcDbLine
 62
7
  6
CONTINUOUS
 10
89.4802765158
 20
-70.0197234842
 11
89.65
 21
-70.5901949367
  0
LINE
  5
2AF
100
AcDbEntity
  8
0
100
AcDbLine
 62
7
  6
CONTINUOUS
 10
90.35
 20
-68.4098050633
 11
90.5197234842
 21
-68.9802765158
  0
LINE
  5
2B0
100
AcDbEntity
  8
0
100
AcDbLine
 62
7
  6
CONTINUOUS
 10
-90.35
 20
67.9062765528
 11
-89.65
 21
67.9062765528
  0
LINE
  5
2B1
100
AcDbEntity
  8
0
100
AcDbLine
 62
7
  6
CONTINUOUS
 10
89.65
 20
67.9062765528
 11
90.35
 21
67.9062765528
  0
LINE
  5
2B2
100
AcDbEntity
  8
0
100
AcDbLine
 62
7
  6
CONTINUOUS
 10
90.35
 20
68.355
 11
89.65
 21
68.355
  0
LINE
  5
2B3
100
AcDbEntity
  8
0
100
AcDbLine
 62
7
  6
CONTINUOUS
 10
-89.65
 20
68.355
 11
-90.35
 21
68.355
  0
LINE
  5
2B4
100
AcDbEntity
  8
0
100
AcDbLine
 62
7
  6
CONTINUOUS
 10
91.9418577643
 20
69.15
 11
91.0901949367
 21
69.15
  0
LINE
  5
2B5
100
AcDbEntity
  8
0
100
AcDbLine
 62
7
  6
CONTINUOUS
 10
88.9098050633
 20
69.15
 11
88.0581422357
 21
69.15
  0
LINE
  5
2B6
100
AcDbEntity
  8
0
100
AcDbLine
 62
7
  6
CONTINUOUS
 10
-88.0581422357
 20
69.15
 11
-88.9098050633
 21
69.15
  0
LINE
  5
2B7
100
AcDbEntity
  8
0
100
AcDbLine
 62
7
  6
CONTINUOUS
 10
-91.0901949367
 20
69.15
 11
-91.9418577643
 21
69.15
  0
LINE
  5
2B8
100
AcDbEntity
  8
0
100
AcDbLine
 62
7
  6
CONTINUOUS
 10
91.9418577643
 20
69.85
 11
91.0901949367
 21
69.85
  0
LINE
  5
2B9
100
AcDbEntity
  8
0
100
AcDbLine
 62
7
  6
CONTINUOUS
 10
88.9098050633
 20
69.85
 11
88.0581422357
 21
69.85
  0
LINE
  5
2BA
100
AcDbEntity
  8
0
100
AcDbLine
 62
7
  6
CONTINUOUS
 10
-88.0581422357
 20
69.85
 11
-88.9098050633
 21
69.85
  0
LINE
  5
2BB
100
AcDbEntity
  8
0
100
AcDbLine
 62
7
  6
CONTINUOUS
 10
-91.0901949367
 20
69.85
 11
-91.9418577643
 21
69.85
  0
LINE
  5
2BC
100
AcDbEntity
  8
0
100
AcDbLine
 62
7
  6
CONTINUOUS
 10
-90.35
 20
70.645
 11
-89.65
 21
70.645
  0
LINE
  5
2BD
100
AcDbEntity
  8
0
100
AcDbLine
 62
7
  6
CONTINUOUS
 10
89.65
 20
70.645
 11
90.35
 21
70.645
  0
LINE
  5
2BE
100
AcDbEntity
  8
0
100
AcDbLine
 62
7
  6
CONTINUOUS
 10
-90.35
 20
71.0937234472
 11
-89.65
 21
71.0937234472
  0
LINE
  5
2BF
100
AcDbEntity
  8
0
100
AcDbLine
 62
7
  6
CONTINUOUS
 10
89.65
 20
71.0937234472
 11
90.35
 21
71.0937234472
  0
LINE
  5
2C0
100
AcDbEntity
  8
RACCORDO
100
AcDbLine
 62
253
  6
CONTINUOUS
 10
108.0
 20
79.5
 11
110.0
 21
79.4999999942
  0
LINE
  5
2C1
100
AcDbEntity
  8
RACCORDO
100
AcDbLine
 62
253
  6
CONTINUOUS
 10
-108.0
 20
79.5
 11
-110.0
 21
79.5
  0
LINE
  5
2C2
100
AcDbEntity
  8
0
100
AcDbLine
 62
7
  6
CONTINUOUS
 10
88.855
 20
-69.85
 11
88.855
 21
-69.15
  0
LINE
  5
2C3
100
AcDbEntity
  8
0
100
AcDbLine
 62
7
  6
CONTINUOUS
 10
88.855
 20
69.15
 11
88.855
 21
69.85
  0
LINE
  5
2C4
100
AcDbEntity
  8
0
100
AcDbLine
 62
7
  6
CONTINUOUS
 10
89.5
 20
-72.2041634566
 11
89.5
 21
-70.0860176963
  0
LINE
  5
2C5
100
AcDbEntity
  8
0
100
AcDbLine
 62
7
  6
CONTINUOUS
 10
89.5
 20
-68.9139823037
 11
89.5
 21
-66.7958365434
  0
LINE
  5
2C6
100
AcDbEntity
  8
0
100
AcDbLine
 62
7
  6
CONTINUOUS
 10
89.5
 20
66.7958365434
 11
89.5
 21
68.9139823037
  0
LINE
  5
2C7
100
AcDbEntity
  8
0
100
AcDbLine
 62
7
  6
CONTINUOUS
 10
89.5
 20
70.0860176963
 11
89.5
 21
72.2041634566
  0
LINE
  5
2C8
100
AcDbEntity
  8
0
100
AcDbLine
 62
7
  6
CONTINUOUS
 10
89.65
 20
-71.0937234472
 11
89.65
 21
-70.5901949367
  0
LINE
  5
2C9
100
AcDbEntity
  8
0
100
AcDbLine
 62
7
  6
CONTINUOUS
 10
89.65
 20
-68.4098050633
 11
89.65
 21
-67.9062765528
  0
LINE
  5
2CA
100
AcDbEntity
  8
0
100
AcDbLine
 62
7
  6
CONTINUOUS
 10
89.65
 20
67.9062765528
 11
89.65
 21
68.4098050633
  0
LINE
  5
2CB
100
AcDbEntity
  8
0
100
AcDbLine
 62
7
  6
CONTINUOUS
 10
89.65
 20
70.5901949367
 11
89.65
 21
71.0937234472
  0
LINE
  5
2CC
100
AcDbEntity
  8
0
100
AcDbLine
 62
7
  6
CONTINUOUS
 10
90.35
 20
-71.0937234472
 11
90.35
 21
-70.5901949367
  0
LINE
  5
2CD
100
AcDbEntity
  8
0
100
AcDbLine
 62
7
  6
CONTINUOUS
 10
90.35
 20
-68.4098050633
 11
90.35
 21
-67.9062765528
  0
LINE
  5
2CE
100
AcDbEntity
  8
0
100
AcDbLine
 62
7
  6
CONTINUOUS
 10
90.35
 20
67.9062765528
 11
90.35
 21
68.4098050633
  0
LINE
  5
2CF
100
AcDbEntity
  8
0
100
AcDbLine
 62
7
  6
CONTINUOUS
 10
90.35
 20
70.5901949367
 11
90.35
 21
71.0937234472
  0
LINE
  5
2D0
100
AcDbEntity
  8
0
100
AcDbLine
 62
7
  6
CONTINUOUS
 10
90.5
 20
72.2041634566
 11
90.5
 21
70.0860176963
  0
LINE
  5
2D1
100
AcDbEntity
  8
0
100
AcDbLine
 62
7
  6
CONTINUOUS
 10
90.5
 20
68.9139823037
 11
90.5
 21
66.7958365434
  0
LINE
  5
2D2
100
AcDbEntity
  8
0
100
AcDbLine
 62
7
  6
CONTINUOUS
 10
90.5
 20
-66.7958365434
 11
90.5
 21
-68.9139823037
  0
LINE
  5
2D3
100
AcDbEntity
  8
0
100
AcDbLine
 62
7
  6
CONTINUOUS
 10
90.5
 20
-70.0860176963
 11
90.5
 21
-72.2041634566
  0
LINE
  5
2D4
100
AcDbEntity
  8
0
100
AcDbLine
 62
7
  6
CONTINUOUS
 10
91.145
 20
69.85
 11
91.145
 21
69.15
  0
LINE
  5
2D5
100
AcDbEntity
  8
0
100
AcDbLine
 62
7
  6
CONTINUOUS
 10
91.145
 20
-69.15
 11
91.145
 21
-69.85
  0
LINE
  5
2D6
100
AcDbEntity
  8
0
100
AcDbLine
 62
7
  6
CONTINUOUS
 10
88.9098050633
 20
-69.15
 11
89.4802765158
 21
-68.9802765158
  0
LINE
  5
2D7
100
AcDbEntity
  8
0
100
AcDbLine
 62
7
  6
CONTINUOUS
 10
91.0901949367
 20
-69.85
 11
90.5197234842
 21
-70.0197234842
  0
LINE
  5
2D8
100
AcDbEntity
  8
RACCORDO
100
AcDbLine
 62
253
  6
CONTINUOUS
 10
100.0
 20
87.5
 11
-100.0
 21
87.5
  0
LINE
  5
2D9
100
AcDbEntity
  8
RACCORDO
100
AcDbLine
 62
7
  6
CONTINUOUS
 10
100.0
 20
89.5
 11
-100.0
 21
89.5
  0
LINE
  5
2DA
100
AcDbEntity
  8
CURVE
100
AcDbLine
 62
7
  6
CONTINUOUS
 10
100.0
 20
89.5
 11
-100.0
 21
89.5
  0
LINE
  5
2DB
100
AcDbEntity
  8
0
100
AcDbLine
 62
7
  6
CONTINUOUS
 10
89.4802765158
 20
68.9802765158
 11
88.9098050633
 21
69.15
  0
LINE
  5
2DC
100
AcDbEntity
  8
0
100
AcDbLine
 62
7
  6
CONTINUOUS
 10
90.5197234842
 20
70.0197234842
 11
91.0901949367
 21
69.85
  0
LINE
  5
2DD
100
AcDbEntity
  8
RACCORDO
100
AcDbLine
 62
253
  6
CONTINUOUS
 10
100.0
 20
-87.5
 11
99.9999999942
 21
-89.5
  0
LINE
  5
2DE
100
AcDbEntity
  8
RACCORDO
100
AcDbLine
 62
253
  6
CONTINUOUS
 10
100.0
 20
87.5
 11
100.0
 21
89.5
  0
LINE
  5
2DF
100
AcDbEntity
  8
RACCORDO
100
AcDbLine
 62
253
  6
CONTINUOUS
 10
108.0
 20
-79.5
 11
108.0
 21
79.5
  0
LINE
  5
2E0
100
AcDbEntity
  8
RACCORDO
100
AcDbLine
 62
7
  6
CONTINUOUS
 10
110.0
 20
-79.5
 11
110.0
 21
79.5
  0
LINE
  5
2E1
100
AcDbEntity
  8
CURVE
100
AcDbLine
 62
7
  6
CONTINUOUS
 10
110.0
 20
-79.5
 11
110.0
 21
79.5
  0
LINE
  5
2E2
100
AcDbEntity
  8
0
100
AcDbLine
 62
7
  6
CONTINUOUS
 10
89.65
 20
-68.4098050633
 11
89.4802765158
 21
-68.9802765158
  0
LINE
  5
2E3
100
AcDbEntity
  8
0
100
AcDbLine
 62
7
  6
CONTINUOUS
 10
90.5197234842
 20
-70.0197234842
 11
90.35
 21
-70.5901949367
  0
LINE
  5
2E4
100
AcDbEntity
  8
0
100
AcDbLine
 62
7
  6
CONTINUOUS
 10
89.65
 20
68.4098050633
 11
89.4802765158
 21
68.9802765158
  0
LINE
  5
2E5
100
AcDbEntity
  8
0
100
AcDbLine
 62
7
  6
CONTINUOUS
 10
90.5197234842
 20
70.0197234842
 11
90.35
 21
70.5901949367
  0
LINE
  5
2E6
100
AcDbEntity
  8
RACCORDO
100
AcDbLine
 62
7
  6
CONTINUOUS
 10
-224.3528399168
 20
-89.5
 11
-228.0528399168
 21
-89.5
  0
LINE
  5
2E7
100
AcDbEntity
  8
ASSI
100
AcDbLine
 62
7
  6
CONTINUOUS
 10
-224.3528399168
 20
-89.5
 11
-228.0528399168
 21
-89.5
  0
LINE
  5
2E8
100
AcDbEntity
  8
DRAFT
100
AcDbLine
 62
7
  6
CONTINUOUS
 10
-221.6528399168
 20
-84.5
 11
-216.8528399168
 21
-84.5
  0
LINE
  5
2E9
100
AcDbEntity
  8
RACCORDO
100
AcDbLine
 62
7
  6
CONTINUOUS
 10
-223.3702923233
 20
-83.3076896529
 11
-212.3528399168
 21
-83.5
  0
LINE
  5
2EA
100
AcDbEntity
  8
DRAFT
100
AcDbLine
 62
7
  6
CONTINUOUS
 10
-212.3528399168
 20
81.5
 11
-221.9117447457
 21
77.0426094747
  0
LINE
  5
2EB
100
AcDbEntity
  8
DRAFT
100
AcDbLine
 62
7
  6
CONTINUOUS
 10
-209.3353875104
 20
-83.4473301723
 11
-212.3528399168
 21
-83.5
  0
LINE
  5
2EC
100
AcDbEntity
  8
RACCORDO
100
AcDbLine
 62
7
  6
CONTINUOUS
 10
-209.3353875104
 20
-83.4473301723
 11
-212.3528399168
 21
-83.5
  0
LINE
  5
2ED
100
AcDbEntity
  8
RACCORDO
100
AcDbLine
 62
253
  6
CONTINUOUS
 10
-223.3702923233
 20
-82.3078419577
 11
-224.3528399168
 21
-82.3078419577
  0
LINE
  5
2EE
100
AcDbEntity
  8
RACCORDO
100
AcDbLine
 62
253
  6
CONTINUOUS
 10
-224.3528399168
 20
-79.5
 11
-230.0528399168
 21
-79.5
  0
LINE
  5
2EF
100
AcDbEntity
  8
RACCORDO
100
AcDbLine
 62
253
  6
CONTINUOUS
 10
-223.3702923233
 20
-82.3078419577
 11
-212.3528399168
 21
-82.5001523048
  0
LINE
  5
2F0
100
AcDbEntity
  8
DRAFT
100
AcDbLine
 62
7
  6
CONTINUOUS
 10
-212.3528399168
 20
-77.2094607791
 11
-224.3528399168
 21
-77.0
  0
LINE
  5
2F1
100
AcDbEntity
  8
DRAFT
100
AcDbLine
 62
7
  6
CONTINUOUS
 10
-221.9117447457
 20
-77.0426094747
 11
-212.3528399168
 21
-81.5
  0
LINE
  5
2F2
100
AcDbEntity
  8
RACCORDO
100
AcDbLine
 62
7
  6
CONTINUOUS
 10
-157.7917564943
 20
-73.8381719672
 11
-208.3528399168
 21
-74.7207189611
  0
LINE
  5
2F3
100
AcDbEntity
  8
RACCORDO
100
AcDbLine
 62
7
  6
CONTINUOUS
 10
-158.1520545196
 20
-70.4047457741
 11
-208.3528399168
 21
-71.1172856934
  0
LINE
  5
2F4
100
AcDbEntity
  8
RACCORDO
100
AcDbLine
 62
7
  6
CONTINUOUS
 10
-158.1520545196
 20
-72.07553395
 11
-208.3528399168
 21
-72.6022099339
  0
LINE
  5
2F5
100
AcDbEntity
  8
RACCORDO
100
AcDbLine
 62
7
  6
CONTINUOUS
 10
-167.1930068752
 20
-70.5330712457
 11
-154.6520545196
 21
-70.5194716984
  0
LINE
  5
2F6
100
AcDbEntity
  8
RACCORDO
100
AcDbLine
 62
7
  6
CONTINUOUS
 10
-208.3528399168
 20
-71.1733458536
 11
-158.1520545196
 21
-71.359209789
  0
LINE
  5
2F7
100
AcDbEntity
  8
RACCORDO
100
AcDbLine
 62
7
  6
CONTINUOUS
 10
-155.8528399168
 20
-63.8
 11
-208.3528399168
 21
-64.258160559
  0
LINE
  5
2F8
100
AcDbEntity
  8
RACCORDO
100
AcDbLine
 62
7
  6
CONTINUOUS
 10
-208.3528399168
 20
-68.9987766662
 11
-158.1476041949
 21
-68.6357865551
  0
LINE
  5
2F9
100
AcDbEntity
  8
DRAFT
100
AcDbLine
 62
7
  6
CONTINUOUS
 10
-157.8528399168
 20
-69.1066437188
 11
-154.6520545196
 21
-69.0982640631
  0
LINE
  5
2FA
100
AcDbEntity
  8
RACCORDO
100
AcDbLine
 62
7
  6
CONTINUOUS
 10
-158.1476041949
 20
-65.7685627
 11
-154.3528399168
 21
-65.7586280076
  0
LINE
  5
2FB
100
AcDbEntity
  8
DRAFT
100
AcDbLine
 62
253
  6
CONTINUOUS
 10
-212.3528399168
 20
-68.0
 11
-224.3528399168
 21
-68.0
  0
LINE
  5
2FC
100
AcDbEntity
  8
RACCORDO
100
AcDbLine
 62
253
  6
CONTINUOUS
 10
-208.3528399168
 20
-61.5
 11
-212.3528399168
 21
-61.5
  0
LINE
  5
2FD
100
AcDbEntity
  8
RACCORDO
100
AcDbLine
 62
253
  6
CONTINUOUS
 10
-161.8528399168
 20
-63.6498109538
 11
-158.6507674439
 21
-63.7057033367
  0
LINE
  5
2FE
100
AcDbEntity
  8
RACCORDO
100
AcDbLine
 62
7
  6
CONTINUOUS
 10
-155.8528399168
 20
-62.2
 11
-205.2790185265
 21
-61.3372628432
  0
LINE
  5
2FF
100
AcDbEntity
  8
RACCORDO
100
AcDbLine
 62
7
  6
CONTINUOUS
 10
-208.3528399168
 20
-57.8924633827
 11
-206.7528399168
 21
-57.6103402135
  0
LINE
  5
300
100
AcDbEntity
  8
DRAFT
100
AcDbLine
 62
7
  6
CONTINUOUS
 10
-212.3528399168
 20
-55.5349101299
 11
-221.9117447457
 21
-55.7017614343
  0
LINE
  5
301
100
AcDbEntity
  8
DRAFT
100
AcDbLine
 62
7
  6
CONTINUOUS
 10
-212.3528399168
 20
-56.8650898701
 11
-221.9117447457
 21
-56.6982385657
  0
LINE
  5
302
100
AcDbEntity
  8
SMUSSO
100
AcDbLine
 62
7
  6
CONTINUOUS
 10
-206.7528399168
 20
-44.0
 11
-208.3528399168
 21
-43.5712812921
  0
LINE
  5
303
100
AcDbEntity
  8
RACCORDO
100
AcDbLine
 62
7
  6
CONTINUOUS
 10
-230.0528399168
 20
-87.5
 11
-230.0528399168
 21
87.5
  0
LINE
  5
304
100
AcDbEntity
  8
RACCORDO
100
AcDbLine
 62
253
  6
CONTINUOUS
 10
-228.0528399168
 20
-89.5
 11
-228.0528399168
 21
89.5
  0
LINE
  5
305
100
AcDbEntity
  8
CURVE
100
AcDbLine
 62
7
  6
CONTINUOUS
 10
-228.0528399168
 20
-89.5
 11
-228.0528399168
 21
89.5
  0
LINE
  5
306
100
AcDbEntity
  8
0
100
AcDbLine
 62
7
  6
CONTINUOUS
 10
-224.3528399168
 20
-89.5
 11
-224.3528399168
 21
89.5
  0
LINE
  5
307
100
AcDbEntity
  8
SMUSSO
100
AcDbLine
 62
7
  6
CONTINUOUS
 10
-208.3528399168
 20
-40.4287187079
 11
-206.7528399168
 21
-40.0
  0
LINE
  5
308
100
AcDbEntity
  8
RACCORDO
100
AcDbLine
 62
253
  6
CONTINUOUS
 10
-223.3702923233
 20
82.3078419577
 11
-223.3702923233
 21
77.017150432
  0
LINE
  5
309
100
AcDbEntity
  8
RACCORDO
100
AcDbLine
 62
253
  6
CONTINUOUS
 10
-223.3702923233
 20
-77.017150432
 11
-223.3702923233
 21
-82.3078419577
  0
LINE
  5
30A
100
AcDbEntity
  8
DRAFT
100
AcDbLine
 62
7
  6
CONTINUOUS
 10
-221.9117447457
 20
56.6982385657
 11
-221.9117447457
 21
55.7017614343
  0
LINE
  5
30B
100
AcDbEntity
  8
DRAFT
100
AcDbLine
 62
7
  6
CONTINUOUS
 10
-221.9117447457
 20
28.5982385657
 11
-221.9117447457
 21
27.6017614343
  0
LINE
  5
30C
100
AcDbEntity
  8
DRAFT
100
AcDbLine
 62
7
  6
CONTINUOUS
 10
-221.9117447457
 20
0.4982385657
 11
-221.9117447457
 21
-0.4982385657
  0
LINE
  5
30D
100
AcDbEntity
  8
DRAFT
100
AcDbLine
 62
7
  6
CONTINUOUS
 10
-221.9117447457
 20
-27.6017614343
 11
-221.9117447457
 21
-28.5982385657
  0
LINE
  5
30E
100
AcDbEntity
  8
DRAFT
100
AcDbLine
 62
7
  6
CONTINUOUS
 10
-221.9117447457
 20
-55.7017614343
 11
-221.9117447457
 21
-56.6982385657
  0
LINE
  5
30F
100
AcDbEntity
  8
DRAFT
100
AcDbLine
 62
7
  6
CONTINUOUS
 10
-221.6528399168
 20
-83.3376678962
 11
-221.6528399168
 21
-84.5
  0
LINE
  5
310
100
AcDbEntity
  8
DRAFT
100
AcDbLine
 62
7
  6
CONTINUOUS
 10
-221.6528399168
 20
83.3376678962
 11
-221.6528399168
 21
84.5
  0
LINE
  5
311
100
AcDbEntity
  8
DRAFT
100
AcDbLine
 62
7
  6
CONTINUOUS
 10
-212.3528399168
 20
-27.4349101299
 11
-221.9117447457
 21
-27.6017614343
  0
LINE
  5
312
100
AcDbEntity
  8
DRAFT
100
AcDbLine
 62
7
  6
CONTINUOUS
 10
-212.3528399168
 20
-28.7650898701
 11
-221.9117447457
 21
-28.5982385657
  0
LINE
  5
313
100
AcDbEntity
  8
DRAFT
100
AcDbLine
 62
7
  6
CONTINUOUS
 10
-216.8528399168
 20
-83.4214522078
 11
-216.8528399168
 21
-84.5
  0
LINE
  5
314
100
AcDbEntity
  8
DRAFT
100
AcDbLine
 62
7
  6
CONTINUOUS
 10
-216.8528399168
 20
83.4214522078
 11
-216.8528399168
 21
84.5
  0
LINE
  5
315
100
AcDbEntity
  8
DRAFT
100
AcDbLine
 62
7
  6
CONTINUOUS
 10
-212.3528399168
 20
-83.5
 11
-212.3528399168
 21
83.5
  0
LINE
  5
316
100
AcDbEntity
  8
RACCORDO
100
AcDbLine
 62
7
  6
CONTINUOUS
 10
-155.8528399168
 20
-21.8
 11
-205.2790185265
 21
-22.6627371568
  0
LINE
  5
317
100
AcDbEntity
  8
RACCORDO
100
AcDbLine
 62
7
  6
CONTINUOUS
 10
-155.8528399168
 20
-20.2
 11
-205.2790185265
 21
-19.3372628432
  0
LINE
  5
318
100
AcDbEntity
  8
RACCORDO
100
AcDbLine
 62
253
  6
CONTINUOUS
 10
-209.3353875104
 20
83.4473301723
 11
-209.3353875104
 21
-83.4473301723
  0
LINE
  5
319
100
AcDbEntity
  8
RACCORDO
100
AcDbLine
 62
7
  6
CONTINUOUS
 10
-208.3528399168
 20
82.4474824772
 11
-208.3528399168
 21
-82.4474824772
  0
LINE
  5
31A
100
AcDbEntity
  8
SMUSSO
100
AcDbLine
 62
7
  6
CONTINUOUS
 10
-207.8529160693
 20
43.7052354833
 11
-207.8529160693
 21
40.2947645167
  0
LINE
  5
31B
100
AcDbEntity
  8
SMUSSO
100
AcDbLine
 62
7
  6
CONTINUOUS
 10
-207.8529160693
 20
1.7052354833
 11
-207.8529160693
 21
-1.7052354833
  0
LINE
  5
31C
100
AcDbEntity
  8
SMUSSO
100
AcDbLine
 62
7
  6
CONTINUOUS
 10
-207.8529160693
 20
-40.2947645167
 11
-207.8529160693
 21
-43.7052354833
  0
LINE
  5
31D
100
AcDbEntity
  8
RACCORDO
100
AcDbLine
 62
7
  6
CONTINUOUS
 10
-206.7528399168
 20
59.8374913005
 11
-206.7528399168
 21
44.0
  0
LINE
  5
31E
100
AcDbEntity
  8
RACCORDO
100
AcDbLine
 62
7
  6
CONTINUOUS
 10
-206.7528399168
 20
40.0
 11
-206.7528399168
 21
24.1625086995
  0
LINE
  5
31F
100
AcDbEntity
  8
RACCORDO
100
AcDbLine
 62
7
  6
CONTINUOUS
 10
-206.7528399168
 20
17.8374913005
 11
-206.7528399168
 21
2.0
  0
LINE
  5
320
100
AcDbEntity
  8
RACCORDO
100
AcDbLine
 62
7
  6
CONTINUOUS
 10
-206.7528399168
 20
-2.0
 11
-206.7528399168
 21
-17.8374913005
  0
LINE
  5
321
100
AcDbEntity
  8
RACCORDO
100
AcDbLine
 62
7
  6
CONTINUOUS
 10
-206.7528399168
 20
-24.1625086995
 11
-206.7528399168
 21
-40.0
  0
LINE
  5
322
100
AcDbEntity
  8
RACCORDO
100
AcDbLine
 62
7
  6
CONTINUOUS
 10
-206.7528399168
 20
-44.0
 11
-206.7528399168
 21
-59.8374913005
  0
LINE
  5
323
100
AcDbEntity
  8
SMUSSO
100
AcDbLine
 62
7
  6
CONTINUOUS
 10
-206.7528399168
 20
-2.0
 11
-208.3528399168
 21
-1.5712812921
  0
LINE
  5
324
100
AcDbEntity
  8
DRAFT
100
AcDbLine
 62
7
  6
CONTINUOUS
 10
-212.3528399168
 20
-0.6650898701
 11
-221.9117447457
 21
-0.4982385657
  0
LINE
  5
325
100
AcDbEntity
  8
SMUSSO
100
AcDbLine
 62
7
  6
CONTINUOUS
 10
-208.3528399168
 20
1.5712812921
 11
-206.7528399168
 21
2.0
  0
LINE
  5
326
100
AcDbEntity
  8
DRAFT
100
AcDbLine
 62
7
  6
CONTINUOUS
 10
-212.3528399168
 20
0.6650898701
 11
-221.9117447457
 21
0.4982385657
  0
LINE
  5
327
100
AcDbEntity
  8
SMUSSO
100
AcDbLine
 62
7
  6
CONTINUOUS
 10
-176.3528399168
 20
-22.157828831
 11
-176.3528399168
 21
-19.842171169
  0
LINE
  5
328
100
AcDbEntity
  8
SMUSSO
100
AcDbLine
 62
7
  6
CONTINUOUS
 10
-176.3528399168
 20
19.842171169
 11
-176.3528399168
 21
22.157828831
  0
LINE
  5
329
100
AcDbEntity
  8
RACCORDO
100
AcDbLine
 62
7
  6
CONTINUOUS
 10
-155.8528399168
 20
20.2
 11
-205.2790185265
 21
19.3372628432
  0
LINE
  5
32A
100
AcDbEntity
  8
RACCORDO
100
AcDbLine
 62
7
  6
CONTINUOUS
 10
-155.8528399168
 20
21.8
 11
-205.2790185265
 21
22.6627371568
  0
LINE
  5
32B
100
AcDbEntity
  8
RACCORDO
100
AcDbLine
 62
7
  6
CONTINUOUS
 10
-161.8528399168
 20
-63.8523612067
 11
-161.8528399168
 21
-62.0952696104
  0
LINE
  5
32C
100
AcDbEntity
  8
RACCORDO
100
AcDbLine
 62
7
  6
CONTINUOUS
 10
-161.8528399168
 20
-21.9047303896
 11
-161.8528399168
 21
-20.0952696104
  0
LINE
  5
32D
100
AcDbEntity
  8
RACCORDO
100
AcDbLine
 62
7
  6
CONTINUOUS
 10
-161.8528399168
 20
20.0952696104
 11
-161.8528399168
 21
21.9047303896
  0
LINE
  5
32E
100
AcDbEntity
  8
RACCORDO
100
AcDbLine
 62
7
  6
CONTINUOUS
 10
-161.8528399168
 20
62.0952696104
 11
-161.8528399168
 21
63.8523612067
  0
LINE
  5
32F
100
AcDbEntity
  8
DRAFT
100
AcDbLine
 62
7
  6
CONTINUOUS
 10
-212.3528399168
 20
28.7650898701
 11
-221.9117447457
 21
28.5982385657
  0
LINE
  5
330
100
AcDbEntity
  8
DRAFT
100
AcDbLine
 62
7
  6
CONTINUOUS
 10
-212.3528399168
 20
27.4349101299
 11
-221.9117447457
 21
27.6017614343
  0
LINE
  5
331
100
AcDbEntity
  8
RACCORDO
100
AcDbLine
 62
7
  6
CONTINUOUS
 10
-154.3543713703
 20
-67.6491661397
 11
-154.3528399168
 21
-67.6794403322
  0
LINE
  5
332
100
AcDbEntity
  8
DRAFT
100
AcDbLine
 62
7
  6
CONTINUOUS
 10
-158.6528399168
 20
-63.8244352298
 11
-158.6528399168
 21
-62.1511258182
  0
LINE
  5
333
100
AcDbEntity
  8
DRAFT
100
AcDbLine
 62
7
  6
CONTINUOUS
 10
-158.6528399168
 20
-21.8488741818
 11
-158.6528399168
 21
-20.1511258182
  0
LINE
  5
334
100
AcDbEntity
  8
DRAFT
100
AcDbLine
 62
7
  6
CONTINUOUS
 10
-158.6528399168
 20
20.1511258182
 11
-158.6528399168
 21
21.8488741818
  0
LINE
  5
335
100
AcDbEntity
  8
DRAFT
100
AcDbLine
 62
7
  6
CONTINUOUS
 10
-158.6528399168
 20
62.1511258182
 11
-158.6528399168
 21
63.8244352298
  0
LINE
  5
336
100
AcDbEntity
  8
RACCORDO
100
AcDbLine
 62
253
  6
CONTINUOUS
 10
-158.1520545196
 20
72.07553395
 11
-158.1520545196
 21
71.359209789
  0
LINE
  5
337
100
AcDbEntity
  8
RACCORDO
100
AcDbLine
 62
253
  6
CONTINUOUS
 10
-158.1520545196
 20
-71.359209789
 11
-158.1520545196
 21
-72.07553395
  0
LINE
  5
338
100
AcDbEntity
  8
RACCORDO
100
AcDbLine
 62
253
  6
CONTINUOUS
 10
-158.1476041949
 20
73.8443833119
 11
-158.1476041949
 21
72.0754872599
  0
LINE
  5
339
100
AcDbEntity
  8
RACCORDO
100
AcDbLine
 62
253
  6
CONTINUOUS
 10
-158.1476041949
 20
70.4046826071
 11
-158.1476041949
 21
65.7685627
  0
LINE
  5
33A
100
AcDbEntity
  8
RACCORDO
100
AcDbLine
 62
253
  6
CONTINUOUS
 10
-158.1476041949
 20
-65.7685627
 11
-158.1476041949
 21
-70.4046826071
  0
LINE
  5
33B
100
AcDbEntity
  8
RACCORDO
100
AcDbLine
 62
253
  6
CONTINUOUS
 10
-158.1476041949
 20
-72.0754872599
 11
-158.1476041949
 21
-73.8443833119
  0
LINE
  5
33C
100
AcDbEntity
  8
RACCORDO
100
AcDbLine
 62
7
  6
CONTINUOUS
 10
-157.8528399168
 20
73.5444290033
 11
-157.8528399168
 21
71.7834724038
  0
LINE
  5
33D
100
AcDbEntity
  8
RACCORDO
100
AcDbLine
 62
7
  6
CONTINUOUS
 10
-157.8528399168
 20
69.9804598125
 11
-157.8528399168
 21
65.7677910071
  0
LINE
  5
33E
100
AcDbEntity
  8
RACCORDO
100
AcDbLine
 62
7
  6
CONTINUOUS
 10
-157.8528399168
 20
-65.7677910071
 11
-157.8528399168
 21
-69.9804598125
  0
LINE
  5
33F
100
AcDbEntity
  8
RACCORDO
100
AcDbLine
 62
7
  6
CONTINUOUS
 10
-157.8528399168
 20
-71.7834724038
 11
-157.8528399168
 21
-73.5444290033
  0
LINE
  5
340
100
AcDbEntity
  8
RACCORDO
100
AcDbLine
 62
253
  6
CONTINUOUS
 10
-157.7917564943
 20
65.7676310907
 11
-157.7917564943
 21
63.8169206686
  0
LINE
  5
341
100
AcDbEntity
  8
RACCORDO
100
AcDbLine
 62
253
  6
CONTINUOUS
 10
-157.7917564943
 20
62.1661560852
 11
-157.7917564943
 21
21.8338439148
  0
LINE
  5
342
100
AcDbEntity
  8
RACCORDO
100
AcDbLine
 62
253
  6
CONTINUOUS
 10
-157.7917564943
 20
20.1661560852
 11
-157.7917564943
 21
-20.1661560852
  0
LINE
  5
343
100
AcDbEntity
  8
RACCORDO
100
AcDbLine
 62
253
  6
CONTINUOUS
 10
-157.7917564943
 20
-21.8338439148
 11
-157.7917564943
 21
-62.1661560852
  0
LINE
  5
344
100
AcDbEntity
  8
RACCORDO
100
AcDbLine
 62
253
  6
CONTINUOUS
 10
-157.7917564943
 20
-63.8169206686
 11
-157.7917564943
 21
-65.7676310907
  0
LINE
  5
345
100
AcDbEntity
  8
RACCORDO
100
AcDbLine
 62
7
  6
CONTINUOUS
 10
-155.8528399168
 20
63.8
 11
-155.8528399168
 21
62.2
  0
LINE
  5
346
100
AcDbEntity
  8
RACCORDO
100
AcDbLine
 62
7
  6
CONTINUOUS
 10
-155.8528399168
 20
21.8
 11
-155.8528399168
 21
20.2
  0
LINE
  5
347
100
AcDbEntity
  8
RACCORDO
100
AcDbLine
 62
7
  6
CONTINUOUS
 10
-155.8528399168
 20
-20.2
 11
-155.8528399168
 21
-21.8
  0
LINE
  5
348
100
AcDbEntity
  8
RACCORDO
100
AcDbLine
 62
7
  6
CONTINUOUS
 10
-155.8528399168
 20
-62.2
 11
-155.8528399168
 21
-63.8
  0
LINE
  5
349
100
AcDbEntity
  8
RACCORDO
100
AcDbLine
 62
253
  6
CONTINUOUS
 10
-154.6520545196
 20
70.5194716984
 11
-154.6520545196
 21
65.7594113514
  0
LINE
  5
34A
100
AcDbEntity
  8
RACCORDO
100
AcDbLine
 62
253
  6
CONTINUOUS
 10
-154.6520545196
 20
-65.7594113514
 11
-154.6520545196
 21
-70.5194716984
  0
LINE
  5
34B
100
AcDbEntity
  8
RACCORDO
100
AcDbLine
 62
7
  6
CONTINUOUS
 10
-154.3528399168
 20
70.3387050341
 11
-154.3528399168
 21
-70.3387050341
  0
LINE
  5
34C
100
AcDbEntity
  8
RACCORDO
100
AcDbLine
 62
7
  6
CONTINUOUS
 10
-154.3543713703
 20
67.6491661397
 11
-154.3528399168
 21
67.6794403322
  0
LINE
  5
34D
100
AcDbEntity
  8
SMUSSO
100
AcDbLine
 62
7
  6
CONTINUOUS
 10
-206.7528399168
 20
40.0
 11
-208.3528399168
 21
40.4287187079
  0
LINE
  5
34E
100
AcDbEntity
  8
SMUSSO
100
AcDbLine
 62
7
  6
CONTINUOUS
 10
-208.3528399168
 20
-75.2207189611
 11
-207.8529160693
 21
-74.7119927579
  0
LINE
  5
34F
100
AcDbEntity
  8
SMUSSO
100
AcDbLine
 62
7
  6
CONTINUOUS
 10
-207.8529160693
 20
74.7119927579
 11
-208.3528399168
 21
75.2207189611
  0
LINE
  5
350
100
AcDbEntity
  8
SMUSSO
100
AcDbLine
 62
7
  6
CONTINUOUS
 10
-208.3528399168
 20
43.5712812921
 11
-206.7528399168
 21
44.0
  0
LINE
  5
351
100
AcDbEntity
  8
DRAFT
100
AcDbLine
 62
7
  6
CONTINUOUS
 10
-212.3528399168
 20
56.8650898701
 11
-221.9117447457
 21
56.6982385657
  0
LINE
  5
352
100
AcDbEntity
  8
DRAFT
100
AcDbLine
 62
7
  6
CONTINUOUS
 10
-212.3528399168
 20
55.5349101299
 11
-221.9117447457
 21
55.7017614343
  0
LINE
  5
353
100
AcDbEntity
  8
RACCORDO
100
AcDbLine
 62
7
  6
CONTINUOUS
 10
-208.3528399168
 20
57.8924633827
 11
-206.7528399168
 21
57.6103402135
  0
LINE
  5
354
100
AcDbEntity
  8
RACCORDO
100
AcDbLine
 62
7
  6
CONTINUOUS
 10
-155.8528399168
 20
62.2
 11
-205.2790185265
 21
61.3372628432
  0
LINE
  5
355
100
AcDbEntity
  8
RACCORDO
100
AcDbLine
 62
253
  6
CONTINUOUS
 10
-161.8528399168
 20
63.6498109538
 11
-158.6507674439
 21
63.7057033367
  0
LINE
  5
356
100
AcDbEntity
  8
RACCORDO
100
AcDbLine
 62
253
  6
CONTINUOUS
 10
-208.3528399168
 20
61.5
 11
-212.3528399168
 21
61.5
  0
LINE
  5
357
100
AcDbEntity
  8
RACCORDO
100
AcDbLine
 62
7
  6
CONTINUOUS
 10
-155.8528399168
 20
63.8
 11
-208.3528399168
 21
64.258160559
  0
LINE
  5
358
100
AcDbEntity
  8
RACCORDO
100
AcDbLine
 62
7
  6
CONTINUOUS
 10
-208.3528399168
 20
71.1733458536
 11
-158.1520545196
 21
71.359209789
  0
LINE
  5
359
100
AcDbEntity
  8
DRAFT
100
AcDbLine
 62
253
  6
CONTINUOUS
 10
-212.3528399168
 20
68.0
 11
-224.3528399168
 21
68.0
  0
LINE
  5
35A
100
AcDbEntity
  8
RACCORDO
100
AcDbLine
 62
7
  6
CONTINUOUS
 10
-167.1930068752
 20
70.5330712457
 11
-154.6520545196
 21
70.5194716984
  0
LINE
  5
35B
100
AcDbEntity
  8
RACCORDO
100
AcDbLine
 62
7
  6
CONTINUOUS
 10
-154.3528399168
 20
65.7586280076
 11
-158.1476041949
 21
65.7685627
  0
LINE
  5
35C
100
AcDbEntity
  8
DRAFT
100
AcDbLine
 62
7
  6
CONTINUOUS
 10
-157.8528399168
 20
69.1066437188
 11
-154.6520545196
 21
69.0982640631
  0
LINE
  5
35D
100
AcDbEntity
  8
RACCORDO
100
AcDbLine
 62
7
  6
CONTINUOUS
 10
-208.3528399168
 20
68.9987766662
 11
-158.1476041949
 21
68.6357865551
  0
LINE
  5
35E
100
AcDbEntity
  8
RACCORDO
100
AcDbLine
 62
7
  6
CONTINUOUS
 10
-158.1520545196
 20
70.4047457741
 11
-208.3528399168
 21
71.1172856934
  0
LINE
  5
35F
100
AcDbEntity
  8
DRAFT
100
AcDbLine
 62
7
  6
CONTINUOUS
 10
-212.3528399168
 20
77.2094607791
 11
-224.3528399168
 21
77.0
  0
LINE
  5
360
100
AcDbEntity
  8
RACCORDO
100
AcDbLine
 62
7
  6
CONTINUOUS
 10
-158.1520545196
 20
72.07553395
 11
-208.3528399168
 21
72.6022099339
  0
LINE
  5
361
100
AcDbEntity
  8
RACCORDO
100
AcDbLine
 62
7
  6
CONTINUOUS
 10
-208.3528399168
 20
74.7207189611
 11
-157.7917564943
 21
73.8381719672
  0
LINE
  5
362
100
AcDbEntity
  8
RACCORDO
100
AcDbLine
 62
253
  6
CONTINUOUS
 10
-212.3528399168
 20
82.5001523048
 11
-223.3702923233
 21
82.3078419577
  0
LINE
  5
363
100
AcDbEntity
  8
RACCORDO
100
AcDbLine
 62
7
  6
CONTINUOUS
 10
-212.3528399168
 20
83.5
 11
-223.3702923233
 21
83.3076896529
  0
LINE
  5
364
100
AcDbEntity
  8
RACCORDO
100
AcDbLine
 62
253
  6
CONTINUOUS
 10
-224.3528399168
 20
79.5
 11
-230.0528399168
 21
79.5
  0
LINE
  5
365
100
AcDbEntity
  8
RACCORDO
100
AcDbLine
 62
253
  6
CONTINUOUS
 10
-223.3702923233
 20
82.3078419577
 11
-224.3528399168
 21
82.3078419577
  0
LINE
  5
366
100
AcDbEntity
  8
DRAFT
100
AcDbLine
 62
7
  6
CONTINUOUS
 10
-221.6528399168
 20
84.5
 11
-216.8528399168
 21
84.5
  0
LINE
  5
367
100
AcDbEntity
  8
RACCORDO
100
AcDbLine
 62
7
  6
CONTINUOUS
 10
-209.3353875104
 20
83.4473301723
 11
-212.3528399168
 21
83.5
  0
LINE
  5
368
100
AcDbEntity
  8
RACCORDO
100
AcDbLine
 62
7
  6
CONTINUOUS
 10
-224.3528399168
 20
89.5
 11
-228.0528399168
 21
89.5
  0
ARC
  5
369
100
AcDbEntity
  8
0
100
AcDbCircle
 62
7
  6
CONTINUOUS
 10
-77.3559837132
 20
-69.5
 40
14.5900727153
100
AcDbArc
 50
178.6254046104
 51
181.3745953896
  0
ARC
  5
36A
100
AcDbEntity
  8
0
100
AcDbCircle
 62
7
  6
CONTINUOUS
 10
-102.6440162868
 20
-69.5
 40
14.5900727153
100
AcDbArc
 50
358.6254046104
 51
1.3745953896
  0
ARC
  5
36B
100
AcDbEntity
  8
RACCORDO
100
AcDbCircle
 62
7
  6
CONTINUOUS
 10
-100.0
 20
-79.5
 40
10.0
100
AcDbArc
 50
179.9999999669
 51
270.0000000502
  0
ARC
  5
36C
100
AcDbEntity
  8
CURVE
100
AcDbCircle
 62
7
  6
CONTINUOUS
 10
-100.0
 20
-79.5
 40
10.0
100
AcDbArc
 50
180.0
 51
270.0
  0
ARC
  5
36D
100
AcDbEntity
  8
RACCORDO
100
AcDbCircle
 62
253
  6
CONTINUOUS
 10
-100.0
 20
-79.5
 40
7.9999983848
100
AcDbArc
 50
180.0
 51
270.0
  0
CIRCLE
  5
36E
100
AcDbEntity
  8
0
100
AcDbCircle
 62
7
  6
CONTINUOUS
 10
-90.0
 20
-69.5
 40
3.0
  0
CIRCLE
  5
36F
100
AcDbEntity
  8
0
100
AcDbCircle
 62
7
  6
CONTINUOUS
 10
-90.0
 20
-69.5
 40
2.75
  0
ARC
  5
370
100
AcDbEntity
  8
0
100
AcDbCircle
 62
7
  6
CONTINUOUS
 10
-77.3559837132
 20
69.5
 40
14.5900727153
100
AcDbArc
 50
178.6254046104
 51
181.3745953896
  0
ARC
  5
371
100
AcDbEntity
  8
0
100
AcDbCircle
 62
7
  6
CONTINUOUS
 10
-102.6440162868
 20
69.5
 40
14.5900727153
100
AcDbArc
 50
358.6254046104
 51
1.3745953896
  0
ARC
  5
372
100
AcDbEntity
  8
RACCORDO
100
AcDbCircle
 62
7
  6
CONTINUOUS
 10
-100.0
 20
79.5
 40
10.0
100
AcDbArc
 50
89.9999999669
 51
180.0000000502
  0
ARC
  5
373
100
AcDbEntity
  8
CURVE
100
AcDbCircle
 62
7
  6
CONTINUOUS
 10
-100.0
 20
79.5
 40
10.0
100
AcDbArc
 50
90.0
 51
180.0
  0
ARC
  5
374
100
AcDbEntity
  8
RACCORDO
100
AcDbCircle
 62
253
  6
CONTINUOUS
 10
-100.0
 20
79.5
 40
7.9999983848
100
AcDbArc
 50
90.0
 51
180.0
  0
CIRCLE
  5
375
100
AcDbEntity
  8
0
100
AcDbCircle
 62
7
  6
CONTINUOUS
 10
-90.0
 20
69.5
 40
3.0
  0
CIRCLE
  5
376
100
AcDbEntity
  8
0
100
AcDbCircle
 62
7
  6
CONTINUOUS
 10
-90.0
 20
69.5
 40
2.75
  0
ARC
  5
377
100
AcDbEntity
  8
0
100
AcDbCircle
 62
7
  6
CONTINUOUS
 10
102.6440162868
 20
-69.5
 40
14.5900727153
100
AcDbArc
 50
178.6254046104
 51
181.3745953896
  0
ARC
  5
378
100
AcDbEntity
  8
0
100
AcDbCircle
 62
7
  6
CONTINUOUS
 10
77.3559837132
 20
-69.5
 40
14.5900727153
100
AcDbArc
 50
358.6254046104
 51
1.3745953896
  0
ARC
  5
379
100
AcDbEntity
  8
RACCORDO
100
AcDbCircle
 62
7
  6
CONTINUOUS
 10
100.0
 20
-79.5
 40
10.0
100
AcDbArc
 50
269.9999999669
 51
360.0
  0
ARC
  5
37A
100
AcDbEntity
  8
CURVE
100
AcDbCircle
 62
7
  6
CONTINUOUS
 10
100.0
 20
-79.5
 40
10.0
100
AcDbArc
 50
270.0
 51
360.0
  0
ARC
  5
37B
100
AcDbEntity
  8
RACCORDO
100
AcDbCircle
 62
253
  6
CONTINUOUS
 10
100.0
 20
-79.5
 40
7.9999983848
100
AcDbArc
 50
270.0
 51
360.0
  0
CIRCLE
  5
37C
100
AcDbEntity
  8
0
100
AcDbCircle
 62
7
  6
CONTINUOUS
 10
90.0
 20
-69.5
 40
3.0
  0
CIRCLE
  5
37D
100
AcDbEntity
  8
0
100
AcDbCircle
 62
7
  6
CONTINUOUS
 10
90.0
 20
-69.5
 40
2.75
  0
ARC
  5
37E
100
AcDbEntity
  8
0
100
AcDbCircle
 62
7
  6
CONTINUOUS
 10
102.6440162868
 20
69.5
 40
14.5900727153
100
AcDbArc
 50
178.6254046104
 51
181.3745953896
  0
ARC
  5
37F
100
AcDbEntity
  8
0
100
AcDbCircle
 62
7
  6
CONTINUOUS
 10
77.3559837132
 20
69.5
 40
14.5900727153
100
AcDbArc
 50
358.6254046104
 51
1.3745953896
  0
ARC
  5
380
100
AcDbEntity
  8
RACCORDO
100
AcDbCircle
 62
7
  6
CONTINUOUS
 10
100.0
 20
79.5
 40
10.0
100
AcDbArc
 50
0.0
 51
90.0000000502
  0
ARC
  5
381
100
AcDbEntity
  8
CURVE
100
AcDbCircle
 62
7
  6
CONTINUOUS
 10
100.0
 20
79.5
 40
10.0
100
AcDbArc
 50
0.0
 51
90.0
  0
ARC
  5
382
100
AcDbEntity
  8
RACCORDO
100
AcDbCircle
 62
253
  6
CONTINUOUS
 10
100.0
 20
79.5
 40
7.9999983848
100
AcDbArc
 50
0.0
 51
90.0
  0
CIRCLE
  5
383
100
AcDbEntity
  8
0
100
AcDbCircle
 62
7
  6
CONTINUOUS
 10
90.0
 20
69.5
 40
3.0
  0
CIRCLE
  5
384
100
AcDbEntity
  8
0
100
AcDbCircle
 62
7
  6
CONTINUOUS
 10
90.0
 20
69.5
 40
2.75
  0
ARC
  5
385
100
AcDbEntity
  8
RACCORDO
100
AcDbCircle
 62
7
  6
CONTINUOUS
 10
-157.8528399168
 20
70.3387050341
 40
3.5
100
AcDbArc
 50
0.0
 51
89.0
  0
ARC
  5
386
100
AcDbEntity
  8
RACCORDO
100
AcDbCircle
 62
7
  6
CONTINUOUS
 10
-157.8528399168
 20
-70.3387050341
 40
3.5
100
AcDbArc
 50
271.0
 51
360.0
  0
ARC
  5
387
100
AcDbEntity
  8
RACCORDO
100
AcDbCircle
 62
7
  6
CONTINUOUS
 10
-228.0528399168
 20
87.5
 40
2.0
100
AcDbArc
 50
90.0
 51
180.0
  0
ARC
  5
388
100
AcDbEntity
  8
RACCORDO
100
AcDbCircle
 62
7
  6
CONTINUOUS
 10
-228.0528399168
 20
-87.5
 40
2.0
100
AcDbArc
 50
180.0
 51
270.0
  0
ARC
  5
389
100
AcDbEntity
  8
RACCORDO
100
AcDbCircle
 62
7
  6
CONTINUOUS
 10
-205.2528399168
 20
-59.8374913005
 40
1.5
100
AcDbArc
 50
180.0
 51
269.0
  0
ARC
  5
38A
100
AcDbEntity
  8
RACCORDO
100
AcDbCircle
 62
7
  6
CONTINUOUS
 10
-205.2528399168
 20
-24.1625086995
 40
1.5
100
AcDbArc
 50
91.0
 51
180.0
  0
ARC
  5
38B
100
AcDbEntity
  8
RACCORDO
100
AcDbCircle
 62
7
  6
CONTINUOUS
 10
-205.2528399168
 20
-17.8374913005
 40
1.5
100
AcDbArc
 50
180.0
 51
269.0
  0
ARC
  5
38C
100
AcDbEntity
  8
RACCORDO
100
AcDbCircle
 62
7
  6
CONTINUOUS
 10
-205.2528399168
 20
17.8374913005
 40
1.5
100
AcDbArc
 50
91.0
 51
180.0
  0
ARC
  5
38D
100
AcDbEntity
  8
RACCORDO
100
AcDbCircle
 62
7
  6
CONTINUOUS
 10
-205.2528399168
 20
24.1625086995
 40
1.5
100
AcDbArc
 50
180.0
 51
269.0
  0
ARC
  5
38E
100
AcDbEntity
  8
RACCORDO
100
AcDbCircle
 62
7
  6
CONTINUOUS
 10
-205.2528399168
 20
59.8374913005
 40
1.5
100
AcDbArc
 50
91.0
 51
180.0
  0
ARC
  5
38F
100
AcDbEntity
  8
RACCORDO
100
AcDbCircle
 62
7
  6
CONTINUOUS
 10
-209.3528399168
 20
82.4474824772
 40
1.0
100
AcDbArc
 50
0.0
 51
89.0
  0
ARC
  5
390
100
AcDbEntity
  8
RACCORDO
100
AcDbCircle
 62
7
  6
CONTINUOUS
 10
-223.3528399168
 20
82.3078419577
 40
1.0
100
AcDbArc
 50
91.0
 51
180.0
  0
ARC
  5
391
100
AcDbEntity
  8
RACCORDO
100
AcDbCircle
 62
7
  6
CONTINUOUS
 10
-223.3528399168
 20
-82.3078419577
 40
1.0
100
AcDbArc
 50
180.0
 51
269.0
  0
ARC
  5
392
100
AcDbEntity
  8
RACCORDO
100
AcDbCircle
 62
7
  6
CONTINUOUS
 10
-209.3528399168
 20
-82.4474824772
 40
1.0
100
AcDbArc
 50
271.0
 51
360.0
  0
ARC
  5
393
100
AcDbEntity
  8
RACCORDO
100
AcDbCircle
 62
7
  6
CONTINUOUS
 10
-154.6528399168
 20
-68.7982650912
 40
0.3
100
AcDbArc
 50
270.15
 51
360.0
  0
ARC
  5
394
100
AcDbEntity
  8
RACCORDO
100
AcDbCircle
 62
7
  6
CONTINUOUS
 10
-154.6528399168
 20
68.7982650912
 40
0.3
100
AcDbArc
 50
0.0
 51
89.85
  0
ARC
  5
395
100
AcDbEntity
  8
RACCORDO
100
AcDbCircle
 62
7
  6
CONTINUOUS
 10
-158.1528399168
 20
-73.5444290033
 40
0.3
100
AcDbArc
 50
271.0
 51
360.0
  0
ARC
  5
396
100
AcDbEntity
  8
RACCORDO
100
AcDbCircle
 62
7
  6
CONTINUOUS
 10
-158.1528399168
 20
73.5444290033
 40
0.3
100
AcDbArc
 50
0.0
 51
89.0
  0
SPLINE
  5
397
100
AcDbEntity
  8
RACCORDO
100
AcDbSpline
 62
7
  6
CONTINUOUS
 70
0
 71
3
 72
9
 73
5
 74
3
 42
0.0000001
 43
0.0000001
 44
0.0000000001
 12
0.248677338
 22
0.0035296765
 32
0.0
 13
0.1434064166
 23
0.2055900459
 33
0.0
 40
0.0
 40
0.0
 40
0.0
 40
0.0
 40
0.7529546321
 40
1.0
 40
1.0
 40
1.0
 40
1.0
 10
-158.1476041949
 20
-70.4046826071
 30
0.0
 10
-158.0851899437
 20
-70.4037967117
 30
0.0
 10
-158.0035738316
 20
-70.359223635
 30
0.0
 10
-157.9497231244
 20
-70.2944985034
 30
0.0
 10
-157.9379138275
 20
-70.2775684806
 30
0.0
 11
-158.1476041949
 21
-70.4046826071
 31
0.0
 11
-157.9780248219
 21
-70.3252486829
 31
0.0
 11
-157.9379138275
 21
-70.2775684806
 31
0.0
  0
SPLINE
  5
398
100
AcDbEntity
  8
RACCORDO
100
AcDbSpline
 62
7
  6
CONTINUOUS
 70
0
 71
3
 72
9
 73
5
 74
3
 42
0.0000001
 43
0.0000001
 44
0.0000000001
 12
0.1798768227
 22
0.2578746832
 32
0.0
 13
0.0
 23
0.3119511398
 33
0.0
 40
0.0
 40
0.0
 40
0.0
 40
0.0
 40
0.4025036715
 40
1.0
 40
1.0
 40
1.0
 40
1.0
 10
-157.9379138275
 20
-70.2775684806
 30
0.0
 10
-157.9137801336
 20
-70.2429699783
 30
0.0
 10
-157.8693257356
 20
-70.1472585364
 30
0.0
 10
-157.8528399168
 20
-70.0425896994
 30
0.0
 10
-157.8528399168
 20
-69.9804598125
 30
0.0
 11
-157.9379138275
 21
-70.2775684806
 31
0.0
 11
-157.8825251841
 21
-70.1644703843
 31
0.0
 11
-157.8528399168
 21
-69.9804598125
 31
0.0
  0
SPLINE
  5
399
100
AcDbEntity
  8
RACCORDO
100
AcDbSpline
 62
7
  6
CONTINUOUS
 70
0
 71
3
 72
9
 73
5
 74
3
 42
0.0000001
 43
0.0000001
 44
0.0000000001
 12
0.2517473627
 22
-0.0009320722
 32
0.0
 13
0.1457899683
 23
-0.2076452714
 33
0.0
 40
0.0
 40
0.0
 40
0.0
 40
0.0
 40
0.7535415906
 40
1.0
 40
1.0
 40
1.0
 40
1.0
 10
-158.1520545196
 20
-71.359209789
 30
0.0
 10
-158.0888204835
 20
-71.3594439074
 30
0.0
 10
-158.0052930535
 20
-71.4030881788
 30
0.0
 10
-157.9504764752
 20
-71.4682846249
 30
0.0
 10
-157.9384994206
 20
-71.485343266
 30
0.0
 11
-158.1520545196
 21
-71.359209789
 31
0.0
 11
-157.9792404359
 21
-71.4374573168
 31
0.0
 11
-157.9384994206
 21
-71.485343266
 31
0.0
  0
SPLINE
  5
39A
100
AcDbEntity
  8
RACCORDO
100
AcDbSpline
 62
7
  6
CONTINUOUS
 70
0
 71
3
 72
9
 73
5
 74
3
 42
0.0000001
 43
0.0000001
 44
0.0000000001
 12
0.1812748943
 22
-0.2581856288
 32
0.0
 13
0.0
 23
-0.313024208
 33
0.0
 40
0.0
 40
0.0
 40
0.0
 40
0.0
 40
0.4035676194
 40
1.0
 40
1.0
 40
1.0
 40
1.0
 10
-157.9384994206
 20
-71.485343266
 30
0.0
 10
-157.9141138614
 20
-71.5200750525
 30
0.0
 10
-157.8694351655
 20
-71.6163104732
 30
0.0
 10
-157.8528399168
 20
-71.7212398126
 30
0.0
 10
-157.8528399168
 20
-71.7834724038
 30
0.0
 11
-157.9384994206
 21
-71.485343266
 31
0.0
 11
-157.8826259734
 21
-71.5991660027
 31
0.0
 11
-157.8528399168
 21
-71.7834724038
 31
0.0
  0
SPLINE
  5
39B
100
AcDbEntity
  8
RACCORDO
100
AcDbSpline
 62
7
  6
CONTINUOUS
 70
0
 71
3
 72
9
 73
5
 74
3
 42
0.0000001
 43
0.0000001
 44
0.0000000001
 12
0.2528667251
 22
-0.0035891398
 32
0.0
 13
0.1458038672
 23
-0.2089746774
 33
0.0
 40
0.0
 40
0.0
 40
0.0
 40
0.0
 40
0.7540194588
 40
1.0
 40
1.0
 40
1.0
 40
1.0
 10
-158.1520545196
 20
70.4047457741
 30
0.0
 10
-158.0884990425
 20
70.4038436804
 30
0.0
 10
-158.0046261674
 20
70.3603870243
 30
0.0
 10
-157.9497604197
 20
70.2948171162
 30
0.0
 10
-157.9378054483
 20
70.2776825482
 30
0.0
 11
-158.1520545196
 21
70.4047457741
 31
0.0
 11
-157.9785073499
 21
70.3257369653
 31
0.0
 11
-157.9378054483
 21
70.2776825482
 31
0.0
  0
SPLINE
  5
39C
100
AcDbEntity
  8
RACCORDO
100
AcDbSpline
 62
7
  6
CONTINUOUS
 70
0
 71
3
 72
9
 73
5
 74
3
 42
0.0000001
 43
0.0000001
 44
0.0000000001
 12
0.1797935857
 22
-0.2576907409
 32
0.0
 13
0.0
 23
-0.3118462871
 33
0.0
 40
0.0
 40
0.0
 40
0.0
 40
0.0
 40
0.4044956521
 40
1.0
 40
1.0
 40
1.0
 40
1.0
 10
-157.9378054483
 20
70.2776825482
 30
0.0
 10
-157.9135635404
 20
70.2429376201
 30
0.0
 10
-157.8692964995
 20
70.1468179491
 30
0.0
 10
-157.8528399168
 20
70.0423617525
 30
0.0
 10
-157.8528399168
 20
69.9804598125
 30
0.0
 11
-157.9378054483
 21
70.2776825482
 31
0.0
 11
-157.8823021456
 21
70.163813647
 31
0.0
 11
-157.8528399168
 21
69.9804598125
 31
0.0
  0
SPLINE
  5
39D
100
AcDbEntity
  8
RACCORDO
100
AcDbSpline
 62
7
  6
CONTINUOUS
 70
0
 71
3
 72
9
 73
5
 74
3
 42
0.0000001
 43
0.0000001
 44
0.0000000001
 12
0.2517473627
 22
0.0009320722
 32
0.0
 13
0.1457899683
 23
0.2076452714
 33
0.0
 40
0.0
 40
0.0
 40
0.0
 40
0.0
 40
0.7535415906
 40
1.0
 40
1.0
 40
1.0
 40
1.0
 10
-158.1520545196
 20
71.359209789
 30
0.0
 10
-158.0888204835
 20
71.3594439074
 30
0.0
 10
-158.0052930535
 20
71.4030881788
 30
0.0
 10
-157.9504764752
 20
71.4682846249
 30
0.0
 10
-157.9384994206
 20
71.485343266
 30
0.0
 11
-158.1520545196
 21
71.359209789
 31
0.0
 11
-157.9792404359
 21
71.4374573168
 31
0.0
 11
-157.9384994206
 21
71.485343266
 31
0.0
  0
SPLINE
  5
39E
100
AcDbEntity
  8
RACCORDO
100
AcDbSpline
 62
7
  6
CONTINUOUS
 70
0
 71
3
 72
9
 73
5
 74
3
 42
0.0000001
 43
0.0000001
 44
0.0000000001
 12
0.1812748943
 22
0.2581856288
 32
0.0
 13
0.0
 23
0.313024208
 33
0.0
 40
0.0
 40
0.0
 40
0.0
 40
0.0
 40
0.4035676194
 40
1.0
 40
1.0
 40
1.0
 40
1.0
 10
-157.9384994206
 20
71.485343266
 30
0.0
 10
-157.9141138614
 20
71.5200750525
 30
0.0
 10
-157.8694351655
 20
71.6163104732
 30
0.0
 10
-157.8528399168
 20
71.7212398126
 30
0.0
 10
-157.8528399168
 20
71.7834724038
 30
0.0
 11
-157.9384994206
 21
71.485343266
 31
0.0
 11
-157.8826259734
 21
71.5991660027
 31
0.0
 11
-157.8528399168
 21
71.7834724038
 31
0.0
  0
SPLINE
  5
39F
100
AcDbEntity
  8
RACCORDO
100
AcDbSpline
 62
253
  6
CONTINUOUS
 70
0
 71
3
 72
14
 73
10
 74
8
 42
0.0000001
 43
0.0000001
 44
0.0000000001
 12
-0.0174496626
 22
-0.9999950882
 32
0.0
 13
0.9999949955
 23
-0.0174549759
 33
0.0
 40
0.0
 40
0.0
 40
0.0
 40
0.0
 40
0.1706139764
 40
0.3530718614
 40
0.5389063219
 40
0.7156155361
 40
0.8646563194
 40
0.9646160569
 40
1.0
 40
1.0
 40
1.0
 40
1.0
 10
-223.3702923233
 20
-82.3078419577
 30
0.0
 10
-223.3712847087
 20
-82.3647130039
 30
0.0
 10
-223.3732211225
 20
-82.4824763926
 30
0.0
 10
-223.3752509632
 20
-82.6617873883
 30
0.0
 10
-223.3778531696
 20
-82.8447274805
 30
0.0
 10
-223.3751790368
 20
-83.0110461299
 30
0.0
 10
-223.3839742426
 20
-83.1648891699
 30
0.0
 10
-223.3634023334
 20
-83.235631762
 30
0.0
 10
-223.382086912
 20
-83.3074837776
 30
0.0
 10
-223.3702923233
 20
-83.3076896529
 30
0.0
 11
-223.3702923233
 21
-82.3078419577
 31
0.0
 11
-223.3730145335
 21
-82.4784593543
 31
0.0
 11
-223.3753293683
 21
-82.660929437
 31
0.0
 11
-223.3769440053
 21
-82.8467842616
 31
0.0
 11
-223.3775159424
 21
-83.0235185837
 31
0.0
 11
-223.3766919359
 21
-83.1725790465
 31
0.0
 11
-223.3742634702
 21
-83.2725240112
 31
0.0
 11
-223.3702923233
 21
-83.3076896529
 31
0.0
  0
SPLINE
  5
3A0
100
AcDbEntity
  8
RACCORDO
100
AcDbSpline
 62
7
  6
CONTINUOUS
 70
0
 71
3
 72
10
 73
6
 74
4
 42
0.0000001
 43
0.0000001
 44
0.0000000001
 12
0.3387843408
 22
0.002449453
 32
0.0
 13
0.0
 23
0.3387931956
 33
0.0
 40
0.0
 40
0.0
 40
0.0
 40
0.0
 40
0.454257619
 40
0.7937499604
 40
1.0
 40
1.0
 40
1.0
 40
1.0
 10
-158.1476041949
 20
-68.6357865551
 30
0.0
 10
-158.0963057389
 20
-68.6354156609
 30
0.0
 10
-158.0062581385
 20
-68.6240934114
 30
0.0
 10
-157.8989516214
 20
-68.5895076545
 30
0.0
 10
-157.8528399168
 20
-68.5348334491
 30
0.0
 10
-157.8528399168
 20
-68.5115414124
 30
0.0
 11
-158.1476041949
 21
-68.6357865551
 31
0.0
 11
-157.9948345201
 21
-68.6171734195
 31
0.0
 11
-157.8894717153
 21
-68.5710458836
 31
0.0
 11
-157.8528399168
 21
-68.5115414124
 31
0.0
  0
SPLINE
  5
3A1
100
AcDbEntity
  8
RACCORDO
100
AcDbSpline
 62
7
  6
CONTINUOUS
 70
0
 71
3
 72
10
 73
6
 74
4
 42
0.0000001
 43
0.0000001
 44
0.0000000001
 12
0.2991981385
 22
0.0031390042
 32
0.0
 13
0.2992155764
 23
-0.0001782702
 33
0.0
 40
0.0
 40
0.0
 40
0.0
 40
0.0
 40
0.580009026
 40
0.9015347904
 40
1.0
 40
1.0
 40
1.0
 40
1.0
 10
-158.1520545196
 20
-72.07553395
 30
0.0
 10
-158.0942086459
 20
-72.0749270664
 30
0.0
 10
-158.0042871955
 20
-72.0756591511
 30
0.0
 10
-157.9045498041
 20
-72.0755106032
 30
0.0
 10
-157.8626606916
 20
-72.0755047521
 30
0.0
 10
-157.8528399168
 20
-72.0755106032
 30
0.0
 11
-158.1520545196
 21
-72.07553395
 31
0.0
 11
-157.9785073499
 21
-72.0755106032
 31
0.0
 11
-157.8823021456
 21
-72.0755106032
 31
0.0
 11
-157.8528399168
 21
-72.0755106032
 31
0.0
  0
SPLINE
  5
3A2
100
AcDbEntity
  8
RACCORDO
100
AcDbSpline
 62
7
  6
CONTINUOUS
 70
0
 71
3
 72
10
 73
6
 74
4
 42
0.0000001
 43
0.0000001
 44
0.0000000001
 12
0.3387843408
 22
-0.002449453
 32
0.0
 13
0.0
 23
-0.3387931956
 33
0.0
 40
0.0
 40
0.0
 40
0.0
 40
0.0
 40
0.454257619
 40
0.7937499604
 40
1.0
 40
1.0
 40
1.0
 40
1.0
 10
-158.1476041949
 20
68.6357865551
 30
0.0
 10
-158.0963057389
 20
68.6354156609
 30
0.0
 10
-158.0062581385
 20
68.6240934114
 30
0.0
 10
-157.8989516214
 20
68.5895076545
 30
0.0
 10
-157.8528399168
 20
68.5348334491
 30
0.0
 10
-157.8528399168
 20
68.5115414124
 30
0.0
 11
-158.1476041949
 21
68.6357865551
 31
0.0
 11
-157.9948345201
 21
68.6171734195
 31
0.0
 11
-157.8894717153
 21
68.5710458836
 31
0.0
 11
-157.8528399168
 21
68.5115414124
 31
0.0
  0
SPLINE
  5
3A3
100
AcDbEntity
  8
RACCORDO
100
AcDbSpline
 62
7
  6
CONTINUOUS
 70
0
 71
3
 72
10
 73
6
 74
4
 42
0.0000001
 43
0.0000001
 44
0.0000000001
 12
0.2916503678
 22
-0.0030598176
 32
0.0
 13
0.2916671467
 23
0.0001444282
 33
0.0
 40
0.0
 40
0.0
 40
0.0
 40
0.0
 40
0.5814154941
 40
0.9088431026
 40
1.0
 40
1.0
 40
1.0
 40
1.0
 10
-158.1476041949
 20
72.0754872599
 30
0.0
 10
-158.0910808474
 20
72.0748942515
 30
0.0
 10
-158.0027172639
 20
72.07566991
 30
0.0
 10
-157.9054959197
 20
72.0755122775
 30
0.0
 10
-157.8648002781
 20
72.075504427
 30
0.0
 10
-157.8559377873
 20
72.0755088156
 30
0.0
 11
-158.1476041949
 21
72.0754872599
 31
0.0
 11
-157.9780248219
 21
72.0755106032
 31
0.0
 11
-157.8825251841
 21
72.0755106032
 31
0.0
 11
-157.8559377873
 21
72.0755088156
 31
0.0
  0
LINE
  5
3A4
100
AcDbEntity
  8
RACCORDO
100
AcDbLine
 62
7
  6
CONTINUOUS
 10
-157.8559377873
 20
72.0755088156
 11
-157.8528399168
 21
72.0755106032
  0
SPLINE
  5
3A5
100
AcDbEntity
  8
RACCORDO
100
AcDbSpline
 62
7
  6
CONTINUOUS
 70
0
 71
3
 72
11
 73
7
 74
5
 42
0.0000001
 43
0.0000001
 44
0.0000000001
 12
0.3508265548
 22
0.0001165611
 32
0.0
 13
0.0290997968
 23
0.3520524435
 33
0.0
 40
0.0
 40
0.0
 40
0.0
 40
0.0
 40
0.4982168147
 40
0.7506215327
 40
0.9116147211
 40
1.0
 40
1.0
 40
1.0
 40
1.0
 10
-154.6520545196
 20
67.5399322661
 30
0.0
 10
-154.5937919567
 20
67.5399516237
 30
0.0
 10
-154.508191948
 20
67.542685551
 30
0.0
 10
-154.3969247728
 20
67.5613025304
 30
0.0
 10
-154.3594031219
 20
67.6125002877
 30
0.0
 10
-154.3545479081
 20
67.6413865011
 30
0.0
 10
-154.3536905769
 20
67.6517585856
 30
0.0
 11
-154.6520545196
 21
67.5399322661
 31
0.0
 11
-154.4775089755
 21
67.5491296844
 31
0.0
 11
-154.3930535426
 21
67.5757460778
 31
0.0
 11
-154.3597220421
 21
67.6213429996
 31
0.0
 11
-154.3536905769
 21
67.6517585856
 31
0.0
  0
LINE
  5
3A6
100
AcDbEntity
  8
RACCORDO
100
AcDbLine
 62
7
  6
CONTINUOUS
 10
-157.8528398022
 20
67.5389955494
 11
-154.6520545196
 21
67.5399322661
  0
LINE
  5
3A7
100
AcDbEntity
  8
RACCORDO
100
AcDbLine
 62
7
  6
CONTINUOUS
 10
-157.8528398022
 20
-67.5389955494
 11
-154.6520545196
 21
-67.5399322661
  0
SPLINE
  5
3A8
100
AcDbEntity
  8
RACCORDO
100
AcDbSpline
 62
7
  6
CONTINUOUS
 70
0
 71
3
 72
11
 73
7
 74
5
 42
0.0000001
 43
0.0000001
 44
0.0000000001
 12
-0.0233974185
 22
0.283064463
 32
0.0
 13
-0.2796386323
 23
0.0097424191
 33
0.0
 40
0.0
 40
0.0
 40
0.0
 40
0.0
 40
0.1099263859
 40
0.3101565553
 40
0.6240769139
 40
1.0
 40
1.0
 40
1.0
 40
1.0
 10
-154.3536905769
 20
-67.6517585856
 30
0.0
 10
-154.3545479081
 20
-67.6413865011
 30
0.0
 10
-154.3594031219
 20
-67.6125002877
 30
0.0
 10
-154.3969247728
 20
-67.5613025304
 30
0.0
 10
-154.4842741165
 20
-67.54668743
 30
0.0
 10
-154.5486879041
 20
-67.5422374916
 30
0.0
 10
-154.5837287766
 20
-67.5410166916
 30
0.0
 11
-154.3536905769
 21
-67.6517585856
 31
0.0
 11
-154.3597220421
 21
-67.6213429996
 31
0.0
 11
-154.3930535426
 21
-67.5757460778
 31
0.0
 11
-154.4775089755
 21
-67.5491296844
 31
0.0
 11
-154.5837287766
 21
-67.5410166916
 31
0.0
  0
SPLINE
  5
3A9
100
AcDbEntity
  8
RACCORDO
100
AcDbSpline
 62
7
  6
CONTINUOUS
 70
0
 71
3
 72
8
 73
4
 74
2
 42
0.0000001
 43
0.0000001
 44
0.0000000001
 12
-0.068153043
 22
0.0023744055
 32
0.0
 13
-0.0687477561
 23
0.0000228412
 33
0.0
 40
0.0
 40
0.0
 40
0.0
 40
0.0
 40
1.0
 40
1.0
 40
1.0
 40
1.0
 10
-154.5837287766
 20
-67.5410166916
 30
0.0
 10
-154.6064464576
 20
-67.5402252231
 30
0.0
 10
-154.6291386009
 20
-67.5399398799
 30
0.0
 10
-154.6520545196
 20
-67.5399322661
 30
0.0
 11
-154.5837287766
 21
-67.5410166916
 31
0.0
 11
-154.6520545196
 21
-67.5399322661
 31
0.0
  0
SPLINE
  5
3AA
100
AcDbEntity
  8
RACCORDO
100
AcDbSpline
 62
253
  6
CONTINUOUS
 70
0
 71
3
 72
14
 73
10
 74
8
 42
0.0000001
 43
0.0000001
 44
0.0000000001
 12
-1.0000592134
 22
-0.0174560985
 32
0.0
 13
0.0174507832
 23
-1.0000593062
 33
0.0
 40
0.0
 40
0.0
 40
0.0
 40
0.0
 40
0.0146592147
 40
0.0636436768
 40
0.1556823333
 40
0.2982521982
 40
0.4938551209
 40
0.7342263754
 40
1.0
 40
1.0
 40
1.0
 40
1.0
 10
-223.3702923233
 20
83.3076896529
 30
0.0
 10
-223.3751790175
 20
83.3076043553
 30
0.0
 10
-223.369258821
 20
83.2745372232
 30
0.0
 10
-223.379484185
 20
83.2354107314
 30
0.0
 10
-223.3754110827
 20
83.1325606998
 30
0.0
 10
-223.3785589155
 20
82.9932913014
 30
0.0
 10
-223.3765030987
 20
82.7986381193
 30
0.0
 10
-223.3745076997
 20
82.5653383581
 30
0.0
 10
-223.3718383092
 20
82.39643842
 30
0.0
 10
-223.3702923233
 20
82.3078419577
 30
0.0
 11
-223.3702923233
 21
83.3076896529
 31
0.0
 11
-223.3729876451
 21
83.2932772018
 31
0.0
 11
-223.3752944228
 21
83.2443367111
 31
0.0
 11
-223.3769196259
 21
83.1522929306
 31
0.0
 11
-223.3775175023
 21
83.0096941583
 31
0.0
 11
-223.3767244852
 21
82.814051463
 31
0.0
 11
-223.3743024804
 21
82.5736415577
 31
0.0
 11
-223.3702923233
 21
82.3078419577
 31
0.0
  0
ELLIPSE
  5
3AB
100
AcDbEntity
  8
RACCORDO
100
AcDbEllipse
 62
7
  6
CONTINUOUS
 10
-154.6528399168
 20
-70.0952070275
 30
0.0
 11
-0.001110708
 21
0.4242640687
 31
0.0
 40
0.7071019348
 41
-3.1426770283
 42
-1.5744986954
  0
ELLIPSE
  5
3AC
100
AcDbEntity
  8
RACCORDO
100
AcDbEllipse
 62
7
  6
CONTINUOUS
 10
-154.6528399168
 20
70.0952070275
 30
0.0
 11
0.001110708
 21
0.4242640687
 31
0.0
 40
0.7071019348
 41
-1.5670939582
 42
0.0010843747
  0
ENDSEC
  0
SECTION
  2
OBJECTS
  0
DICTIONARY
  5
C
100
AcDbDictionary
280
0
281
1
  3
ACAD_GROUP
350
D
  3
ACAD_MLINESTYLE
350
17
  3
ACAD_LAYOUT
350
1A
  3
ACAD_PLOTSETTINGS
350
19
  3
ACAD_PLOTSTYLENAME
350
E
  0
DICTIONARY
  5
D
102
{ACAD_REACTORS
330
C
102
}
100
AcDbDictionary
280
0
281
1
  0
ACDBDICTIONARYWDFLT
  5
E
102
{ACAD_REACTORS
330
C
102
}
100
AcDbDictionary
281
1
  3
Normal
350
F
100
AcDbDictionaryWithDefault
340
F
  0
DICTIONARY
  5
17
102
{ACAD_REACTORS
330
C
102
}
100
AcDbDictionary
280
0
281
1
  3
Standard
350
18
  0
DICTIONARY
  5
19
102
{ACAD_REACTORS
330
C
102
}
100
AcDbDictionary
281
1
  0
DICTIONARY
  5
1A
102
{ACAD_REACTORS
330
C
102
}
100
AcDbDictionary
281
1
  3
Model
350
3AD
  3
Layout1
350
3AE
  0
ACDBPLACEHOLDER
  5
F
102
{ACAD_REACTORS
330
E
102
}
  0
MLINESTYLE
  5
18
102
{ACAD_REACTORS
330
17
102
}
100
AcDbMlineStyle
  2
STANDARD
 70
0
  3

 62
256
 51
90.0
 52
90.0
 71
2
 49
0.5
 62
256
  6
BYLAYER
 49
-0.5
 62
256
  6
BYLAYER
  0
LAYOUT
  5
3AD
102
{ACAD_REACTORS
330
1A
102
}
100
AcDbPlotSettings
  1

  2
none_device
  4
ISO_A4_(297.00_x_210.00_MM)
  6

 40
0.0
 41
0.0
 42
0.0
 43
0.0
 44
297.0
 45
210.0
 46
0.0
 47
0.0
 48
0.0
 49
0.0
140
0.0
141
0.0
142
1.0
143
1.0
 70
1024
 72
1
 73
0
 74
0
  7

 75
0
147
1.0
148
0.0
149
0.0
100
AcDbLayout
  1
Model
 70
0
 71
0
 10
0.0
 20
0.0
 11
297.0
 21
210.0
 12
0.0
 22
0.0
 32
0.0
 14
0.0
 24
0.0
 34
0.0
 15
0.0
 25
0.0
 35
0.0
146
0.0
 13
0.0
 23
0.0
 33
0.0
 16
1.0
 26
0.0
 36
0.0
 17
0.0
 27
1.0
 37
0.0
 76
0
330
210
345
0
346
0
  0
LAYOUT
  5
3AE
102
{ACAD_REACTORS
330
1A
102
}
100
AcDbPlotSettings
  1

  2
none_device
  4
ISO_A4_(297.00_x_210.00_MM)
  6

 40
0.0
 41
0.0
 42
0.0
 43
0.0
 44
297.0
 45
210.0
 46
0.0
 47
0.0
 48
0.0
 49
0.0
140
0.0
141
0.0
142
1.0
143
1.0
 70
0
 72
1
 73
0
 74
0
  7

 75
0
147
1.0
148
0.0
149
0.0
100
AcDbLayout
  1
Layout1
 70
0
 71
1
 10
0.0
 20
0.0
 11
297.0
 21
210.0
 12
0.0
 22
0.0
 32
0.0
 14
0.0
 24
0.0
 34
0.0
 15
0.0
 25
0.0
 35
0.0
146
0.0
 13
0.0
 23
0.0
 33
0.0
 16
1.0
 26
0.0
 36
0.0
 17
0.0
 27
1.0
 37
0.0
 76
0
330
211
345
0
346
0
  0
ENDSEC
  0
EOF
