  0
SECTION
  2
HEADER
  9
$ACADVER
  1
AC1015
  9
$DWGCODEPAGE
  3
ANSI_1252
  9
$EXTMAX
 10
297.0
 20
210.0
 30
0.0
  9
$EXTMIN
 10
0.0
 20
0.0
 30
0.0
  9
$LIMMIN
 10
0.0
 20
0.0
  9
$LIMMAX
 10
297.0
 20
210.0
  9
$VIEWCTR
 10
148.5
 20
105.0
  9
$VIEWSIZE
 40
210.0
  9
$CLAYER
  8
0
  9
$LTSCALE
 40
16.335
  9
$CELTYPE
  6
BYLAYER
  9
$DIMSCALE
 40
1.0
  9
$DIMASZ
 40
3.0
  9
$DIMEXO
 40
1.85625
  9
$DIMDLI
 40
11.286
  9
$DIMEXE
 40
5.346
  9
$DIMCEN
 40
2.673
  9
$DIMLFAC
 40
1.0
  9
$DIMBLK
  1
_FILLED
  9
$DIMTXT
 40
3.0
  9
$DIMTOL
 70
1
  9
$DIMLIM
 70
0
  9
$DIMTFAC
 40
1.0
  9
$DIMTP
 40
0.01
  9
$DIMTM
 40
0.01
  9
$PDMODE
 70
3
  9
$PDSIZE
 40
3.0
  9
$HANDSEED
  5
3E8
  9
$TILEMODE
 70
1
  9
$MEASUREMENT
 70
1
  9
$INSUNITS
 70
4
  0
ENDSEC
  0
SECTION
  2
CLASSES
  0
CLASS
  1
ACDBDICTIONARYWDFLT
  2
AcDbDictionaryWithDefault
  3
AutoCAD 2000
 90
0
280
0
281
0
  0
CLASS
  1
ACDBPLACEHOLDER
  2
AcDbPlaceHolder
  3
AutoCAD 2000
 90
0
280
0
281
0
  0
CLASS
  1
LAYOUT
  2
AcDbLayout
  3
AutoCAD 2000
 90
0
280
0
281
0
  0
ENDSEC
  0
SECTION
  2
TABLES
  0
TABLE
  2
VPORT
  5
8
100
AcDbSymbolTable
 70
2
  0
VPORT
  5
1F4
100
AcDbSymbolTableRecord
100
AcDbViewportTableRecord
  2
*ACTIVE
 70
0
 10
0.0
 20
0.0
 11
1.0
 21
1.0
 12
148.5
 22
105.0
 13
0.0
 23
0.0
 14
1.0
 24
1.0
 15
0.0
 25
0.0
 16
0.0
 26
0.0
 36
1.0
 17
0.0
 27
0.0
 37
0.0
 40
210.0
 41
1.4142857143
 42
50.0
 43
0.0
 44
0.0
 50
0.0
 51
0.0
 71
0
 72
100
 73
1
 74
1
 75
0
 76
0
 77
0
 78
0
  0
ENDTAB
  0
TABLE
  2
LTYPE
  5
5
100
AcDbSymbolTable
 70
6
  0
LTYPE
  5
14
100
AcDbSymbolTableRecord
100
AcDbLinetypeTableRecord
  2
BYBLOCK
 70
0
  3

 72
65
 73
0
 40
0.0
  0
LTYPE
  5
15
100
AcDbSymbolTableRecord
100
AcDbLinetypeTableRecord
  2
BYLAYER
 70
0
  3

 72
65
 73
0
 40
0.0
  0
LTYPE
  5
16
100
AcDbSymbolTableRecord
100
AcDbLinetypeTableRecord
  2
CONTINUOUS
 70
64
  3
Solid line
 72
65
 73
0
 40
0.0
  0
LTYPE
  5
1F5
100
AcDbSymbolTableRecord
100
AcDbLinetypeTableRecord
  2
CENTER
 70
64
  3
____ _ ____ _ ____ _ ____ _ ____ _ ____ _ ____
 72
65
 73
4
 40
0.6
 49
0.375
 74
0
 49
-0.075
 74
0
 49
0.075
 74
0
 49
-0.075
 74
0
  0
LTYPE
  5
1F6
100
AcDbSymbolTableRecord
100
AcDbLinetypeTableRecord
  2
HIDDEN
 70
64
  3
- - - - - - - - - - - - - - - - - - - -
 72
65
 73
2
 40
0.2
 49
0.1
 74
0
 49
-0.1
 74
0
  0
LTYPE
  5
1F7
100
AcDbSymbolTableRecord
100
AcDbLinetypeTableRecord
  2
PHANTOM
 70
64
  3
_____ _ _ _____ _ _ _____ _ _ _____
 72
65
 73
6
 40
0.8
 49
0.45
 74
0
 49
-0.05
 74
0
 49
0.1
 74
0
 49
-0.05
 74
0
 49
0.1
 74
0
 49
-0.05
 74
0
  0
LTYPE
  5
1F8
100
AcDbSymbolTableRecord
100
AcDbLinetypeTableRecord
  2
DOT
 70
64
  3
. . . . . . . . . . . . . . . . . . . .
 72
65
 73
2
 40
0.2
 49
0.1
 74
0
 49
-0.1
 74
0
  0
LTYPE
  5
1F9
100
AcDbSymbolTableRecord
100
AcDbLinetypeTableRecord
  2
DASHED
 70
64
  3
- - - - - - - - - - - - - - - - - - - -
 72
65
 73
2
 40
0.2
 49
0.1
 74
0
 49
-0.1
 74
0
  0
ENDTAB
  0
TABLE
  2
LAYER
  5
2
100
AcDbSymbolTable
 70
36
  0
LAYER
  5
10
100
AcDbSymbolTableRecord
100
AcDbLayerTableRecord
  2
0
 70
0
 62
7
  6
CONTINUOUS
370
-3
390
F
  0
LAYER
  5
1FA
100
AcDbSymbolTableRecord
100
AcDbLayerTableRecord
  2
DEFAULT_1
 70
0
 62
7
  6
CENTER
370
-3
390
F
  0
LAYER
  5
1FB
100
AcDbSymbolTableRecord
100
AcDbLayerTableRecord
  2
DEFAULT_2
 70
0
 62
7
  6
HIDDEN
370
-3
390
F
  0
LAYER
  5
1FC
100
AcDbSymbolTableRecord
100
AcDbLayerTableRecord
  2
DEFAULT_3
 70
0
 62
7
  6
PHANTOM
370
-3
390
F
  0
LAYER
  5
1FD
100
AcDbSymbolTableRecord
100
AcDbLayerTableRecord
  2
ASSI
 70
0
 62
7
  6
CONTINUOUS
370
-3
390
F
  0
LAYER
  5
1FE
100
AcDbSymbolTableRecord
100
AcDbLayerTableRecord
  2
COORDINATE
 70
0
 62
7
  6
CONTINUOUS
370
-3
390
F
  0
LAYER
  5
1FF
100
AcDbSymbolTableRecord
100
AcDbLayerTableRecord
  2
COORD_ORIGINE
 70
0
 62
7
  6
CONTINUOUS
370
-3
390
F
  0
LAYER
  5
200
100
AcDbSymbolTableRecord
100
AcDbLayerTableRecord
  2
COPY_PUBLISH
 70
0
 62
7
  6
CONTINUOUS
370
-3
390
F
  0
LAYER
  5
201
100
AcDbSymbolTableRecord
100
AcDbLayerTableRecord
  2
COSMETIC
 70
0
 62
7
  6
CONTINUOUS
370
-3
390
F
  0
LAYER
  5
202
100
AcDbSymbolTableRecord
100
AcDbLayerTableRecord
  2
CURVA_ASSE
 70
0
 62
7
  6
CONTINUOUS
370
-3
390
F
  0
LAYER
  5
203
100
AcDbSymbolTableRecord
100
AcDbLayerTableRecord
  2
CURVE
 70
0
 62
7
  6
CONTINUOUS
370
-3
390
F
  0
LAYER
  5
204
100
AcDbSymbolTableRecord
100
AcDbLayerTableRecord
  2
DRAFT
 70
0
 62
7
  6
CONTINUOUS
370
-3
390
F
  0
LAYER
  5
205
100
AcDbSymbolTableRecord
100
AcDbLayerTableRecord
  2
IMPORT_IGES
 70
0
 62
7
  6
CONTINUOUS
370
-3
390
F
  0
LAYER
  5
206
100
AcDbSymbolTableRecord
100
AcDbLayerTableRecord
  2
NOTE
 70
0
 62
7
  6
CONTINUOUS
370
-3
390
F
  0
LAYER
  5
207
100
AcDbSymbolTableRecord
100
AcDbLayerTableRecord
  2
PIANI
 70
0
 62
7
  6
CONTINUOUS
370
-3
390
F
  0
LAYER
  5
208
100
AcDbSymbolTableRecord
100
AcDbLayerTableRecord
  2
PIANI_ORIGINE
 70
0
 62
7
  6
CONTINUOUS
370
-3
390
F
  0
LAYER
  5
209
100
AcDbSymbolTableRecord
100
AcDbLayerTableRecord
  2
PUNTI
 70
0
 62
7
  6
CONTINUOUS
370
-3
390
F
  0
LAYER
  5
20A
100
AcDbSymbolTableRecord
100
AcDbLayerTableRecord
  2
RACCORDO
 70
0
 62
7
  6
CONTINUOUS
370
-3
390
F
  0
LAYER
  5
20B
100
AcDbSymbolTableRecord
100
AcDbLayerTableRecord
  2
SMUSSO
 70
0
 62
7
  6
CONTINUOUS
370
-3
390
F
  0
LAYER
  5
20C
100
AcDbSymbolTableRecord
100
AcDbLayerTableRecord
  2
SNAPLINE
 70
0
 62
7
  6
CONTINUOUS
370
-3
390
F
  0
LAYER
  5
20D
100
AcDbSymbolTableRecord
100
AcDbLayerTableRecord
  2
SUPERFICI
 70
0
 62
7
  6
CONTINUOUS
370
-3
390
F
  0
LAYER
  5
20E
100
AcDbSymbolTableRecord
100
AcDbLayerTableRecord
  2
TRASH
 70
0
 62
7
  6
CONTINUOUS
370
-3
390
F
  0
LAYER
  5
20F
100
AcDbSymbolTableRecord
100
AcDbLayerTableRecord
  2
XSEC_DATUMS
 70
0
 62
7
  6
CONTINUOUS
370
-3
390
F
  0
ENDTAB
  0
TABLE
  2
STYLE
  5
3
100
AcDbSymbolTable
 70
1
  0
STYLE
  5
11
100
AcDbSymbolTableRecord
100
AcDbTextStyleTableRecord
  2
STANDARD
 70
0
 40
0.0
 41
0.8
 50
0.0
 71
0
 42
0.2
  3
txt
  4

  0
STYLE
  5
210
100
AcDbSymbolTableRecord
100
AcDbTextStyleTableRecord
  2
TEXTSTYLE_1
 70
0
 40
0.0
 41
0.8
 50
0.0
 71
0
 42
0.2
  3
gdt
  4

  0
ENDTAB
  0
TABLE
  2
VIEW
  5
6
100
AcDbSymbolTable
 70
0
  0
ENDTAB
  0
TABLE
  2
UCS
  5
7
100
AcDbSymbolTable
 70
0
  0
ENDTAB
  0
TABLE
  2
APPID
  5
9
100
AcDbSymbolTable
 70
1
  0
APPID
  5
211
100
AcDbSymbolTableRecord
100
AcDbRegAppTableRecord
  2
ACAD
 70
0
  0
ENDTAB
  0
TABLE
  2
BLOCK_RECORD
  5
1
100
AcDbSymbolTable
 70
0
  0
BLOCK_RECORD
  5
212
100
AcDbSymbolTableRecord
100
AcDbBlockTableRecord
  2
*Model_Space
  0
BLOCK_RECORD
  5
213
100
AcDbSymbolTableRecord
100
AcDbBlockTableRecord
  2
*Paper_Space
  0
BLOCK_RECORD
  5
214
100
AcDbSymbolTableRecord
100
AcDbBlockTableRecord
  2
_FILLED
  0
BLOCK_RECORD
  5
215
100
AcDbSymbolTableRecord
100
AcDbBlockTableRecord
  2
_NONE
  0
BLOCK_RECORD
  5
216
100
AcDbSymbolTableRecord
100
AcDbBlockTableRecord
  2
*D0
  0
BLOCK_RECORD
  5
217
100
AcDbSymbolTableRecord
100
AcDbBlockTableRecord
  2
*D1
  0
BLOCK_RECORD
  5
218
100
AcDbSymbolTableRecord
100
AcDbBlockTableRecord
  2
*D2
  0
BLOCK_RECORD
  5
219
100
AcDbSymbolTableRecord
100
AcDbBlockTableRecord
  2
*D3
  0
BLOCK_RECORD
  5
21A
100
AcDbSymbolTableRecord
100
AcDbBlockTableRecord
  2
*D4
  0
BLOCK_RECORD
  5
21B
100
AcDbSymbolTableRecord
100
AcDbBlockTableRecord
  2
*D5
  0
BLOCK_RECORD
  5
21C
100
AcDbSymbolTableRecord
100
AcDbBlockTableRecord
  2
*D6
  0
BLOCK_RECORD
  5
21D
100
AcDbSymbolTableRecord
100
AcDbBlockTableRecord
  2
*D7
  0
ENDTAB
  0
TABLE
  2
DIMSTYLE
  5
A
100
AcDbSymbolTable
 70
1
100
AcDbDimStyleTable
 71
0
  0
DIMSTYLE
105
21E
100
AcDbSymbolTableRecord
100
AcDbDimStyleTableRecord
  2
STANDARD
 70
0
  3

  4

 40
1.0
 41
3.0
 42
0.0625
 43
0.38
 44
0.18
 45
0.0
 46
0.0
 47
0.01
 48
0.01
140
3.0
141
0.09
142
0.0
143
25.4
144
1.0
145
0.0
146
1.0
147
0.09
 71
1.0
 72
0.0
 73
0
 74
0
 75
0
 76
0
 77
1
 78
8
170
0
171
2
172
0
173
0
174
0
175
0
176
0
177
0
178
0
270
2
271
2
272
2
273
2
274
2
275
0
280
0
281
0
282
0
283
1
284
8
285
0
286
0
287
3
288
0
340
11
341
214
342
214
343
214
344
214
  0
DIMSTYLE
105
21F
100
AcDbSymbolTableRecord
100
AcDbDimStyleTableRecord
  2
DIMSTYLE_1
 70
0
  3

  4

 40
1.0
 41
3.0
 42
0.0625
 43
0.38
 44
0.18
 45
0.0
 46
0.0
 47
0.0
 48
0.0
140
3.0
141
0.09
142
0.0
143
25.4
144
1.0
145
0.0
146
1.0
147
0.09
 71
0.0
 72
0.0
 73
0
 74
0
 75
0
 76
0
 77
1
 78
8
170
0
171
2
172
0
173
0
174
0
175
0
176
0
177
0
178
0
270
2
271
2
272
2
273
2
274
2
275
0
280
0
281
0
282
0
283
1
284
8
285
0
286
0
287
3
288
0
340
11
341
214
342
214
343
214
344
214
  0
ENDTAB
  0
ENDSEC
  0
SECTION
  2
BLOCKS
  0
BLOCK
  5
20
100
AcDbEntity
  8
0
100
AcDbBlockBegin
  2
*Model_Space
 70
0
 10
0.0
 20
0.0
 30
0.0
  3
*Model_Space
  1

  0
ENDBLK
  5
21
100
AcDbEntity
  8
0
100
AcDbBlockEnd
  0
BLOCK
  5
1C
100
AcDbEntity
  8
0
100
AcDbBlockBegin
  2
*Paper_Space
 70
0
 10
0.0
 20
0.0
 30
0.0
  3
*Paper_Space
  1

  0
ENDBLK
  5
1D
100
AcDbEntity
  8
0
100
AcDbBlockEnd
  0
BLOCK
  5
220
100
AcDbEntity
  8
0
100
AcDbBlockBegin
  2
_FILLED
 70
64
 10
0.0
 20
0.0
  3
_FILLED
  1

  0
SOLID
  5
221
100
AcDbEntity
  8
0
  6
BYBLOCK
 62
0
100
AcDbTrace
 10
0.0
 20
0.0
 11
-1.0
 21
0.3166666667
 12
-1.0
 22
-0.3166666667
 13
-1.0
 23
-0.3166666667
  0
ENDBLK
  5
222
100
AcDbEntity
  8
0
  6
BYBLOCK
 62
0
100
AcDbBlockEnd
  0
BLOCK
  5
223
100
AcDbEntity
  8
0
100
AcDbBlockBegin
  2
_NONE
 70
64
 10
0.0
 20
0.0
  3
_NONE
  1

  0
ENDBLK
  5
224
100
AcDbEntity
  8
0
  6
BYBLOCK
 62
0
100
AcDbBlockEnd
  0
BLOCK
  5
225
100
AcDbEntity
  8
0
100
AcDbBlockBegin
 62
7
  6
CONTINUOUS
  2
*D0
 70
65
 10
0.0
 20
0.0
  3
*D0
  1

  0
MTEXT
  5
226
100
AcDbEntity
  8
0
100
AcDbMText
 62
7
  6
CONTINUOUS
  7
STANDARD
 71
2
 72
1
 10
-245.3088403067
 20
111.25
 30
0.0
 11
1.0
 21
0.0
 31
0.0
 44
0.9
  1
75,7
 40
3.0
 41
8.5714285714
  0
LINE
  5
227
100
AcDbEntity
  8
0
100
AcDbLine
 62
7
  6
CONTINUOUS
 10
-283.1588403067
 20
80.0
 11
-283.1588403067
 21
109.0
  0
LINE
  5
228
100
AcDbEntity
  8
0
100
AcDbLine
 62
7
  6
CONTINUOUS
 10
-207.4588403067
 20
66.2586280076
 11
-207.4588403067
 21
109.0
  0
LINE
  5
229
100
AcDbEntity
  8
0
100
AcDbLine
 62
7
  6
CONTINUOUS
 10
-283.1588403067
 20
107.5
 11
-245.3088403067
 21
107.5
  0
LINE
  5
22A
100
AcDbEntity
  8
0
100
AcDbLine
 62
7
  6
CONTINUOUS
 10
-207.4588403067
 20
107.5
 11
-245.3088403067
 21
107.5
  0
INSERT
  5
22B
100
AcDbEntity
  8
0
100
AcDbBlockReference
 62
7
  6
CONTINUOUS
  2
_FILLED
 10
-283.1588403067
 20
107.5
 41
3.0
 42
3.0
 43
3.0
 50
180.0
  0
INSERT
  5
22C
100
AcDbEntity
  8
0
100
AcDbBlockReference
 62
7
  6
CONTINUOUS
  2
_FILLED
 10
-207.4588403067
 20
107.5
 41
3.0
 42
3.0
 43
3.0
  0
ENDBLK
  5
22D
100
AcDbEntity
  8
0
  6
BYBLOCK
 62
0
100
AcDbBlockEnd
  0
BLOCK
  5
22E
100
AcDbEntity
  8
0
100
AcDbBlockBegin
 62
7
  6
CONTINUOUS
  2
*D1
 70
65
 10
0.0
 20
0.0
  3
*D1
  1

  0
MTEXT
  5
22F
100
AcDbEntity
  8
0
100
AcDbMText
 62
7
  6
CONTINUOUS
  7
STANDARD
 71
2
 72
1
 10
-242.4588403067
 20
101.25
 30
0.0
 11
1.0
 21
0.0
 31
0.0
 44
0.9
  1
70
 40
3.0
 41
4.7142857143
  0
LINE
  5
230
100
AcDbEntity
  8
0
100
AcDbLine
 62
7
  6
CONTINUOUS
 10
-207.4588403067
 20
66.2586280076
 11
-207.4588403067
 21
99.0
  0
LINE
  5
231
100
AcDbEntity
  8
0
100
AcDbLine
 62
7
  6
CONTINUOUS
 10
-277.4588403067
 20
90.0
 11
-277.4588403067
 21
99.0
  0
LINE
  5
232
100
AcDbEntity
  8
0
100
AcDbLine
 62
7
  6
CONTINUOUS
 10
-207.4588403067
 20
97.5
 11
-242.4588403067
 21
97.5
  0
LINE
  5
233
100
AcDbEntity
  8
0
100
AcDbLine
 62
7
  6
CONTINUOUS
 10
-277.4588403067
 20
97.5
 11
-242.4588403067
 21
97.5
  0
INSERT
  5
234
100
AcDbEntity
  8
0
100
AcDbBlockReference
 62
7
  6
CONTINUOUS
  2
_FILLED
 10
-207.4588403067
 20
97.5
 41
3.0
 42
3.0
 43
3.0
  0
INSERT
  5
235
100
AcDbEntity
  8
0
100
AcDbBlockReference
 62
7
  6
CONTINUOUS
  2
_FILLED
 10
-277.4588403067
 20
97.5
 41
3.0
 42
3.0
 43
3.0
 50
180.0
  0
ENDBLK
  5
236
100
AcDbEntity
  8
0
  6
BYBLOCK
 62
0
100
AcDbBlockEnd
  0
BLOCK
  5
237
100
AcDbEntity
  8
0
100
AcDbBlockBegin
 62
7
  6
CONTINUOUS
  2
*D2
 70
65
 10
0.0
 20
0.0
  3
*D2
  1

  0
MTEXT
  5
238
100
AcDbEntity
  8
0
100
AcDbMText
 62
7
  6
CONTINUOUS
  7
STANDARD
 71
3
 72
1
 10
-286.5120217738
 20
101.25
 30
0.0
 11
1.0
 21
0.0
 31
0.0
 44
0.9
  1
5,7
 40
3.0
 41
6.2142857143
  0
LINE
  5
239
100
AcDbEntity
  8
0
100
AcDbLine
 62
7
  6
CONTINUOUS
 10
-277.4588403067
 20
90.0
 11
-277.4588403067
 21
99.0
  0
LINE
  5
23A
100
AcDbEntity
  8
0
100
AcDbLine
 62
7
  6
CONTINUOUS
 10
-283.1588403067
 20
80.0
 11
-283.1588403067
 21
99.0
  0
LINE
  5
23B
100
AcDbEntity
  8
0
100
AcDbLine
 62
7
  6
CONTINUOUS
 10
-277.4588403067
 20
97.5
 11
-273.4588403067
 21
97.5
  0
LINE
  5
23C
100
AcDbEntity
  8
0
100
AcDbLine
 62
7
  6
CONTINUOUS
 10
-273.4588403067
 20
97.5
 11
-280.3088403067
 21
97.5
  0
LINE
  5
23D
100
AcDbEntity
  8
0
100
AcDbLine
 62
7
  6
CONTINUOUS
 10
-283.1588403067
 20
97.5
 11
-292.7263074881
 21
97.5
  0
LINE
  5
23E
100
AcDbEntity
  8
0
100
AcDbLine
 62
7
  6
CONTINUOUS
 10
-292.7263074881
 20
97.5
 11
-280.3088403067
 21
97.5
  0
INSERT
  5
23F
100
AcDbEntity
  8
0
100
AcDbBlockReference
 62
7
  6
CONTINUOUS
  2
_NONE
 10
-277.4588403067
 20
97.5
 41
3.0
 42
3.0
 43
3.0
 50
180.0
  0
INSERT
  5
240
100
AcDbEntity
  8
0
100
AcDbBlockReference
 62
7
  6
CONTINUOUS
  2
_FILLED
 10
-283.1588403067
 20
97.5
 41
3.0
 42
3.0
 43
3.0
  0
ENDBLK
  5
241
100
AcDbEntity
  8
0
  6
BYBLOCK
 62
0
100
AcDbBlockEnd
  0
BLOCK
  5
242
100
AcDbEntity
  8
0
100
AcDbBlockBegin
 62
7
  6
CONTINUOUS
  2
*D3
 70
65
 10
0.0
 20
0.0
  3
*D3
  1

  0
MTEXT
  5
243
100
AcDbEntity
  8
0
100
AcDbMText
 62
7
  6
CONTINUOUS
  7
STANDARD
 71
2
 72
1
 10
0.0
 20
121.25
 30
0.0
 11
1.0
 21
0.0
 31
0.0
 44
0.9
  1
312
 40
3.0
 41
6.2142857143
  0
LINE
  5
244
100
AcDbEntity
  8
0
100
AcDbLine
 62
7
  6
CONTINUOUS
 10
-156.0
 20
80.0
 11
-156.0
 21
119.0
  0
LINE
  5
245
100
AcDbEntity
  8
0
100
AcDbLine
 62
7
  6
CONTINUOUS
 10
156.0
 20
79.9999999915
 11
156.0
 21
119.0
  0
LINE
  5
246
100
AcDbEntity
  8
0
100
AcDbLine
 62
7
  6
CONTINUOUS
 10
-156.0
 20
117.5
 11
0.0
 21
117.5
  0
LINE
  5
247
100
AcDbEntity
  8
0
100
AcDbLine
 62
7
  6
CONTINUOUS
 10
156.0
 20
117.5
 11
0.0
 21
117.5
  0
INSERT
  5
248
100
AcDbEntity
  8
0
100
AcDbBlockReference
 62
7
  6
CONTINUOUS
  2
_FILLED
 10
-156.0
 20
117.5
 41
3.0
 42
3.0
 43
3.0
 50
180.0
  0
INSERT
  5
249
100
AcDbEntity
  8
0
100
AcDbBlockReference
 62
7
  6
CONTINUOUS
  2
_FILLED
 10
156.0
 20
117.5
 41
3.0
 42
3.0
 43
3.0
  0
ENDBLK
  5
24A
100
AcDbEntity
  8
0
  6
BYBLOCK
 62
0
100
AcDbBlockEnd
  0
BLOCK
  5
24B
100
AcDbEntity
  8
0
100
AcDbBlockBegin
 62
7
  6
CONTINUOUS
  2
*D4
 70
65
 10
0.0
 20
0.0
  3
*D4
  1

  0
MTEXT
  5
24C
100
AcDbEntity
  8
0
100
AcDbMText
 62
7
  6
CONTINUOUS
  7
STANDARD
 71
2
 72
1
 10
170.25
 20
0.0
 30
0.0
 11
0.0
 21
1.0
 31
0.0
 44
0.9
  1
179
 40
3.0
 41
6.4285714286
  0
LINE
  5
24D
100
AcDbEntity
  8
0
100
AcDbLine
 62
7
  6
CONTINUOUS
 10
146.5
 20
89.5
 11
175.5
 21
89.5
  0
LINE
  5
24E
100
AcDbEntity
  8
0
100
AcDbLine
 62
7
  6
CONTINUOUS
 10
146.4999999915
 20
-89.5
 11
175.5
 21
-89.5
  0
LINE
  5
24F
100
AcDbEntity
  8
0
100
AcDbLine
 62
7
  6
CONTINUOUS
 10
174.0
 20
89.5
 11
174.0
 21
0.0
  0
LINE
  5
250
100
AcDbEntity
  8
0
100
AcDbLine
 62
7
  6
CONTINUOUS
 10
174.0
 20
-89.5
 11
174.0
 21
0.0
  0
INSERT
  5
251
100
AcDbEntity
  8
0
100
AcDbBlockReference
 62
7
  6
CONTINUOUS
  2
_FILLED
 10
174.0
 20
89.5
 41
3.0
 42
3.0
 43
3.0
 50
90.0
  0
INSERT
  5
252
100
AcDbEntity
  8
0
100
AcDbBlockReference
 62
7
  6
CONTINUOUS
  2
_FILLED
 10
174.0
 20
-89.5
 41
3.0
 42
3.0
 43
3.0
 50
270.0
  0
ENDBLK
  5
253
100
AcDbEntity
  8
0
  6
BYBLOCK
 62
0
100
AcDbBlockEnd
  0
BLOCK
  5
254
100
AcDbEntity
  8
0
100
AcDbBlockBegin
 62
7
  6
CONTINUOUS
  2
*D5
 70
65
 10
0.0
 20
0.0
  3
*D5
  1

  0
MTEXT
  5
255
100
AcDbEntity
  8
0
100
AcDbMText
 62
7
  6
CONTINUOUS
  7
STANDARD
 71
2
 72
1
 10
160.25
 20
0.0
 30
0.0
 11
0.0
 21
1.0
 31
0.0
 44
0.9
  1
139
 40
3.0
 41
6.2142857143
  0
LINE
  5
256
100
AcDbEntity
  8
0
100
AcDbLine
 62
7
  6
CONTINUOUS
 10
136.5
 20
69.5
 11
165.5
 21
69.5
  0
LINE
  5
257
100
AcDbEntity
  8
0
100
AcDbLine
 62
7
  6
CONTINUOUS
 10
136.5
 20
-69.5
 11
165.5
 21
-69.5
  0
LINE
  5
258
100
AcDbEntity
  8
0
100
AcDbLine
 62
7
  6
CONTINUOUS
 10
164.0
 20
69.5
 11
164.0
 21
0.0
  0
LINE
  5
259
100
AcDbEntity
  8
0
100
AcDbLine
 62
7
  6
CONTINUOUS
 10
164.0
 20
-69.5
 11
164.0
 21
0.0
  0
INSERT
  5
25A
100
AcDbEntity
  8
0
100
AcDbBlockReference
 62
7
  6
CONTINUOUS
  2
_FILLED
 10
164.0
 20
69.5
 41
3.0
 42
3.0
 43
3.0
 50
90.0
  0
INSERT
  5
25B
100
AcDbEntity
  8
0
100
AcDbBlockReference
 62
7
  6
CONTINUOUS
  2
_FILLED
 10
164.0
 20
-69.5
 41
3.0
 42
3.0
 43
3.0
 50
270.0
  0
ENDBLK
  5
25C
100
AcDbEntity
  8
0
  6
BYBLOCK
 62
0
100
AcDbBlockEnd
  0
BLOCK
  5
25D
100
AcDbEntity
  8
0
100
AcDbBlockBegin
 62
7
  6
CONTINUOUS
  2
*D6
 70
65
 10
0.0
 20
0.0
  3
*D6
  1

  0
MTEXT
  5
25E
100
AcDbEntity
  8
0
100
AcDbMText
 62
7
  6
CONTINUOUS
  7
STANDARD
 71
2
 72
1
 10
0.0
 20
111.25
 30
0.0
 11
1.0
 21
0.0
 31
0.0
 44
0.9
  1
272
 40
3.0
 41
7.0714285714
  0
LINE
  5
25F
100
AcDbEntity
  8
0
100
AcDbLine
 62
7
  6
CONTINUOUS
 10
136.0
 20
70.0
 11
136.0
 21
109.0
  0
LINE
  5
260
100
AcDbEntity
  8
0
100
AcDbLine
 62
7
  6
CONTINUOUS
 10
-136.0
 20
70.0
 11
-136.0
 21
109.0
  0
LINE
  5
261
100
AcDbEntity
  8
0
100
AcDbLine
 62
7
  6
CONTINUOUS
 10
136.0
 20
107.5
 11
0.0
 21
107.5
  0
LINE
  5
262
100
AcDbEntity
  8
0
100
AcDbLine
 62
7
  6
CONTINUOUS
 10
-136.0
 20
107.5
 11
0.0
 21
107.5
  0
INSERT
  5
263
100
AcDbEntity
  8
0
100
AcDbBlockReference
 62
7
  6
CONTINUOUS
  2
_FILLED
 10
136.0
 20
107.5
 41
3.0
 42
3.0
 43
3.0
  0
INSERT
  5
264
100
AcDbEntity
  8
0
100
AcDbBlockReference
 62
7
  6
CONTINUOUS
  2
_FILLED
 10
-136.0
 20
107.5
 41
3.0
 42
3.0
 43
3.0
 50
180.0
  0
ENDBLK
  5
265
100
AcDbEntity
  8
0
  6
BYBLOCK
 62
0
100
AcDbBlockEnd
  0
BLOCK
  5
266
100
AcDbEntity
  8
0
100
AcDbBlockBegin
 62
7
  6
CONTINUOUS
  2
*D7
 70
65
 10
0.0
 20
0.0
  3
*D7
  1

  0
MTEXT
  5
267
100
AcDbEntity
  8
0
100
AcDbMText
 62
7
  6
CONTINUOUS
  7
STANDARD
 71
2
 72
1
 10
0.0
 20
101.25
 30
0.0
 11
1.0
 21
0.0
 31
0.0
 44
0.9
  1
82
 40
3.0
 41
4.7142857143
  0
LINE
  5
268
100
AcDbEntity
  8
0
100
AcDbLine
 62
7
  6
CONTINUOUS
 10
-41.0
 20
70.0
 11
-41.0
 21
99.0
  0
LINE
  5
269
100
AcDbEntity
  8
0
100
AcDbLine
 62
7
  6
CONTINUOUS
 10
41.0
 20
-69.0
 11
41.0
 21
99.0
  0
LINE
  5
26A
100
AcDbEntity
  8
0
100
AcDbLine
 62
7
  6
CONTINUOUS
 10
-41.0
 20
97.5
 11
0.0
 21
97.5
  0
LINE
  5
26B
100
AcDbEntity
  8
0
100
AcDbLine
 62
7
  6
CONTINUOUS
 10
41.0
 20
97.5
 11
0.0
 21
97.5
  0
INSERT
  5
26C
100
AcDbEntity
  8
0
100
AcDbBlockReference
 62
7
  6
CONTINUOUS
  2
_FILLED
 10
-41.0
 20
97.5
 41
3.0
 42
3.0
 43
3.0
 50
180.0
  0
INSERT
  5
26D
100
AcDbEntity
  8
0
100
AcDbBlockReference
 62
7
  6
CONTINUOUS
  2
_FILLED
 10
41.0
 20
97.5
 41
3.0
 42
3.0
 43
3.0
  0
ENDBLK
  5
26E
100
AcDbEntity
  8
0
  6
BYBLOCK
 62
0
100
AcDbBlockEnd
  0
ENDSEC
  0
SECTION
  2
ENTITIES
  0
DIMENSION
  5
26F
100
AcDbEntity
  8
0
100
AcDbDimension
 62
7
  6
CONTINUOUS
  2
*D0
 10
-207.4588403067
 20
107.5
 11
-249.5945545924
 21
109.75
 70
160
 71
2
 42
75.7
  3
DIMSTYLE_1
100
AcDbAlignedDimension
 13
-283.1588403067
 23
80.0
 14
-207.4588403067
 24
66.2586280076
100
AcDbRotatedDimension
  0
DIMENSION
  5
270
100
AcDbEntity
  8
0
100
AcDbDimension
 62
7
  6
CONTINUOUS
  2
*D1
 10
-277.4588403067
 20
97.5
 11
-244.8159831638
 21
99.75
 70
160
 71
2
 42
70.0
  3
DIMSTYLE_1
100
AcDbAlignedDimension
 13
-207.4588403067
 23
66.2586280076
 14
-277.4588403067
 24
90.0
 50
180.0
100
AcDbRotatedDimension
  0
DIMENSION
  5
271
100
AcDbEntity
  8
0
100
AcDbDimension
 62
7
  6
CONTINUOUS
  2
*D2
 10
-283.1588403067
 20
97.5
 11
-295.8334503452
 21
99.75
 70
160
 71
3
 42
5.7
  3
DIMSTYLE_1
100
AcDbAlignedDimension
 13
-277.4588403067
 23
90.0
 14
-283.1588403067
 24
80.0
 50
180.0
100
AcDbRotatedDimension
1001
ACAD
1000
DSTYLE
1002
{
1070
173
1070
1
1070
6
1000
_NONE
1002
}
  0
DIMENSION
  5
272
100
AcDbEntity
  8
0
100
AcDbDimension
 62
7
  6
CONTINUOUS
  2
*D3
 10
156.0
 20
117.5
 11
-3.1071428571
 21
119.75
 70
160
 71
2
 42
312.0
  3
DIMSTYLE_1
100
AcDbAlignedDimension
 13
-156.0
 23
80.0
 14
156.0
 24
79.9999999915
100
AcDbRotatedDimension
  0
DIMENSION
  5
273
100
AcDbEntity
  8
0
100
AcDbDimension
 62
7
  6
CONTINUOUS
  2
*D4
 10
174.0
 20
-89.5
 11
173.1902366233
 21
-2.8735607044
 70
160
 71
2
 42
179.0
  3
DIMSTYLE_1
100
AcDbAlignedDimension
 13
146.5
 23
89.5
 14
146.4999999915
 24
-89.5
 50
270.0
100
AcDbRotatedDimension
  0
DIMENSION
  5
274
100
AcDbEntity
  8
0
100
AcDbDimension
 62
7
  6
CONTINUOUS
  2
*D5
 10
164.0
 20
-69.5
 11
163.1422287358
 21
-2.7777753476
 70
160
 71
2
 42
139.0
  3
DIMSTYLE_1
100
AcDbAlignedDimension
 13
136.5
 23
69.5
 14
136.5
 24
-69.5
 50
270.0
100
AcDbRotatedDimension
  0
DIMENSION
  5
275
100
AcDbEntity
  8
0
100
AcDbDimension
 62
7
  6
CONTINUOUS
  2
*D6
 10
-136.0
 20
107.5
 11
-3.5357142857
 21
109.75
 70
160
 71
2
 42
272.0
  3
DIMSTYLE_1
100
AcDbAlignedDimension
 13
136.0
 23
70.0
 14
-136.0
 24
70.0
 50
180.0
100
AcDbRotatedDimension
  0
DIMENSION
  5
276
100
AcDbEntity
  8
0
100
AcDbDimension
 62
7
  6
CONTINUOUS
  2
*D7
 10
41.0
 20
97.5
 11
-2.3571428571
 21
99.75
 70
160
 71
2
 42
82.0
  3
DIMSTYLE_1
100
AcDbAlignedDimension
 13
-41.0
 23
70.0
 14
41.0
 24
-69.0
100
AcDbRotatedDimension
  0
LINE
  5
277
100
AcDbEntity
  8
RACCORDO
100
AcDbLine
 62
7
  6
CONTINUOUS
 10
-156.0
 20
79.5
 11
-156.0
 21
-79.5
  0
LINE
  5
278
100
AcDbEntity
  8
CURVE
100
AcDbLine
 62
7
  6
CONTINUOUS
 10
-156.0
 20
79.5
 11
-156.0
 21
-79.5
  0
LINE
  5
279
100
AcDbEntity
  8
RACCORDO
100
AcDbLine
 62
253
  6
CONTINUOUS
 10
-154.0
 20
79.5
 11
-154.0
 21
-79.5
  0
LINE
  5
27A
100
AcDbEntity
  8
RACCORDO
100
AcDbLine
 62
253
  6
CONTINUOUS
 10
-146.0
 20
-87.5
 11
-146.0
 21
-89.5
  0
LINE
  5
27B
100
AcDbEntity
  8
RACCORDO
100
AcDbLine
 62
253
  6
CONTINUOUS
 10
-146.0
 20
87.5
 11
-145.9999999915
 21
89.5
  0
LINE
  5
27C
100
AcDbEntity
  8
0
100
AcDbLine
 62
7
  6
CONTINUOUS
 10
-136.5197234842
 20
70.0197234842
 11
-136.35
 21
70.5901949367
  0
LINE
  5
27D
100
AcDbEntity
  8
0
100
AcDbLine
 62
7
  6
CONTINUOUS
 10
-135.65
 20
68.4098050633
 11
-135.4802765158
 21
68.9802765158
  0
LINE
  5
27E
100
AcDbEntity
  8
0
100
AcDbLine
 62
7
  6
CONTINUOUS
 10
-136.5197234842
 20
-70.0197234842
 11
-136.35
 21
-70.5901949367
  0
LINE
  5
27F
100
AcDbEntity
  8
0
100
AcDbLine
 62
7
  6
CONTINUOUS
 10
-135.65
 20
-68.4098050633
 11
-135.4802765158
 21
-68.9802765158
  0
LINE
  5
280
100
AcDbEntity
  8
0
100
AcDbLine
 62
7
  6
CONTINUOUS
 10
-137.145
 20
-69.85
 11
-137.145
 21
-69.15
  0
LINE
  5
281
100
AcDbEntity
  8
0
100
AcDbLine
 62
7
  6
CONTINUOUS
 10
-137.145
 20
69.15
 11
-137.145
 21
69.85
  0
LINE
  5
282
100
AcDbEntity
  8
0
100
AcDbLine
 62
7
  6
CONTINUOUS
 10
-136.5
 20
-72.2041634566
 11
-136.5
 21
-70.0860176963
  0
LINE
  5
283
100
AcDbEntity
  8
0
100
AcDbLine
 62
7
  6
CONTINUOUS
 10
-136.5
 20
-68.9139823037
 11
-136.5
 21
-66.7958365434
  0
LINE
  5
284
100
AcDbEntity
  8
0
100
AcDbLine
 62
7
  6
CONTINUOUS
 10
-136.5
 20
66.7958365434
 11
-136.5
 21
68.9139823037
  0
LINE
  5
285
100
AcDbEntity
  8
0
100
AcDbLine
 62
7
  6
CONTINUOUS
 10
-136.5
 20
70.0860176963
 11
-136.5
 21
72.2041634566
  0
LINE
  5
286
100
AcDbEntity
  8
0
100
AcDbLine
 62
7
  6
CONTINUOUS
 10
-136.35
 20
71.0937234472
 11
-136.35
 21
70.5901949367
  0
LINE
  5
287
100
AcDbEntity
  8
0
100
AcDbLine
 62
7
  6
CONTINUOUS
 10
-136.35
 20
68.4098050633
 11
-136.35
 21
67.9062765528
  0
LINE
  5
288
100
AcDbEntity
  8
0
100
AcDbLine
 62
7
  6
CONTINUOUS
 10
-136.35
 20
-67.9062765528
 11
-136.35
 21
-68.4098050633
  0
LINE
  5
289
100
AcDbEntity
  8
0
100
AcDbLine
 62
7
  6
CONTINUOUS
 10
-136.35
 20
-70.5901949367
 11
-136.35
 21
-71.0937234472
  0
LINE
  5
28A
100
AcDbEntity
  8
0
100
AcDbLine
 62
7
  6
CONTINUOUS
 10
-135.65
 20
71.0937234472
 11
-135.65
 21
70.5901949367
  0
LINE
  5
28B
100
AcDbEntity
  8
0
100
AcDbLine
 62
7
  6
CONTINUOUS
 10
-135.65
 20
68.4098050633
 11
-135.65
 21
67.9062765528
  0
LINE
  5
28C
100
AcDbEntity
  8
0
100
AcDbLine
 62
7
  6
CONTINUOUS
 10
-135.65
 20
-67.9062765528
 11
-135.65
 21
-68.4098050633
  0
LINE
  5
28D
100
AcDbEntity
  8
0
100
AcDbLine
 62
7
  6
CONTINUOUS
 10
-135.65
 20
-70.5901949367
 11
-135.65
 21
-71.0937234472
  0
LINE
  5
28E
100
AcDbEntity
  8
0
100
AcDbLine
 62
7
  6
CONTINUOUS
 10
-135.5
 20
72.2041634566
 11
-135.5
 21
70.0860176963
  0
LINE
  5
28F
100
AcDbEntity
  8
0
100
AcDbLine
 62
7
  6
CONTINUOUS
 10
-135.5
 20
68.9139823037
 11
-135.5
 21
66.7958365434
  0
LINE
  5
290
100
AcDbEntity
  8
0
100
AcDbLine
 62
7
  6
CONTINUOUS
 10
-135.5
 20
-66.7958365434
 11
-135.5
 21
-68.9139823037
  0
LINE
  5
291
100
AcDbEntity
  8
0
100
AcDbLine
 62
7
  6
CONTINUOUS
 10
-135.5
 20
-70.0860176963
 11
-135.5
 21
-72.2041634566
  0
LINE
  5
292
100
AcDbEntity
  8
0
100
AcDbLine
 62
7
  6
CONTINUOUS
 10
-134.855
 20
69.85
 11
-134.855
 21
69.15
  0
LINE
  5
293
100
AcDbEntity
  8
0
100
AcDbLine
 62
7
  6
CONTINUOUS
 10
-134.855
 20
-69.15
 11
-134.855
 21
-69.85
  0
LINE
  5
294
100
AcDbEntity
  8
0
100
AcDbLine
 62
7
  6
CONTINUOUS
 10
-136.35
 20
-68.4098050633
 11
-136.5197234842
 21
-68.9802765158
  0
LINE
  5
295
100
AcDbEntity
  8
0
100
AcDbLine
 62
7
  6
CONTINUOUS
 10
-135.4802765158
 20
-70.0197234842
 11
-135.65
 21
-70.5901949367
  0
LINE
  5
296
100
AcDbEntity
  8
0
100
AcDbLine
 62
7
  6
CONTINUOUS
 10
-136.35
 20
68.4098050633
 11
-136.5197234842
 21
68.9802765158
  0
LINE
  5
297
100
AcDbEntity
  8
0
100
AcDbLine
 62
7
  6
CONTINUOUS
 10
-135.4802765158
 20
70.0197234842
 11
-135.65
 21
70.5901949367
  0
LINE
  5
298
100
AcDbEntity
  8
0
100
AcDbLine
 62
7
  6
CONTINUOUS
 10
-137.0901949367
 20
69.85
 11
-136.5197234842
 21
70.0197234842
  0
LINE
  5
299
100
AcDbEntity
  8
0
100
AcDbLine
 62
7
  6
CONTINUOUS
 10
-134.9098050633
 20
69.15
 11
-135.4802765158
 21
68.9802765158
  0
LINE
  5
29A
100
AcDbEntity
  8
0
100
AcDbLine
 62
7
  6
CONTINUOUS
 10
-136.5197234842
 20
-70.0197234842
 11
-137.0901949367
 21
-69.85
  0
LINE
  5
29B
100
AcDbEntity
  8
0
100
AcDbLine
 62
7
  6
CONTINUOUS
 10
-135.4802765158
 20
-68.9802765158
 11
-134.9098050633
 21
-69.15
  0
LINE
  5
29C
100
AcDbEntity
  8
RACCORDO
100
AcDbLine
 62
7
  6
CONTINUOUS
 10
-146.0
 20
-89.5
 11
146.0
 21
-89.5
  0
LINE
  5
29D
100
AcDbEntity
  8
CURVE
100
AcDbLine
 62
7
  6
CONTINUOUS
 10
-146.0
 20
-89.5
 11
146.0
 21
-89.5
  0
LINE
  5
29E
100
AcDbEntity
  8
RACCORDO
100
AcDbLine
 62
253
  6
CONTINUOUS
 10
-146.0
 20
-87.5
 11
146.0
 21
-87.5
  0
LINE
  5
29F
100
AcDbEntity
  8
0
100
AcDbLine
 62
7
  6
CONTINUOUS
 10
-42.0901949367
 20
69.85
 11
-41.5197234842
 21
70.0197234842
  0
LINE
  5
2A0
100
AcDbEntity
  8
0
100
AcDbLine
 62
7
  6
CONTINUOUS
 10
-39.9098050633
 20
69.15
 11
-40.4802765158
 21
68.9802765158
  0
LINE
  5
2A1
100
AcDbEntity
  8
RACCORDO
100
AcDbLine
 62
253
  6
CONTINUOUS
 10
154.0
 20
-79.5
 11
156.0
 21
-79.5
  0
LINE
  5
2A2
100
AcDbEntity
  8
RACCORDO
100
AcDbLine
 62
253
  6
CONTINUOUS
 10
-154.0
 20
-79.5
 11
-156.0
 21
-79.4999999915
  0
LINE
  5
2A3
100
AcDbEntity
  8
0
100
AcDbLine
 62
7
  6
CONTINUOUS
 10
136.35
 20
-71.0937234472
 11
135.65
 21
-71.0937234472
  0
LINE
  5
2A4
100
AcDbEntity
  8
0
100
AcDbLine
 62
7
  6
CONTINUOUS
 10
41.35
 20
-71.0937234472
 11
40.65
 21
-71.0937234472
  0
LINE
  5
2A5
100
AcDbEntity
  8
0
100
AcDbLine
 62
7
  6
CONTINUOUS
 10
-135.65
 20
-71.0937234472
 11
-136.35
 21
-71.0937234472
  0
LINE
  5
2A6
100
AcDbEntity
  8
0
100
AcDbLine
 62
7
  6
CONTINUOUS
 10
136.35
 20
-70.645
 11
135.65
 21
-70.645
  0
LINE
  5
2A7
100
AcDbEntity
  8
0
100
AcDbLine
 62
7
  6
CONTINUOUS
 10
41.35
 20
-70.645
 11
40.65
 21
-70.645
  0
LINE
  5
2A8
100
AcDbEntity
  8
0
100
AcDbLine
 62
7
  6
CONTINUOUS
 10
-135.65
 20
-70.645
 11
-136.35
 21
-70.645
  0
LINE
  5
2A9
100
AcDbEntity
  8
0
100
AcDbLine
 62
7
  6
CONTINUOUS
 10
-41.5197234842
 20
70.0197234842
 11
-41.35
 21
70.5901949367
  0
LINE
  5
2AA
100
AcDbEntity
  8
0
100
AcDbLine
 62
7
  6
CONTINUOUS
 10
-40.65
 20
68.4098050633
 11
-40.4802765158
 21
68.9802765158
  0
LINE
  5
2AB
100
AcDbEntity
  8
0
100
AcDbLine
 62
7
  6
CONTINUOUS
 10
-137.9418577643
 20
-69.85
 11
-137.0901949367
 21
-69.85
  0
LINE
  5
2AC
100
AcDbEntity
  8
0
100
AcDbLine
 62
7
  6
CONTINUOUS
 10
-134.9098050633
 20
-69.85
 11
-134.0581422357
 21
-69.85
  0
LINE
  5
2AD
100
AcDbEntity
  8
0
100
AcDbLine
 62
7
  6
CONTINUOUS
 10
39.0581422357
 20
-69.85
 11
39.9098050633
 21
-69.85
  0
LINE
  5
2AE
100
AcDbEntity
  8
0
100
AcDbLine
 62
7
  6
CONTINUOUS
 10
42.0901949367
 20
-69.85
 11
42.9418577643
 21
-69.85
  0
LINE
  5
2AF
100
AcDbEntity
  8
0
100
AcDbLine
 62
7
  6
CONTINUOUS
 10
134.0581422357
 20
-69.85
 11
134.9098050633
 21
-69.85
  0
LINE
  5
2B0
100
AcDbEntity
  8
0
100
AcDbLine
 62
7
  6
CONTINUOUS
 10
137.0901949367
 20
-69.85
 11
137.9418577643
 21
-69.85
  0
LINE
  5
2B1
100
AcDbEntity
  8
0
100
AcDbLine
 62
7
  6
CONTINUOUS
 10
-137.9418577643
 20
-69.15
 11
-137.0901949367
 21
-69.15
  0
LINE
  5
2B2
100
AcDbEntity
  8
0
100
AcDbLine
 62
7
  6
CONTINUOUS
 10
-134.9098050633
 20
-69.15
 11
-134.0581422357
 21
-69.15
  0
LINE
  5
2B3
100
AcDbEntity
  8
0
100
AcDbLine
 62
7
  6
CONTINUOUS
 10
39.0581422357
 20
-69.15
 11
39.9098050633
 21
-69.15
  0
LINE
  5
2B4
100
AcDbEntity
  8
0
100
AcDbLine
 62
7
  6
CONTINUOUS
 10
42.0901949367
 20
-69.15
 11
42.9418577643
 21
-69.15
  0
LINE
  5
2B5
100
AcDbEntity
  8
0
100
AcDbLine
 62
7
  6
CONTINUOUS
 10
134.0581422357
 20
-69.15
 11
134.9098050633
 21
-69.15
  0
LINE
  5
2B6
100
AcDbEntity
  8
0
100
AcDbLine
 62
7
  6
CONTINUOUS
 10
137.0901949367
 20
-69.15
 11
137.9418577643
 21
-69.15
  0
LINE
  5
2B7
100
AcDbEntity
  8
0
100
AcDbLine
 62
7
  6
CONTINUOUS
 10
-136.35
 20
-68.355
 11
-135.65
 21
-68.355
  0
LINE
  5
2B8
100
AcDbEntity
  8
0
100
AcDbLine
 62
7
  6
CONTINUOUS
 10
40.65
 20
-68.355
 11
41.35
 21
-68.355
  0
LINE
  5
2B9
100
AcDbEntity
  8
0
100
AcDbLine
 62
7
  6
CONTINUOUS
 10
135.65
 20
-68.355
 11
136.35
 21
-68.355
  0
LINE
  5
2BA
100
AcDbEntity
  8
0
100
AcDbLine
 62
7
  6
CONTINUOUS
 10
136.35
 20
-67.9062765528
 11
135.65
 21
-67.9062765528
  0
LINE
  5
2BB
100
AcDbEntity
  8
0
100
AcDbLine
 62
7
  6
CONTINUOUS
 10
41.35
 20
-67.9062765528
 11
40.65
 21
-67.9062765528
  0
LINE
  5
2BC
100
AcDbEntity
  8
0
100
AcDbLine
 62
7
  6
CONTINUOUS
 10
-135.65
 20
-67.9062765528
 11
-136.35
 21
-67.9062765528
  0
LINE
  5
2BD
100
AcDbEntity
  8
0
100
AcDbLine
 62
7
  6
CONTINUOUS
 10
40.4802765158
 20
-70.0197234842
 11
39.9098050633
 21
-69.85
  0
LINE
  5
2BE
100
AcDbEntity
  8
0
100
AcDbLine
 62
7
  6
CONTINUOUS
 10
41.5197234842
 20
-68.9802765158
 11
42.0901949367
 21
-69.15
  0
LINE
  5
2BF
100
AcDbEntity
  8
0
100
AcDbLine
 62
7
  6
CONTINUOUS
 10
-42.145
 20
69.15
 11
-42.145
 21
69.85
  0
LINE
  5
2C0
100
AcDbEntity
  8
0
100
AcDbLine
 62
7
  6
CONTINUOUS
 10
-41.5
 20
66.7958365434
 11
-41.5
 21
68.9139823037
  0
LINE
  5
2C1
100
AcDbEntity
  8
0
100
AcDbLine
 62
7
  6
CONTINUOUS
 10
-41.5
 20
70.0860176963
 11
-41.5
 21
72.2041634566
  0
LINE
  5
2C2
100
AcDbEntity
  8
0
100
AcDbLine
 62
7
  6
CONTINUOUS
 10
-41.35
 20
71.0937234472
 11
-41.35
 21
70.5901949367
  0
LINE
  5
2C3
100
AcDbEntity
  8
0
100
AcDbLine
 62
7
  6
CONTINUOUS
 10
-41.35
 20
68.4098050633
 11
-41.35
 21
67.9062765528
  0
LINE
  5
2C4
100
AcDbEntity
  8
0
100
AcDbLine
 62
7
  6
CONTINUOUS
 10
-40.65
 20
71.0937234472
 11
-40.65
 21
70.5901949367
  0
LINE
  5
2C5
100
AcDbEntity
  8
0
100
AcDbLine
 62
7
  6
CONTINUOUS
 10
-40.65
 20
68.4098050633
 11
-40.65
 21
67.9062765528
  0
LINE
  5
2C6
100
AcDbEntity
  8
0
100
AcDbLine
 62
7
  6
CONTINUOUS
 10
-40.5
 20
72.2041634566
 11
-40.5
 21
70.0860176963
  0
LINE
  5
2C7
100
AcDbEntity
  8
0
100
AcDbLine
 62
7
  6
CONTINUOUS
 10
-40.5
 20
68.9139823037
 11
-40.5
 21
66.7958365434
  0
LINE
  5
2C8
100
AcDbEntity
  8
0
100
AcDbLine
 62
7
  6
CONTINUOUS
 10
-39.855
 20
69.85
 11
-39.855
 21
69.15
  0
LINE
  5
2C9
100
AcDbEntity
  8
0
100
AcDbLine
 62
7
  6
CONTINUOUS
 10
134.9098050633
 20
69.85
 11
135.4802765158
 21
70.0197234842
  0
LINE
  5
2CA
100
AcDbEntity
  8
0
100
AcDbLine
 62
7
  6
CONTINUOUS
 10
137.0901949367
 20
69.15
 11
136.5197234842
 21
68.9802765158
  0
LINE
  5
2CB
100
AcDbEntity
  8
0
100
AcDbLine
 62
7
  6
CONTINUOUS
 10
135.4802765158
 20
-70.0197234842
 11
134.9098050633
 21
-69.85
  0
LINE
  5
2CC
100
AcDbEntity
  8
0
100
AcDbLine
 62
7
  6
CONTINUOUS
 10
136.5197234842
 20
-68.9802765158
 11
137.0901949367
 21
-69.15
  0
LINE
  5
2CD
100
AcDbEntity
  8
0
100
AcDbLine
 62
7
  6
CONTINUOUS
 10
-41.35
 20
68.4098050633
 11
-41.5197234842
 21
68.9802765158
  0
LINE
  5
2CE
100
AcDbEntity
  8
0
100
AcDbLine
 62
7
  6
CONTINUOUS
 10
-40.4802765158
 20
70.0197234842
 11
-40.65
 21
70.5901949367
  0
LINE
  5
2CF
100
AcDbEntity
  8
0
100
AcDbLine
 62
7
  6
CONTINUOUS
 10
40.4802765158
 20
-70.0197234842
 11
40.65
 21
-70.5901949367
  0
LINE
  5
2D0
100
AcDbEntity
  8
0
100
AcDbLine
 62
7
  6
CONTINUOUS
 10
41.35
 20
-68.4098050633
 11
41.5197234842
 21
-68.9802765158
  0
LINE
  5
2D1
100
AcDbEntity
  8
0
100
AcDbLine
 62
7
  6
CONTINUOUS
 10
-137.0901949367
 20
-69.15
 11
-136.5197234842
 21
-68.9802765158
  0
LINE
  5
2D2
100
AcDbEntity
  8
0
100
AcDbLine
 62
7
  6
CONTINUOUS
 10
-134.9098050633
 20
-69.85
 11
-135.4802765158
 21
-70.0197234842
  0
LINE
  5
2D3
100
AcDbEntity
  8
0
100
AcDbLine
 62
7
  6
CONTINUOUS
 10
-136.5197234842
 20
68.9802765158
 11
-137.0901949367
 21
69.15
  0
LINE
  5
2D4
100
AcDbEntity
  8
0
100
AcDbLine
 62
7
  6
CONTINUOUS
 10
-135.4802765158
 20
70.0197234842
 11
-134.9098050633
 21
69.85
  0
LINE
  5
2D5
100
AcDbEntity
  8
0
100
AcDbLine
 62
7
  6
CONTINUOUS
 10
39.855
 20
-69.85
 11
39.855
 21
-69.15
  0
LINE
  5
2D6
100
AcDbEntity
  8
0
100
AcDbLine
 62
7
  6
CONTINUOUS
 10
40.5
 20
-72.2041634566
 11
40.5
 21
-70.0860176963
  0
LINE
  5
2D7
100
AcDbEntity
  8
0
100
AcDbLine
 62
7
  6
CONTINUOUS
 10
40.5
 20
-68.9139823037
 11
40.5
 21
-66.7958365434
  0
LINE
  5
2D8
100
AcDbEntity
  8
0
100
AcDbLine
 62
7
  6
CONTINUOUS
 10
40.65
 20
-67.9062765528
 11
40.65
 21
-68.4098050633
  0
LINE
  5
2D9
100
AcDbEntity
  8
0
100
AcDbLine
 62
7
  6
CONTINUOUS
 10
40.65
 20
-70.5901949367
 11
40.65
 21
-71.0937234472
  0
LINE
  5
2DA
100
AcDbEntity
  8
0
100
AcDbLine
 62
7
  6
CONTINUOUS
 10
41.35
 20
-67.9062765528
 11
41.35
 21
-68.4098050633
  0
LINE
  5
2DB
100
AcDbEntity
  8
0
100
AcDbLine
 62
7
  6
CONTINUOUS
 10
41.35
 20
-70.5901949367
 11
41.35
 21
-71.0937234472
  0
LINE
  5
2DC
100
AcDbEntity
  8
0
100
AcDbLine
 62
7
  6
CONTINUOUS
 10
41.5
 20
-66.7958365434
 11
41.5
 21
-68.9139823037
  0
LINE
  5
2DD
100
AcDbEntity
  8
0
100
AcDbLine
 62
7
  6
CONTINUOUS
 10
41.5
 20
-70.0860176963
 11
41.5
 21
-72.2041634566
  0
LINE
  5
2DE
100
AcDbEntity
  8
0
100
AcDbLine
 62
7
  6
CONTINUOUS
 10
42.145
 20
-69.15
 11
42.145
 21
-69.85
  0
LINE
  5
2DF
100
AcDbEntity
  8
0
100
AcDbLine
 62
7
  6
CONTINUOUS
 10
40.65
 20
-68.4098050633
 11
40.4802765158
 21
-68.9802765158
  0
LINE
  5
2E0
100
AcDbEntity
  8
0
100
AcDbLine
 62
7
  6
CONTINUOUS
 10
41.5197234842
 20
-70.0197234842
 11
41.35
 21
-70.5901949367
  0
LINE
  5
2E1
100
AcDbEntity
  8
0
100
AcDbLine
 62
7
  6
CONTINUOUS
 10
-41.5197234842
 20
68.9802765158
 11
-42.0901949367
 21
69.15
  0
LINE
  5
2E2
100
AcDbEntity
  8
0
100
AcDbLine
 62
7
  6
CONTINUOUS
 10
-40.4802765158
 20
70.0197234842
 11
-39.9098050633
 21
69.85
  0
LINE
  5
2E3
100
AcDbEntity
  8
0
100
AcDbLine
 62
7
  6
CONTINUOUS
 10
136.35
 20
67.9062765528
 11
135.65
 21
67.9062765528
  0
LINE
  5
2E4
100
AcDbEntity
  8
0
100
AcDbLine
 62
7
  6
CONTINUOUS
 10
-40.65
 20
67.9062765528
 11
-41.35
 21
67.9062765528
  0
LINE
  5
2E5
100
AcDbEntity
  8
0
100
AcDbLine
 62
7
  6
CONTINUOUS
 10
-135.65
 20
67.9062765528
 11
-136.35
 21
67.9062765528
  0
LINE
  5
2E6
100
AcDbEntity
  8
0
100
AcDbLine
 62
7
  6
CONTINUOUS
 10
136.35
 20
68.355
 11
135.65
 21
68.355
  0
LINE
  5
2E7
100
AcDbEntity
  8
0
100
AcDbLine
 62
7
  6
CONTINUOUS
 10
-40.65
 20
68.355
 11
-41.35
 21
68.355
  0
LINE
  5
2E8
100
AcDbEntity
  8
0
100
AcDbLine
 62
7
  6
CONTINUOUS
 10
-135.65
 20
68.355
 11
-136.35
 21
68.355
  0
LINE
  5
2E9
100
AcDbEntity
  8
0
100
AcDbLine
 62
7
  6
CONTINUOUS
 10
-137.9418577643
 20
69.15
 11
-137.0901949367
 21
69.15
  0
LINE
  5
2EA
100
AcDbEntity
  8
0
100
AcDbLine
 62
7
  6
CONTINUOUS
 10
-134.9098050633
 20
69.15
 11
-134.0581422357
 21
69.15
  0
LINE
  5
2EB
100
AcDbEntity
  8
0
100
AcDbLine
 62
7
  6
CONTINUOUS
 10
-42.9418577643
 20
69.15
 11
-42.0901949367
 21
69.15
  0
LINE
  5
2EC
100
AcDbEntity
  8
0
100
AcDbLine
 62
7
  6
CONTINUOUS
 10
-39.9098050633
 20
69.15
 11
-39.0581422357
 21
69.15
  0
LINE
  5
2ED
100
AcDbEntity
  8
0
100
AcDbLine
 62
7
  6
CONTINUOUS
 10
134.0581422357
 20
69.15
 11
134.9098050633
 21
69.15
  0
LINE
  5
2EE
100
AcDbEntity
  8
0
100
AcDbLine
 62
7
  6
CONTINUOUS
 10
137.0901949367
 20
69.15
 11
137.9418577643
 21
69.15
  0
LINE
  5
2EF
100
AcDbEntity
  8
0
100
AcDbLine
 62
7
  6
CONTINUOUS
 10
-137.9418577643
 20
69.85
 11
-137.0901949367
 21
69.85
  0
LINE
  5
2F0
100
AcDbEntity
  8
0
100
AcDbLine
 62
7
  6
CONTINUOUS
 10
-134.9098050633
 20
69.85
 11
-134.0581422357
 21
69.85
  0
LINE
  5
2F1
100
AcDbEntity
  8
0
100
AcDbLine
 62
7
  6
CONTINUOUS
 10
-42.9418577643
 20
69.85
 11
-42.0901949367
 21
69.85
  0
LINE
  5
2F2
100
AcDbEntity
  8
0
100
AcDbLine
 62
7
  6
CONTINUOUS
 10
-39.9098050633
 20
69.85
 11
-39.0581422357
 21
69.85
  0
LINE
  5
2F3
100
AcDbEntity
  8
0
100
AcDbLine
 62
7
  6
CONTINUOUS
 10
134.0581422357
 20
69.85
 11
134.9098050633
 21
69.85
  0
LINE
  5
2F4
100
AcDbEntity
  8
0
100
AcDbLine
 62
7
  6
CONTINUOUS
 10
137.0901949367
 20
69.85
 11
137.9418577643
 21
69.85
  0
LINE
  5
2F5
100
AcDbEntity
  8
0
100
AcDbLine
 62
7
  6
CONTINUOUS
 10
-136.35
 20
70.645
 11
-135.65
 21
70.645
  0
LINE
  5
2F6
100
AcDbEntity
  8
0
100
AcDbLine
 62
7
  6
CONTINUOUS
 10
-41.35
 20
70.645
 11
-40.65
 21
70.645
  0
LINE
  5
2F7
100
AcDbEntity
  8
0
100
AcDbLine
 62
7
  6
CONTINUOUS
 10
135.65
 20
70.645
 11
136.35
 21
70.645
  0
LINE
  5
2F8
100
AcDbEntity
  8
0
100
AcDbLine
 62
7
  6
CONTINUOUS
 10
136.35
 20
71.0937234472
 11
135.65
 21
71.0937234472
  0
LINE
  5
2F9
100
AcDbEntity
  8
0
100
AcDbLine
 62
7
  6
CONTINUOUS
 10
-40.65
 20
71.0937234472
 11
-41.35
 21
71.0937234472
  0
LINE
  5
2FA
100
AcDbEntity
  8
0
100
AcDbLine
 62
7
  6
CONTINUOUS
 10
-135.65
 20
71.0937234472
 11
-136.35
 21
71.0937234472
  0
LINE
  5
2FB
100
AcDbEntity
  8
0
100
AcDbLine
 62
7
  6
CONTINUOUS
 10
39.9098050633
 20
-69.15
 11
40.4802765158
 21
-68.9802765158
  0
LINE
  5
2FC
100
AcDbEntity
  8
0
100
AcDbLine
 62
7
  6
CONTINUOUS
 10
42.0901949367
 20
-69.85
 11
41.5197234842
 21
-70.0197234842
  0
LINE
  5
2FD
100
AcDbEntity
  8
RACCORDO
100
AcDbLine
 62
253
  6
CONTINUOUS
 10
154.0
 20
79.5
 11
156.0
 21
79.4999999915
  0
LINE
  5
2FE
100
AcDbEntity
  8
RACCORDO
100
AcDbLine
 62
253
  6
CONTINUOUS
 10
-154.0
 20
79.5
 11
-156.0
 21
79.5
  0
LINE
  5
2FF
100
AcDbEntity
  8
RACCORDO
100
AcDbLine
 62
253
  6
CONTINUOUS
 10
146.0
 20
87.5
 11
-146.0
 21
87.5
  0
LINE
  5
300
100
AcDbEntity
  8
RACCORDO
100
AcDbLine
 62
7
  6
CONTINUOUS
 10
146.0
 20
89.5
 11
-146.0
 21
89.5
  0
LINE
  5
301
100
AcDbEntity
  8
CURVE
100
AcDbLine
 62
7
  6
CONTINUOUS
 10
146.0
 20
89.5
 11
-146.0
 21
89.5
  0
LINE
  5
302
100
AcDbEntity
  8
0
100
AcDbLine
 62
7
  6
CONTINUOUS
 10
134.9098050633
 20
-69.15
 11
135.4802765158
 21
-68.9802765158
  0
LINE
  5
303
100
AcDbEntity
  8
0
100
AcDbLine
 62
7
  6
CONTINUOUS
 10
137.0901949367
 20
-69.85
 11
136.5197234842
 21
-70.0197234842
  0
LINE
  5
304
100
AcDbEntity
  8
0
100
AcDbLine
 62
7
  6
CONTINUOUS
 10
135.4802765158
 20
68.9802765158
 11
134.9098050633
 21
69.15
  0
LINE
  5
305
100
AcDbEntity
  8
0
100
AcDbLine
 62
7
  6
CONTINUOUS
 10
136.5197234842
 20
70.0197234842
 11
137.0901949367
 21
69.85
  0
LINE
  5
306
100
AcDbEntity
  8
0
100
AcDbLine
 62
7
  6
CONTINUOUS
 10
135.4802765158
 20
70.0197234842
 11
135.65
 21
70.5901949367
  0
LINE
  5
307
100
AcDbEntity
  8
0
100
AcDbLine
 62
7
  6
CONTINUOUS
 10
136.35
 20
68.4098050633
 11
136.5197234842
 21
68.9802765158
  0
LINE
  5
308
100
AcDbEntity
  8
0
100
AcDbLine
 62
7
  6
CONTINUOUS
 10
135.4802765158
 20
-70.0197234842
 11
135.65
 21
-70.5901949367
  0
LINE
  5
309
100
AcDbEntity
  8
0
100
AcDbLine
 62
7
  6
CONTINUOUS
 10
136.35
 20
-68.4098050633
 11
136.5197234842
 21
-68.9802765158
  0
LINE
  5
30A
100
AcDbEntity
  8
0
100
AcDbLine
 62
7
  6
CONTINUOUS
 10
134.855
 20
-69.85
 11
134.855
 21
-69.15
  0
LINE
  5
30B
100
AcDbEntity
  8
0
100
AcDbLine
 62
7
  6
CONTINUOUS
 10
134.855
 20
69.15
 11
134.855
 21
69.85
  0
LINE
  5
30C
100
AcDbEntity
  8
0
100
AcDbLine
 62
7
  6
CONTINUOUS
 10
135.5
 20
-72.2041634566
 11
135.5
 21
-70.0860176963
  0
LINE
  5
30D
100
AcDbEntity
  8
0
100
AcDbLine
 62
7
  6
CONTINUOUS
 10
135.5
 20
-68.9139823037
 11
135.5
 21
-66.7958365434
  0
LINE
  5
30E
100
AcDbEntity
  8
0
100
AcDbLine
 62
7
  6
CONTINUOUS
 10
135.5
 20
66.7958365434
 11
135.5
 21
68.9139823037
  0
LINE
  5
30F
100
AcDbEntity
  8
0
100
AcDbLine
 62
7
  6
CONTINUOUS
 10
135.5
 20
70.0860176963
 11
135.5
 21
72.2041634566
  0
LINE
  5
310
100
AcDbEntity
  8
0
100
AcDbLine
 62
7
  6
CONTINUOUS
 10
135.65
 20
71.0937234472
 11
135.65
 21
70.5901949367
  0
LINE
  5
311
100
AcDbEntity
  8
0
100
AcDbLine
 62
7
  6
CONTINUOUS
 10
135.65
 20
68.4098050633
 11
135.65
 21
67.9062765528
  0
LINE
  5
312
100
AcDbEntity
  8
0
100
AcDbLine
 62
7
  6
CONTINUOUS
 10
135.65
 20
-67.9062765528
 11
135.65
 21
-68.4098050633
  0
LINE
  5
313
100
AcDbEntity
  8
0
100
AcDbLine
 62
7
  6
CONTINUOUS
 10
135.65
 20
-70.5901949367
 11
135.65
 21
-71.0937234472
  0
LINE
  5
314
100
AcDbEntity
  8
0
100
AcDbLine
 62
7
  6
CONTINUOUS
 10
136.35
 20
71.0937234472
 11
136.35
 21
70.5901949367
  0
LINE
  5
315
100
AcDbEntity
  8
0
100
AcDbLine
 62
7
  6
CONTINUOUS
 10
136.35
 20
68.4098050633
 11
136.35
 21
67.9062765528
  0
LINE
  5
316
100
AcDbEntity
  8
0
100
AcDbLine
 62
7
  6
CONTINUOUS
 10
136.35
 20
-67.9062765528
 11
136.35
 21
-68.4098050633
  0
LINE
  5
317
100
AcDbEntity
  8
0
100
AcDbLine
 62
7
  6
CONTINUOUS
 10
136.35
 20
-70.5901949367
 11
136.35
 21
-71.0937234472
  0
LINE
  5
318
100
AcDbEntity
  8
0
100
AcDbLine
 62
7
  6
CONTINUOUS
 10
136.5
 20
72.2041634566
 11
136.5
 21
70.0860176963
  0
LINE
  5
319
100
AcDbEntity
  8
0
100
AcDbLine
 62
7
  6
CONTINUOUS
 10
136.5
 20
68.9139823037
 11
136.5
 21
66.7958365434
  0
LINE
  5
31A
100
AcDbEntity
  8
0
100
AcDbLine
 62
7
  6
CONTINUOUS
 10
136.5
 20
-66.7958365434
 11
136.5
 21
-68.9139823037
  0
LINE
  5
31B
100
AcDbEntity
  8
0
100
AcDbLine
 62
7
  6
CONTINUOUS
 10
136.5
 20
-70.0860176963
 11
136.5
 21
-72.2041634566
  0
LINE
  5
31C
100
AcDbEntity
  8
0
100
AcDbLine
 62
7
  6
CONTINUOUS
 10
137.145
 20
69.85
 11
137.145
 21
69.15
  0
LINE
  5
31D
100
AcDbEntity
  8
0
100
AcDbLine
 62
7
  6
CONTINUOUS
 10
137.145
 20
-69.15
 11
137.145
 21
-69.85
  0
LINE
  5
31E
100
AcDbEntity
  8
RACCORDO
100
AcDbLine
 62
253
  6
CONTINUOUS
 10
146.0
 20
-87.5
 11
145.9999999915
 21
-89.5
  0
LINE
  5
31F
100
AcDbEntity
  8
RACCORDO
100
AcDbLine
 62
253
  6
CONTINUOUS
 10
146.0
 20
87.5
 11
146.0
 21
89.5
  0
LINE
  5
320
100
AcDbEntity
  8
RACCORDO
100
AcDbLine
 62
253
  6
CONTINUOUS
 10
154.0
 20
-79.5
 11
154.0
 21
79.5
  0
LINE
  5
321
100
AcDbEntity
  8
RACCORDO
100
AcDbLine
 62
7
  6
CONTINUOUS
 10
156.0
 20
-79.5
 11
156.0
 21
79.5
  0
LINE
  5
322
100
AcDbEntity
  8
CURVE
100
AcDbLine
 62
7
  6
CONTINUOUS
 10
156.0
 20
-79.5
 11
156.0
 21
79.5
  0
LINE
  5
323
100
AcDbEntity
  8
0
100
AcDbLine
 62
7
  6
CONTINUOUS
 10
135.65
 20
-68.4098050633
 11
135.4802765158
 21
-68.9802765158
  0
LINE
  5
324
100
AcDbEntity
  8
0
100
AcDbLine
 62
7
  6
CONTINUOUS
 10
136.5197234842
 20
-70.0197234842
 11
136.35
 21
-70.5901949367
  0
LINE
  5
325
100
AcDbEntity
  8
0
100
AcDbLine
 62
7
  6
CONTINUOUS
 10
135.65
 20
68.4098050633
 11
135.4802765158
 21
68.9802765158
  0
LINE
  5
326
100
AcDbEntity
  8
0
100
AcDbLine
 62
7
  6
CONTINUOUS
 10
136.5197234842
 20
70.0197234842
 11
136.35
 21
70.5901949367
  0
LINE
  5
327
100
AcDbEntity
  8
RACCORDO
100
AcDbLine
 62
7
  6
CONTINUOUS
 10
-277.4588403067
 20
-89.5
 11
-281.1588403067
 21
-89.5
  0
LINE
  5
328
100
AcDbEntity
  8
ASSI
100
AcDbLine
 62
7
  6
CONTINUOUS
 10
-277.4588403067
 20
-89.5
 11
-281.1588403067
 21
-89.5
  0
LINE
  5
329
100
AcDbEntity
  8
DRAFT
100
AcDbLine
 62
7
  6
CONTINUOUS
 10
-274.6588403067
 20
-84.5
 11
-269.8588403067
 21
-84.5
  0
LINE
  5
32A
100
AcDbEntity
  8
RACCORDO
100
AcDbLine
 62
7
  6
CONTINUOUS
 10
-276.4762927131
 20
-83.3076896529
 11
-265.4588403067
 21
-83.5
  0
LINE
  5
32B
100
AcDbEntity
  8
DRAFT
100
AcDbLine
 62
7
  6
CONTINUOUS
 10
-275.0177451356
 20
77.0426094747
 11
-265.4588403067
 21
81.5
  0
LINE
  5
32C
100
AcDbEntity
  8
DRAFT
100
AcDbLine
 62
7
  6
CONTINUOUS
 10
-262.4413879002
 20
-83.4473301723
 11
-265.4588403067
 21
-83.5
  0
LINE
  5
32D
100
AcDbEntity
  8
RACCORDO
100
AcDbLine
 62
7
  6
CONTINUOUS
 10
-262.4413879002
 20
-83.4473301723
 11
-265.4588403067
 21
-83.5
  0
LINE
  5
32E
100
AcDbEntity
  8
RACCORDO
100
AcDbLine
 62
253
  6
CONTINUOUS
 10
-276.4762927131
 20
-82.3078419577
 11
-277.4588403067
 21
-82.3078419577
  0
LINE
  5
32F
100
AcDbEntity
  8
RACCORDO
100
AcDbLine
 62
253
  6
CONTINUOUS
 10
-277.4588403067
 20
-79.5
 11
-283.1588403067
 21
-79.5
  0
LINE
  5
330
100
AcDbEntity
  8
RACCORDO
100
AcDbLine
 62
253
  6
CONTINUOUS
 10
-276.4762927131
 20
-82.3078419577
 11
-265.4588403067
 21
-82.5001523048
  0
LINE
  5
331
100
AcDbEntity
  8
DRAFT
100
AcDbLine
 62
7
  6
CONTINUOUS
 10
-265.4588403067
 20
-77.2094607791
 11
-277.4588403067
 21
-77.0
  0
LINE
  5
332
100
AcDbEntity
  8
DRAFT
100
AcDbLine
 62
7
  6
CONTINUOUS
 10
-265.4588403067
 20
-81.5
 11
-275.0177451356
 21
-77.0426094747
  0
LINE
  5
333
100
AcDbEntity
  8
DRAFT
100
AcDbLine
 62
7
  6
CONTINUOUS
 10
-261.4588403067
 20
-74.7207189611
 11
-210.9588403067
 21
-73.8392381823
  0
LINE
  5
334
100
AcDbEntity
  8
RACCORDO
100
AcDbLine
 62
7
  6
CONTINUOUS
 10
-210.8977568841
 20
-73.8381719672
 11
-210.9588403067
 21
-73.8392381823
  0
LINE
  5
335
100
AcDbEntity
  8
DRAFT
100
AcDbLine
 62
7
  6
CONTINUOUS
 10
-261.4588403067
 20
-71.1336114211
 11
-210.9588403067
 21
-70.4168245094
  0
LINE
  5
336
100
AcDbEntity
  8
DRAFT
100
AcDbLine
 62
7
  6
CONTINUOUS
 10
-210.9588403067
 20
-72.0887205007
 11
-261.4588403067
 21
-72.6185356616
  0
LINE
  5
337
100
AcDbEntity
  8
RACCORDO
100
AcDbLine
 62
7
  6
CONTINUOUS
 10
-221.5443534359
 20
-70.5670731681
 11
-207.7580549094
 21
-70.5521231537
  0
LINE
  5
338
100
AcDbEntity
  8
DRAFT
100
AcDbLine
 62
7
  6
CONTINUOUS
 10
-261.4588403067
 20
-71.1896715813
 11
-210.9588403067
 21
-71.3766433321
  0
LINE
  5
339
100
AcDbEntity
  8
RACCORDO
100
AcDbLine
 62
7
  6
CONTINUOUS
 10
-209.0588403067
 20
-63.8
 11
-261.4588403067
 21
-64.7146454022
  0
LINE
  5
33A
100
AcDbEntity
  8
DRAFT
100
AcDbLine
 62
7
  6
CONTINUOUS
 10
-261.4588403067
 20
-69.0314281215
 11
-210.9588403067
 21
-68.6663068279
  0
LINE
  5
33B
100
AcDbEntity
  8
DRAFT
100
AcDbLine
 62
7
  6
CONTINUOUS
 10
-210.9588403067
 20
-69.1229694464
 11
-207.7580549094
 21
-69.1145897907
  0
LINE
  5
33C
100
AcDbEntity
  8
RACCORDO
100
AcDbLine
 62
7
  6
CONTINUOUS
 10
-210.9588403067
 20
-65.7677910071
 11
-207.4588403067
 21
-65.7586280076
  0
LINE
  5
33D
100
AcDbEntity
  8
DRAFT
100
AcDbLine
 62
253
  6
CONTINUOUS
 10
-265.4588403067
 20
-68.0
 11
-277.4588403067
 21
-68.0
  0
LINE
  5
33E
100
AcDbEntity
  8
RACCORDO
100
AcDbLine
 62
253
  6
CONTINUOUS
 10
-261.4588403067
 20
-61.5
 11
-265.4588403067
 21
-61.5
  0
LINE
  5
33F
100
AcDbEntity
  8
RACCORDO
100
AcDbLine
 62
253
  6
CONTINUOUS
 10
-215.0588403067
 20
-63.7545413434
 11
-211.8581695433
 21
-63.8105269627
  0
LINE
  5
340
100
AcDbEntity
  8
RACCORDO
100
AcDbLine
 62
7
  6
CONTINUOUS
 10
-209.0588403067
 20
-62.2
 11
-258.3850189163
 21
-61.3390083497
  0
LINE
  5
341
100
AcDbEntity
  8
DRAFT
100
AcDbLine
 62
7
  6
CONTINUOUS
 10
-275.0177451356
 20
-57.2982385657
 11
-265.4588403067
 21
-57.4650898701
  0
LINE
  5
342
100
AcDbEntity
  8
RACCORDO
100
AcDbLine
 62
7
  6
CONTINUOUS
 10
-261.4588403067
 20
-57.8924633827
 11
-259.8588403067
 21
-57.6103402135
  0
LINE
  5
343
100
AcDbEntity
  8
DRAFT
100
AcDbLine
 62
7
  6
CONTINUOUS
 10
-275.0177451356
 20
-56.3017614343
 11
-265.4588403067
 21
-56.1349101299
  0
LINE
  5
344
100
AcDbEntity
  8
SMUSSO
100
AcDbLine
 62
7
  6
CONTINUOUS
 10
-259.8588403067
 20
-44.05
 11
-261.4588403067
 21
-43.6212812921
  0
LINE
  5
345
100
AcDbEntity
  8
RACCORDO
100
AcDbLine
 62
7
  6
CONTINUOUS
 10
-283.1588403067
 20
-87.5
 11
-283.1588403067
 21
87.5
  0
LINE
  5
346
100
AcDbEntity
  8
RACCORDO
100
AcDbLine
 62
253
  6
CONTINUOUS
 10
-281.1588403067
 20
-89.5
 11
-281.1588403067
 21
89.5
  0
LINE
  5
347
100
AcDbEntity
  8
CURVE
100
AcDbLine
 62
7
  6
CONTINUOUS
 10
-281.1588403067
 20
-89.5
 11
-281.1588403067
 21
89.5
  0
LINE
  5
348
100
AcDbEntity
  8
0
100
AcDbLine
 62
7
  6
CONTINUOUS
 10
-277.4588403067
 20
-89.5
 11
-277.4588403067
 21
89.5
  0
LINE
  5
349
100
AcDbEntity
  8
SMUSSO
100
AcDbLine
 62
7
  6
CONTINUOUS
 10
-261.4588403067
 20
-40.3787187079
 11
-259.8588403067
 21
-39.95
  0
LINE
  5
34A
100
AcDbEntity
  8
RACCORDO
100
AcDbLine
 62
253
  6
CONTINUOUS
 10
-276.4762927131
 20
82.3078419577
 11
-276.4762927131
 21
77.017150432
  0
LINE
  5
34B
100
AcDbEntity
  8
RACCORDO
100
AcDbLine
 62
253
  6
CONTINUOUS
 10
-276.4762927131
 20
-77.017150432
 11
-276.4762927131
 21
-82.3078419577
  0
LINE
  5
34C
100
AcDbEntity
  8
DRAFT
100
AcDbLine
 62
7
  6
CONTINUOUS
 10
-275.0177451356
 20
-57.2982385657
 11
-275.0177451356
 21
-56.3017614343
  0
LINE
  5
34D
100
AcDbEntity
  8
DRAFT
100
AcDbLine
 62
7
  6
CONTINUOUS
 10
-275.0177451356
 20
-28.8982385657
 11
-275.0177451356
 21
-27.9017614343
  0
LINE
  5
34E
100
AcDbEntity
  8
DRAFT
100
AcDbLine
 62
7
  6
CONTINUOUS
 10
-275.0177451356
 20
-0.4982385657
 11
-275.0177451356
 21
0.4982385657
  0
LINE
  5
34F
100
AcDbEntity
  8
DRAFT
100
AcDbLine
 62
7
  6
CONTINUOUS
 10
-275.0177451356
 20
27.9017614343
 11
-275.0177451356
 21
28.8982385657
  0
LINE
  5
350
100
AcDbEntity
  8
DRAFT
100
AcDbLine
 62
7
  6
CONTINUOUS
 10
-275.0177451356
 20
56.3017614343
 11
-275.0177451356
 21
57.2982385657
  0
LINE
  5
351
100
AcDbEntity
  8
DRAFT
100
AcDbLine
 62
7
  6
CONTINUOUS
 10
-274.6588403067
 20
-83.3394134027
 11
-274.6588403067
 21
-84.5
  0
LINE
  5
352
100
AcDbEntity
  8
DRAFT
100
AcDbLine
 62
7
  6
CONTINUOUS
 10
-274.6588403067
 20
83.3394134027
 11
-274.6588403067
 21
84.5
  0
LINE
  5
353
100
AcDbEntity
  8
DRAFT
100
AcDbLine
 62
7
  6
CONTINUOUS
 10
-275.0177451356
 20
-27.9017614343
 11
-265.4588403067
 21
-27.7349101299
  0
LINE
  5
354
100
AcDbEntity
  8
DRAFT
100
AcDbLine
 62
7
  6
CONTINUOUS
 10
-275.0177451356
 20
-28.8982385657
 11
-265.4588403067
 21
-29.0650898701
  0
LINE
  5
355
100
AcDbEntity
  8
DRAFT
100
AcDbLine
 62
7
  6
CONTINUOUS
 10
-269.8588403067
 20
-83.4231977143
 11
-269.8588403067
 21
-84.5
  0
LINE
  5
356
100
AcDbEntity
  8
DRAFT
100
AcDbLine
 62
7
  6
CONTINUOUS
 10
-269.8588403067
 20
83.4231977143
 11
-269.8588403067
 21
84.5
  0
LINE
  5
357
100
AcDbEntity
  8
DRAFT
100
AcDbLine
 62
7
  6
CONTINUOUS
 10
-265.4588403067
 20
-83.5
 11
-265.4588403067
 21
83.5
  0
LINE
  5
358
100
AcDbEntity
  8
RACCORDO
100
AcDbLine
 62
7
  6
CONTINUOUS
 10
-209.0588403067
 20
-21.8
 11
-258.3850189163
 21
-22.6609916503
  0
LINE
  5
359
100
AcDbEntity
  8
RACCORDO
100
AcDbLine
 62
7
  6
CONTINUOUS
 10
-209.0588403067
 20
-20.2
 11
-258.3850189163
 21
-19.3390083497
  0
LINE
  5
35A
100
AcDbEntity
  8
RACCORDO
100
AcDbLine
 62
253
  6
CONTINUOUS
 10
-262.4413879002
 20
83.4473301723
 11
-262.4413879002
 21
-83.4473301723
  0
LINE
  5
35B
100
AcDbEntity
  8
RACCORDO
100
AcDbLine
 62
7
  6
CONTINUOUS
 10
-261.4588403067
 20
82.4474824772
 11
-261.4588403067
 21
-82.4474824772
  0
LINE
  5
35C
100
AcDbEntity
  8
SMUSSO
100
AcDbLine
 62
7
  6
CONTINUOUS
 10
-260.9589164591
 20
43.7552354833
 11
-260.9589164591
 21
40.2447645167
  0
LINE
  5
35D
100
AcDbEntity
  8
SMUSSO
100
AcDbLine
 62
7
  6
CONTINUOUS
 10
-260.9589164591
 20
1.7552354833
 11
-260.9589164591
 21
-1.7552354833
  0
LINE
  5
35E
100
AcDbEntity
  8
SMUSSO
100
AcDbLine
 62
7
  6
CONTINUOUS
 10
-260.9589164591
 20
-40.2447645167
 11
-260.9589164591
 21
-43.7552354833
  0
LINE
  5
35F
100
AcDbEntity
  8
RACCORDO
100
AcDbLine
 62
7
  6
CONTINUOUS
 10
-259.8588403067
 20
-59.839236807
 11
-259.8588403067
 21
-44.05
  0
LINE
  5
360
100
AcDbEntity
  8
RACCORDO
100
AcDbLine
 62
7
  6
CONTINUOUS
 10
-259.8588403067
 20
-39.95
 11
-259.8588403067
 21
-24.160763193
  0
LINE
  5
361
100
AcDbEntity
  8
RACCORDO
100
AcDbLine
 62
7
  6
CONTINUOUS
 10
-259.8588403067
 20
-17.839236807
 11
-259.8588403067
 21
-2.05
  0
LINE
  5
362
100
AcDbEntity
  8
RACCORDO
100
AcDbLine
 62
7
  6
CONTINUOUS
 10
-259.8588403067
 20
2.05
 11
-259.8588403067
 21
17.839236807
  0
LINE
  5
363
100
AcDbEntity
  8
RACCORDO
100
AcDbLine
 62
7
  6
CONTINUOUS
 10
-259.8588403067
 20
24.160763193
 11
-259.8588403067
 21
39.95
  0
LINE
  5
364
100
AcDbEntity
  8
RACCORDO
100
AcDbLine
 62
7
  6
CONTINUOUS
 10
-259.8588403067
 20
44.05
 11
-259.8588403067
 21
59.839236807
  0
LINE
  5
365
100
AcDbEntity
  8
SMUSSO
100
AcDbLine
 62
7
  6
CONTINUOUS
 10
-259.8588403067
 20
-2.05
 11
-261.4588403067
 21
-1.6212812921
  0
LINE
  5
366
100
AcDbEntity
  8
DRAFT
100
AcDbLine
 62
7
  6
CONTINUOUS
 10
-275.0177451356
 20
-0.4982385657
 11
-265.4588403067
 21
-0.6650898701
  0
LINE
  5
367
100
AcDbEntity
  8
SMUSSO
100
AcDbLine
 62
7
  6
CONTINUOUS
 10
-261.4588403067
 20
1.6212812921
 11
-259.8588403067
 21
2.05
  0
LINE
  5
368
100
AcDbEntity
  8
DRAFT
100
AcDbLine
 62
7
  6
CONTINUOUS
 10
-275.0177451356
 20
0.4982385657
 11
-265.4588403067
 21
0.6650898701
  0
LINE
  5
369
100
AcDbEntity
  8
RACCORDO
100
AcDbLine
 62
7
  6
CONTINUOUS
 10
-229.4588403067
 20
22.1560833245
 11
-229.4588403067
 21
19.8439166755
  0
LINE
  5
36A
100
AcDbEntity
  8
RACCORDO
100
AcDbLine
 62
7
  6
CONTINUOUS
 10
-229.4588403067
 20
-19.8439166755
 11
-229.4588403067
 21
-22.1560833245
  0
LINE
  5
36B
100
AcDbEntity
  8
RACCORDO
100
AcDbLine
 62
7
  6
CONTINUOUS
 10
-209.0588403067
 20
20.2
 11
-258.3850189163
 21
19.3390083497
  0
LINE
  5
36C
100
AcDbEntity
  8
RACCORDO
100
AcDbLine
 62
7
  6
CONTINUOUS
 10
-209.0588403067
 20
21.8
 11
-258.3850189163
 21
22.6609916503
  0
LINE
  5
36D
100
AcDbEntity
  8
RACCORDO
100
AcDbLine
 62
7
  6
CONTINUOUS
 10
-215.0588403067
 20
-63.9047303896
 11
-215.0588403067
 21
-62.0952696104
  0
LINE
  5
36E
100
AcDbEntity
  8
RACCORDO
100
AcDbLine
 62
7
  6
CONTINUOUS
 10
-215.0588403067
 20
-21.9047303896
 11
-215.0588403067
 21
-20.0952696104
  0
LINE
  5
36F
100
AcDbEntity
  8
RACCORDO
100
AcDbLine
 62
7
  6
CONTINUOUS
 10
-215.0588403067
 20
20.0952696104
 11
-215.0588403067
 21
21.9047303896
  0
LINE
  5
370
100
AcDbEntity
  8
RACCORDO
100
AcDbLine
 62
7
  6
CONTINUOUS
 10
-215.0588403067
 20
62.0952696104
 11
-215.0588403067
 21
63.9047303896
  0
LINE
  5
371
100
AcDbEntity
  8
DRAFT
100
AcDbLine
 62
7
  6
CONTINUOUS
 10
-275.0177451356
 20
28.8982385657
 11
-265.4588403067
 21
29.0650898701
  0
LINE
  5
372
100
AcDbEntity
  8
DRAFT
100
AcDbLine
 62
7
  6
CONTINUOUS
 10
-275.0177451356
 20
27.9017614343
 11
-265.4588403067
 21
27.7349101299
  0
LINE
  5
373
100
AcDbEntity
  8
RACCORDO
100
AcDbLine
 62
7
  6
CONTINUOUS
 10
-207.4603717601
 20
-67.6654918673
 11
-207.4588403067
 21
-67.6957660599
  0
LINE
  5
374
100
AcDbEntity
  8
DRAFT
100
AcDbLine
 62
7
  6
CONTINUOUS
 10
-211.8588403067
 20
-63.8488741818
 11
-211.8588403067
 21
-62.1511258182
  0
LINE
  5
375
100
AcDbEntity
  8
DRAFT
100
AcDbLine
 62
7
  6
CONTINUOUS
 10
-211.8588403067
 20
-21.8488741818
 11
-211.8588403067
 21
-20.1511258182
  0
LINE
  5
376
100
AcDbEntity
  8
DRAFT
100
AcDbLine
 62
7
  6
CONTINUOUS
 10
-211.8588403067
 20
20.1511258182
 11
-211.8588403067
 21
21.8488741818
  0
LINE
  5
377
100
AcDbEntity
  8
DRAFT
100
AcDbLine
 62
7
  6
CONTINUOUS
 10
-211.8588403067
 20
62.1511258182
 11
-211.8588403067
 21
63.8488741818
  0
LINE
  5
378
100
AcDbEntity
  8
DRAFT
100
AcDbLine
 62
7
  6
CONTINUOUS
 10
-210.9588403067
 20
-70.4168245094
 11
-210.9588403067
 21
-65.7677910071
  0
LINE
  5
379
100
AcDbEntity
  8
DRAFT
100
AcDbLine
 62
7
  6
CONTINUOUS
 10
-210.9588403067
 20
-71.3766433321
 11
-210.9588403067
 21
-73.8392381823
  0
LINE
  5
37A
100
AcDbEntity
  8
DRAFT
100
AcDbLine
 62
7
  6
CONTINUOUS
 10
-210.9588403067
 20
65.7677910071
 11
-210.9588403067
 21
70.4168245094
  0
LINE
  5
37B
100
AcDbEntity
  8
DRAFT
100
AcDbLine
 62
7
  6
CONTINUOUS
 10
-210.9588403067
 20
71.3766433321
 11
-210.9588403067
 21
73.8392381823
  0
LINE
  5
37C
100
AcDbEntity
  8
RACCORDO
100
AcDbLine
 62
253
  6
CONTINUOUS
 10
-210.8977568841
 20
65.7676310907
 11
-210.8977568841
 21
63.8320984083
  0
LINE
  5
37D
100
AcDbEntity
  8
RACCORDO
100
AcDbLine
 62
253
  6
CONTINUOUS
 10
-210.8977568841
 20
62.1679015917
 11
-210.8977568841
 21
21.8320984083
  0
LINE
  5
37E
100
AcDbEntity
  8
RACCORDO
100
AcDbLine
 62
253
  6
CONTINUOUS
 10
-210.8977568841
 20
20.1679015917
 11
-210.8977568841
 21
-20.1679015917
  0
LINE
  5
37F
100
AcDbEntity
  8
RACCORDO
100
AcDbLine
 62
253
  6
CONTINUOUS
 10
-210.8977568841
 20
-21.8320984083
 11
-210.8977568841
 21
-62.1679015917
  0
LINE
  5
380
100
AcDbEntity
  8
RACCORDO
100
AcDbLine
 62
253
  6
CONTINUOUS
 10
-210.8977568841
 20
-63.8320984083
 11
-210.8977568841
 21
-65.7676310907
  0
LINE
  5
381
100
AcDbEntity
  8
RACCORDO
100
AcDbLine
 62
253
  6
CONTINUOUS
 10
-209.3536045847
 20
-63.8051451296
 11
-209.3536045847
 21
-62.2
  0
LINE
  5
382
100
AcDbEntity
  8
RACCORDO
100
AcDbLine
 62
253
  6
CONTINUOUS
 10
-209.3536045847
 20
-21.8
 11
-209.3536045847
 21
-20.2
  0
LINE
  5
383
100
AcDbEntity
  8
RACCORDO
100
AcDbLine
 62
253
  6
CONTINUOUS
 10
-209.3536045847
 20
20.2
 11
-209.3536045847
 21
21.8
  0
LINE
  5
384
100
AcDbEntity
  8
RACCORDO
100
AcDbLine
 62
253
  6
CONTINUOUS
 10
-209.3536045847
 20
62.2
 11
-209.3536045847
 21
63.8051451296
  0
LINE
  5
385
100
AcDbEntity
  8
RACCORDO
100
AcDbLine
 62
7
  6
CONTINUOUS
 10
-209.0588403067
 20
63.8
 11
-209.0588403067
 21
62.2
  0
LINE
  5
386
100
AcDbEntity
  8
RACCORDO
100
AcDbLine
 62
7
  6
CONTINUOUS
 10
-209.0588403067
 20
21.8
 11
-209.0588403067
 21
20.2
  0
LINE
  5
387
100
AcDbEntity
  8
RACCORDO
100
AcDbLine
 62
7
  6
CONTINUOUS
 10
-209.0588403067
 20
-20.2
 11
-209.0588403067
 21
-21.8
  0
LINE
  5
388
100
AcDbEntity
  8
RACCORDO
100
AcDbLine
 62
7
  6
CONTINUOUS
 10
-209.0588403067
 20
-62.2
 11
-209.0588403067
 21
-63.8
  0
LINE
  5
389
100
AcDbEntity
  8
RACCORDO
100
AcDbLine
 62
253
  6
CONTINUOUS
 10
-207.7580549094
 20
70.5521231537
 11
-207.7580549094
 21
65.7594113514
  0
LINE
  5
38A
100
AcDbEntity
  8
RACCORDO
100
AcDbLine
 62
253
  6
CONTINUOUS
 10
-207.7580549094
 20
-65.7594113514
 11
-207.7580549094
 21
-70.5521231537
  0
LINE
  5
38B
100
AcDbEntity
  8
RACCORDO
100
AcDbLine
 62
7
  6
CONTINUOUS
 10
-207.4588403067
 20
70.3387050341
 11
-207.4588403067
 21
-70.3387050341
  0
LINE
  5
38C
100
AcDbEntity
  8
RACCORDO
100
AcDbLine
 62
7
  6
CONTINUOUS
 10
-207.4603717601
 20
67.6654918673
 11
-207.4588403067
 21
67.6957660599
  0
LINE
  5
38D
100
AcDbEntity
  8
SMUSSO
100
AcDbLine
 62
7
  6
CONTINUOUS
 10
-259.8588403067
 20
39.95
 11
-261.4588403067
 21
40.3787187079
  0
LINE
  5
38E
100
AcDbEntity
  8
SMUSSO
100
AcDbLine
 62
7
  6
CONTINUOUS
 10
-261.4588403067
 20
-75.2207189611
 11
-260.9589164591
 21
-74.7119927579
  0
LINE
  5
38F
100
AcDbEntity
  8
SMUSSO
100
AcDbLine
 62
7
  6
CONTINUOUS
 10
-260.9589164591
 20
74.7119927579
 11
-261.4588403067
 21
75.2207189611
  0
LINE
  5
390
100
AcDbEntity
  8
SMUSSO
100
AcDbLine
 62
7
  6
CONTINUOUS
 10
-261.4588403067
 20
43.6212812921
 11
-259.8588403067
 21
44.05
  0
LINE
  5
391
100
AcDbEntity
  8
DRAFT
100
AcDbLine
 62
7
  6
CONTINUOUS
 10
-275.0177451356
 20
57.2982385657
 11
-265.4588403067
 21
57.4650898701
  0
LINE
  5
392
100
AcDbEntity
  8
DRAFT
100
AcDbLine
 62
7
  6
CONTINUOUS
 10
-275.0177451356
 20
56.3017614343
 11
-265.4588403067
 21
56.1349101299
  0
LINE
  5
393
100
AcDbEntity
  8
RACCORDO
100
AcDbLine
 62
7
  6
CONTINUOUS
 10
-261.4588403067
 20
57.8924633827
 11
-259.8588403067
 21
57.6103402135
  0
LINE
  5
394
100
AcDbEntity
  8
RACCORDO
100
AcDbLine
 62
7
  6
CONTINUOUS
 10
-209.0588403067
 20
62.2
 11
-258.3850189163
 21
61.3390083497
  0
LINE
  5
395
100
AcDbEntity
  8
RACCORDO
100
AcDbLine
 62
253
  6
CONTINUOUS
 10
-215.0588403067
 20
63.7545413434
 11
-211.8581705363
 21
63.8107053999
  0
LINE
  5
396
100
AcDbEntity
  8
RACCORDO
100
AcDbLine
 62
253
  6
CONTINUOUS
 10
-261.4588403067
 20
61.5
 11
-265.4588403067
 21
61.5
  0
LINE
  5
397
100
AcDbEntity
  8
RACCORDO
100
AcDbLine
 62
7
  6
CONTINUOUS
 10
-261.4588403067
 20
64.7146454022
 11
-209.0588403067
 21
63.8
  0
LINE
  5
398
100
AcDbEntity
  8
DRAFT
100
AcDbLine
 62
7
  6
CONTINUOUS
 10
-261.4588403067
 20
71.1896715813
 11
-210.9588403067
 21
71.3766433321
  0
LINE
  5
399
100
AcDbEntity
  8
DRAFT
100
AcDbLine
 62
253
  6
CONTINUOUS
 10
-265.4588403067
 20
68.0
 11
-277.4588403067
 21
68.0
  0
LINE
  5
39A
100
AcDbEntity
  8
RACCORDO
100
AcDbLine
 62
7
  6
CONTINUOUS
 10
-221.5443534359
 20
70.5670731681
 11
-207.7580549094
 21
70.5521231537
  0
LINE
  5
39B
100
AcDbEntity
  8
RACCORDO
100
AcDbLine
 62
7
  6
CONTINUOUS
 10
-207.4588403067
 20
65.7586280076
 11
-210.9588403067
 21
65.7677910071
  0
LINE
  5
39C
100
AcDbEntity
  8
DRAFT
100
AcDbLine
 62
7
  6
CONTINUOUS
 10
-210.9588403067
 20
69.1229694464
 11
-207.7580549094
 21
69.1145897907
  0
LINE
  5
39D
100
AcDbEntity
  8
DRAFT
100
AcDbLine
 62
7
  6
CONTINUOUS
 10
-261.4588403067
 20
69.0314281215
 11
-210.9588403067
 21
68.6663068279
  0
LINE
  5
39E
100
AcDbEntity
  8
DRAFT
100
AcDbLine
 62
7
  6
CONTINUOUS
 10
-210.9588403067
 20
70.4168245094
 11
-261.4588403067
 21
71.1336114211
  0
LINE
  5
39F
100
AcDbEntity
  8
DRAFT
100
AcDbLine
 62
7
  6
CONTINUOUS
 10
-265.4588403067
 20
77.2094607791
 11
-277.4588403067
 21
77.0
  0
LINE
  5
3A0
100
AcDbEntity
  8
DRAFT
100
AcDbLine
 62
7
  6
CONTINUOUS
 10
-261.4588403067
 20
72.6185356616
 11
-210.9588403067
 21
72.0887205007
  0
LINE
  5
3A1
100
AcDbEntity
  8
DRAFT
100
AcDbLine
 62
7
  6
CONTINUOUS
 10
-261.4588403067
 20
74.7207189611
 11
-210.9588403067
 21
73.8392381823
  0
LINE
  5
3A2
100
AcDbEntity
  8
RACCORDO
100
AcDbLine
 62
7
  6
CONTINUOUS
 10
-210.9588403067
 20
73.8392381823
 11
-210.8977568841
 21
73.8381719672
  0
LINE
  5
3A3
100
AcDbEntity
  8
RACCORDO
100
AcDbLine
 62
253
  6
CONTINUOUS
 10
-265.4588403067
 20
82.5001523048
 11
-276.4762927131
 21
82.3078419577
  0
LINE
  5
3A4
100
AcDbEntity
  8
RACCORDO
100
AcDbLine
 62
7
  6
CONTINUOUS
 10
-265.4588403067
 20
83.5
 11
-276.4762927131
 21
83.3076896529
  0
LINE
  5
3A5
100
AcDbEntity
  8
RACCORDO
100
AcDbLine
 62
253
  6
CONTINUOUS
 10
-283.1588403067
 20
79.5
 11
-277.4588403067
 21
79.5
  0
LINE
  5
3A6
100
AcDbEntity
  8
RACCORDO
100
AcDbLine
 62
253
  6
CONTINUOUS
 10
-276.4762927131
 20
82.3078419577
 11
-277.4588403067
 21
82.3078419577
  0
LINE
  5
3A7
100
AcDbEntity
  8
DRAFT
100
AcDbLine
 62
7
  6
CONTINUOUS
 10
-274.6588403067
 20
84.5
 11
-269.8588403067
 21
84.5
  0
LINE
  5
3A8
100
AcDbEntity
  8
RACCORDO
100
AcDbLine
 62
7
  6
CONTINUOUS
 10
-262.4413879002
 20
83.4473301723
 11
-265.4588403067
 21
83.5
  0
LINE
  5
3A9
100
AcDbEntity
  8
RACCORDO
100
AcDbLine
 62
7
  6
CONTINUOUS
 10
-277.4588403067
 20
89.5
 11
-281.1588403067
 21
89.5
  0
ARC
  5
3AA
100
AcDbEntity
  8
0
100
AcDbCircle
 62
7
  6
CONTINUOUS
 10
-148.6440162868
 20
-69.5
 40
14.5900727153
100
AcDbArc
 50
358.6254046104
 51
1.3745953896
  0
ARC
  5
3AB
100
AcDbEntity
  8
0
100
AcDbCircle
 62
7
  6
CONTINUOUS
 10
-123.3559837132
 20
-69.5
 40
14.5900727153
100
AcDbArc
 50
178.6254046104
 51
181.3745953896
  0
ARC
  5
3AC
100
AcDbEntity
  8
RACCORDO
100
AcDbCircle
 62
7
  6
CONTINUOUS
 10
-146.0
 20
-79.5
 40
10.0
100
AcDbArc
 50
179.9999999511
 51
270.0000000611
  0
ARC
  5
3AD
100
AcDbEntity
  8
CURVE
100
AcDbCircle
 62
7
  6
CONTINUOUS
 10
-146.0
 20
-79.5
 40
10.0
100
AcDbArc
 50
180.0
 51
270.0
  0
ARC
  5
3AE
100
AcDbEntity
  8
RACCORDO
100
AcDbCircle
 62
253
  6
CONTINUOUS
 10
-146.0
 20
-79.5
 40
7.9999964695
100
AcDbArc
 50
180.0
 51
270.0
  0
CIRCLE
  5
3AF
100
AcDbEntity
  8
0
100
AcDbCircle
 62
7
  6
CONTINUOUS
 10
-136.0
 20
-69.5
 40
3.0
  0
CIRCLE
  5
3B0
100
AcDbEntity
  8
0
100
AcDbCircle
 62
7
  6
CONTINUOUS
 10
-136.0
 20
-69.5
 40
2.75
  0
ARC
  5
3B1
100
AcDbEntity
  8
0
100
AcDbCircle
 62
7
  6
CONTINUOUS
 10
-148.6440162868
 20
69.5
 40
14.5900727153
100
AcDbArc
 50
358.6254046104
 51
1.3745953896
  0
ARC
  5
3B2
100
AcDbEntity
  8
0
100
AcDbCircle
 62
7
  6
CONTINUOUS
 10
-123.3559837132
 20
69.5
 40
14.5900727153
100
AcDbArc
 50
178.6254046104
 51
181.3745953896
  0
ARC
  5
3B3
100
AcDbEntity
  8
0
100
AcDbCircle
 62
7
  6
CONTINUOUS
 10
-53.6440162869
 20
69.5
 40
14.5900727153
100
AcDbArc
 50
358.6254046104
 51
1.3745953896
  0
ARC
  5
3B4
100
AcDbEntity
  8
0
100
AcDbCircle
 62
7
  6
CONTINUOUS
 10
-28.3559837131
 20
69.5
 40
14.5900727153
100
AcDbArc
 50
178.6254046104
 51
181.3745953896
  0
ARC
  5
3B5
100
AcDbEntity
  8
RACCORDO
100
AcDbCircle
 62
7
  6
CONTINUOUS
 10
-146.0
 20
79.5
 40
10.0
100
AcDbArc
 50
89.9999999511
 51
180.0000000611
  0
ARC
  5
3B6
100
AcDbEntity
  8
CURVE
100
AcDbCircle
 62
7
  6
CONTINUOUS
 10
-146.0
 20
79.5
 40
10.0
100
AcDbArc
 50
90.0
 51
180.0
  0
ARC
  5
3B7
100
AcDbEntity
  8
RACCORDO
100
AcDbCircle
 62
253
  6
CONTINUOUS
 10
-146.0
 20
79.5
 40
7.9999964695
100
AcDbArc
 50
90.0
 51
180.0
  0
CIRCLE
  5
3B8
100
AcDbEntity
  8
0
100
AcDbCircle
 62
7
  6
CONTINUOUS
 10
-136.0
 20
69.5
 40
3.0
  0
CIRCLE
  5
3B9
100
AcDbEntity
  8
0
100
AcDbCircle
 62
7
  6
CONTINUOUS
 10
-41.0
 20
69.5
 40
3.0
  0
CIRCLE
  5
3BA
100
AcDbEntity
  8
0
100
AcDbCircle
 62
7
  6
CONTINUOUS
 10
-136.0
 20
69.5
 40
2.75
  0
CIRCLE
  5
3BB
100
AcDbEntity
  8
0
100
AcDbCircle
 62
7
  6
CONTINUOUS
 10
-41.0
 20
69.5
 40
2.75
  0
ARC
  5
3BC
100
AcDbEntity
  8
0
100
AcDbCircle
 62
7
  6
CONTINUOUS
 10
123.3559837132
 20
-69.5
 40
14.5900727153
100
AcDbArc
 50
358.6254046104
 51
1.3745953896
  0
ARC
  5
3BD
100
AcDbEntity
  8
0
100
AcDbCircle
 62
7
  6
CONTINUOUS
 10
148.6440162868
 20
-69.5
 40
14.5900727153
100
AcDbArc
 50
178.6254046104
 51
181.3745953896
  0
ARC
  5
3BE
100
AcDbEntity
  8
0
100
AcDbCircle
 62
7
  6
CONTINUOUS
 10
28.3559837131
 20
-69.5
 40
14.5900727153
100
AcDbArc
 50
358.6254046104
 51
1.3745953896
  0
ARC
  5
3BF
100
AcDbEntity
  8
0
100
AcDbCircle
 62
7
  6
CONTINUOUS
 10
53.6440162869
 20
-69.5
 40
14.5900727153
100
AcDbArc
 50
178.6254046104
 51
181.3745953896
  0
ARC
  5
3C0
100
AcDbEntity
  8
RACCORDO
100
AcDbCircle
 62
7
  6
CONTINUOUS
 10
146.0
 20
-79.5
 40
10.0
100
AcDbArc
 50
269.9999999511
 51
0.0000000611
  0
ARC
  5
3C1
100
AcDbEntity
  8
CURVE
100
AcDbCircle
 62
7
  6
CONTINUOUS
 10
146.0
 20
-79.5
 40
10.0
100
AcDbArc
 50
270.0
 51
360.0
  0
ARC
  5
3C2
100
AcDbEntity
  8
RACCORDO
100
AcDbCircle
 62
253
  6
CONTINUOUS
 10
146.0
 20
-79.5
 40
7.9999964695
100
AcDbArc
 50
270.0
 51
360.0
  0
CIRCLE
  5
3C3
100
AcDbEntity
  8
0
100
AcDbCircle
 62
7
  6
CONTINUOUS
 10
136.0
 20
-69.5
 40
3.0
  0
CIRCLE
  5
3C4
100
AcDbEntity
  8
0
100
AcDbCircle
 62
7
  6
CONTINUOUS
 10
41.0
 20
-69.5
 40
3.0
  0
CIRCLE
  5
3C5
100
AcDbEntity
  8
0
100
AcDbCircle
 62
7
  6
CONTINUOUS
 10
136.0
 20
-69.5
 40
2.75
  0
CIRCLE
  5
3C6
100
AcDbEntity
  8
0
100
AcDbCircle
 62
7
  6
CONTINUOUS
 10
41.0
 20
-69.5
 40
2.75
  0
ARC
  5
3C7
100
AcDbEntity
  8
0
100
AcDbCircle
 62
7
  6
CONTINUOUS
 10
123.3559837132
 20
69.5
 40
14.5900727153
100
AcDbArc
 50
358.6254046104
 51
1.3745953896
  0
ARC
  5
3C8
100
AcDbEntity
  8
0
100
AcDbCircle
 62
7
  6
CONTINUOUS
 10
148.6440162868
 20
69.5
 40
14.5900727153
100
AcDbArc
 50
178.6254046104
 51
181.3745953896
  0
ARC
  5
3C9
100
AcDbEntity
  8
RACCORDO
100
AcDbCircle
 62
7
  6
CONTINUOUS
 10
146.0
 20
79.5
 40
10.0
100
AcDbArc
 50
0.0
 51
90.0000000611
  0
ARC
  5
3CA
100
AcDbEntity
  8
CURVE
100
AcDbCircle
 62
7
  6
CONTINUOUS
 10
146.0
 20
79.5
 40
10.0
100
AcDbArc
 50
0.0
 51
90.0
  0
ARC
  5
3CB
100
AcDbEntity
  8
RACCORDO
100
AcDbCircle
 62
253
  6
CONTINUOUS
 10
146.0
 20
79.5
 40
7.9999964695
100
AcDbArc
 50
0.0
 51
90.0
  0
CIRCLE
  5
3CC
100
AcDbEntity
  8
0
100
AcDbCircle
 62
7
  6
CONTINUOUS
 10
136.0
 20
69.5
 40
3.0
  0
CIRCLE
  5
3CD
100
AcDbEntity
  8
0
100
AcDbCircle
 62
7
  6
CONTINUOUS
 10
136.0
 20
69.5
 40
2.75
  0
ARC
  5
3CE
100
AcDbEntity
  8
RACCORDO
100
AcDbCircle
 62
7
  6
CONTINUOUS
 10
-281.1588403067
 20
-87.5
 40
2.0
100
AcDbArc
 50
180.0
 51
270.0
  0
ARC
  5
3CF
100
AcDbEntity
  8
RACCORDO
100
AcDbCircle
 62
7
  6
CONTINUOUS
 10
-258.3588403067
 20
-17.839236807
 40
1.5
100
AcDbArc
 50
180.0
 51
269.0
  0
ARC
  5
3D0
100
AcDbEntity
  8
RACCORDO
100
AcDbCircle
 62
7
  6
CONTINUOUS
 10
-258.3588403067
 20
-59.839236807
 40
1.5
100
AcDbArc
 50
180.0
 51
269.0
  0
ARC
  5
3D1
100
AcDbEntity
  8
RACCORDO
100
AcDbCircle
 62
7
  6
CONTINUOUS
 10
-258.3588403067
 20
-24.160763193
 40
1.5
100
AcDbArc
 50
91.0
 51
180.0
  0
ARC
  5
3D2
100
AcDbEntity
  8
RACCORDO
100
AcDbCircle
 62
7
  6
CONTINUOUS
 10
-276.4588403067
 20
-82.3078419577
 40
1.0
100
AcDbArc
 50
180.0
 51
269.0
  0
ARC
  5
3D3
100
AcDbEntity
  8
RACCORDO
100
AcDbCircle
 62
7
  6
CONTINUOUS
 10
-262.4588403067
 20
-82.4474824772
 40
1.0
100
AcDbArc
 50
271.0
 51
360.0
  0
ARC
  5
3D4
100
AcDbEntity
  8
RACCORDO
100
AcDbCircle
 62
7
  6
CONTINUOUS
 10
-281.1588403067
 20
87.5
 40
2.0
100
AcDbArc
 50
90.0
 51
180.0
  0
ARC
  5
3D5
100
AcDbEntity
  8
RACCORDO
100
AcDbCircle
 62
7
  6
CONTINUOUS
 10
-258.3588403067
 20
24.160763193
 40
1.5
100
AcDbArc
 50
180.0
 51
269.0
  0
ARC
  5
3D6
100
AcDbEntity
  8
RACCORDO
100
AcDbCircle
 62
7
  6
CONTINUOUS
 10
-258.3588403067
 20
59.839236807
 40
1.5
100
AcDbArc
 50
91.0
 51
180.0
  0
ARC
  5
3D7
100
AcDbEntity
  8
RACCORDO
100
AcDbCircle
 62
7
  6
CONTINUOUS
 10
-258.3588403067
 20
17.839236807
 40
1.5
100
AcDbArc
 50
91.0
 51
180.0
  0
ARC
  5
3D8
100
AcDbEntity
  8
RACCORDO
100
AcDbCircle
 62
7
  6
CONTINUOUS
 10
-276.4588403067
 20
82.3078419577
 40
1.0
100
AcDbArc
 50
91.0
 51
180.0
  0
ARC
  5
3D9
100
AcDbEntity
  8
RACCORDO
100
AcDbCircle
 62
7
  6
CONTINUOUS
 10
-262.4588403067
 20
82.4474824772
 40
1.0
100
AcDbArc
 50
0.0
 51
89.0
  0
ARC
  5
3DA
100
AcDbEntity
  8
RACCORDO
100
AcDbCircle
 62
7
  6
CONTINUOUS
 10
-210.9588403067
 20
-70.3387050341
 40
3.5
100
AcDbArc
 50
271.0
 51
360.0
  0
ARC
  5
3DB
100
AcDbEntity
  8
RACCORDO
100
AcDbCircle
 62
7
  6
CONTINUOUS
 10
-207.7588403067
 20
-68.8145908188
 40
0.3
100
AcDbArc
 50
270.15
 51
360.0
  0
ARC
  5
3DC
100
AcDbEntity
  8
RACCORDO
100
AcDbCircle
 62
7
  6
CONTINUOUS
 10
-210.9588403067
 20
70.3387050341
 40
3.5
100
AcDbArc
 50
0.0
 51
89.0
  0
ARC
  5
3DD
100
AcDbEntity
  8
RACCORDO
100
AcDbCircle
 62
7
  6
CONTINUOUS
 10
-207.7588403067
 20
68.8145908188
 40
0.3
100
AcDbArc
 50
0.0
 51
89.85
  0
LINE
  5
3DE
100
AcDbEntity
  8
RACCORDO
100
AcDbLine
 62
7
  6
CONTINUOUS
 10
-210.958840192
 20
67.555321277
 11
-207.7580549094
 21
67.5562579937
  0
LINE
  5
3DF
100
AcDbEntity
  8
RACCORDO
100
AcDbLine
 62
7
  6
CONTINUOUS
 10
-210.958840192
 20
-67.555321277
 11
-207.7580549094
 21
-67.5562579937
  0
SPLINE
  5
3E0
100
AcDbEntity
  8
RACCORDO
100
AcDbSpline
 62
253
  6
CONTINUOUS
 70
0
 71
3
 72
14
 73
10
 74
8
 42
0.0000001
 43
0.0000001
 44
0.0000000001
 12
-0.0174495979
 22
-0.9999913792
 32
0.0
 13
0.9999912863
 23
-0.0174549202
 33
0.0
 40
0.0
 40
0.0
 40
0.0
 40
0.0
 40
0.1666417642
 40
0.3458367989
 40
0.5301415323
 40
0.7075825971
 40
0.8594466612
 40
0.9629192718
 40
1.0
 40
1.0
 40
1.0
 40
1.0
 10
-276.4762927131
 20
-82.3078419577
 30
0.0
 10
-276.4772619904
 20
-82.3633887336
 30
0.0
 10
-276.4791596859
 20
-82.4787365349
 30
0.0
 10
-276.4811813584
 20
-82.6551383871
 30
0.0
 10
-276.4837866217
 20
-82.8366908171
 30
0.0
 10
-276.4811685863
 20
-83.0037206839
 30
0.0
 10
-276.490189214
 20
-83.1600490863
 30
0.0
 10
-276.4689513307
 20
-83.2327728539
 30
0.0
 10
-276.4886528481
 20
-83.3074739059
 30
0.0
 10
-276.4762927131
 20
-83.3076896529
 30
0.0
 11
-276.4762927131
 21
-82.3078419577
 31
0.0
 11
-276.4789564027
 21
-82.4744863667
 31
0.0
 11
-276.4812504505
 21
-82.6536924535
 31
0.0
 11
-276.4828887929
 21
-82.8380163745
 31
0.0
 11
-276.4835184565
 21
-83.0154818051
 31
0.0
 11
-276.4827552026
 21
-83.1673657612
 31
0.0
 11
-276.4803392945
 21
-83.2708250284
 31
0.0
 11
-276.4762927131
 21
-83.3076896529
 31
0.0
  0
SPLINE
  5
3E1
100
AcDbEntity
  8
RACCORDO
100
AcDbSpline
 62
253
  6
CONTINUOUS
 70
0
 71
3
 72
14
 73
10
 74
8
 42
0.0000001
 43
0.0000001
 44
0.0000000001
 12
-1.0000627743
 22
-0.0174561597
 32
0.0
 13
0.0174508454
 23
-1.000062867
 33
0.0
 40
0.0
 40
0.0
 40
0.0
 40
0.0
 40
0.0139893906
 40
0.0609712642
 40
0.1501345711
 40
0.2899360161
 40
0.4848116477
 40
0.7279565846
 40
1.0
 40
1.0
 40
1.0
 40
1.0
 10
-276.4762927131
 20
83.3076896529
 30
0.0
 10
-276.480956136
 20
83.3076082526
 30
0.0
 10
-276.4754575104
 20
83.27597087
 30
0.0
 10
-276.4852503609
 20
83.2382013639
 30
0.0
 10
-276.4814217342
 20
83.1381272994
 30
0.0
 10
-276.4845601598
 20
83.0009352955
 30
0.0
 10
-276.4825628605
 20
82.8065056721
 30
0.0
 10
-276.4805820852
 20
82.5704517458
 30
0.0
 10
-276.4778751756
 20
82.3985287971
 30
0.0
 10
-276.4762927131
 20
82.3078419577
 30
0.0
 11
-276.4762927131
 21
83.3076896529
 31
0.0
 11
-276.4789317327
 21
83.2939483709
 31
0.0
 11
-276.4812165254
 21
83.2470119682
 31
0.0
 11
-276.4828631705
 21
83.1578446841
 31
0.0
 11
-276.4835180708
 21
83.0180146998
 31
0.0
 11
-276.4827875395
 21
82.8230985172
 31
0.0
 11
-276.4803798744
 21
82.5799131952
 31
0.0
 11
-276.4762927131
 21
82.3078419577
 31
0.0
  0
SPLINE
  5
3E2
100
AcDbEntity
  8
RACCORDO
100
AcDbSpline
 62
7
  6
CONTINUOUS
 70
0
 71
3
 72
11
 73
7
 74
5
 42
0.0000001
 43
0.0000001
 44
0.0000000001
 12
0.3508265548
 22
-0.0001165611
 32
0.0
 13
0.0290997968
 23
-0.3520524435
 33
0.0
 40
0.0
 40
0.0
 40
0.0
 40
0.0
 40
0.4982168147
 40
0.7506215327
 40
0.9116147211
 40
1.0
 40
1.0
 40
1.0
 40
1.0
 10
-207.7580549094
 20
-67.5562579937
 30
0.0
 10
-207.6997923465
 20
-67.5562773513
 30
0.0
 10
-207.6141923378
 20
-67.5590112786
 30
0.0
 10
-207.5029251626
 20
-67.577628258
 30
0.0
 10
-207.4654035117
 20
-67.6288260154
 30
0.0
 10
-207.4605482979
 20
-67.6577122288
 30
0.0
 10
-207.4596909667
 20
-67.6680843132
 30
0.0
 11
-207.7580549094
 21
-67.5562579937
 31
0.0
 11
-207.5835093653
 21
-67.565455412
 31
0.0
 11
-207.4990539325
 21
-67.5920718055
 31
0.0
 11
-207.465722432
 21
-67.6376687272
 31
0.0
 11
-207.4596909667
 21
-67.6680843132
 31
0.0
  0
SPLINE
  5
3E3
100
AcDbEntity
  8
RACCORDO
100
AcDbSpline
 62
7
  6
CONTINUOUS
 70
0
 71
3
 72
11
 73
7
 74
5
 42
0.0000001
 43
0.0000001
 44
0.0000000001
 12
0.3508265548
 22
0.0001165611
 32
0.0
 13
0.0290997968
 23
0.3520524435
 33
0.0
 40
0.0
 40
0.0
 40
0.0
 40
0.0
 40
0.4982168147
 40
0.7506215327
 40
0.9116147211
 40
1.0
 40
1.0
 40
1.0
 40
1.0
 10
-207.7580549094
 20
67.5562579937
 30
0.0
 10
-207.6997923465
 20
67.5562773513
 30
0.0
 10
-207.6141923378
 20
67.5590112786
 30
0.0
 10
-207.5029251626
 20
67.577628258
 30
0.0
 10
-207.4654035117
 20
67.6288260154
 30
0.0
 10
-207.4605482979
 20
67.6577122288
 30
0.0
 10
-207.4596909667
 20
67.6680843132
 30
0.0
 11
-207.7580549094
 21
67.5562579937
 31
0.0
 11
-207.5835093653
 21
67.565455412
 31
0.0
 11
-207.4990539325
 21
67.5920718055
 31
0.0
 11
-207.465722432
 21
67.6376687272
 31
0.0
 11
-207.4596909667
 21
67.6680843132
 31
0.0
  0
ELLIPSE
  5
3E4
100
AcDbEntity
  8
RACCORDO
100
AcDbEllipse
 62
7
  6
CONTINUOUS
 10
-207.7588403067
 20
-70.1278584827
 30
0.0
 11
-0.001110708
 21
0.4242640687
 31
0.0
 40
0.7071019348
 41
-3.1426770283
 42
-1.5744986954
  0
ELLIPSE
  5
3E5
100
AcDbEntity
  8
RACCORDO
100
AcDbEllipse
 62
7
  6
CONTINUOUS
 10
-207.7588403067
 20
70.1278584827
 30
0.0
 11
0.001110708
 21
0.4242640687
 31
0.0
 40
0.7071019348
 41
-1.5670939582
 42
0.0010843747
  0
ENDSEC
  0
SECTION
  2
OBJECTS
  0
DICTIONARY
  5
C
100
AcDbDictionary
280
0
281
1
  3
ACAD_GROUP
350
D
  3
ACAD_MLINESTYLE
350
17
  3
ACAD_LAYOUT
350
1A
  3
ACAD_PLOTSETTINGS
350
19
  3
ACAD_PLOTSTYLENAME
350
E
  0
DICTIONARY
  5
D
102
{ACAD_REACTORS
330
C
102
}
100
AcDbDictionary
280
0
281
1
  0
ACDBDICTIONARYWDFLT
  5
E
102
{ACAD_REACTORS
330
C
102
}
100
AcDbDictionary
281
1
  3
Normal
350
F
100
AcDbDictionaryWithDefault
340
F
  0
DICTIONARY
  5
17
102
{ACAD_REACTORS
330
C
102
}
100
AcDbDictionary
280
0
281
1
  3
Standard
350
18
  0
DICTIONARY
  5
19
102
{ACAD_REACTORS
330
C
102
}
100
AcDbDictionary
281
1
  0
DICTIONARY
  5
1A
102
{ACAD_REACTORS
330
C
102
}
100
AcDbDictionary
281
1
  3
Model
350
3E6
  3
Layout1
350
3E7
  0
ACDBPLACEHOLDER
  5
F
102
{ACAD_REACTORS
330
E
102
}
  0
MLINESTYLE
  5
18
102
{ACAD_REACTORS
330
17
102
}
100
AcDbMlineStyle
  2
STANDARD
 70
0
  3

 62
256
 51
90.0
 52
90.0
 71
2
 49
0.5
 62
256
  6
BYLAYER
 49
-0.5
 62
256
  6
BYLAYER
  0
LAYOUT
  5
3E6
102
{ACAD_REACTORS
330
1A
102
}
100
AcDbPlotSettings
  1

  2
none_device
  4
ISO_A4_(297.00_x_210.00_MM)
  6

 40
0.0
 41
0.0
 42
0.0
 43
0.0
 44
297.0
 45
210.0
 46
0.0
 47
0.0
 48
0.0
 49
0.0
140
0.0
141
0.0
142
1.0
143
1.0
 70
1024
 72
1
 73
0
 74
0
  7

 75
0
147
1.0
148
0.0
149
0.0
100
AcDbLayout
  1
Model
 70
0
 71
0
 10
0.0
 20
0.0
 11
297.0
 21
210.0
 12
0.0
 22
0.0
 32
0.0
 14
0.0
 24
0.0
 34
0.0
 15
0.0
 25
0.0
 35
0.0
146
0.0
 13
0.0
 23
0.0
 33
0.0
 16
1.0
 26
0.0
 36
0.0
 17
0.0
 27
1.0
 37
0.0
 76
0
330
212
345
0
346
0
  0
LAYOUT
  5
3E7
102
{ACAD_REACTORS
330
1A
102
}
100
AcDbPlotSettings
  1

  2
none_device
  4
ISO_A4_(297.00_x_210.00_MM)
  6

 40
0.0
 41
0.0
 42
0.0
 43
0.0
 44
297.0
 45
210.0
 46
0.0
 47
0.0
 48
0.0
 49
0.0
140
0.0
141
0.0
142
1.0
143
1.0
 70
0
 72
1
 73
0
 74
0
  7

 75
0
147
1.0
148
0.0
149
0.0
100
AcDbLayout
  1
Layout1
 70
0
 71
1
 10
0.0
 20
0.0
 11
297.0
 21
210.0
 12
0.0
 22
0.0
 32
0.0
 14
0.0
 24
0.0
 34
0.0
 15
0.0
 25
0.0
 35
0.0
146
0.0
 13
0.0
 23
0.0
 33
0.0
 16
1.0
 26
0.0
 36
0.0
 17
0.0
 27
1.0
 37
0.0
 76
0
330
213
345
0
346
0
  0
ENDSEC
  0
EOF
