  0
SECTION
  2
HEADER
  9
$ACADVER
  1
AC1015
  9
$DWGCODEPAGE
  3
ANSI_1252
  9
$EXTMAX
 10
297.0
 20
210.0
 30
0.0
  9
$EXTMIN
 10
0.0
 20
0.0
 30
0.0
  9
$LIMMIN
 10
0.0
 20
0.0
  9
$LIMMAX
 10
297.0
 20
210.0
  9
$VIEWCTR
 10
148.5
 20
105.0
  9
$VIEWSIZE
 40
210.0
  9
$CLAYER
  8
0
  9
$LTSCALE
 40
16.335
  9
$CELTYPE
  6
BYLAYER
  9
$DIMSCALE
 40
1.0
  9
$DIMASZ
 40
3.0
  9
$DIMEXO
 40
1.85625
  9
$DIMDLI
 40
11.286
  9
$DIMEXE
 40
5.346
  9
$DIMCEN
 40
2.673
  9
$DIMLFAC
 40
1.0
  9
$DIMBLK
  1
_FILLED
  9
$DIMTXT
 40
3.0
  9
$DIMTOL
 70
1
  9
$DIMLIM
 70
0
  9
$DIMTFAC
 40
1.0
  9
$DIMTP
 40
0.01
  9
$DIMTM
 40
0.01
  9
$PDMODE
 70
3
  9
$PDSIZE
 40
3.0
  9
$HANDSEED
  5
457
  9
$TILEMODE
 70
1
  9
$MEASUREMENT
 70
1
  9
$INSUNITS
 70
4
  0
ENDSEC
  0
SECTION
  2
CLASSES
  0
CLASS
  1
ACDBDICTIONARYWDFLT
  2
AcDbDictionaryWithDefault
  3
AutoCAD 2000
 90
0
280
0
281
0
  0
CLASS
  1
ACDBPLACEHOLDER
  2
AcDbPlaceHolder
  3
AutoCAD 2000
 90
0
280
0
281
0
  0
CLASS
  1
LAYOUT
  2
AcDbLayout
  3
AutoCAD 2000
 90
0
280
0
281
0
  0
ENDSEC
  0
SECTION
  2
TABLES
  0
TABLE
  2
VPORT
  5
8
100
AcDbSymbolTable
 70
2
  0
VPORT
  5
1F4
100
AcDbSymbolTableRecord
100
AcDbViewportTableRecord
  2
*ACTIVE
 70
0
 10
0.0
 20
0.0
 11
1.0
 21
1.0
 12
148.5
 22
105.0
 13
0.0
 23
0.0
 14
1.0
 24
1.0
 15
0.0
 25
0.0
 16
0.0
 26
0.0
 36
1.0
 17
0.0
 27
0.0
 37
0.0
 40
210.0
 41
1.4142857143
 42
50.0
 43
0.0
 44
0.0
 50
0.0
 51
0.0
 71
0
 72
100
 73
1
 74
1
 75
0
 76
0
 77
0
 78
0
  0
ENDTAB
  0
TABLE
  2
LTYPE
  5
5
100
AcDbSymbolTable
 70
6
  0
LTYPE
  5
14
100
AcDbSymbolTableRecord
100
AcDbLinetypeTableRecord
  2
BYBLOCK
 70
0
  3

 72
65
 73
0
 40
0.0
  0
LTYPE
  5
15
100
AcDbSymbolTableRecord
100
AcDbLinetypeTableRecord
  2
BYLAYER
 70
0
  3

 72
65
 73
0
 40
0.0
  0
LTYPE
  5
16
100
AcDbSymbolTableRecord
100
AcDbLinetypeTableRecord
  2
CONTINUOUS
 70
64
  3
Solid line
 72
65
 73
0
 40
0.0
  0
LTYPE
  5
1F5
100
AcDbSymbolTableRecord
100
AcDbLinetypeTableRecord
  2
CENTER
 70
64
  3
____ _ ____ _ ____ _ ____ _ ____ _ ____ _ ____
 72
65
 73
4
 40
0.6
 49
0.375
 74
0
 49
-0.075
 74
0
 49
0.075
 74
0
 49
-0.075
 74
0
  0
LTYPE
  5
1F6
100
AcDbSymbolTableRecord
100
AcDbLinetypeTableRecord
  2
HIDDEN
 70
64
  3
- - - - - - - - - - - - - - - - - - - -
 72
65
 73
2
 40
0.2
 49
0.1
 74
0
 49
-0.1
 74
0
  0
LTYPE
  5
1F7
100
AcDbSymbolTableRecord
100
AcDbLinetypeTableRecord
  2
PHANTOM
 70
64
  3
_____ _ _ _____ _ _ _____ _ _ _____
 72
65
 73
6
 40
0.8
 49
0.45
 74
0
 49
-0.05
 74
0
 49
0.1
 74
0
 49
-0.05
 74
0
 49
0.1
 74
0
 49
-0.05
 74
0
  0
LTYPE
  5
1F8
100
AcDbSymbolTableRecord
100
AcDbLinetypeTableRecord
  2
DOT
 70
64
  3
. . . . . . . . . . . . . . . . . . . .
 72
65
 73
2
 40
0.2
 49
0.1
 74
0
 49
-0.1
 74
0
  0
LTYPE
  5
1F9
100
AcDbSymbolTableRecord
100
AcDbLinetypeTableRecord
  2
DASHED
 70
64
  3
- - - - - - - - - - - - - - - - - - - -
 72
65
 73
2
 40
0.2
 49
0.1
 74
0
 49
-0.1
 74
0
  0
ENDTAB
  0
TABLE
  2
LAYER
  5
2
100
AcDbSymbolTable
 70
36
  0
LAYER
  5
10
100
AcDbSymbolTableRecord
100
AcDbLayerTableRecord
  2
0
 70
0
 62
7
  6
CONTINUOUS
370
-3
390
F
  0
LAYER
  5
1FA
100
AcDbSymbolTableRecord
100
AcDbLayerTableRecord
  2
DEFAULT_1
 70
0
 62
7
  6
CENTER
370
-3
390
F
  0
LAYER
  5
1FB
100
AcDbSymbolTableRecord
100
AcDbLayerTableRecord
  2
DEFAULT_2
 70
0
 62
7
  6
HIDDEN
370
-3
390
F
  0
LAYER
  5
1FC
100
AcDbSymbolTableRecord
100
AcDbLayerTableRecord
  2
DEFAULT_3
 70
0
 62
7
  6
PHANTOM
370
-3
390
F
  0
LAYER
  5
1FD
100
AcDbSymbolTableRecord
100
AcDbLayerTableRecord
  2
ASSI
 70
0
 62
7
  6
CONTINUOUS
370
-3
390
F
  0
LAYER
  5
1FE
100
AcDbSymbolTableRecord
100
AcDbLayerTableRecord
  2
COORDINATE
 70
0
 62
7
  6
CONTINUOUS
370
-3
390
F
  0
LAYER
  5
1FF
100
AcDbSymbolTableRecord
100
AcDbLayerTableRecord
  2
COORD_ORIGINE
 70
0
 62
7
  6
CONTINUOUS
370
-3
390
F
  0
LAYER
  5
200
100
AcDbSymbolTableRecord
100
AcDbLayerTableRecord
  2
COPY_PUBLISH
 70
0
 62
7
  6
CONTINUOUS
370
-3
390
F
  0
LAYER
  5
201
100
AcDbSymbolTableRecord
100
AcDbLayerTableRecord
  2
COSMETIC
 70
0
 62
7
  6
CONTINUOUS
370
-3
390
F
  0
LAYER
  5
202
100
AcDbSymbolTableRecord
100
AcDbLayerTableRecord
  2
CURVA_ASSE
 70
0
 62
7
  6
CONTINUOUS
370
-3
390
F
  0
LAYER
  5
203
100
AcDbSymbolTableRecord
100
AcDbLayerTableRecord
  2
CURVE
 70
0
 62
7
  6
CONTINUOUS
370
-3
390
F
  0
LAYER
  5
204
100
AcDbSymbolTableRecord
100
AcDbLayerTableRecord
  2
DRAFT
 70
0
 62
7
  6
CONTINUOUS
370
-3
390
F
  0
LAYER
  5
205
100
AcDbSymbolTableRecord
100
AcDbLayerTableRecord
  2
IMPORT_IGES
 70
0
 62
7
  6
CONTINUOUS
370
-3
390
F
  0
LAYER
  5
206
100
AcDbSymbolTableRecord
100
AcDbLayerTableRecord
  2
NOTE
 70
0
 62
7
  6
CONTINUOUS
370
-3
390
F
  0
LAYER
  5
207
100
AcDbSymbolTableRecord
100
AcDbLayerTableRecord
  2
PIANI
 70
0
 62
7
  6
CONTINUOUS
370
-3
390
F
  0
LAYER
  5
208
100
AcDbSymbolTableRecord
100
AcDbLayerTableRecord
  2
PIANI_ORIGINE
 70
0
 62
7
  6
CONTINUOUS
370
-3
390
F
  0
LAYER
  5
209
100
AcDbSymbolTableRecord
100
AcDbLayerTableRecord
  2
PUNTI
 70
0
 62
7
  6
CONTINUOUS
370
-3
390
F
  0
LAYER
  5
20A
100
AcDbSymbolTableRecord
100
AcDbLayerTableRecord
  2
RACCORDO
 70
0
 62
7
  6
CONTINUOUS
370
-3
390
F
  0
LAYER
  5
20B
100
AcDbSymbolTableRecord
100
AcDbLayerTableRecord
  2
SMUSSO
 70
0
 62
7
  6
CONTINUOUS
370
-3
390
F
  0
LAYER
  5
20C
100
AcDbSymbolTableRecord
100
AcDbLayerTableRecord
  2
SNAPLINE
 70
0
 62
7
  6
CONTINUOUS
370
-3
390
F
  0
LAYER
  5
20D
100
AcDbSymbolTableRecord
100
AcDbLayerTableRecord
  2
SUPERFICI
 70
0
 62
7
  6
CONTINUOUS
370
-3
390
F
  0
LAYER
  5
20E
100
AcDbSymbolTableRecord
100
AcDbLayerTableRecord
  2
TRASH
 70
0
 62
7
  6
CONTINUOUS
370
-3
390
F
  0
LAYER
  5
20F
100
AcDbSymbolTableRecord
100
AcDbLayerTableRecord
  2
XSEC_DATUMS
 70
0
 62
7
  6
CONTINUOUS
370
-3
390
F
  0
ENDTAB
  0
TABLE
  2
STYLE
  5
3
100
AcDbSymbolTable
 70
1
  0
STYLE
  5
11
100
AcDbSymbolTableRecord
100
AcDbTextStyleTableRecord
  2
STANDARD
 70
0
 40
0.0
 41
0.8
 50
0.0
 71
0
 42
0.2
  3
txt
  4

  0
STYLE
  5
210
100
AcDbSymbolTableRecord
100
AcDbTextStyleTableRecord
  2
TEXTSTYLE_1
 70
0
 40
0.0
 41
0.8
 50
0.0
 71
0
 42
0.2
  3
gdt
  4

  0
ENDTAB
  0
TABLE
  2
VIEW
  5
6
100
AcDbSymbolTable
 70
0
  0
ENDTAB
  0
TABLE
  2
UCS
  5
7
100
AcDbSymbolTable
 70
0
  0
ENDTAB
  0
TABLE
  2
APPID
  5
9
100
AcDbSymbolTable
 70
1
  0
APPID
  5
211
100
AcDbSymbolTableRecord
100
AcDbRegAppTableRecord
  2
ACAD
 70
0
  0
ENDTAB
  0
TABLE
  2
BLOCK_RECORD
  5
1
100
AcDbSymbolTable
 70
0
  0
BLOCK_RECORD
  5
212
100
AcDbSymbolTableRecord
100
AcDbBlockTableRecord
  2
*Model_Space
  0
BLOCK_RECORD
  5
213
100
AcDbSymbolTableRecord
100
AcDbBlockTableRecord
  2
*Paper_Space
  0
BLOCK_RECORD
  5
214
100
AcDbSymbolTableRecord
100
AcDbBlockTableRecord
  2
_FILLED
  0
BLOCK_RECORD
  5
215
100
AcDbSymbolTableRecord
100
AcDbBlockTableRecord
  2
_NONE
  0
BLOCK_RECORD
  5
216
100
AcDbSymbolTableRecord
100
AcDbBlockTableRecord
  2
*D0
  0
BLOCK_RECORD
  5
217
100
AcDbSymbolTableRecord
100
AcDbBlockTableRecord
  2
*D1
  0
BLOCK_RECORD
  5
218
100
AcDbSymbolTableRecord
100
AcDbBlockTableRecord
  2
*D2
  0
BLOCK_RECORD
  5
219
100
AcDbSymbolTableRecord
100
AcDbBlockTableRecord
  2
*D3
  0
BLOCK_RECORD
  5
21A
100
AcDbSymbolTableRecord
100
AcDbBlockTableRecord
  2
*D4
  0
BLOCK_RECORD
  5
21B
100
AcDbSymbolTableRecord
100
AcDbBlockTableRecord
  2
*D5
  0
BLOCK_RECORD
  5
21C
100
AcDbSymbolTableRecord
100
AcDbBlockTableRecord
  2
*D6
  0
BLOCK_RECORD
  5
21D
100
AcDbSymbolTableRecord
100
AcDbBlockTableRecord
  2
*D7
  0
BLOCK_RECORD
  5
21E
100
AcDbSymbolTableRecord
100
AcDbBlockTableRecord
  2
*D8
  0
BLOCK_RECORD
  5
21F
100
AcDbSymbolTableRecord
100
AcDbBlockTableRecord
  2
*D9
  0
ENDTAB
  0
TABLE
  2
DIMSTYLE
  5
A
100
AcDbSymbolTable
 70
1
100
AcDbDimStyleTable
 71
0
  0
DIMSTYLE
105
220
100
AcDbSymbolTableRecord
100
AcDbDimStyleTableRecord
  2
STANDARD
 70
0
  3

  4

 40
1.0
 41
3.0
 42
0.0625
 43
0.38
 44
0.18
 45
0.0
 46
0.0
 47
0.01
 48
0.01
140
3.0
141
0.09
142
0.0
143
25.4
144
1.0
145
0.0
146
1.0
147
0.09
 71
1.0
 72
0.0
 73
0
 74
0
 75
0
 76
0
 77
1
 78
8
170
0
171
2
172
0
173
0
174
0
175
0
176
0
177
0
178
0
270
2
271
2
272
2
273
2
274
2
275
0
280
0
281
0
282
0
283
1
284
8
285
0
286
0
287
3
288
0
340
11
341
214
342
214
343
214
344
214
  0
DIMSTYLE
105
221
100
AcDbSymbolTableRecord
100
AcDbDimStyleTableRecord
  2
DIMSTYLE_1
 70
0
  3

  4

 40
1.0
 41
3.0
 42
0.0625
 43
0.38
 44
0.18
 45
0.0
 46
0.0
 47
0.0
 48
0.0
140
3.0
141
0.09
142
0.0
143
25.4
144
1.0
145
0.0
146
1.0
147
0.09
 71
0.0
 72
0.0
 73
0
 74
0
 75
0
 76
0
 77
1
 78
8
170
0
171
2
172
0
173
0
174
0
175
0
176
0
177
0
178
0
270
2
271
2
272
2
273
2
274
2
275
0
280
0
281
0
282
0
283
1
284
8
285
0
286
0
287
3
288
0
340
11
341
214
342
214
343
214
344
214
  0
ENDTAB
  0
ENDSEC
  0
SECTION
  2
BLOCKS
  0
BLOCK
  5
20
100
AcDbEntity
  8
0
100
AcDbBlockBegin
  2
*Model_Space
 70
0
 10
0.0
 20
0.0
 30
0.0
  3
*Model_Space
  1

  0
ENDBLK
  5
21
100
AcDbEntity
  8
0
100
AcDbBlockEnd
  0
BLOCK
  5
1C
100
AcDbEntity
  8
0
100
AcDbBlockBegin
  2
*Paper_Space
 70
0
 10
0.0
 20
0.0
 30
0.0
  3
*Paper_Space
  1

  0
ENDBLK
  5
1D
100
AcDbEntity
  8
0
100
AcDbBlockEnd
  0
BLOCK
  5
222
100
AcDbEntity
  8
0
100
AcDbBlockBegin
  2
_FILLED
 70
64
 10
0.0
 20
0.0
  3
_FILLED
  1

  0
SOLID
  5
223
100
AcDbEntity
  8
0
  6
BYBLOCK
 62
0
100
AcDbTrace
 10
0.0
 20
0.0
 11
-1.0
 21
0.3166666667
 12
-1.0
 22
-0.3166666667
 13
-1.0
 23
-0.3166666667
  0
ENDBLK
  5
224
100
AcDbEntity
  8
0
  6
BYBLOCK
 62
0
100
AcDbBlockEnd
  0
BLOCK
  5
225
100
AcDbEntity
  8
0
100
AcDbBlockBegin
  2
_NONE
 70
64
 10
0.0
 20
0.0
  3
_NONE
  1

  0
ENDBLK
  5
226
100
AcDbEntity
  8
0
  6
BYBLOCK
 62
0
100
AcDbBlockEnd
  0
BLOCK
  5
227
100
AcDbEntity
  8
0
100
AcDbBlockBegin
 62
7
  6
CONTINUOUS
  2
*D0
 70
65
 10
0.0
 20
0.0
  3
*D0
  1

  0
MTEXT
  5
228
100
AcDbEntity
  8
0
100
AcDbMText
 62
7
  6
CONTINUOUS
  7
STANDARD
 71
2
 72
1
 10
0.0
 20
111.25
 30
0.0
 11
1.0
 21
0.0
 31
0.0
 44
0.9
  1
464
 40
3.0
 41
7.0714285714
  0
LINE
  5
229
100
AcDbEntity
  8
0
100
AcDbLine
 62
7
  6
CONTINUOUS
 10
-232.0
 20
70.0
 11
-232.0
 21
109.0
  0
LINE
  5
22A
100
AcDbEntity
  8
0
100
AcDbLine
 62
7
  6
CONTINUOUS
 10
232.0
 20
70.0
 11
232.0
 21
109.0
  0
LINE
  5
22B
100
AcDbEntity
  8
0
100
AcDbLine
 62
7
  6
CONTINUOUS
 10
-232.0
 20
107.5
 11
0.0
 21
107.5
  0
LINE
  5
22C
100
AcDbEntity
  8
0
100
AcDbLine
 62
7
  6
CONTINUOUS
 10
232.0
 20
107.5
 11
0.0
 21
107.5
  0
INSERT
  5
22D
100
AcDbEntity
  8
0
100
AcDbBlockReference
 62
7
  6
CONTINUOUS
  2
_FILLED
 10
-232.0
 20
107.5
 41
3.0
 42
3.0
 43
3.0
 50
180.0
  0
INSERT
  5
22E
100
AcDbEntity
  8
0
100
AcDbBlockReference
 62
7
  6
CONTINUOUS
  2
_FILLED
 10
232.0
 20
107.5
 41
3.0
 42
3.0
 43
3.0
  0
ENDBLK
  5
22F
100
AcDbEntity
  8
0
  6
BYBLOCK
 62
0
100
AcDbBlockEnd
  0
BLOCK
  5
230
100
AcDbEntity
  8
0
100
AcDbBlockBegin
 62
7
  6
CONTINUOUS
  2
*D1
 70
65
 10
0.0
 20
0.0
  3
*D1
  1

  0
MTEXT
  5
231
100
AcDbEntity
  8
0
100
AcDbMText
 62
7
  6
CONTINUOUS
  7
STANDARD
 71
2
 72
1
 10
256.25
 20
0.0
 30
0.0
 11
0.0
 21
1.0
 31
0.0
 44
0.9
  1
139
 40
3.0
 41
6.2142857143
  0
LINE
  5
232
100
AcDbEntity
  8
0
100
AcDbLine
 62
7
  6
CONTINUOUS
 10
232.5
 20
69.5
 11
261.5
 21
69.5
  0
LINE
  5
233
100
AcDbEntity
  8
0
100
AcDbLine
 62
7
  6
CONTINUOUS
 10
232.5
 20
-69.5
 11
261.5
 21
-69.5
  0
LINE
  5
234
100
AcDbEntity
  8
0
100
AcDbLine
 62
7
  6
CONTINUOUS
 10
260.0
 20
69.5
 11
260.0
 21
-0.0
  0
LINE
  5
235
100
AcDbEntity
  8
0
100
AcDbLine
 62
7
  6
CONTINUOUS
 10
260.0
 20
-69.5
 11
260.0
 21
-0.0
  0
INSERT
  5
236
100
AcDbEntity
  8
0
100
AcDbBlockReference
 62
7
  6
CONTINUOUS
  2
_FILLED
 10
260.0
 20
69.5
 41
3.0
 42
3.0
 43
3.0
 50
90.0
  0
INSERT
  5
237
100
AcDbEntity
  8
0
100
AcDbBlockReference
 62
7
  6
CONTINUOUS
  2
_FILLED
 10
260.0
 20
-69.5
 41
3.0
 42
3.0
 43
3.0
 50
270.0
  0
ENDBLK
  5
238
100
AcDbEntity
  8
0
  6
BYBLOCK
 62
0
100
AcDbBlockEnd
  0
BLOCK
  5
239
100
AcDbEntity
  8
0
100
AcDbBlockBegin
 62
7
  6
CONTINUOUS
  2
*D2
 70
65
 10
0.0
 20
0.0
  3
*D2
  1

  0
MTEXT
  5
23A
100
AcDbEntity
  8
0
100
AcDbMText
 62
7
  6
CONTINUOUS
  7
STANDARD
 71
2
 72
1
 10
-156.0
 20
101.25
 30
0.0
 11
1.0
 21
0.0
 31
0.0
 44
0.9
  1
152
 40
3.0
 41
6.2142857143
  0
LINE
  5
23B
100
AcDbEntity
  8
0
100
AcDbLine
 62
7
  6
CONTINUOUS
 10
-232.0
 20
70.0
 11
-232.0
 21
99.0
  0
LINE
  5
23C
100
AcDbEntity
  8
0
100
AcDbLine
 62
7
  6
CONTINUOUS
 10
-80.0
 20
70.0
 11
-80.0
 21
99.0
  0
LINE
  5
23D
100
AcDbEntity
  8
0
100
AcDbLine
 62
7
  6
CONTINUOUS
 10
-232.0
 20
97.5
 11
-156.0
 21
97.5
  0
LINE
  5
23E
100
AcDbEntity
  8
0
100
AcDbLine
 62
7
  6
CONTINUOUS
 10
-80.0
 20
97.5
 11
-156.0
 21
97.5
  0
INSERT
  5
23F
100
AcDbEntity
  8
0
100
AcDbBlockReference
 62
7
  6
CONTINUOUS
  2
_FILLED
 10
-232.0
 20
97.5
 41
3.0
 42
3.0
 43
3.0
 50
180.0
  0
INSERT
  5
240
100
AcDbEntity
  8
0
100
AcDbBlockReference
 62
7
  6
CONTINUOUS
  2
_FILLED
 10
-80.0
 20
97.5
 41
3.0
 42
3.0
 43
3.0
  0
ENDBLK
  5
241
100
AcDbEntity
  8
0
  6
BYBLOCK
 62
0
100
AcDbBlockEnd
  0
BLOCK
  5
242
100
AcDbEntity
  8
0
100
AcDbBlockBegin
 62
7
  6
CONTINUOUS
  2
*D3
 70
65
 10
0.0
 20
0.0
  3
*D3
  1

  0
MTEXT
  5
243
100
AcDbEntity
  8
0
100
AcDbMText
 62
7
  6
CONTINUOUS
  7
STANDARD
 71
2
 72
1
 10
0.0
 20
101.25
 30
0.0
 11
1.0
 21
0.0
 31
0.0
 44
0.9
  1
160
 40
3.0
 41
6.4285714286
  0
LINE
  5
244
100
AcDbEntity
  8
0
100
AcDbLine
 62
7
  6
CONTINUOUS
 10
80.0
 20
70.0
 11
80.0
 21
99.0
  0
LINE
  5
245
100
AcDbEntity
  8
0
100
AcDbLine
 62
7
  6
CONTINUOUS
 10
-80.0
 20
70.0
 11
-80.0
 21
99.0
  0
LINE
  5
246
100
AcDbEntity
  8
0
100
AcDbLine
 62
7
  6
CONTINUOUS
 10
80.0
 20
97.5
 11
0.0
 21
97.5
  0
LINE
  5
247
100
AcDbEntity
  8
0
100
AcDbLine
 62
7
  6
CONTINUOUS
 10
-80.0
 20
97.5
 11
0.0
 21
97.5
  0
INSERT
  5
248
100
AcDbEntity
  8
0
100
AcDbBlockReference
 62
7
  6
CONTINUOUS
  2
_FILLED
 10
80.0
 20
97.5
 41
3.0
 42
3.0
 43
3.0
  0
INSERT
  5
249
100
AcDbEntity
  8
0
100
AcDbBlockReference
 62
7
  6
CONTINUOUS
  2
_FILLED
 10
-80.0
 20
97.5
 41
3.0
 42
3.0
 43
3.0
 50
180.0
  0
ENDBLK
  5
24A
100
AcDbEntity
  8
0
  6
BYBLOCK
 62
0
100
AcDbBlockEnd
  0
BLOCK
  5
24B
100
AcDbEntity
  8
0
100
AcDbBlockBegin
 62
7
  6
CONTINUOUS
  2
*D4
 70
65
 10
0.0
 20
0.0
  3
*D4
  1

  0
MTEXT
  5
24C
100
AcDbEntity
  8
0
100
AcDbMText
 62
7
  6
CONTINUOUS
  7
STANDARD
 71
2
 72
1
 10
156.0
 20
101.25
 30
0.0
 11
1.0
 21
0.0
 31
0.0
 44
0.9
  1
152
 40
3.0
 41
6.2142857143
  0
LINE
  5
24D
100
AcDbEntity
  8
0
100
AcDbLine
 62
7
  6
CONTINUOUS
 10
232.0
 20
70.0
 11
232.0
 21
99.0
  0
LINE
  5
24E
100
AcDbEntity
  8
0
100
AcDbLine
 62
7
  6
CONTINUOUS
 10
80.0
 20
70.0
 11
80.0
 21
99.0
  0
LINE
  5
24F
100
AcDbEntity
  8
0
100
AcDbLine
 62
7
  6
CONTINUOUS
 10
232.0
 20
97.5
 11
156.0
 21
97.5
  0
LINE
  5
250
100
AcDbEntity
  8
0
100
AcDbLine
 62
7
  6
CONTINUOUS
 10
80.0
 20
97.5
 11
156.0
 21
97.5
  0
INSERT
  5
251
100
AcDbEntity
  8
0
100
AcDbBlockReference
 62
7
  6
CONTINUOUS
  2
_FILLED
 10
232.0
 20
97.5
 41
3.0
 42
3.0
 43
3.0
  0
INSERT
  5
252
100
AcDbEntity
  8
0
100
AcDbBlockReference
 62
7
  6
CONTINUOUS
  2
_FILLED
 10
80.0
 20
97.5
 41
3.0
 42
3.0
 43
3.0
 50
180.0
  0
ENDBLK
  5
253
100
AcDbEntity
  8
0
  6
BYBLOCK
 62
0
100
AcDbBlockEnd
  0
BLOCK
  5
254
100
AcDbEntity
  8
0
100
AcDbBlockBegin
 62
7
  6
CONTINUOUS
  2
*D5
 70
65
 10
0.0
 20
0.0
  3
*D5
  1

  0
MTEXT
  5
255
100
AcDbEntity
  8
0
100
AcDbMText
 62
7
  6
CONTINUOUS
  7
STANDARD
 71
2
 72
1
 10
0.0
 20
121.25
 30
0.0
 11
1.0
 21
0.0
 31
0.0
 44
0.9
  1
504
 40
3.0
 41
6.8571428571
  0
LINE
  5
256
100
AcDbEntity
  8
0
100
AcDbLine
 62
7
  6
CONTINUOUS
 10
252.0
 20
79.9999999671
 11
252.0
 21
119.0
  0
LINE
  5
257
100
AcDbEntity
  8
0
100
AcDbLine
 62
7
  6
CONTINUOUS
 10
-252.0
 20
80.0
 11
-252.0
 21
119.0
  0
LINE
  5
258
100
AcDbEntity
  8
0
100
AcDbLine
 62
7
  6
CONTINUOUS
 10
252.0
 20
117.5
 11
0.0
 21
117.5
  0
LINE
  5
259
100
AcDbEntity
  8
0
100
AcDbLine
 62
7
  6
CONTINUOUS
 10
-252.0
 20
117.5
 11
0.0
 21
117.5
  0
INSERT
  5
25A
100
AcDbEntity
  8
0
100
AcDbBlockReference
 62
7
  6
CONTINUOUS
  2
_FILLED
 10
252.0
 20
117.5
 41
3.0
 42
3.0
 43
3.0
  0
INSERT
  5
25B
100
AcDbEntity
  8
0
100
AcDbBlockReference
 62
7
  6
CONTINUOUS
  2
_FILLED
 10
-252.0
 20
117.5
 41
3.0
 42
3.0
 43
3.0
 50
180.0
  0
ENDBLK
  5
25C
100
AcDbEntity
  8
0
  6
BYBLOCK
 62
0
100
AcDbBlockEnd
  0
BLOCK
  5
25D
100
AcDbEntity
  8
0
100
AcDbBlockBegin
 62
7
  6
CONTINUOUS
  2
*D6
 70
65
 10
0.0
 20
0.0
  3
*D6
  1

  0
MTEXT
  5
25E
100
AcDbEntity
  8
0
100
AcDbMText
 62
7
  6
CONTINUOUS
  7
STANDARD
 71
2
 72
1
 10
266.25
 20
0.0
 30
0.0
 11
0.0
 21
1.0
 31
0.0
 44
0.9
  1
179
 40
3.0
 41
6.4285714286
  0
LINE
  5
25F
100
AcDbEntity
  8
0
100
AcDbLine
 62
7
  6
CONTINUOUS
 10
242.4999999671
 20
-89.5
 11
271.5
 21
-89.5
  0
LINE
  5
260
100
AcDbEntity
  8
0
100
AcDbLine
 62
7
  6
CONTINUOUS
 10
242.5
 20
89.5
 11
271.5
 21
89.5
  0
LINE
  5
261
100
AcDbEntity
  8
0
100
AcDbLine
 62
7
  6
CONTINUOUS
 10
270.0
 20
-89.5
 11
270.0
 21
0.0
  0
LINE
  5
262
100
AcDbEntity
  8
0
100
AcDbLine
 62
7
  6
CONTINUOUS
 10
270.0
 20
89.5
 11
270.0
 21
0.0
  0
INSERT
  5
263
100
AcDbEntity
  8
0
100
AcDbBlockReference
 62
7
  6
CONTINUOUS
  2
_FILLED
 10
270.0
 20
-89.5
 41
3.0
 42
3.0
 43
3.0
 50
270.0
  0
INSERT
  5
264
100
AcDbEntity
  8
0
100
AcDbBlockReference
 62
7
  6
CONTINUOUS
  2
_FILLED
 10
270.0
 20
89.5
 41
3.0
 42
3.0
 43
3.0
 50
90.0
  0
ENDBLK
  5
265
100
AcDbEntity
  8
0
  6
BYBLOCK
 62
0
100
AcDbBlockEnd
  0
BLOCK
  5
266
100
AcDbEntity
  8
0
100
AcDbBlockBegin
 62
7
  6
CONTINUOUS
  2
*D7
 70
65
 10
0.0
 20
0.0
  3
*D7
  1

  0
MTEXT
  5
267
100
AcDbEntity
  8
0
100
AcDbMText
 62
7
  6
CONTINUOUS
  7
STANDARD
 71
2
 72
1
 10
-344.9798291379
 20
111.25
 30
0.0
 11
1.0
 21
0.0
 31
0.0
 44
0.9
  1
75,9
 40
3.0
 41
8.5714285714
  0
LINE
  5
268
100
AcDbEntity
  8
0
100
AcDbLine
 62
7
  6
CONTINUOUS
 10
-307.0298291379
 20
62.6729004481
 11
-307.0298291379
 21
109.0
  0
LINE
  5
269
100
AcDbEntity
  8
0
100
AcDbLine
 62
7
  6
CONTINUOUS
 10
-382.9298291379
 20
80.0
 11
-382.9298291379
 21
109.0
  0
LINE
  5
26A
100
AcDbEntity
  8
0
100
AcDbLine
 62
7
  6
CONTINUOUS
 10
-307.0298291379
 20
107.5
 11
-344.9798291379
 21
107.5
  0
LINE
  5
26B
100
AcDbEntity
  8
0
100
AcDbLine
 62
7
  6
CONTINUOUS
 10
-382.9298291379
 20
107.5
 11
-344.9798291379
 21
107.5
  0
INSERT
  5
26C
100
AcDbEntity
  8
0
100
AcDbBlockReference
 62
7
  6
CONTINUOUS
  2
_FILLED
 10
-307.0298291379
 20
107.5
 41
3.0
 42
3.0
 43
3.0
  0
INSERT
  5
26D
100
AcDbEntity
  8
0
100
AcDbBlockReference
 62
7
  6
CONTINUOUS
  2
_FILLED
 10
-382.9298291379
 20
107.5
 41
3.0
 42
3.0
 43
3.0
 50
180.0
  0
ENDBLK
  5
26E
100
AcDbEntity
  8
0
  6
BYBLOCK
 62
0
100
AcDbBlockEnd
  0
BLOCK
  5
26F
100
AcDbEntity
  8
0
100
AcDbBlockBegin
 62
7
  6
CONTINUOUS
  2
*D8
 70
65
 10
0.0
 20
0.0
  3
*D8
  1

  0
MTEXT
  5
270
100
AcDbEntity
  8
0
100
AcDbMText
 62
7
  6
CONTINUOUS
  7
STANDARD
 71
2
 72
1
 10
-342.0298291379
 20
101.25
 30
0.0
 11
1.0
 21
0.0
 31
0.0
 44
0.9
  1
70
 40
3.0
 41
4.7142857143
  0
LINE
  5
271
100
AcDbEntity
  8
0
100
AcDbLine
 62
7
  6
CONTINUOUS
 10
-307.0298291379
 20
62.6729004481
 11
-307.0298291379
 21
99.0
  0
LINE
  5
272
100
AcDbEntity
  8
0
100
AcDbLine
 62
7
  6
CONTINUOUS
 10
-377.0298291379
 20
90.0
 11
-377.0298291379
 21
99.0
  0
LINE
  5
273
100
AcDbEntity
  8
0
100
AcDbLine
 62
7
  6
CONTINUOUS
 10
-307.0298291379
 20
97.5
 11
-342.0298291379
 21
97.5
  0
LINE
  5
274
100
AcDbEntity
  8
0
100
AcDbLine
 62
7
  6
CONTINUOUS
 10
-377.0298291379
 20
97.5
 11
-342.0298291379
 21
97.5
  0
INSERT
  5
275
100
AcDbEntity
  8
0
100
AcDbBlockReference
 62
7
  6
CONTINUOUS
  2
_FILLED
 10
-307.0298291379
 20
97.5
 41
3.0
 42
3.0
 43
3.0
  0
INSERT
  5
276
100
AcDbEntity
  8
0
100
AcDbBlockReference
 62
7
  6
CONTINUOUS
  2
_FILLED
 10
-377.0298291379
 20
97.5
 41
3.0
 42
3.0
 43
3.0
 50
180.0
  0
ENDBLK
  5
277
100
AcDbEntity
  8
0
  6
BYBLOCK
 62
0
100
AcDbBlockEnd
  0
BLOCK
  5
278
100
AcDbEntity
  8
0
100
AcDbBlockBegin
 62
7
  6
CONTINUOUS
  2
*D9
 70
65
 10
0.0
 20
0.0
  3
*D9
  1

  0
MTEXT
  5
279
100
AcDbEntity
  8
0
100
AcDbMText
 62
7
  6
CONTINUOUS
  7
STANDARD
 71
3
 72
1
 10
-386.8116223449
 20
101.25
 30
0.0
 11
1.0
 21
0.0
 31
0.0
 44
0.9
  1
5,9
 40
3.0
 41
6.2142857143
  0
LINE
  5
27A
100
AcDbEntity
  8
0
100
AcDbLine
 62
7
  6
CONTINUOUS
 10
-377.0298291379
 20
90.0
 11
-377.0298291379
 21
99.0
  0
LINE
  5
27B
100
AcDbEntity
  8
0
100
AcDbLine
 62
7
  6
CONTINUOUS
 10
-382.9298291379
 20
80.0
 11
-382.9298291379
 21
99.0
  0
LINE
  5
27C
100
AcDbEntity
  8
0
100
AcDbLine
 62
7
  6
CONTINUOUS
 10
-377.0298291379
 20
97.5
 11
-373.0298291379
 21
97.5
  0
LINE
  5
27D
100
AcDbEntity
  8
0
100
AcDbLine
 62
7
  6
CONTINUOUS
 10
-373.0298291379
 20
97.5
 11
-379.9798291379
 21
97.5
  0
LINE
  5
27E
100
AcDbEntity
  8
0
100
AcDbLine
 62
7
  6
CONTINUOUS
 10
-382.9298291379
 20
97.5
 11
-393.0259080592
 21
97.5
  0
LINE
  5
27F
100
AcDbEntity
  8
0
100
AcDbLine
 62
7
  6
CONTINUOUS
 10
-393.0259080592
 20
97.5
 11
-379.9798291379
 21
97.5
  0
INSERT
  5
280
100
AcDbEntity
  8
0
100
AcDbBlockReference
 62
7
  6
CONTINUOUS
  2
_NONE
 10
-377.0298291379
 20
97.5
 41
3.0
 42
3.0
 43
3.0
 50
180.0
  0
INSERT
  5
281
100
AcDbEntity
  8
0
100
AcDbBlockReference
 62
7
  6
CONTINUOUS
  2
_FILLED
 10
-382.9298291379
 20
97.5
 41
3.0
 42
3.0
 43
3.0
  0
ENDBLK
  5
282
100
AcDbEntity
  8
0
  6
BYBLOCK
 62
0
100
AcDbBlockEnd
  0
ENDSEC
  0
SECTION
  2
ENTITIES
  0
DIMENSION
  5
283
100
AcDbEntity
  8
0
100
AcDbDimension
 62
7
  6
CONTINUOUS
  2
*D0
 10
232.0
 20
107.5
 11
-3.5357142857
 21
109.75
 70
160
 71
2
 42
464.0
  3
DIMSTYLE_1
100
AcDbAlignedDimension
 13
-232.0
 23
70.0
 14
232.0
 24
70.0
100
AcDbRotatedDimension
  0
DIMENSION
  5
284
100
AcDbEntity
  8
0
100
AcDbDimension
 62
7
  6
CONTINUOUS
  2
*D1
 10
260.0
 20
-69.5
 11
259.1422287358
 21
-2.7777753476
 70
160
 71
2
 42
139.0
  3
DIMSTYLE_1
100
AcDbAlignedDimension
 13
232.5
 23
69.5
 14
232.5
 24
-69.5
 50
270.0
100
AcDbRotatedDimension
  0
DIMENSION
  5
285
100
AcDbEntity
  8
0
100
AcDbDimension
 62
7
  6
CONTINUOUS
  2
*D2
 10
-80.0
 20
97.5
 11
-159.1071428571
 21
99.75
 70
160
 71
2
 42
152.0
  3
DIMSTYLE_1
100
AcDbAlignedDimension
 13
-232.0
 23
70.0
 14
-80.0
 24
70.0
100
AcDbRotatedDimension
  0
DIMENSION
  5
286
100
AcDbEntity
  8
0
100
AcDbDimension
 62
7
  6
CONTINUOUS
  2
*D3
 10
-80.0
 20
97.5
 11
-3.2142857143
 21
99.75
 70
160
 71
2
 42
160.0
  3
DIMSTYLE_1
100
AcDbAlignedDimension
 13
80.0
 23
70.0
 14
-80.0
 24
70.0
 50
180.0
100
AcDbRotatedDimension
  0
DIMENSION
  5
287
100
AcDbEntity
  8
0
100
AcDbDimension
 62
7
  6
CONTINUOUS
  2
*D4
 10
80.0
 20
97.5
 11
152.8928571429
 21
99.75
 70
160
 71
2
 42
152.0
  3
DIMSTYLE_1
100
AcDbAlignedDimension
 13
232.0
 23
70.0
 14
80.0
 24
70.0
 50
180.0
100
AcDbRotatedDimension
  0
DIMENSION
  5
288
100
AcDbEntity
  8
0
100
AcDbDimension
 62
7
  6
CONTINUOUS
  2
*D5
 10
-252.0
 20
117.5
 11
-3.4285714286
 21
119.75
 70
160
 71
2
 42
504.0
  3
DIMSTYLE_1
100
AcDbAlignedDimension
 13
252.0
 23
79.9999999671
 14
-252.0
 24
80.0
 50
180.0
100
AcDbRotatedDimension
  0
DIMENSION
  5
289
100
AcDbEntity
  8
0
100
AcDbDimension
 62
7
  6
CONTINUOUS
  2
*D6
 10
270.0
 20
89.5
 11
269.1902366233
 21
-2.8735607044
 70
160
 71
2
 42
179.0
  3
DIMSTYLE_1
100
AcDbAlignedDimension
 13
242.4999999671
 23
-89.5
 14
242.5
 24
89.5
 50
90.0
100
AcDbRotatedDimension
  0
DIMENSION
  5
28A
100
AcDbEntity
  8
0
100
AcDbDimension
 62
7
  6
CONTINUOUS
  2
*D7
 10
-382.9298291379
 20
107.5
 11
-349.2655434236
 21
109.75
 70
160
 71
2
 42
75.9
  3
DIMSTYLE_1
100
AcDbAlignedDimension
 13
-307.0298291379
 23
62.6729004481
 14
-382.9298291379
 24
80.0
 50
180.0
100
AcDbRotatedDimension
  0
DIMENSION
  5
28B
100
AcDbEntity
  8
0
100
AcDbDimension
 62
7
  6
CONTINUOUS
  2
*D8
 10
-377.0298291379
 20
97.5
 11
-344.3869719951
 21
99.75
 70
160
 71
2
 42
70.0
  3
DIMSTYLE_1
100
AcDbAlignedDimension
 13
-307.0298291379
 23
62.6729004481
 14
-377.0298291379
 24
90.0
 50
180.0
100
AcDbRotatedDimension
  0
DIMENSION
  5
28C
100
AcDbEntity
  8
0
100
AcDbDimension
 62
7
  6
CONTINUOUS
  2
*D9
 10
-382.9298291379
 20
97.5
 11
-396.1330509164
 21
99.75
 70
160
 71
3
 42
5.9
  3
DIMSTYLE_1
100
AcDbAlignedDimension
 13
-377.0298291379
 23
90.0
 14
-382.9298291379
 24
80.0
 50
180.0
100
AcDbRotatedDimension
1001
ACAD
1000
DSTYLE
1002
{
1070
173
1070
1
1070
6
1000
_NONE
1002
}
  0
LINE
  5
28D
100
AcDbEntity
  8
RACCORDO
100
AcDbLine
 62
7
  6
CONTINUOUS
 10
-252.0
 20
79.5
 11
-252.0
 21
-79.5
  0
LINE
  5
28E
100
AcDbEntity
  8
RACCORDO
100
AcDbLine
 62
253
  6
CONTINUOUS
 10
-250.0
 20
79.5
 11
-250.0
 21
-79.5
  0
LINE
  5
28F
100
AcDbEntity
  8
RACCORDO
100
AcDbLine
 62
253
  6
CONTINUOUS
 10
-242.0
 20
-87.5
 11
-242.0
 21
-89.5
  0
LINE
  5
290
100
AcDbEntity
  8
RACCORDO
100
AcDbLine
 62
253
  6
CONTINUOUS
 10
-242.0
 20
87.5
 11
-241.9999999671
 21
89.5
  0
LINE
  5
291
100
AcDbEntity
  8
0
100
AcDbLine
 62
7
  6
CONTINUOUS
 10
-233.145
 20
-69.85
 11
-233.145
 21
-69.15
  0
LINE
  5
292
100
AcDbEntity
  8
0
100
AcDbLine
 62
7
  6
CONTINUOUS
 10
-233.145
 20
69.15
 11
-233.145
 21
69.85
  0
LINE
  5
293
100
AcDbEntity
  8
0
100
AcDbLine
 62
7
  6
CONTINUOUS
 10
-232.5
 20
-72.2041634566
 11
-232.5
 21
-70.0860176963
  0
LINE
  5
294
100
AcDbEntity
  8
0
100
AcDbLine
 62
7
  6
CONTINUOUS
 10
-232.5
 20
-68.9139823037
 11
-232.5
 21
-66.7958365434
  0
LINE
  5
295
100
AcDbEntity
  8
0
100
AcDbLine
 62
7
  6
CONTINUOUS
 10
-232.5
 20
66.7958365434
 11
-232.5
 21
68.9139823037
  0
LINE
  5
296
100
AcDbEntity
  8
0
100
AcDbLine
 62
7
  6
CONTINUOUS
 10
-232.5
 20
70.0860176963
 11
-232.5
 21
72.2041634566
  0
LINE
  5
297
100
AcDbEntity
  8
0
100
AcDbLine
 62
7
  6
CONTINUOUS
 10
-232.35
 20
-71.0937234472
 11
-232.35
 21
-70.5901949367
  0
LINE
  5
298
100
AcDbEntity
  8
0
100
AcDbLine
 62
7
  6
CONTINUOUS
 10
-232.35
 20
-68.4098050633
 11
-232.35
 21
-67.9062765528
  0
LINE
  5
299
100
AcDbEntity
  8
0
100
AcDbLine
 62
7
  6
CONTINUOUS
 10
-232.35
 20
67.9062765528
 11
-232.35
 21
68.4098050633
  0
LINE
  5
29A
100
AcDbEntity
  8
0
100
AcDbLine
 62
7
  6
CONTINUOUS
 10
-232.35
 20
70.5901949367
 11
-232.35
 21
71.0937234472
  0
LINE
  5
29B
100
AcDbEntity
  8
0
100
AcDbLine
 62
7
  6
CONTINUOUS
 10
-231.65
 20
-71.0937234472
 11
-231.65
 21
-70.5901949367
  0
LINE
  5
29C
100
AcDbEntity
  8
0
100
AcDbLine
 62
7
  6
CONTINUOUS
 10
-231.65
 20
-68.4098050633
 11
-231.65
 21
-67.9062765528
  0
LINE
  5
29D
100
AcDbEntity
  8
0
100
AcDbLine
 62
7
  6
CONTINUOUS
 10
-231.65
 20
67.9062765528
 11
-231.65
 21
68.4098050633
  0
LINE
  5
29E
100
AcDbEntity
  8
0
100
AcDbLine
 62
7
  6
CONTINUOUS
 10
-231.65
 20
70.5901949367
 11
-231.65
 21
71.0937234472
  0
LINE
  5
29F
100
AcDbEntity
  8
0
100
AcDbLine
 62
7
  6
CONTINUOUS
 10
-231.5
 20
72.2041634566
 11
-231.5
 21
70.0860176963
  0
LINE
  5
2A0
100
AcDbEntity
  8
0
100
AcDbLine
 62
7
  6
CONTINUOUS
 10
-231.5
 20
68.9139823037
 11
-231.5
 21
66.7958365434
  0
LINE
  5
2A1
100
AcDbEntity
  8
0
100
AcDbLine
 62
7
  6
CONTINUOUS
 10
-231.5
 20
-66.7958365434
 11
-231.5
 21
-68.9139823037
  0
LINE
  5
2A2
100
AcDbEntity
  8
0
100
AcDbLine
 62
7
  6
CONTINUOUS
 10
-231.5
 20
-70.0860176963
 11
-231.5
 21
-72.2041634566
  0
LINE
  5
2A3
100
AcDbEntity
  8
0
100
AcDbLine
 62
7
  6
CONTINUOUS
 10
-230.855
 20
69.85
 11
-230.855
 21
69.15
  0
LINE
  5
2A4
100
AcDbEntity
  8
0
100
AcDbLine
 62
7
  6
CONTINUOUS
 10
-230.855
 20
-69.15
 11
-230.855
 21
-69.85
  0
LINE
  5
2A5
100
AcDbEntity
  8
0
100
AcDbLine
 62
7
  6
CONTINUOUS
 10
-232.5197234842
 20
70.0197234842
 11
-232.35
 21
70.5901949367
  0
LINE
  5
2A6
100
AcDbEntity
  8
0
100
AcDbLine
 62
7
  6
CONTINUOUS
 10
-231.65
 20
68.4098050633
 11
-231.4802765158
 21
68.9802765158
  0
LINE
  5
2A7
100
AcDbEntity
  8
0
100
AcDbLine
 62
7
  6
CONTINUOUS
 10
-232.35
 20
-70.5901949367
 11
-232.5197234842
 21
-70.0197234842
  0
LINE
  5
2A8
100
AcDbEntity
  8
0
100
AcDbLine
 62
7
  6
CONTINUOUS
 10
-231.4802765158
 20
-68.9802765158
 11
-231.65
 21
-68.4098050633
  0
LINE
  5
2A9
100
AcDbEntity
  8
0
100
AcDbLine
 62
7
  6
CONTINUOUS
 10
-232.35
 20
-68.4098050633
 11
-232.5197234842
 21
-68.9802765158
  0
LINE
  5
2AA
100
AcDbEntity
  8
0
100
AcDbLine
 62
7
  6
CONTINUOUS
 10
-231.4802765158
 20
-70.0197234842
 11
-231.65
 21
-70.5901949367
  0
LINE
  5
2AB
100
AcDbEntity
  8
0
100
AcDbLine
 62
7
  6
CONTINUOUS
 10
-232.35
 20
68.4098050633
 11
-232.5197234842
 21
68.9802765158
  0
LINE
  5
2AC
100
AcDbEntity
  8
0
100
AcDbLine
 62
7
  6
CONTINUOUS
 10
-231.4802765158
 20
70.0197234842
 11
-231.65
 21
70.5901949367
  0
LINE
  5
2AD
100
AcDbEntity
  8
0
100
AcDbLine
 62
7
  6
CONTINUOUS
 10
-233.0901949367
 20
69.85
 11
-232.5197234842
 21
70.0197234842
  0
LINE
  5
2AE
100
AcDbEntity
  8
0
100
AcDbLine
 62
7
  6
CONTINUOUS
 10
-230.9098050633
 20
69.15
 11
-231.4802765158
 21
68.9802765158
  0
LINE
  5
2AF
100
AcDbEntity
  8
0
100
AcDbLine
 62
7
  6
CONTINUOUS
 10
-232.5197234842
 20
-70.0197234842
 11
-233.0901949367
 21
-69.85
  0
LINE
  5
2B0
100
AcDbEntity
  8
0
100
AcDbLine
 62
7
  6
CONTINUOUS
 10
-231.4802765158
 20
-68.9802765158
 11
-230.9098050633
 21
-69.15
  0
LINE
  5
2B1
100
AcDbEntity
  8
0
100
AcDbLine
 62
7
  6
CONTINUOUS
 10
-80.5197234842
 20
70.0197234842
 11
-80.35
 21
70.5901949367
  0
LINE
  5
2B2
100
AcDbEntity
  8
0
100
AcDbLine
 62
7
  6
CONTINUOUS
 10
-79.65
 20
68.4098050633
 11
-79.4802765158
 21
68.9802765158
  0
LINE
  5
2B3
100
AcDbEntity
  8
0
100
AcDbLine
 62
7
  6
CONTINUOUS
 10
-81.0901949367
 20
69.85
 11
-80.5197234842
 21
70.0197234842
  0
LINE
  5
2B4
100
AcDbEntity
  8
0
100
AcDbLine
 62
7
  6
CONTINUOUS
 10
-78.9098050633
 20
69.15
 11
-79.4802765158
 21
68.9802765158
  0
LINE
  5
2B5
100
AcDbEntity
  8
RACCORDO
100
AcDbLine
 62
7
  6
CONTINUOUS
 10
-242.0
 20
-89.5
 11
242.0
 21
-89.5
  0
LINE
  5
2B6
100
AcDbEntity
  8
RACCORDO
100
AcDbLine
 62
253
  6
CONTINUOUS
 10
-242.0
 20
-87.5
 11
242.0
 21
-87.5
  0
LINE
  5
2B7
100
AcDbEntity
  8
0
100
AcDbLine
 62
7
  6
CONTINUOUS
 10
-80.5197234842
 20
-70.0197234842
 11
-81.0901949367
 21
-69.85
  0
LINE
  5
2B8
100
AcDbEntity
  8
0
100
AcDbLine
 62
7
  6
CONTINUOUS
 10
-79.4802765158
 20
-68.9802765158
 11
-78.9098050633
 21
-69.15
  0
LINE
  5
2B9
100
AcDbEntity
  8
0
100
AcDbLine
 62
7
  6
CONTINUOUS
 10
-80.5197234842
 20
-70.0197234842
 11
-80.35
 21
-70.5901949367
  0
LINE
  5
2BA
100
AcDbEntity
  8
0
100
AcDbLine
 62
7
  6
CONTINUOUS
 10
-79.65
 20
-68.4098050633
 11
-79.4802765158
 21
-68.9802765158
  0
LINE
  5
2BB
100
AcDbEntity
  8
0
100
AcDbLine
 62
7
  6
CONTINUOUS
 10
-81.145
 20
-69.85
 11
-81.145
 21
-69.15
  0
LINE
  5
2BC
100
AcDbEntity
  8
0
100
AcDbLine
 62
7
  6
CONTINUOUS
 10
-81.145
 20
69.15
 11
-81.145
 21
69.85
  0
LINE
  5
2BD
100
AcDbEntity
  8
0
100
AcDbLine
 62
7
  6
CONTINUOUS
 10
-80.5
 20
-72.2041634566
 11
-80.5
 21
-70.0860176963
  0
LINE
  5
2BE
100
AcDbEntity
  8
0
100
AcDbLine
 62
7
  6
CONTINUOUS
 10
-80.5
 20
-68.9139823037
 11
-80.5
 21
-66.7958365434
  0
LINE
  5
2BF
100
AcDbEntity
  8
0
100
AcDbLine
 62
7
  6
CONTINUOUS
 10
-80.5
 20
66.7958365434
 11
-80.5
 21
68.9139823037
  0
LINE
  5
2C0
100
AcDbEntity
  8
0
100
AcDbLine
 62
7
  6
CONTINUOUS
 10
-80.5
 20
70.0860176963
 11
-80.5
 21
72.2041634566
  0
LINE
  5
2C1
100
AcDbEntity
  8
0
100
AcDbLine
 62
7
  6
CONTINUOUS
 10
-80.35
 20
-71.0937234472
 11
-80.35
 21
-70.5901949367
  0
LINE
  5
2C2
100
AcDbEntity
  8
0
100
AcDbLine
 62
7
  6
CONTINUOUS
 10
-80.35
 20
-68.4098050633
 11
-80.35
 21
-67.9062765528
  0
LINE
  5
2C3
100
AcDbEntity
  8
0
100
AcDbLine
 62
7
  6
CONTINUOUS
 10
-80.35
 20
67.9062765528
 11
-80.35
 21
68.4098050633
  0
LINE
  5
2C4
100
AcDbEntity
  8
0
100
AcDbLine
 62
7
  6
CONTINUOUS
 10
-80.35
 20
70.5901949367
 11
-80.35
 21
71.0937234472
  0
LINE
  5
2C5
100
AcDbEntity
  8
0
100
AcDbLine
 62
7
  6
CONTINUOUS
 10
-79.65
 20
-71.0937234472
 11
-79.65
 21
-70.5901949367
  0
LINE
  5
2C6
100
AcDbEntity
  8
0
100
AcDbLine
 62
7
  6
CONTINUOUS
 10
-79.65
 20
-68.4098050633
 11
-79.65
 21
-67.9062765528
  0
LINE
  5
2C7
100
AcDbEntity
  8
0
100
AcDbLine
 62
7
  6
CONTINUOUS
 10
-79.65
 20
67.9062765528
 11
-79.65
 21
68.4098050633
  0
LINE
  5
2C8
100
AcDbEntity
  8
0
100
AcDbLine
 62
7
  6
CONTINUOUS
 10
-79.65
 20
70.5901949367
 11
-79.65
 21
71.0937234472
  0
LINE
  5
2C9
100
AcDbEntity
  8
0
100
AcDbLine
 62
7
  6
CONTINUOUS
 10
-79.5
 20
72.2041634566
 11
-79.5
 21
70.0860176963
  0
LINE
  5
2CA
100
AcDbEntity
  8
0
100
AcDbLine
 62
7
  6
CONTINUOUS
 10
-79.5
 20
68.9139823037
 11
-79.5
 21
66.7958365434
  0
LINE
  5
2CB
100
AcDbEntity
  8
0
100
AcDbLine
 62
7
  6
CONTINUOUS
 10
-79.5
 20
-66.7958365434
 11
-79.5
 21
-68.9139823037
  0
LINE
  5
2CC
100
AcDbEntity
  8
0
100
AcDbLine
 62
7
  6
CONTINUOUS
 10
-79.5
 20
-70.0860176963
 11
-79.5
 21
-72.2041634566
  0
LINE
  5
2CD
100
AcDbEntity
  8
0
100
AcDbLine
 62
7
  6
CONTINUOUS
 10
-78.855
 20
69.85
 11
-78.855
 21
69.15
  0
LINE
  5
2CE
100
AcDbEntity
  8
0
100
AcDbLine
 62
7
  6
CONTINUOUS
 10
-78.855
 20
-69.15
 11
-78.855
 21
-69.85
  0
LINE
  5
2CF
100
AcDbEntity
  8
RACCORDO
100
AcDbLine
 62
253
  6
CONTINUOUS
 10
-250.0
 20
-79.5
 11
-252.0
 21
-79.4999999671
  0
LINE
  5
2D0
100
AcDbEntity
  8
RACCORDO
100
AcDbLine
 62
253
  6
CONTINUOUS
 10
250.0
 20
-79.5
 11
252.0
 21
-79.5
  0
LINE
  5
2D1
100
AcDbEntity
  8
0
100
AcDbLine
 62
7
  6
CONTINUOUS
 10
-232.35
 20
-71.0937234472
 11
-231.65
 21
-71.0937234472
  0
LINE
  5
2D2
100
AcDbEntity
  8
0
100
AcDbLine
 62
7
  6
CONTINUOUS
 10
-80.35
 20
-71.0937234472
 11
-79.65
 21
-71.0937234472
  0
LINE
  5
2D3
100
AcDbEntity
  8
0
100
AcDbLine
 62
7
  6
CONTINUOUS
 10
79.65
 20
-71.0937234472
 11
80.35
 21
-71.0937234472
  0
LINE
  5
2D4
100
AcDbEntity
  8
0
100
AcDbLine
 62
7
  6
CONTINUOUS
 10
231.65
 20
-71.0937234472
 11
232.35
 21
-71.0937234472
  0
LINE
  5
2D5
100
AcDbEntity
  8
0
100
AcDbLine
 62
7
  6
CONTINUOUS
 10
232.35
 20
-70.645
 11
231.65
 21
-70.645
  0
LINE
  5
2D6
100
AcDbEntity
  8
0
100
AcDbLine
 62
7
  6
CONTINUOUS
 10
80.35
 20
-70.645
 11
79.65
 21
-70.645
  0
LINE
  5
2D7
100
AcDbEntity
  8
0
100
AcDbLine
 62
7
  6
CONTINUOUS
 10
-79.65
 20
-70.645
 11
-80.35
 21
-70.645
  0
LINE
  5
2D8
100
AcDbEntity
  8
0
100
AcDbLine
 62
7
  6
CONTINUOUS
 10
-231.65
 20
-70.645
 11
-232.35
 21
-70.645
  0
LINE
  5
2D9
100
AcDbEntity
  8
0
100
AcDbLine
 62
7
  6
CONTINUOUS
 10
233.9418577643
 20
-69.85
 11
233.0901949367
 21
-69.85
  0
LINE
  5
2DA
100
AcDbEntity
  8
0
100
AcDbLine
 62
7
  6
CONTINUOUS
 10
230.9098050633
 20
-69.85
 11
230.0581422357
 21
-69.85
  0
LINE
  5
2DB
100
AcDbEntity
  8
0
100
AcDbLine
 62
7
  6
CONTINUOUS
 10
81.9418577643
 20
-69.85
 11
81.0901949367
 21
-69.85
  0
LINE
  5
2DC
100
AcDbEntity
  8
0
100
AcDbLine
 62
7
  6
CONTINUOUS
 10
78.9098050633
 20
-69.85
 11
78.0581422357
 21
-69.85
  0
LINE
  5
2DD
100
AcDbEntity
  8
0
100
AcDbLine
 62
7
  6
CONTINUOUS
 10
-78.0581422357
 20
-69.85
 11
-78.9098050633
 21
-69.85
  0
LINE
  5
2DE
100
AcDbEntity
  8
0
100
AcDbLine
 62
7
  6
CONTINUOUS
 10
-81.0901949367
 20
-69.85
 11
-81.9418577643
 21
-69.85
  0
LINE
  5
2DF
100
AcDbEntity
  8
0
100
AcDbLine
 62
7
  6
CONTINUOUS
 10
-230.0581422357
 20
-69.85
 11
-230.9098050633
 21
-69.85
  0
LINE
  5
2E0
100
AcDbEntity
  8
0
100
AcDbLine
 62
7
  6
CONTINUOUS
 10
-233.0901949367
 20
-69.85
 11
-233.9418577643
 21
-69.85
  0
LINE
  5
2E1
100
AcDbEntity
  8
0
100
AcDbLine
 62
7
  6
CONTINUOUS
 10
233.9418577643
 20
-69.15
 11
233.0901949367
 21
-69.15
  0
LINE
  5
2E2
100
AcDbEntity
  8
0
100
AcDbLine
 62
7
  6
CONTINUOUS
 10
230.9098050633
 20
-69.15
 11
230.0581422357
 21
-69.15
  0
LINE
  5
2E3
100
AcDbEntity
  8
0
100
AcDbLine
 62
7
  6
CONTINUOUS
 10
81.9418577643
 20
-69.15
 11
81.0901949367
 21
-69.15
  0
LINE
  5
2E4
100
AcDbEntity
  8
0
100
AcDbLine
 62
7
  6
CONTINUOUS
 10
78.9098050633
 20
-69.15
 11
78.0581422357
 21
-69.15
  0
LINE
  5
2E5
100
AcDbEntity
  8
0
100
AcDbLine
 62
7
  6
CONTINUOUS
 10
-78.0581422357
 20
-69.15
 11
-78.9098050633
 21
-69.15
  0
LINE
  5
2E6
100
AcDbEntity
  8
0
100
AcDbLine
 62
7
  6
CONTINUOUS
 10
-81.0901949367
 20
-69.15
 11
-81.9418577643
 21
-69.15
  0
LINE
  5
2E7
100
AcDbEntity
  8
0
100
AcDbLine
 62
7
  6
CONTINUOUS
 10
-230.0581422357
 20
-69.15
 11
-230.9098050633
 21
-69.15
  0
LINE
  5
2E8
100
AcDbEntity
  8
0
100
AcDbLine
 62
7
  6
CONTINUOUS
 10
-233.0901949367
 20
-69.15
 11
-233.9418577643
 21
-69.15
  0
LINE
  5
2E9
100
AcDbEntity
  8
0
100
AcDbLine
 62
7
  6
CONTINUOUS
 10
-80.35
 20
-68.4098050633
 11
-80.5197234842
 21
-68.9802765158
  0
LINE
  5
2EA
100
AcDbEntity
  8
0
100
AcDbLine
 62
7
  6
CONTINUOUS
 10
-79.4802765158
 20
-70.0197234842
 11
-79.65
 21
-70.5901949367
  0
LINE
  5
2EB
100
AcDbEntity
  8
0
100
AcDbLine
 62
7
  6
CONTINUOUS
 10
-232.35
 20
-68.355
 11
-231.65
 21
-68.355
  0
LINE
  5
2EC
100
AcDbEntity
  8
0
100
AcDbLine
 62
7
  6
CONTINUOUS
 10
-80.35
 20
-68.355
 11
-79.65
 21
-68.355
  0
LINE
  5
2ED
100
AcDbEntity
  8
0
100
AcDbLine
 62
7
  6
CONTINUOUS
 10
79.65
 20
-68.355
 11
80.35
 21
-68.355
  0
LINE
  5
2EE
100
AcDbEntity
  8
0
100
AcDbLine
 62
7
  6
CONTINUOUS
 10
231.65
 20
-68.355
 11
232.35
 21
-68.355
  0
LINE
  5
2EF
100
AcDbEntity
  8
0
100
AcDbLine
 62
7
  6
CONTINUOUS
 10
-232.35
 20
-67.9062765528
 11
-231.65
 21
-67.9062765528
  0
LINE
  5
2F0
100
AcDbEntity
  8
0
100
AcDbLine
 62
7
  6
CONTINUOUS
 10
-80.35
 20
-67.9062765528
 11
-79.65
 21
-67.9062765528
  0
LINE
  5
2F1
100
AcDbEntity
  8
0
100
AcDbLine
 62
7
  6
CONTINUOUS
 10
79.65
 20
-67.9062765528
 11
80.35
 21
-67.9062765528
  0
LINE
  5
2F2
100
AcDbEntity
  8
0
100
AcDbLine
 62
7
  6
CONTINUOUS
 10
231.65
 20
-67.9062765528
 11
232.35
 21
-67.9062765528
  0
LINE
  5
2F3
100
AcDbEntity
  8
0
100
AcDbLine
 62
7
  6
CONTINUOUS
 10
-80.35
 20
68.4098050633
 11
-80.5197234842
 21
68.9802765158
  0
LINE
  5
2F4
100
AcDbEntity
  8
0
100
AcDbLine
 62
7
  6
CONTINUOUS
 10
-79.4802765158
 20
70.0197234842
 11
-79.65
 21
70.5901949367
  0
LINE
  5
2F5
100
AcDbEntity
  8
0
100
AcDbLine
 62
7
  6
CONTINUOUS
 10
78.9098050633
 20
69.85
 11
79.4802765158
 21
70.0197234842
  0
LINE
  5
2F6
100
AcDbEntity
  8
0
100
AcDbLine
 62
7
  6
CONTINUOUS
 10
81.0901949367
 20
69.15
 11
80.5197234842
 21
68.9802765158
  0
LINE
  5
2F7
100
AcDbEntity
  8
0
100
AcDbLine
 62
7
  6
CONTINUOUS
 10
79.4802765158
 20
-70.0197234842
 11
78.9098050633
 21
-69.85
  0
LINE
  5
2F8
100
AcDbEntity
  8
0
100
AcDbLine
 62
7
  6
CONTINUOUS
 10
80.5197234842
 20
-68.9802765158
 11
81.0901949367
 21
-69.15
  0
LINE
  5
2F9
100
AcDbEntity
  8
0
100
AcDbLine
 62
7
  6
CONTINUOUS
 10
230.9098050633
 20
69.85
 11
231.4802765158
 21
70.0197234842
  0
LINE
  5
2FA
100
AcDbEntity
  8
0
100
AcDbLine
 62
7
  6
CONTINUOUS
 10
-233.0901949367
 20
-69.15
 11
-232.5197234842
 21
-68.9802765158
  0
LINE
  5
2FB
100
AcDbEntity
  8
0
100
AcDbLine
 62
7
  6
CONTINUOUS
 10
233.0901949367
 20
69.15
 11
232.5197234842
 21
68.9802765158
  0
LINE
  5
2FC
100
AcDbEntity
  8
0
100
AcDbLine
 62
7
  6
CONTINUOUS
 10
-230.9098050633
 20
-69.85
 11
-231.4802765158
 21
-70.0197234842
  0
LINE
  5
2FD
100
AcDbEntity
  8
0
100
AcDbLine
 62
7
  6
CONTINUOUS
 10
231.4802765158
 20
-70.0197234842
 11
230.9098050633
 21
-69.85
  0
LINE
  5
2FE
100
AcDbEntity
  8
0
100
AcDbLine
 62
7
  6
CONTINUOUS
 10
-232.5197234842
 20
68.9802765158
 11
-233.0901949367
 21
69.15
  0
LINE
  5
2FF
100
AcDbEntity
  8
0
100
AcDbLine
 62
7
  6
CONTINUOUS
 10
232.5197234842
 20
-68.9802765158
 11
233.0901949367
 21
-69.15
  0
LINE
  5
300
100
AcDbEntity
  8
0
100
AcDbLine
 62
7
  6
CONTINUOUS
 10
-231.4802765158
 20
70.0197234842
 11
-230.9098050633
 21
69.85
  0
LINE
  5
301
100
AcDbEntity
  8
0
100
AcDbLine
 62
7
  6
CONTINUOUS
 10
-81.0901949367
 20
-69.15
 11
-80.5197234842
 21
-68.9802765158
  0
LINE
  5
302
100
AcDbEntity
  8
0
100
AcDbLine
 62
7
  6
CONTINUOUS
 10
-78.9098050633
 20
-69.85
 11
-79.4802765158
 21
-70.0197234842
  0
LINE
  5
303
100
AcDbEntity
  8
0
100
AcDbLine
 62
7
  6
CONTINUOUS
 10
-80.5197234842
 20
68.9802765158
 11
-81.0901949367
 21
69.15
  0
LINE
  5
304
100
AcDbEntity
  8
0
100
AcDbLine
 62
7
  6
CONTINUOUS
 10
-79.4802765158
 20
70.0197234842
 11
-78.9098050633
 21
69.85
  0
LINE
  5
305
100
AcDbEntity
  8
0
100
AcDbLine
 62
7
  6
CONTINUOUS
 10
79.4802765158
 20
70.0197234842
 11
79.65
 21
70.5901949367
  0
LINE
  5
306
100
AcDbEntity
  8
0
100
AcDbLine
 62
7
  6
CONTINUOUS
 10
80.35
 20
68.4098050633
 11
80.5197234842
 21
68.9802765158
  0
LINE
  5
307
100
AcDbEntity
  8
0
100
AcDbLine
 62
7
  6
CONTINUOUS
 10
-232.35
 20
67.9062765528
 11
-231.65
 21
67.9062765528
  0
LINE
  5
308
100
AcDbEntity
  8
0
100
AcDbLine
 62
7
  6
CONTINUOUS
 10
-80.35
 20
67.9062765528
 11
-79.65
 21
67.9062765528
  0
LINE
  5
309
100
AcDbEntity
  8
0
100
AcDbLine
 62
7
  6
CONTINUOUS
 10
79.65
 20
67.9062765528
 11
80.35
 21
67.9062765528
  0
LINE
  5
30A
100
AcDbEntity
  8
0
100
AcDbLine
 62
7
  6
CONTINUOUS
 10
231.65
 20
67.9062765528
 11
232.35
 21
67.9062765528
  0
LINE
  5
30B
100
AcDbEntity
  8
0
100
AcDbLine
 62
7
  6
CONTINUOUS
 10
232.35
 20
68.355
 11
231.65
 21
68.355
  0
LINE
  5
30C
100
AcDbEntity
  8
0
100
AcDbLine
 62
7
  6
CONTINUOUS
 10
80.35
 20
68.355
 11
79.65
 21
68.355
  0
LINE
  5
30D
100
AcDbEntity
  8
0
100
AcDbLine
 62
7
  6
CONTINUOUS
 10
-79.65
 20
68.355
 11
-80.35
 21
68.355
  0
LINE
  5
30E
100
AcDbEntity
  8
0
100
AcDbLine
 62
7
  6
CONTINUOUS
 10
-231.65
 20
68.355
 11
-232.35
 21
68.355
  0
LINE
  5
30F
100
AcDbEntity
  8
0
100
AcDbLine
 62
7
  6
CONTINUOUS
 10
233.9418577643
 20
69.15
 11
233.0901949367
 21
69.15
  0
LINE
  5
310
100
AcDbEntity
  8
0
100
AcDbLine
 62
7
  6
CONTINUOUS
 10
230.9098050633
 20
69.15
 11
230.0581422357
 21
69.15
  0
LINE
  5
311
100
AcDbEntity
  8
0
100
AcDbLine
 62
7
  6
CONTINUOUS
 10
81.9418577643
 20
69.15
 11
81.0901949367
 21
69.15
  0
LINE
  5
312
100
AcDbEntity
  8
0
100
AcDbLine
 62
7
  6
CONTINUOUS
 10
78.9098050633
 20
69.15
 11
78.0581422357
 21
69.15
  0
LINE
  5
313
100
AcDbEntity
  8
0
100
AcDbLine
 62
7
  6
CONTINUOUS
 10
-78.0581422357
 20
69.15
 11
-78.9098050633
 21
69.15
  0
LINE
  5
314
100
AcDbEntity
  8
0
100
AcDbLine
 62
7
  6
CONTINUOUS
 10
-81.0901949367
 20
69.15
 11
-81.9418577643
 21
69.15
  0
LINE
  5
315
100
AcDbEntity
  8
0
100
AcDbLine
 62
7
  6
CONTINUOUS
 10
-230.0581422357
 20
69.15
 11
-230.9098050633
 21
69.15
  0
LINE
  5
316
100
AcDbEntity
  8
0
100
AcDbLine
 62
7
  6
CONTINUOUS
 10
-233.0901949367
 20
69.15
 11
-233.9418577643
 21
69.15
  0
LINE
  5
317
100
AcDbEntity
  8
0
100
AcDbLine
 62
7
  6
CONTINUOUS
 10
233.9418577643
 20
69.85
 11
233.0901949367
 21
69.85
  0
LINE
  5
318
100
AcDbEntity
  8
0
100
AcDbLine
 62
7
  6
CONTINUOUS
 10
230.9098050633
 20
69.85
 11
230.0581422357
 21
69.85
  0
LINE
  5
319
100
AcDbEntity
  8
0
100
AcDbLine
 62
7
  6
CONTINUOUS
 10
81.9418577643
 20
69.85
 11
81.0901949367
 21
69.85
  0
LINE
  5
31A
100
AcDbEntity
  8
0
100
AcDbLine
 62
7
  6
CONTINUOUS
 10
78.9098050633
 20
69.85
 11
78.0581422357
 21
69.85
  0
LINE
  5
31B
100
AcDbEntity
  8
0
100
AcDbLine
 62
7
  6
CONTINUOUS
 10
-78.0581422357
 20
69.85
 11
-78.9098050633
 21
69.85
  0
LINE
  5
31C
100
AcDbEntity
  8
0
100
AcDbLine
 62
7
  6
CONTINUOUS
 10
-81.0901949367
 20
69.85
 11
-81.9418577643
 21
69.85
  0
LINE
  5
31D
100
AcDbEntity
  8
0
100
AcDbLine
 62
7
  6
CONTINUOUS
 10
-230.0581422357
 20
69.85
 11
-230.9098050633
 21
69.85
  0
LINE
  5
31E
100
AcDbEntity
  8
0
100
AcDbLine
 62
7
  6
CONTINUOUS
 10
-233.0901949367
 20
69.85
 11
-233.9418577643
 21
69.85
  0
LINE
  5
31F
100
AcDbEntity
  8
0
100
AcDbLine
 62
7
  6
CONTINUOUS
 10
-232.35
 20
70.645
 11
-231.65
 21
70.645
  0
LINE
  5
320
100
AcDbEntity
  8
0
100
AcDbLine
 62
7
  6
CONTINUOUS
 10
-80.35
 20
70.645
 11
-79.65
 21
70.645
  0
LINE
  5
321
100
AcDbEntity
  8
0
100
AcDbLine
 62
7
  6
CONTINUOUS
 10
79.65
 20
70.645
 11
80.35
 21
70.645
  0
LINE
  5
322
100
AcDbEntity
  8
0
100
AcDbLine
 62
7
  6
CONTINUOUS
 10
231.65
 20
70.645
 11
232.35
 21
70.645
  0
LINE
  5
323
100
AcDbEntity
  8
0
100
AcDbLine
 62
7
  6
CONTINUOUS
 10
-232.35
 20
71.0937234472
 11
-231.65
 21
71.0937234472
  0
LINE
  5
324
100
AcDbEntity
  8
0
100
AcDbLine
 62
7
  6
CONTINUOUS
 10
-80.35
 20
71.0937234472
 11
-79.65
 21
71.0937234472
  0
LINE
  5
325
100
AcDbEntity
  8
0
100
AcDbLine
 62
7
  6
CONTINUOUS
 10
79.65
 20
71.0937234472
 11
80.35
 21
71.0937234472
  0
LINE
  5
326
100
AcDbEntity
  8
0
100
AcDbLine
 62
7
  6
CONTINUOUS
 10
231.65
 20
71.0937234472
 11
232.35
 21
71.0937234472
  0
LINE
  5
327
100
AcDbEntity
  8
0
100
AcDbLine
 62
7
  6
CONTINUOUS
 10
79.4802765158
 20
-70.0197234842
 11
79.65
 21
-70.5901949367
  0
LINE
  5
328
100
AcDbEntity
  8
0
100
AcDbLine
 62
7
  6
CONTINUOUS
 10
80.35
 20
-68.4098050633
 11
80.5197234842
 21
-68.9802765158
  0
LINE
  5
329
100
AcDbEntity
  8
0
100
AcDbLine
 62
7
  6
CONTINUOUS
 10
78.855
 20
-69.85
 11
78.855
 21
-69.15
  0
LINE
  5
32A
100
AcDbEntity
  8
0
100
AcDbLine
 62
7
  6
CONTINUOUS
 10
78.855
 20
69.15
 11
78.855
 21
69.85
  0
LINE
  5
32B
100
AcDbEntity
  8
0
100
AcDbLine
 62
7
  6
CONTINUOUS
 10
79.5
 20
-72.2041634566
 11
79.5
 21
-70.0860176963
  0
LINE
  5
32C
100
AcDbEntity
  8
0
100
AcDbLine
 62
7
  6
CONTINUOUS
 10
79.5
 20
-68.9139823037
 11
79.5
 21
-66.7958365434
  0
LINE
  5
32D
100
AcDbEntity
  8
0
100
AcDbLine
 62
7
  6
CONTINUOUS
 10
79.5
 20
66.7958365434
 11
79.5
 21
68.9139823037
  0
LINE
  5
32E
100
AcDbEntity
  8
0
100
AcDbLine
 62
7
  6
CONTINUOUS
 10
79.5
 20
70.0860176963
 11
79.5
 21
72.2041634566
  0
LINE
  5
32F
100
AcDbEntity
  8
0
100
AcDbLine
 62
7
  6
CONTINUOUS
 10
79.65
 20
-71.0937234472
 11
79.65
 21
-70.5901949367
  0
LINE
  5
330
100
AcDbEntity
  8
0
100
AcDbLine
 62
7
  6
CONTINUOUS
 10
79.65
 20
-68.4098050633
 11
79.65
 21
-67.9062765528
  0
LINE
  5
331
100
AcDbEntity
  8
0
100
AcDbLine
 62
7
  6
CONTINUOUS
 10
79.65
 20
67.9062765528
 11
79.65
 21
68.4098050633
  0
LINE
  5
332
100
AcDbEntity
  8
0
100
AcDbLine
 62
7
  6
CONTINUOUS
 10
79.65
 20
70.5901949367
 11
79.65
 21
71.0937234472
  0
LINE
  5
333
100
AcDbEntity
  8
0
100
AcDbLine
 62
7
  6
CONTINUOUS
 10
80.35
 20
-71.0937234472
 11
80.35
 21
-70.5901949367
  0
LINE
  5
334
100
AcDbEntity
  8
0
100
AcDbLine
 62
7
  6
CONTINUOUS
 10
80.35
 20
-68.4098050633
 11
80.35
 21
-67.9062765528
  0
LINE
  5
335
100
AcDbEntity
  8
0
100
AcDbLine
 62
7
  6
CONTINUOUS
 10
80.35
 20
67.9062765528
 11
80.35
 21
68.4098050633
  0
LINE
  5
336
100
AcDbEntity
  8
0
100
AcDbLine
 62
7
  6
CONTINUOUS
 10
80.35
 20
70.5901949367
 11
80.35
 21
71.0937234472
  0
LINE
  5
337
100
AcDbEntity
  8
0
100
AcDbLine
 62
7
  6
CONTINUOUS
 10
80.5
 20
72.2041634566
 11
80.5
 21
70.0860176963
  0
LINE
  5
338
100
AcDbEntity
  8
0
100
AcDbLine
 62
7
  6
CONTINUOUS
 10
80.5
 20
68.9139823037
 11
80.5
 21
66.7958365434
  0
LINE
  5
339
100
AcDbEntity
  8
0
100
AcDbLine
 62
7
  6
CONTINUOUS
 10
80.5
 20
-66.7958365434
 11
80.5
 21
-68.9139823037
  0
LINE
  5
33A
100
AcDbEntity
  8
0
100
AcDbLine
 62
7
  6
CONTINUOUS
 10
80.5
 20
-70.0860176963
 11
80.5
 21
-72.2041634566
  0
LINE
  5
33B
100
AcDbEntity
  8
0
100
AcDbLine
 62
7
  6
CONTINUOUS
 10
81.145
 20
69.85
 11
81.145
 21
69.15
  0
LINE
  5
33C
100
AcDbEntity
  8
0
100
AcDbLine
 62
7
  6
CONTINUOUS
 10
81.145
 20
-69.15
 11
81.145
 21
-69.85
  0
LINE
  5
33D
100
AcDbEntity
  8
0
100
AcDbLine
 62
7
  6
CONTINUOUS
 10
78.9098050633
 20
-69.15
 11
79.4802765158
 21
-68.9802765158
  0
LINE
  5
33E
100
AcDbEntity
  8
0
100
AcDbLine
 62
7
  6
CONTINUOUS
 10
81.0901949367
 20
-69.85
 11
80.5197234842
 21
-70.0197234842
  0
LINE
  5
33F
100
AcDbEntity
  8
RACCORDO
100
AcDbLine
 62
253
  6
CONTINUOUS
 10
-250.0
 20
79.5
 11
-252.0
 21
79.5
  0
LINE
  5
340
100
AcDbEntity
  8
RACCORDO
100
AcDbLine
 62
253
  6
CONTINUOUS
 10
250.0
 20
79.5
 11
252.0
 21
79.4999999671
  0
LINE
  5
341
100
AcDbEntity
  8
RACCORDO
100
AcDbLine
 62
253
  6
CONTINUOUS
 10
242.0
 20
87.5
 11
-242.0
 21
87.5
  0
LINE
  5
342
100
AcDbEntity
  8
RACCORDO
100
AcDbLine
 62
7
  6
CONTINUOUS
 10
242.0
 20
89.5
 11
-242.0
 21
89.5
  0
LINE
  5
343
100
AcDbEntity
  8
0
100
AcDbLine
 62
7
  6
CONTINUOUS
 10
79.4802765158
 20
68.9802765158
 11
78.9098050633
 21
69.15
  0
LINE
  5
344
100
AcDbEntity
  8
0
100
AcDbLine
 62
7
  6
CONTINUOUS
 10
80.5197234842
 20
70.0197234842
 11
81.0901949367
 21
69.85
  0
LINE
  5
345
100
AcDbEntity
  8
0
100
AcDbLine
 62
7
  6
CONTINUOUS
 10
79.65
 20
-68.4098050633
 11
79.4802765158
 21
-68.9802765158
  0
LINE
  5
346
100
AcDbEntity
  8
0
100
AcDbLine
 62
7
  6
CONTINUOUS
 10
80.5197234842
 20
-70.0197234842
 11
80.35
 21
-70.5901949367
  0
LINE
  5
347
100
AcDbEntity
  8
0
100
AcDbLine
 62
7
  6
CONTINUOUS
 10
79.65
 20
68.4098050633
 11
79.4802765158
 21
68.9802765158
  0
LINE
  5
348
100
AcDbEntity
  8
0
100
AcDbLine
 62
7
  6
CONTINUOUS
 10
80.5197234842
 20
70.0197234842
 11
80.35
 21
70.5901949367
  0
LINE
  5
349
100
AcDbEntity
  8
0
100
AcDbLine
 62
7
  6
CONTINUOUS
 10
230.9098050633
 20
-69.15
 11
231.4802765158
 21
-68.9802765158
  0
LINE
  5
34A
100
AcDbEntity
  8
0
100
AcDbLine
 62
7
  6
CONTINUOUS
 10
233.0901949367
 20
-69.85
 11
232.5197234842
 21
-70.0197234842
  0
LINE
  5
34B
100
AcDbEntity
  8
0
100
AcDbLine
 62
7
  6
CONTINUOUS
 10
231.4802765158
 20
68.9802765158
 11
230.9098050633
 21
69.15
  0
LINE
  5
34C
100
AcDbEntity
  8
0
100
AcDbLine
 62
7
  6
CONTINUOUS
 10
232.5197234842
 20
70.0197234842
 11
233.0901949367
 21
69.85
  0
LINE
  5
34D
100
AcDbEntity
  8
0
100
AcDbLine
 62
7
  6
CONTINUOUS
 10
231.4802765158
 20
70.0197234842
 11
231.65
 21
70.5901949367
  0
LINE
  5
34E
100
AcDbEntity
  8
0
100
AcDbLine
 62
7
  6
CONTINUOUS
 10
232.35
 20
68.4098050633
 11
232.5197234842
 21
68.9802765158
  0
LINE
  5
34F
100
AcDbEntity
  8
0
100
AcDbLine
 62
7
  6
CONTINUOUS
 10
231.4802765158
 20
-70.0197234842
 11
231.65
 21
-70.5901949367
  0
LINE
  5
350
100
AcDbEntity
  8
0
100
AcDbLine
 62
7
  6
CONTINUOUS
 10
232.35
 20
-68.4098050633
 11
232.5197234842
 21
-68.9802765158
  0
LINE
  5
351
100
AcDbEntity
  8
0
100
AcDbLine
 62
7
  6
CONTINUOUS
 10
230.855
 20
-69.85
 11
230.855
 21
-69.15
  0
LINE
  5
352
100
AcDbEntity
  8
0
100
AcDbLine
 62
7
  6
CONTINUOUS
 10
230.855
 20
69.15
 11
230.855
 21
69.85
  0
LINE
  5
353
100
AcDbEntity
  8
0
100
AcDbLine
 62
7
  6
CONTINUOUS
 10
231.5
 20
-72.2041634566
 11
231.5
 21
-70.0860176963
  0
LINE
  5
354
100
AcDbEntity
  8
0
100
AcDbLine
 62
7
  6
CONTINUOUS
 10
231.5
 20
-68.9139823037
 11
231.5
 21
-66.7958365434
  0
LINE
  5
355
100
AcDbEntity
  8
0
100
AcDbLine
 62
7
  6
CONTINUOUS
 10
231.5
 20
66.7958365434
 11
231.5
 21
68.9139823037
  0
LINE
  5
356
100
AcDbEntity
  8
0
100
AcDbLine
 62
7
  6
CONTINUOUS
 10
231.5
 20
70.0860176963
 11
231.5
 21
72.2041634566
  0
LINE
  5
357
100
AcDbEntity
  8
0
100
AcDbLine
 62
7
  6
CONTINUOUS
 10
231.65
 20
-71.0937234472
 11
231.65
 21
-70.5901949367
  0
LINE
  5
358
100
AcDbEntity
  8
0
100
AcDbLine
 62
7
  6
CONTINUOUS
 10
231.65
 20
-68.4098050633
 11
231.65
 21
-67.9062765528
  0
LINE
  5
359
100
AcDbEntity
  8
0
100
AcDbLine
 62
7
  6
CONTINUOUS
 10
231.65
 20
67.9062765528
 11
231.65
 21
68.4098050633
  0
LINE
  5
35A
100
AcDbEntity
  8
0
100
AcDbLine
 62
7
  6
CONTINUOUS
 10
231.65
 20
70.5901949367
 11
231.65
 21
71.0937234472
  0
LINE
  5
35B
100
AcDbEntity
  8
0
100
AcDbLine
 62
7
  6
CONTINUOUS
 10
232.35
 20
-71.0937234472
 11
232.35
 21
-70.5901949367
  0
LINE
  5
35C
100
AcDbEntity
  8
0
100
AcDbLine
 62
7
  6
CONTINUOUS
 10
232.35
 20
-68.4098050633
 11
232.35
 21
-67.9062765528
  0
LINE
  5
35D
100
AcDbEntity
  8
0
100
AcDbLine
 62
7
  6
CONTINUOUS
 10
232.35
 20
67.9062765528
 11
232.35
 21
68.4098050633
  0
LINE
  5
35E
100
AcDbEntity
  8
0
100
AcDbLine
 62
7
  6
CONTINUOUS
 10
232.35
 20
70.5901949367
 11
232.35
 21
71.0937234472
  0
LINE
  5
35F
100
AcDbEntity
  8
0
100
AcDbLine
 62
7
  6
CONTINUOUS
 10
232.5
 20
72.2041634566
 11
232.5
 21
70.0860176963
  0
LINE
  5
360
100
AcDbEntity
  8
0
100
AcDbLine
 62
7
  6
CONTINUOUS
 10
232.5
 20
68.9139823037
 11
232.5
 21
66.7958365434
  0
LINE
  5
361
100
AcDbEntity
  8
0
100
AcDbLine
 62
7
  6
CONTINUOUS
 10
232.5
 20
-66.7958365434
 11
232.5
 21
-68.9139823037
  0
LINE
  5
362
100
AcDbEntity
  8
0
100
AcDbLine
 62
7
  6
CONTINUOUS
 10
232.5
 20
-70.0860176963
 11
232.5
 21
-72.2041634566
  0
LINE
  5
363
100
AcDbEntity
  8
0
100
AcDbLine
 62
7
  6
CONTINUOUS
 10
233.145
 20
69.85
 11
233.145
 21
69.15
  0
LINE
  5
364
100
AcDbEntity
  8
0
100
AcDbLine
 62
7
  6
CONTINUOUS
 10
233.145
 20
-69.15
 11
233.145
 21
-69.85
  0
LINE
  5
365
100
AcDbEntity
  8
RACCORDO
100
AcDbLine
 62
253
  6
CONTINUOUS
 10
242.0
 20
-87.5
 11
241.9999999671
 21
-89.5
  0
LINE
  5
366
100
AcDbEntity
  8
RACCORDO
100
AcDbLine
 62
253
  6
CONTINUOUS
 10
242.0
 20
87.5
 11
242.0
 21
89.5
  0
LINE
  5
367
100
AcDbEntity
  8
RACCORDO
100
AcDbLine
 62
253
  6
CONTINUOUS
 10
250.0
 20
-79.5
 11
250.0
 21
79.5
  0
LINE
  5
368
100
AcDbEntity
  8
RACCORDO
100
AcDbLine
 62
7
  6
CONTINUOUS
 10
252.0
 20
-79.5
 11
252.0
 21
79.5
  0
LINE
  5
369
100
AcDbEntity
  8
0
100
AcDbLine
 62
7
  6
CONTINUOUS
 10
231.4802765158
 20
-68.9802765158
 11
231.65
 21
-68.4098050633
  0
LINE
  5
36A
100
AcDbEntity
  8
0
100
AcDbLine
 62
7
  6
CONTINUOUS
 10
232.35
 20
-70.5901949367
 11
232.5197234842
 21
-70.0197234842
  0
LINE
  5
36B
100
AcDbEntity
  8
0
100
AcDbLine
 62
7
  6
CONTINUOUS
 10
231.65
 20
68.4098050633
 11
231.4802765158
 21
68.9802765158
  0
LINE
  5
36C
100
AcDbEntity
  8
0
100
AcDbLine
 62
7
  6
CONTINUOUS
 10
232.5197234842
 20
70.0197234842
 11
232.35
 21
70.5901949367
  0
LINE
  5
36D
100
AcDbEntity
  8
RACCORDO
100
AcDbLine
 62
7
  6
CONTINUOUS
 10
-377.0298291379
 20
-89.5
 11
-380.9298291379
 21
-89.5
  0
LINE
  5
36E
100
AcDbEntity
  8
ASSI
100
AcDbLine
 62
7
  6
CONTINUOUS
 10
-377.0298291379
 20
-89.5
 11
-380.9298291379
 21
-89.5
  0
LINE
  5
36F
100
AcDbEntity
  8
DRAFT
100
AcDbLine
 62
7
  6
CONTINUOUS
 10
-374.1298291379
 20
-84.5
 11
-369.3298291379
 21
-84.5
  0
LINE
  5
370
100
AcDbEntity
  8
RACCORDO
100
AcDbLine
 62
7
  6
CONTINUOUS
 10
-376.0472815444
 20
-83.3076896529
 11
-365.0298291379
 21
-83.5
  0
LINE
  5
371
100
AcDbEntity
  8
DRAFT
100
AcDbLine
 62
7
  6
CONTINUOUS
 10
-365.0298291379
 20
81.5
 11
-372.6929403562
 21
77.0757006753
  0
LINE
  5
372
100
AcDbEntity
  8
DRAFT
100
AcDbLine
 62
7
  6
CONTINUOUS
 10
-362.0123767315
 20
-83.4473301723
 11
-365.0298291379
 21
-83.5
  0
LINE
  5
373
100
AcDbEntity
  8
RACCORDO
100
AcDbLine
 62
7
  6
CONTINUOUS
 10
-362.0123767315
 20
-83.4473301723
 11
-365.0298291379
 21
-83.5
  0
LINE
  5
374
100
AcDbEntity
  8
RACCORDO
100
AcDbLine
 62
253
  6
CONTINUOUS
 10
-376.0472815444
 20
-82.3078419577
 11
-377.0298291379
 21
-82.3078419577
  0
LINE
  5
375
100
AcDbEntity
  8
RACCORDO
100
AcDbLine
 62
253
  6
CONTINUOUS
 10
-377.0298291379
 20
-79.5
 11
-382.9298291379
 21
-79.5
  0
LINE
  5
376
100
AcDbEntity
  8
RACCORDO
100
AcDbLine
 62
253
  6
CONTINUOUS
 10
-376.0472815444
 20
-82.3078419577
 11
-365.0298291379
 21
-82.5001523048
  0
LINE
  5
377
100
AcDbEntity
  8
DRAFT
100
AcDbLine
 62
7
  6
CONTINUOUS
 10
-365.0298291379
 20
-77.2094607791
 11
-377.0298291379
 21
-77.0
  0
LINE
  5
378
100
AcDbEntity
  8
DRAFT
100
AcDbLine
 62
7
  6
CONTINUOUS
 10
-372.6929403562
 20
-77.0757006753
 11
-365.0298291379
 21
-81.5
  0
LINE
  5
379
100
AcDbEntity
  8
RACCORDO
100
AcDbLine
 62
7
  6
CONTINUOUS
 10
-310.5298291379
 20
-73.8392381823
 11
-310.0286532617
 21
-73.8304901248
  0
LINE
  5
37A
100
AcDbEntity
  8
DRAFT
100
AcDbLine
 62
7
  6
CONTINUOUS
 10
-310.5298291379
 20
-73.8392381823
 11
-361.0298291379
 21
-74.7207189611
  0
LINE
  5
37B
100
AcDbEntity
  8
RACCORDO
100
AcDbLine
 62
253
  6
CONTINUOUS
 10
-310.5298291379
 20
-73.339192483
 11
-310.0356341385
 21
-73.3305662802
  0
LINE
  5
37C
100
AcDbEntity
  8
DRAFT
100
AcDbLine
 62
7
  6
CONTINUOUS
 10
-310.5298291379
 20
-70.6363972824
 11
-361.0298291379
 21
-71.3843463739
  0
LINE
  5
37D
100
AcDbEntity
  8
DRAFT
100
AcDbLine
 62
7
  6
CONTINUOUS
 10
-310.5298291379
 20
-72.4496025399
 11
-361.0298291379
 21
-72.9482555208
  0
LINE
  5
37E
100
AcDbEntity
  8
RACCORDO
100
AcDbLine
 62
7
  6
CONTINUOUS
 10
-318.6303313966
 20
-70.7563727934
 11
-307.5280838122
 21
-70.7403202316
  0
LINE
  5
37F
100
AcDbEntity
  8
RACCORDO
100
AcDbLine
 62
253
  6
CONTINUOUS
 10
-307.5279738276
 20
-70.7779452996
 11
-307.0298291382
 21
-70.7779468913
  0
LINE
  5
380
100
AcDbEntity
  8
DRAFT
100
AcDbLine
 62
7
  6
CONTINUOUS
 10
-310.5298291379
 20
-71.8081800044
 11
-361.0298291379
 21
-71.5588838937
  0
LINE
  5
381
100
AcDbEntity
  8
DRAFT
100
AcDbLine
 62
7
  6
CONTINUOUS
 10
-310.5298291379
 20
-69.24676164
 11
-361.0298291379
 21
-69.6118829336
  0
LINE
  5
382
100
AcDbEntity
  8
DRAFT
100
AcDbLine
 62
7
  6
CONTINUOUS
 10
-310.529341365
 20
-69.3864977141
 11
-307.5280838122
 21
-69.3760213064
  0
LINE
  5
383
100
AcDbEntity
  8
RACCORDO
100
AcDbLine
 62
7
  6
CONTINUOUS
 10
-307.5279474133
 20
-66.0073916801
 11
-310.5298291379
 21
-66.0178702667
  0
LINE
  5
384
100
AcDbEntity
  8
RACCORDO
100
AcDbLine
 62
253
  6
CONTINUOUS
 10
-310.0477408262
 20
-65.516214872
 11
-310.5298291379
 21
-65.5178976808
  0
LINE
  5
385
100
AcDbEntity
  8
DRAFT
100
AcDbLine
 62
253
  6
CONTINUOUS
 10
-365.0298291379
 20
-68.0
 11
-377.0298291379
 21
-68.0
  0
LINE
  5
386
100
AcDbEntity
  8
RACCORDO
100
AcDbLine
 62
7
  6
CONTINUOUS
 10
-308.8298291379
 20
-63.2048276167
 11
-361.0298291379
 21
-63.6603701153
  0
LINE
  5
387
100
AcDbEntity
  8
RACCORDO
100
AcDbLine
 62
253
  6
CONTINUOUS
 10
-361.0298291379
 20
-61.5
 11
-365.0298291379
 21
-61.5
  0
LINE
  5
388
100
AcDbEntity
  8
RACCORDO
100
AcDbLine
 62
7
  6
CONTINUOUS
 10
-308.8298291379
 20
-62.2
 11
-357.9560077476
 21
-61.3424993627
  0
LINE
  5
389
100
AcDbEntity
  8
RACCORDO
100
AcDbLine
 62
253
  6
CONTINUOUS
 10
-361.0298291379
 20
-58.1969990417
 11
-359.4298291379
 21
-57.9148758726
  0
LINE
  5
38A
100
AcDbEntity
  8
RACCORDO
100
AcDbLine
 62
7
  6
CONTINUOUS
 10
-361.0298291379
 20
-57.8924633827
 11
-359.4298291379
 21
-57.6103402135
  0
LINE
  5
38B
100
AcDbEntity
  8
DRAFT
100
AcDbLine
 62
7
  6
CONTINUOUS
 10
-365.0298291379
 20
-55.5349101299
 11
-372.6929403562
 21
-55.6686702337
  0
LINE
  5
38C
100
AcDbEntity
  8
DRAFT
100
AcDbLine
 62
7
  6
CONTINUOUS
 10
-365.0298291379
 20
-56.8650898701
 11
-372.6929403562
 21
-56.7313297663
  0
LINE
  5
38D
100
AcDbEntity
  8
SMUSSO
100
AcDbLine
 62
7
  6
CONTINUOUS
 10
-359.4298291379
 20
-44.0
 11
-361.0298291379
 21
-43.5712812921
  0
LINE
  5
38E
100
AcDbEntity
  8
RACCORDO
100
AcDbLine
 62
7
  6
CONTINUOUS
 10
-382.9298291379
 20
-87.5
 11
-382.9298291379
 21
87.5
  0
LINE
  5
38F
100
AcDbEntity
  8
RACCORDO
100
AcDbLine
 62
253
  6
CONTINUOUS
 10
-380.9298291379
 20
-89.5
 11
-380.9298291379
 21
89.5
  0
LINE
  5
390
100
AcDbEntity
  8
CURVE
100
AcDbLine
 62
7
  6
CONTINUOUS
 10
-380.7298291379
 20
-89.5
 11
-380.7298291379
 21
89.5
  0
LINE
  5
391
100
AcDbEntity
  8
0
100
AcDbLine
 62
7
  6
CONTINUOUS
 10
-377.0298291379
 20
-89.5
 11
-377.0298291379
 21
89.5
  0
LINE
  5
392
100
AcDbEntity
  8
SMUSSO
100
AcDbLine
 62
7
  6
CONTINUOUS
 10
-361.0298291379
 20
-40.4287187079
 11
-359.4298291379
 21
-40.0
  0
LINE
  5
393
100
AcDbEntity
  8
RACCORDO
100
AcDbLine
 62
253
  6
CONTINUOUS
 10
-376.0472815444
 20
-77.017150432
 11
-376.0472815444
 21
-82.3078419577
  0
LINE
  5
394
100
AcDbEntity
  8
RACCORDO
100
AcDbLine
 62
253
  6
CONTINUOUS
 10
-376.0472815444
 20
77.017150432
 11
-376.0472815444
 21
82.3078419577
  0
LINE
  5
395
100
AcDbEntity
  8
DRAFT
100
AcDbLine
 62
7
  6
CONTINUOUS
 10
-374.1298291379
 20
-83.3411589092
 11
-374.1298291379
 21
-84.5
  0
LINE
  5
396
100
AcDbEntity
  8
DRAFT
100
AcDbLine
 62
7
  6
CONTINUOUS
 10
-374.1298291379
 20
83.3411589092
 11
-374.1298291379
 21
84.5
  0
LINE
  5
397
100
AcDbEntity
  8
DRAFT
100
AcDbLine
 62
7
  6
CONTINUOUS
 10
-372.6929403562
 20
56.7313297663
 11
-372.6929403562
 21
55.6686702337
  0
LINE
  5
398
100
AcDbEntity
  8
DRAFT
100
AcDbLine
 62
7
  6
CONTINUOUS
 10
-372.6929403562
 20
28.6313297663
 11
-372.6929403562
 21
27.5686702337
  0
LINE
  5
399
100
AcDbEntity
  8
DRAFT
100
AcDbLine
 62
7
  6
CONTINUOUS
 10
-372.6929403562
 20
0.5313297663
 11
-372.6929403562
 21
-0.5313297663
  0
LINE
  5
39A
100
AcDbEntity
  8
DRAFT
100
AcDbLine
 62
7
  6
CONTINUOUS
 10
-372.6929403562
 20
-27.5686702337
 11
-372.6929403562
 21
-28.6313297663
  0
LINE
  5
39B
100
AcDbEntity
  8
DRAFT
100
AcDbLine
 62
7
  6
CONTINUOUS
 10
-372.6929403562
 20
-55.6686702337
 11
-372.6929403562
 21
-56.7313297663
  0
LINE
  5
39C
100
AcDbEntity
  8
DRAFT
100
AcDbLine
 62
7
  6
CONTINUOUS
 10
-365.0298291379
 20
-27.4349101299
 11
-372.6929403562
 21
-27.5686702337
  0
LINE
  5
39D
100
AcDbEntity
  8
DRAFT
100
AcDbLine
 62
7
  6
CONTINUOUS
 10
-365.0298291379
 20
-28.7650898701
 11
-372.6929403562
 21
-28.6313297663
  0
LINE
  5
39E
100
AcDbEntity
  8
DRAFT
100
AcDbLine
 62
7
  6
CONTINUOUS
 10
-369.3298291379
 20
-83.4249432208
 11
-369.3298291379
 21
-84.5
  0
LINE
  5
39F
100
AcDbEntity
  8
DRAFT
100
AcDbLine
 62
7
  6
CONTINUOUS
 10
-369.3298291379
 20
83.4249432208
 11
-369.3298291379
 21
84.5
  0
LINE
  5
3A0
100
AcDbEntity
  8
DRAFT
100
AcDbLine
 62
7
  6
CONTINUOUS
 10
-365.0298291379
 20
-83.5
 11
-365.0298291379
 21
83.5
  0
LINE
  5
3A1
100
AcDbEntity
  8
RACCORDO
100
AcDbLine
 62
7
  6
CONTINUOUS
 10
-308.8298291379
 20
-21.8
 11
-357.9560077476
 21
-22.6575006373
  0
LINE
  5
3A2
100
AcDbEntity
  8
RACCORDO
100
AcDbLine
 62
7
  6
CONTINUOUS
 10
-308.8298291379
 20
-20.2
 11
-357.9560077476
 21
-19.3424993627
  0
LINE
  5
3A3
100
AcDbEntity
  8
RACCORDO
100
AcDbLine
 62
253
  6
CONTINUOUS
 10
-362.0123767315
 20
83.4473301723
 11
-362.0123767315
 21
-83.4473301723
  0
LINE
  5
3A4
100
AcDbEntity
  8
RACCORDO
100
AcDbLine
 62
7
  6
CONTINUOUS
 10
-361.0298291379
 20
82.4474824772
 11
-361.0298291379
 21
-82.4474824772
  0
LINE
  5
3A5
100
AcDbEntity
  8
SMUSSO
100
AcDbLine
 62
7
  6
CONTINUOUS
 10
-360.5299052903
 20
43.7052354833
 11
-360.5299052903
 21
40.2947645167
  0
LINE
  5
3A6
100
AcDbEntity
  8
SMUSSO
100
AcDbLine
 62
7
  6
CONTINUOUS
 10
-360.5299052903
 20
1.7052354833
 11
-360.5299052903
 21
-1.7052354833
  0
LINE
  5
3A7
100
AcDbEntity
  8
SMUSSO
100
AcDbLine
 62
7
  6
CONTINUOUS
 10
-360.5299052903
 20
-40.2947645167
 11
-360.5299052903
 21
-43.7052354833
  0
LINE
  5
3A8
100
AcDbEntity
  8
RACCORDO
100
AcDbLine
 62
7
  6
CONTINUOUS
 10
-359.4298291379
 20
59.84272782
 11
-359.4298291379
 21
44.0
  0
LINE
  5
3A9
100
AcDbEntity
  8
RACCORDO
100
AcDbLine
 62
7
  6
CONTINUOUS
 10
-359.4298291379
 20
40.0
 11
-359.4298291379
 21
24.15727218
  0
LINE
  5
3AA
100
AcDbEntity
  8
RACCORDO
100
AcDbLine
 62
7
  6
CONTINUOUS
 10
-359.4298291379
 20
17.84272782
 11
-359.4298291379
 21
2.0
  0
LINE
  5
3AB
100
AcDbEntity
  8
RACCORDO
100
AcDbLine
 62
7
  6
CONTINUOUS
 10
-359.4298291379
 20
-2.0
 11
-359.4298291379
 21
-17.84272782
  0
LINE
  5
3AC
100
AcDbEntity
  8
RACCORDO
100
AcDbLine
 62
7
  6
CONTINUOUS
 10
-359.4298291379
 20
-24.15727218
 11
-359.4298291379
 21
-40.0
  0
LINE
  5
3AD
100
AcDbEntity
  8
RACCORDO
100
AcDbLine
 62
7
  6
CONTINUOUS
 10
-359.4298291379
 20
-44.0
 11
-359.4298291379
 21
-59.84272782
  0
LINE
  5
3AE
100
AcDbEntity
  8
SMUSSO
100
AcDbLine
 62
7
  6
CONTINUOUS
 10
-359.4298291379
 20
-2.0
 11
-361.0298291379
 21
-1.5712812921
  0
LINE
  5
3AF
100
AcDbEntity
  8
DRAFT
100
AcDbLine
 62
7
  6
CONTINUOUS
 10
-365.0298291379
 20
-0.6650898701
 11
-372.6929403562
 21
-0.5313297663
  0
LINE
  5
3B0
100
AcDbEntity
  8
SMUSSO
100
AcDbLine
 62
7
  6
CONTINUOUS
 10
-361.0298291379
 20
1.5712812921
 11
-359.4298291379
 21
2.0
  0
LINE
  5
3B1
100
AcDbEntity
  8
DRAFT
100
AcDbLine
 62
7
  6
CONTINUOUS
 10
-365.0298291379
 20
0.6650898701
 11
-372.6929403562
 21
0.5313297663
  0
LINE
  5
3B2
100
AcDbEntity
  8
RACCORDO
100
AcDbLine
 62
7
  6
CONTINUOUS
 10
-329.0298291379
 20
22.1525923115
 11
-329.0298291379
 21
19.8474076885
  0
LINE
  5
3B3
100
AcDbEntity
  8
RACCORDO
100
AcDbLine
 62
7
  6
CONTINUOUS
 10
-329.0298291379
 20
-19.8474076884
 11
-329.0298291379
 21
-22.1525923115
  0
LINE
  5
3B4
100
AcDbEntity
  8
RACCORDO
100
AcDbLine
 62
253
  6
CONTINUOUS
 10
-328.7303527364
 20
22.1473649315
 11
-328.7303527364
 21
19.8526350685
  0
LINE
  5
3B5
100
AcDbEntity
  8
RACCORDO
100
AcDbLine
 62
253
  6
CONTINUOUS
 10
-328.7303527364
 20
-19.8526350685
 11
-328.7303527364
 21
-22.1473649315
  0
LINE
  5
3B6
100
AcDbEntity
  8
RACCORDO
100
AcDbLine
 62
7
  6
CONTINUOUS
 10
-308.8298291379
 20
20.2
 11
-357.9560077476
 21
19.3424993627
  0
LINE
  5
3B7
100
AcDbEntity
  8
RACCORDO
100
AcDbLine
 62
7
  6
CONTINUOUS
 10
-308.8298291379
 20
21.8
 11
-357.9560077476
 21
22.6575006373
  0
LINE
  5
3B8
100
AcDbEntity
  8
RACCORDO
100
AcDbLine
 62
7
  6
CONTINUOUS
 10
-314.8298291379
 20
-63.2571888234
 11
-314.8298291379
 21
-62.0952696104
  0
LINE
  5
3B9
100
AcDbEntity
  8
RACCORDO
100
AcDbLine
 62
7
  6
CONTINUOUS
 10
-314.8298291379
 20
-21.9047303896
 11
-314.8298291379
 21
-20.0952696104
  0
LINE
  5
3BA
100
AcDbEntity
  8
RACCORDO
100
AcDbLine
 62
7
  6
CONTINUOUS
 10
-314.8298291379
 20
20.0952696104
 11
-314.8298291379
 21
21.9047303896
  0
LINE
  5
3BB
100
AcDbEntity
  8
RACCORDO
100
AcDbLine
 62
7
  6
CONTINUOUS
 10
-314.8298291379
 20
62.0952696104
 11
-314.8298291379
 21
63.2571888234
  0
LINE
  5
3BC
100
AcDbEntity
  8
RACCORDO
100
AcDbLine
 62
253
  6
CONTINUOUS
 10
-314.5350648599
 20
-63.2546164545
 11
-314.5350648599
 21
-62.10041474
  0
LINE
  5
3BD
100
AcDbEntity
  8
RACCORDO
100
AcDbLine
 62
253
  6
CONTINUOUS
 10
-314.5350648599
 20
-21.89958526
 11
-314.5350648599
 21
-20.10041474
  0
LINE
  5
3BE
100
AcDbEntity
  8
RACCORDO
100
AcDbLine
 62
253
  6
CONTINUOUS
 10
-314.5350648599
 20
20.10041474
 11
-314.5350648599
 21
21.89958526
  0
LINE
  5
3BF
100
AcDbEntity
  8
RACCORDO
100
AcDbLine
 62
253
  6
CONTINUOUS
 10
-314.5350648599
 20
62.10041474
 11
-314.5350648599
 21
63.2546164545
  0
LINE
  5
3C0
100
AcDbEntity
  8
DRAFT
100
AcDbLine
 62
7
  6
CONTINUOUS
 10
-365.0298291379
 20
28.7650898701
 11
-372.6929403562
 21
28.6313297663
  0
LINE
  5
3C1
100
AcDbEntity
  8
DRAFT
100
AcDbLine
 62
7
  6
CONTINUOUS
 10
-365.0298291379
 20
27.4349101299
 11
-372.6929403562
 21
27.5686702337
  0
LINE
  5
3C2
100
AcDbEntity
  8
DRAFT
100
AcDbLine
 62
7
  6
CONTINUOUS
 10
-311.6298291379
 20
-63.2292628465
 11
-311.6298291379
 21
-62.1511258182
  0
LINE
  5
3C3
100
AcDbEntity
  8
DRAFT
100
AcDbLine
 62
7
  6
CONTINUOUS
 10
-311.6298291379
 20
-21.8488741818
 11
-311.6298291379
 21
-20.1511258182
  0
LINE
  5
3C4
100
AcDbEntity
  8
DRAFT
100
AcDbLine
 62
7
  6
CONTINUOUS
 10
-311.6298291379
 20
20.1511258182
 11
-311.6298291379
 21
21.8488741818
  0
LINE
  5
3C5
100
AcDbEntity
  8
DRAFT
100
AcDbLine
 62
7
  6
CONTINUOUS
 10
-311.6298291379
 20
62.1511258182
 11
-311.6298291379
 21
63.2292628465
  0
LINE
  5
3C6
100
AcDbEntity
  8
DRAFT
100
AcDbLine
 62
7
  6
CONTINUOUS
 10
-310.5298291379
 20
-70.6363972824
 11
-310.5298291379
 21
-69.24676164
  0
LINE
  5
3C7
100
AcDbEntity
  8
RACCORDO
100
AcDbLine
 62
7
  6
CONTINUOUS
 10
-310.5298291379
 20
-69.24676164
 11
-310.5298291379
 21
-65.5178976808
  0
LINE
  5
3C8
100
AcDbEntity
  8
DRAFT
100
AcDbLine
 62
7
  6
CONTINUOUS
 10
-310.5298291379
 20
-71.8081800044
 11
-310.5298291379
 21
-73.8392381823
  0
LINE
  5
3C9
100
AcDbEntity
  8
RACCORDO
100
AcDbLine
 62
7
  6
CONTINUOUS
 10
-310.5298291379
 20
65.5178976808
 11
-310.5298291379
 21
69.24676164
  0
LINE
  5
3CA
100
AcDbEntity
  8
DRAFT
100
AcDbLine
 62
7
  6
CONTINUOUS
 10
-310.5298291379
 20
69.24676164
 11
-310.5298291379
 21
70.6363972824
  0
LINE
  5
3CB
100
AcDbEntity
  8
DRAFT
100
AcDbLine
 62
7
  6
CONTINUOUS
 10
-310.5298291379
 20
71.8081800044
 11
-310.5298291379
 21
73.8392381823
  0
LINE
  5
3CC
100
AcDbEntity
  8
RACCORDO
100
AcDbLine
 62
7
  6
CONTINUOUS
 10
-308.8298291379
 20
63.2048276167
 11
-308.8298291379
 21
62.2
  0
LINE
  5
3CD
100
AcDbEntity
  8
RACCORDO
100
AcDbLine
 62
7
  6
CONTINUOUS
 10
-308.8298291379
 20
21.8
 11
-308.8298291379
 21
20.2
  0
LINE
  5
3CE
100
AcDbEntity
  8
RACCORDO
100
AcDbLine
 62
7
  6
CONTINUOUS
 10
-308.8298291379
 20
-20.2
 11
-308.8298291379
 21
-21.8
  0
LINE
  5
3CF
100
AcDbEntity
  8
RACCORDO
100
AcDbLine
 62
7
  6
CONTINUOUS
 10
-308.8298291379
 20
-62.2
 11
-308.8298291379
 21
-63.2048276167
  0
LINE
  5
3D0
100
AcDbEntity
  8
RACCORDO
100
AcDbLine
 62
253
  6
CONTINUOUS
 10
-307.5280960313
 20
70.777952166
 11
-307.5280838122
 21
66.0073921563
  0
LINE
  5
3D1
100
AcDbEntity
  8
RACCORDO
100
AcDbLine
 62
253
  6
CONTINUOUS
 10
-307.5280838122
 20
-66.0073921563
 11
-307.5279738276
 21
-70.7779452996
  0
LINE
  5
3D2
100
AcDbEntity
  8
RACCORDO
100
AcDbLine
 62
7
  6
CONTINUOUS
 10
-307.0298291379
 20
-70.7779322052
 11
-307.0298291379
 21
70.7779386819
  0
LINE
  5
3D3
100
AcDbEntity
  8
SMUSSO
100
AcDbLine
 62
7
  6
CONTINUOUS
 10
-359.4298291379
 20
40.0
 11
-361.0298291379
 21
40.4287187079
  0
LINE
  5
3D4
100
AcDbEntity
  8
RACCORDO
100
AcDbLine
 62
7
  6
CONTINUOUS
 10
-307.0299053142
 20
65.507881067
 11
-307.0299078806
 21
65.5079616838
  0
LINE
  5
3D5
100
AcDbEntity
  8
SMUSSO
100
AcDbLine
 62
7
  6
CONTINUOUS
 10
-361.0298291379
 20
-75.2207189611
 11
-360.5299052903
 21
-74.7119927579
  0
LINE
  5
3D6
100
AcDbEntity
  8
SMUSSO
100
AcDbLine
 62
7
  6
CONTINUOUS
 10
-360.5299052903
 20
74.7119927579
 11
-361.0298291379
 21
75.2207189611
  0
LINE
  5
3D7
100
AcDbEntity
  8
SMUSSO
100
AcDbLine
 62
7
  6
CONTINUOUS
 10
-361.0298291379
 20
43.5712812921
 11
-359.4298291379
 21
44.0
  0
LINE
  5
3D8
100
AcDbEntity
  8
DRAFT
100
AcDbLine
 62
7
  6
CONTINUOUS
 10
-365.0298291379
 20
56.8650898701
 11
-372.6929403562
 21
56.7313297663
  0
LINE
  5
3D9
100
AcDbEntity
  8
DRAFT
100
AcDbLine
 62
7
  6
CONTINUOUS
 10
-365.0298291379
 20
55.5349101299
 11
-372.6929403562
 21
55.6686702337
  0
LINE
  5
3DA
100
AcDbEntity
  8
RACCORDO
100
AcDbLine
 62
7
  6
CONTINUOUS
 10
-361.0298291379
 20
57.8924633827
 11
-359.4298291379
 21
57.6103402135
  0
LINE
  5
3DB
100
AcDbEntity
  8
RACCORDO
100
AcDbLine
 62
253
  6
CONTINUOUS
 10
-361.0298291379
 20
58.1969990417
 11
-359.4298291379
 21
57.9148758726
  0
LINE
  5
3DC
100
AcDbEntity
  8
RACCORDO
100
AcDbLine
 62
7
  6
CONTINUOUS
 10
-308.8298291379
 20
62.2
 11
-357.9560077476
 21
61.3424993627
  0
LINE
  5
3DD
100
AcDbEntity
  8
RACCORDO
100
AcDbLine
 62
253
  6
CONTINUOUS
 10
-361.0298291379
 20
61.5
 11
-365.0298291379
 21
61.5
  0
LINE
  5
3DE
100
AcDbEntity
  8
RACCORDO
100
AcDbLine
 62
253
  6
CONTINUOUS
 10
-310.5298291379
 20
65.5178976808
 11
-310.0475762419
 21
65.5162142931
  0
LINE
  5
3DF
100
AcDbEntity
  8
RACCORDO
100
AcDbLine
 62
7
  6
CONTINUOUS
 10
-308.8298291379
 20
63.2048276167
 11
-361.0298291379
 21
63.6603701153
  0
LINE
  5
3E0
100
AcDbEntity
  8
DRAFT
100
AcDbLine
 62
7
  6
CONTINUOUS
 10
-310.5298291379
 20
71.8081800044
 11
-361.0298291379
 21
71.5588838937
  0
LINE
  5
3E1
100
AcDbEntity
  8
DRAFT
100
AcDbLine
 62
253
  6
CONTINUOUS
 10
-365.0298291379
 20
68.0
 11
-377.0298291379
 21
68.0
  0
LINE
  5
3E2
100
AcDbEntity
  8
RACCORDO
100
AcDbLine
 62
253
  6
CONTINUOUS
 10
-307.5280960313
 20
70.777952166
 11
-307.029829139
 21
70.7779554412
  0
LINE
  5
3E3
100
AcDbEntity
  8
RACCORDO
100
AcDbLine
 62
7
  6
CONTINUOUS
 10
-318.6303313966
 20
70.7563727934
 11
-307.5280838122
 21
70.7403202316
  0
LINE
  5
3E4
100
AcDbEntity
  8
RACCORDO
100
AcDbLine
 62
7
  6
CONTINUOUS
 10
-310.5298291379
 20
66.0178702667
 11
-307.5282068198
 21
66.0073925856
  0
LINE
  5
3E5
100
AcDbEntity
  8
DRAFT
100
AcDbLine
 62
7
  6
CONTINUOUS
 10
-310.529341365
 20
69.3864977141
 11
-307.5280838122
 21
69.3760213064
  0
LINE
  5
3E6
100
AcDbEntity
  8
DRAFT
100
AcDbLine
 62
7
  6
CONTINUOUS
 10
-310.5298291379
 20
69.24676164
 11
-361.0298291379
 21
69.6118829336
  0
LINE
  5
3E7
100
AcDbEntity
  8
DRAFT
100
AcDbLine
 62
7
  6
CONTINUOUS
 10
-310.5298291379
 20
70.6363972824
 11
-361.0298291379
 21
71.3843463739
  0
LINE
  5
3E8
100
AcDbEntity
  8
DRAFT
100
AcDbLine
 62
7
  6
CONTINUOUS
 10
-365.0298291379
 20
77.2094607791
 11
-377.0298291379
 21
77.0
  0
LINE
  5
3E9
100
AcDbEntity
  8
DRAFT
100
AcDbLine
 62
7
  6
CONTINUOUS
 10
-310.5298291379
 20
72.4496025399
 11
-361.0298291379
 21
72.9482555208
  0
LINE
  5
3EA
100
AcDbEntity
  8
RACCORDO
100
AcDbLine
 62
253
  6
CONTINUOUS
 10
-310.0356592745
 20
73.330566716
 11
-310.5298291379
 21
73.339192483
  0
LINE
  5
3EB
100
AcDbEntity
  8
RACCORDO
100
AcDbLine
 62
7
  6
CONTINUOUS
 10
-310.0286783969
 20
73.8304905636
 11
-310.5298291379
 21
73.8392381823
  0
LINE
  5
3EC
100
AcDbEntity
  8
DRAFT
100
AcDbLine
 62
7
  6
CONTINUOUS
 10
-310.5298291379
 20
73.8392381823
 11
-361.0298291379
 21
74.7207189611
  0
LINE
  5
3ED
100
AcDbEntity
  8
RACCORDO
100
AcDbLine
 62
253
  6
CONTINUOUS
 10
-365.0298291379
 20
82.5001523048
 11
-376.0472815444
 21
82.3078419577
  0
LINE
  5
3EE
100
AcDbEntity
  8
RACCORDO
100
AcDbLine
 62
7
  6
CONTINUOUS
 10
-365.0298291379
 20
83.5
 11
-376.0472815444
 21
83.3076896529
  0
LINE
  5
3EF
100
AcDbEntity
  8
RACCORDO
100
AcDbLine
 62
253
  6
CONTINUOUS
 10
-377.0298291379
 20
79.5
 11
-382.9298291379
 21
79.5
  0
LINE
  5
3F0
100
AcDbEntity
  8
RACCORDO
100
AcDbLine
 62
253
  6
CONTINUOUS
 10
-377.0298291379
 20
82.3078419577
 11
-376.0472815444
 21
82.3078419578
  0
LINE
  5
3F1
100
AcDbEntity
  8
DRAFT
100
AcDbLine
 62
7
  6
CONTINUOUS
 10
-374.1298291379
 20
84.5
 11
-369.3298291379
 21
84.5
  0
LINE
  5
3F2
100
AcDbEntity
  8
RACCORDO
100
AcDbLine
 62
7
  6
CONTINUOUS
 10
-362.0123767315
 20
83.4473301723
 11
-365.0298291379
 21
83.5
  0
LINE
  5
3F3
100
AcDbEntity
  8
RACCORDO
100
AcDbLine
 62
7
  6
CONTINUOUS
 10
-377.0298291379
 20
89.5
 11
-380.9298291379
 21
89.5
  0
ARC
  5
3F4
100
AcDbEntity
  8
0
100
AcDbCircle
 62
7
  6
CONTINUOUS
 10
-67.3559837132
 20
-69.5
 40
14.5900727153
100
AcDbArc
 50
178.6254046104
 51
181.3745953896
  0
ARC
  5
3F5
100
AcDbEntity
  8
0
100
AcDbCircle
 62
7
  6
CONTINUOUS
 10
-92.6440162868
 20
-69.5
 40
14.5900727153
100
AcDbArc
 50
358.6254046104
 51
1.3745953896
  0
ARC
  5
3F6
100
AcDbEntity
  8
0
100
AcDbCircle
 62
7
  6
CONTINUOUS
 10
-219.3559837132
 20
-69.5
 40
14.5900727152
100
AcDbArc
 50
178.6254046104
 51
181.3745953896
  0
ARC
  5
3F7
100
AcDbEntity
  8
0
100
AcDbCircle
 62
7
  6
CONTINUOUS
 10
-244.6440162868
 20
-69.5
 40
14.5900727152
100
AcDbArc
 50
358.6254046104
 51
1.3745953896
  0
ARC
  5
3F8
100
AcDbEntity
  8
RACCORDO
100
AcDbCircle
 62
7
  6
CONTINUOUS
 10
-242.0
 20
-79.5
 40
10.0
100
AcDbArc
 50
179.9999998113
 51
270.0000001571
  0
ARC
  5
3F9
100
AcDbEntity
  8
RACCORDO
100
AcDbCircle
 62
253
  6
CONTINUOUS
 10
-242.0
 20
-79.5
 40
7.9999901624
100
AcDbArc
 50
180.0
 51
270.0
  0
CIRCLE
  5
3FA
100
AcDbEntity
  8
0
100
AcDbCircle
 62
7
  6
CONTINUOUS
 10
-232.0
 20
-69.5
 40
3.0
  0
CIRCLE
  5
3FB
100
AcDbEntity
  8
0
100
AcDbCircle
 62
7
  6
CONTINUOUS
 10
-80.0
 20
-69.5
 40
3.0
  0
CIRCLE
  5
3FC
100
AcDbEntity
  8
0
100
AcDbCircle
 62
7
  6
CONTINUOUS
 10
-80.0
 20
-69.5
 40
2.75
  0
CIRCLE
  5
3FD
100
AcDbEntity
  8
0
100
AcDbCircle
 62
7
  6
CONTINUOUS
 10
-232.0
 20
-69.5
 40
2.75
  0
ARC
  5
3FE
100
AcDbEntity
  8
0
100
AcDbCircle
 62
7
  6
CONTINUOUS
 10
-67.3559837132
 20
69.5
 40
14.5900727153
100
AcDbArc
 50
178.6254046104
 51
181.3745953896
  0
ARC
  5
3FF
100
AcDbEntity
  8
0
100
AcDbCircle
 62
7
  6
CONTINUOUS
 10
-92.6440162868
 20
69.5
 40
14.5900727153
100
AcDbArc
 50
358.6254046104
 51
1.3745953896
  0
ARC
  5
400
100
AcDbEntity
  8
0
100
AcDbCircle
 62
7
  6
CONTINUOUS
 10
-219.3559837132
 20
69.5
 40
14.5900727152
100
AcDbArc
 50
178.6254046104
 51
181.3745953896
  0
ARC
  5
401
100
AcDbEntity
  8
0
100
AcDbCircle
 62
7
  6
CONTINUOUS
 10
-244.6440162868
 20
69.5
 40
14.5900727152
100
AcDbArc
 50
358.6254046104
 51
1.3745953896
  0
ARC
  5
402
100
AcDbEntity
  8
RACCORDO
100
AcDbCircle
 62
7
  6
CONTINUOUS
 10
-242.0
 20
79.5
 40
10.0
100
AcDbArc
 50
89.9999998113
 51
180.0000001571
  0
ARC
  5
403
100
AcDbEntity
  8
RACCORDO
100
AcDbCircle
 62
253
  6
CONTINUOUS
 10
-242.0
 20
79.5
 40
7.9999901624
100
AcDbArc
 50
90.0
 51
180.0
  0
CIRCLE
  5
404
100
AcDbEntity
  8
0
100
AcDbCircle
 62
7
  6
CONTINUOUS
 10
-232.0
 20
69.5
 40
3.0
  0
CIRCLE
  5
405
100
AcDbEntity
  8
0
100
AcDbCircle
 62
7
  6
CONTINUOUS
 10
-80.0
 20
69.5
 40
3.0
  0
CIRCLE
  5
406
100
AcDbEntity
  8
0
100
AcDbCircle
 62
7
  6
CONTINUOUS
 10
-80.0
 20
69.5
 40
2.75
  0
CIRCLE
  5
407
100
AcDbEntity
  8
0
100
AcDbCircle
 62
7
  6
CONTINUOUS
 10
-232.0
 20
69.5
 40
2.75
  0
ARC
  5
408
100
AcDbEntity
  8
0
100
AcDbCircle
 62
7
  6
CONTINUOUS
 10
92.6440162868
 20
-69.5
 40
14.5900727153
100
AcDbArc
 50
178.6254046104
 51
181.3745953896
  0
ARC
  5
409
100
AcDbEntity
  8
0
100
AcDbCircle
 62
7
  6
CONTINUOUS
 10
67.3559837132
 20
-69.5
 40
14.5900727153
100
AcDbArc
 50
358.6254046104
 51
1.3745953896
  0
ARC
  5
40A
100
AcDbEntity
  8
0
100
AcDbCircle
 62
7
  6
CONTINUOUS
 10
244.6440162868
 20
-69.5
 40
14.5900727152
100
AcDbArc
 50
178.6254046104
 51
181.3745953896
  0
ARC
  5
40B
100
AcDbEntity
  8
0
100
AcDbCircle
 62
7
  6
CONTINUOUS
 10
219.3559837132
 20
-69.5
 40
14.5900727152
100
AcDbArc
 50
358.6254046104
 51
1.3745953896
  0
ARC
  5
40C
100
AcDbEntity
  8
RACCORDO
100
AcDbCircle
 62
7
  6
CONTINUOUS
 10
242.0
 20
-79.5
 40
10.0
100
AcDbArc
 50
269.9999998113
 51
0.0000001571
  0
ARC
  5
40D
100
AcDbEntity
  8
CURVE
100
AcDbCircle
 62
7
  6
CONTINUOUS
 10
242.0
 20
-79.5
 40
10.0
100
AcDbArc
 50
270.0
 51
274.8096064821
  0
ARC
  5
40E
100
AcDbEntity
  8
RACCORDO
100
AcDbCircle
 62
253
  6
CONTINUOUS
 10
242.0
 20
-79.5
 40
7.9999901624
100
AcDbArc
 50
270.0
 51
360.0
  0
CIRCLE
  5
40F
100
AcDbEntity
  8
0
100
AcDbCircle
 62
7
  6
CONTINUOUS
 10
232.0
 20
-69.5
 40
3.0
  0
CIRCLE
  5
410
100
AcDbEntity
  8
0
100
AcDbCircle
 62
7
  6
CONTINUOUS
 10
80.0
 20
-69.5
 40
3.0
  0
CIRCLE
  5
411
100
AcDbEntity
  8
0
100
AcDbCircle
 62
7
  6
CONTINUOUS
 10
80.0
 20
-69.5
 40
2.75
  0
CIRCLE
  5
412
100
AcDbEntity
  8
0
100
AcDbCircle
 62
7
  6
CONTINUOUS
 10
232.0
 20
-69.5
 40
2.75
  0
ARC
  5
413
100
AcDbEntity
  8
0
100
AcDbCircle
 62
7
  6
CONTINUOUS
 10
92.6440162868
 20
69.5
 40
14.5900727153
100
AcDbArc
 50
178.6254046104
 51
181.3745953896
  0
ARC
  5
414
100
AcDbEntity
  8
0
100
AcDbCircle
 62
7
  6
CONTINUOUS
 10
67.3559837132
 20
69.5
 40
14.5900727153
100
AcDbArc
 50
358.6254046104
 51
1.3745953896
  0
ARC
  5
415
100
AcDbEntity
  8
0
100
AcDbCircle
 62
7
  6
CONTINUOUS
 10
244.6440162868
 20
69.5
 40
14.5900727152
100
AcDbArc
 50
178.6254046104
 51
181.3745953896
  0
ARC
  5
416
100
AcDbEntity
  8
0
100
AcDbCircle
 62
7
  6
CONTINUOUS
 10
219.3559837132
 20
69.5
 40
14.5900727152
100
AcDbArc
 50
358.6254046104
 51
1.3745953896
  0
ARC
  5
417
100
AcDbEntity
  8
RACCORDO
100
AcDbCircle
 62
7
  6
CONTINUOUS
 10
242.0
 20
79.5
 40
10.0
100
AcDbArc
 50
359.9999998113
 51
90.0000001571
  0
ARC
  5
418
100
AcDbEntity
  8
RACCORDO
100
AcDbCircle
 62
253
  6
CONTINUOUS
 10
242.0
 20
79.5
 40
7.9999901624
100
AcDbArc
 50
0.0
 51
90.0
  0
CIRCLE
  5
419
100
AcDbEntity
  8
0
100
AcDbCircle
 62
7
  6
CONTINUOUS
 10
232.0
 20
69.5
 40
3.0
  0
CIRCLE
  5
41A
100
AcDbEntity
  8
0
100
AcDbCircle
 62
7
  6
CONTINUOUS
 10
80.0
 20
69.5
 40
3.0
  0
CIRCLE
  5
41B
100
AcDbEntity
  8
0
100
AcDbCircle
 62
7
  6
CONTINUOUS
 10
80.0
 20
69.5
 40
2.75
  0
CIRCLE
  5
41C
100
AcDbEntity
  8
0
100
AcDbCircle
 62
7
  6
CONTINUOUS
 10
232.0
 20
69.5
 40
2.75
  0
ARC
  5
41D
100
AcDbEntity
  8
RACCORDO
100
AcDbCircle
 62
7
  6
CONTINUOUS
 10
-380.9298291379
 20
-87.5
 40
2.0
100
AcDbArc
 50
180.0
 51
270.0
  0
ARC
  5
41E
100
AcDbEntity
  8
RACCORDO
100
AcDbCircle
 62
7
  6
CONTINUOUS
 10
-357.9298291379
 20
-17.84272782
 40
1.5
100
AcDbArc
 50
180.0
 51
269.0
  0
ARC
  5
41F
100
AcDbEntity
  8
RACCORDO
100
AcDbCircle
 62
7
  6
CONTINUOUS
 10
-357.9298291379
 20
-59.84272782
 40
1.5
100
AcDbArc
 50
180.0
 51
269.0
  0
ARC
  5
420
100
AcDbEntity
  8
RACCORDO
100
AcDbCircle
 62
7
  6
CONTINUOUS
 10
-357.9298291379
 20
-24.15727218
 40
1.5
100
AcDbArc
 50
91.0
 51
180.0
  0
ARC
  5
421
100
AcDbEntity
  8
RACCORDO
100
AcDbCircle
 62
7
  6
CONTINUOUS
 10
-376.0298291379
 20
-82.3078419577
 40
1.0
100
AcDbArc
 50
180.0
 51
269.0
  0
ARC
  5
422
100
AcDbEntity
  8
RACCORDO
100
AcDbCircle
 62
7
  6
CONTINUOUS
 10
-362.0298291379
 20
-82.4474824772
 40
1.0
100
AcDbArc
 50
271.0
 51
360.0
  0
ARC
  5
423
100
AcDbEntity
  8
RACCORDO
100
AcDbCircle
 62
7
  6
CONTINUOUS
 10
-380.9298291379
 20
87.5
 40
2.0
100
AcDbArc
 50
90.0
 51
180.0
  0
ARC
  5
424
100
AcDbEntity
  8
RACCORDO
100
AcDbCircle
 62
7
  6
CONTINUOUS
 10
-357.9298291379
 20
17.84272782
 40
1.5
100
AcDbArc
 50
91.0
 51
180.0
  0
ARC
  5
425
100
AcDbEntity
  8
RACCORDO
100
AcDbCircle
 62
7
  6
CONTINUOUS
 10
-357.9298291379
 20
24.15727218
 40
1.5
100
AcDbArc
 50
180.0
 51
269.0
  0
ARC
  5
426
100
AcDbEntity
  8
RACCORDO
100
AcDbCircle
 62
7
  6
CONTINUOUS
 10
-357.9298291379
 20
59.84272782
 40
1.5
100
AcDbArc
 50
91.0
 51
180.0
  0
ARC
  5
427
100
AcDbEntity
  8
RACCORDO
100
AcDbCircle
 62
7
  6
CONTINUOUS
 10
-376.0298291379
 20
82.3078419577
 40
1.0
100
AcDbArc
 50
91.0
 51
180.0
  0
ARC
  5
428
100
AcDbEntity
  8
RACCORDO
100
AcDbCircle
 62
7
  6
CONTINUOUS
 10
-362.0298291379
 20
82.4474824772
 40
1.0
100
AcDbArc
 50
0.0
 51
89.0
  0
ARC
  5
429
100
AcDbEntity
  8
RACCORDO
100
AcDbCircle
 62
253
  6
CONTINUOUS
 10
-265.7222191627
 20
-59.3946624964
 40
44.7462319557
100
AcDbArc
 50
184.9012232758
 51
187.8630642902
  0
ARC
  5
42A
100
AcDbEntity
  8
RACCORDO
100
AcDbCircle
 62
7
  6
CONTINUOUS
 10
-310.3693031733
 20
-70.4733158183
 40
3.3626284804
100
AcDbArc
 50
275.4225820391
 51
279.7762291356
  0
ARC
  5
42B
100
AcDbEntity
  8
RACCORDO
100
AcDbCircle
 62
7
  6
CONTINUOUS
 10
-310.0935462281
 20
-70.7775657574
 40
3.0639370797
100
AcDbArc
 50
355.0420257019
 51
359.9931178926
  0
ARC
  5
42C
100
AcDbEntity
  8
RACCORDO
100
AcDbCircle
 62
7
  6
CONTINUOUS
 10
-310.0779176705
 20
-70.782897267
 40
3.0478572826
100
AcDbArc
 50
270.9261069374
 51
355.1164835624
  0
ARC
  5
42D
100
AcDbEntity
  8
RACCORDO
100
AcDbCircle
 62
7
  6
CONTINUOUS
 10
-307.5298291379
 20
-67.8612339477
 40
0.5
100
AcDbArc
 50
0.0
 51
9.1143052281
  0
ARC
  5
42E
100
AcDbEntity
  8
RACCORDO
100
AcDbCircle
 62
7
  6
CONTINUOUS
 10
-307.5298291379
 20
-68.8760243525
 40
0.5
100
AcDbArc
 50
270.2
 51
360.0
  0
ARC
  5
42F
100
AcDbEntity
  8
RACCORDO
100
AcDbCircle
 62
7
  6
CONTINUOUS
 10
-307.529702257
 20
-65.5074393428
 40
0.4999501074
100
AcDbArc
 50
270.2011086223
 51
353.0069650566
  0
ARC
  5
430
100
AcDbEntity
  8
RACCORDO
100
AcDbCircle
 62
7
  6
CONTINUOUS
 10
-307.5271163327
 20
-65.5072386117
 40
0.4973983084
100
AcDbArc
 50
352.9477487535
 51
359.9662606588
  0
ARC
  5
431
100
AcDbEntity
  8
RACCORDO
100
AcDbCircle
 62
253
  6
CONTINUOUS
 10
-265.8214903129
 20
59.4025984842
 40
44.6466457291
100
AcDbArc
 50
172.1295676021
 51
175.0980393552
  0
ARC
  5
432
100
AcDbEntity
  8
RACCORDO
100
AcDbCircle
 62
7
  6
CONTINUOUS
 10
-310.3669302447
 20
70.4891824668
 40
3.3467234523
100
AcDbArc
 50
62.6589968927
 51
75.86372026
  0
ARC
  5
433
100
AcDbEntity
  8
RACCORDO
100
AcDbCircle
 62
7
  6
CONTINUOUS
 10
-310.1122420638
 20
70.7761631864
 40
3.0826841873
100
AcDbArc
 50
4.9539138367
 51
9.8668614922
  0
ARC
  5
434
100
AcDbEntity
  8
RACCORDO
100
AcDbCircle
 62
7
  6
CONTINUOUS
 10
-310.1071426319
 20
70.7766274246
 40
3.0775637154
100
AcDbArc
 50
4.1765875118
 51
4.9535015479
  0
ARC
  5
435
100
AcDbEntity
  8
RACCORDO
100
AcDbCircle
 62
7
  6
CONTINUOUS
 10
-310.1025129073
 20
70.7769611208
 40
3.0729219826
100
AcDbArc
 50
3.1696195084
 51
4.1766691028
  0
ARC
  5
436
100
AcDbEntity
  8
RACCORDO
100
AcDbCircle
 62
7
  6
CONTINUOUS
 10
-310.0940509524
 20
70.7775718548
 40
3.0641973961
100
AcDbArc
 50
0.0068895094
 51
4.9573970749
  0
ARC
  5
437
100
AcDbEntity
  8
RACCORDO
100
AcDbCircle
 62
7
  6
CONTINUOUS
 10
-310.0881997709
 20
70.777668014
 40
3.0585916577
100
AcDbArc
 50
0.3846985558
 51
3.171222867
  0
ARC
  5
438
100
AcDbEntity
  8
RACCORDO
100
AcDbCircle
 62
7
  6
CONTINUOUS
 10
-310.0800528877
 20
70.7825234999
 40
3.0498865616
100
AcDbArc
 50
9.8527657953
 51
39.5299059328
  0
ARC
  5
439
100
AcDbEntity
  8
RACCORDO
100
AcDbCircle
 62
7
  6
CONTINUOUS
 10
-310.0780375091
 20
70.7830518949
 40
3.047712639
100
AcDbArc
 50
4.8807763057
 51
89.0720661351
  0
ARC
  5
43A
100
AcDbEntity
  8
RACCORDO
100
AcDbCircle
 62
7
  6
CONTINUOUS
 10
-307.5299825118
 20
65.5073957378
 40
0.5
100
AcDbArc
 50
0.0113575636
 51
89.799999999
  0
ARC
  5
43B
100
AcDbEntity
  8
RACCORDO
100
AcDbCircle
 62
7
  6
CONTINUOUS
 10
-307.5298291379
 20
68.8760243525
 40
0.5
100
AcDbArc
 50
0.0
 51
89.8
  0
ARC
  5
43C
100
AcDbEntity
  8
RACCORDO
100
AcDbCircle
 62
7
  6
CONTINUOUS
 10
-307.5298291379
 20
67.8612339477
 40
0.5
100
AcDbArc
 50
350.8856947719
 51
360.0
  0
SPLINE
  5
43D
100
AcDbEntity
  8
RACCORDO
100
AcDbSpline
 62
253
  6
CONTINUOUS
 70
0
 71
3
 72
10
 73
6
 74
4
 42
0.0000001
 43
0.0000001
 44
0.0000000001
 12
0.0087262699
 22
-0.4999002882
 32
0.0
 13
-0.4999002875
 23
-0.0087263126
 33
0.0
 40
0.0
 40
0.0
 40
0.0
 40
0.0
 40
0.4999743418
 40
0.8660061776
 40
1.0
 40
1.0
 40
1.0
 40
1.0
 10
-310.0356341385
 20
-73.3305662802
 30
0.0
 10
-310.0341798348
 20
-73.4138787194
 30
0.0
 10
-310.0160666936
 20
-73.5737735699
 30
0.0
 10
-310.0583407192
 20
-73.696061814
 30
0.0
 10
-310.0063253939
 20
-73.8301003672
 30
0.0
 10
-310.028653244
 20
-73.8304901245
 30
0.0
 11
-310.0356341385
 21
-73.3305662802
 31
0.0
 11
-310.0315050305
 21
-73.5805075697
 31
0.0
 11
-310.0289497445
 21
-73.7634970256
 31
0.0
 11
-310.028653244
 21
-73.8304901245
 31
0.0
  0
SPLINE
  5
43E
100
AcDbEntity
  8
RACCORDO
100
AcDbSpline
 62
7
  6
CONTINUOUS
 70
0
 71
3
 72
11
 73
7
 74
5
 42
0.0000001
 43
0.0000001
 44
0.0000000001
 12
0.5486158248
 22
0.0007932348
 32
0.0
 13
0.1653985817
 23
0.5274847614
 33
0.0
 40
0.0
 40
0.0
 40
0.0
 40
0.0
 40
0.3632678996
 40
0.6697115321
 40
0.8939663912
 40
1.0
 40
1.0
 40
1.0
 40
1.0
 10
-307.5280838122
 20
-70.7403202316
 30
0.0
 10
-307.4616523061
 20
-70.7402241793
 30
0.0
 10
-307.338738812
 20
-70.7305502614
 30
0.0
 10
-307.1802711441
 20
-70.6870148006
 30
0.0
 10
-307.0759212003
 20
-70.6314268046
 30
0.0
 10
-307.03969746
 20
-70.5770023212
 30
0.0
 10
-307.0338515238
 20
-70.558358617
 30
0.0
 11
-307.5280838122
 21
-70.7403202316
 31
0.0
 11
-307.3295449066
 21
-70.7229797864
 31
0.0
 11
-307.1680696703
 21
-70.6761814624
 31
0.0
 11
-307.0648008611
 21
-70.609309139
 31
0.0
 11
-307.0338515238
 21
-70.558358617
 31
0.0
  0
SPLINE
  5
43F
100
AcDbEntity
  8
RACCORDO
100
AcDbSpline
 62
7
  6
CONTINUOUS
 70
0
 71
3
 72
8
 73
4
 74
2
 42
0.0000001
 43
0.0000001
 44
0.0000000001
 12
0.0077101799
 22
0.0245891007
 32
0.0
 13
0.0
 23
0.0255741679
 33
0.0
 40
0.0
 40
0.0
 40
0.0
 40
0.0
 40
1.0
 40
1.0
 40
1.0
 40
1.0
 10
-307.0338515238
 20
-70.558358617
 30
0.0
 10
-307.0312814638
 20
-70.5501622501
 30
0.0
 10
-307.0298291379
 20
-70.5417394348
 30
0.0
 10
-307.0298291379
 20
-70.5332147122
 30
0.0
 11
-307.0338515238
 21
-70.558358617
 31
0.0
 11
-307.0298291379
 21
-70.5332147122
 31
0.0
  0
SPLINE
  5
440
100
AcDbEntity
  8
RACCORDO
100
AcDbSpline
 62
253
  6
CONTINUOUS
 70
0
 71
3
 72
8
 73
4
 74
2
 42
0.0000001
 43
0.0000001
 44
0.0000000001
 12
0.0
 22
-0.1402236897
 32
0.0
 13
-0.0708834336
 23
-0.122914241
 33
0.0
 40
0.0
 40
0.0
 40
0.0
 40
0.0
 40
1.0
 40
1.0
 40
1.0
 40
1.0
 10
-307.0298291379
 20
-65.6538409196
 30
0.0
 10
-307.0298291379
 20
-65.7005821495
 30
0.0
 10
-307.0440910392
 20
-65.7478771089
 30
0.0
 10
-307.0677188504
 20
-65.7888485225
 30
0.0
 11
-307.0298291379
 21
-65.6538409196
 31
0.0
 11
-307.0677188504
 21
-65.7888485225
 31
0.0
  0
SPLINE
  5
441
100
AcDbEntity
  8
RACCORDO
100
AcDbSpline
 62
253
  6
CONTINUOUS
 70
0
 71
3
 72
10
 73
6
 74
4
 42
0.0000001
 43
0.0000001
 44
0.0000000001
 12
-0.2674345237
 22
-0.4637403953
 32
0.0
 13
-0.529045216
 23
-0.0013058293
 33
0.0
 40
0.0
 40
0.0
 40
0.0
 40
0.0
 40
0.2974985145
 40
0.6356721925
 40
1.0
 40
1.0
 40
1.0
 40
1.0
 10
-307.0677188504
 20
-65.7888485225
 30
0.0
 10
-307.0942393082
 20
-65.8348358821
 30
0.0
 10
-307.1761185614
 20
-65.9160756429
 30
0.0
 10
-307.3392127415
 20
-65.9901719048
 30
0.0
 10
-307.4638351843
 20
-66.007233573
 30
0.0
 10
-307.5280838122
 20
-66.0073921563
 30
0.0
 11
-307.0677188504
 21
-65.7888485225
 31
0.0
 11
-307.1756530952
 21
-65.9033998823
 31
0.0
 11
-307.3372757184
 21
-65.9801254487
 31
0.0
 11
-307.5280838122
 21
-66.0073921563
 31
0.0
  0
SPLINE
  5
442
100
AcDbEntity
  8
RACCORDO
100
AcDbSpline
 62
7
  6
CONTINUOUS
 70
0
 71
3
 72
13
 73
9
 74
7
 42
0.0000001
 43
0.0000001
 44
0.0000000001
 12
0.5490324029
 22
0.0000099079
 32
0.0
 13
0.0876466986
 23
-0.5482679348
 33
0.0
 40
0.0
 40
0.0
 40
0.0
 40
0.0
 40
0.3787547501
 40
0.6325773664
 40
0.7867496951
 40
0.8895284406
 40
0.9936129524
 40
1.0
 40
1.0
 40
1.0
 40
1.0
 10
-307.5280838122
 20
-67.661541547
 30
0.0
 10
-307.458767602
 20
-67.6615402961
 30
0.0
 10
-307.3427642727
 20
-67.6607300475
 30
0.0
 10
-307.1994664816
 20
-67.6649380586
 30
0.0
 10
-307.105245988
 20
-67.6789232291
 30
0.0
 10
-307.0500140844
 20
-67.722098455
 30
0.0
 10
-307.0395732433
 20
-67.761290425
 30
0.0
 10
-307.036231043
 20
-67.781485475
 30
0.0
 10
-307.0360444418
 20
-67.7826527461
 30
0.0
 11
-307.5280838122
 21
-67.661541547
 31
0.0
 11
-307.3201358619
 21
-67.6620734495
 31
0.0
 11
-307.1809487883
 21
-67.6689500539
 31
0.0
 11
-307.0986780481
 21
-67.6888599405
 31
0.0
 11
-307.0555256941
 21
-67.7252205066
 31
0.0
 11
-307.0366244176
 21
-67.7791499118
 31
0.0
 11
-307.0360444418
 21
-67.7826527461
 31
0.0
  0
SPLINE
  5
443
100
AcDbEntity
  8
RACCORDO
100
AcDbSpline
 62
253
  6
CONTINUOUS
 70
0
 71
3
 72
10
 73
6
 74
4
 42
0.0000001
 43
0.0000001
 44
0.0000000001
 12
0.500139034
 22
0.0017459745
 32
0.0
 13
-0.0017453104
 23
0.5001390363
 33
0.0
 40
0.0
 40
0.0
 40
0.0
 40
0.0
 40
0.1342101847
 40
0.5001623159
 40
1.0
 40
1.0
 40
1.0
 40
1.0
 10
-310.0547216996
 20
-66.0162118221
 30
0.0
 10
-310.0323471155
 20
-66.0161337129
 30
0.0
 10
-310.0747948922
 20
-65.8815705645
 30
0.0
 10
-310.0337418421
 20
-65.7596061423
 30
0.0
 10
-310.047450031
 20
-65.5995443179
 30
0.0
 10
-310.0477408216
 20
-65.516214872
 30
0.0
 11
-310.0547216996
 21
-66.0162118221
 31
0.0
 11
-310.0505926141
 21
-65.9492147799
 31
0.0
 11
-310.0480374504
 21
-65.7662045558
 31
0.0
 11
-310.0477408216
 21
-65.516214872
 31
0.0
  0
SPLINE
  5
444
100
AcDbEntity
  8
RACCORDO
100
AcDbSpline
 62
253
  6
CONTINUOUS
 70
0
 71
3
 72
10
 73
6
 74
4
 42
0.0000001
 43
0.0000001
 44
0.0000000001
 12
0.5001390662
 22
-0.0017458469
 32
0.0
 13
-0.0017463674
 23
-0.5001390643
 33
0.0
 40
0.0
 40
0.0
 40
0.0
 40
0.0
 40
0.1341967522
 40
0.5001424138
 40
1.0
 40
1.0
 40
1.0
 40
1.0
 10
-310.0545571203
 20
66.0162112476
 30
0.0
 10
-310.0321847741
 20
66.016133152
 30
0.0
 10
-310.0746289261
 20
65.8815760725
 30
0.0
 10
-310.0335763671
 20
65.7596120656
 30
0.0
 10
-310.0472852486
 20
65.5995470608
 30
0.0
 10
-310.0475762269
 20
65.5162142923
 30
0.0
 11
-310.0545571203
 21
66.0162112476
 31
0.0
 11
-310.0504278384
 21
65.9492209442
 31
0.0
 11
-310.0478725545
 21
65.7662139462
 31
0.0
 11
-310.0475762269
 21
65.5162142923
 31
0.0
  0
SPLINE
  5
445
100
AcDbEntity
  8
RACCORDO
100
AcDbSpline
 62
7
  6
CONTINUOUS
 70
0
 71
3
 72
13
 73
9
 74
7
 42
0.0000001
 43
0.0000001
 44
0.0000000001
 12
0.5490324029
 22
-0.0000099079
 32
0.0
 13
0.0876466986
 23
0.5482679348
 33
0.0
 40
0.0
 40
0.0
 40
0.0
 40
0.0
 40
0.3787547501
 40
0.6325773664
 40
0.7867496951
 40
0.8895284406
 40
0.9936129524
 40
1.0
 40
1.0
 40
1.0
 40
1.0
 10
-307.5280838122
 20
67.661541547
 30
0.0
 10
-307.458767602
 20
67.6615402961
 30
0.0
 10
-307.3427642727
 20
67.6607300475
 30
0.0
 10
-307.1994664816
 20
67.6649380586
 30
0.0
 10
-307.105245988
 20
67.6789232291
 30
0.0
 10
-307.0500140844
 20
67.722098455
 30
0.0
 10
-307.0395732433
 20
67.761290425
 30
0.0
 10
-307.036231043
 20
67.781485475
 30
0.0
 10
-307.0360444418
 20
67.7826527461
 30
0.0
 11
-307.5280838122
 21
67.661541547
 31
0.0
 11
-307.3201358619
 21
67.6620734495
 31
0.0
 11
-307.1809487883
 21
67.6689500539
 31
0.0
 11
-307.0986780481
 21
67.6888599405
 31
0.0
 11
-307.0555256941
 21
67.7252205066
 31
0.0
 11
-307.0366244176
 21
67.7791499118
 31
0.0
 11
-307.0360444418
 21
67.7826527461
 31
0.0
  0
SPLINE
  5
446
100
AcDbEntity
  8
RACCORDO
100
AcDbSpline
 62
7
  6
CONTINUOUS
 70
0
 71
3
 72
11
 73
7
 74
5
 42
0.0000001
 43
0.0000001
 44
0.0000000001
 12
0.5474908939
 22
-0.0007916083
 32
0.0
 13
0.1713331028
 23
-0.5251082404
 33
0.0
 40
0.0
 40
0.0
 40
0.0
 40
0.0
 40
0.3640143071
 40
0.67108759
 40
0.8958032261
 40
1.0
 40
1.0
 40
1.0
 40
1.0
 10
-307.5280838122
 20
70.7403202316
 30
0.0
 10
-307.4616523061
 20
70.7402241793
 30
0.0
 10
-307.338738812
 20
70.7305502614
 30
0.0
 10
-307.1802711441
 20
70.6870148006
 30
0.0
 10
-307.0762572418
 20
70.6316058165
 30
0.0
 10
-307.0401479168
 20
70.5776770886
 30
0.0
 10
-307.0341971313
 20
70.5594388938
 30
0.0
 11
-307.5280838122
 21
70.7403202316
 31
0.0
 11
-307.3295449066
 21
70.7229797864
 31
0.0
 11
-307.1680696703
 21
70.6761814624
 31
0.0
 11
-307.0648008611
 21
70.609309139
 31
0.0
 11
-307.0341971313
 21
70.5594388938
 31
0.0
  0
SPLINE
  5
447
100
AcDbEntity
  8
RACCORDO
100
AcDbSpline
 62
7
  6
CONTINUOUS
 70
0
 71
3
 72
8
 73
4
 74
2
 42
0.0000001
 43
0.0000001
 44
0.0000000001
 12
0.0083552711
 22
-0.0256075542
 32
0.0
 13
0.0
 23
-0.0266991
 33
0.0
 40
0.0
 40
0.0
 40
0.0
 40
0.0
 40
1.0
 40
1.0
 40
1.0
 40
1.0
 10
-307.0341971313
 20
70.5594388938
 30
0.0
 10
-307.0314120409
 20
70.5509030424
 30
0.0
 10
-307.0298291379
 20
70.5421144122
 30
0.0
 10
-307.0298291379
 20
70.5332147122
 30
0.0
 11
-307.0341971313
 21
70.5594388938
 31
0.0
 11
-307.0298291379
 21
70.5332147122
 31
0.0
  0
SPLINE
  5
448
100
AcDbEntity
  8
RACCORDO
100
AcDbSpline
 62
253
  6
CONTINUOUS
 70
0
 71
3
 72
10
 73
6
 74
4
 42
0.0000001
 43
0.0000001
 44
0.0000000001
 12
0.0087256876
 22
0.4999002992
 32
0.0
 13
-0.4999002979
 23
0.0087257602
 33
0.0
 40
0.0
 40
0.0
 40
0.0
 40
0.0
 40
0.4999980207
 40
0.8660178786
 40
1.0
 40
1.0
 40
1.0
 40
1.0
 10
-310.0356592745
 20
73.330566716
 30
0.0
 10
-310.034204999
 20
73.4138831027
 30
0.0
 10
-310.0160908834
 20
73.573780885
 30
0.0
 10
-310.0583652658
 20
73.6960690521
 30
0.0
 10
-310.0063524962
 20
73.8301008649
 30
0.0
 10
-310.028678397
 20
73.8304905636
 30
0.0
 11
-310.0356592745
 21
73.330566716
 31
0.0
 11
-310.0315301891
 21
73.5805198468
 31
0.0
 11
-310.0289750254
 21
73.7635033154
 31
0.0
 11
-310.028678397
 21
73.8304905636
 31
0.0
  0
SPLINE
  5
449
100
AcDbEntity
  8
RACCORDO
100
AcDbSpline
 62
253
  6
CONTINUOUS
 70
0
 71
3
 72
9
 73
5
 74
3
 42
0.0000001
 43
0.0000001
 44
0.0000000001
 12
-0.0007246835
 22
0.2990423855
 32
0.0
 13
-0.2626527939
 23
0.0305945463
 33
0.0
 40
0.0
 40
0.0
 40
0.0
 40
0.0
 40
0.2567704833
 40
1.0
 40
1.0
 40
1.0
 40
1.0
 10
-307.0296305035
 20
-65.5075315395
 30
0.0
 10
-307.0296925293
 20
-65.4819364535
 30
0.0
 10
-307.187515516
 20
-65.5123908255
 30
0.0
 10
-307.2622706783
 20
-65.4928939884
 30
0.0
 10
-307.3273411146
 20
-65.4853143985
 30
0.0
 11
-307.0296305035
 21
-65.5075315395
 31
0.0
 11
-307.105264347
 21
-65.4942826839
 31
0.0
 11
-307.3273411146
 21
-65.4853143985
 31
0.0
  0
SPLINE
  5
44A
100
AcDbEntity
  8
RACCORDO
100
AcDbSpline
 62
253
  6
CONTINUOUS
 70
0
 71
3
 72
12
 73
8
 74
6
 42
0.0000001
 43
0.0000001
 44
0.0000000001
 12
-2.3896553183
 22
0.2783538645
 32
0.0
 13
-2.7198878316
 23
-0.0681457505
 33
0.0
 40
0.0
 40
0.0
 40
0.0
 40
0.0
 40
0.1312264918
 40
0.3056446523
 40
0.5151743349
 40
0.750156936
 40
1.0
 40
1.0
 40
1.0
 40
1.0
 10
-307.3273411146
 20
-65.4853143985
 30
0.0
 10
-307.4318698093
 20
-65.4731385981
 30
0.0
 10
-307.7324910752
 20
-65.4863171305
 30
0.0
 10
-308.1874721456
 20
-65.4800384529
 30
0.0
 10
-308.7531001812
 20
-65.4896999348
 30
0.0
 10
-309.3813016684
 20
-65.5001993569
 30
0.0
 10
-309.8212257891
 20
-65.5105396282
 30
0.0
 10
-310.0477408256
 20
-65.5162148759
 30
0.0
 11
-307.3273411146
 21
-65.4853143985
 31
0.0
 11
-307.6843523272
 21
-65.4813388965
 31
0.0
 11
-308.1588971703
 21
-65.4826688746
 31
0.0
 11
-308.7289352095
 21
-65.4892543333
 31
0.0
 11
-309.3681599642
 21
-65.5006815323
 31
0.0
 11
-310.0477408256
 21
-65.5162148759
 31
0.0
  0
SPLINE
  5
44B
100
AcDbEntity
  8
RACCORDO
100
AcDbSpline
 62
253
  6
CONTINUOUS
 70
0
 71
3
 72
13
 73
9
 74
7
 42
0.0000001
 43
0.0000001
 44
0.0000000001
 12
3.0105608557
 22
-0.0753985178
 32
0.0
 13
-1.45207535
 23
1.2089104227
 33
0.0
 40
0.0
 40
0.0
 40
0.0
 40
0.0
 40
0.2702764561
 40
0.5185266223
 40
0.7277413877
 40
0.8842699788
 40
0.9778968801
 40
1.0
 40
1.0
 40
1.0
 40
1.0
 10
-310.047576242
 20
65.5162142923
 30
0.0
 10
-309.7763483357
 20
65.5094214776
 30
0.0
 10
-309.2589333885
 20
65.4974949789
 30
0.0
 10
-308.5166704884
 20
65.4859909419
 30
0.0
 10
-307.9336124666
 20
65.4788589875
 30
0.0
 10
-307.392666114
 20
65.48475624
 30
0.0
 10
-307.2564305643
 20
65.4841425557
 30
0.0
 10
-307.0190083151
 20
65.4997311102
 30
0.0
 10
-307.0297067803
 20
65.5086380075
 30
0.0
 11
-310.047576242
 21
65.5162142923
 31
0.0
 11
-309.2338411645
 21
65.4980016816
 31
0.0
 11
-308.4863319077
 21
65.4859386322
 31
0.0
 11
-307.8562986419
 21
65.4811734911
 31
0.0
 11
-307.3849210222
 21
65.4840856089
 31
0.0
 11
-307.1031502209
 21
65.4943547702
 31
0.0
 11
-307.0297067803
 21
65.5086380075
 31
0.0
  0
LINE
  5
44C
100
AcDbEntity
  8
RACCORDO
100
AcDbLine
 62
7
  6
CONTINUOUS
 10
-310.5298291399
 20
-67.6616331931
 11
-307.5280838122
 21
-67.661541547
  0
SPLINE
  5
44D
100
AcDbEntity
  8
RACCORDO
100
AcDbSpline
 62
253
  6
CONTINUOUS
 70
0
 71
3
 72
13
 73
9
 74
7
 42
0.0000001
 43
0.0000001
 44
0.0000000001
 12
3.9552129487
 22
0.0680388248
 32
0.0
 13
0.0001187821
 23
3.9557981163
 33
0.0
 40
0.0
 40
0.0
 40
0.0
 40
0.0
 40
0.167538121
 40
0.334026509
 40
0.5000950271
 40
0.6661778829
 40
0.8327054446
 40
1.0
 40
1.0
 40
1.0
 40
1.0
 10
-310.0356341385
 20
-73.3305662802
 30
0.0
 10
-309.8147511566
 20
-73.3267665813
 30
0.0
 10
-309.3732210032
 20
-73.261703057
 30
0.0
 10
-308.7608292125
 20
-72.9986670803
 30
0.0
 10
-308.2373516571
 20
-72.5885646198
 30
0.0
 10
-307.8368366071
 20
-72.0576806066
 30
0.0
 10
-307.5849169673
 20
-71.4408758668
 30
0.0
 10
-307.5279804514
 20
-70.9985397952
 30
0.0
 10
-307.5279738276
 20
-70.7779452996
 30
0.0
 11
-310.0356341385
 21
-73.3305662802
 31
0.0
 11
-309.3800089943
 21
-73.2336682165
 31
0.0
 11
-308.7748794955
 21
-72.9737356448
 31
0.0
 11
-308.2578469694
 21
-72.5684714945
 31
0.0
 11
-307.8620079654
 21
-72.0441169677
 31
0.0
 11
-307.6129978184
 21
-71.4342442445
 31
0.0
 11
-307.5279738276
 21
-70.7779452996
 31
0.0
  0
SPLINE
  5
44E
100
AcDbEntity
  8
RACCORDO
100
AcDbSpline
 62
253
  6
CONTINUOUS
 70
0
 71
3
 72
13
 73
9
 74
7
 42
0.0000001
 43
0.0000001
 44
0.0000000001
 12
-0.0001182773
 22
3.9556417263
 32
0.0
 13
-3.9550566043
 23
0.0680348237
 33
0.0
 40
0.0
 40
0.0
 40
0.0
 40
0.0
 40
0.1673059651
 40
0.3338488552
 40
0.4999558343
 40
0.6660049847
 40
0.8324636904
 40
1.0
 40
1.0
 40
1.0
 40
1.0
 10
-307.5280960313
 20
70.777952166
 30
0.0
 10
-307.5281026275
 20
70.9985529849
 30
0.0
 10
-307.585210848
 20
71.4408839972
 30
0.0
 10
-307.8370601021
 20
72.0577426558
 30
0.0
 10
-308.2375914797
 20
72.5886295068
 30
0.0
 10
-308.7610160018
 20
72.9986953309
 30
0.0
 10
-309.3733161286
 20
73.2617054743
 30
0.0
 10
-309.814787412
 20
73.3267672816
 30
0.0
 10
-310.0356592745
 20
73.330566716
 30
0.0
 11
-307.5280960313
 21
70.777952166
 31
0.0
 11
-307.613234907
 21
71.434255346
 31
0.0
 11
-307.8622446245
 21
72.0441656069
 31
0.0
 11
-308.2581228709
 21
72.5685775258
 31
0.0
 11
-308.7750754879
 21
72.9737773359
 31
0.0
 11
-309.3800685285
 21
73.2336641256
 31
0.0
 11
-310.0356592745
 21
73.330566716
 31
0.0
  0
LINE
  5
44F
100
AcDbEntity
  8
RACCORDO
100
AcDbLine
 62
7
  6
CONTINUOUS
 10
-310.5298291399
 20
67.6616331931
 11
-307.5280838122
 21
67.661541547
  0
SPLINE
  5
450
100
AcDbEntity
  8
RACCORDO
100
AcDbSpline
 62
253
  6
CONTINUOUS
 70
0
 71
3
 72
15
 73
11
 74
9
 42
0.0000001
 43
0.0000001
 44
0.0000000001
 12
-0.0174498297
 22
1.0000046623
 32
0.0
 13
1.0000045712
 23
0.0174550496
 33
0.0
 40
0.0
 40
0.0
 40
0.0
 40
0.0
 40
0.1396388162
 40
0.2901239386
 40
0.4477003818
 40
0.605987095
 40
0.7553070889
 40
0.882098456
 40
0.9686502096
 40
1.0
 40
1.0
 40
1.0
 40
1.0
 10
-376.0472815444
 20
82.3078419577
 30
0.0
 10
-376.0480937689
 20
82.3543884468
 30
0.0
 10
-376.0496522519
 20
82.4510840239
 30
0.0
 10
-376.0517450597
 20
82.6003999532
 30
0.0
 10
-376.053175255
 20
82.7555816085
 30
0.0
 10
-376.0550412548
 20
82.9117150203
 30
0.0
 10
-376.0525631318
 20
83.0530099977
 30
0.0
 10
-376.0595195837
 20
83.1839301546
 30
0.0
 10
-376.04195575
 20
83.2449013029
 30
0.0
 10
-376.0577315223
 20
83.3075072489
 30
0.0
 10
-376.0472815444
 20
83.3076896529
 30
0.0
 11
-376.0472815444
 21
82.3078419577
 31
0.0
 11
-376.0495471289
 21
82.4474843056
 31
0.0
 11
-376.0515937224
 21
82.5979791236
 31
0.0
 11
-376.053247327
 21
82.755571615
 31
0.0
 11
-376.0542858471
 21
82.9138797566
 31
0.0
 11
-376.0544442238
 21
83.0632230946
 31
0.0
 11
-376.0534372811
 21
83.1900303573
 31
0.0
 11
-376.0510557428
 21
83.2765629246
 31
0.0
 11
-376.0472815444
 21
83.3076896529
 31
0.0
  0
SPLINE
  5
451
100
AcDbEntity
  8
RACCORDO
100
AcDbSpline
 62
253
  6
CONTINUOUS
 70
0
 71
3
 72
14
 73
10
 74
8
 42
0.0000001
 43
0.0000001
 44
0.0000000001
 12
-0.017449502
 22
-0.9999858795
 32
0.0
 13
0.9999857868
 23
-0.017454811
 33
0.0
 40
0.0
 40
0.0
 40
0.0
 40
0.0
 40
0.1601123519
 40
0.3339796953
 40
0.5156400246
 40
0.6941911252
 40
0.8507228024
 40
0.9600080823
 40
1.0
 40
1.0
 40
1.0
 40
1.0
 10
-376.0472815444
 20
-82.3078419577
 30
0.0
 10
-376.048212838
 20
-82.3612119881
 30
0.0
 10
-376.0500494093
 20
-82.4726013405
 30
0.0
 10
-376.0520525511
 20
-82.6441891244
 30
0.0
 10
-376.0546582679
 20
-82.8233991957
 30
0.0
 10
-376.0521375188
 20
-82.9915340363
 30
0.0
 10
-376.0615212503
 20
-83.1519342739
 30
0.0
 10
-376.0391977961
 20
-83.2279756972
 30
0.0
 10
-376.0606119941
 20
-83.3074569691
 30
0.0
 10
-376.0472815444
 20
-83.3076896529
 30
0.0
 11
-376.0472815444
 21
-82.3078419577
 31
0.0
 11
-376.049849859
 21
-82.467955826
 31
0.0
 11
-376.0521068063
 21
-82.6418325355
 31
0.0
 11
-376.0537795536
 21
-82.8235102538
 31
0.0
 11
-376.0545033414
 21
-83.0020845478
 31
0.0
 11
-376.0538437231
 21
-83.1586364543
 31
0.0
 11
-376.0514571557
 21
-83.2679107695
 31
0.0
 11
-376.0472815444
 21
-83.3076896529
 31
0.0
  0
LINE
  5
452
100
AcDbEntity
  8
RACCORDO
100
AcDbLine
 62
253
  6
CONTINUOUS
 10
-310.4687457154
 20
20.1713926047
 11
-310.4687457154
 21
-20.1713926047
  0
SPLINE
  5
453
100
AcDbEntity
  8
RACCORDO
100
AcDbSpline
 62
253
  6
CONTINUOUS
 70
0
 71
3
 72
17
 73
13
 74
11
 42
0.0000001
 43
0.0000001
 44
0.0000000001
 12
-0.0000033753
 22
-40.3457273772
 32
0.0
 13
2.5274192356
 23
-40.2664856872
 33
0.0
 40
0.0
 40
0.0
 40
0.0
 40
0.0
 40
0.1522290302
 40
0.2900531035
 40
0.4115435007
 40
0.5198049608
 40
0.6180741086
 40
0.70839099
 40
0.7914132061
 40
0.8674125948
 40
0.9367786978
 40
1.0
 40
1.0
 40
1.0
 40
1.0
 10
-310.4687457154
 20
-21.8286073953
 30
0.0
 10
-310.4687458867
 20
-23.8758710458
 30
0.0
 10
-310.4687455526
 20
-27.7766721816
 30
0.0
 10
-310.4687416906
 20
-33.3113461862
 30
0.0
 10
-310.468768345
 20
-38.2547188162
 30
0.0
 10
-310.4686559198
 20
-42.6661345824
 30
0.0
 10
-310.4690541138
 20
-46.6583091907
 30
0.0
 10
-310.4677861521
 20
-50.3110576934
 30
0.0
 10
-310.4714641734
 20
-53.6642906445
 30
0.0
 10
-310.4618139382
 20
-56.7358276044
 30
0.0
 10
-310.4845563997
 20
-59.5408658888
 30
0.0
 10
-310.4356236695
 20
-61.3243338943
 30
0.0
 10
-310.3823614244
 20
-62.1729004481
 30
0.0
 11
-310.4687457154
 21
-21.8286073953
 31
0.0
 11
-310.4687448783
 21
-27.9703983467
 31
0.0
 11
-310.4687475366
 21
-33.5310108353
 31
0.0
 11
-310.4687426273
 21
-38.4326292795
 31
0.0
 11
-310.4687480698
 21
-42.8005166345
 31
0.0
 11
-310.4687570426
 21
-46.7652568806
 31
0.0
 11
-310.4686659558
 21
-50.409157152
 31
0.0
 11
-310.4690969293
 21
-53.758748821
 31
0.0
 11
-310.4675447644
 21
-56.8249990453
 31
0.0
 11
-310.467876226
 21
-59.6236249068
 31
0.0
 11
-310.3823614244
 21
-62.1729004481
 31
0.0
  0
SPLINE
  5
454
100
AcDbEntity
  8
RACCORDO
100
AcDbSpline
 62
253
  6
CONTINUOUS
 70
0
 71
3
 72
18
 73
14
 74
12
 42
0.0000001
 43
0.0000001
 44
0.0000000001
 12
-2.5206135273
 22
-40.2669752212
 32
0.0
 13
-0.0000010104
 23
-40.3457901896
 33
0.0
 40
0.0
 40
0.0
 40
0.0
 40
0.0
 40
0.0576721987
 40
0.1214082927
 40
0.1912503565
 40
0.267106579
 40
0.3490091324
 40
0.4373946387
 40
0.5329669983
 40
0.6364563069
 40
0.7486032953
 40
0.8698902944
 40
1.0
 40
1.0
 40
1.0
 40
1.0
 10
-310.3823614244
 20
62.1729004481
 30
0.0
 10
-310.4308178657
 20
61.3988054496
 30
0.0
 10
-310.483096021
 20
59.7660050905
 30
0.0
 10
-310.4628417229
 20
57.1939704268
 30
0.0
 10
-310.4709789629
 20
54.3773678716
 30
0.0
 10
-310.4679603628
 20
51.3164572136
 30
0.0
 10
-310.4690087964
 20
48.0061616495
 30
0.0
 10
-310.4686610741
 20
44.4307121962
 30
0.0
 10
-310.4687718745
 20
40.5649510305
 30
0.0
 10
-310.4687379979
 20
36.3796313205
 30
0.0
 10
-310.4687478621
 20
31.848485779
 30
0.0
 10
-310.4687451448
 20
26.9593332581
 30
0.0
 10
-310.4687456716
 20
23.5784003565
 30
0.0
 10
-310.4687457154
 20
21.8286073953
 30
0.0
 11
-310.3823614244
 21
62.1729004481
 31
0.0
 11
-310.4657869817
 21
59.8475660598
 31
0.0
 11
-310.4678906582
 21
57.2760838453
 31
0.0
 11
-310.4690004684
 21
54.4582508107
 31
0.0
 11
-310.4686796634
 21
51.3977715908
 31
0.0
 11
-310.4687618728
 21
48.0933483561
 31
0.0
 11
-310.4687423852
 21
44.5273652601
 31
0.0
 11
-310.4687461407
 21
40.6714228943
 31
0.0
 11
-310.468745801
 21
36.4960649607
 31
0.0
 11
-310.4687456144
 21
31.9714060993
 31
0.0
 11
-310.4687457707
 21
27.077986279
 31
0.0
 11
-310.4687457154
 21
21.8286073953
 31
0.0
  0
ENDSEC
  0
SECTION
  2
OBJECTS
  0
DICTIONARY
  5
C
100
AcDbDictionary
280
0
281
1
  3
ACAD_GROUP
350
D
  3
ACAD_MLINESTYLE
350
17
  3
ACAD_LAYOUT
350
1A
  3
ACAD_PLOTSETTINGS
350
19
  3
ACAD_PLOTSTYLENAME
350
E
  0
DICTIONARY
  5
D
102
{ACAD_REACTORS
330
C
102
}
100
AcDbDictionary
280
0
281
1
  0
ACDBDICTIONARYWDFLT
  5
E
102
{ACAD_REACTORS
330
C
102
}
100
AcDbDictionary
281
1
  3
Normal
350
F
100
AcDbDictionaryWithDefault
340
F
  0
DICTIONARY
  5
17
102
{ACAD_REACTORS
330
C
102
}
100
AcDbDictionary
280
0
281
1
  3
Standard
350
18
  0
DICTIONARY
  5
19
102
{ACAD_REACTORS
330
C
102
}
100
AcDbDictionary
281
1
  0
DICTIONARY
  5
1A
102
{ACAD_REACTORS
330
C
102
}
100
AcDbDictionary
281
1
  3
Model
350
455
  3
Layout1
350
456
  0
ACDBPLACEHOLDER
  5
F
102
{ACAD_REACTORS
330
E
102
}
  0
MLINESTYLE
  5
18
102
{ACAD_REACTORS
330
17
102
}
100
AcDbMlineStyle
  2
STANDARD
 70
0
  3

 62
256
 51
90.0
 52
90.0
 71
2
 49
0.5
 62
256
  6
BYLAYER
 49
-0.5
 62
256
  6
BYLAYER
  0
LAYOUT
  5
455
102
{ACAD_REACTORS
330
1A
102
}
100
AcDbPlotSettings
  1

  2
none_device
  4
ISO_A4_(297.00_x_210.00_MM)
  6

 40
0.0
 41
0.0
 42
0.0
 43
0.0
 44
297.0
 45
210.0
 46
0.0
 47
0.0
 48
0.0
 49
0.0
140
0.0
141
0.0
142
1.0
143
1.0
 70
1024
 72
1
 73
0
 74
0
  7

 75
0
147
1.0
148
0.0
149
0.0
100
AcDbLayout
  1
Model
 70
0
 71
0
 10
0.0
 20
0.0
 11
297.0
 21
210.0
 12
0.0
 22
0.0
 32
0.0
 14
0.0
 24
0.0
 34
0.0
 15
0.0
 25
0.0
 35
0.0
146
0.0
 13
0.0
 23
0.0
 33
0.0
 16
1.0
 26
0.0
 36
0.0
 17
0.0
 27
1.0
 37
0.0
 76
0
330
212
345
0
346
0
  0
LAYOUT
  5
456
102
{ACAD_REACTORS
330
1A
102
}
100
AcDbPlotSettings
  1

  2
none_device
  4
ISO_A4_(297.00_x_210.00_MM)
  6

 40
0.0
 41
0.0
 42
0.0
 43
0.0
 44
297.0
 45
210.0
 46
0.0
 47
0.0
 48
0.0
 49
0.0
140
0.0
141
0.0
142
1.0
143
1.0
 70
0
 72
1
 73
0
 74
0
  7

 75
0
147
1.0
148
0.0
149
0.0
100
AcDbLayout
  1
Layout1
 70
0
 71
1
 10
0.0
 20
0.0
 11
297.0
 21
210.0
 12
0.0
 22
0.0
 32
0.0
 14
0.0
 24
0.0
 34
0.0
 15
0.0
 25
0.0
 35
0.0
146
0.0
 13
0.0
 23
0.0
 33
0.0
 16
1.0
 26
0.0
 36
0.0
 17
0.0
 27
1.0
 37
0.0
 76
0
330
213
345
0
346
0
  0
ENDSEC
  0
EOF
