  0
SECTION
  2
HEADER
  9
$ACADVER
  1
AC1015
  9
$DWGCODEPAGE
  3
ANSI_1252
  9
$EXTMAX
 10
297.0
 20
210.0
 30
0.0
  9
$EXTMIN
 10
0.0
 20
0.0
 30
0.0
  9
$LIMMIN
 10
0.0
 20
0.0
  9
$LIMMAX
 10
297.0
 20
210.0
  9
$VIEWCTR
 10
148.5
 20
105.0
  9
$VIEWSIZE
 40
210.0
  9
$CLAYER
  8
0
  9
$LTSCALE
 40
16.335
  9
$CELTYPE
  6
BYLAYER
  9
$DIMSCALE
 40
1.0
  9
$DIMASZ
 40
3.0
  9
$DIMEXO
 40
1.85625
  9
$DIMDLI
 40
11.286
  9
$DIMEXE
 40
5.346
  9
$DIMCEN
 40
2.673
  9
$DIMLFAC
 40
1.0
  9
$DIMBLK
  1
_FILLED
  9
$DIMTXT
 40
3.0
  9
$DIMTOL
 70
1
  9
$DIMLIM
 70
0
  9
$DIMTFAC
 40
1.0
  9
$DIMTP
 40
0.01
  9
$DIMTM
 40
0.01
  9
$PDMODE
 70
3
  9
$PDSIZE
 40
3.0
  9
$HANDSEED
  5
4A5
  9
$TILEMODE
 70
1
  9
$MEASUREMENT
 70
1
  9
$INSUNITS
 70
4
  0
ENDSEC
  0
SECTION
  2
CLASSES
  0
CLASS
  1
ACDBDICTIONARYWDFLT
  2
AcDbDictionaryWithDefault
  3
AutoCAD 2000
 90
0
280
0
281
0
  0
CLASS
  1
ACDBPLACEHOLDER
  2
AcDbPlaceHolder
  3
AutoCAD 2000
 90
0
280
0
281
0
  0
CLASS
  1
LAYOUT
  2
AcDbLayout
  3
AutoCAD 2000
 90
0
280
0
281
0
  0
ENDSEC
  0
SECTION
  2
TABLES
  0
TABLE
  2
VPORT
  5
8
100
AcDbSymbolTable
 70
2
  0
VPORT
  5
1F4
100
AcDbSymbolTableRecord
100
AcDbViewportTableRecord
  2
*ACTIVE
 70
0
 10
0.0
 20
0.0
 11
1.0
 21
1.0
 12
148.5
 22
105.0
 13
0.0
 23
0.0
 14
1.0
 24
1.0
 15
0.0
 25
0.0
 16
0.0
 26
0.0
 36
1.0
 17
0.0
 27
0.0
 37
0.0
 40
210.0
 41
1.4142857143
 42
50.0
 43
0.0
 44
0.0
 50
0.0
 51
0.0
 71
0
 72
100
 73
1
 74
1
 75
0
 76
0
 77
0
 78
0
  0
ENDTAB
  0
TABLE
  2
LTYPE
  5
5
100
AcDbSymbolTable
 70
6
  0
LTYPE
  5
14
100
AcDbSymbolTableRecord
100
AcDbLinetypeTableRecord
  2
BYBLOCK
 70
0
  3

 72
65
 73
0
 40
0.0
  0
LTYPE
  5
15
100
AcDbSymbolTableRecord
100
AcDbLinetypeTableRecord
  2
BYLAYER
 70
0
  3

 72
65
 73
0
 40
0.0
  0
LTYPE
  5
16
100
AcDbSymbolTableRecord
100
AcDbLinetypeTableRecord
  2
CONTINUOUS
 70
64
  3
Solid line
 72
65
 73
0
 40
0.0
  0
LTYPE
  5
1F5
100
AcDbSymbolTableRecord
100
AcDbLinetypeTableRecord
  2
CENTER
 70
64
  3
____ _ ____ _ ____ _ ____ _ ____ _ ____ _ ____
 72
65
 73
4
 40
0.6
 49
0.375
 74
0
 49
-0.075
 74
0
 49
0.075
 74
0
 49
-0.075
 74
0
  0
LTYPE
  5
1F6
100
AcDbSymbolTableRecord
100
AcDbLinetypeTableRecord
  2
HIDDEN
 70
64
  3
- - - - - - - - - - - - - - - - - - - -
 72
65
 73
2
 40
0.2
 49
0.1
 74
0
 49
-0.1
 74
0
  0
LTYPE
  5
1F7
100
AcDbSymbolTableRecord
100
AcDbLinetypeTableRecord
  2
PHANTOM
 70
64
  3
_____ _ _ _____ _ _ _____ _ _ _____
 72
65
 73
6
 40
0.8
 49
0.45
 74
0
 49
-0.05
 74
0
 49
0.1
 74
0
 49
-0.05
 74
0
 49
0.1
 74
0
 49
-0.05
 74
0
  0
LTYPE
  5
1F8
100
AcDbSymbolTableRecord
100
AcDbLinetypeTableRecord
  2
DOT
 70
64
  3
. . . . . . . . . . . . . . . . . . . .
 72
65
 73
2
 40
0.2
 49
0.1
 74
0
 49
-0.1
 74
0
  0
LTYPE
  5
1F9
100
AcDbSymbolTableRecord
100
AcDbLinetypeTableRecord
  2
DASHED
 70
64
  3
- - - - - - - - - - - - - - - - - - - -
 72
65
 73
2
 40
0.2
 49
0.1
 74
0
 49
-0.1
 74
0
  0
ENDTAB
  0
TABLE
  2
LAYER
  5
2
100
AcDbSymbolTable
 70
36
  0
LAYER
  5
10
100
AcDbSymbolTableRecord
100
AcDbLayerTableRecord
  2
0
 70
0
 62
7
  6
CONTINUOUS
370
-3
390
F
  0
LAYER
  5
1FA
100
AcDbSymbolTableRecord
100
AcDbLayerTableRecord
  2
DEFAULT_1
 70
0
 62
7
  6
CENTER
370
-3
390
F
  0
LAYER
  5
1FB
100
AcDbSymbolTableRecord
100
AcDbLayerTableRecord
  2
DEFAULT_2
 70
0
 62
7
  6
HIDDEN
370
-3
390
F
  0
LAYER
  5
1FC
100
AcDbSymbolTableRecord
100
AcDbLayerTableRecord
  2
DEFAULT_3
 70
0
 62
7
  6
PHANTOM
370
-3
390
F
  0
LAYER
  5
1FD
100
AcDbSymbolTableRecord
100
AcDbLayerTableRecord
  2
ASSI
 70
0
 62
7
  6
CONTINUOUS
370
-3
390
F
  0
LAYER
  5
1FE
100
AcDbSymbolTableRecord
100
AcDbLayerTableRecord
  2
COORDINATE
 70
0
 62
7
  6
CONTINUOUS
370
-3
390
F
  0
LAYER
  5
1FF
100
AcDbSymbolTableRecord
100
AcDbLayerTableRecord
  2
COORD_ORIGINE
 70
0
 62
7
  6
CONTINUOUS
370
-3
390
F
  0
LAYER
  5
200
100
AcDbSymbolTableRecord
100
AcDbLayerTableRecord
  2
COPY_PUBLISH
 70
0
 62
7
  6
CONTINUOUS
370
-3
390
F
  0
LAYER
  5
201
100
AcDbSymbolTableRecord
100
AcDbLayerTableRecord
  2
COSMETIC
 70
0
 62
7
  6
CONTINUOUS
370
-3
390
F
  0
LAYER
  5
202
100
AcDbSymbolTableRecord
100
AcDbLayerTableRecord
  2
CURVA_ASSE
 70
0
 62
7
  6
CONTINUOUS
370
-3
390
F
  0
LAYER
  5
203
100
AcDbSymbolTableRecord
100
AcDbLayerTableRecord
  2
CURVE
 70
0
 62
7
  6
CONTINUOUS
370
-3
390
F
  0
LAYER
  5
204
100
AcDbSymbolTableRecord
100
AcDbLayerTableRecord
  2
DRAFT
 70
0
 62
7
  6
CONTINUOUS
370
-3
390
F
  0
LAYER
  5
205
100
AcDbSymbolTableRecord
100
AcDbLayerTableRecord
  2
IMPORT_IGES
 70
0
 62
7
  6
CONTINUOUS
370
-3
390
F
  0
LAYER
  5
206
100
AcDbSymbolTableRecord
100
AcDbLayerTableRecord
  2
NOTE
 70
0
 62
7
  6
CONTINUOUS
370
-3
390
F
  0
LAYER
  5
207
100
AcDbSymbolTableRecord
100
AcDbLayerTableRecord
  2
PIANI
 70
0
 62
7
  6
CONTINUOUS
370
-3
390
F
  0
LAYER
  5
208
100
AcDbSymbolTableRecord
100
AcDbLayerTableRecord
  2
PIANI_ORIGINE
 70
0
 62
7
  6
CONTINUOUS
370
-3
390
F
  0
LAYER
  5
209
100
AcDbSymbolTableRecord
100
AcDbLayerTableRecord
  2
PUNTI
 70
0
 62
7
  6
CONTINUOUS
370
-3
390
F
  0
LAYER
  5
20A
100
AcDbSymbolTableRecord
100
AcDbLayerTableRecord
  2
RACCORDO
 70
0
 62
7
  6
CONTINUOUS
370
-3
390
F
  0
LAYER
  5
20B
100
AcDbSymbolTableRecord
100
AcDbLayerTableRecord
  2
SMUSSO
 70
0
 62
7
  6
CONTINUOUS
370
-3
390
F
  0
LAYER
  5
20C
100
AcDbSymbolTableRecord
100
AcDbLayerTableRecord
  2
SNAPLINE
 70
0
 62
7
  6
CONTINUOUS
370
-3
390
F
  0
LAYER
  5
20D
100
AcDbSymbolTableRecord
100
AcDbLayerTableRecord
  2
SUPERFICI
 70
0
 62
7
  6
CONTINUOUS
370
-3
390
F
  0
LAYER
  5
20E
100
AcDbSymbolTableRecord
100
AcDbLayerTableRecord
  2
TRASH
 70
0
 62
7
  6
CONTINUOUS
370
-3
390
F
  0
LAYER
  5
20F
100
AcDbSymbolTableRecord
100
AcDbLayerTableRecord
  2
XSEC_DATUMS
 70
0
 62
7
  6
CONTINUOUS
370
-3
390
F
  0
ENDTAB
  0
TABLE
  2
STYLE
  5
3
100
AcDbSymbolTable
 70
1
  0
STYLE
  5
11
100
AcDbSymbolTableRecord
100
AcDbTextStyleTableRecord
  2
STANDARD
 70
0
 40
0.0
 41
0.8
 50
0.0
 71
0
 42
0.2
  3
txt
  4

  0
STYLE
  5
210
100
AcDbSymbolTableRecord
100
AcDbTextStyleTableRecord
  2
TEXTSTYLE_1
 70
0
 40
0.0
 41
0.8
 50
0.0
 71
0
 42
0.2
  3
gdt
  4

  0
ENDTAB
  0
TABLE
  2
VIEW
  5
6
100
AcDbSymbolTable
 70
0
  0
ENDTAB
  0
TABLE
  2
UCS
  5
7
100
AcDbSymbolTable
 70
0
  0
ENDTAB
  0
TABLE
  2
APPID
  5
9
100
AcDbSymbolTable
 70
1
  0
APPID
  5
211
100
AcDbSymbolTableRecord
100
AcDbRegAppTableRecord
  2
ACAD
 70
0
  0
ENDTAB
  0
TABLE
  2
BLOCK_RECORD
  5
1
100
AcDbSymbolTable
 70
0
  0
BLOCK_RECORD
  5
212
100
AcDbSymbolTableRecord
100
AcDbBlockTableRecord
  2
*Model_Space
  0
BLOCK_RECORD
  5
213
100
AcDbSymbolTableRecord
100
AcDbBlockTableRecord
  2
*Paper_Space
  0
BLOCK_RECORD
  5
214
100
AcDbSymbolTableRecord
100
AcDbBlockTableRecord
  2
_FILLED
  0
BLOCK_RECORD
  5
215
100
AcDbSymbolTableRecord
100
AcDbBlockTableRecord
  2
_NONE
  0
BLOCK_RECORD
  5
216
100
AcDbSymbolTableRecord
100
AcDbBlockTableRecord
  2
*D0
  0
BLOCK_RECORD
  5
217
100
AcDbSymbolTableRecord
100
AcDbBlockTableRecord
  2
*D1
  0
BLOCK_RECORD
  5
218
100
AcDbSymbolTableRecord
100
AcDbBlockTableRecord
  2
*D2
  0
BLOCK_RECORD
  5
219
100
AcDbSymbolTableRecord
100
AcDbBlockTableRecord
  2
*D3
  0
BLOCK_RECORD
  5
21A
100
AcDbSymbolTableRecord
100
AcDbBlockTableRecord
  2
*D4
  0
BLOCK_RECORD
  5
21B
100
AcDbSymbolTableRecord
100
AcDbBlockTableRecord
  2
*D5
  0
BLOCK_RECORD
  5
21C
100
AcDbSymbolTableRecord
100
AcDbBlockTableRecord
  2
*D6
  0
BLOCK_RECORD
  5
21D
100
AcDbSymbolTableRecord
100
AcDbBlockTableRecord
  2
*D7
  0
BLOCK_RECORD
  5
21E
100
AcDbSymbolTableRecord
100
AcDbBlockTableRecord
  2
*D8
  0
BLOCK_RECORD
  5
21F
100
AcDbSymbolTableRecord
100
AcDbBlockTableRecord
  2
*D9
  0
ENDTAB
  0
TABLE
  2
DIMSTYLE
  5
A
100
AcDbSymbolTable
 70
1
100
AcDbDimStyleTable
 71
0
  0
DIMSTYLE
105
220
100
AcDbSymbolTableRecord
100
AcDbDimStyleTableRecord
  2
STANDARD
 70
0
  3

  4

 40
1.0
 41
3.0
 42
0.0625
 43
0.38
 44
0.18
 45
0.0
 46
0.0
 47
0.01
 48
0.01
140
3.0
141
0.09
142
0.0
143
25.4
144
1.0
145
0.0
146
1.0
147
0.09
 71
1.0
 72
0.0
 73
0
 74
0
 75
0
 76
0
 77
1
 78
8
170
0
171
2
172
0
173
0
174
0
175
0
176
0
177
0
178
0
270
2
271
2
272
2
273
2
274
2
275
0
280
0
281
0
282
0
283
1
284
8
285
0
286
0
287
3
288
0
340
11
341
214
342
214
343
214
344
214
  0
DIMSTYLE
105
221
100
AcDbSymbolTableRecord
100
AcDbDimStyleTableRecord
  2
DIMSTYLE_1
 70
0
  3

  4

 40
1.0
 41
3.0
 42
0.0625
 43
0.38
 44
0.18
 45
0.0
 46
0.0
 47
0.0
 48
0.0
140
3.0
141
0.09
142
0.0
143
25.4
144
1.0
145
0.0
146
1.0
147
0.09
 71
0.0
 72
0.0
 73
0
 74
0
 75
0
 76
0
 77
1
 78
8
170
0
171
2
172
0
173
0
174
0
175
0
176
0
177
0
178
0
270
2
271
2
272
2
273
2
274
2
275
0
280
0
281
0
282
0
283
1
284
8
285
0
286
0
287
3
288
0
340
11
341
214
342
214
343
214
344
214
  0
ENDTAB
  0
ENDSEC
  0
SECTION
  2
BLOCKS
  0
BLOCK
  5
20
100
AcDbEntity
  8
0
100
AcDbBlockBegin
  2
*Model_Space
 70
0
 10
0.0
 20
0.0
 30
0.0
  3
*Model_Space
  1

  0
ENDBLK
  5
21
100
AcDbEntity
  8
0
100
AcDbBlockEnd
  0
BLOCK
  5
1C
100
AcDbEntity
  8
0
100
AcDbBlockBegin
  2
*Paper_Space
 70
0
 10
0.0
 20
0.0
 30
0.0
  3
*Paper_Space
  1

  0
ENDBLK
  5
1D
100
AcDbEntity
  8
0
100
AcDbBlockEnd
  0
BLOCK
  5
222
100
AcDbEntity
  8
0
100
AcDbBlockBegin
  2
_FILLED
 70
64
 10
0.0
 20
0.0
  3
_FILLED
  1

  0
SOLID
  5
223
100
AcDbEntity
  8
0
  6
BYBLOCK
 62
0
100
AcDbTrace
 10
0.0
 20
0.0
 11
-1.0
 21
0.3166666667
 12
-1.0
 22
-0.3166666667
 13
-1.0
 23
-0.3166666667
  0
ENDBLK
  5
224
100
AcDbEntity
  8
0
  6
BYBLOCK
 62
0
100
AcDbBlockEnd
  0
BLOCK
  5
225
100
AcDbEntity
  8
0
100
AcDbBlockBegin
  2
_NONE
 70
64
 10
0.0
 20
0.0
  3
_NONE
  1

  0
ENDBLK
  5
226
100
AcDbEntity
  8
0
  6
BYBLOCK
 62
0
100
AcDbBlockEnd
  0
BLOCK
  5
227
100
AcDbEntity
  8
0
100
AcDbBlockBegin
 62
7
  6
CONTINUOUS
  2
*D0
 70
65
 10
0.0
 20
0.0
  3
*D0
  1

  0
MTEXT
  5
228
100
AcDbEntity
  8
0
100
AcDbMText
 62
7
  6
CONTINUOUS
  7
STANDARD
 71
2
 72
1
 10
-398.7510694727
 20
177.75
 30
0.0
 11
1.0
 21
0.0
 31
0.0
 44
0.9
  1
86,2
 40
3.0
 41
8.7857142857
  0
LINE
  5
229
100
AcDbEntity
  8
0
100
AcDbLine
 62
7
  6
CONTINUOUS
 10
-441.8510694727
 20
146.5
 11
-441.8510694727
 21
175.5
  0
LINE
  5
22A
100
AcDbEntity
  8
0
100
AcDbLine
 62
7
  6
CONTINUOUS
 10
-355.6510694727
 20
129.7816325856
 11
-355.6510694727
 21
175.5
  0
LINE
  5
22B
100
AcDbEntity
  8
0
100
AcDbLine
 62
7
  6
CONTINUOUS
 10
-441.8510694727
 20
174.0
 11
-398.7510694727
 21
174.0
  0
LINE
  5
22C
100
AcDbEntity
  8
0
100
AcDbLine
 62
7
  6
CONTINUOUS
 10
-355.6510694727
 20
174.0
 11
-398.7510694727
 21
174.0
  0
INSERT
  5
22D
100
AcDbEntity
  8
0
100
AcDbBlockReference
 62
7
  6
CONTINUOUS
  2
_FILLED
 10
-441.8510694727
 20
174.0
 41
3.0
 42
3.0
 43
3.0
 50
180.0
  0
INSERT
  5
22E
100
AcDbEntity
  8
0
100
AcDbBlockReference
 62
7
  6
CONTINUOUS
  2
_FILLED
 10
-355.6510694727
 20
174.0
 41
3.0
 42
3.0
 43
3.0
  0
ENDBLK
  5
22F
100
AcDbEntity
  8
0
  6
BYBLOCK
 62
0
100
AcDbBlockEnd
  0
BLOCK
  5
230
100
AcDbEntity
  8
0
100
AcDbBlockBegin
 62
7
  6
CONTINUOUS
  2
*D1
 70
65
 10
0.0
 20
0.0
  3
*D1
  1

  0
MTEXT
  5
231
100
AcDbEntity
  8
0
100
AcDbMText
 62
7
  6
CONTINUOUS
  7
STANDARD
 71
2
 72
1
 10
-395.6510694727
 20
167.75
 30
0.0
 11
1.0
 21
0.0
 31
0.0
 44
0.9
  1
80
 40
3.0
 41
4.7142857143
  0
LINE
  5
232
100
AcDbEntity
  8
0
100
AcDbLine
 62
7
  6
CONTINUOUS
 10
-355.6510694727
 20
129.7816325856
 11
-355.6510694727
 21
165.5
  0
LINE
  5
233
100
AcDbEntity
  8
0
100
AcDbLine
 62
7
  6
CONTINUOUS
 10
-435.6510694727
 20
156.5
 11
-435.6510694727
 21
165.5
  0
LINE
  5
234
100
AcDbEntity
  8
0
100
AcDbLine
 62
7
  6
CONTINUOUS
 10
-355.6510694727
 20
164.0
 11
-395.6510694727
 21
164.0
  0
LINE
  5
235
100
AcDbEntity
  8
0
100
AcDbLine
 62
7
  6
CONTINUOUS
 10
-435.6510694727
 20
164.0
 11
-395.6510694727
 21
164.0
  0
INSERT
  5
236
100
AcDbEntity
  8
0
100
AcDbBlockReference
 62
7
  6
CONTINUOUS
  2
_FILLED
 10
-355.6510694727
 20
164.0
 41
3.0
 42
3.0
 43
3.0
  0
INSERT
  5
237
100
AcDbEntity
  8
0
100
AcDbBlockReference
 62
7
  6
CONTINUOUS
  2
_FILLED
 10
-435.6510694727
 20
164.0
 41
3.0
 42
3.0
 43
3.0
 50
180.0
  0
ENDBLK
  5
238
100
AcDbEntity
  8
0
  6
BYBLOCK
 62
0
100
AcDbBlockEnd
  0
BLOCK
  5
239
100
AcDbEntity
  8
0
100
AcDbBlockBegin
 62
7
  6
CONTINUOUS
  2
*D2
 70
65
 10
0.0
 20
0.0
  3
*D2
  1

  0
MTEXT
  5
23A
100
AcDbEntity
  8
0
100
AcDbMText
 62
7
  6
CONTINUOUS
  7
STANDARD
 71
3
 72
1
 10
-446.9634510628
 20
167.75
 30
0.0
 11
1.0
 21
0.0
 31
0.0
 44
0.9
  1
6,2
 40
3.0
 41
6.4285714286
  0
LINE
  5
23B
100
AcDbEntity
  8
0
100
AcDbLine
 62
7
  6
CONTINUOUS
 10
-435.6510694727
 20
156.5
 11
-435.6510694727
 21
165.5
  0
LINE
  5
23C
100
AcDbEntity
  8
0
100
AcDbLine
 62
7
  6
CONTINUOUS
 10
-441.8510694727
 20
146.5
 11
-441.8510694727
 21
165.5
  0
LINE
  5
23D
100
AcDbEntity
  8
0
100
AcDbLine
 62
7
  6
CONTINUOUS
 10
-435.6510694727
 20
164.0
 11
-431.6510694727
 21
164.0
  0
LINE
  5
23E
100
AcDbEntity
  8
0
100
AcDbLine
 62
7
  6
CONTINUOUS
 10
-431.6510694727
 20
164.0
 11
-438.7510694727
 21
164.0
  0
LINE
  5
23F
100
AcDbEntity
  8
0
100
AcDbLine
 62
7
  6
CONTINUOUS
 10
-441.8510694727
 20
164.0
 11
-453.3920224914
 21
164.0
  0
LINE
  5
240
100
AcDbEntity
  8
0
100
AcDbLine
 62
7
  6
CONTINUOUS
 10
-453.3920224914
 20
164.0
 11
-438.7510694727
 21
164.0
  0
INSERT
  5
241
100
AcDbEntity
  8
0
100
AcDbBlockReference
 62
7
  6
CONTINUOUS
  2
_NONE
 10
-435.6510694727
 20
164.0
 41
3.0
 42
3.0
 43
3.0
 50
180.0
  0
INSERT
  5
242
100
AcDbEntity
  8
0
100
AcDbBlockReference
 62
7
  6
CONTINUOUS
  2
_FILLED
 10
-441.8510694727
 20
164.0
 41
3.0
 42
3.0
 43
3.0
  0
ENDBLK
  5
243
100
AcDbEntity
  8
0
  6
BYBLOCK
 62
0
100
AcDbBlockEnd
  0
BLOCK
  5
244
100
AcDbEntity
  8
0
100
AcDbBlockBegin
 62
7
  6
CONTINUOUS
  2
*D3
 70
65
 10
0.0
 20
0.0
  3
*D3
  1

  0
MTEXT
  5
245
100
AcDbEntity
  8
0
100
AcDbMText
 62
7
  6
CONTINUOUS
  7
STANDARD
 71
2
 72
1
 10
281.25
 20
0.0
 30
0.0
 11
0.0
 21
1.0
 31
0.0
 44
0.9
  1
312
 40
3.0
 41
6.2142857143
  0
LINE
  5
246
100
AcDbEntity
  8
0
100
AcDbLine
 62
7
  6
CONTINUOUS
 10
257.5
 20
156.0
 11
286.5
 21
156.0
  0
LINE
  5
247
100
AcDbEntity
  8
0
100
AcDbLine
 62
7
  6
CONTINUOUS
 10
257.4999999624
 20
-156.0
 11
286.5
 21
-156.0
  0
LINE
  5
248
100
AcDbEntity
  8
0
100
AcDbLine
 62
7
  6
CONTINUOUS
 10
285.0
 20
156.0
 11
285.0
 21
0.0
  0
LINE
  5
249
100
AcDbEntity
  8
0
100
AcDbLine
 62
7
  6
CONTINUOUS
 10
285.0
 20
-156.0
 11
285.0
 21
0.0
  0
INSERT
  5
24A
100
AcDbEntity
  8
0
100
AcDbBlockReference
 62
7
  6
CONTINUOUS
  2
_FILLED
 10
285.0
 20
156.0
 41
3.0
 42
3.0
 43
3.0
 50
90.0
  0
INSERT
  5
24B
100
AcDbEntity
  8
0
100
AcDbBlockReference
 62
7
  6
CONTINUOUS
  2
_FILLED
 10
285.0
 20
-156.0
 41
3.0
 42
3.0
 43
3.0
 50
270.0
  0
ENDBLK
  5
24C
100
AcDbEntity
  8
0
  6
BYBLOCK
 62
0
100
AcDbBlockEnd
  0
BLOCK
  5
24D
100
AcDbEntity
  8
0
100
AcDbBlockBegin
 62
7
  6
CONTINUOUS
  2
*D4
 70
65
 10
0.0
 20
0.0
  3
*D4
  1

  0
MTEXT
  5
24E
100
AcDbEntity
  8
0
100
AcDbMText
 62
7
  6
CONTINUOUS
  7
STANDARD
 71
2
 72
1
 10
-0.0
 20
187.75
 30
0.0
 11
1.0
 21
0.0
 31
0.0
 44
0.9
  1
534
 40
3.0
 41
6.6428571429
  0
LINE
  5
24F
100
AcDbEntity
  8
0
100
AcDbLine
 62
7
  6
CONTINUOUS
 10
267.0
 20
146.4999999624
 11
267.0
 21
185.5
  0
LINE
  5
250
100
AcDbEntity
  8
0
100
AcDbLine
 62
7
  6
CONTINUOUS
 10
-267.0
 20
146.5
 11
-267.0
 21
185.5
  0
LINE
  5
251
100
AcDbEntity
  8
0
100
AcDbLine
 62
7
  6
CONTINUOUS
 10
267.0
 20
184.0
 11
-0.0
 21
184.0
  0
LINE
  5
252
100
AcDbEntity
  8
0
100
AcDbLine
 62
7
  6
CONTINUOUS
 10
-267.0
 20
184.0
 11
-0.0
 21
184.0
  0
INSERT
  5
253
100
AcDbEntity
  8
0
100
AcDbBlockReference
 62
7
  6
CONTINUOUS
  2
_FILLED
 10
267.0
 20
184.0
 41
3.0
 42
3.0
 43
3.0
 50
0.0
  0
INSERT
  5
254
100
AcDbEntity
  8
0
100
AcDbBlockReference
 62
7
  6
CONTINUOUS
  2
_FILLED
 10
-267.0
 20
184.0
 41
3.0
 42
3.0
 43
3.0
 50
180.0
  0
ENDBLK
  5
255
100
AcDbEntity
  8
0
  6
BYBLOCK
 62
0
100
AcDbBlockEnd
  0
BLOCK
  5
256
100
AcDbEntity
  8
0
100
AcDbBlockBegin
 62
7
  6
CONTINUOUS
  2
*D5
 70
65
 10
0.0
 20
0.0
  3
*D5
  1

  0
MTEXT
  5
257
100
AcDbEntity
  8
0
100
AcDbMText
 62
7
  6
CONTINUOUS
  7
STANDARD
 71
2
 72
1
 10
-0.0
 20
177.75
 30
0.0
 11
1.0
 21
0.0
 31
0.0
 44
0.9
  1
494
 40
3.0
 41
7.0714285714
  0
LINE
  5
258
100
AcDbEntity
  8
0
100
AcDbLine
 62
7
  6
CONTINUOUS
 10
-247.0
 20
136.5
 11
-247.0
 21
175.5
  0
LINE
  5
259
100
AcDbEntity
  8
0
100
AcDbLine
 62
7
  6
CONTINUOUS
 10
247.0
 20
136.5
 11
247.0
 21
175.5
  0
LINE
  5
25A
100
AcDbEntity
  8
0
100
AcDbLine
 62
7
  6
CONTINUOUS
 10
-247.0
 20
174.0
 11
-0.0
 21
174.0
  0
LINE
  5
25B
100
AcDbEntity
  8
0
100
AcDbLine
 62
7
  6
CONTINUOUS
 10
247.0
 20
174.0
 11
-0.0
 21
174.0
  0
INSERT
  5
25C
100
AcDbEntity
  8
0
100
AcDbBlockReference
 62
7
  6
CONTINUOUS
  2
_FILLED
 10
-247.0
 20
174.0
 41
3.0
 42
3.0
 43
3.0
 50
180.0
  0
INSERT
  5
25D
100
AcDbEntity
  8
0
100
AcDbBlockReference
 62
7
  6
CONTINUOUS
  2
_FILLED
 10
247.0
 20
174.0
 41
3.0
 42
3.0
 43
3.0
  0
ENDBLK
  5
25E
100
AcDbEntity
  8
0
  6
BYBLOCK
 62
0
100
AcDbBlockEnd
  0
BLOCK
  5
25F
100
AcDbEntity
  8
0
100
AcDbBlockBegin
 62
7
  6
CONTINUOUS
  2
*D6
 70
65
 10
0.0
 20
0.0
  3
*D6
  1

  0
MTEXT
  5
260
100
AcDbEntity
  8
0
100
AcDbMText
 62
7
  6
CONTINUOUS
  7
STANDARD
 71
2
 72
1
 10
271.25
 20
0.0
 30
0.0
 11
0.0
 21
1.0
 31
0.0
 44
0.9
  1
272
 40
3.0
 41
7.0714285714
  0
LINE
  5
261
100
AcDbEntity
  8
0
100
AcDbLine
 62
7
  6
CONTINUOUS
 10
247.5
 20
136.0
 11
276.5
 21
136.0
  0
LINE
  5
262
100
AcDbEntity
  8
0
100
AcDbLine
 62
7
  6
CONTINUOUS
 10
247.5
 20
-136.0
 11
276.5
 21
-136.0
  0
LINE
  5
263
100
AcDbEntity
  8
0
100
AcDbLine
 62
7
  6
CONTINUOUS
 10
275.0
 20
136.0
 11
275.0
 21
0.0
  0
LINE
  5
264
100
AcDbEntity
  8
0
100
AcDbLine
 62
7
  6
CONTINUOUS
 10
275.0
 20
-136.0
 11
275.0
 21
0.0
  0
INSERT
  5
265
100
AcDbEntity
  8
0
100
AcDbBlockReference
 62
7
  6
CONTINUOUS
  2
_FILLED
 10
275.0
 20
136.0
 41
3.0
 42
3.0
 43
3.0
 50
90.0
  0
INSERT
  5
266
100
AcDbEntity
  8
0
100
AcDbBlockReference
 62
7
  6
CONTINUOUS
  2
_FILLED
 10
275.0
 20
-136.0
 41
3.0
 42
3.0
 43
3.0
 50
270.0
  0
ENDBLK
  5
267
100
AcDbEntity
  8
0
  6
BYBLOCK
 62
0
100
AcDbBlockEnd
  0
BLOCK
  5
268
100
AcDbEntity
  8
0
100
AcDbBlockBegin
 62
7
  6
CONTINUOUS
  2
*D7
 70
65
 10
0.0
 20
0.0
  3
*D7
  1

  0
MTEXT
  5
269
100
AcDbEntity
  8
0
100
AcDbMText
 62
7
  6
CONTINUOUS
  7
STANDARD
 71
2
 72
1
 10
-164.0
 20
167.75
 30
0.0
 11
1.0
 21
0.0
 31
0.0
 44
0.9
  1
166
 40
3.0
 41
6.4285714286
  0
LINE
  5
26A
100
AcDbEntity
  8
0
100
AcDbLine
 62
7
  6
CONTINUOUS
 10
-247.0
 20
136.5
 11
-247.0
 21
165.5
  0
LINE
  5
26B
100
AcDbEntity
  8
0
100
AcDbLine
 62
7
  6
CONTINUOUS
 10
-81.0
 20
136.5
 11
-81.0
 21
165.5
  0
LINE
  5
26C
100
AcDbEntity
  8
0
100
AcDbLine
 62
7
  6
CONTINUOUS
 10
-247.0
 20
164.0
 11
-164.0
 21
164.0
  0
LINE
  5
26D
100
AcDbEntity
  8
0
100
AcDbLine
 62
7
  6
CONTINUOUS
 10
-81.0
 20
164.0
 11
-164.0
 21
164.0
  0
INSERT
  5
26E
100
AcDbEntity
  8
0
100
AcDbBlockReference
 62
7
  6
CONTINUOUS
  2
_FILLED
 10
-247.0
 20
164.0
 41
3.0
 42
3.0
 43
3.0
 50
180.0
  0
INSERT
  5
26F
100
AcDbEntity
  8
0
100
AcDbBlockReference
 62
7
  6
CONTINUOUS
  2
_FILLED
 10
-81.0
 20
164.0
 41
3.0
 42
3.0
 43
3.0
  0
ENDBLK
  5
270
100
AcDbEntity
  8
0
  6
BYBLOCK
 62
0
100
AcDbBlockEnd
  0
BLOCK
  5
271
100
AcDbEntity
  8
0
100
AcDbBlockBegin
 62
7
  6
CONTINUOUS
  2
*D8
 70
65
 10
0.0
 20
0.0
  3
*D8
  1

  0
MTEXT
  5
272
100
AcDbEntity
  8
0
100
AcDbMText
 62
7
  6
CONTINUOUS
  7
STANDARD
 71
2
 72
1
 10
-0.0
 20
167.75
 30
0.0
 11
1.0
 21
0.0
 31
0.0
 44
0.9
  1
162
 40
3.0
 41
6.4285714286
  0
LINE
  5
273
100
AcDbEntity
  8
0
100
AcDbLine
 62
7
  6
CONTINUOUS
 10
81.0
 20
136.5
 11
81.0
 21
165.5
  0
LINE
  5
274
100
AcDbEntity
  8
0
100
AcDbLine
 62
7
  6
CONTINUOUS
 10
-81.0
 20
136.5
 11
-81.0
 21
165.5
  0
LINE
  5
275
100
AcDbEntity
  8
0
100
AcDbLine
 62
7
  6
CONTINUOUS
 10
81.0
 20
164.0
 11
-0.0
 21
164.0
  0
LINE
  5
276
100
AcDbEntity
  8
0
100
AcDbLine
 62
7
  6
CONTINUOUS
 10
-81.0
 20
164.0
 11
-0.0
 21
164.0
  0
INSERT
  5
277
100
AcDbEntity
  8
0
100
AcDbBlockReference
 62
7
  6
CONTINUOUS
  2
_FILLED
 10
81.0
 20
164.0
 41
3.0
 42
3.0
 43
3.0
  0
INSERT
  5
278
100
AcDbEntity
  8
0
100
AcDbBlockReference
 62
7
  6
CONTINUOUS
  2
_FILLED
 10
-81.0
 20
164.0
 41
3.0
 42
3.0
 43
3.0
 50
180.0
  0
ENDBLK
  5
279
100
AcDbEntity
  8
0
  6
BYBLOCK
 62
0
100
AcDbBlockEnd
  0
BLOCK
  5
27A
100
AcDbEntity
  8
0
100
AcDbBlockBegin
 62
7
  6
CONTINUOUS
  2
*D9
 70
65
 10
0.0
 20
0.0
  3
*D9
  1

  0
MTEXT
  5
27B
100
AcDbEntity
  8
0
100
AcDbMText
 62
7
  6
CONTINUOUS
  7
STANDARD
 71
2
 72
1
 10
164.0
 20
167.75
 30
0.0
 11
1.0
 21
0.0
 31
0.0
 44
0.9
  1
166
 40
3.0
 41
6.4285714286
  0
LINE
  5
27C
100
AcDbEntity
  8
0
100
AcDbLine
 62
7
  6
CONTINUOUS
 10
247.0
 20
136.5
 11
247.0
 21
165.5
  0
LINE
  5
27D
100
AcDbEntity
  8
0
100
AcDbLine
 62
7
  6
CONTINUOUS
 10
81.0
 20
136.5
 11
81.0
 21
165.5
  0
LINE
  5
27E
100
AcDbEntity
  8
0
100
AcDbLine
 62
7
  6
CONTINUOUS
 10
247.0
 20
164.0
 11
164.0
 21
164.0
  0
LINE
  5
27F
100
AcDbEntity
  8
0
100
AcDbLine
 62
7
  6
CONTINUOUS
 10
81.0
 20
164.0
 11
164.0
 21
164.0
  0
INSERT
  5
280
100
AcDbEntity
  8
0
100
AcDbBlockReference
 62
7
  6
CONTINUOUS
  2
_FILLED
 10
247.0
 20
164.0
 41
3.0
 42
3.0
 43
3.0
  0
INSERT
  5
281
100
AcDbEntity
  8
0
100
AcDbBlockReference
 62
7
  6
CONTINUOUS
  2
_FILLED
 10
81.0
 20
164.0
 41
3.0
 42
3.0
 43
3.0
 50
180.0
  0
ENDBLK
  5
282
100
AcDbEntity
  8
0
  6
BYBLOCK
 62
0
100
AcDbBlockEnd
  0
ENDSEC
  0
SECTION
  2
ENTITIES
  0
DIMENSION
  5
283
100
AcDbEntity
  8
0
100
AcDbDimension
 62
7
  6
CONTINUOUS
  2
*D0
 10
-355.6510694727
 20
174.0
 11
-403.1439266156
 21
176.25
 70
160
 71
2
 42
86.2
  3
DIMSTYLE_1
100
AcDbAlignedDimension
 13
-441.8510694727
 23
146.5
 14
-355.6510694727
 24
129.7816325856
100
AcDbRotatedDimension
  0
DIMENSION
  5
284
100
AcDbEntity
  8
0
100
AcDbDimension
 62
7
  6
CONTINUOUS
  2
*D1
 10
-435.6510694727
 20
164.0
 11
-398.0082123299
 21
166.25
 70
160
 71
2
 42
80.0
  3
DIMSTYLE_1
100
AcDbAlignedDimension
 13
-355.6510694727
 23
129.7816325856
 14
-435.6510694727
 24
156.5
 50
180.0
100
AcDbRotatedDimension
  0
DIMENSION
  5
285
100
AcDbEntity
  8
0
100
AcDbDimension
 62
7
  6
CONTINUOUS
  2
*D2
 10
-441.8510694727
 20
164.0
 11
-456.6063082056
 21
166.25
 70
160
 71
3
 42
6.2
  3
DIMSTYLE_1
100
AcDbAlignedDimension
 13
-435.6510694727
 23
156.5
 14
-441.8510694727
 24
146.5
 50
180.0
100
AcDbRotatedDimension
1001
ACAD
1000
DSTYLE
1002
{
1070
173
1070
1
1070
6
1000
_NONE
1002
}
  0
DIMENSION
  5
286
100
AcDbEntity
  8
0
100
AcDbDimension
 62
7
  6
CONTINUOUS
  2
*D3
 10
285.0
 20
-156.0
 11
284.1422287358
 21
-2.7777753476
 70
160
 71
2
 42
312.0
  3
DIMSTYLE_1
100
AcDbAlignedDimension
 13
257.5
 23
156.0
 14
257.4999999624
 24
-156.0
 50
270.0
100
AcDbRotatedDimension
  0
DIMENSION
  5
287
100
AcDbEntity
  8
0
100
AcDbDimension
 62
7
  6
CONTINUOUS
  2
*D4
 10
-267.0
 20
184.0
 11
-3.3214285714
 21
186.25
 70
160
 71
2
 42
534.0
  3
DIMSTYLE_1
100
AcDbAlignedDimension
 13
267.0
 23
146.4999999624
 14
-267.0
 24
146.5
 50
180.0
100
AcDbRotatedDimension
  0
DIMENSION
  5
288
100
AcDbEntity
  8
0
100
AcDbDimension
 62
7
  6
CONTINUOUS
  2
*D5
 10
247.0
 20
174.0
 11
-3.5357142857
 21
176.25
 70
160
 71
2
 42
494.0
  3
DIMSTYLE_1
100
AcDbAlignedDimension
 13
-247.0
 23
136.5
 14
247.0
 24
136.5
100
AcDbRotatedDimension
  0
DIMENSION
  5
289
100
AcDbEntity
  8
0
100
AcDbDimension
 62
7
  6
CONTINUOUS
  2
*D6
 10
275.0
 20
-136.0
 11
274.3342602856
 21
-3.1609167749
 70
160
 71
2
 42
272.0
  3
DIMSTYLE_1
100
AcDbAlignedDimension
 13
247.5
 23
136.0
 14
247.5
 24
-136.0
 50
270.0
100
AcDbRotatedDimension
  0
DIMENSION
  5
28A
100
AcDbEntity
  8
0
100
AcDbDimension
 62
7
  6
CONTINUOUS
  2
*D7
 10
-81.0
 20
164.0
 11
-167.2142857143
 21
166.25
 70
160
 71
2
 42
166.0
  3
DIMSTYLE_1
100
AcDbAlignedDimension
 13
-247.0
 23
136.5
 14
-81.0
 24
136.5
100
AcDbRotatedDimension
  0
DIMENSION
  5
28B
100
AcDbEntity
  8
0
100
AcDbDimension
 62
7
  6
CONTINUOUS
  2
*D8
 10
-81.0
 20
164.0
 11
-3.2142857143
 21
166.25
 70
160
 71
2
 42
162.0
  3
DIMSTYLE_1
100
AcDbAlignedDimension
 13
81.0
 23
136.5
 14
-81.0
 24
136.5
 50
180.0
100
AcDbRotatedDimension
  0
DIMENSION
  5
28C
100
AcDbEntity
  8
0
100
AcDbDimension
 62
7
  6
CONTINUOUS
  2
*D9
 10
81.0
 20
164.0
 11
160.7857142857
 21
166.25
 70
160
 71
2
 42
166.0
  3
DIMSTYLE_1
100
AcDbAlignedDimension
 13
247.0
 23
136.5
 14
81.0
 24
136.5
 50
180.0
100
AcDbRotatedDimension
  0
LINE
  5
28D
100
AcDbEntity
  8
RACCORDO
100
AcDbLine
 62
7
  6
CONTINUOUS
 10
-267.0
 20
146.0
 11
-267.0
 21
-146.0
  0
LINE
  5
28E
100
AcDbEntity
  8
0
100
AcDbLine
 62
7
  6
CONTINUOUS
 10
-247.5197234842
 20
136.5197234842
 11
-247.35
 21
137.0901949367
  0
LINE
  5
28F
100
AcDbEntity
  8
0
100
AcDbLine
 62
7
  6
CONTINUOUS
 10
-246.65
 20
134.9098050633
 11
-246.4802765158
 21
135.4802765158
  0
LINE
  5
290
100
AcDbEntity
  8
0
100
AcDbLine
 62
7
  6
CONTINUOUS
 10
-247.5197234842
 20
-136.5197234842
 11
-247.35
 21
-137.0901949367
  0
LINE
  5
291
100
AcDbEntity
  8
0
100
AcDbLine
 62
7
  6
CONTINUOUS
 10
-246.65
 20
-134.9098050633
 11
-246.4802765158
 21
-135.4802765158
  0
LINE
  5
292
100
AcDbEntity
  8
RACCORDO
100
AcDbLine
 62
253
  6
CONTINUOUS
 10
-265.0
 20
146.0
 11
-265.0
 21
-146.0
  0
LINE
  5
293
100
AcDbEntity
  8
RACCORDO
100
AcDbLine
 62
253
  6
CONTINUOUS
 10
-257.0
 20
-154.0
 11
-257.0
 21
-156.0
  0
LINE
  5
294
100
AcDbEntity
  8
RACCORDO
100
AcDbLine
 62
253
  6
CONTINUOUS
 10
-257.0
 20
154.0
 11
-256.9999999624
 21
156.0
  0
LINE
  5
295
100
AcDbEntity
  8
0
100
AcDbLine
 62
7
  6
CONTINUOUS
 10
-248.145
 20
-136.35
 11
-248.145
 21
-135.65
  0
LINE
  5
296
100
AcDbEntity
  8
0
100
AcDbLine
 62
7
  6
CONTINUOUS
 10
-248.145
 20
135.65
 11
-248.145
 21
136.35
  0
LINE
  5
297
100
AcDbEntity
  8
0
100
AcDbLine
 62
7
  6
CONTINUOUS
 10
-247.5
 20
-138.7041634566
 11
-247.5
 21
-136.5860176963
  0
LINE
  5
298
100
AcDbEntity
  8
0
100
AcDbLine
 62
7
  6
CONTINUOUS
 10
-247.5
 20
-135.4139823037
 11
-247.5
 21
-133.2958365434
  0
LINE
  5
299
100
AcDbEntity
  8
0
100
AcDbLine
 62
7
  6
CONTINUOUS
 10
-247.5
 20
133.2958365434
 11
-247.5
 21
135.4139823037
  0
LINE
  5
29A
100
AcDbEntity
  8
0
100
AcDbLine
 62
7
  6
CONTINUOUS
 10
-247.5
 20
136.5860176963
 11
-247.5
 21
138.7041634566
  0
LINE
  5
29B
100
AcDbEntity
  8
0
100
AcDbLine
 62
7
  6
CONTINUOUS
 10
-247.35
 20
-137.5937234472
 11
-247.35
 21
-137.0901949367
  0
LINE
  5
29C
100
AcDbEntity
  8
0
100
AcDbLine
 62
7
  6
CONTINUOUS
 10
-247.35
 20
-134.9098050633
 11
-247.35
 21
-134.4062765528
  0
LINE
  5
29D
100
AcDbEntity
  8
0
100
AcDbLine
 62
7
  6
CONTINUOUS
 10
-247.35
 20
134.4062765528
 11
-247.35
 21
134.9098050633
  0
LINE
  5
29E
100
AcDbEntity
  8
0
100
AcDbLine
 62
7
  6
CONTINUOUS
 10
-247.35
 20
137.0901949367
 11
-247.35
 21
137.5937234472
  0
LINE
  5
29F
100
AcDbEntity
  8
0
100
AcDbLine
 62
7
  6
CONTINUOUS
 10
-246.65
 20
-137.5937234472
 11
-246.65
 21
-137.0901949367
  0
LINE
  5
2A0
100
AcDbEntity
  8
0
100
AcDbLine
 62
7
  6
CONTINUOUS
 10
-246.65
 20
-134.9098050633
 11
-246.65
 21
-134.4062765528
  0
LINE
  5
2A1
100
AcDbEntity
  8
0
100
AcDbLine
 62
7
  6
CONTINUOUS
 10
-246.65
 20
134.4062765528
 11
-246.65
 21
134.9098050633
  0
LINE
  5
2A2
100
AcDbEntity
  8
0
100
AcDbLine
 62
7
  6
CONTINUOUS
 10
-246.65
 20
137.0901949367
 11
-246.65
 21
137.5937234472
  0
LINE
  5
2A3
100
AcDbEntity
  8
0
100
AcDbLine
 62
7
  6
CONTINUOUS
 10
-246.5
 20
138.7041634566
 11
-246.5
 21
136.5860176963
  0
LINE
  5
2A4
100
AcDbEntity
  8
0
100
AcDbLine
 62
7
  6
CONTINUOUS
 10
-246.5
 20
135.4139823037
 11
-246.5
 21
133.2958365434
  0
LINE
  5
2A5
100
AcDbEntity
  8
0
100
AcDbLine
 62
7
  6
CONTINUOUS
 10
-246.5
 20
-133.2958365434
 11
-246.5
 21
-135.4139823037
  0
LINE
  5
2A6
100
AcDbEntity
  8
0
100
AcDbLine
 62
7
  6
CONTINUOUS
 10
-246.5
 20
-136.5860176963
 11
-246.5
 21
-138.7041634566
  0
LINE
  5
2A7
100
AcDbEntity
  8
0
100
AcDbLine
 62
7
  6
CONTINUOUS
 10
-245.855
 20
136.35
 11
-245.855
 21
135.65
  0
LINE
  5
2A8
100
AcDbEntity
  8
0
100
AcDbLine
 62
7
  6
CONTINUOUS
 10
-245.855
 20
-135.65
 11
-245.855
 21
-136.35
  0
LINE
  5
2A9
100
AcDbEntity
  8
0
100
AcDbLine
 62
7
  6
CONTINUOUS
 10
-247.35
 20
-134.9098050633
 11
-247.5197234842
 21
-135.4802765158
  0
LINE
  5
2AA
100
AcDbEntity
  8
0
100
AcDbLine
 62
7
  6
CONTINUOUS
 10
-246.4802765158
 20
-136.5197234842
 11
-246.65
 21
-137.0901949367
  0
LINE
  5
2AB
100
AcDbEntity
  8
0
100
AcDbLine
 62
7
  6
CONTINUOUS
 10
-248.0901949367
 20
136.35
 11
-247.5197234842
 21
136.5197234842
  0
LINE
  5
2AC
100
AcDbEntity
  8
0
100
AcDbLine
 62
7
  6
CONTINUOUS
 10
-245.9098050633
 20
135.65
 11
-246.4802765158
 21
135.4802765158
  0
LINE
  5
2AD
100
AcDbEntity
  8
0
100
AcDbLine
 62
7
  6
CONTINUOUS
 10
-247.5197234842
 20
-136.5197234842
 11
-248.0901949367
 21
-136.35
  0
LINE
  5
2AE
100
AcDbEntity
  8
0
100
AcDbLine
 62
7
  6
CONTINUOUS
 10
-246.4802765158
 20
-135.4802765158
 11
-245.9098050633
 21
-135.65
  0
LINE
  5
2AF
100
AcDbEntity
  8
0
100
AcDbLine
 62
7
  6
CONTINUOUS
 10
-247.35
 20
134.9098050633
 11
-247.5197234842
 21
135.4802765158
  0
LINE
  5
2B0
100
AcDbEntity
  8
0
100
AcDbLine
 62
7
  6
CONTINUOUS
 10
-246.4802765158
 20
136.5197234842
 11
-246.65
 21
137.0901949367
  0
LINE
  5
2B1
100
AcDbEntity
  8
0
100
AcDbLine
 62
7
  6
CONTINUOUS
 10
-82.0901949367
 20
136.35
 11
-81.5197234842
 21
136.5197234842
  0
LINE
  5
2B2
100
AcDbEntity
  8
0
100
AcDbLine
 62
7
  6
CONTINUOUS
 10
-79.9098050633
 20
135.65
 11
-80.4802765158
 21
135.4802765158
  0
LINE
  5
2B3
100
AcDbEntity
  8
RACCORDO
100
AcDbLine
 62
7
  6
CONTINUOUS
 10
-257.0
 20
-156.0
 11
257.0
 21
-156.0
  0
LINE
  5
2B4
100
AcDbEntity
  8
RACCORDO
100
AcDbLine
 62
253
  6
CONTINUOUS
 10
-257.0
 20
-154.0
 11
257.0
 21
-154.0
  0
LINE
  5
2B5
100
AcDbEntity
  8
RACCORDO
100
AcDbLine
 62
253
  6
CONTINUOUS
 10
-265.0
 20
-146.0
 11
-267.0
 21
-145.9999999624
  0
LINE
  5
2B6
100
AcDbEntity
  8
RACCORDO
100
AcDbLine
 62
253
  6
CONTINUOUS
 10
265.0
 20
-146.0
 11
267.0
 21
-146.0
  0
LINE
  5
2B7
100
AcDbEntity
  8
0
100
AcDbLine
 62
7
  6
CONTINUOUS
 10
-81.5197234842
 20
-136.5197234842
 11
-82.0901949367
 21
-136.35
  0
LINE
  5
2B8
100
AcDbEntity
  8
0
100
AcDbLine
 62
7
  6
CONTINUOUS
 10
-80.4802765158
 20
-135.4802765158
 11
-79.9098050633
 21
-135.65
  0
LINE
  5
2B9
100
AcDbEntity
  8
0
100
AcDbLine
 62
7
  6
CONTINUOUS
 10
-247.35
 20
-137.5937234472
 11
-246.65
 21
-137.5937234472
  0
LINE
  5
2BA
100
AcDbEntity
  8
0
100
AcDbLine
 62
7
  6
CONTINUOUS
 10
-81.35
 20
-137.5937234472
 11
-80.65
 21
-137.5937234472
  0
LINE
  5
2BB
100
AcDbEntity
  8
0
100
AcDbLine
 62
7
  6
CONTINUOUS
 10
80.65
 20
-137.5937234472
 11
81.35
 21
-137.5937234472
  0
LINE
  5
2BC
100
AcDbEntity
  8
0
100
AcDbLine
 62
7
  6
CONTINUOUS
 10
246.65
 20
-137.5937234472
 11
247.35
 21
-137.5937234472
  0
LINE
  5
2BD
100
AcDbEntity
  8
0
100
AcDbLine
 62
7
  6
CONTINUOUS
 10
247.35
 20
-137.145
 11
246.65
 21
-137.145
  0
LINE
  5
2BE
100
AcDbEntity
  8
0
100
AcDbLine
 62
7
  6
CONTINUOUS
 10
81.35
 20
-137.145
 11
80.65
 21
-137.145
  0
LINE
  5
2BF
100
AcDbEntity
  8
0
100
AcDbLine
 62
7
  6
CONTINUOUS
 10
-80.65
 20
-137.145
 11
-81.35
 21
-137.145
  0
LINE
  5
2C0
100
AcDbEntity
  8
0
100
AcDbLine
 62
7
  6
CONTINUOUS
 10
-246.65
 20
-137.145
 11
-247.35
 21
-137.145
  0
LINE
  5
2C1
100
AcDbEntity
  8
0
100
AcDbLine
 62
7
  6
CONTINUOUS
 10
248.9418577643
 20
-136.35
 11
248.0901949367
 21
-136.35
  0
LINE
  5
2C2
100
AcDbEntity
  8
0
100
AcDbLine
 62
7
  6
CONTINUOUS
 10
245.9098050633
 20
-136.35
 11
245.0581422357
 21
-136.35
  0
LINE
  5
2C3
100
AcDbEntity
  8
0
100
AcDbLine
 62
7
  6
CONTINUOUS
 10
82.9418577643
 20
-136.35
 11
82.0901949367
 21
-136.35
  0
LINE
  5
2C4
100
AcDbEntity
  8
0
100
AcDbLine
 62
7
  6
CONTINUOUS
 10
79.9098050633
 20
-136.35
 11
79.0581422357
 21
-136.35
  0
LINE
  5
2C5
100
AcDbEntity
  8
0
100
AcDbLine
 62
7
  6
CONTINUOUS
 10
-79.0581422357
 20
-136.35
 11
-79.9098050633
 21
-136.35
  0
LINE
  5
2C6
100
AcDbEntity
  8
0
100
AcDbLine
 62
7
  6
CONTINUOUS
 10
-82.0901949367
 20
-136.35
 11
-82.9418577643
 21
-136.35
  0
LINE
  5
2C7
100
AcDbEntity
  8
0
100
AcDbLine
 62
7
  6
CONTINUOUS
 10
-245.0581422357
 20
-136.35
 11
-245.9098050633
 21
-136.35
  0
LINE
  5
2C8
100
AcDbEntity
  8
0
100
AcDbLine
 62
7
  6
CONTINUOUS
 10
-248.0901949367
 20
-136.35
 11
-248.9418577643
 21
-136.35
  0
LINE
  5
2C9
100
AcDbEntity
  8
0
100
AcDbLine
 62
7
  6
CONTINUOUS
 10
248.9418577643
 20
-135.65
 11
248.0901949367
 21
-135.65
  0
LINE
  5
2CA
100
AcDbEntity
  8
0
100
AcDbLine
 62
7
  6
CONTINUOUS
 10
245.9098050633
 20
-135.65
 11
245.0581422357
 21
-135.65
  0
LINE
  5
2CB
100
AcDbEntity
  8
0
100
AcDbLine
 62
7
  6
CONTINUOUS
 10
82.9418577643
 20
-135.65
 11
82.0901949367
 21
-135.65
  0
LINE
  5
2CC
100
AcDbEntity
  8
0
100
AcDbLine
 62
7
  6
CONTINUOUS
 10
79.9098050633
 20
-135.65
 11
79.0581422357
 21
-135.65
  0
LINE
  5
2CD
100
AcDbEntity
  8
0
100
AcDbLine
 62
7
  6
CONTINUOUS
 10
-79.0581422357
 20
-135.65
 11
-79.9098050633
 21
-135.65
  0
LINE
  5
2CE
100
AcDbEntity
  8
0
100
AcDbLine
 62
7
  6
CONTINUOUS
 10
-82.0901949367
 20
-135.65
 11
-82.9418577643
 21
-135.65
  0
LINE
  5
2CF
100
AcDbEntity
  8
0
100
AcDbLine
 62
7
  6
CONTINUOUS
 10
-245.0581422357
 20
-135.65
 11
-245.9098050633
 21
-135.65
  0
LINE
  5
2D0
100
AcDbEntity
  8
0
100
AcDbLine
 62
7
  6
CONTINUOUS
 10
-248.0901949367
 20
-135.65
 11
-248.9418577643
 21
-135.65
  0
LINE
  5
2D1
100
AcDbEntity
  8
0
100
AcDbLine
 62
7
  6
CONTINUOUS
 10
-247.35
 20
-134.855
 11
-246.65
 21
-134.855
  0
LINE
  5
2D2
100
AcDbEntity
  8
0
100
AcDbLine
 62
7
  6
CONTINUOUS
 10
-81.35
 20
-134.855
 11
-80.65
 21
-134.855
  0
LINE
  5
2D3
100
AcDbEntity
  8
0
100
AcDbLine
 62
7
  6
CONTINUOUS
 10
80.65
 20
-134.855
 11
81.35
 21
-134.855
  0
LINE
  5
2D4
100
AcDbEntity
  8
0
100
AcDbLine
 62
7
  6
CONTINUOUS
 10
246.65
 20
-134.855
 11
247.35
 21
-134.855
  0
LINE
  5
2D5
100
AcDbEntity
  8
0
100
AcDbLine
 62
7
  6
CONTINUOUS
 10
-247.35
 20
-134.4062765528
 11
-246.65
 21
-134.4062765528
  0
LINE
  5
2D6
100
AcDbEntity
  8
0
100
AcDbLine
 62
7
  6
CONTINUOUS
 10
-81.35
 20
-134.4062765528
 11
-80.65
 21
-134.4062765528
  0
LINE
  5
2D7
100
AcDbEntity
  8
0
100
AcDbLine
 62
7
  6
CONTINUOUS
 10
80.65
 20
-134.4062765528
 11
81.35
 21
-134.4062765528
  0
LINE
  5
2D8
100
AcDbEntity
  8
0
100
AcDbLine
 62
7
  6
CONTINUOUS
 10
246.65
 20
-134.4062765528
 11
247.35
 21
-134.4062765528
  0
LINE
  5
2D9
100
AcDbEntity
  8
0
100
AcDbLine
 62
7
  6
CONTINUOUS
 10
-81.5197234842
 20
136.5197234842
 11
-81.35
 21
137.0901949367
  0
LINE
  5
2DA
100
AcDbEntity
  8
0
100
AcDbLine
 62
7
  6
CONTINUOUS
 10
-80.65
 20
134.9098050633
 11
-80.4802765158
 21
135.4802765158
  0
LINE
  5
2DB
100
AcDbEntity
  8
0
100
AcDbLine
 62
7
  6
CONTINUOUS
 10
79.9098050633
 20
136.35
 11
80.4802765158
 21
136.5197234842
  0
LINE
  5
2DC
100
AcDbEntity
  8
0
100
AcDbLine
 62
7
  6
CONTINUOUS
 10
82.0901949367
 20
135.65
 11
81.5197234842
 21
135.4802765158
  0
LINE
  5
2DD
100
AcDbEntity
  8
0
100
AcDbLine
 62
7
  6
CONTINUOUS
 10
80.4802765158
 20
-136.5197234842
 11
79.9098050633
 21
-136.35
  0
LINE
  5
2DE
100
AcDbEntity
  8
0
100
AcDbLine
 62
7
  6
CONTINUOUS
 10
81.5197234842
 20
-135.4802765158
 11
82.0901949367
 21
-135.65
  0
LINE
  5
2DF
100
AcDbEntity
  8
0
100
AcDbLine
 62
7
  6
CONTINUOUS
 10
-81.5197234842
 20
-136.5197234842
 11
-81.35
 21
-137.0901949367
  0
LINE
  5
2E0
100
AcDbEntity
  8
0
100
AcDbLine
 62
7
  6
CONTINUOUS
 10
-80.65
 20
-134.9098050633
 11
-80.4802765158
 21
-135.4802765158
  0
LINE
  5
2E1
100
AcDbEntity
  8
0
100
AcDbLine
 62
7
  6
CONTINUOUS
 10
-82.145
 20
-136.35
 11
-82.145
 21
-135.65
  0
LINE
  5
2E2
100
AcDbEntity
  8
0
100
AcDbLine
 62
7
  6
CONTINUOUS
 10
-82.145
 20
135.65
 11
-82.145
 21
136.35
  0
LINE
  5
2E3
100
AcDbEntity
  8
0
100
AcDbLine
 62
7
  6
CONTINUOUS
 10
-81.5
 20
-138.7041634566
 11
-81.5
 21
-136.5860176963
  0
LINE
  5
2E4
100
AcDbEntity
  8
0
100
AcDbLine
 62
7
  6
CONTINUOUS
 10
-81.5
 20
-135.4139823037
 11
-81.5
 21
-133.2958365434
  0
LINE
  5
2E5
100
AcDbEntity
  8
0
100
AcDbLine
 62
7
  6
CONTINUOUS
 10
-81.5
 20
133.2958365434
 11
-81.5
 21
135.4139823037
  0
LINE
  5
2E6
100
AcDbEntity
  8
0
100
AcDbLine
 62
7
  6
CONTINUOUS
 10
-81.5
 20
136.5860176963
 11
-81.5
 21
138.7041634566
  0
LINE
  5
2E7
100
AcDbEntity
  8
0
100
AcDbLine
 62
7
  6
CONTINUOUS
 10
-81.35
 20
-137.5937234472
 11
-81.35
 21
-137.0901949367
  0
LINE
  5
2E8
100
AcDbEntity
  8
0
100
AcDbLine
 62
7
  6
CONTINUOUS
 10
-81.35
 20
-134.9098050633
 11
-81.35
 21
-134.4062765528
  0
LINE
  5
2E9
100
AcDbEntity
  8
0
100
AcDbLine
 62
7
  6
CONTINUOUS
 10
-81.35
 20
134.4062765528
 11
-81.35
 21
134.9098050633
  0
LINE
  5
2EA
100
AcDbEntity
  8
0
100
AcDbLine
 62
7
  6
CONTINUOUS
 10
-81.35
 20
137.0901949367
 11
-81.35
 21
137.5937234472
  0
LINE
  5
2EB
100
AcDbEntity
  8
0
100
AcDbLine
 62
7
  6
CONTINUOUS
 10
-80.65
 20
-137.5937234472
 11
-80.65
 21
-137.0901949367
  0
LINE
  5
2EC
100
AcDbEntity
  8
0
100
AcDbLine
 62
7
  6
CONTINUOUS
 10
-80.65
 20
-134.9098050633
 11
-80.65
 21
-134.4062765528
  0
LINE
  5
2ED
100
AcDbEntity
  8
0
100
AcDbLine
 62
7
  6
CONTINUOUS
 10
-80.65
 20
134.4062765528
 11
-80.65
 21
134.9098050633
  0
LINE
  5
2EE
100
AcDbEntity
  8
0
100
AcDbLine
 62
7
  6
CONTINUOUS
 10
-80.65
 20
137.0901949367
 11
-80.65
 21
137.5937234472
  0
LINE
  5
2EF
100
AcDbEntity
  8
0
100
AcDbLine
 62
7
  6
CONTINUOUS
 10
-80.5
 20
138.7041634566
 11
-80.5
 21
136.5860176963
  0
LINE
  5
2F0
100
AcDbEntity
  8
0
100
AcDbLine
 62
7
  6
CONTINUOUS
 10
-80.5
 20
135.4139823037
 11
-80.5
 21
133.2958365434
  0
LINE
  5
2F1
100
AcDbEntity
  8
0
100
AcDbLine
 62
7
  6
CONTINUOUS
 10
-80.5
 20
-133.2958365434
 11
-80.5
 21
-135.4139823037
  0
LINE
  5
2F2
100
AcDbEntity
  8
0
100
AcDbLine
 62
7
  6
CONTINUOUS
 10
-80.5
 20
-136.5860176963
 11
-80.5
 21
-138.7041634566
  0
LINE
  5
2F3
100
AcDbEntity
  8
0
100
AcDbLine
 62
7
  6
CONTINUOUS
 10
-79.855
 20
136.35
 11
-79.855
 21
135.65
  0
LINE
  5
2F4
100
AcDbEntity
  8
0
100
AcDbLine
 62
7
  6
CONTINUOUS
 10
-79.855
 20
-135.65
 11
-79.855
 21
-136.35
  0
LINE
  5
2F5
100
AcDbEntity
  8
0
100
AcDbLine
 62
7
  6
CONTINUOUS
 10
245.9098050633
 20
136.35
 11
246.4802765158
 21
136.5197234842
  0
LINE
  5
2F6
100
AcDbEntity
  8
0
100
AcDbLine
 62
7
  6
CONTINUOUS
 10
248.0901949367
 20
135.65
 11
247.5197234842
 21
135.4802765158
  0
LINE
  5
2F7
100
AcDbEntity
  8
0
100
AcDbLine
 62
7
  6
CONTINUOUS
 10
246.4802765158
 20
-136.5197234842
 11
245.9098050633
 21
-136.35
  0
LINE
  5
2F8
100
AcDbEntity
  8
0
100
AcDbLine
 62
7
  6
CONTINUOUS
 10
247.5197234842
 20
-135.4802765158
 11
248.0901949367
 21
-135.65
  0
LINE
  5
2F9
100
AcDbEntity
  8
0
100
AcDbLine
 62
7
  6
CONTINUOUS
 10
-81.35
 20
-134.9098050633
 11
-81.5197234842
 21
-135.4802765158
  0
LINE
  5
2FA
100
AcDbEntity
  8
0
100
AcDbLine
 62
7
  6
CONTINUOUS
 10
-81.35
 20
134.9098050633
 11
-81.5197234842
 21
135.4802765158
  0
LINE
  5
2FB
100
AcDbEntity
  8
0
100
AcDbLine
 62
7
  6
CONTINUOUS
 10
-80.4802765158
 20
-136.5197234842
 11
-80.65
 21
-137.0901949367
  0
LINE
  5
2FC
100
AcDbEntity
  8
0
100
AcDbLine
 62
7
  6
CONTINUOUS
 10
-80.4802765158
 20
136.5197234842
 11
-80.65
 21
137.0901949367
  0
LINE
  5
2FD
100
AcDbEntity
  8
0
100
AcDbLine
 62
7
  6
CONTINUOUS
 10
80.4802765158
 20
136.5197234842
 11
80.65
 21
137.0901949367
  0
LINE
  5
2FE
100
AcDbEntity
  8
0
100
AcDbLine
 62
7
  6
CONTINUOUS
 10
81.35
 20
134.9098050633
 11
81.5197234842
 21
135.4802765158
  0
LINE
  5
2FF
100
AcDbEntity
  8
0
100
AcDbLine
 62
7
  6
CONTINUOUS
 10
80.4802765158
 20
-136.5197234842
 11
80.65
 21
-137.0901949367
  0
LINE
  5
300
100
AcDbEntity
  8
0
100
AcDbLine
 62
7
  6
CONTINUOUS
 10
81.35
 20
-134.9098050633
 11
81.5197234842
 21
-135.4802765158
  0
LINE
  5
301
100
AcDbEntity
  8
0
100
AcDbLine
 62
7
  6
CONTINUOUS
 10
-248.0901949367
 20
-135.65
 11
-247.5197234842
 21
-135.4802765158
  0
LINE
  5
302
100
AcDbEntity
  8
0
100
AcDbLine
 62
7
  6
CONTINUOUS
 10
-245.9098050633
 20
-136.35
 11
-246.4802765158
 21
-136.5197234842
  0
LINE
  5
303
100
AcDbEntity
  8
0
100
AcDbLine
 62
7
  6
CONTINUOUS
 10
-247.5197234842
 20
135.4802765158
 11
-248.0901949367
 21
135.65
  0
LINE
  5
304
100
AcDbEntity
  8
0
100
AcDbLine
 62
7
  6
CONTINUOUS
 10
-246.4802765158
 20
136.5197234842
 11
-245.9098050633
 21
136.35
  0
LINE
  5
305
100
AcDbEntity
  8
0
100
AcDbLine
 62
7
  6
CONTINUOUS
 10
79.855
 20
-136.35
 11
79.855
 21
-135.65
  0
LINE
  5
306
100
AcDbEntity
  8
0
100
AcDbLine
 62
7
  6
CONTINUOUS
 10
79.855
 20
135.65
 11
79.855
 21
136.35
  0
LINE
  5
307
100
AcDbEntity
  8
0
100
AcDbLine
 62
7
  6
CONTINUOUS
 10
80.5
 20
-138.7041634566
 11
80.5
 21
-136.5860176963
  0
LINE
  5
308
100
AcDbEntity
  8
0
100
AcDbLine
 62
7
  6
CONTINUOUS
 10
80.5
 20
-135.4139823037
 11
80.5
 21
-133.2958365434
  0
LINE
  5
309
100
AcDbEntity
  8
0
100
AcDbLine
 62
7
  6
CONTINUOUS
 10
80.5
 20
133.2958365434
 11
80.5
 21
135.4139823037
  0
LINE
  5
30A
100
AcDbEntity
  8
0
100
AcDbLine
 62
7
  6
CONTINUOUS
 10
80.5
 20
136.5860176963
 11
80.5
 21
138.7041634566
  0
LINE
  5
30B
100
AcDbEntity
  8
0
100
AcDbLine
 62
7
  6
CONTINUOUS
 10
80.65
 20
-137.5937234472
 11
80.65
 21
-137.0901949367
  0
LINE
  5
30C
100
AcDbEntity
  8
0
100
AcDbLine
 62
7
  6
CONTINUOUS
 10
80.65
 20
-134.9098050633
 11
80.65
 21
-134.4062765528
  0
LINE
  5
30D
100
AcDbEntity
  8
0
100
AcDbLine
 62
7
  6
CONTINUOUS
 10
80.65
 20
134.4062765528
 11
80.65
 21
134.9098050633
  0
LINE
  5
30E
100
AcDbEntity
  8
0
100
AcDbLine
 62
7
  6
CONTINUOUS
 10
80.65
 20
137.0901949367
 11
80.65
 21
137.5937234472
  0
LINE
  5
30F
100
AcDbEntity
  8
0
100
AcDbLine
 62
7
  6
CONTINUOUS
 10
81.35
 20
-137.5937234472
 11
81.35
 21
-137.0901949367
  0
LINE
  5
310
100
AcDbEntity
  8
0
100
AcDbLine
 62
7
  6
CONTINUOUS
 10
81.35
 20
-134.9098050633
 11
81.35
 21
-134.4062765528
  0
LINE
  5
311
100
AcDbEntity
  8
0
100
AcDbLine
 62
7
  6
CONTINUOUS
 10
81.35
 20
134.4062765528
 11
81.35
 21
134.9098050633
  0
LINE
  5
312
100
AcDbEntity
  8
0
100
AcDbLine
 62
7
  6
CONTINUOUS
 10
81.35
 20
137.0901949367
 11
81.35
 21
137.5937234472
  0
LINE
  5
313
100
AcDbEntity
  8
0
100
AcDbLine
 62
7
  6
CONTINUOUS
 10
81.5
 20
138.7041634566
 11
81.5
 21
136.5860176963
  0
LINE
  5
314
100
AcDbEntity
  8
0
100
AcDbLine
 62
7
  6
CONTINUOUS
 10
81.5
 20
135.4139823037
 11
81.5
 21
133.2958365434
  0
LINE
  5
315
100
AcDbEntity
  8
0
100
AcDbLine
 62
7
  6
CONTINUOUS
 10
81.5
 20
-133.2958365434
 11
81.5
 21
-135.4139823037
  0
LINE
  5
316
100
AcDbEntity
  8
0
100
AcDbLine
 62
7
  6
CONTINUOUS
 10
81.5
 20
-136.5860176963
 11
81.5
 21
-138.7041634566
  0
LINE
  5
317
100
AcDbEntity
  8
0
100
AcDbLine
 62
7
  6
CONTINUOUS
 10
82.145
 20
136.35
 11
82.145
 21
135.65
  0
LINE
  5
318
100
AcDbEntity
  8
0
100
AcDbLine
 62
7
  6
CONTINUOUS
 10
82.145
 20
-135.65
 11
82.145
 21
-136.35
  0
LINE
  5
319
100
AcDbEntity
  8
0
100
AcDbLine
 62
7
  6
CONTINUOUS
 10
80.65
 20
-134.9098050633
 11
80.4802765158
 21
-135.4802765158
  0
LINE
  5
31A
100
AcDbEntity
  8
0
100
AcDbLine
 62
7
  6
CONTINUOUS
 10
81.5197234842
 20
-136.5197234842
 11
81.35
 21
-137.0901949367
  0
LINE
  5
31B
100
AcDbEntity
  8
0
100
AcDbLine
 62
7
  6
CONTINUOUS
 10
-82.0901949367
 20
-135.65
 11
-81.5197234842
 21
-135.4802765158
  0
LINE
  5
31C
100
AcDbEntity
  8
0
100
AcDbLine
 62
7
  6
CONTINUOUS
 10
-79.9098050633
 20
-136.35
 11
-80.4802765158
 21
-136.5197234842
  0
LINE
  5
31D
100
AcDbEntity
  8
0
100
AcDbLine
 62
7
  6
CONTINUOUS
 10
-81.5197234842
 20
135.4802765158
 11
-82.0901949367
 21
135.65
  0
LINE
  5
31E
100
AcDbEntity
  8
0
100
AcDbLine
 62
7
  6
CONTINUOUS
 10
-80.4802765158
 20
136.5197234842
 11
-79.9098050633
 21
136.35
  0
LINE
  5
31F
100
AcDbEntity
  8
0
100
AcDbLine
 62
7
  6
CONTINUOUS
 10
80.65
 20
134.9098050633
 11
80.4802765158
 21
135.4802765158
  0
LINE
  5
320
100
AcDbEntity
  8
0
100
AcDbLine
 62
7
  6
CONTINUOUS
 10
81.5197234842
 20
136.5197234842
 11
81.35
 21
137.0901949367
  0
LINE
  5
321
100
AcDbEntity
  8
0
100
AcDbLine
 62
7
  6
CONTINUOUS
 10
-247.35
 20
134.4062765528
 11
-246.65
 21
134.4062765528
  0
LINE
  5
322
100
AcDbEntity
  8
0
100
AcDbLine
 62
7
  6
CONTINUOUS
 10
-81.35
 20
134.4062765528
 11
-80.65
 21
134.4062765528
  0
LINE
  5
323
100
AcDbEntity
  8
0
100
AcDbLine
 62
7
  6
CONTINUOUS
 10
80.65
 20
134.4062765528
 11
81.35
 21
134.4062765528
  0
LINE
  5
324
100
AcDbEntity
  8
0
100
AcDbLine
 62
7
  6
CONTINUOUS
 10
246.65
 20
134.4062765528
 11
247.35
 21
134.4062765528
  0
LINE
  5
325
100
AcDbEntity
  8
0
100
AcDbLine
 62
7
  6
CONTINUOUS
 10
247.35
 20
134.855
 11
246.65
 21
134.855
  0
LINE
  5
326
100
AcDbEntity
  8
0
100
AcDbLine
 62
7
  6
CONTINUOUS
 10
81.35
 20
134.855
 11
80.65
 21
134.855
  0
LINE
  5
327
100
AcDbEntity
  8
0
100
AcDbLine
 62
7
  6
CONTINUOUS
 10
-80.65
 20
134.855
 11
-81.35
 21
134.855
  0
LINE
  5
328
100
AcDbEntity
  8
0
100
AcDbLine
 62
7
  6
CONTINUOUS
 10
-246.65
 20
134.855
 11
-247.35
 21
134.855
  0
LINE
  5
329
100
AcDbEntity
  8
0
100
AcDbLine
 62
7
  6
CONTINUOUS
 10
248.9418577643
 20
135.65
 11
248.0901949367
 21
135.65
  0
LINE
  5
32A
100
AcDbEntity
  8
0
100
AcDbLine
 62
7
  6
CONTINUOUS
 10
245.9098050633
 20
135.65
 11
245.0581422357
 21
135.65
  0
LINE
  5
32B
100
AcDbEntity
  8
0
100
AcDbLine
 62
7
  6
CONTINUOUS
 10
82.9418577643
 20
135.65
 11
82.0901949367
 21
135.65
  0
LINE
  5
32C
100
AcDbEntity
  8
0
100
AcDbLine
 62
7
  6
CONTINUOUS
 10
79.9098050633
 20
135.65
 11
79.0581422357
 21
135.65
  0
LINE
  5
32D
100
AcDbEntity
  8
0
100
AcDbLine
 62
7
  6
CONTINUOUS
 10
-79.0581422357
 20
135.65
 11
-79.9098050633
 21
135.65
  0
LINE
  5
32E
100
AcDbEntity
  8
0
100
AcDbLine
 62
7
  6
CONTINUOUS
 10
-82.0901949367
 20
135.65
 11
-82.9418577643
 21
135.65
  0
LINE
  5
32F
100
AcDbEntity
  8
0
100
AcDbLine
 62
7
  6
CONTINUOUS
 10
-245.0581422357
 20
135.65
 11
-245.9098050633
 21
135.65
  0
LINE
  5
330
100
AcDbEntity
  8
0
100
AcDbLine
 62
7
  6
CONTINUOUS
 10
-248.0901949367
 20
135.65
 11
-248.9418577643
 21
135.65
  0
LINE
  5
331
100
AcDbEntity
  8
0
100
AcDbLine
 62
7
  6
CONTINUOUS
 10
248.9418577643
 20
136.35
 11
248.0901949367
 21
136.35
  0
LINE
  5
332
100
AcDbEntity
  8
0
100
AcDbLine
 62
7
  6
CONTINUOUS
 10
245.9098050633
 20
136.35
 11
245.0581422357
 21
136.35
  0
LINE
  5
333
100
AcDbEntity
  8
0
100
AcDbLine
 62
7
  6
CONTINUOUS
 10
82.9418577643
 20
136.35
 11
82.0901949367
 21
136.35
  0
LINE
  5
334
100
AcDbEntity
  8
0
100
AcDbLine
 62
7
  6
CONTINUOUS
 10
79.9098050633
 20
136.35
 11
79.0581422357
 21
136.35
  0
LINE
  5
335
100
AcDbEntity
  8
0
100
AcDbLine
 62
7
  6
CONTINUOUS
 10
-79.0581422357
 20
136.35
 11
-79.9098050633
 21
136.35
  0
LINE
  5
336
100
AcDbEntity
  8
0
100
AcDbLine
 62
7
  6
CONTINUOUS
 10
-82.0901949367
 20
136.35
 11
-82.9418577643
 21
136.35
  0
LINE
  5
337
100
AcDbEntity
  8
0
100
AcDbLine
 62
7
  6
CONTINUOUS
 10
-245.0581422357
 20
136.35
 11
-245.9098050633
 21
136.35
  0
LINE
  5
338
100
AcDbEntity
  8
0
100
AcDbLine
 62
7
  6
CONTINUOUS
 10
-248.0901949367
 20
136.35
 11
-248.9418577643
 21
136.35
  0
LINE
  5
339
100
AcDbEntity
  8
0
100
AcDbLine
 62
7
  6
CONTINUOUS
 10
-247.35
 20
137.145
 11
-246.65
 21
137.145
  0
LINE
  5
33A
100
AcDbEntity
  8
0
100
AcDbLine
 62
7
  6
CONTINUOUS
 10
-81.35
 20
137.145
 11
-80.65
 21
137.145
  0
LINE
  5
33B
100
AcDbEntity
  8
0
100
AcDbLine
 62
7
  6
CONTINUOUS
 10
80.65
 20
137.145
 11
81.35
 21
137.145
  0
LINE
  5
33C
100
AcDbEntity
  8
0
100
AcDbLine
 62
7
  6
CONTINUOUS
 10
246.65
 20
137.145
 11
247.35
 21
137.145
  0
LINE
  5
33D
100
AcDbEntity
  8
0
100
AcDbLine
 62
7
  6
CONTINUOUS
 10
-247.35
 20
137.5937234472
 11
-246.65
 21
137.5937234472
  0
LINE
  5
33E
100
AcDbEntity
  8
0
100
AcDbLine
 62
7
  6
CONTINUOUS
 10
-81.35
 20
137.5937234472
 11
-80.65
 21
137.5937234472
  0
LINE
  5
33F
100
AcDbEntity
  8
0
100
AcDbLine
 62
7
  6
CONTINUOUS
 10
80.65
 20
137.5937234472
 11
81.35
 21
137.5937234472
  0
LINE
  5
340
100
AcDbEntity
  8
0
100
AcDbLine
 62
7
  6
CONTINUOUS
 10
246.65
 20
137.5937234472
 11
247.35
 21
137.5937234472
  0
LINE
  5
341
100
AcDbEntity
  8
RACCORDO
100
AcDbLine
 62
253
  6
CONTINUOUS
 10
-265.0
 20
146.0
 11
-267.0
 21
146.0
  0
LINE
  5
342
100
AcDbEntity
  8
RACCORDO
100
AcDbLine
 62
253
  6
CONTINUOUS
 10
265.0
 20
146.0
 11
267.0
 21
145.9999999624
  0
LINE
  5
343
100
AcDbEntity
  8
0
100
AcDbLine
 62
7
  6
CONTINUOUS
 10
79.9098050633
 20
-135.65
 11
80.4802765158
 21
-135.4802765158
  0
LINE
  5
344
100
AcDbEntity
  8
0
100
AcDbLine
 62
7
  6
CONTINUOUS
 10
82.0901949367
 20
-136.35
 11
81.5197234842
 21
-136.5197234842
  0
LINE
  5
345
100
AcDbEntity
  8
RACCORDO
100
AcDbLine
 62
253
  6
CONTINUOUS
 10
257.0
 20
154.0
 11
-257.0
 21
154.0
  0
LINE
  5
346
100
AcDbEntity
  8
RACCORDO
100
AcDbLine
 62
7
  6
CONTINUOUS
 10
257.0
 20
156.0
 11
-257.0
 21
156.0
  0
LINE
  5
347
100
AcDbEntity
  8
0
100
AcDbLine
 62
7
  6
CONTINUOUS
 10
80.4802765158
 20
135.4802765158
 11
79.9098050633
 21
135.65
  0
LINE
  5
348
100
AcDbEntity
  8
0
100
AcDbLine
 62
7
  6
CONTINUOUS
 10
81.5197234842
 20
136.5197234842
 11
82.0901949367
 21
136.35
  0
LINE
  5
349
100
AcDbEntity
  8
0
100
AcDbLine
 62
7
  6
CONTINUOUS
 10
246.4802765158
 20
136.5197234842
 11
246.65
 21
137.0901949367
  0
LINE
  5
34A
100
AcDbEntity
  8
0
100
AcDbLine
 62
7
  6
CONTINUOUS
 10
247.35
 20
134.9098050633
 11
247.5197234842
 21
135.4802765158
  0
LINE
  5
34B
100
AcDbEntity
  8
0
100
AcDbLine
 62
7
  6
CONTINUOUS
 10
245.9098050633
 20
-135.65
 11
246.4802765158
 21
-135.4802765158
  0
LINE
  5
34C
100
AcDbEntity
  8
0
100
AcDbLine
 62
7
  6
CONTINUOUS
 10
248.0901949367
 20
-136.35
 11
247.5197234842
 21
-136.5197234842
  0
LINE
  5
34D
100
AcDbEntity
  8
0
100
AcDbLine
 62
7
  6
CONTINUOUS
 10
246.4802765158
 20
135.4802765158
 11
245.9098050633
 21
135.65
  0
LINE
  5
34E
100
AcDbEntity
  8
0
100
AcDbLine
 62
7
  6
CONTINUOUS
 10
247.5197234842
 20
136.5197234842
 11
248.0901949367
 21
136.35
  0
LINE
  5
34F
100
AcDbEntity
  8
0
100
AcDbLine
 62
7
  6
CONTINUOUS
 10
246.4802765158
 20
-136.5197234842
 11
246.65
 21
-137.0901949367
  0
LINE
  5
350
100
AcDbEntity
  8
0
100
AcDbLine
 62
7
  6
CONTINUOUS
 10
247.35
 20
-134.9098050633
 11
247.5197234842
 21
-135.4802765158
  0
LINE
  5
351
100
AcDbEntity
  8
0
100
AcDbLine
 62
7
  6
CONTINUOUS
 10
245.855
 20
-136.35
 11
245.855
 21
-135.65
  0
LINE
  5
352
100
AcDbEntity
  8
0
100
AcDbLine
 62
7
  6
CONTINUOUS
 10
245.855
 20
135.65
 11
245.855
 21
136.35
  0
LINE
  5
353
100
AcDbEntity
  8
0
100
AcDbLine
 62
7
  6
CONTINUOUS
 10
246.5
 20
-138.7041634566
 11
246.5
 21
-136.5860176963
  0
LINE
  5
354
100
AcDbEntity
  8
0
100
AcDbLine
 62
7
  6
CONTINUOUS
 10
246.5
 20
-135.4139823037
 11
246.5
 21
-133.2958365434
  0
LINE
  5
355
100
AcDbEntity
  8
0
100
AcDbLine
 62
7
  6
CONTINUOUS
 10
246.5
 20
133.2958365434
 11
246.5
 21
135.4139823037
  0
LINE
  5
356
100
AcDbEntity
  8
0
100
AcDbLine
 62
7
  6
CONTINUOUS
 10
246.5
 20
136.5860176963
 11
246.5
 21
138.7041634566
  0
LINE
  5
357
100
AcDbEntity
  8
0
100
AcDbLine
 62
7
  6
CONTINUOUS
 10
246.65
 20
-137.5937234472
 11
246.65
 21
-137.0901949367
  0
LINE
  5
358
100
AcDbEntity
  8
0
100
AcDbLine
 62
7
  6
CONTINUOUS
 10
246.65
 20
-134.9098050633
 11
246.65
 21
-134.4062765528
  0
LINE
  5
359
100
AcDbEntity
  8
0
100
AcDbLine
 62
7
  6
CONTINUOUS
 10
246.65
 20
134.4062765528
 11
246.65
 21
134.9098050633
  0
LINE
  5
35A
100
AcDbEntity
  8
0
100
AcDbLine
 62
7
  6
CONTINUOUS
 10
246.65
 20
137.0901949367
 11
246.65
 21
137.5937234472
  0
LINE
  5
35B
100
AcDbEntity
  8
0
100
AcDbLine
 62
7
  6
CONTINUOUS
 10
247.35
 20
-137.5937234472
 11
247.35
 21
-137.0901949367
  0
LINE
  5
35C
100
AcDbEntity
  8
0
100
AcDbLine
 62
7
  6
CONTINUOUS
 10
247.35
 20
-134.9098050633
 11
247.35
 21
-134.4062765528
  0
LINE
  5
35D
100
AcDbEntity
  8
0
100
AcDbLine
 62
7
  6
CONTINUOUS
 10
247.35
 20
134.4062765528
 11
247.35
 21
134.9098050633
  0
LINE
  5
35E
100
AcDbEntity
  8
0
100
AcDbLine
 62
7
  6
CONTINUOUS
 10
247.35
 20
137.0901949367
 11
247.35
 21
137.5937234472
  0
LINE
  5
35F
100
AcDbEntity
  8
0
100
AcDbLine
 62
7
  6
CONTINUOUS
 10
247.5
 20
138.7041634566
 11
247.5
 21
136.5860176963
  0
LINE
  5
360
100
AcDbEntity
  8
0
100
AcDbLine
 62
7
  6
CONTINUOUS
 10
247.5
 20
135.4139823037
 11
247.5
 21
133.2958365434
  0
LINE
  5
361
100
AcDbEntity
  8
0
100
AcDbLine
 62
7
  6
CONTINUOUS
 10
247.5
 20
-133.2958365434
 11
247.5
 21
-135.4139823037
  0
LINE
  5
362
100
AcDbEntity
  8
0
100
AcDbLine
 62
7
  6
CONTINUOUS
 10
247.5
 20
-136.5860176963
 11
247.5
 21
-138.7041634566
  0
LINE
  5
363
100
AcDbEntity
  8
0
100
AcDbLine
 62
7
  6
CONTINUOUS
 10
248.145
 20
136.35
 11
248.145
 21
135.65
  0
LINE
  5
364
100
AcDbEntity
  8
0
100
AcDbLine
 62
7
  6
CONTINUOUS
 10
248.145
 20
-135.65
 11
248.145
 21
-136.35
  0
LINE
  5
365
100
AcDbEntity
  8
RACCORDO
100
AcDbLine
 62
253
  6
CONTINUOUS
 10
257.0
 20
-154.0
 11
256.9999999624
 21
-156.0
  0
LINE
  5
366
100
AcDbEntity
  8
RACCORDO
100
AcDbLine
 62
253
  6
CONTINUOUS
 10
257.0
 20
154.0
 11
257.0
 21
156.0
  0
LINE
  5
367
100
AcDbEntity
  8
RACCORDO
100
AcDbLine
 62
253
  6
CONTINUOUS
 10
265.0
 20
-146.0
 11
265.0
 21
146.0
  0
LINE
  5
368
100
AcDbEntity
  8
RACCORDO
100
AcDbLine
 62
7
  6
CONTINUOUS
 10
267.0
 20
-146.0
 11
267.0
 21
146.0
  0
LINE
  5
369
100
AcDbEntity
  8
0
100
AcDbLine
 62
7
  6
CONTINUOUS
 10
246.65
 20
-134.9098050633
 11
246.4802765158
 21
-135.4802765158
  0
LINE
  5
36A
100
AcDbEntity
  8
0
100
AcDbLine
 62
7
  6
CONTINUOUS
 10
247.5197234842
 20
-136.5197234842
 11
247.35
 21
-137.0901949367
  0
LINE
  5
36B
100
AcDbEntity
  8
0
100
AcDbLine
 62
7
  6
CONTINUOUS
 10
246.65
 20
134.9098050633
 11
246.4802765158
 21
135.4802765158
  0
LINE
  5
36C
100
AcDbEntity
  8
0
100
AcDbLine
 62
7
  6
CONTINUOUS
 10
247.5197234842
 20
136.5197234842
 11
247.35
 21
137.0901949367
  0
LINE
  5
36D
100
AcDbEntity
  8
RACCORDO
100
AcDbLine
 62
7
  6
CONTINUOUS
 10
-432.1331381842
 20
153.6916354183
 11
-435.1510694727
 21
151.9492319764
  0
LINE
  5
36E
100
AcDbEntity
  8
RACCORDO
100
AcDbLine
 62
7
  6
CONTINUOUS
 10
-418.6336170663
 20
-153.9473301723
 11
-421.6510694727
 21
-154.0
  0
LINE
  5
36F
100
AcDbEntity
  8
DRAFT
100
AcDbLine
 62
7
  6
CONTINUOUS
 10
-418.6336170663
 20
-153.9473301723
 11
-421.6510694727
 21
-154.0
  0
LINE
  5
370
100
AcDbEntity
  8
RACCORDO
100
AcDbLine
 62
7
  6
CONTINUOUS
 10
-435.6510694727
 20
-156.0
 11
-439.8510694727
 21
-156.0
  0
LINE
  5
371
100
AcDbEntity
  8
DRAFT
100
AcDbLine
 62
7
  6
CONTINUOUS
 10
-432.9510694727
 20
-153.5
 11
-432.4650604651
 21
-153.5
  0
LINE
  5
372
100
AcDbEntity
  8
RACCORDO
100
AcDbLine
 62
253
  6
CONTINUOUS
 10
-434.6685218792
 20
-151.0832065726
 11
-435.6510694727
 21
-151.0832065726
  0
LINE
  5
373
100
AcDbEntity
  8
RACCORDO
100
AcDbLine
 62
7
  6
CONTINUOUS
 10
-421.6510694727
 20
-154.0
 11
-431.6505905906
 21
-153.8254577096
  0
LINE
  5
374
100
AcDbEntity
  8
DRAFT
100
AcDbLine
 62
7
  6
CONTINUOUS
 10
-421.6510694727
 20
-154.0
 11
-423.159795676
 21
-153.9736650862
  0
LINE
  5
375
100
AcDbEntity
  8
RACCORDO
100
AcDbLine
 62
253
  6
CONTINUOUS
 10
-431.6505905906
 20
-152.8256100145
 11
-423.6510694727
 21
-152.965242175
  0
LINE
  5
376
100
AcDbEntity
  8
RACCORDO
100
AcDbLine
 62
7
  6
CONTINUOUS
 10
-435.1510695204
 20
-151.9492319489
 11
-432.1331381842
 21
-153.6916354183
  0
LINE
  5
377
100
AcDbEntity
  8
RACCORDO
100
AcDbLine
 62
253
  6
CONTINUOUS
 10
-431.6505905906
 20
152.8256100145
 11
-434.6685218792
 21
151.0832065726
  0
LINE
  5
378
100
AcDbEntity
  8
DRAFT
100
AcDbLine
 62
7
  6
CONTINUOUS
 10
-423.6510694727
 20
151.8
 11
-433.1002292094
 21
146.3445250824
  0
LINE
  5
379
100
AcDbEntity
  8
DRAFT
100
AcDbLine
 62
7
  6
CONTINUOUS
 10
-431.6420077954
 20
143.1232266702
 11
-423.6510694727
 21
146.4841424932
  0
LINE
  5
37A
100
AcDbEntity
  8
DRAFT
100
AcDbLine
 62
7
  6
CONTINUOUS
 10
-431.6420077954
 20
142.3536280459
 11
-423.6510694727
 21
145.5172860418
  0
LINE
  5
37B
100
AcDbEntity
  8
DRAFT
100
AcDbLine
 62
7
  6
CONTINUOUS
 10
-417.6510694727
 20
-143.6858088313
 11
-367.1510694727
 21
-142.8043280524
  0
LINE
  5
37C
100
AcDbEntity
  8
RACCORDO
100
AcDbLine
 62
7
  6
CONTINUOUS
 10
-367.1510694727
 20
-142.8043280524
 11
-360.0725336438
 21
-142.6807717499
  0
LINE
  5
37D
100
AcDbEntity
  8
RACCORDO
100
AcDbLine
 62
253
  6
CONTINUOUS
 10
-367.1475472327
 20
-141.6040837778
 11
-360.0934765315
 21
-141.4809545157
  0
LINE
  5
37E
100
AcDbEntity
  8
DRAFT
100
AcDbLine
 62
7
  6
CONTINUOUS
 10
-417.6510694727
 20
-140.3938990561
 11
-367.1510694727
 21
-139.5836249876
  0
LINE
  5
37F
100
AcDbEntity
  8
RACCORDO
100
AcDbLine
 62
7
  6
CONTINUOUS
 10
-358.4857068434
 20
-141.0304161093
 11
-367.1540132092
 21
-141.1211912308
  0
LINE
  5
380
100
AcDbEntity
  8
DRAFT
100
AcDbLine
 62
7
  6
CONTINUOUS
 10
-367.1510694727
 20
-141.4424952927
 11
-417.6510694727
 21
-141.8788232966
  0
LINE
  5
381
100
AcDbEntity
  8
DRAFT
100
AcDbLine
 62
7
  6
CONTINUOUS
 10
-387.9200686872
 20
-140.6947986779
 11
-367.1510694727
 21
-140.6016108903
  0
LINE
  5
382
100
AcDbEntity
  8
RACCORDO
100
AcDbLine
 62
253
  6
CONTINUOUS
 10
-435.6510694727
 20
-146.0
 11
-441.8510694727
 21
-146.0
  0
LINE
  5
383
100
AcDbEntity
  8
DRAFT
100
AcDbLine
 62
7
  6
CONTINUOUS
 10
-417.6510694727
 20
-140.4746444059
 11
-367.1510694727
 21
-140.8485904705
  0
LINE
  5
384
100
AcDbEntity
  8
DRAFT
100
AcDbLine
 62
7
  6
CONTINUOUS
 10
-423.6510694727
 20
-146.5094607791
 11
-435.6510694727
 21
-146.3
  0
LINE
  5
385
100
AcDbEntity
  8
DRAFT
100
AcDbLine
 62
7
  6
CONTINUOUS
 10
-431.6420077954
 20
-142.3536280459
 11
-423.6510694727
 21
-145.5172860418
  0
LINE
  5
386
100
AcDbEntity
  8
DRAFT
100
AcDbLine
 62
7
  6
CONTINUOUS
 10
-431.6420077954
 20
-143.1232266702
 11
-423.6510694727
 21
-146.4841424932
  0
LINE
  5
387
100
AcDbEntity
  8
RACCORDO
100
AcDbLine
 62
253
  6
CONTINUOUS
 10
-434.6685218792
 20
-151.0832065726
 11
-431.6505905906
 21
-152.8256100145
  0
LINE
  5
388
100
AcDbEntity
  8
DRAFT
100
AcDbLine
 62
7
  6
CONTINUOUS
 10
-433.1002292094
 20
-146.3445250824
 11
-423.6510694727
 21
-151.8
  0
LINE
  5
389
100
AcDbEntity
  8
RACCORDO
100
AcDbLine
 62
7
  6
CONTINUOUS
 10
-357.7510694727
 20
-128.6
 11
-417.6510694727
 21
-129.1227393807
  0
LINE
  5
38A
100
AcDbEntity
  8
DRAFT
100
AcDbLine
 62
7
  6
CONTINUOUS
 10
-417.6510694727
 20
-138.5869135214
 11
-367.1510694727
 21
-138.2217922278
  0
LINE
  5
38B
100
AcDbEntity
  8
RACCORDO
100
AcDbLine
 62
7
  6
CONTINUOUS
 10
-356.8447863161
 20
-130.4816161363
 11
-367.1510694727
 21
-130.5355802019
  0
LINE
  5
38C
100
AcDbEntity
  8
RACCORDO
100
AcDbLine
 62
253
  6
CONTINUOUS
 10
-360.0725336438
 20
-129.2986099445
 11
-367.1510694727
 21
-129.3356734101
  0
LINE
  5
38D
100
AcDbEntity
  8
DRAFT
100
AcDbLine
 62
253
  6
CONTINUOUS
 10
-423.6510694727
 20
-134.0
 11
-435.6510694727
 21
-134.0
  0
LINE
  5
38E
100
AcDbEntity
  8
RACCORDO
100
AcDbLine
 62
253
  6
CONTINUOUS
 10
-417.6510694727
 20
-132.0
 11
-423.6510694727
 21
-132.0
  0
LINE
  5
38F
100
AcDbEntity
  8
DRAFT
100
AcDbLine
 62
7
  6
CONTINUOUS
 10
-423.6510694727
 20
-129.1336707533
 11
-433.1002292094
 21
-128.9687350566
  0
LINE
  5
390
100
AcDbEntity
  8
DRAFT
100
AcDbLine
 62
7
  6
CONTINUOUS
 10
-423.6510694727
 20
-127.8663292467
 11
-433.1002292094
 21
-128.0312649434
  0
LINE
  5
391
100
AcDbEntity
  8
RACCORDO
100
AcDbLine
 62
7
  6
CONTINUOUS
 10
-357.7510694727
 20
-127.0
 11
-414.564159276
 21
-126.5041996765
  0
LINE
  5
392
100
AcDbEntity
  8
DRAFT
100
AcDbLine
 62
7
  6
CONTINUOUS
 10
-416.0510694727
 20
-108.5
 11
-417.6510694727
 21
-108.0712812921
  0
LINE
  5
393
100
AcDbEntity
  8
DRAFT
100
AcDbLine
 62
7
  6
CONTINUOUS
 10
-416.0510694727
 20
-104.5
 11
-417.6510694727
 21
-104.9287187079
  0
LINE
  5
394
100
AcDbEntity
  8
RACCORDO
100
AcDbLine
 62
253
  6
CONTINUOUS
 10
-416.0510694727
 20
-110.7254178588
 11
-417.6510694727
 21
-111.0075410279
  0
LINE
  5
395
100
AcDbEntity
  8
RACCORDO
100
AcDbLine
 62
7
  6
CONTINUOUS
 10
-416.0510694727
 20
-110.4209560592
 11
-417.6510694727
 21
-110.7030792283
  0
LINE
  5
396
100
AcDbEntity
  8
DRAFT
100
AcDbLine
 62
7
  6
CONTINUOUS
 10
-423.6510694727
 20
-102.1663292467
 11
-433.1002292094
 21
-102.3312649434
  0
LINE
  5
397
100
AcDbEntity
  8
DRAFT
100
AcDbLine
 62
7
  6
CONTINUOUS
 10
-423.6510694727
 20
-103.4336707533
 11
-433.1002292094
 21
-103.2687350566
  0
LINE
  5
398
100
AcDbEntity
  8
RACCORDO
100
AcDbLine
 62
7
  6
CONTINUOUS
 10
-357.7510694727
 20
-86.0
 11
-414.564159276
 21
-86.4958003235
  0
LINE
  5
399
100
AcDbEntity
  8
DRAFT
100
AcDbLine
 62
7
  6
CONTINUOUS
 10
-423.6510694727
 20
-76.4663292467
 11
-433.1002292094
 21
-76.6312649434
  0
LINE
  5
39A
100
AcDbEntity
  8
RACCORDO
100
AcDbLine
 62
7
  6
CONTINUOUS
 10
-357.7510694727
 20
-84.4
 11
-414.564159276
 21
-83.9041996765
  0
LINE
  5
39B
100
AcDbEntity
  8
DRAFT
100
AcDbLine
 62
7
  6
CONTINUOUS
 10
-423.6510694727
 20
-77.7336707533
 11
-433.1002292094
 21
-77.5687350566
  0
LINE
  5
39C
100
AcDbEntity
  8
DRAFT
100
AcDbLine
 62
7
  6
CONTINUOUS
 10
-416.0510694727
 20
-65.9
 11
-417.6510694727
 21
-65.4712812921
  0
LINE
  5
39D
100
AcDbEntity
  8
DRAFT
100
AcDbLine
 62
7
  6
CONTINUOUS
 10
-416.0510694727
 20
-61.9
 11
-417.6510694727
 21
-62.3287187079
  0
LINE
  5
39E
100
AcDbEntity
  8
RACCORDO
100
AcDbLine
 62
7
  6
CONTINUOUS
 10
-441.8510694727
 20
-154.0
 11
-441.8510694727
 21
154.0
  0
LINE
  5
39F
100
AcDbEntity
  8
DRAFT
100
AcDbLine
 62
7
  6
CONTINUOUS
 10
-423.6510694727
 20
-50.7663292467
 11
-433.1002292094
 21
-50.9312649434
  0
LINE
  5
3A0
100
AcDbEntity
  8
RACCORDO
100
AcDbLine
 62
7
  6
CONTINUOUS
 10
-357.7510694727
 20
-43.4
 11
-414.564159276
 21
-43.8958003235
  0
LINE
  5
3A1
100
AcDbEntity
  8
DRAFT
100
AcDbLine
 62
7
  6
CONTINUOUS
 10
-423.6510694727
 20
-52.0336707533
 11
-433.1002292094
 21
-51.8687350566
  0
LINE
  5
3A2
100
AcDbEntity
  8
RACCORDO
100
AcDbLine
 62
253
  6
CONTINUOUS
 10
-439.8510694727
 20
-156.0
 11
-439.8510694727
 21
156.0
  0
LINE
  5
3A3
100
AcDbEntity
  8
CURVE
100
AcDbLine
 62
7
  6
CONTINUOUS
 10
-439.3510694727
 20
-156.0
 11
-439.3510694727
 21
156.0
  0
LINE
  5
3A4
100
AcDbEntity
  8
0
100
AcDbLine
 62
7
  6
CONTINUOUS
 10
-435.6510694727
 20
-156.0
 11
-435.6510694727
 21
156.0
  0
LINE
  5
3A5
100
AcDbEntity
  8
RACCORDO
100
AcDbLine
 62
253
  6
CONTINUOUS
 10
-434.6685218792
 20
151.0832065726
 11
-434.6685218792
 21
146.317150432
  0
LINE
  5
3A6
100
AcDbEntity
  8
RACCORDO
100
AcDbLine
 62
253
  6
CONTINUOUS
 10
-434.6685218792
 20
-146.317150432
 11
-434.6685218792
 21
-151.0832065726
  0
LINE
  5
3A7
100
AcDbEntity
  8
DRAFT
100
AcDbLine
 62
7
  6
CONTINUOUS
 10
-433.1002292094
 20
128.9687350566
 11
-433.1002292094
 21
128.0312649434
  0
LINE
  5
3A8
100
AcDbEntity
  8
DRAFT
100
AcDbLine
 62
7
  6
CONTINUOUS
 10
-433.1002292094
 20
103.2687350566
 11
-433.1002292094
 21
102.3312649434
  0
LINE
  5
3A9
100
AcDbEntity
  8
DRAFT
100
AcDbLine
 62
7
  6
CONTINUOUS
 10
-433.1002292094
 20
77.5687350566
 11
-433.1002292094
 21
76.6312649434
  0
LINE
  5
3AA
100
AcDbEntity
  8
DRAFT
100
AcDbLine
 62
7
  6
CONTINUOUS
 10
-433.1002292094
 20
51.8687350566
 11
-433.1002292094
 21
50.9312649434
  0
LINE
  5
3AB
100
AcDbEntity
  8
DRAFT
100
AcDbLine
 62
7
  6
CONTINUOUS
 10
-433.1002292094
 20
26.1687350566
 11
-433.1002292094
 21
25.2312649434
  0
LINE
  5
3AC
100
AcDbEntity
  8
DRAFT
100
AcDbLine
 62
7
  6
CONTINUOUS
 10
-433.1002292094
 20
0.4687350566
 11
-433.1002292094
 21
-0.4687350566
  0
LINE
  5
3AD
100
AcDbEntity
  8
DRAFT
100
AcDbLine
 62
7
  6
CONTINUOUS
 10
-433.1002292094
 20
-25.2312649434
 11
-433.1002292094
 21
-26.1687350566
  0
LINE
  5
3AE
100
AcDbEntity
  8
DRAFT
100
AcDbLine
 62
7
  6
CONTINUOUS
 10
-433.1002292094
 20
-50.9312649434
 11
-433.1002292094
 21
-51.8687350566
  0
LINE
  5
3AF
100
AcDbEntity
  8
DRAFT
100
AcDbLine
 62
7
  6
CONTINUOUS
 10
-433.1002292094
 20
-76.6312649434
 11
-433.1002292094
 21
-77.5687350566
  0
LINE
  5
3B0
100
AcDbEntity
  8
DRAFT
100
AcDbLine
 62
7
  6
CONTINUOUS
 10
-433.1002292094
 20
-102.3312649434
 11
-433.1002292094
 21
-103.2687350566
  0
LINE
  5
3B1
100
AcDbEntity
  8
DRAFT
100
AcDbLine
 62
7
  6
CONTINUOUS
 10
-433.1002292094
 20
-128.0312649434
 11
-433.1002292094
 21
-128.9687350566
  0
LINE
  5
3B2
100
AcDbEntity
  8
RACCORDO
100
AcDbLine
 62
7
  6
CONTINUOUS
 10
-432.9510694727
 20
-145.5
 11
-432.9510694727
 21
-140.5
  0
LINE
  5
3B3
100
AcDbEntity
  8
DRAFT
100
AcDbLine
 62
7
  6
CONTINUOUS
 10
-432.9510694727
 20
-153.2194025686
 11
-432.9510694727
 21
-153.5
  0
LINE
  5
3B4
100
AcDbEntity
  8
DRAFT
100
AcDbLine
 62
7
  6
CONTINUOUS
 10
-432.9510694727
 20
153.2194025686
 11
-432.9510694727
 21
153.5
  0
LINE
  5
3B5
100
AcDbEntity
  8
RACCORDO
100
AcDbLine
 62
7
  6
CONTINUOUS
 10
-357.7510694727
 20
-41.8
 11
-414.564159276
 21
-41.3041996765
  0
LINE
  5
3B6
100
AcDbEntity
  8
RACCORDO
100
AcDbLine
 62
7
  6
CONTINUOUS
 10
-428.1510694727
 20
145.5
 11
-428.1510694727
 21
144.5914835096
  0
LINE
  5
3B7
100
AcDbEntity
  8
RACCORDO
100
AcDbLine
 62
7
  6
CONTINUOUS
 10
-428.1510694727
 20
-144.5914835096
 11
-428.1510694727
 21
-145.5
  0
LINE
  5
3B8
100
AcDbEntity
  8
RACCORDO
100
AcDbLine
 62
7
  6
CONTINUOUS
 10
-423.6510694727
 20
-153.4737412386
 11
-423.6510694727
 21
153.4737412386
  0
LINE
  5
3B9
100
AcDbEntity
  8
RACCORDO
100
AcDbLine
 62
253
  6
CONTINUOUS
 10
-423.159795676
 20
-153.9736650862
 11
-423.159795676
 21
153.9736650862
  0
LINE
  5
3BA
100
AcDbEntity
  8
DRAFT
100
AcDbLine
 62
7
  6
CONTINUOUS
 10
-421.6510694727
 20
-154.0
 11
-421.6510694727
 21
154.0
  0
LINE
  5
3BB
100
AcDbEntity
  8
DRAFT
100
AcDbLine
 62
7
  6
CONTINUOUS
 10
-423.6510694727
 20
-25.0663292467
 11
-433.1002292094
 21
-25.2312649434
  0
LINE
  5
3BC
100
AcDbEntity
  8
DRAFT
100
AcDbLine
 62
7
  6
CONTINUOUS
 10
-423.6510694727
 20
-26.3336707533
 11
-433.1002292094
 21
-26.1687350566
  0
LINE
  5
3BD
100
AcDbEntity
  8
DRAFT
100
AcDbLine
 62
7
  6
CONTINUOUS
 10
-416.0510694727
 20
-23.3
 11
-417.6510694727
 21
-22.8712812921
  0
LINE
  5
3BE
100
AcDbEntity
  8
RACCORDO
100
AcDbLine
 62
253
  6
CONTINUOUS
 10
-418.6336170663
 20
153.9473301723
 11
-418.6336170663
 21
-153.9473301723
  0
LINE
  5
3BF
100
AcDbEntity
  8
RACCORDO
100
AcDbLine
 62
7
  6
CONTINUOUS
 10
-417.6510694727
 20
-152.9474824772
 11
-417.6510694727
 21
152.9474824772
  0
LINE
  5
3C0
100
AcDbEntity
  8
RACCORDO
100
AcDbLine
 62
7
  6
CONTINUOUS
 10
-416.0510694727
 20
125.0042567919
 11
-416.0510694727
 21
108.5
  0
LINE
  5
3C1
100
AcDbEntity
  8
RACCORDO
100
AcDbLine
 62
7
  6
CONTINUOUS
 10
-416.0510694727
 20
104.5
 11
-416.0510694727
 21
87.9957432081
  0
LINE
  5
3C2
100
AcDbEntity
  8
RACCORDO
100
AcDbLine
 62
7
  6
CONTINUOUS
 10
-416.0510694727
 20
82.4042567919
 11
-416.0510694727
 21
65.9
  0
LINE
  5
3C3
100
AcDbEntity
  8
RACCORDO
100
AcDbLine
 62
7
  6
CONTINUOUS
 10
-416.0510694727
 20
61.9
 11
-416.0510694727
 21
45.3957432081
  0
LINE
  5
3C4
100
AcDbEntity
  8
RACCORDO
100
AcDbLine
 62
7
  6
CONTINUOUS
 10
-416.0510694727
 20
39.8042567919
 11
-416.0510694727
 21
23.3
  0
LINE
  5
3C5
100
AcDbEntity
  8
RACCORDO
100
AcDbLine
 62
7
  6
CONTINUOUS
 10
-416.0510694727
 20
19.3
 11
-416.0510694727
 21
2.7957432081
  0
LINE
  5
3C6
100
AcDbEntity
  8
RACCORDO
100
AcDbLine
 62
7
  6
CONTINUOUS
 10
-416.0510694727
 20
-2.7957432081
 11
-416.0510694727
 21
-19.3
  0
LINE
  5
3C7
100
AcDbEntity
  8
RACCORDO
100
AcDbLine
 62
7
  6
CONTINUOUS
 10
-416.0510694727
 20
-23.3
 11
-416.0510694727
 21
-39.8042567919
  0
LINE
  5
3C8
100
AcDbEntity
  8
RACCORDO
100
AcDbLine
 62
7
  6
CONTINUOUS
 10
-416.0510694727
 20
-45.3957432081
 11
-416.0510694727
 21
-61.9
  0
LINE
  5
3C9
100
AcDbEntity
  8
RACCORDO
100
AcDbLine
 62
7
  6
CONTINUOUS
 10
-416.0510694727
 20
-65.9
 11
-416.0510694727
 21
-82.4042567919
  0
LINE
  5
3CA
100
AcDbEntity
  8
RACCORDO
100
AcDbLine
 62
7
  6
CONTINUOUS
 10
-416.0510694727
 20
-87.9957432081
 11
-416.0510694727
 21
-104.5
  0
LINE
  5
3CB
100
AcDbEntity
  8
RACCORDO
100
AcDbLine
 62
7
  6
CONTINUOUS
 10
-416.0510694727
 20
-108.5
 11
-416.0510694727
 21
-125.0042567919
  0
LINE
  5
3CC
100
AcDbEntity
  8
DRAFT
100
AcDbLine
 62
7
  6
CONTINUOUS
 10
-416.0510694727
 20
-19.3
 11
-417.6510694727
 21
-19.7287187079
  0
LINE
  5
3CD
100
AcDbEntity
  8
RACCORDO
100
AcDbLine
 62
7
  6
CONTINUOUS
 10
-360.1000123632
 20
0.7089990493
 11
-363.217211301
 21
0.6545881395
  0
LINE
  5
3CE
100
AcDbEntity
  8
DRAFT
100
AcDbLine
 62
7
  6
CONTINUOUS
 10
-423.6510694727
 20
0.6336707533
 11
-433.1002292094
 21
0.4687350566
  0
LINE
  5
3CF
100
AcDbEntity
  8
RACCORDO
100
AcDbLine
 62
7
  6
CONTINUOUS
 10
-357.7510694727
 20
-0.8
 11
-414.564159276
 21
-1.2958003235
  0
LINE
  5
3D0
100
AcDbEntity
  8
RACCORDO
100
AcDbLine
 62
7
  6
CONTINUOUS
 10
-357.7510694727
 20
0.8
 11
-414.564159276
 21
1.2958003235
  0
LINE
  5
3D1
100
AcDbEntity
  8
DRAFT
100
AcDbLine
 62
7
  6
CONTINUOUS
 10
-423.6510694727
 20
-0.6336707533
 11
-433.1002292094
 21
-0.4687350566
  0
LINE
  5
3D2
100
AcDbEntity
  8
RACCORDO
100
AcDbLine
 62
7
  6
CONTINUOUS
 10
-360.1000123632
 20
-0.7089990493
 11
-363.217211301
 21
-0.6545881395
  0
LINE
  5
3D3
100
AcDbEntity
  8
RACCORDO
100
AcDbLine
 62
7
  6
CONTINUOUS
 10
-377.6510694727
 20
86.173664669
 11
-377.6510694727
 21
84.226335331
  0
LINE
  5
3D4
100
AcDbEntity
  8
RACCORDO
100
AcDbLine
 62
7
  6
CONTINUOUS
 10
-377.6510694727
 20
43.573664669
 11
-377.6510694727
 21
41.626335331
  0
LINE
  5
3D5
100
AcDbEntity
  8
RACCORDO
100
AcDbLine
 62
7
  6
CONTINUOUS
 10
-377.6510694727
 20
0.973664669
 11
-377.6510694727
 21
-0.973664669
  0
LINE
  5
3D6
100
AcDbEntity
  8
RACCORDO
100
AcDbLine
 62
7
  6
CONTINUOUS
 10
-377.6510694727
 20
-41.626335331
 11
-377.6510694727
 21
-43.573664669
  0
LINE
  5
3D7
100
AcDbEntity
  8
RACCORDO
100
AcDbLine
 62
7
  6
CONTINUOUS
 10
-377.6510694727
 20
-84.226335331
 11
-377.6510694727
 21
-86.173664669
  0
LINE
  5
3D8
100
AcDbEntity
  8
RACCORDO
100
AcDbLine
 62
253
  6
CONTINUOUS
 10
-377.352011949
 20
86.1710548336
 11
-377.352011949
 21
84.2289451664
  0
LINE
  5
3D9
100
AcDbEntity
  8
RACCORDO
100
AcDbLine
 62
253
  6
CONTINUOUS
 10
-377.352011949
 20
43.5710548336
 11
-377.352011949
 21
41.6289451664
  0
LINE
  5
3DA
100
AcDbEntity
  8
RACCORDO
100
AcDbLine
 62
253
  6
CONTINUOUS
 10
-377.352011949
 20
0.9710548336
 11
-377.352011949
 21
-0.9710548336
  0
LINE
  5
3DB
100
AcDbEntity
  8
RACCORDO
100
AcDbLine
 62
253
  6
CONTINUOUS
 10
-377.352011949
 20
-41.6289451664
 11
-377.352011949
 21
-43.5710548336
  0
LINE
  5
3DC
100
AcDbEntity
  8
RACCORDO
100
AcDbLine
 62
253
  6
CONTINUOUS
 10
-377.352011949
 20
-84.2289451664
 11
-377.352011949
 21
-86.1710548336
  0
LINE
  5
3DD
100
AcDbEntity
  8
DRAFT
100
AcDbLine
 62
7
  6
CONTINUOUS
 10
-416.0510694727
 20
19.3
 11
-417.6510694727
 21
19.7287187079
  0
LINE
  5
3DE
100
AcDbEntity
  8
RACCORDO
100
AcDbLine
 62
7
  6
CONTINUOUS
 10
-367.1510694727
 20
140.8485904705
 11
-367.1510694727
 21
140.6016108903
  0
LINE
  5
3DF
100
AcDbEntity
  8
RACCORDO
100
AcDbLine
 62
7
  6
CONTINUOUS
 10
-367.1510694727
 20
140.1726026402
 11
-367.1510694727
 21
139.5547273753
  0
LINE
  5
3E0
100
AcDbEntity
  8
DRAFT
100
AcDbLine
 62
7
  6
CONTINUOUS
 10
-367.1510694727
 20
140.6016108903
 11
-367.1510694727
 21
140.1726026402
  0
LINE
  5
3E1
100
AcDbEntity
  8
DRAFT
100
AcDbLine
 62
7
  6
CONTINUOUS
 10
-367.1510694727
 20
-139.5836249876
 11
-367.1510694727
 21
-138.2217922278
  0
LINE
  5
3E2
100
AcDbEntity
  8
RACCORDO
100
AcDbLine
 62
7
  6
CONTINUOUS
 10
-367.1510694727
 20
-138.2217922278
 11
-367.1510694727
 21
-129.3356734101
  0
LINE
  5
3E3
100
AcDbEntity
  8
RACCORDO
100
AcDbLine
 62
7
  6
CONTINUOUS
 10
-367.1510694727
 20
-139.5547273753
 11
-367.1510694727
 21
-140.1726026402
  0
LINE
  5
3E4
100
AcDbEntity
  8
DRAFT
100
AcDbLine
 62
7
  6
CONTINUOUS
 10
-367.1510694727
 20
-140.1726026402
 11
-367.1510694727
 21
-140.6016108903
  0
LINE
  5
3E5
100
AcDbEntity
  8
RACCORDO
100
AcDbLine
 62
7
  6
CONTINUOUS
 10
-367.1510694727
 20
-140.6016108903
 11
-367.1510694727
 21
-140.8485904705
  0
LINE
  5
3E6
100
AcDbEntity
  8
DRAFT
100
AcDbLine
 62
7
  6
CONTINUOUS
 10
-367.1510694727
 20
-140.8485904705
 11
-367.1510694727
 21
-142.8043280524
  0
LINE
  5
3E7
100
AcDbEntity
  8
RACCORDO
100
AcDbLine
 62
7
  6
CONTINUOUS
 10
-367.1510694727
 20
129.3356734101
 11
-367.1510694727
 21
138.2217922278
  0
LINE
  5
3E8
100
AcDbEntity
  8
DRAFT
100
AcDbLine
 62
7
  6
CONTINUOUS
 10
-367.1510694727
 20
138.2217922278
 11
-367.1510694727
 21
139.5836249876
  0
LINE
  5
3E9
100
AcDbEntity
  8
DRAFT
100
AcDbLine
 62
7
  6
CONTINUOUS
 10
-367.1510694727
 20
140.8485904705
 11
-367.1510694727
 21
142.8043280524
  0
LINE
  5
3EA
100
AcDbEntity
  8
DRAFT
100
AcDbLine
 62
7
  6
CONTINUOUS
 10
-416.0510694727
 20
23.3
 11
-417.6510694727
 21
22.8712812921
  0
LINE
  5
3EB
100
AcDbEntity
  8
DRAFT
100
AcDbLine
 62
7
  6
CONTINUOUS
 10
-423.6510694727
 20
26.3336707533
 11
-433.1002292094
 21
26.1687350566
  0
LINE
  5
3EC
100
AcDbEntity
  8
DRAFT
100
AcDbLine
 62
7
  6
CONTINUOUS
 10
-423.6510694727
 20
25.0663292467
 11
-433.1002292094
 21
25.2312649434
  0
LINE
  5
3ED
100
AcDbEntity
  8
RACCORDO
100
AcDbLine
 62
253
  6
CONTINUOUS
 10
-360.0934765315
 20
-141.4809545157
 11
-360.0725336374
 21
-142.6807717498
  0
LINE
  5
3EE
100
AcDbEntity
  8
RACCORDO
100
AcDbLine
 62
7
  6
CONTINUOUS
 10
-363.7510694727
 20
-43.4523612067
 11
-363.7510694727
 21
-41.7476387933
  0
LINE
  5
3EF
100
AcDbEntity
  8
RACCORDO
100
AcDbLine
 62
7
  6
CONTINUOUS
 10
-363.7510694727
 20
-0.8523612067
 11
-363.7510694727
 21
0.8523612067
  0
LINE
  5
3F0
100
AcDbEntity
  8
RACCORDO
100
AcDbLine
 62
7
  6
CONTINUOUS
 10
-363.7510694727
 20
41.7476387933
 11
-363.7510694727
 21
43.4523612067
  0
LINE
  5
3F1
100
AcDbEntity
  8
RACCORDO
100
AcDbLine
 62
253
  6
CONTINUOUS
 10
-363.5054331356
 20
-0.8502175709
 11
-363.5054332929
 21
0.8502175723
  0
LINE
  5
3F2
100
AcDbEntity
  8
RACCORDO
100
AcDbLine
 62
253
  6
CONTINUOUS
 10
-363.4563051947
 20
-43.4497888379
 11
-363.4563051947
 21
-41.7502111621
  0
LINE
  5
3F3
100
AcDbEntity
  8
RACCORDO
100
AcDbLine
 62
253
  6
CONTINUOUS
 10
-363.4563051947
 20
41.7502111621
 11
-363.4563051947
 21
43.4497888379
  0
LINE
  5
3F4
100
AcDbEntity
  8
RACCORDO
100
AcDbLine
 62
7
  6
CONTINUOUS
 10
-360.5510694727
 20
128.6243369996
 11
-360.5510694727
 21
126.9755647702
  0
LINE
  5
3F5
100
AcDbEntity
  8
RACCORDO
100
AcDbLine
 62
7
  6
CONTINUOUS
 10
-360.5510694727
 20
86.0244352298
 11
-360.5510694727
 21
84.3755647702
  0
LINE
  5
3F6
100
AcDbEntity
  8
RACCORDO
100
AcDbLine
 62
7
  6
CONTINUOUS
 10
-360.5510694727
 20
43.4244352298
 11
-360.5510694727
 21
41.7755647702
  0
LINE
  5
3F7
100
AcDbEntity
  8
RACCORDO
100
AcDbLine
 62
7
  6
CONTINUOUS
 10
-360.5510694727
 20
-0.8244352298
 11
-360.5510694727
 21
0.8244352298
  0
LINE
  5
3F8
100
AcDbEntity
  8
RACCORDO
100
AcDbLine
 62
7
  6
CONTINUOUS
 10
-360.5510694727
 20
-41.7755647702
 11
-360.5510694727
 21
-43.4244352298
  0
LINE
  5
3F9
100
AcDbEntity
  8
RACCORDO
100
AcDbLine
 62
7
  6
CONTINUOUS
 10
-360.5510694727
 20
-84.3755647702
 11
-360.5510694727
 21
-86.0244352298
  0
LINE
  5
3FA
100
AcDbEntity
  8
RACCORDO
100
AcDbLine
 62
7
  6
CONTINUOUS
 10
-360.5510694727
 20
-126.9755647702
 11
-360.5510694727
 21
-128.6243369996
  0
LINE
  5
3FB
100
AcDbEntity
  8
RACCORDO
100
AcDbLine
 62
253
  6
CONTINUOUS
 10
-360.1000123632
 20
128.6204989141
 11
-360.1000123632
 21
126.9797408891
  0
LINE
  5
3FC
100
AcDbEntity
  8
RACCORDO
100
AcDbLine
 62
253
  6
CONTINUOUS
 10
-360.1000123632
 20
86.0202591109
 11
-360.1000123632
 21
84.3797408891
  0
LINE
  5
3FD
100
AcDbEntity
  8
RACCORDO
100
AcDbLine
 62
253
  6
CONTINUOUS
 10
-360.1000123632
 20
43.4204989141
 11
-360.1000123632
 21
41.7797408891
  0
LINE
  5
3FE
100
AcDbEntity
  8
RACCORDO
100
AcDbLine
 62
253
  6
CONTINUOUS
 10
-360.1000123632
 20
0.8202591109
 11
-360.1000123632
 21
0.7089990493
  0
LINE
  5
3FF
100
AcDbEntity
  8
RACCORDO
100
AcDbLine
 62
253
  6
CONTINUOUS
 10
-360.1000123632
 20
-0.7089990493
 11
-360.1000123632
 21
-0.8202591109
  0
LINE
  5
400
100
AcDbEntity
  8
RACCORDO
100
AcDbLine
 62
253
  6
CONTINUOUS
 10
-360.1000123632
 20
-41.7797408891
 11
-360.1000123632
 21
-43.4202591109
  0
LINE
  5
401
100
AcDbEntity
  8
RACCORDO
100
AcDbLine
 62
253
  6
CONTINUOUS
 10
-360.1000123632
 20
-84.3795010859
 11
-360.1000123632
 21
-86.0202591109
  0
LINE
  5
402
100
AcDbEntity
  8
RACCORDO
100
AcDbLine
 62
253
  6
CONTINUOUS
 10
-360.1000123632
 20
-126.9795010859
 11
-360.1000123632
 21
-128.6204989141
  0
LINE
  5
403
100
AcDbEntity
  8
RACCORDO
100
AcDbLine
 62
253
  6
CONTINUOUS
 10
-360.0725336438
 20
129.2986099445
 11
-360.0725336438
 21
128.6202591109
  0
LINE
  5
404
100
AcDbEntity
  8
RACCORDO
100
AcDbLine
 62
253
  6
CONTINUOUS
 10
-360.0725336438
 20
126.9797408891
 11
-360.0725336438
 21
86.0202591109
  0
LINE
  5
405
100
AcDbEntity
  8
RACCORDO
100
AcDbLine
 62
253
  6
CONTINUOUS
 10
-360.0725336438
 20
84.3797408891
 11
-360.0725336438
 21
43.4202591109
  0
LINE
  5
406
100
AcDbEntity
  8
RACCORDO
100
AcDbLine
 62
253
  6
CONTINUOUS
 10
-360.0725336438
 20
41.7797408891
 11
-360.0725336438
 21
0.8202591109
  0
LINE
  5
407
100
AcDbEntity
  8
RACCORDO
100
AcDbLine
 62
253
  6
CONTINUOUS
 10
-360.0725336438
 20
-0.8202591109
 11
-360.0725336438
 21
-41.7797408891
  0
LINE
  5
408
100
AcDbEntity
  8
RACCORDO
100
AcDbLine
 62
253
  6
CONTINUOUS
 10
-360.0725336438
 20
-43.4202591109
 11
-360.0725336438
 21
-84.3797408891
  0
LINE
  5
409
100
AcDbEntity
  8
RACCORDO
100
AcDbLine
 62
253
  6
CONTINUOUS
 10
-360.0725336438
 20
-86.0202591109
 11
-360.0725336438
 21
-126.9797408891
  0
LINE
  5
40A
100
AcDbEntity
  8
RACCORDO
100
AcDbLine
 62
253
  6
CONTINUOUS
 10
-360.0725336438
 20
-128.6202591109
 11
-360.0725336438
 21
-129.2986099445
  0
LINE
  5
40B
100
AcDbEntity
  8
RACCORDO
100
AcDbLine
 62
7
  6
CONTINUOUS
 10
-357.7510694727
 20
-128.6
 11
-357.7510694727
 21
-127.0
  0
LINE
  5
40C
100
AcDbEntity
  8
RACCORDO
100
AcDbLine
 62
7
  6
CONTINUOUS
 10
-357.7510694727
 20
-86.0
 11
-357.7510694727
 21
-84.4
  0
LINE
  5
40D
100
AcDbEntity
  8
RACCORDO
100
AcDbLine
 62
7
  6
CONTINUOUS
 10
-357.7510694727
 20
-43.4
 11
-357.7510694727
 21
-41.8
  0
LINE
  5
40E
100
AcDbEntity
  8
RACCORDO
100
AcDbLine
 62
7
  6
CONTINUOUS
 10
-357.7510694727
 20
-0.8
 11
-357.7510694727
 21
0.8
  0
LINE
  5
40F
100
AcDbEntity
  8
RACCORDO
100
AcDbLine
 62
7
  6
CONTINUOUS
 10
-357.7510694727
 20
41.8
 11
-357.7510694727
 21
43.4
  0
LINE
  5
410
100
AcDbEntity
  8
RACCORDO
100
AcDbLine
 62
7
  6
CONTINUOUS
 10
-357.7510694727
 20
84.4
 11
-357.7510694727
 21
86.0
  0
LINE
  5
411
100
AcDbEntity
  8
RACCORDO
100
AcDbLine
 62
7
  6
CONTINUOUS
 10
-357.7510694727
 20
127.0
 11
-357.7510694727
 21
128.6
  0
LINE
  5
412
100
AcDbEntity
  8
RACCORDO
100
AcDbLine
 62
253
  6
CONTINUOUS
 10
-356.8447863161
 20
-138.7814488971
 11
-356.8447863161
 21
-130.4816161363
  0
LINE
  5
413
100
AcDbEntity
  8
RACCORDO
100
AcDbLine
 62
253
  6
CONTINUOUS
 10
-356.8447863161
 20
130.4816161363
 11
-356.8447863161
 21
138.7814488971
  0
LINE
  5
414
100
AcDbEntity
  8
RACCORDO
100
AcDbLine
 62
7
  6
CONTINUOUS
 10
-355.6510694727
 20
-138.1814571217
 11
-355.6510694727
 21
138.1814571217
  0
LINE
  5
415
100
AcDbEntity
  8
RACCORDO
100
AcDbLine
 62
253
  6
CONTINUOUS
 10
-360.0934765315
 20
141.4809545157
 11
-360.0725336438
 21
142.6807717499
  0
LINE
  5
416
100
AcDbEntity
  8
RACCORDO
100
AcDbLine
 62
7
  6
CONTINUOUS
 10
-357.7510694727
 20
41.8
 11
-414.564159276
 21
41.3041996765
  0
LINE
  5
417
100
AcDbEntity
  8
RACCORDO
100
AcDbLine
 62
7
  6
CONTINUOUS
 10
-357.7510694727
 20
43.4
 11
-414.564159276
 21
43.8958003235
  0
LINE
  5
418
100
AcDbEntity
  8
DRAFT
100
AcDbLine
 62
7
  6
CONTINUOUS
 10
-423.6510694727
 20
52.0336707533
 11
-433.1002292094
 21
51.8687350566
  0
LINE
  5
419
100
AcDbEntity
  8
DRAFT
100
AcDbLine
 62
7
  6
CONTINUOUS
 10
-423.6510694727
 20
50.7663292467
 11
-433.1002292094
 21
50.9312649434
  0
LINE
  5
41A
100
AcDbEntity
  8
DRAFT
100
AcDbLine
 62
7
  6
CONTINUOUS
 10
-416.0510694727
 20
61.9
 11
-417.6510694727
 21
62.3287187079
  0
LINE
  5
41B
100
AcDbEntity
  8
DRAFT
100
AcDbLine
 62
7
  6
CONTINUOUS
 10
-416.0510694727
 20
65.9
 11
-417.6510694727
 21
65.4712812921
  0
LINE
  5
41C
100
AcDbEntity
  8
DRAFT
100
AcDbLine
 62
7
  6
CONTINUOUS
 10
-423.6510694727
 20
76.4663292467
 11
-433.1002292094
 21
76.6312649434
  0
LINE
  5
41D
100
AcDbEntity
  8
DRAFT
100
AcDbLine
 62
7
  6
CONTINUOUS
 10
-423.6510694727
 20
77.7336707533
 11
-433.1002292094
 21
77.5687350566
  0
LINE
  5
41E
100
AcDbEntity
  8
RACCORDO
100
AcDbLine
 62
7
  6
CONTINUOUS
 10
-357.7510694727
 20
84.4
 11
-414.564159276
 21
83.9041996765
  0
LINE
  5
41F
100
AcDbEntity
  8
RACCORDO
100
AcDbLine
 62
7
  6
CONTINUOUS
 10
-357.7510694727
 20
86.0
 11
-414.564159276
 21
86.4958003235
  0
LINE
  5
420
100
AcDbEntity
  8
DRAFT
100
AcDbLine
 62
7
  6
CONTINUOUS
 10
-416.0510694727
 20
104.5
 11
-417.6510694727
 21
104.9287187079
  0
LINE
  5
421
100
AcDbEntity
  8
DRAFT
100
AcDbLine
 62
7
  6
CONTINUOUS
 10
-416.0510694727
 20
108.5
 11
-417.6510694727
 21
108.0712812921
  0
LINE
  5
422
100
AcDbEntity
  8
DRAFT
100
AcDbLine
 62
7
  6
CONTINUOUS
 10
-423.6510694727
 20
103.4336707533
 11
-433.1002292094
 21
103.2687350566
  0
LINE
  5
423
100
AcDbEntity
  8
DRAFT
100
AcDbLine
 62
7
  6
CONTINUOUS
 10
-423.6510694727
 20
102.1663292467
 11
-433.1002292094
 21
102.3312649434
  0
LINE
  5
424
100
AcDbEntity
  8
RACCORDO
100
AcDbLine
 62
7
  6
CONTINUOUS
 10
-417.6510694727
 20
110.7030792283
 11
-416.0510694727
 21
110.4209560592
  0
LINE
  5
425
100
AcDbEntity
  8
RACCORDO
100
AcDbLine
 62
253
  6
CONTINUOUS
 10
-417.6510694727
 20
111.0075410279
 11
-416.0510694727
 21
110.7254178588
  0
LINE
  5
426
100
AcDbEntity
  8
DRAFT
100
AcDbLine
 62
7
  6
CONTINUOUS
 10
-423.6510694727
 20
129.1336707533
 11
-433.1002292094
 21
128.9687350566
  0
LINE
  5
427
100
AcDbEntity
  8
RACCORDO
100
AcDbLine
 62
7
  6
CONTINUOUS
 10
-357.7510694727
 20
127.0
 11
-414.564159276
 21
126.5041996765
  0
LINE
  5
428
100
AcDbEntity
  8
RACCORDO
100
AcDbLine
 62
253
  6
CONTINUOUS
 10
-367.1510694727
 20
129.3356734101
 11
-360.0725336438
 21
129.2986099445
  0
LINE
  5
429
100
AcDbEntity
  8
RACCORDO
100
AcDbLine
 62
7
  6
CONTINUOUS
 10
-367.1510694727
 20
130.5355802019
 11
-356.8447863161
 21
130.4816161363
  0
LINE
  5
42A
100
AcDbEntity
  8
RACCORDO
100
AcDbLine
 62
7
  6
CONTINUOUS
 10
-417.6510694727
 20
129.1227393807
 11
-357.7510694727
 21
128.6
  0
LINE
  5
42B
100
AcDbEntity
  8
DRAFT
100
AcDbLine
 62
7
  6
CONTINUOUS
 10
-423.6510694727
 20
127.8663292467
 11
-433.1002292094
 21
128.0312649434
  0
LINE
  5
42C
100
AcDbEntity
  8
DRAFT
100
AcDbLine
 62
7
  6
CONTINUOUS
 10
-417.6510694727
 20
140.4746444059
 11
-367.1510694727
 21
140.8485904705
  0
LINE
  5
42D
100
AcDbEntity
  8
RACCORDO
100
AcDbLine
 62
253
  6
CONTINUOUS
 10
-417.6510694727
 20
132.0
 11
-423.6510694727
 21
132.0
  0
LINE
  5
42E
100
AcDbEntity
  8
DRAFT
100
AcDbLine
 62
253
  6
CONTINUOUS
 10
-423.6510694727
 20
134.0
 11
-435.6510694727
 21
134.0
  0
LINE
  5
42F
100
AcDbEntity
  8
DRAFT
100
AcDbLine
 62
7
  6
CONTINUOUS
 10
-387.9200686872
 20
140.6947986779
 11
-367.1510694727
 21
140.6016108903
  0
LINE
  5
430
100
AcDbEntity
  8
DRAFT
100
AcDbLine
 62
7
  6
CONTINUOUS
 10
-417.6510694727
 20
138.5869135214
 11
-367.1510694727
 21
138.2217922278
  0
LINE
  5
431
100
AcDbEntity
  8
DRAFT
100
AcDbLine
 62
7
  6
CONTINUOUS
 10
-417.6510694727
 20
141.8788232966
 11
-367.1510694727
 21
141.4424952927
  0
LINE
  5
432
100
AcDbEntity
  8
RACCORDO
100
AcDbLine
 62
7
  6
CONTINUOUS
 10
-358.4857068434
 20
141.0304161093
 11
-367.1540132092
 21
141.1211912308
  0
LINE
  5
433
100
AcDbEntity
  8
DRAFT
100
AcDbLine
 62
7
  6
CONTINUOUS
 10
-367.1510694727
 20
139.5836249876
 11
-417.6510694727
 21
140.3938990561
  0
LINE
  5
434
100
AcDbEntity
  8
DRAFT
100
AcDbLine
 62
7
  6
CONTINUOUS
 10
-423.6510694727
 20
146.5094607791
 11
-435.6510694727
 21
146.3
  0
LINE
  5
435
100
AcDbEntity
  8
RACCORDO
100
AcDbLine
 62
253
  6
CONTINUOUS
 10
-423.6510694727
 20
152.965242175
 11
-431.6505905906
 21
152.8256100145
  0
LINE
  5
436
100
AcDbEntity
  8
RACCORDO
100
AcDbLine
 62
7
  6
CONTINUOUS
 10
-421.6510694727
 20
154.0
 11
-431.6505905906
 21
153.8254577096
  0
LINE
  5
437
100
AcDbEntity
  8
RACCORDO
100
AcDbLine
 62
253
  6
CONTINUOUS
 10
-435.6510694727
 20
146.0
 11
-441.8510694727
 21
146.0
  0
LINE
  5
438
100
AcDbEntity
  8
RACCORDO
100
AcDbLine
 62
253
  6
CONTINUOUS
 10
-434.6685218792
 20
151.0832065726
 11
-435.6510694727
 21
151.0832065726
  0
LINE
  5
439
100
AcDbEntity
  8
DRAFT
100
AcDbLine
 62
7
  6
CONTINUOUS
 10
-432.9510694727
 20
153.5
 11
-432.4650604651
 21
153.5
  0
LINE
  5
43A
100
AcDbEntity
  8
RACCORDO
100
AcDbLine
 62
7
  6
CONTINUOUS
 10
-435.6510694727
 20
156.0
 11
-439.8510694727
 21
156.0
  0
LINE
  5
43B
100
AcDbEntity
  8
RACCORDO
100
AcDbLine
 62
253
  6
CONTINUOUS
 10
-360.0934765315
 20
141.4809545157
 11
-367.1475472327
 21
141.6040837778
  0
LINE
  5
43C
100
AcDbEntity
  8
DRAFT
100
AcDbLine
 62
7
  6
CONTINUOUS
 10
-417.6510694727
 20
143.6858088313
 11
-367.1510694727
 21
142.8043280524
  0
LINE
  5
43D
100
AcDbEntity
  8
RACCORDO
100
AcDbLine
 62
7
  6
CONTINUOUS
 10
-360.0725336438
 20
142.6807717499
 11
-367.1510694727
 21
142.8043280524
  0
LINE
  5
43E
100
AcDbEntity
  8
RACCORDO
100
AcDbLine
 62
7
  6
CONTINUOUS
 10
-418.6336170663
 20
153.9473301723
 11
-421.6510694727
 21
154.0
  0
ARC
  5
43F
100
AcDbEntity
  8
0
100
AcDbCircle
 62
7
  6
CONTINUOUS
 10
-68.3559837132
 20
-136.0
 40
14.5900727153
100
AcDbArc
 50
178.6254046104
 51
181.3745953896
  0
ARC
  5
440
100
AcDbEntity
  8
0
100
AcDbCircle
 62
7
  6
CONTINUOUS
 10
-93.6440162868
 20
-136.0
 40
14.5900727153
100
AcDbArc
 50
358.6254046104
 51
1.3745953896
  0
ARC
  5
441
100
AcDbEntity
  8
0
100
AcDbCircle
 62
7
  6
CONTINUOUS
 10
-234.3559837132
 20
-136.0
 40
14.5900727152
100
AcDbArc
 50
178.6254046104
 51
181.3745953896
  0
ARC
  5
442
100
AcDbEntity
  8
0
100
AcDbCircle
 62
7
  6
CONTINUOUS
 10
-259.6440162868
 20
-136.0
 40
14.5900727152
100
AcDbArc
 50
358.6254046104
 51
1.3745953896
  0
ARC
  5
443
100
AcDbEntity
  8
RACCORDO
100
AcDbCircle
 62
7
  6
CONTINUOUS
 10
-257.0
 20
-146.0
 40
10.0
100
AcDbArc
 50
179.9999997845
 51
270.0000001072
  0
ARC
  5
444
100
AcDbEntity
  8
RACCORDO
100
AcDbCircle
 62
253
  6
CONTINUOUS
 10
-257.0
 20
-146.0
 40
7.9999857975
100
AcDbArc
 50
180.0
 51
270.0
  0
CIRCLE
  5
445
100
AcDbEntity
  8
0
100
AcDbCircle
 62
7
  6
CONTINUOUS
 10
-247.0
 20
-136.0
 40
3.0
  0
CIRCLE
  5
446
100
AcDbEntity
  8
0
100
AcDbCircle
 62
7
  6
CONTINUOUS
 10
-81.0
 20
-136.0
 40
3.0
  0
CIRCLE
  5
447
100
AcDbEntity
  8
0
100
AcDbCircle
 62
7
  6
CONTINUOUS
 10
-81.0
 20
-136.0
 40
2.75
  0
CIRCLE
  5
448
100
AcDbEntity
  8
0
100
AcDbCircle
 62
7
  6
CONTINUOUS
 10
-247.0
 20
-136.0
 40
2.75
  0
ARC
  5
449
100
AcDbEntity
  8
0
100
AcDbCircle
 62
7
  6
CONTINUOUS
 10
-68.3559837132
 20
136.0
 40
14.5900727153
100
AcDbArc
 50
178.6254046104
 51
181.3745953896
  0
ARC
  5
44A
100
AcDbEntity
  8
0
100
AcDbCircle
 62
7
  6
CONTINUOUS
 10
-93.6440162868
 20
136.0
 40
14.5900727153
100
AcDbArc
 50
358.6254046104
 51
1.3745953896
  0
ARC
  5
44B
100
AcDbEntity
  8
0
100
AcDbCircle
 62
7
  6
CONTINUOUS
 10
-234.3559837132
 20
136.0
 40
14.5900727152
100
AcDbArc
 50
178.6254046104
 51
181.3745953896
  0
ARC
  5
44C
100
AcDbEntity
  8
0
100
AcDbCircle
 62
7
  6
CONTINUOUS
 10
-259.6440162868
 20
136.0
 40
14.5900727152
100
AcDbArc
 50
358.6254046104
 51
1.3745953896
  0
ARC
  5
44D
100
AcDbEntity
  8
RACCORDO
100
AcDbCircle
 62
7
  6
CONTINUOUS
 10
-257.0
 20
146.0
 40
10.0
100
AcDbArc
 50
89.9999997845
 51
180.0000001072
  0
ARC
  5
44E
100
AcDbEntity
  8
CURVE
100
AcDbCircle
 62
7
  6
CONTINUOUS
 10
-257.0
 20
146.0
 40
10.0
100
AcDbArc
 50
90.0
 51
94.1563076628
  0
ARC
  5
44F
100
AcDbEntity
  8
RACCORDO
100
AcDbCircle
 62
253
  6
CONTINUOUS
 10
-257.0
 20
146.0
 40
7.9999857975
100
AcDbArc
 50
90.0
 51
180.0
  0
CIRCLE
  5
450
100
AcDbEntity
  8
0
100
AcDbCircle
 62
7
  6
CONTINUOUS
 10
-247.0
 20
136.0
 40
3.0
  0
CIRCLE
  5
451
100
AcDbEntity
  8
0
100
AcDbCircle
 62
7
  6
CONTINUOUS
 10
-81.0
 20
136.0
 40
3.0
  0
CIRCLE
  5
452
100
AcDbEntity
  8
0
100
AcDbCircle
 62
7
  6
CONTINUOUS
 10
-81.0
 20
136.0
 40
2.75
  0
CIRCLE
  5
453
100
AcDbEntity
  8
0
100
AcDbCircle
 62
7
  6
CONTINUOUS
 10
-247.0
 20
136.0
 40
2.75
  0
ARC
  5
454
100
AcDbEntity
  8
0
100
AcDbCircle
 62
7
  6
CONTINUOUS
 10
93.6440162868
 20
-136.0
 40
14.5900727153
100
AcDbArc
 50
178.6254046104
 51
181.3745953896
  0
ARC
  5
455
100
AcDbEntity
  8
0
100
AcDbCircle
 62
7
  6
CONTINUOUS
 10
68.3559837132
 20
-136.0
 40
14.5900727153
100
AcDbArc
 50
358.6254046104
 51
1.3745953896
  0
ARC
  5
456
100
AcDbEntity
  8
0
100
AcDbCircle
 62
7
  6
CONTINUOUS
 10
259.6440162868
 20
-136.0
 40
14.5900727152
100
AcDbArc
 50
178.6254046104
 51
181.3745953896
  0
ARC
  5
457
100
AcDbEntity
  8
0
100
AcDbCircle
 62
7
  6
CONTINUOUS
 10
234.3559837132
 20
-136.0
 40
14.5900727152
100
AcDbArc
 50
358.6254046104
 51
1.3745953896
  0
ARC
  5
458
100
AcDbEntity
  8
RACCORDO
100
AcDbCircle
 62
7
  6
CONTINUOUS
 10
257.0
 20
-146.0
 40
10.0
100
AcDbArc
 50
269.9999997845
 51
0.0000001072
  0
ARC
  5
459
100
AcDbEntity
  8
CURVE
100
AcDbCircle
 62
7
  6
CONTINUOUS
 10
257.0
 20
-146.0
 40
10.0
100
AcDbArc
 50
270.0
 51
274.1563076628
  0
ARC
  5
45A
100
AcDbEntity
  8
CURVE
100
AcDbCircle
 62
7
  6
CONTINUOUS
 10
257.0
 20
-146.0
 40
10.0
100
AcDbArc
 50
274.8096064537
 51
355.1903934369
  0
ARC
  5
45B
100
AcDbEntity
  8
CURVE
100
AcDbCircle
 62
7
  6
CONTINUOUS
 10
257.0
 20
-146.0
 40
10.0
100
AcDbArc
 50
355.841055964
 51
360.0
  0
ARC
  5
45C
100
AcDbEntity
  8
RACCORDO
100
AcDbCircle
 62
253
  6
CONTINUOUS
 10
257.0
 20
-146.0
 40
7.9999857975
100
AcDbArc
 50
270.0
 51
360.0
  0
CIRCLE
  5
45D
100
AcDbEntity
  8
0
100
AcDbCircle
 62
7
  6
CONTINUOUS
 10
247.0
 20
-136.0
 40
3.0
  0
CIRCLE
  5
45E
100
AcDbEntity
  8
0
100
AcDbCircle
 62
7
  6
CONTINUOUS
 10
81.0
 20
-136.0
 40
3.0
  0
CIRCLE
  5
45F
100
AcDbEntity
  8
0
100
AcDbCircle
 62
7
  6
CONTINUOUS
 10
81.0
 20
-136.0
 40
2.75
  0
CIRCLE
  5
460
100
AcDbEntity
  8
0
100
AcDbCircle
 62
7
  6
CONTINUOUS
 10
247.0
 20
-136.0
 40
2.75
  0
ARC
  5
461
100
AcDbEntity
  8
0
100
AcDbCircle
 62
7
  6
CONTINUOUS
 10
93.6440162868
 20
136.0
 40
14.5900727153
100
AcDbArc
 50
178.6254046104
 51
181.3745953896
  0
ARC
  5
462
100
AcDbEntity
  8
0
100
AcDbCircle
 62
7
  6
CONTINUOUS
 10
68.3559837132
 20
136.0
 40
14.5900727153
100
AcDbArc
 50
358.6254046104
 51
1.3745953896
  0
ARC
  5
463
100
AcDbEntity
  8
0
100
AcDbCircle
 62
7
  6
CONTINUOUS
 10
259.6440162868
 20
136.0
 40
14.5900727152
100
AcDbArc
 50
178.6254046104
 51
181.3745953896
  0
ARC
  5
464
100
AcDbEntity
  8
0
100
AcDbCircle
 62
7
  6
CONTINUOUS
 10
234.3559837132
 20
136.0
 40
14.5900727152
100
AcDbArc
 50
358.6254046104
 51
1.3745953896
  0
ARC
  5
465
100
AcDbEntity
  8
RACCORDO
100
AcDbCircle
 62
7
  6
CONTINUOUS
 10
257.0
 20
146.0
 40
10.0
100
AcDbArc
 50
359.9999997845
 51
90.0000001072
  0
ARC
  5
466
100
AcDbEntity
  8
CURVE
100
AcDbCircle
 62
7
  6
CONTINUOUS
 10
257.0
 20
146.0
 40
10.0
100
AcDbArc
 50
0.0
 51
4.8096064537
  0
ARC
  5
467
100
AcDbEntity
  8
RACCORDO
100
AcDbCircle
 62
253
  6
CONTINUOUS
 10
257.0
 20
146.0
 40
7.9999857975
100
AcDbArc
 50
0.0
 51
90.0
  0
CIRCLE
  5
468
100
AcDbEntity
  8
0
100
AcDbCircle
 62
7
  6
CONTINUOUS
 10
247.0
 20
136.0
 40
3.0
  0
CIRCLE
  5
469
100
AcDbEntity
  8
0
100
AcDbCircle
 62
7
  6
CONTINUOUS
 10
81.0
 20
136.0
 40
3.0
  0
CIRCLE
  5
46A
100
AcDbEntity
  8
0
100
AcDbCircle
 62
7
  6
CONTINUOUS
 10
81.0
 20
136.0
 40
2.75
  0
CIRCLE
  5
46B
100
AcDbEntity
  8
0
100
AcDbCircle
 62
7
  6
CONTINUOUS
 10
247.0
 20
136.0
 40
2.75
  0
ARC
  5
46C
100
AcDbEntity
  8
RACCORDO
100
AcDbCircle
 62
7
  6
CONTINUOUS
 10
-439.8510694727
 20
-154.0
 40
2.0
100
AcDbArc
 50
180.0
 51
270.0
  0
ARC
  5
46D
100
AcDbEntity
  8
RACCORDO
100
AcDbCircle
 62
7
  6
CONTINUOUS
 10
-431.6331381842
 20
-152.8256100145
 40
1.0
100
AcDbArc
 50
240.0
 51
269.0
  0
ARC
  5
46E
100
AcDbEntity
  8
RACCORDO
100
AcDbCircle
 62
7
  6
CONTINUOUS
 10
-434.6510694727
 20
-151.0832065726
 40
1.0
100
AcDbArc
 50
183.3786517078
 51
239.9999968483
  0
ARC
  5
46F
100
AcDbEntity
  8
RACCORDO
100
AcDbCircle
 62
7
  6
CONTINUOUS
 10
-414.5510694727
 20
-82.4042567919
 40
1.5
100
AcDbArc
 50
180.0
 51
269.5
  0
ARC
  5
470
100
AcDbEntity
  8
RACCORDO
100
AcDbCircle
 62
7
  6
CONTINUOUS
 10
-414.5510694727
 20
-87.9957432081
 40
1.5
100
AcDbArc
 50
90.5
 51
180.0
  0
ARC
  5
471
100
AcDbEntity
  8
RACCORDO
100
AcDbCircle
 62
7
  6
CONTINUOUS
 10
-414.5510694727
 20
-125.0042567919
 40
1.5
100
AcDbArc
 50
180.0
 51
269.5
  0
ARC
  5
472
100
AcDbEntity
  8
RACCORDO
100
AcDbCircle
 62
7
  6
CONTINUOUS
 10
-418.6510694727
 20
-152.9474824772
 40
1.0
100
AcDbArc
 50
271.0
 51
360.0
  0
ARC
  5
473
100
AcDbEntity
  8
RACCORDO
100
AcDbCircle
 62
7
  6
CONTINUOUS
 10
-423.1510694727
 20
-153.4737412386
 40
0.5
100
AcDbArc
 50
180.0
 51
268.9999999977
  0
ARC
  5
474
100
AcDbEntity
  8
RACCORDO
100
AcDbCircle
 62
7
  6
CONTINUOUS
 10
-414.5510694727
 20
-2.7957432081
 40
1.5
100
AcDbArc
 50
90.5
 51
180.0
  0
ARC
  5
475
100
AcDbEntity
  8
RACCORDO
100
AcDbCircle
 62
7
  6
CONTINUOUS
 10
-414.5510694727
 20
-39.8042567919
 40
1.5
100
AcDbArc
 50
180.0
 51
269.5
  0
ARC
  5
476
100
AcDbEntity
  8
RACCORDO
100
AcDbCircle
 62
7
  6
CONTINUOUS
 10
-414.5510694727
 20
-45.3957432081
 40
1.5
100
AcDbArc
 50
90.5
 51
180.0
  0
ARC
  5
477
100
AcDbEntity
  8
RACCORDO
100
AcDbCircle
 62
7
  6
CONTINUOUS
 10
-439.8510694727
 20
154.0
 40
2.0
100
AcDbArc
 50
90.0
 51
180.0
  0
ARC
  5
478
100
AcDbEntity
  8
RACCORDO
100
AcDbCircle
 62
7
  6
CONTINUOUS
 10
-434.6510694727
 20
151.0832065726
 40
1.0
100
AcDbArc
 50
120.0
 51
175.2518882214
  0
ARC
  5
479
100
AcDbEntity
  8
RACCORDO
100
AcDbCircle
 62
7
  6
CONTINUOUS
 10
-431.6331381842
 20
152.8256100145
 40
1.0
100
AcDbArc
 50
91.0
 51
120.0
  0
ARC
  5
47A
100
AcDbEntity
  8
RACCORDO
100
AcDbCircle
 62
7
  6
CONTINUOUS
 10
-414.5510694727
 20
45.3957432081
 40
1.5
100
AcDbArc
 50
180.0
 51
269.5
  0
ARC
  5
47B
100
AcDbEntity
  8
RACCORDO
100
AcDbCircle
 62
7
  6
CONTINUOUS
 10
-414.5510694727
 20
39.8042567919
 40
1.5
100
AcDbArc
 50
90.5
 51
180.0
  0
ARC
  5
47C
100
AcDbEntity
  8
RACCORDO
100
AcDbCircle
 62
7
  6
CONTINUOUS
 10
-414.5510694727
 20
2.7957432081
 40
1.5
100
AcDbArc
 50
180.0
 51
269.5
  0
ARC
  5
47D
100
AcDbEntity
  8
RACCORDO
100
AcDbCircle
 62
7
  6
CONTINUOUS
 10
-414.5510694727
 20
125.0042567919
 40
1.5
100
AcDbArc
 50
90.5
 51
180.0
  0
ARC
  5
47E
100
AcDbEntity
  8
RACCORDO
100
AcDbCircle
 62
7
  6
CONTINUOUS
 10
-414.5510694727
 20
87.9957432081
 40
1.5
100
AcDbArc
 50
180.0
 51
269.5
  0
ARC
  5
47F
100
AcDbEntity
  8
RACCORDO
100
AcDbCircle
 62
7
  6
CONTINUOUS
 10
-414.5510694727
 20
82.4042567919
 40
1.5
100
AcDbArc
 50
90.5
 51
180.0
  0
ARC
  5
480
100
AcDbEntity
  8
RACCORDO
100
AcDbCircle
 62
7
  6
CONTINUOUS
 10
-418.6510694727
 20
152.9474824772
 40
1.0
100
AcDbArc
 50
0.0
 51
89.0
  0
ARC
  5
481
100
AcDbEntity
  8
RACCORDO
100
AcDbCircle
 62
7
  6
CONTINUOUS
 10
-423.1510694727
 20
153.4737412386
 40
0.5
100
AcDbArc
 50
91.0
 51
180.0
  0
ARC
  5
482
100
AcDbEntity
  8
RACCORDO
100
AcDbCircle
 62
7
  6
CONTINUOUS
 10
-360.1510694727
 20
-138.1814571217
 40
4.5
100
AcDbArc
 50
271.0
 51
360.0
  0
ARC
  5
483
100
AcDbEntity
  8
RACCORDO
100
AcDbCircle
 62
253
  6
CONTINUOUS
 10
-360.1448357451
 20
-138.7814231313
 40
3.300055677
100
AcDbArc
 50
313.2437789331
 51
359.9995526516
  0
ARC
  5
484
100
AcDbEntity
  8
RACCORDO
100
AcDbCircle
 62
253
  6
CONTINUOUS
 10
-360.1510694727
 20
-138.1814571217
 40
3.3
100
AcDbArc
 50
271.0
 51
300.3084758853
  0
ARC
  5
485
100
AcDbEntity
  8
RACCORDO
100
AcDbCircle
 62
7
  6
CONTINUOUS
 10
-356.8511198157
 20
-129.2816328492
 40
1.2
100
AcDbArc
 50
270.302403731
 51
0.0000125843
  0
ARC
  5
486
100
AcDbEntity
  8
RACCORDO
100
AcDbCircle
 62
7
  6
CONTINUOUS
 10
-360.1510694727
 20
138.1814571217
 40
4.5
100
AcDbArc
 50
0.0
 51
89.0
  0
ARC
  5
487
100
AcDbEntity
  8
RACCORDO
100
AcDbCircle
 62
253
  6
CONTINUOUS
 10
-360.1510694727
 20
138.1814571217
 40
3.3
100
AcDbArc
 50
59.6915241147
 51
89.0
  0
ARC
  5
488
100
AcDbEntity
  8
RACCORDO
100
AcDbCircle
 62
253
  6
CONTINUOUS
 10
-360.1446361621
 20
138.7815072933
 40
3.2998485735
100
AcDbArc
 50
359.9989860574
 51
46.757744238
  0
ARC
  5
489
100
AcDbEntity
  8
RACCORDO
100
AcDbCircle
 62
7
  6
CONTINUOUS
 10
-366.2497906075
 20
0.0
 40
3.1024220994
100
AcDbArc
 50
347.8194718749
 51
12.1805281251
  0
ARC
  5
48A
100
AcDbEntity
  8
RACCORDO
100
AcDbCircle
 62
7
  6
CONTINUOUS
 10
-356.8510694727
 20
129.2816325856
 40
1.2
100
AcDbArc
 50
0.0
 51
89.7
  0
SPLINE
  5
48B
100
AcDbEntity
  8
DRAFT
100
AcDbSpline
 62
7
  6
CONTINUOUS
 70
0
 71
3
 72
10
 73
6
 74
4
 42
0.0000001
 43
0.0000001
 44
0.0000000001
 12
34.655993693
 22
0.0385321684
 32
0.0
 13
34.6560049349
 23
0.0265202928
 33
0.0
 40
0.0
 40
0.0
 40
0.0
 40
0.0
 40
0.0330409172
 40
0.5188193254
 40
1.0
 40
1.0
 40
1.0
 40
1.0
 10
-401.8070688038
 20
140.1396995149
 30
0.0
 10
-401.4253801982
 20
140.1401238943
 30
0.0
 10
-395.4319804105
 20
140.146759221
 30
0.0
 10
-383.8799814946
 20
140.1586799751
 30
0.0
 10
-372.7096694174
 20
140.1683489561
 30
0.0
 10
-367.1510694727
 20
140.1726026402
 30
0.0
 11
-401.8070688038
 21
140.1396995149
 31
0.0
 11
-400.662002981
 21
140.1409672059
 31
0.0
 11
-383.8268680265
 21
140.1582658809
 31
0.0
 11
-367.1510694727
 21
140.1726026402
 31
0.0
  0
SPLINE
  5
48C
100
AcDbEntity
  8
DRAFT
100
AcDbSpline
 62
7
  6
CONTINUOUS
 70
0
 71
3
 72
10
 73
6
 74
4
 42
0.0000001
 43
0.0000001
 44
0.0000000001
 12
34.655993693
 22
-0.0385321684
 32
0.0
 13
34.6560049349
 23
-0.0265202928
 33
0.0
 40
0.0
 40
0.0
 40
0.0
 40
0.0
 40
0.0330409172
 40
0.5188193254
 40
1.0
 40
1.0
 40
1.0
 40
1.0
 10
-401.8070688038
 20
-140.1396995149
 30
0.0
 10
-401.4253801982
 20
-140.1401238943
 30
0.0
 10
-395.4319804105
 20
-140.146759221
 30
0.0
 10
-383.8799814946
 20
-140.1586799751
 30
0.0
 10
-372.7096694174
 20
-140.1683489561
 30
0.0
 10
-367.1510694727
 20
-140.1726026402
 30
0.0
 11
-401.8070688038
 21
-140.1396995149
 31
0.0
 11
-400.662002981
 21
-140.1409672059
 31
0.0
 11
-383.8268680265
 21
-140.1582658809
 31
0.0
 11
-367.1510694727
 21
-140.1726026402
 31
0.0
  0
SPLINE
  5
48D
100
AcDbEntity
  8
RACCORDO
100
AcDbSpline
 62
7
  6
CONTINUOUS
 70
0
 71
3
 72
11
 73
7
 74
5
 42
0.0000001
 43
0.0000001
 44
0.0000000001
 12
0.6358114706
 22
0.006658263
 32
0.0
 13
0.4469121562
 23
-0.4522942441
 33
0.0
 40
0.0
 40
0.0
 40
0.0
 40
0.0
 40
0.2889269106
 40
0.5533144358
 40
0.7913689694
 40
1.0
 40
1.0
 40
1.0
 40
1.0
 10
-358.4857068434
 20
-141.0304161093
 30
0.0
 10
-358.4244724955
 20
-141.0297748588
 30
0.0
 10
-358.3070736887
 20
-141.0322248956
 30
0.0
 10
-358.1402533702
 20
-141.0542233012
 30
0.0
 10
-357.9955379809
 20
-141.1000800623
 30
0.0
 10
-357.9150360851
 20
-141.1538776419
 30
0.0
 10
-357.8839561705
 20
-141.1853318466
 30
0.0
 11
-358.4857068434
 21
-141.0304161093
 31
0.0
 11
-358.3020743849
 21
-141.0358593927
 31
0.0
 11
-358.1357155785
 21
-141.0600599144
 31
0.0
 11
-357.9925053607
 21
-141.1090755283
 31
0.0
 11
-357.8839561705
 21
-141.1853318466
 31
0.0
  0
SPLINE
  5
48E
100
AcDbEntity
  8
RACCORDO
100
AcDbSpline
 62
253
  6
CONTINUOUS
 70
0
 71
3
 72
12
 73
8
 74
6
 42
0.0000001
 43
0.0000001
 44
0.0000000001
 12
-0.4956838842
 22
-0.8588112542
 32
0.0
 13
0.858745866
 23
-0.495797157
 33
0.0
 40
0.0
 40
0.0
 40
0.0
 40
0.0
 40
0.3101431056
 40
0.5891045435
 40
0.8102453345
 40
0.951501057
 40
1.0
 40
1.0
 40
1.0
 40
1.0
 10
-434.6685218792
 20
-151.0832065726
 30
0.0
 10
-434.7197661923
 20
-151.1719913691
 30
0.0
 10
-434.8189955282
 20
-151.3417193192
 30
0.0
 10
-434.9424245656
 20
-151.571311409
 30
0.0
 10
-435.0682056433
 20
-151.7648562134
 30
0.0
 10
-435.0906235772
 20
-151.8680113125
 30
0.0
 10
-435.1649522284
 20
-151.9412167637
 30
0.0
 10
-435.1510694727
 20
-151.9492319764
 30
0.0
 11
-434.6685218792
 21
-151.0832065726
 31
0.0
 11
-434.8216180869
 21
-151.3499274541
 31
0.0
 11
-434.9580453992
 21
-151.5905606154
 31
0.0
 11
-435.0647700287
 21
-151.7821185113
 31
0.0
 11
-435.1311364887
 21
-151.9054661565
 31
0.0
 11
-435.1510694727
 21
-151.9492319764
 31
0.0
  0
SPLINE
  5
48F
100
AcDbEntity
  8
RACCORDO
100
AcDbSpline
 62
253
  6
CONTINUOUS
 70
0
 71
3
 72
12
 73
8
 74
6
 42
0.0000001
 43
0.0000001
 44
0.0000000001
 12
-0.4956836273
 22
-0.8588108092
 32
0.0
 13
0.8587454211
 23
-0.4957969
 33
0.0
 40
0.0
 40
0.0
 40
0.0
 40
0.0
 40
0.3095610572
 40
0.5883198563
 40
0.8092940639
 40
0.9510361941
 40
1.0
 40
1.0
 40
1.0
 40
1.0
 10
-431.6505905906
 20
-152.8256100145
 30
0.0
 10
-431.7017387065
 20
-152.9142281418
 30
0.0
 10
-431.8008303143
 20
-153.0837258088
 30
0.0
 10
-431.9241347184
 20
-153.3130584056
 30
0.0
 10
-432.049896229
 20
-153.5066036201
 30
0.0
 10
-432.0723641322
 20
-153.6099763241
 30
0.0
 10
-432.1471539989
 20
-153.6835433839
 30
0.0
 10
-432.1331381842
 20
-153.6916354182
 30
0.0
 11
-431.6505905906
 21
-152.8256100145
 31
0.0
 11
-431.8034006602
 21
-153.0918294783
 31
0.0
 11
-431.9397324292
 21
-153.3322856607
 31
0.0
 11
-432.0463841531
 21
-153.5236949551
 31
0.0
 11
-432.1129934572
 21
-153.647459557
 31
0.0
 11
-432.1331381842
 21
-153.6916354182
 31
0.0
  0
SPLINE
  5
490
100
AcDbEntity
  8
RACCORDO
100
AcDbSpline
 62
253
  6
CONTINUOUS
 70
0
 71
3
 72
12
 73
8
 74
6
 42
0.0000001
 43
0.0000001
 44
0.0000000001
 12
-0.0174492012
 22
-0.9999686441
 32
0.0
 13
0.9999685514
 23
-0.017454516
 33
0.0
 40
0.0
 40
0.0
 40
0.0
 40
0.0
 40
0.3089820696
 40
0.5876913346
 40
0.8088966567
 40
0.9508782564
 40
1.0
 40
1.0
 40
1.0
 40
1.0
 10
-431.6505905906
 20
-152.8256100145
 30
0.0
 10
-431.652387754
 20
-152.9286008082
 30
0.0
 10
-431.6568108507
 20
-153.1263549518
 30
0.0
 10
-431.6533849573
 20
-153.3888561516
 30
0.0
 10
-431.6687243782
 20
-153.6211709446
 30
0.0
 10
-431.638467677
 20
-153.7236243571
 30
0.0
 10
-431.6669639902
 20
-153.8251719109
 30
0.0
 10
-431.6505905906
 20
-153.8254577096
 30
0.0
 11
-431.6505905906
 21
-152.8256100145
 31
0.0
 11
-431.6551280471
 21
-153.1345961177
 31
0.0
 11
-431.6575127307
 21
-153.4133288708
 31
0.0
 11
-431.6575110692
 21
-153.634560931
 31
0.0
 11
-431.655123795
 21
-153.7765396239
 31
0.0
 11
-431.6505905906
 21
-153.8254577096
 31
0.0
  0
SPLINE
  5
491
100
AcDbEntity
  8
RACCORDO
100
AcDbSpline
 62
253
  6
CONTINUOUS
 70
0
 71
3
 72
12
 73
8
 74
6
 42
0.0000001
 43
0.0000001
 44
0.0000000001
 12
-0.0174492012
 22
0.9999686441
 32
0.0
 13
0.9999685514
 23
0.017454516
 33
0.0
 40
0.0
 40
0.0
 40
0.0
 40
0.0
 40
0.3089820698
 40
0.5876913347
 40
0.8088966567
 40
0.9508782564
 40
1.0
 40
1.0
 40
1.0
 40
1.0
 10
-431.6505905906
 20
152.8256100145
 30
0.0
 10
-431.652387754
 20
152.9286008083
 30
0.0
 10
-431.6568108507
 20
153.1263549518
 30
0.0
 10
-431.6533849573
 20
153.3888561517
 30
0.0
 10
-431.6687243782
 20
153.6211709446
 30
0.0
 10
-431.638467677
 20
153.7236243571
 30
0.0
 10
-431.6669639902
 20
153.8251719109
 30
0.0
 10
-431.6505905906
 20
153.8254577096
 30
0.0
 11
-431.6505905906
 21
152.8256100145
 31
0.0
 11
-431.6551280471
 21
153.1345961179
 31
0.0
 11
-431.6575127307
 21
153.4133288709
 31
0.0
 11
-431.6575110692
 21
153.634560931
 31
0.0
 11
-431.655123795
 21
153.7765396238
 31
0.0
 11
-431.6505905906
 21
153.8254577096
 31
0.0
  0
SPLINE
  5
492
100
AcDbEntity
  8
RACCORDO
100
AcDbSpline
 62
253
  6
CONTINUOUS
 70
0
 71
3
 72
12
 73
8
 74
6
 42
0.0000001
 43
0.0000001
 44
0.0000000001
 12
-0.4956836273
 22
0.8588108092
 32
0.0
 13
0.8587454211
 23
0.4957969
 33
0.0
 40
0.0
 40
0.0
 40
0.0
 40
0.0
 40
0.3095610954
 40
0.5883198784
 40
0.8092940568
 40
0.9510361826
 40
1.0
 40
1.0
 40
1.0
 40
1.0
 10
-431.6505905906
 20
152.8256100145
 30
0.0
 10
-431.7017387128
 20
152.9142281528
 30
0.0
 10
-431.8008303244
 20
153.0837258262
 30
0.0
 10
-431.9241347279
 20
153.3130584214
 30
0.0
 10
-432.0498962266
 20
153.5066036198
 30
0.0
 10
-432.0723641298
 20
153.6099763193
 30
0.0
 10
-432.1471540021
 20
153.683543382
 30
0.0
 10
-432.1331381842
 20
153.6916354183
 30
0.0
 11
-431.6505905906
 21
152.8256100145
 31
0.0
 11
-431.803400679
 21
153.0918295112
 31
0.0
 11
-431.93973244
 21
153.3322856799
 31
0.0
 11
-432.0463841497
 21
153.5236949488
 31
0.0
 11
-432.112993452
 21
153.6474595469
 31
0.0
 11
-432.1331381842
 21
153.6916354183
 31
0.0
  0
SPLINE
  5
493
100
AcDbEntity
  8
RACCORDO
100
AcDbSpline
 62
253
  6
CONTINUOUS
 70
0
 71
3
 72
12
 73
8
 74
6
 42
0.0000001
 43
0.0000001
 44
0.0000000001
 12
-0.4956838842
 22
0.8588112542
 32
0.0
 13
0.858745866
 23
0.4957971569
 33
0.0
 40
0.0
 40
0.0
 40
0.0
 40
0.0
 40
0.310143099
 40
0.5891045404
 40
0.8102453374
 40
0.9515010598
 40
1.0
 40
1.0
 40
1.0
 40
1.0
 10
-434.6685218792
 20
151.0832065726
 30
0.0
 10
-434.7197661912
 20
151.1719913672
 30
0.0
 10
-434.8189955266
 20
151.3417193164
 30
0.0
 10
-434.9424245643
 20
151.5713114069
 30
0.0
 10
-435.0682056444
 20
151.7648562144
 30
0.0
 10
-435.0906235782
 20
151.8680113141
 30
0.0
 10
-435.1649522276
 20
151.9412167642
 30
0.0
 10
-435.1510694727
 20
151.9492319764
 30
0.0
 11
-434.6685218792
 21
151.0832065726
 31
0.0
 11
-434.8216180836
 21
151.3499274484
 31
0.0
 11
-434.9580453977
 21
151.5905606127
 31
0.0
 11
-435.06477003
 21
151.7821185138
 31
0.0
 11
-435.13113649
 21
151.905466159
 31
0.0
 11
-435.1510694727
 21
151.9492319764
 31
0.0
  0
SPLINE
  5
494
100
AcDbEntity
  8
RACCORDO
100
AcDbSpline
 62
253
  6
CONTINUOUS
 70
0
 71
3
 72
11
 73
7
 74
5
 42
0.0000001
 43
0.0000001
 44
0.0000000001
 12
1.2003427601
 22
0.0062850374
 32
0.0
 13
-0.006283135
 23
1.2003427701
 33
0.0
 40
0.0
 40
0.0
 40
0.0
 40
0.0
 40
0.0763812862
 40
0.2931395187
 40
0.617456835
 40
1.0
 40
1.0
 40
1.0
 40
1.0
 10
-360.0871933749
 20
-130.4985934951
 30
0.0
 10
-360.0566321336
 20
-130.4984334754
 30
0.0
 10
-360.1115569507
 20
-130.3101853089
 30
0.0
 10
-360.0535997875
 20
-130.1273099103
 30
0.0
 10
-360.0789068504
 20
-129.7252831712
 30
0.0
 10
-360.0717324537
 20
-129.4516709186
 30
0.0
 10
-360.0725336438
 20
-129.2986099445
 30
0.0
 11
-360.0871933749
 21
-130.4985934951
 31
0.0
 11
-360.0796577619
 21
-130.4072187162
 31
0.0
 11
-360.074225689
 21
-130.1470876848
 31
0.0
 11
-360.0717240454
 21
-129.7577984438
 31
0.0
 11
-360.0725336438
 21
-129.2986099445
 31
0.0
  0
SPLINE
  5
495
100
AcDbEntity
  8
RACCORDO
100
AcDbSpline
 62
253
  6
CONTINUOUS
 70
0
 71
3
 72
11
 73
7
 74
5
 42
0.0000001
 43
0.0000001
 44
0.0000000001
 12
1.4377361012
 22
0.003764019
 32
0.0
 13
0.0
 23
1.4377410284
 33
0.0
 40
0.0
 40
0.0
 40
0.0
 40
0.0
 40
0.3197045244
 40
0.6038338387
 40
0.8287476996
 40
1.0
 40
1.0
 40
1.0
 40
1.0
 10
-356.8447863161
 20
-138.7814488971
 30
0.0
 10
-356.691569404
 20
-138.7810477724
 30
0.0
 10
-356.4010265848
 20
-138.7535482905
 30
0.0
 10
-356.0198407542
 20
-138.6323326148
 30
0.0
 10
-355.7400453747
 20
-138.451058857
 30
0.0
 10
-355.6510694727
 20
-138.2635292746
 30
0.0
 10
-355.6510694727
 20
-138.1814571217
 30
0.0
 11
-356.8447863161
 21
-138.7814488971
 31
0.0
 11
-356.3874992265
 21
-138.7348788927
 31
0.0
 11
-356.0003228044
 21
-138.6046090168
 31
0.0
 11
-355.741813866
 21
-138.4103413709
 31
0.0
 11
-355.6510694727
 21
-138.1814571217
 31
0.0
  0
SPLINE
  5
496
100
AcDbEntity
  8
RACCORDO
100
AcDbSpline
 62
7
  6
CONTINUOUS
 70
0
 71
3
 72
10
 73
6
 74
4
 42
0.0000001
 43
0.0000001
 44
0.0000000001
 12
-0.6014748491
 22
-0.5073637996
 32
0.0
 13
-0.5530723802
 23
0.5597329377
 33
0.0
 40
0.0
 40
0.0
 40
0.0
 40
0.0
 40
0.1568299708
 40
0.5000033797
 40
1.0
 40
1.0
 40
1.0
 40
1.0
 10
-357.2497715904
 20
-141.6212929605
 30
0.0
 10
-357.2812146847
 20
-141.6478162438
 30
0.0
 10
-357.435687168
 20
-141.5800386089
 30
0.0
 10
-357.621816658
 20
-141.4350368323
 30
0.0
 10
-357.7917780635
 20
-141.278620039
 30
0.0
 10
-357.8839561705
 20
-141.1853318466
 30
0.0
 11
-357.2497715904
 21
-141.6212929605
 31
0.0
 11
-357.372076383
 21
-141.6048335455
 31
0.0
 11
-357.5947844543
 21
-141.452118523
 31
0.0
 11
-357.8839561705
 21
-141.1853318466
 31
0.0
  0
SPLINE
  5
497
100
AcDbEntity
  8
RACCORDO
100
AcDbSpline
 62
253
  6
CONTINUOUS
 70
0
 71
3
 72
11
 73
7
 74
5
 42
0.0000001
 43
0.0000001
 44
0.0000000001
 12
1.2003427605
 22
-0.0062850374
 32
0.0
 13
-0.0062830006
 23
-1.2003427712
 33
0.0
 40
0.0
 40
0.0
 40
0.0
 40
0.0
 40
0.0763781381
 40
0.2931324029
 40
0.6174506698
 40
1.0
 40
1.0
 40
1.0
 40
1.0
 10
-360.0871933749
 20
130.4985934952
 30
0.0
 10
-360.0566333932
 20
130.498433482
 30
0.0
 10
-360.1115563719
 20
130.3101901599
 30
0.0
 10
-360.0535997959
 20
130.1273166847
 30
0.0
 10
-360.0789070841
 20
129.7252882134
 30
0.0
 10
-360.0717324514
 20
129.4516733855
 30
0.0
 10
-360.0725336373
 20
129.2986099444
 30
0.0
 11
-360.0871933749
 21
130.4985934952
 31
0.0
 11
-360.0796579386
 21
130.4072224933
 31
0.0
 11
-360.0742258426
 21
130.147096226
 31
0.0
 11
-360.071724094
 21
129.7578058445
 31
0.0
 11
-360.0725336373
 21
129.2986099444
 31
0.0
  0
SPLINE
  5
498
100
AcDbEntity
  8
RACCORDO
100
AcDbSpline
 62
7
  6
CONTINUOUS
 70
0
 71
3
 72
10
 73
6
 74
4
 42
0.0000001
 43
0.0000001
 44
0.0000000001
 12
0.5530726255
 22
0.5597333207
 32
0.0
 13
0.6014746318
 23
-0.5073647472
 33
0.0
 40
0.0
 40
0.0
 40
0.0
 40
0.0
 40
0.499996766
 40
0.8431690453
 40
1.0
 40
1.0
 40
1.0
 40
1.0
 10
-357.8839561425
 20
141.185331875
 30
0.0
 10
-357.7917779678
 20
141.2786201584
 30
0.0
 10
-357.6218165877
 20
141.4350363252
 30
0.0
 10
-357.4356877966
 20
141.5800404065
 30
0.0
 10
-357.2812148706
 20
141.6478164597
 30
0.0
 10
-357.2497715904
 20
141.6212929605
 30
0.0
 11
-357.8839561425
 21
141.185331875
 31
0.0
 11
-357.5947843708
 21
141.4521189884
 31
0.0
 11
-357.3720773229
 21
141.6048342015
 31
0.0
 11
-357.2497715904
 21
141.6212929605
 31
0.0
  0
SPLINE
  5
499
100
AcDbEntity
  8
RACCORDO
100
AcDbSpline
 62
253
  6
CONTINUOUS
 70
0
 71
3
 72
11
 73
7
 74
5
 42
0.0000001
 43
0.0000001
 44
0.0000000001
 12
1.4377359269
 22
-0.0037646558
 32
0.0
 13
0.0
 23
-1.4377408557
 33
0.0
 40
0.0
 40
0.0
 40
0.0
 40
0.0
 40
0.3197035381
 40
0.6038333458
 40
0.8287476558
 40
1.0
 40
1.0
 40
1.0
 40
1.0
 10
-356.8447863161
 20
138.7814488971
 30
0.0
 10
-356.6915698952
 20
138.7810477058
 30
0.0
 10
-356.4010273726
 20
138.7535482332
 30
0.0
 10
-356.0198415559
 20
138.6323327608
 30
0.0
 10
-355.7400456524
 20
138.4510590266
 30
0.0
 10
-355.6510694727
 20
138.2635292854
 30
0.0
 10
-355.6510694727
 20
138.1814571214
 30
0.0
 11
-356.8447863161
 21
138.7814488971
 31
0.0
 11
-356.3875006927
 21
138.7348790372
 31
0.0
 11
-356.0003235715
 21
138.6046091685
 31
0.0
 11
-355.7418140017
 21
138.4103413528
 31
0.0
 11
-355.6510694727
 21
138.1814571214
 31
0.0
  0
SPLINE
  5
49A
100
AcDbEntity
  8
RACCORDO
100
AcDbSpline
 62
7
  6
CONTINUOUS
 70
0
 71
3
 72
11
 73
7
 74
5
 42
0.0000001
 43
0.0000001
 44
0.0000000001
 12
-0.4469121295
 22
-0.4522943259
 32
0.0
 13
-0.63581151
 23
0.0066582634
 33
0.0
 40
0.0
 40
0.0
 40
0.0
 40
0.0
 40
0.2086310262
 40
0.4466855587
 40
0.7110730855
 40
1.0
 40
1.0
 40
1.0
 40
1.0
 10
-357.8839561425
 20
141.185331875
 30
0.0
 10
-357.9150360545
 20
141.1538776652
 30
0.0
 10
-357.99553795
 20
141.1000800752
 30
0.0
 10
-358.140253346
 20
141.0542233056
 30
0.0
 10
-358.3070736756
 20
141.032224896
 30
0.0
 10
-358.4244724908
 20
141.0297748588
 30
0.0
 10
-358.4857068434
 20
141.0304161093
 30
0.0
 11
-357.8839561425
 21
141.185331875
 31
0.0
 11
-357.99250533
 21
141.1090755434
 31
0.0
 11
-358.1357155537
 21
141.0600599201
 31
0.0
 11
-358.3020743711
 21
141.0358593938
 31
0.0
 11
-358.4857068434
 21
141.0304161093
 31
0.0
  0
LINE
  5
49B
100
AcDbEntity
  8
RACCORDO
100
AcDbLine
 62
253
  6
CONTINUOUS
 10
-360.0725336438
 20
129.2986099445
 11
-355.6510694727
 21
129.2816325856
  0
LINE
  5
49C
100
AcDbEntity
  8
DRAFT
100
AcDbLine
 62
7
  6
CONTINUOUS
 10
-423.6510694719
 20
142.3488762099
 11
-428.151069471
 21
142.3516756236
  0
LINE
  5
49D
100
AcDbEntity
  8
DRAFT
100
AcDbLine
 62
7
  6
CONTINUOUS
 10
-428.151069471
 20
142.3516756236
 11
-431.6420077954
 21
142.3536280459
  0
LINE
  5
49E
100
AcDbEntity
  8
RACCORDO
100
AcDbLine
 62
253
  6
CONTINUOUS
 10
-355.6510694727
 20
-129.2816325856
 11
-360.0725336438
 21
-129.2986099445
  0
LINE
  5
49F
100
AcDbEntity
  8
DRAFT
100
AcDbLine
 62
7
  6
CONTINUOUS
 10
-423.6510694719
 20
-142.3488762099
 11
-428.151069471
 21
-142.3516756236
  0
LINE
  5
4A0
100
AcDbEntity
  8
DRAFT
100
AcDbLine
 62
7
  6
CONTINUOUS
 10
-428.151069471
 20
-142.3516756236
 11
-431.6420077954
 21
-142.3536280459
  0
ELLIPSE
  5
4A1
100
AcDbEntity
  8
DRAFT
100
AcDbEllipse
 62
7
  6
CONTINUOUS
 10
-452.4179296264
 20
134.2566927877
 30
0.0
 11
20.529069728
 21
9.7395921906
 31
0.0
 40
0.3418503939
 41
-0.2061414812
 42
-0.115426251
  0
ELLIPSE
  5
4A2
100
AcDbEntity
  8
DRAFT
100
AcDbEllipse
 62
7
  6
CONTINUOUS
 10
-452.4179296264
 20
-134.2566927877
 30
0.0
 11
20.529069728
 21
-9.7395921906
 31
0.0
 40
0.3418503939
 41
0.115426251
 42
0.2061414812
  0
ENDSEC
  0
SECTION
  2
OBJECTS
  0
DICTIONARY
  5
C
100
AcDbDictionary
280
0
281
1
  3
ACAD_GROUP
350
D
  3
ACAD_MLINESTYLE
350
17
  3
ACAD_LAYOUT
350
1A
  3
ACAD_PLOTSETTINGS
350
19
  3
ACAD_PLOTSTYLENAME
350
E
  0
DICTIONARY
  5
D
102
{ACAD_REACTORS
330
C
102
}
100
AcDbDictionary
280
0
281
1
  0
ACDBDICTIONARYWDFLT
  5
E
102
{ACAD_REACTORS
330
C
102
}
100
AcDbDictionary
281
1
  3
Normal
350
F
100
AcDbDictionaryWithDefault
340
F
  0
DICTIONARY
  5
17
102
{ACAD_REACTORS
330
C
102
}
100
AcDbDictionary
280
0
281
1
  3
Standard
350
18
  0
DICTIONARY
  5
19
102
{ACAD_REACTORS
330
C
102
}
100
AcDbDictionary
281
1
  0
DICTIONARY
  5
1A
102
{ACAD_REACTORS
330
C
102
}
100
AcDbDictionary
281
1
  3
Model
350
4A3
  3
Layout1
350
4A4
  0
ACDBPLACEHOLDER
  5
F
102
{ACAD_REACTORS
330
E
102
}
  0
MLINESTYLE
  5
18
102
{ACAD_REACTORS
330
17
102
}
100
AcDbMlineStyle
  2
STANDARD
 70
0
  3

 62
256
 51
90.0
 52
90.0
 71
2
 49
0.5
 62
256
  6
BYLAYER
 49
-0.5
 62
256
  6
BYLAYER
  0
LAYOUT
  5
4A3
102
{ACAD_REACTORS
330
1A
102
}
100
AcDbPlotSettings
  1

  2
none_device
  4
ISO_A4_(297.00_x_210.00_MM)
  6

 40
0.0
 41
0.0
 42
0.0
 43
0.0
 44
297.0
 45
210.0
 46
0.0
 47
0.0
 48
0.0
 49
0.0
140
0.0
141
0.0
142
1.0
143
1.0
 70
1024
 72
1
 73
0
 74
0
  7

 75
0
147
1.0
148
0.0
149
0.0
100
AcDbLayout
  1
Model
 70
0
 71
0
 10
0.0
 20
0.0
 11
297.0
 21
210.0
 12
0.0
 22
0.0
 32
0.0
 14
0.0
 24
0.0
 34
0.0
 15
0.0
 25
0.0
 35
0.0
146
0.0
 13
0.0
 23
0.0
 33
0.0
 16
1.0
 26
0.0
 36
0.0
 17
0.0
 27
1.0
 37
0.0
 76
0
330
212
345
0
346
0
  0
LAYOUT
  5
4A4
102
{ACAD_REACTORS
330
1A
102
}
100
AcDbPlotSettings
  1

  2
none_device
  4
ISO_A4_(297.00_x_210.00_MM)
  6

 40
0.0
 41
0.0
 42
0.0
 43
0.0
 44
297.0
 45
210.0
 46
0.0
 47
0.0
 48
0.0
 49
0.0
140
0.0
141
0.0
142
1.0
143
1.0
 70
0
 72
1
 73
0
 74
0
  7

 75
0
147
1.0
148
0.0
149
0.0
100
AcDbLayout
  1
Layout1
 70
0
 71
1
 10
0.0
 20
0.0
 11
297.0
 21
210.0
 12
0.0
 22
0.0
 32
0.0
 14
0.0
 24
0.0
 34
0.0
 15
0.0
 25
0.0
 35
0.0
146
0.0
 13
0.0
 23
0.0
 33
0.0
 16
1.0
 26
0.0
 36
0.0
 17
0.0
 27
1.0
 37
0.0
 76
0
330
213
345
0
346
0
  0
ENDSEC
  0
EOF
