  0
SECTION
  2
HEADER
  9
$ACADVER
  1
AC1024
  9
$DWGCODEPAGE
  3
ANSI_1252
  9
$EXTMAX
 10
558.8
 20
431.8
 30
0.0
  9
$EXTMIN
 10
0.0
 20
0.0
 30
0.0
  9
$LIMMIN
 10
0.0
 20
0.0
  9
$LIMMAX
 10
558.8
 20
431.8
  9
$VIEWCTR
 10
279.4
 20
215.9
  9
$VIEWSIZE
 40
431.8
  9
$CLAYER
  8
0
  9
$LTSCALE
 40
30.734
  9
$CELTYPE
  6
BYLAYER
  9
$DIMSCALE
 40
1.0
  9
$DIMASZ
 40
3.0
  9
$DIMEXO
 40
0.5
  9
$DIMDLI
 40
21.2344
  9
$DIMEXE
 40
1.5
  9
$DIMCEN
 40
5.0292
  9
$DIMLFAC
 40
1.0
  9
$DIMBLK
  1
_FILLED
  9
$DIMALT
 70
0
  9
$DIMALTF
 40
0.0393700787
  9
$DIMTXT
 40
3.0
  9
$DIMTOL
 70
1
  9
$DIMLIM
 70
0
  9
$DIMTFAC
 40
1.0
  9
$DIMTP
 40
0.01
  9
$DIMTM
 40
0.01
  9
$DIMGAP
 40
0.625
  9
$DIMDSEP
 70
44
  9
$AUNITS
 70
0
  9
$PDMODE
 70
3
  9
$PDSIZE
 40
3.0
  9
$HANDSEED
  5
2F0
  9
$TILEMODE
 70
1
  9
$MEASUREMENT
 70
1
  9
$INSUNITS
 70
4
  0
ENDSEC
  0
SECTION
  2
CLASSES
  0
CLASS
  1
ACDBDICTIONARYWDFLT
  2
AcDbDictionaryWithDefault
  3
AutoCAD 2000
 90
0
 91
1
280
0
281
0
  0
CLASS
  1
ACDBPLACEHOLDER
  2
AcDbPlaceHolder
  3
AutoCAD 2000
 90
0
 91
1
280
0
281
0
  0
CLASS
  1
LAYOUT
  2
AcDbLayout
  3
AutoCAD 2000
 90
0
 91
0
280
0
281
0
  0
ENDSEC
  0
SECTION
  2
TABLES
  0
TABLE
  2
VPORT
  5
8
100
AcDbSymbolTable
 70
2
  0
VPORT
  5
1F4
100
AcDbSymbolTableRecord
100
AcDbViewportTableRecord
  2
*ACTIVE
 70
0
 10
0.0
 20
0.0
 11
1.0
 21
1.0
 12
279.4
 22
215.9
 13
0.0
 23
0.0
 14
1.0
 24
1.0
 15
0.0
 25
0.0
 16
0.0
 26
0.0
 36
1.0
 17
0.0
 27
0.0
 37
0.0
 40
431.8
 41
1.2941176471
 42
50.0
 43
0.0
 44
0.0
 50
0.0
 51
0.0
 71
0
 72
100
 73
1
 74
1
 75
0
 76
0
 77
0
 78
0
  0
ENDTAB
  0
TABLE
  2
LTYPE
  5
5
100
AcDbSymbolTable
 70
6
  0
LTYPE
  5
14
100
AcDbSymbolTableRecord
100
AcDbLinetypeTableRecord
  2
BYBLOCK
 70
0
  3

 72
65
 73
0
 40
0.0
  0
LTYPE
  5
15
100
AcDbSymbolTableRecord
100
AcDbLinetypeTableRecord
  2
BYLAYER
 70
0
  3

 72
65
 73
0
 40
0.0
  0
LTYPE
  5
16
100
AcDbSymbolTableRecord
100
AcDbLinetypeTableRecord
  2
CONTINUOUS
 70
64
  3
Solid line
 72
65
 73
0
 40
0.0
  0
LTYPE
  5
1F5
100
AcDbSymbolTableRecord
100
AcDbLinetypeTableRecord
  2
CENTER
 70
64
  3
____ _ ____ _ ____ _ ____ _ ____ _ ____ _ ____
 72
65
 73
4
 40
0.6
 49
0.375
 74
0
 49
-0.075
 74
0
 49
0.075
 74
0
 49
-0.075
 74
0
  0
LTYPE
  5
1F6
100
AcDbSymbolTableRecord
100
AcDbLinetypeTableRecord
  2
HIDDEN
 70
64
  3
- - - - - - - - - - - - - - - - - - - -
 72
65
 73
2
 40
0.2
 49
0.1
 74
0
 49
-0.1
 74
0
  0
LTYPE
  5
1F7
100
AcDbSymbolTableRecord
100
AcDbLinetypeTableRecord
  2
PHANTOM
 70
64
  3
_____ _ _ _____ _ _ _____ _ _ _____
 72
65
 73
6
 40
0.8
 49
0.45
 74
0
 49
-0.05
 74
0
 49
0.1
 74
0
 49
-0.05
 74
0
 49
0.1
 74
0
 49
-0.05
 74
0
  0
LTYPE
  5
1F8
100
AcDbSymbolTableRecord
100
AcDbLinetypeTableRecord
  2
DOT
 70
64
  3
. . . . . . . . . . . . . . . . . . . .
 72
65
 73
2
 40
0.2
 49
0.1
 74
0
 49
-0.1
 74
0
  0
LTYPE
  5
1F9
100
AcDbSymbolTableRecord
100
AcDbLinetypeTableRecord
  2
DASHED
 70
64
  3
- - - - - - - - - - - - - - - - - - - -
 72
65
 73
2
 40
0.2
 49
0.1
 74
0
 49
-0.1
 74
0
  0
ENDTAB
  0
TABLE
  2
LAYER
  5
2
100
AcDbSymbolTable
 70
36
  0
LAYER
  5
10
100
AcDbSymbolTableRecord
100
AcDbLayerTableRecord
  2
0
 70
0
 62
7
  6
CONTINUOUS
370
-3
390
F
  0
LAYER
  5
1FA
100
AcDbSymbolTableRecord
100
AcDbLayerTableRecord
  2
DEFAULT_1
 70
0
 62
7
  6
CENTER
370
-3
390
F
  0
LAYER
  5
1FB
100
AcDbSymbolTableRecord
100
AcDbLayerTableRecord
  2
DEFAULT_2
 70
0
 62
7
  6
HIDDEN
370
-3
390
F
  0
LAYER
  5
1FC
100
AcDbSymbolTableRecord
100
AcDbLayerTableRecord
  2
DEFAULT_3
 70
0
 62
7
  6
PHANTOM
370
-3
390
F
  0
LAYER
  5
1FD
100
AcDbSymbolTableRecord
100
AcDbLayerTableRecord
  2
ASSI
 70
0
 62
7
  6
CONTINUOUS
370
-3
390
F
  0
LAYER
  5
1FE
100
AcDbSymbolTableRecord
100
AcDbLayerTableRecord
  2
COORDINATE
 70
0
 62
7
  6
CONTINUOUS
370
-3
390
F
  0
LAYER
  5
1FF
100
AcDbSymbolTableRecord
100
AcDbLayerTableRecord
  2
COPY_PUBLISH
 70
0
 62
7
  6
CONTINUOUS
370
-3
390
F
  0
LAYER
  5
200
100
AcDbSymbolTableRecord
100
AcDbLayerTableRecord
  2
COSMETIC
 70
0
 62
7
  6
CONTINUOUS
370
-3
390
F
  0
LAYER
  5
201
100
AcDbSymbolTableRecord
100
AcDbLayerTableRecord
  2
CURVE
 70
0
 62
7
  6
CONTINUOUS
370
-3
390
F
  0
LAYER
  5
202
100
AcDbSymbolTableRecord
100
AcDbLayerTableRecord
  2
IMPORT_IGES
 70
0
 62
7
  6
CONTINUOUS
370
-3
390
F
  0
LAYER
  5
203
100
AcDbSymbolTableRecord
100
AcDbLayerTableRecord
  2
INTF_1
 70
0
 62
7
  6
CONTINUOUS
370
-3
390
F
  0
LAYER
  5
204
100
AcDbSymbolTableRecord
100
AcDbLayerTableRecord
  2
NOTE
 70
0
 62
7
  6
CONTINUOUS
370
-3
390
F
  0
LAYER
  5
205
100
AcDbSymbolTableRecord
100
AcDbLayerTableRecord
  2
PIANI
 70
0
 62
7
  6
CONTINUOUS
370
-3
390
F
  0
LAYER
  5
206
100
AcDbSymbolTableRecord
100
AcDbLayerTableRecord
  2
PUNTI
 70
0
 62
7
  6
CONTINUOUS
370
-3
390
F
  0
LAYER
  5
207
100
AcDbSymbolTableRecord
100
AcDbLayerTableRecord
  2
RACCORDO
 70
0
 62
7
  6
CONTINUOUS
370
-3
390
F
  0
LAYER
  5
208
100
AcDbSymbolTableRecord
100
AcDbLayerTableRecord
  2
RGB____0____0____0__
 70
0
 62
7
  6
CONTINUOUS
370
-3
390
F
  0
LAYER
  5
209
100
AcDbSymbolTableRecord
100
AcDbLayerTableRecord
  2
SNAPLINE
 70
0
 62
7
  6
CONTINUOUS
370
-3
390
F
  0
LAYER
  5
20A
100
AcDbSymbolTableRecord
100
AcDbLayerTableRecord
  2
TRASH
 70
0
 62
7
  6
CONTINUOUS
370
-3
390
F
  0
ENDTAB
  0
TABLE
  2
STYLE
  5
3
100
AcDbSymbolTable
 70
1
  0
STYLE
  5
11
100
AcDbSymbolTableRecord
100
AcDbTextStyleTableRecord
  2
STANDARD
 70
0
 40
0.0
 41
0.8
 50
0.0
 71
0
 42
0.2
  3
txt
  4

  0
STYLE
  5
20B
100
AcDbSymbolTableRecord
100
AcDbTextStyleTableRecord
  2
TEXTSTYLE_1
 70
0
 40
0.0
 41
0.8
 50
0.0
 71
0
 42
0.2
  3
gdt
  4

  0
ENDTAB
  0
TABLE
  2
VIEW
  5
6
100
AcDbSymbolTable
 70
0
  0
ENDTAB
  0
TABLE
  2
UCS
  5
7
100
AcDbSymbolTable
 70
0
  0
ENDTAB
  0
TABLE
  2
APPID
  5
9
100
AcDbSymbolTable
 70
1
  0
APPID
  5
20C
100
AcDbSymbolTableRecord
100
AcDbRegAppTableRecord
  2
ACAD
 70
0
  0
ENDTAB
  0
TABLE
  2
BLOCK_RECORD
  5
1
100
AcDbSymbolTable
 70
0
  0
BLOCK_RECORD
  5
20D
100
AcDbSymbolTableRecord
100
AcDbBlockTableRecord
  2
*Model_Space
  0
BLOCK_RECORD
  5
20E
100
AcDbSymbolTableRecord
100
AcDbBlockTableRecord
  2
*Paper_Space
  0
BLOCK_RECORD
  5
20F
100
AcDbSymbolTableRecord
100
AcDbBlockTableRecord
  2
_FILLED
  0
BLOCK_RECORD
  5
210
100
AcDbSymbolTableRecord
100
AcDbBlockTableRecord
  2
*D0
  0
BLOCK_RECORD
  5
211
100
AcDbSymbolTableRecord
100
AcDbBlockTableRecord
  2
*D1
  0
BLOCK_RECORD
  5
212
100
AcDbSymbolTableRecord
100
AcDbBlockTableRecord
  2
*D2
  0
BLOCK_RECORD
  5
213
100
AcDbSymbolTableRecord
100
AcDbBlockTableRecord
  2
*D3
  0
BLOCK_RECORD
  5
214
100
AcDbSymbolTableRecord
100
AcDbBlockTableRecord
  2
*D4
  0
ENDTAB
  0
TABLE
  2
DIMSTYLE
  5
A
100
AcDbSymbolTable
 70
1
100
AcDbDimStyleTable
 71
0
  0
DIMSTYLE
105
215
100
AcDbSymbolTableRecord
100
AcDbDimStyleTableRecord
  2
STANDARD
 70
0
  3

  4

 40
1.0
 41
3.0
 42
0.5
 43
0.38
 44
1.5
 45
0.0
 46
0.0
 47
0.01
 48
0.01
140
3.0
141
0.09
142
0.0
143
25.4
144
1.0
145
0.0
146
1.0
147
0.625
 71
1.0
 72
0.0
 73
0
 74
0
 75
0
 76
0
 77
1
 78
8
 79
2
170
0
171
1
172
0
173
0
174
0
175
0
176
0
177
0
178
0
270
2
179
2
271
2
272
2
273
2
274
2
275
0
280
0
281
0
282
0
283
1
284
8
285
0
286
0
287
3
288
0
340
11
278
44
341
20F
342
20F
343
20F
344
20F
  0
DIMSTYLE
105
216
100
AcDbSymbolTableRecord
100
AcDbDimStyleTableRecord
  2
DIMSTYLE_1
 70
0
  3

  4

 40
1.0
 41
3.0
 42
0.5
 43
0.38
 44
1.5
 45
0.0
 46
0.0
 47
0.0
 48
0.0
140
3.0
141
0.09
142
0.0
143
25.4
144
1.0
145
0.0
146
1.0
147
0.75
 71
0.0
 72
0.0
 73
0
 74
0
 75
0
 76
0
 77
1
 78
8
 79
2
170
0
171
1
172
0
173
0
174
0
175
0
176
0
177
0
178
0
270
2
179
2
271
2
272
2
273
2
274
2
275
0
280
0
281
0
282
0
283
1
284
8
285
0
286
0
287
3
288
0
340
11
278
44
341
20F
342
20F
343
20F
344
20F
  0
ENDTAB
  0
ENDSEC
  0
SECTION
  2
BLOCKS
  0
BLOCK
  5
20
100
AcDbEntity
  8
0
100
AcDbBlockBegin
  2
*Model_Space
 70
0
 10
0.0
 20
0.0
 30
0.0
  3
*Model_Space
  1

  0
ENDBLK
  5
21
100
AcDbEntity
  8
0
100
AcDbBlockEnd
  0
BLOCK
  5
1C
100
AcDbEntity
  8
0
100
AcDbBlockBegin
  2
*Paper_Space
 70
0
 10
0.0
 20
0.0
 30
0.0
  3
*Paper_Space
  1

  0
ENDBLK
  5
1D
100
AcDbEntity
  8
0
100
AcDbBlockEnd
  0
BLOCK
  5
217
100
AcDbEntity
  8
0
100
AcDbBlockBegin
  2
_FILLED
 70
64
 10
0.0
 20
0.0
  3
_FILLED
  1

  0
SOLID
  5
218
100
AcDbEntity
  8
0
  6
BYBLOCK
 62
0
100
AcDbTrace
 10
0.0
 20
0.0
 11
-1.0
 21
0.3166666667
 12
-1.0
 22
-0.3166666667
 13
-1.0
 23
-0.3166666667
  0
ENDBLK
  5
219
100
AcDbEntity
  8
0
  6
BYBLOCK
 62
0
100
AcDbBlockEnd
  0
BLOCK
  5
21A
100
AcDbEntity
  8
0
100
AcDbBlockBegin
 62
7
  6
CONTINUOUS
  2
*D0
 70
65
 10
0.0
 20
0.0
  3
*D0
  1

  0
LINE
  5
21B
100
AcDbEntity
  8
0
100
AcDbLine
 62
7
  6
CONTINUOUS
 10
-118.9960579983
 20
77.0
 11
-118.9960579983
 21
85.2792073456
  0
LINE
  5
21C
100
AcDbEntity
  8
0
100
AcDbLine
 62
7
  6
CONTINUOUS
 10
-122.9960579983
 20
74.9999999795
 11
-122.9960579983
 21
85.2792073456
  0
LINE
  5
21D
100
AcDbEntity
  8
0
100
AcDbLine
 62
7
  6
CONTINUOUS
 10
-118.9960579983
 20
83.7792073456
 11
-114.9960579983
 21
83.7792073456
  0
LINE
  5
21E
100
AcDbEntity
  8
0
100
AcDbLine
 62
7
  6
CONTINUOUS
 10
-114.9960579983
 20
83.7792073456
 11
-120.9960579983
 21
83.7792073456
  0
LINE
  5
21F
100
AcDbEntity
  8
0
100
AcDbLine
 62
7
  6
CONTINUOUS
 10
-122.9960579983
 20
83.7792073456
 11
-130.5058589913
 21
83.7792073456
  0
LINE
  5
220
100
AcDbEntity
  8
0
100
AcDbLine
 62
7
  6
CONTINUOUS
 10
-130.5058589913
 20
83.7792073456
 11
-120.9960579983
 21
83.7792073456
  0
INSERT
  5
221
100
AcDbEntity
  8
0
100
AcDbBlockReference
 62
7
  6
CONTINUOUS
  2
_FILLED
 10
-118.9960579983
 20
83.7792073456
 41
3.0
 42
3.0
 43
3.0
 50
180.0
  0
INSERT
  5
222
100
AcDbEntity
  8
0
100
AcDbBlockReference
 62
7
  6
CONTINUOUS
  2
_FILLED
 10
-122.9960579983
 20
83.7792073456
 41
3.0
 42
3.0
 43
3.0
  0
ENDBLK
  5
223
100
AcDbEntity
  8
0
  6
BYBLOCK
 62
0
100
AcDbBlockEnd
  0
BLOCK
  5
224
100
AcDbEntity
  8
0
100
AcDbBlockBegin
 62
7
  6
CONTINUOUS
  2
*D1
 70
65
 10
0.0
 20
0.0
  3
*D1
  1

  0
LINE
  5
225
100
AcDbEntity
  8
0
100
AcDbLine
 62
7
  6
CONTINUOUS
 10
-89.5
 20
67.0
 11
-89.5
 21
96.0
  0
LINE
  5
226
100
AcDbEntity
  8
0
100
AcDbLine
 62
7
  6
CONTINUOUS
 10
89.5
 20
67.0
 11
89.5
 21
96.0
  0
LINE
  5
227
100
AcDbEntity
  8
0
100
AcDbLine
 62
7
  6
CONTINUOUS
 10
-89.5
 20
94.5
 11
-0.0
 21
94.5
  0
LINE
  5
228
100
AcDbEntity
  8
0
100
AcDbLine
 62
7
  6
CONTINUOUS
 10
89.5
 20
94.5
 11
-0.0
 21
94.5
  0
INSERT
  5
229
100
AcDbEntity
  8
0
100
AcDbBlockReference
 62
7
  6
CONTINUOUS
  2
_FILLED
 10
-89.5
 20
94.5
 41
3.0
 42
3.0
 43
3.0
 50
180.0
  0
INSERT
  5
22A
100
AcDbEntity
  8
0
100
AcDbBlockReference
 62
7
  6
CONTINUOUS
  2
_FILLED
 10
89.5
 20
94.5
 41
3.0
 42
3.0
 43
3.0
 50
0.0
  0
ENDBLK
  5
22B
100
AcDbEntity
  8
0
  6
BYBLOCK
 62
0
100
AcDbBlockEnd
  0
BLOCK
  5
22C
100
AcDbEntity
  8
0
100
AcDbBlockBegin
 62
7
  6
CONTINUOUS
  2
*D2
 70
65
 10
0.0
 20
0.0
  3
*D2
  1

  0
LINE
  5
22D
100
AcDbEntity
  8
0
100
AcDbLine
 62
7
  6
CONTINUOUS
 10
80.0
 20
76.5
 11
109.0
 21
76.5
  0
LINE
  5
22E
100
AcDbEntity
  8
0
100
AcDbLine
 62
7
  6
CONTINUOUS
 10
80.0
 20
-76.5
 11
109.0
 21
-76.5
  0
LINE
  5
22F
100
AcDbEntity
  8
0
100
AcDbLine
 62
7
  6
CONTINUOUS
 10
107.5
 20
76.5
 11
107.5
 21
0.0
  0
LINE
  5
230
100
AcDbEntity
  8
0
100
AcDbLine
 62
7
  6
CONTINUOUS
 10
107.5
 20
-76.5
 11
107.5
 21
0.0
  0
INSERT
  5
231
100
AcDbEntity
  8
0
100
AcDbBlockReference
 62
7
  6
CONTINUOUS
  2
_FILLED
 10
107.5
 20
76.5
 41
3.0
 42
3.0
 43
3.0
 50
90.0
  0
INSERT
  5
232
100
AcDbEntity
  8
0
100
AcDbBlockReference
 62
7
  6
CONTINUOUS
  2
_FILLED
 10
107.5
 20
-76.5
 41
3.0
 42
3.0
 43
3.0
 50
270.0
  0
ENDBLK
  5
233
100
AcDbEntity
  8
0
  6
BYBLOCK
 62
0
100
AcDbBlockEnd
  0
BLOCK
  5
234
100
AcDbEntity
  8
0
100
AcDbBlockBegin
 62
7
  6
CONTINUOUS
  2
*D3
 70
65
 10
0.0
 20
0.0
  3
*D3
  1

  0
LINE
  5
235
100
AcDbEntity
  8
0
100
AcDbLine
 62
7
  6
CONTINUOUS
 10
-69.5
 20
57.0
 11
-69.5
 21
86.0
  0
LINE
  5
236
100
AcDbEntity
  8
0
100
AcDbLine
 62
7
  6
CONTINUOUS
 10
69.5
 20
57.0
 11
69.5
 21
86.0
  0
LINE
  5
237
100
AcDbEntity
  8
0
100
AcDbLine
 62
7
  6
CONTINUOUS
 10
-69.5
 20
84.5
 11
-0.0
 21
84.5
  0
LINE
  5
238
100
AcDbEntity
  8
0
100
AcDbLine
 62
7
  6
CONTINUOUS
 10
69.5
 20
84.5
 11
-0.0
 21
84.5
  0
INSERT
  5
239
100
AcDbEntity
  8
0
100
AcDbBlockReference
 62
7
  6
CONTINUOUS
  2
_FILLED
 10
-69.5
 20
84.5
 41
3.0
 42
3.0
 43
3.0
 50
180.0
  0
INSERT
  5
23A
100
AcDbEntity
  8
0
100
AcDbBlockReference
 62
7
  6
CONTINUOUS
  2
_FILLED
 10
69.5
 20
84.5
 41
3.0
 42
3.0
 43
3.0
  0
ENDBLK
  5
23B
100
AcDbEntity
  8
0
  6
BYBLOCK
 62
0
100
AcDbBlockEnd
  0
BLOCK
  5
23C
100
AcDbEntity
  8
0
100
AcDbBlockBegin
 62
7
  6
CONTINUOUS
  2
*D4
 70
65
 10
0.0
 20
0.0
  3
*D4
  1

  0
LINE
  5
23D
100
AcDbEntity
  8
0
100
AcDbLine
 62
7
  6
CONTINUOUS
 10
70.0
 20
56.5
 11
99.0
 21
56.5
  0
LINE
  5
23E
100
AcDbEntity
  8
0
100
AcDbLine
 62
7
  6
CONTINUOUS
 10
70.0
 20
-56.5
 11
99.0
 21
-56.5
  0
LINE
  5
23F
100
AcDbEntity
  8
0
100
AcDbLine
 62
7
  6
CONTINUOUS
 10
97.5
 20
56.5
 11
97.5
 21
0.0
  0
LINE
  5
240
100
AcDbEntity
  8
0
100
AcDbLine
 62
7
  6
CONTINUOUS
 10
97.5
 20
-56.5
 11
97.5
 21
0.0
  0
INSERT
  5
241
100
AcDbEntity
  8
0
100
AcDbBlockReference
 62
7
  6
CONTINUOUS
  2
_FILLED
 10
97.5
 20
56.5
 41
3.0
 42
3.0
 43
3.0
 50
90.0
  0
INSERT
  5
242
100
AcDbEntity
  8
0
100
AcDbBlockReference
 62
7
  6
CONTINUOUS
  2
_FILLED
 10
97.5
 20
-56.5
 41
3.0
 42
3.0
 43
3.0
 50
270.0
  0
ENDBLK
  5
243
100
AcDbEntity
  8
0
  6
BYBLOCK
 62
0
100
AcDbBlockEnd
  0
ENDSEC
  0
SECTION
  2
ENTITIES
  0
DIMENSION
  5
244
100
AcDbEntity
  8
0
100
AcDbDimension
 62
7
  6
CONTINUOUS
  2
*D0
 10
-122.9960579983
 20
83.7792073456
 11
-130.5058589913
 21
83.7792073456
 70
160
 71
3
 72
2
 41
0.9
 42
4.0
  3
DIMSTYLE_1
100
AcDbAlignedDimension
 13
-118.9960579983
 23
76.5
 14
-122.9960579983
 24
74.4999999795
 50
180.0
100
AcDbRotatedDimension
  0
DIMENSION
  5
245
100
AcDbEntity
  8
0
100
AcDbDimension
 62
7
  6
CONTINUOUS
  2
*D1
 10
89.5
 20
94.5
 11
-3.2142857143
 21
94.5
 70
160
 71
2
 72
2
 41
0.9
 42
179.0
  3
DIMSTYLE_1
100
AcDbAlignedDimension
 13
-89.5
 23
66.5
 14
89.5
 24
66.5
100
AcDbRotatedDimension
  0
DIMENSION
  5
246
100
AcDbEntity
  8
0
100
AcDbDimension
 62
7
  6
CONTINUOUS
  2
*D2
 10
107.5
 20
-76.5
 11
107.5
 21
-3.0
 70
160
 71
2
 72
2
 41
0.9
 42
153.0
  3
DIMSTYLE_1
100
AcDbAlignedDimension
 13
79.5
 23
76.5
 14
79.5
 24
-76.5
 50
270.0
100
AcDbRotatedDimension
  0
DIMENSION
  5
247
100
AcDbEntity
  8
0
100
AcDbDimension
 62
7
  6
CONTINUOUS
  2
*D3
 10
69.5
 20
84.5
 11
-3.1071428571
 21
84.5
 70
160
 71
2
 72
2
 41
0.9
 42
139.0
  3
DIMSTYLE_1
100
AcDbAlignedDimension
 13
-69.5
 23
56.5
 14
69.5
 24
56.5
100
AcDbRotatedDimension
  0
DIMENSION
  5
248
100
AcDbEntity
  8
0
100
AcDbDimension
 62
7
  6
CONTINUOUS
  2
*D4
 10
97.5
 20
-56.5
 11
97.5
 21
-2.7857142857
 70
160
 71
2
 72
2
 41
0.9
 42
113.0
  3
DIMSTYLE_1
100
AcDbAlignedDimension
 13
69.5
 23
56.5
 14
69.5
 24
-56.5
 50
270.0
100
AcDbRotatedDimension
  0
LINE
  5
249
100
AcDbEntity
  8
RACCORDO
100
AcDbLine
 62
7
  6
CONTINUOUS
 10
-89.5
 20
66.5
 11
-89.5
 21
-66.5
  0
LINE
  5
24A
100
AcDbEntity
  8
RACCORDO
100
AcDbLine
 62
250
  6
CONTINUOUS
 10
-87.5
 20
66.5
 11
-87.5
 21
-66.5
  0
LINE
  5
24B
100
AcDbEntity
  8
RACCORDO
100
AcDbLine
 62
250
  6
CONTINUOUS
 10
-79.5
 20
-74.5
 11
-79.5
 21
-76.5
  0
LINE
  5
24C
100
AcDbEntity
  8
RACCORDO
100
AcDbLine
 62
250
  6
CONTINUOUS
 10
-79.5
 20
74.5
 11
-79.5
 21
76.5
  0
LWPOLYLINE
  5
24D
100
AcDbEntity
  8
0
100
AcDbPolyline
 62
7
  6
CONTINUOUS
 90
3
 70
0
 43
0.3500000087
 10
-3.2142857319
 20
97.3928583496
 10
-2.357142799
 20
98.2499959534
 10
-2.357142799
 20
95.2500015503
  0
LWPOLYLINE
  5
24E
100
AcDbEntity
  8
0
100
AcDbPolyline
 62
7
  6
CONTINUOUS
 90
5
 70
0
 43
0.3500000087
 10
-0.5357142998
 20
86.9642840454
 10
-0.1785714221
 20
87.1785748413
 10
-0.1785714221
 20
87.8214301758
 10
-0.5357142998
 20
88.250003241
 10
-1.3928571327
 20
88.250003241
  0
LINE
  5
24F
100
AcDbEntity
  8
RACCORDO
100
AcDbLine
 62
7
  6
CONTINUOUS
 10
-79.5
 20
-76.5
 11
79.5
 21
-76.5
  0
LINE
  5
250
100
AcDbEntity
  8
RACCORDO
100
AcDbLine
 62
250
  6
CONTINUOUS
 10
-79.5
 20
-74.5
 11
79.5
 21
-74.5
  0
LINE
  5
251
100
AcDbEntity
  8
0
100
AcDbLine
 62
7
  6
CONTINUOUS
 10
-6.0
 20
-72.0
 11
6.0
 21
-72.0
  0
LWPOLYLINE
  5
252
100
AcDbEntity
  8
0
100
AcDbPolyline
 62
7
  6
CONTINUOUS
 90
10
 70
0
 43
0.3500000087
 10
1.2857142661
 20
95.2500015503
 10
2.142857199
 20
96.1071391541
 10
2.357142799
 20
96.9642852844
 10
2.357142799
 20
97.8214314148
 10
1.9285714658
 20
98.2499959534
 10
1.2857142661
 20
98.2499959534
 10
0.8571428663
 20
97.8214314148
 10
0.8571428663
 20
96.9642852844
 10
1.2857142661
 20
96.5357122192
 10
2.2142856879
 20
96.5357122192
  0
LWPOLYLINE
  5
253
100
AcDbEntity
  8
0
100
AcDbPolyline
 62
7
  6
CONTINUOUS
 90
3
 70
0
 43
0.3500000087
 10
-3.107142732
 20
87.3928571106
 10
-2.2500000656
 20
88.250003241
 10
-2.2500000656
 20
85.2500003113
  0
LINE
  5
254
100
AcDbEntity
  8
0
100
AcDbLine
 62
7
  6
CONTINUOUS
 10
-4.096354
 20
-66.524749
 11
-3.684313
 21
-66.524749
  0
LINE
  5
255
100
AcDbEntity
  8
0
100
AcDbLine
 62
7
  6
CONTINUOUS
 10
-2.936795
 20
-66.524749
 11
-2.524868
 21
-66.524749
  0
LINE
  5
256
100
AcDbEntity
  8
0
100
AcDbLine
 62
7
  6
CONTINUOUS
 10
0.940895
 20
-66.524749
 11
1.314654
 21
-66.524749
  0
LINE
  5
257
100
AcDbEntity
  8
RACCORDO
100
AcDbLine
 62
250
  6
CONTINUOUS
 10
87.5
 20
-66.5
 11
89.5
 21
-66.5
  0
LINE
  5
258
100
AcDbEntity
  8
RACCORDO
100
AcDbLine
 62
250
  6
CONTINUOUS
 10
-87.5
 20
-66.5
 11
-89.5
 21
-66.5
  0
LINE
  5
259
100
AcDbEntity
  8
0
100
AcDbLine
 62
7
  6
CONTINUOUS
 10
-0.362957
 20
-65.798434
 11
0.940895
 21
-65.798434
  0
LINE
  5
25A
100
AcDbEntity
  8
0
100
AcDbLine
 62
7
  6
CONTINUOUS
 10
1.314654
 20
-65.798434
 11
1.752178
 21
-65.798434
  0
LINE
  5
25B
100
AcDbEntity
  8
0
100
AcDbLine
 62
7
  6
CONTINUOUS
 10
1.752178
 20
-65.475676
 11
1.314654
 21
-65.475676
  0
LINE
  5
25C
100
AcDbEntity
  8
0
100
AcDbLine
 62
7
  6
CONTINUOUS
 10
0.940895
 20
-65.475676
 11
-0.018985
 21
-65.475676
  0
LINE
  5
25D
100
AcDbEntity
  8
0
100
AcDbLine
 62
7
  6
CONTINUOUS
 10
-2.524868
 20
-65.237796
 11
-1.5659487867
 21
-65.237796
  0
LINE
  5
25E
100
AcDbEntity
  8
0
100
AcDbLine
 62
7
  6
CONTINUOUS
 10
-1.6620550699
 20
-64.885318
 11
-2.524868
 21
-64.885318
  0
LINE
  5
25F
100
AcDbEntity
  8
0
100
AcDbLine
 62
7
  6
CONTINUOUS
 10
-2.524868
 20
-63.827728
 11
-1.6620625954
 21
-63.827728
  0
LINE
  5
260
100
AcDbEntity
  8
0
100
AcDbLine
 62
7
  6
CONTINUOUS
 10
1.314654
 20
-63.475251
 11
1.050632
 21
-63.475251
  0
LINE
  5
261
100
AcDbEntity
  8
0
100
AcDbLine
 62
7
  6
CONTINUOUS
 10
-1.5659442155
 20
-63.475251
 11
-2.936795
 21
-63.475251
  0
LINE
  5
262
100
AcDbEntity
  8
0
100
AcDbLine
 62
7
  6
CONTINUOUS
 10
-3.684313
 20
-63.475251
 11
-4.096354
 21
-63.475251
  0
LINE
  5
263
100
AcDbEntity
  8
0
100
AcDbLine
 62
7
  6
CONTINUOUS
 10
6.0
 20
-62.0
 11
-6.0
 21
-62.0
  0
LWPOLYLINE
  5
264
100
AcDbEntity
  8
0
100
AcDbPolyline
 62
7
  6
CONTINUOUS
 90
10
 70
0
 43
0.3500000087
 10
1.1785713995
 20
85.2500003113
 10
2.0357143324
 20
86.1071464417
 10
2.2500000656
 20
86.9642840454
 10
2.2500000656
 20
87.8214301758
 10
1.8214285992
 20
88.250003241
 10
1.1785713995
 20
88.250003241
 10
0.7499999997
 20
87.8214301758
 10
0.7499999997
 20
86.9642840454
 10
1.1785713995
 20
86.5357109802
 10
2.1071428213
 20
86.5357109802
  0
LINE
  5
265
100
AcDbEntity
  8
0
100
AcDbLine
 62
7
  6
CONTINUOUS
 10
-8.863131
 20
2.376123
 11
-7.436717
 21
-2.123329
  0
LINE
  5
266
100
AcDbEntity
  8
0
100
AcDbLine
 62
7
  6
CONTINUOUS
 10
-6.985179
 20
-0.720989
 11
-7.842856
 21
2.376123
  0
LINE
  5
267
100
AcDbEntity
  8
0
100
AcDbLine
 62
7
  6
CONTINUOUS
 10
1.193853
 20
-2.123329
 11
0.773104
 21
2.376123
  0
LINE
  5
268
100
AcDbEntity
  8
0
100
AcDbLine
 62
7
  6
CONTINUOUS
 10
0.08209
 20
0.802481
 11
0.275054
 21
-2.123329
  0
LINE
  5
269
100
AcDbEntity
  8
0
100
AcDbLine
 62
7
  6
CONTINUOUS
 10
-6.0
 20
-62.0
 11
-6.0
 21
-72.0
  0
LINE
  5
26A
100
AcDbEntity
  8
0
100
AcDbLine
 62
7
  6
CONTINUOUS
 10
-4.814188
 20
2.376393
 11
-4.814188
 21
-2.123329
  0
LINE
  5
26B
100
AcDbEntity
  8
0
100
AcDbLine
 62
7
  6
CONTINUOUS
 10
-4.096354
 20
-63.475251
 11
-4.096354
 21
-66.524749
  0
LINE
  5
26C
100
AcDbEntity
  8
0
100
AcDbLine
 62
7
  6
CONTINUOUS
 10
-3.874976
 20
-2.123329
 11
-3.874976
 21
2.376393
  0
LINE
  5
26D
100
AcDbEntity
  8
0
100
AcDbLine
 62
7
  6
CONTINUOUS
 10
-3.684313
 20
-66.524749
 11
-3.684313
 21
-63.475251
  0
LINE
  5
26E
100
AcDbEntity
  8
0
100
AcDbLine
 62
7
  6
CONTINUOUS
 10
-2.936795
 20
-63.475251
 11
-2.936795
 21
-66.524749
  0
LINE
  5
26F
100
AcDbEntity
  8
0
100
AcDbLine
 62
7
  6
CONTINUOUS
 10
-2.524868
 20
-66.524749
 11
-2.524868
 21
-65.237796
  0
LINE
  5
270
100
AcDbEntity
  8
0
100
AcDbLine
 62
7
  6
CONTINUOUS
 10
-2.524868
 20
-64.885318
 11
-2.524868
 21
-63.827728
  0
LWPOLYLINE
  5
271
100
AcDbEntity
  8
0
100
AcDbPolyline
 62
7
  6
CONTINUOUS
 90
4
 70
0
 43
0.3500000087
 10
-1.4999999993
 20
97.6071406189
 10
-1.4999999993
 20
98.2499959534
 10
-0.0
 20
98.2499959534
 10
-0.8571428663
 20
95.2500015503
  0
LINE
  5
272
100
AcDbEntity
  8
0
100
AcDbLine
 62
7
  6
CONTINUOUS
 10
-0.362957
 20
-65.433203
 11
-0.362957
 21
-65.798434
  0
LINE
  5
273
100
AcDbEntity
  8
0
100
AcDbLine
 62
7
  6
CONTINUOUS
 10
0.940895
 20
-64.108658
 11
0.940895
 21
-65.475676
  0
LINE
  5
274
100
AcDbEntity
  8
0
100
AcDbLine
 62
7
  6
CONTINUOUS
 10
0.940895
 20
-65.798434
 11
0.940895
 21
-66.524749
  0
LINE
  5
275
100
AcDbEntity
  8
0
100
AcDbLine
 62
7
  6
CONTINUOUS
 10
-2.470848
 20
-2.123329
 11
-2.268167
 21
0.814728
  0
LINE
  5
276
100
AcDbEntity
  8
0
100
AcDbLine
 62
7
  6
CONTINUOUS
 10
-2.963094
 20
2.376123
 11
-3.369369
 21
-2.123329
  0
LINE
  5
277
100
AcDbEntity
  8
0
100
AcDbLine
 62
7
  6
CONTINUOUS
 10
-6.101302
 20
2.376123
 11
-6.985179
 21
-0.720989
  0
LINE
  5
278
100
AcDbEntity
  8
0
100
AcDbLine
 62
7
  6
CONTINUOUS
 10
-6.609036
 20
-2.123329
 11
-5.162732
 21
2.376123
  0
LINE
  5
279
100
AcDbEntity
  8
0
100
AcDbLine
 62
7
  6
CONTINUOUS
 10
-0.156155
 20
2.376123
 11
-1.095366
 21
-0.121987
  0
LINE
  5
27A
100
AcDbEntity
  8
0
100
AcDbLine
 62
7
  6
CONTINUOUS
 10
-1.034633
 20
-2.123329
 11
0.08209
 21
0.802481
  0
LINE
  5
27B
100
AcDbEntity
  8
0
100
AcDbLine
 62
7
  6
CONTINUOUS
 10
-7.436717
 20
-2.123329
 11
-6.609036
 21
-2.123329
  0
LINE
  5
27C
100
AcDbEntity
  8
0
100
AcDbLine
 62
7
  6
CONTINUOUS
 10
-4.814188
 20
-2.123329
 11
-3.874976
 21
-2.123329
  0
LINE
  5
27D
100
AcDbEntity
  8
0
100
AcDbLine
 62
7
  6
CONTINUOUS
 10
-3.369369
 20
-2.123329
 11
-2.470848
 21
-2.123329
  0
LINE
  5
27E
100
AcDbEntity
  8
0
100
AcDbLine
 62
7
  6
CONTINUOUS
 10
-1.166357
 20
-2.123329
 11
-1.034633
 21
-2.123329
  0
LINE
  5
27F
100
AcDbEntity
  8
0
100
AcDbLine
 62
7
  6
CONTINUOUS
 10
0.275054
 20
-2.123329
 11
1.193853
 21
-2.123329
  0
LINE
  5
280
100
AcDbEntity
  8
0
100
AcDbLine
 62
7
  6
CONTINUOUS
 10
1.341334
 20
-2.123329
 11
2.270357
 21
-2.123329
  0
LINE
  5
281
100
AcDbEntity
  8
0
100
AcDbLine
 62
7
  6
CONTINUOUS
 10
4.051876
 20
-2.123329
 11
5.041767
 21
-2.123329
  0
LINE
  5
282
100
AcDbEntity
  8
0
100
AcDbLine
 62
7
  6
CONTINUOUS
 10
5.3175652652
 20
-2.1233285009
 11
6.2529981651
 21
-2.1233285009
  0
LINE
  5
283
100
AcDbEntity
  8
0
100
AcDbLine
 62
7
  6
CONTINUOUS
 10
7.6912717989
 20
-2.1233285009
 11
8.5946845782
 21
-2.1233285009
  0
LINE
  5
284
100
AcDbEntity
  8
0
100
AcDbLine
 62
7
  6
CONTINUOUS
 10
2.52952
 20
-1.225078
 11
3.808571
 21
-1.225078
  0
LINE
  5
285
100
AcDbEntity
  8
0
100
AcDbLine
 62
7
  6
CONTINUOUS
 10
3.62087
 20
-0.530015
 11
2.721641
 21
-0.530015
  0
LINE
  5
286
100
AcDbEntity
  8
0
100
AcDbLine
 62
7
  6
CONTINUOUS
 10
6.2529981651
 20
-0.3624917982
 11
6.7565811989
 21
-0.3624917982
  0
LINE
  5
287
100
AcDbEntity
  8
0
100
AcDbLine
 62
7
  6
CONTINUOUS
 10
6.7586056534
 20
0.3744096061
 11
6.2218553081
 21
0.3744096061
  0
LINE
  5
288
100
AcDbEntity
  8
0
100
AcDbLine
 62
7
  6
CONTINUOUS
 10
-2.268167
 20
0.814728
 11
-1.166357
 21
-2.123329
  0
LINE
  5
289
100
AcDbEntity
  8
0
100
AcDbLine
 62
7
  6
CONTINUOUS
 10
-1.095366
 20
-0.121987
 11
-2.024659
 21
2.376123
  0
LINE
  5
28A
100
AcDbEntity
  8
0
100
AcDbLine
 62
7
  6
CONTINUOUS
 10
1.314654
 20
-66.524749
 11
1.314654
 21
-65.798434
  0
LINE
  5
28B
100
AcDbEntity
  8
0
100
AcDbLine
 62
7
  6
CONTINUOUS
 10
1.314654
 20
-65.475676
 11
1.314654
 21
-63.475251
  0
LINE
  5
28C
100
AcDbEntity
  8
0
100
AcDbLine
 62
7
  6
CONTINUOUS
 10
1.752178
 20
-65.798434
 11
1.752178
 21
-65.475676
  0
LINE
  5
28D
100
AcDbEntity
  8
0
100
AcDbLine
 62
7
  6
CONTINUOUS
 10
5.3175652652
 20
2.3235543096
 11
5.3175652652
 21
-2.1233285009
  0
LINE
  5
28E
100
AcDbEntity
  8
0
100
AcDbLine
 62
7
  6
CONTINUOUS
 10
6.0
 20
-72.0
 11
6.0
 21
-62.0
  0
LINE
  5
28F
100
AcDbEntity
  8
0
100
AcDbLine
 62
7
  6
CONTINUOUS
 10
6.2218553081
 20
0.3744096061
 11
6.2218553081
 21
1.6095967219
  0
LINE
  5
290
100
AcDbEntity
  8
0
100
AcDbLine
 62
7
  6
CONTINUOUS
 10
6.2529981651
 20
-2.1233285009
 11
6.2529981651
 21
-0.3624917982
  0
LINE
  5
291
100
AcDbEntity
  8
0
100
AcDbLine
 62
7
  6
CONTINUOUS
 10
7.7322332597
 20
-0.023024535
 11
7.7322332597
 21
0.0035632995
  0
LINE
  5
292
100
AcDbEntity
  8
0
100
AcDbLine
 62
7
  6
CONTINUOUS
 10
2.721641
 20
-0.530015
 11
3.18929
 21
1.139788
  0
LINE
  5
293
100
AcDbEntity
  8
0
100
AcDbLine
 62
7
  6
CONTINUOUS
 10
2.270357
 20
-2.123329
 11
2.52952
 21
-1.225078
  0
LINE
  5
294
100
AcDbEntity
  8
0
100
AcDbLine
 62
7
  6
CONTINUOUS
 10
2.752649
 20
2.376123
 11
1.341334
 21
-2.123329
  0
LINE
  5
295
100
AcDbEntity
  8
0
100
AcDbLine
 62
7
  6
CONTINUOUS
 10
3.661224
 20
2.376123
 11
2.752649
 21
2.376123
  0
LINE
  5
296
100
AcDbEntity
  8
0
100
AcDbLine
 62
7
  6
CONTINUOUS
 10
0.773104
 20
2.376123
 11
-0.156155
 21
2.376123
  0
LINE
  5
297
100
AcDbEntity
  8
0
100
AcDbLine
 62
7
  6
CONTINUOUS
 10
-2.024659
 20
2.376123
 11
-2.963094
 21
2.376123
  0
LINE
  5
298
100
AcDbEntity
  8
0
100
AcDbLine
 62
7
  6
CONTINUOUS
 10
-5.162732
 20
2.376123
 11
-6.101302
 21
2.376123
  0
LINE
  5
299
100
AcDbEntity
  8
0
100
AcDbLine
 62
7
  6
CONTINUOUS
 10
-7.842856
 20
2.376123
 11
-8.863131
 21
2.376123
  0
LINE
  5
29A
100
AcDbEntity
  8
0
100
AcDbLine
 62
7
  6
CONTINUOUS
 10
-3.874976
 20
2.376393
 11
-4.814188
 21
2.376393
  0
LINE
  5
29B
100
AcDbEntity
  8
0
100
AcDbLine
 62
7
  6
CONTINUOUS
 10
5.041767
 20
-2.123329
 11
3.661224
 21
2.376123
  0
LINE
  5
29C
100
AcDbEntity
  8
0
100
AcDbLine
 62
7
  6
CONTINUOUS
 10
3.808571
 20
-1.225078
 11
4.051876
 21
-2.123329
  0
LINE
  5
29D
100
AcDbEntity
  8
0
100
AcDbLine
 62
7
  6
CONTINUOUS
 10
3.18929
 20
1.139788
 11
3.62087
 21
-0.530015
  0
LINE
  5
29E
100
AcDbEntity
  8
0
100
AcDbLine
 62
7
  6
CONTINUOUS
 10
-0.018985
 20
-65.475676
 11
0.940895
 21
-64.108658
  0
LINE
  5
29F
100
AcDbEntity
  8
0
100
AcDbLine
 62
7
  6
CONTINUOUS
 10
1.050632
 20
-63.475251
 11
-0.362957
 21
-65.433203
  0
LINE
  5
2A0
100
AcDbEntity
  8
RACCORDO
100
AcDbLine
 62
250
  6
CONTINUOUS
 10
87.5
 20
66.5
 11
89.5
 21
66.5
  0
LINE
  5
2A1
100
AcDbEntity
  8
RACCORDO
100
AcDbLine
 62
250
  6
CONTINUOUS
 10
-87.5
 20
66.5
 11
-89.5
 21
66.5
  0
LWPOLYLINE
  5
2A2
100
AcDbEntity
  8
0
100
AcDbPolyline
 62
7
  6
CONTINUOUS
 90
3
 70
0
 43
0.3500000087
 10
94.6071438904
 20
-2.7857140717
 10
93.74999776
 20
-1.9285722046
 10
96.7500006897
 20
-1.9285722046
  0
LWPOLYLINE
  5
2A3
100
AcDbEntity
  8
0
100
AcDbPolyline
 62
7
  6
CONTINUOUS
 90
3
 70
0
 43
0.3500000087
 10
94.6071438904
 20
-1.0714282059
 10
93.74999776
 20
-0.2142863388
 10
96.7500006897
 20
-0.2142863388
  0
LINE
  5
2A4
100
AcDbEntity
  8
RACCORDO
100
AcDbLine
 62
250
  6
CONTINUOUS
 10
79.5
 20
-74.5
 11
79.5
 21
-76.5
  0
LINE
  5
2A5
100
AcDbEntity
  8
RACCORDO
100
AcDbLine
 62
250
  6
CONTINUOUS
 10
79.5
 20
74.5
 11
79.5
 21
76.5
  0
LINE
  5
2A6
100
AcDbEntity
  8
RACCORDO
100
AcDbLine
 62
250
  6
CONTINUOUS
 10
79.5
 20
74.5
 11
-79.5
 21
74.5
  0
LINE
  5
2A7
100
AcDbEntity
  8
RACCORDO
100
AcDbLine
 62
7
  6
CONTINUOUS
 10
79.5
 20
76.5
 11
-79.5
 21
76.5
  0
LWPOLYLINE
  5
2A8
100
AcDbEntity
  8
0
100
AcDbPolyline
 62
7
  6
CONTINUOUS
 90
3
 70
0
 43
0.3500000087
 10
104.6071451294
 20
-2.9999995384
 10
103.749998999
 20
-2.1428576714
 10
106.7500019287
 20
-2.1428576714
  0
LWPOLYLINE
  5
2A9
100
AcDbEntity
  8
0
100
AcDbPolyline
 62
7
  6
CONTINUOUS
 90
6
 70
0
 43
0.3500000087
 10
-1.3928571327
 20
85.2500003113
 10
-0.3214285665
 20
85.2500003113
 10
-0.1071428583
 20
85.4642825806
 10
-0.1071428583
 20
86.5357109802
 10
-0.5357142998
 20
86.9642840454
 10
-0.9642857329
 20
86.9642840454
  0
LWPOLYLINE
  5
2AA
100
AcDbEntity
  8
0
100
AcDbPolyline
 62
7
  6
CONTINUOUS
 90
5
 70
0
 43
0.3500000087
 10
95.0357169556
 20
1.499999527
 10
94.8214261597
 20
1.8571430374
 10
94.1785708252
 20
1.8571430374
 10
93.74999776
 20
1.499999527
 10
93.74999776
 20
0.6428576599
  0
LINE
  5
2AB
100
AcDbEntity
  8
RACCORDO
100
AcDbLine
 62
250
  6
CONTINUOUS
 10
87.5
 20
-66.5
 11
87.5
 21
66.5
  0
LINE
  5
2AC
100
AcDbEntity
  8
RACCORDO
100
AcDbLine
 62
7
  6
CONTINUOUS
 10
89.5
 20
-66.5
 11
89.5
 21
66.5
  0
LWPOLYLINE
  5
2AD
100
AcDbEntity
  8
0
100
AcDbPolyline
 62
7
  6
CONTINUOUS
 90
5
 70
0
 43
0.3500000087
 10
105.0357181946
 20
1.7142860596
 10
104.8214273987
 20
2.07142957
 10
104.1785720642
 20
2.07142957
 10
103.749998999
 20
1.7142860596
 10
103.749998999
 20
0.8571420609
  0
LWPOLYLINE
  5
2AE
100
AcDbEntity
  8
0
100
AcDbPolyline
 62
7
  6
CONTINUOUS
 90
6
 70
0
 43
0.3500000087
 10
96.7500006897
 20
0.6428576599
 10
96.7500006897
 20
1.7142860596
 10
96.5357184204
 20
1.9285704605
 10
95.4642814941
 20
1.9285704605
 10
95.0357169556
 20
1.499999527
 10
95.0357169556
 20
1.0714285934
  0
LWPOLYLINE
  5
2AF
100
AcDbEntity
  8
0
100
AcDbPolyline
 62
7
  6
CONTINUOUS
 90
8
 70
0
 43
0.3500000087
 10
106.7500019287
 20
-1.2857147385
 10
106.7500019287
 20
-0.4285707397
 10
106.3214288635
 20
0.0000001938
 10
105.4642827332
 20
0.0000001938
 10
105.0357181946
 20
-0.4285707397
 10
105.0357181946
 20
-1.2857147385
 10
103.749998999
 20
-1.2857147385
 10
103.749998999
 20
0.0000001938
  0
LWPOLYLINE
  5
2B0
100
AcDbEntity
  8
0
100
AcDbPolyline
 62
7
  6
CONTINUOUS
 90
6
 70
0
 43
0.3500000087
 10
106.7500019287
 20
0.8571420609
 10
106.7500019287
 20
1.9285704605
 10
106.5357111328
 20
2.1428569931
 10
105.4642827332
 20
2.1428569931
 10
105.0357181946
 20
1.7142860596
 10
105.0357181946
 20
1.285715126
  0
LINE
  5
2B1
100
AcDbEntity
  8
RACCORDO
100
AcDbLine
 62
7
  6
CONTINUOUS
 10
-118.9960579983
 20
-76.5
 11
-120.9960579983
 21
-76.5
  0
LINE
  5
2B2
100
AcDbEntity
  8
RACCORDO
100
AcDbLine
 62
250
  6
CONTINUOUS
 10
-118.9960579983
 20
-66.5
 11
-122.9960579983
 21
-66.5
  0
LINE
  5
2B3
100
AcDbEntity
  8
ASSI
100
AcDbLine
 62
7
  6
CONTINUOUS
 10
-114.7960579983
 20
-59.7
 11
-118.9960579983
 21
-60.1741935484
  0
LINE
  5
2B4
100
AcDbEntity
  8
ASSI
100
AcDbLine
 62
7
  6
CONTINUOUS
 10
-114.7960579983
 20
-53.3
 11
-118.9960579983
 21
-52.8258064516
  0
LWPOLYLINE
  5
2B5
100
AcDbEntity
  8
0
100
AcDbPolyline
 62
7
  6
CONTINUOUS
 90
2
 70
0
 43
0.3500000087
 10
-129.5058563477
 20
84.5292032227
 10
-129.5058563477
 20
86.0292046875
  0
LINE
  5
2B6
100
AcDbEntity
  8
0
100
AcDbLine
 62
7
  6
CONTINUOUS
 10
-123.0460579983
 20
-2.1233285009
 11
-123.0460579983
 21
2.4269317999
  0
LINE
  5
2B7
100
AcDbEntity
  8
RACCORDO
100
AcDbLine
 62
7
  6
CONTINUOUS
 10
-122.9960579983
 20
-74.5
 11
-122.9960579983
 21
74.5
  0
LINE
  5
2B8
100
AcDbEntity
  8
RACCORDO
100
AcDbLine
 62
250
  6
CONTINUOUS
 10
-120.9960579983
 20
-76.5
 11
-120.9960579983
 21
76.5
  0
LINE
  5
2B9
100
AcDbEntity
  8
0
100
AcDbLine
 62
7
  6
CONTINUOUS
 10
-118.9960579983
 20
-76.5
 11
-118.9960579983
 21
76.5
  0
LINE
  5
2BA
100
AcDbEntity
  8
0
100
AcDbLine
 62
7
  6
CONTINUOUS
 10
-122.9960579983
 20
-2.1233285009
 11
-123.0460579983
 21
-2.1233285009
  0
LINE
  5
2BB
100
AcDbEntity
  8
0
100
AcDbLine
 62
250
  6
CONTINUOUS
 10
-122.9960579983
 20
-0.9055179521
 11
-123.0460579983
 21
-0.9055179521
  0
LINE
  5
2BC
100
AcDbEntity
  8
0
100
AcDbLine
 62
7
  6
CONTINUOUS
 10
-122.9960579983
 20
-0.023024535
 11
-123.0460579983
 21
-0.023024535
  0
LINE
  5
2BD
100
AcDbEntity
  8
0
100
AcDbLine
 62
7
  6
CONTINUOUS
 10
-122.9960579983
 20
0.0035632995
 11
-123.0460579983
 21
0.0035632995
  0
LINE
  5
2BE
100
AcDbEntity
  8
ASSI
100
AcDbLine
 62
7
  6
CONTINUOUS
 10
-114.7960579983
 20
-53.300037495
 11
-114.7960579983
 21
-59.699962505
  0
LINE
  5
2BF
100
AcDbEntity
  8
ASSI
100
AcDbLine
 62
7
  6
CONTINUOUS
 10
-114.7960579983
 20
53.300037495
 11
-114.7960579983
 21
59.699962505
  0
LINE
  5
2C0
100
AcDbEntity
  8
0
100
AcDbLine
 62
250
  6
CONTINUOUS
 10
-122.9960579983
 20
2.2761820764
 11
-123.0460579983
 21
2.2761820764
  0
LINE
  5
2C1
100
AcDbEntity
  8
0
100
AcDbLine
 62
7
  6
CONTINUOUS
 10
-122.9960579983
 20
2.426927257
 11
-123.0460579983
 21
2.426927257
  0
LINE
  5
2C2
100
AcDbEntity
  8
ASSI
100
AcDbLine
 62
7
  6
CONTINUOUS
 10
-118.9960579983
 20
52.8258064516
 11
-114.7960579983
 21
53.3
  0
LINE
  5
2C3
100
AcDbEntity
  8
ASSI
100
AcDbLine
 62
7
  6
CONTINUOUS
 10
-118.9960579983
 20
60.1741935484
 11
-114.7960579983
 21
59.7
  0
LINE
  5
2C4
100
AcDbEntity
  8
RACCORDO
100
AcDbLine
 62
250
  6
CONTINUOUS
 10
-118.9960579983
 20
66.5
 11
-122.9960579983
 21
66.5
  0
LINE
  5
2C5
100
AcDbEntity
  8
RACCORDO
100
AcDbLine
 62
7
  6
CONTINUOUS
 10
-118.9960579983
 20
76.5
 11
-120.9960579983
 21
76.5
  0
LWPOLYLINE
  5
2C6
100
AcDbEntity
  8
0
100
AcDbPolyline
 62
7
  6
CONTINUOUS
 90
3
 70
0
 43
0.3500000087
 10
-129.0058558594
 20
85.1720670837
 10
-130.5058573242
 20
85.1720670837
 10
-129.8630019897
 20
87.5292061523
  0
ARC
  5
2C7
100
AcDbEntity
  8
RACCORDO
100
AcDbCircle
 62
7
  6
CONTINUOUS
 10
-79.5
 20
-66.5
 40
10.0
100
AcDbArc
 50
180.0
 51
270.0
  0
ARC
  5
2C8
100
AcDbEntity
  8
RACCORDO
100
AcDbCircle
 62
7
  6
CONTINUOUS
 10
79.5
 20
-66.5
 40
10.0
100
AcDbArc
 50
270.0
 51
360.0
  0
ARC
  5
2C9
100
AcDbEntity
  8
RACCORDO
100
AcDbCircle
 62
7
  6
CONTINUOUS
 10
79.5
 20
66.5
 40
10.0
100
AcDbArc
 50
0.0
 51
90.0
  0
ARC
  5
2CA
100
AcDbEntity
  8
RACCORDO
100
AcDbCircle
 62
7
  6
CONTINUOUS
 10
-79.5
 20
66.5
 40
10.0
100
AcDbArc
 50
90.0
 51
180.0
  0
ARC
  5
2CB
100
AcDbEntity
  8
RACCORDO
100
AcDbCircle
 62
250
  6
CONTINUOUS
 10
79.5
 20
-66.5
 40
7.9999999795
100
AcDbArc
 50
270.0
 51
360.0
  0
ARC
  5
2CC
100
AcDbEntity
  8
RACCORDO
100
AcDbCircle
 62
250
  6
CONTINUOUS
 10
-79.5
 20
-66.5
 40
7.9999999795
100
AcDbArc
 50
180.0
 51
270.0
  0
ARC
  5
2CD
100
AcDbEntity
  8
RACCORDO
100
AcDbCircle
 62
250
  6
CONTINUOUS
 10
-79.5
 20
66.5
 40
7.9999999795
100
AcDbArc
 50
90.0
 51
180.0
  0
ARC
  5
2CE
100
AcDbEntity
  8
RACCORDO
100
AcDbCircle
 62
250
  6
CONTINUOUS
 10
79.5
 20
66.5
 40
7.9999999795
100
AcDbArc
 50
0.0
 51
90.0
  0
CIRCLE
  5
2CF
100
AcDbEntity
  8
0
100
AcDbCircle
 62
7
  6
CONTINUOUS
 10
-69.5
 20
56.5
 40
3.0
  0
CIRCLE
  5
2D0
100
AcDbEntity
  8
0
100
AcDbCircle
 62
7
  6
CONTINUOUS
 10
69.5
 20
56.5
 40
3.0
  0
CIRCLE
  5
2D1
100
AcDbEntity
  8
0
100
AcDbCircle
 62
7
  6
CONTINUOUS
 10
-69.5
 20
-56.5
 40
3.0
  0
CIRCLE
  5
2D2
100
AcDbEntity
  8
0
100
AcDbCircle
 62
7
  6
CONTINUOUS
 10
69.5
 20
-56.5
 40
3.0
  0
CIRCLE
  5
2D3
100
AcDbEntity
  8
0
100
AcDbCircle
 62
7
  6
CONTINUOUS
 10
69.5
 20
-56.5
 40
1.65
  0
CIRCLE
  5
2D4
100
AcDbEntity
  8
0
100
AcDbCircle
 62
7
  6
CONTINUOUS
 10
-69.5
 20
-56.5
 40
1.65
  0
CIRCLE
  5
2D5
100
AcDbEntity
  8
0
100
AcDbCircle
 62
7
  6
CONTINUOUS
 10
69.5
 20
56.5
 40
1.65
  0
CIRCLE
  5
2D6
100
AcDbEntity
  8
0
100
AcDbCircle
 62
7
  6
CONTINUOUS
 10
-69.5
 20
56.5
 40
1.65
  0
ARC
  5
2D7
100
AcDbEntity
  8
RACCORDO
100
AcDbCircle
 62
7
  6
CONTINUOUS
 10
-120.9960579983
 20
-74.5
 40
2.0
100
AcDbArc
 50
180.0
 51
270.0
  0
ARC
  5
2D8
100
AcDbEntity
  8
RACCORDO
100
AcDbCircle
 62
7
  6
CONTINUOUS
 10
-120.9960579983
 20
74.5
 40
2.0
100
AcDbArc
 50
90.0
 51
180.0
  0
SPLINE
  5
2D9
100
AcDbEntity
  8
0
100
AcDbSpline
 62
7
  6
CONTINUOUS
 70
0
 71
3
 72
10
 73
6
 74
0
 42
0.0000001
 43
0.0000001
 44
0.0000000001
 40
0.0
 40
0.0
 40
0.0
 40
0.0
 40
0.3517340052
 40
0.6302069713
 40
1.0
 40
1.0
 40
1.0
 40
1.0
 10
6.7565811989
 20
-0.3624917982
 30
0.0
 10
6.8384267482
 20
-0.3624917982
 30
0.0
 10
6.9882331397
 20
-0.3955824122
 30
0.0
 10
7.1757348113
 20
-0.5420217972
 30
0.0
 10
7.2503437747
 20
-0.6783860775
 30
0.0
 10
7.2805774814
 20
-0.758947453
 30
0.0
  0
SPLINE
  5
2DA
100
AcDbEntity
  8
0
100
AcDbSpline
 62
7
  6
CONTINUOUS
 70
0
 71
3
 72
11
 73
7
 74
0
 42
0.0000001
 43
0.0000001
 44
0.0000000001
 40
0.0
 40
0.0
 40
0.0
 40
0.0
 40
0.2222334256
 40
0.5586346745
 40
0.8657346811
 40
1.0
 40
1.0
 40
1.0
 40
1.0
 10
7.2805774814
 20
-0.758947453
 30
0.0
 10
7.3177002964
 20
-0.8577608247
 30
0.0
 10
7.392999038
 20
-1.1125074803
 30
0.0
 10
7.5122551003
 20
-1.5058776979
 30
0.0
 10
7.615308741
 20
-1.8606842702
 30
0.0
 10
7.6736505038
 20
-2.0620378959
 30
0.0
 10
7.6912717989
 20
-2.1233285009
 30
0.0
  0
SPLINE
  5
2DB
100
AcDbEntity
  8
0
100
AcDbSpline
 62
7
  6
CONTINUOUS
 70
0
 71
3
 72
9
 73
5
 74
0
 42
0.0000001
 43
0.0000001
 44
0.0000000001
 40
0.0
 40
0.0
 40
0.0
 40
0.0
 40
0.1980141723
 40
1.0
 40
1.0
 40
1.0
 40
1.0
 10
8.5946845782
 20
-2.1233285009
 30
0.0
 10
8.5728965261
 20
-2.0431065595
 30
0.0
 10
8.4662537741
 20
-1.6370636069
 30
0.0
 10
8.3621072235
 20
-1.2303585933
 30
0.0
 10
8.2736061092
 20
-0.9055179521
 30
0.0
  0
SPLINE
  5
2DC
100
AcDbEntity
  8
0
100
AcDbSpline
 62
7
  6
CONTINUOUS
 70
0
 71
3
 72
10
 73
6
 74
0
 42
0.0000001
 43
0.0000001
 44
0.0000000001
 40
0.0
 40
0.0
 40
0.0
 40
0.0
 40
0.4939032387
 40
0.7479365287
 40
1.0
 40
1.0
 40
1.0
 40
1.0
 10
8.2736061092
 20
-0.9055179521
 30
0.0
 10
8.2272582603
 20
-0.7353904739
 30
0.0
 10
8.1579364669
 20
-0.4747403381
 30
0.0
 10
7.9678220191
 20
-0.1671464436
 30
0.0
 10
7.8158217997
 20
-0.0563554653
 30
0.0
 10
7.7322332597
 20
-0.023024535
 30
0.0
  0
SPLINE
  5
2DD
100
AcDbEntity
  8
0
100
AcDbSpline
 62
7
  6
CONTINUOUS
 70
0
 71
3
 72
25
 73
21
 74
0
 42
0.0000001
 43
0.0000001
 44
0.0000000001
 40
0.0
 40
0.0
 40
0.0
 40
0.0
 40
0.0193903669
 40
0.0560849506
 40
0.1068230095
 40
0.168917796
 40
0.2406214879
 40
0.321470134
 40
0.3656572027
 40
0.4126863038
 40
0.4629576233
 40
0.4894676173
 40
0.5169795123
 40
0.5605475019
 40
0.6016871142
 40
0.6777620355
 40
0.7470996182
 40
0.8106762874
 40
0.9201813049
 40
1.0
 40
1.0
 40
1.0
 40
1.0
 10
7.7322332597
 20
0.0035632995
 30
0.0
 10
7.7502344189
 20
0.0058860298
 30
0.0
 10
7.7977744263
 20
0.0318262589
 30
0.0
 10
7.8818390748
 20
0.0842151606
 30
0.0
 10
7.9892481896
 20
0.1755289616
 30
0.0
 10
8.106052467
 20
0.3032107381
 30
0.0
 10
8.2179518953
 20
0.4712557795
 30
0.0
 10
8.2924622764
 20
0.6408653917
 30
0.0
 10
8.3361991558
 20
0.7960955075
 30
0.0
 10
8.3595617058
 20
0.9266797136
 30
0.0
 10
8.3686599741
 20
1.0424155551
 30
0.0
 10
8.3692800094
 20
1.140068422
 30
0.0
 10
8.3655447865
 20
1.2313717794
 30
0.0
 10
8.3544735507
 20
1.3359695808
 30
0.0
 10
8.3258083145
 20
1.4838635429
 30
0.0
 10
8.2709617399
 20
1.6506302032
 30
0.0
 10
8.1789258071
 20
1.824241898
 30
0.0
 10
8.0420643296
 20
2.0062565728
 30
0.0
 10
7.8626022499
 20
2.1643431754
 30
0.0
 10
7.7056778581
 20
2.2508279571
 30
0.0
 10
7.6353968572
 20
2.2761820764
 30
0.0
  0
SPLINE
  5
2DE
100
AcDbEntity
  8
0
100
AcDbSpline
 62
7
  6
CONTINUOUS
 70
0
 71
3
 72
10
 73
6
 74
0
 42
0.0000001
 43
0.0000001
 44
0.0000000001
 40
0.0
 40
0.0
 40
0.0
 40
0.0
 40
0.2954237646
 40
0.5848737211
 40
1.0
 40
1.0
 40
1.0
 40
1.0
 10
7.6353968572
 20
2.2761820764
 30
0.0
 10
7.4190328845
 20
2.3543494318
 30
0.0
 10
6.9633086559
 20
2.4303400124
 30
0.0
 10
6.1843045192
 20
2.4301938052
 30
0.0
 10
5.6373880668
 20
2.3706056896
 30
0.0
 10
5.3175652652
 20
2.3235543096
 30
0.0
  0
SPLINE
  5
2DF
100
AcDbEntity
  8
0
100
AcDbSpline
 62
7
  6
CONTINUOUS
 70
0
 71
3
 72
9
 73
5
 74
0
 42
0.0000001
 43
0.0000001
 44
0.0000000001
 40
0.0
 40
0.0
 40
0.0
 40
0.0
 40
0.5157390107
 40
1.0
 40
1.0
 40
1.0
 40
1.0
 10
6.2218553081
 20
1.6095967219
 30
0.0
 10
6.3469960712
 20
1.630950046
 30
0.0
 10
6.5921430359
 20
1.6622894187
 30
0.0
 10
6.8392370664
 20
1.6498270522
 30
0.0
 10
6.9576432625
 20
1.6360833337
 30
0.0
  0
SPLINE
  5
2E0
100
AcDbEntity
  8
0
100
AcDbSpline
 62
7
  6
CONTINUOUS
 70
0
 71
3
 72
10
 73
6
 74
0
 42
0.0000001
 43
0.0000001
 44
0.0000000001
 40
0.0
 40
0.0
 40
0.0
 40
0.0
 40
0.4967762503
 40
0.741191372
 40
1.0
 40
1.0
 40
1.0
 40
1.0
 10
6.9576432625
 20
1.6360833337
 30
0.0
 10
7.0952955453
 20
1.6201019349
 30
0.0
 10
7.3034544638
 20
1.5258290468
 30
0.0
 10
7.4593193261
 20
1.2876350812
 30
0.0
 10
7.4870562496
 20
1.1458088603
 30
0.0
 10
7.4881852809
 20
1.0736224175
 30
0.0
  0
SPLINE
  5
2E1
100
AcDbEntity
  8
0
100
AcDbSpline
 62
7
  6
CONTINUOUS
 70
0
 71
3
 72
10
 73
6
 74
0
 42
0.0000001
 43
0.0000001
 44
0.0000000001
 40
0.0
 40
0.0
 40
0.0
 40
0.0
 40
0.2929210355
 40
0.5275938042
 40
1.0
 40
1.0
 40
1.0
 40
1.0
 10
7.4881852809
 20
1.0736224175
 30
0.0
 10
7.489898913
 20
0.9625661517
 30
0.0
 10
7.4659447604
 20
0.756195914
 30
0.0
 10
7.2305265893
 20
0.4370175874
 30
0.0
 10
6.937687466
 20
0.3784095288
 30
0.0
 10
6.7586056534
 20
0.3744096061
 30
0.0
  0
SPLINE
  5
2E2
100
AcDbEntity
  8
0
100
AcDbSpline
 62
7
  6
CONTINUOUS
 70
0
 71
3
 72
16
 73
12
 74
0
 42
0.0000001
 43
0.0000001
 44
0.0000000001
 40
0.0
 40
0.0
 40
0.0
 40
0.0
 40
0.081582199
 40
0.1574553967
 40
0.3066287736
 40
0.384848994
 40
0.5792892447
 40
0.6959714606
 40
0.8475957974
 40
0.961835767
 40
1.0
 40
1.0
 40
1.0
 40
1.0
 10
3.0730191822
 20
-63.8108323375
 30
0.0
 10
3.1134844942
 20
-63.8108323375
 30
0.0
 10
3.191753423
 20
-63.8210527016
 30
0.0
 10
3.3360515857
 20
-63.8737119728
 30
0.0
 10
3.4503292892
 20
-63.9794511581
 30
0.0
 10
3.5681310428
 20
-64.1529118842
 30
0.0
 10
3.6249729574
 20
-64.3412799833
 30
0.0
 10
3.6702711203
 20
-64.5657442078
 30
0.0
 10
3.6926556985
 20
-64.7546773421
 30
0.0
 10
3.6974622827
 20
-64.9054767357
 30
0.0
 10
3.6971174221
 20
-64.9810702872
 30
0.0
 10
3.6971174221
 20
-65.0
 30
0.0
  0
SPLINE
  5
2E3
100
AcDbEntity
  8
0
100
AcDbSpline
 62
7
  6
CONTINUOUS
 70
0
 71
3
 72
16
 73
12
 74
0
 42
0.0000001
 43
0.0000001
 44
0.0000000001
 40
0.0
 40
0.0
 40
0.0
 40
0.0
 40
0.038164233
 40
0.1524042026
 40
0.3040285394
 40
0.4207107553
 40
0.615151006
 40
0.6933712264
 40
0.8425446033
 40
0.918417801
 40
1.0
 40
1.0
 40
1.0
 40
1.0
 10
3.6971174221
 20
-65.0
 30
0.0
 10
3.6971174221
 20
-65.0189297128
 30
0.0
 10
3.6974622827
 20
-65.0945232643
 30
0.0
 10
3.6926556985
 20
-65.2453226579
 30
0.0
 10
3.6702711203
 20
-65.4342557922
 30
0.0
 10
3.6249729574
 20
-65.6587200167
 30
0.0
 10
3.5681310428
 20
-65.8470881158
 30
0.0
 10
3.4503292892
 20
-66.0205488419
 30
0.0
 10
3.3360515857
 20
-66.1262880272
 30
0.0
 10
3.191753423
 20
-66.1789472984
 30
0.0
 10
3.1134844942
 20
-66.1891676625
 30
0.0
 10
3.0730191822
 20
-66.1891676625
 30
0.0
  0
SPLINE
  5
2E4
100
AcDbEntity
  8
0
100
AcDbSpline
 62
7
  6
CONTINUOUS
 70
0
 71
3
 72
16
 73
12
 74
0
 42
0.0000001
 43
0.0000001
 44
0.0000000001
 40
0.0
 40
0.0
 40
0.0
 40
0.0
 40
0.081582199
 40
0.1574553967
 40
0.3066287736
 40
0.384848994
 40
0.5792892447
 40
0.6959714606
 40
0.8475957974
 40
0.961835767
 40
1.0
 40
1.0
 40
1.0
 40
1.0
 10
3.0730191822
 20
-66.1891676625
 30
0.0
 10
3.0325538703
 20
-66.1891676625
 30
0.0
 10
2.9542849415
 20
-66.1789472984
 30
0.0
 10
2.8099867788
 20
-66.1262880272
 30
0.0
 10
2.6957090753
 20
-66.0205488419
 30
0.0
 10
2.5779073216
 20
-65.8470881158
 30
0.0
 10
2.5210654071
 20
-65.6587200167
 30
0.0
 10
2.4757672442
 20
-65.4342557922
 30
0.0
 10
2.4533826659
 20
-65.2453226579
 30
0.0
 10
2.4485760818
 20
-65.0945232643
 30
0.0
 10
2.4489209424
 20
-65.0189297128
 30
0.0
 10
2.4489209424
 20
-65.0
 30
0.0
  0
SPLINE
  5
2E5
100
AcDbEntity
  8
0
100
AcDbSpline
 62
7
  6
CONTINUOUS
 70
0
 71
3
 72
16
 73
12
 74
0
 42
0.0000001
 43
0.0000001
 44
0.0000000001
 40
0.0
 40
0.0
 40
0.0
 40
0.0
 40
0.038164233
 40
0.1524042026
 40
0.3040285394
 40
0.4207107553
 40
0.615151006
 40
0.6933712264
 40
0.8425446033
 40
0.918417801
 40
1.0
 40
1.0
 40
1.0
 40
1.0
 10
2.4489209424
 20
-65.0
 30
0.0
 10
2.4489209424
 20
-64.9810702872
 30
0.0
 10
2.4485760818
 20
-64.9054767357
 30
0.0
 10
2.4533826659
 20
-64.7546773421
 30
0.0
 10
2.4757672442
 20
-64.5657442078
 30
0.0
 10
2.5210654071
 20
-64.3412799833
 30
0.0
 10
2.5779073216
 20
-64.1529118842
 30
0.0
 10
2.6957090753
 20
-63.9794511581
 30
0.0
 10
2.8099867788
 20
-63.8737119728
 30
0.0
 10
2.9542849415
 20
-63.8210527016
 30
0.0
 10
3.0325538703
 20
-63.8108323375
 30
0.0
 10
3.0730191822
 20
-63.8108323375
 30
0.0
  0
SPLINE
  5
2E6
100
AcDbEntity
  8
0
100
AcDbSpline
 62
7
  6
CONTINUOUS
 70
0
 71
3
 72
23
 73
19
 74
0
 42
0.0000001
 43
0.0000001
 44
0.0000000001
 40
0.0
 40
0.0
 40
0.0
 40
0.0
 40
0.1175716721
 40
0.2550368586
 40
0.3463162708
 40
0.4140846673
 40
0.5095606694
 40
0.6178461101
 40
0.6617319017
 40
0.7152414415
 40
0.7583771864
 40
0.8078403706
 40
0.8439461126
 40
0.889742133
 40
0.9288974336
 40
0.9679984913
 40
0.9901309194
 40
1.0
 40
1.0
 40
1.0
 40
1.0
 10
3.0730191822
 20
-66.5247385418
 30
0.0
 10
3.1536993347
 20
-66.5247385418
 30
0.0
 10
3.3292613877
 20
-66.5024419013
 30
0.0
 10
3.551863797
 20
-66.4068799715
 30
0.0
 10
3.7086107163
 20
-66.2742701959
 30
0.0
 10
3.8194542507
 20
-66.1388011902
 30
0.0
 10
3.9180979886
 20
-65.9796041822
 30
0.0
 10
3.9779904264
 20
-65.8194515144
 30
0.0
 10
4.01450341
 20
-65.683140264
 30
0.0
 10
4.036569157
 20
-65.5892276751
 30
0.0
 10
4.0557304117
 20
-65.4907966806
 30
0.0
 10
4.0695864506
 20
-65.4035476167
 30
0.0
 10
4.0808120189
 20
-65.3140940292
 30
0.0
 10
4.0885915508
 20
-65.231368731
 30
0.0
 10
4.0938113368
 20
-65.146390255
 30
0.0
 10
4.0960175349
 20
-65.0775249923
 30
0.0
 10
4.0963836669
 20
-65.0287324392
 30
0.0
 10
4.0963536248
 20
-65.0067723705
 30
0.0
 10
4.0963536248
 20
-65.0
 30
0.0
  0
SPLINE
  5
2E7
100
AcDbEntity
  8
0
100
AcDbSpline
 62
7
  6
CONTINUOUS
 70
0
 71
3
 72
23
 73
19
 74
0
 42
0.0000001
 43
0.0000001
 44
0.0000000001
 40
0.0
 40
0.0
 40
0.0
 40
0.0
 40
0.0098690806
 40
0.0320015087
 40
0.0711025664
 40
0.110257867
 40
0.1560538874
 40
0.1921596294
 40
0.2416228136
 40
0.2847585585
 40
0.3382680983
 40
0.3821538899
 40
0.4904393306
 40
0.5859153327
 40
0.6536837292
 40
0.7449631414
 40
0.8824283279
 40
1.0
 40
1.0
 40
1.0
 40
1.0
 10
4.0963536248
 20
-65.0
 30
0.0
 10
4.0963536248
 20
-64.9932276295
 30
0.0
 10
4.0963836669
 20
-64.9712675608
 30
0.0
 10
4.0960175349
 20
-64.9224750077
 30
0.0
 10
4.0938113368
 20
-64.853609745
 30
0.0
 10
4.0885915508
 20
-64.768631269
 30
0.0
 10
4.0808120189
 20
-64.6859059708
 30
0.0
 10
4.0695864506
 20
-64.5964523833
 30
0.0
 10
4.0557304117
 20
-64.5092033194
 30
0.0
 10
4.036569157
 20
-64.4107723249
 30
0.0
 10
4.01450341
 20
-64.316859736
 30
0.0
 10
3.9779904264
 20
-64.1805484856
 30
0.0
 10
3.9180979886
 20
-64.0203958178
 30
0.0
 10
3.8194542507
 20
-63.8611988098
 30
0.0
 10
3.7086107163
 20
-63.7257298041
 30
0.0
 10
3.551863797
 20
-63.5931200285
 30
0.0
 10
3.3292613877
 20
-63.4975580987
 30
0.0
 10
3.1536993347
 20
-63.4752614582
 30
0.0
 10
3.0730191822
 20
-63.4752614582
 30
0.0
  0
SPLINE
  5
2E8
100
AcDbEntity
  8
0
100
AcDbSpline
 62
7
  6
CONTINUOUS
 70
0
 71
3
 72
23
 73
19
 74
0
 42
0.0000001
 43
0.0000001
 44
0.0000000001
 40
0.0
 40
0.0
 40
0.0
 40
0.0
 40
0.1175716721
 40
0.2550368586
 40
0.3463162708
 40
0.4140846673
 40
0.5095606694
 40
0.6178461101
 40
0.6617319017
 40
0.7152414415
 40
0.7583771864
 40
0.8078403706
 40
0.8439461126
 40
0.889742133
 40
0.9288974336
 40
0.9679984913
 40
0.9901309194
 40
1.0
 40
1.0
 40
1.0
 40
1.0
 10
3.0730191822
 20
-63.4752614582
 30
0.0
 10
2.9923390298
 20
-63.4752614582
 30
0.0
 10
2.8167769768
 20
-63.4975580987
 30
0.0
 10
2.5941745675
 20
-63.5931200285
 30
0.0
 10
2.4374276482
 20
-63.7257298041
 30
0.0
 10
2.3265841138
 20
-63.8611988098
 30
0.0
 10
2.2279403758
 20
-64.0203958178
 30
0.0
 10
2.1680479381
 20
-64.1805484856
 30
0.0
 10
2.1315349544
 20
-64.316859736
 30
0.0
 10
2.1094692074
 20
-64.4107723249
 30
0.0
 10
2.0903079528
 20
-64.5092033194
 30
0.0
 10
2.0764519139
 20
-64.5964523833
 30
0.0
 10
2.0652263455
 20
-64.6859059708
 30
0.0
 10
2.0574468136
 20
-64.768631269
 30
0.0
 10
2.0522270277
 20
-64.853609745
 30
0.0
 10
2.0500208296
 20
-64.9224750077
 30
0.0
 10
2.0496546976
 20
-64.9712675608
 30
0.0
 10
2.0496847397
 20
-64.9932276295
 30
0.0
 10
2.0496847397
 20
-65.0
 30
0.0
  0
SPLINE
  5
2E9
100
AcDbEntity
  8
0
100
AcDbSpline
 62
7
  6
CONTINUOUS
 70
0
 71
3
 72
23
 73
19
 74
0
 42
0.0000001
 43
0.0000001
 44
0.0000000001
 40
0.0
 40
0.0
 40
0.0
 40
0.0
 40
0.0098690806
 40
0.0320015087
 40
0.0711025664
 40
0.110257867
 40
0.1560538874
 40
0.1921596294
 40
0.2416228136
 40
0.2847585585
 40
0.3382680983
 40
0.3821538899
 40
0.4904393306
 40
0.5859153327
 40
0.6536837292
 40
0.7449631414
 40
0.8824283279
 40
1.0
 40
1.0
 40
1.0
 40
1.0
 10
2.0496847397
 20
-65.0
 30
0.0
 10
2.0496847397
 20
-65.0067723705
 30
0.0
 10
2.0496546976
 20
-65.0287324392
 30
0.0
 10
2.0500208296
 20
-65.0775249923
 30
0.0
 10
2.0522270277
 20
-65.146390255
 30
0.0
 10
2.0574468136
 20
-65.231368731
 30
0.0
 10
2.0652263455
 20
-65.3140940292
 30
0.0
 10
2.0764519139
 20
-65.4035476168
 30
0.0
 10
2.0903079528
 20
-65.4907966806
 30
0.0
 10
2.1094692074
 20
-65.5892276751
 30
0.0
 10
2.1315349544
 20
-65.683140264
 30
0.0
 10
2.1680479381
 20
-65.8194515144
 30
0.0
 10
2.2279403758
 20
-65.9796041822
 30
0.0
 10
2.3265841138
 20
-66.1388011902
 30
0.0
 10
2.4374276482
 20
-66.2742701959
 30
0.0
 10
2.5941745675
 20
-66.4068799715
 30
0.0
 10
2.8167769768
 20
-66.5024419013
 30
0.0
 10
2.9923390298
 20
-66.5247385418
 30
0.0
 10
3.0730191822
 20
-66.5247385418
 30
0.0
  0
SPLINE
  5
2EA
100
AcDbEntity
  8
0
100
AcDbSpline
 62
7
  6
CONTINUOUS
 70
0
 71
3
 72
13
 73
9
 74
0
 42
0.0000001
 43
0.0000001
 44
0.0000000001
 40
0.0
 40
0.0
 40
0.0
 40
0.0
 40
0.1090141515
 40
0.2629336584
 40
0.3769976586
 40
0.5319538455
 40
0.9696567193
 40
1.0
 40
1.0
 40
1.0
 40
1.0
 10
-1.6620625954
 20
-63.8277282639
 30
0.0
 10
-1.6299699353
 20
-63.8277281439
 30
0.0
 10
-1.5524672182
 20
-63.8320400546
 30
0.0
 10
-1.4433410255
 20
-63.8544668224
 30
0.0
 10
-1.3247500929
 20
-63.8933626487
 30
0.0
 10
-1.1458651907
 20
-64.0083289624
 30
0.0
 10
-1.0834188581
 20
-64.2102689817
 30
0.0
 10
-1.0849905254
 20
-64.3475905523
 30
0.0
 10
-1.0849905254
 20
-64.356523307
 30
0.0
  0
SPLINE
  5
2EB
100
AcDbEntity
  8
0
100
AcDbSpline
 62
7
  6
CONTINUOUS
 70
0
 71
3
 72
13
 73
9
 74
0
 42
0.0000001
 43
0.0000001
 44
0.0000000001
 40
0.0
 40
0.0
 40
0.0
 40
0.0
 40
0.0303435393
 40
0.4680501428
 40
0.62300765
 40
0.7370726222
 40
0.8909934407
 40
1.0
 40
1.0
 40
1.0
 40
1.0
 10
-1.0849905254
 20
-64.356523307
 30
0.0
 10
-1.0849905254
 20
-64.3654560617
 30
0.0
 10
-1.0834188581
 20
-64.5027776323
 30
0.0
 10
-1.1458651907
 20
-64.7047176517
 30
0.0
 10
-1.324750093
 20
-64.8196839653
 30
0.0
 10
-1.4433410255
 20
-64.8585797917
 30
0.0
 10
-1.5524647517
 20
-64.8810060525
 30
0.0
 10
-1.6299649119
 20
-64.8853181907
 30
0.0
 10
-1.6620550699
 20
-64.8853183501
 30
0.0
  0
SPLINE
  5
2EC
100
AcDbEntity
  8
0
100
AcDbSpline
 62
7
  6
CONTINUOUS
 70
0
 71
3
 72
14
 73
10
 74
0
 42
0.0000001
 43
0.0000001
 44
0.0000000001
 40
0.0
 40
0.0
 40
0.0
 40
0.0
 40
0.0943182293
 40
0.2454751318
 40
0.3513656738
 40
0.4920109858
 40
0.6227669338
 40
0.9774610162
 40
1.0
 40
1.0
 40
1.0
 40
1.0
 10
-1.5659487867
 20
-65.2377955241
 30
0.0
 10
-1.5214188917
 20
-65.2377957506
 30
0.0
 10
-1.4054164503
 20
-65.2308098081
 30
0.0
 10
-1.2425682621
 20
-65.1941873896
 30
0.0
 10
-1.0673723141
 20
-65.1244903233
 30
0.0
 10
-0.9203068438
 20
-65.0198561205
 30
0.0
 10
-0.7257833909
 20
-64.7945645565
 30
0.0
 10
-0.658731323
 20
-64.5450437619
 30
0.0
 10
-0.6602646482
 20
-64.3671645019
 30
0.0
 10
-0.6602646482
 20
-64.356523307
 30
0.0
  0
SPLINE
  5
2ED
100
AcDbEntity
  8
0
100
AcDbSpline
 62
7
  6
CONTINUOUS
 70
0
 71
3
 72
14
 73
10
 74
0
 42
0.0000001
 43
0.0000001
 44
0.0000000001
 40
0.0
 40
0.0
 40
0.0
 40
0.0
 40
0.0225390566
 40
0.3772342836
 40
0.5079906537
 40
0.6486364196
 40
0.7545273033
 40
0.9056846937
 40
1.0
 40
1.0
 40
1.0
 40
1.0
 10
-0.6602646482
 20
-64.356523307
 30
0.0
 10
-0.6602646482
 20
-64.3458821121
 30
0.0
 10
-0.658731323
 20
-64.1680028522
 30
0.0
 10
-0.7257833909
 20
-63.9184820575
 30
0.0
 10
-0.9203068438
 20
-63.6931904936
 30
0.0
 10
-1.0673723141
 20
-63.5885562908
 30
0.0
 10
-1.2425682621
 20
-63.5188592245
 30
0.0
 10
-1.4054149545
 20
-63.4822371423
 30
0.0
 10
-1.5214158415
 20
-63.4752510471
 30
0.0
 10
-1.5659442155
 20
-63.4752510899
 30
0.0
  0
ENDSEC
  0
SECTION
  2
OBJECTS
  0
DICTIONARY
  5
C
100
AcDbDictionary
280
0
281
1
  3
ACAD_GROUP
350
D
  3
ACAD_MLINESTYLE
350
17
  3
ACAD_LAYOUT
350
1A
  3
ACAD_PLOTSETTINGS
350
19
  3
ACAD_PLOTSTYLENAME
350
E
  0
DICTIONARY
  5
D
102
{ACAD_REACTORS
330
C
102
}
100
AcDbDictionary
280
0
281
1
  0
ACDBDICTIONARYWDFLT
  5
E
102
{ACAD_REACTORS
330
C
102
}
100
AcDbDictionary
281
1
  3
Normal
350
F
100
AcDbDictionaryWithDefault
340
F
  0
DICTIONARY
  5
17
102
{ACAD_REACTORS
330
C
102
}
100
AcDbDictionary
280
0
281
1
  3
Standard
350
18
  0
DICTIONARY
  5
19
102
{ACAD_REACTORS
330
C
102
}
100
AcDbDictionary
281
1
  0
DICTIONARY
  5
1A
102
{ACAD_REACTORS
330
C
102
}
100
AcDbDictionary
281
1
  3
Model
350
2EE
  3
Layout1
350
2EF
  0
ACDBPLACEHOLDER
  5
F
102
{ACAD_REACTORS
330
E
102
}
  0
MLINESTYLE
  5
18
102
{ACAD_REACTORS
330
17
102
}
100
AcDbMlineStyle
  2
STANDARD
 70
0
  3

 62
256
 51
90.0
 52
90.0
 71
2
 49
0.5
 62
256
  6
BYLAYER
 49
-0.5
 62
256
  6
BYLAYER
  0
LAYOUT
  5
2EE
102
{ACAD_REACTORS
330
1A
102
}
100
AcDbPlotSettings
  1

  2
none_device
  4
ANSI_C_(22.00_x_17.00_Inches)
  6

 40
0.0
 41
0.0
 42
0.0
 43
0.0
 44
558.8
 45
431.8
 46
0.0
 47
0.0
 48
0.0
 49
0.0
140
0.0
141
0.0
142
1.0
143
1.0
 70
1024
 72
1
 73
0
 74
0
  7

 75
0
147
1.0
148
0.0
149
0.0
100
AcDbLayout
  1
Model
 70
0
 71
0
 10
0.0
 20
0.0
 11
558.8
 21
431.8
 12
0.0
 22
0.0
 32
0.0
 14
0.0
 24
0.0
 34
0.0
 15
0.0
 25
0.0
 35
0.0
146
0.0
 13
0.0
 23
0.0
 33
0.0
 16
1.0
 26
0.0
 36
0.0
 17
0.0
 27
1.0
 37
0.0
 76
0
330
20D
345
0
346
0
  0
LAYOUT
  5
2EF
102
{ACAD_REACTORS
330
1A
102
}
100
AcDbPlotSettings
  1

  2
none_device
  4
ANSI_C_(22.00_x_17.00_Inches)
  6

 40
0.0
 41
0.0
 42
0.0
 43
0.0
 44
558.8
 45
431.8
 46
0.0
 47
0.0
 48
0.0
 49
0.0
140
0.0
141
0.0
142
1.0
143
1.0
 70
0
 72
1
 73
0
 74
0
  7

 75
0
147
1.0
148
0.0
149
0.0
100
AcDbLayout
  1
Layout1
 70
0
 71
1
 10
0.0
 20
0.0
 11
558.8
 21
431.8
 12
0.0
 22
0.0
 32
0.0
 14
0.0
 24
0.0
 34
0.0
 15
0.0
 25
0.0
 35
0.0
146
0.0
 13
0.0
 23
0.0
 33
0.0
 16
1.0
 26
0.0
 36
0.0
 17
0.0
 27
1.0
 37
0.0
 76
0
330
20E
345
0
346
0
  0
ENDSEC
  0
EOF
