0
SECTION
2
HEADER
9
$ACADVER
1
AC1015
9
$DWGCODEPAGE
3
ANSI_1252
9
$EXTMAX
10
431.8000000000
20
558.8000000000
30
0.0000000000
9
$EXTMIN
10
0.0000000000
20
0.0000000000
30
0.0000000000
9
$LIMMIN
10
0.0000000000
20
0.0000000000
9
$LIMMAX
10
431.8000000000
20
558.8000000000
9
$VIEWCTR
10
215.9000000000
20
279.4000000000
9
$VIEWSIZE
40
558.8000000000
9
$CLAYER
8
0
9
$LTSCALE
40
36.4254814815
9
$CELTYPE
6
BYLAYER
9
$DIMSCALE
40
1
9
$DIMASZ
40
3.0000000000
9
$DIMEXO
40
4.1392592593
9
$DIMDLI
40
25.1666962963
9
$DIMEXE
40
11.9210666667
9
$DIMCEN
40
5.9605333333
9
$DIMLFAC
40
1.0000000000
9
$DIMBLK
1
_FILLED
9
$DIMTXT
40
3.0000000000
9
$DIMTOL
70
1
9
$DIMLIM
70
0
9
$DIMTFAC
40
1.0000000000
9
$DIMTP
40
0.0100000000
9
$DIMTM
40
0.0100000000
9
$PDMODE
70
3
9
$PDSIZE
40
3.0000000000
9
$HANDSEED
5
3CD
9
$MEASUREMENT
70
1
9
$INSUNITS
70
4
0
ENDSEC
0
SECTION
2
CLASSES
0
CLASS
1
ACDBDICTIONARYWDFLT
2
AcDbDictionaryWithDefault
3
AutoCAD 2000
90
0
280
0
281
0
0
CLASS
1
ACDBPLACEHOLDER
2
AcDbPlaceHolder
3
AutoCAD 2000
90
0
280
0
281
0
0
CLASS
1
LAYOUT
2
AcDbLayout
3
AutoCAD 2000
90
0
280
0
281
0
0
ENDSEC
0
SECTION
2
TABLES
0
TABLE
2
VPORT
5
8
100
AcDbSymbolTable
70
2
0
VPORT
5
1F4
100
AcDbSymbolTableRecord
100
AcDbViewportTableRecord
2
*ACTIVE
70
0
10
0.0
20
0.0
11
1.0
21
1.0
12
215.9000000000
22
279.4000000000
13
0.0
23
0.0
14
1.0
24
1.0
15
0.0
25
0.0
16
0.0
26
0.0
36
1.0
17
0.0
27
0.0
37
0.0
40
558.8000000000
41
0.7727272727
42
50.0
43
0.0
44
0.0
50
0.0
51
0.0
71
0
72
100
73
1
74
1
75
0
76
0
77
0
78
0
0
ENDTAB
0
TABLE
2
LTYPE
5
5
100
AcDbSymbolTable
70
6
0
LTYPE
5
14
100
AcDbSymbolTableRecord
100
AcDbLinetypeTableRecord
2
BYBLOCK
70
0
3

72
65
73
0
40
0.0
0
LTYPE
5
15
100
AcDbSymbolTableRecord
100
AcDbLinetypeTableRecord
2
BYLAYER
70
0
3

72
65
73
0
40
0.0
0
LTYPE
5
16
100
AcDbSymbolTableRecord
100
AcDbLinetypeTableRecord
2
CONTINUOUS
70
64
3
Solid line
72
65
73
0
40
0
0
LTYPE
5
1F5
100
AcDbSymbolTableRecord
100
AcDbLinetypeTableRecord
2
CENTER
70
64
3
____ _ ____ _ ____ _ ____ _ ____ _ ____ _ ____
72
65
73
4
40
0.6
49
0.375
74
0
49
-0.075
74
0
49
0.075
74
0
49
-0.075
74
0
0
LTYPE
5
1F6
100
AcDbSymbolTableRecord
100
AcDbLinetypeTableRecord
2
HIDDEN
70
64
3
- - - - - - - - - - - - - - - - - - - -
72
65
73
2
40
0.2
49
0.1
74
0
49
-0.1
74
0
0
LTYPE
5
1F7
100
AcDbSymbolTableRecord
100
AcDbLinetypeTableRecord
2
PHANTOM
70
64
3
_____ _ _ _____ _ _ _____ _ _ _____
72
65
73
6
40
0.8
49
0.45
74
0
49
-0.05
74
0
49
0.1
74
0
49
-0.05
74
0
49
0.1
74
0
49
-0.05
74
0
0
LTYPE
5
1F8
100
AcDbSymbolTableRecord
100
AcDbLinetypeTableRecord
2
DOT
70
64
3
. . . . . . . . . . . . . . . . . . . .
72
65
73
2
40
0.2
49
0.1
74
0
49
-0.1
74
0
0
LTYPE
5
1F9
100
AcDbSymbolTableRecord
100
AcDbLinetypeTableRecord
2
DASHED
70
64
3
- - - - - - - - - - - - - - - - - - - -
72
65
73
2
40
0.2
49
0.1
74
0
49
-0.1
74
0
0
ENDTAB
0
TABLE
2
LAYER
5
2
100
AcDbSymbolTable
70
36
0
LAYER
5
10
100
AcDbSymbolTableRecord
100
AcDbLayerTableRecord
2
0
70
0
62
7
6
CONTINUOUS
370
-3
390
F
0
LAYER
5
1FA
100
AcDbSymbolTableRecord
100
AcDbLayerTableRecord
2
DEFAULT_1
70
0
62
7
6
CENTER
370
-3
390
F
0
LAYER
5
1FB
100
AcDbSymbolTableRecord
100
AcDbLayerTableRecord
2
DEFAULT_2
70
0
62
9
6
HIDDEN
370
-3
390
F
0
LAYER
5
1FC
100
AcDbSymbolTableRecord
100
AcDbLayerTableRecord
2
DEFAULT_3
70
0
62
7
6
PHANTOM
370
-3
390
F
0
LAYER
5
1FD
100
AcDbSymbolTableRecord
100
AcDbLayerTableRecord
2
_BLACK_HOLE
70
0
62
7
6
CONTINUOUS
370
-3
390
F
0
LAYER
5
1FE
100
AcDbSymbolTableRecord
100
AcDbLayerTableRecord
2
ASSI
70
0
62
7
6
CONTINUOUS
370
-3
390
F
0
LAYER
5
1FF
100
AcDbSymbolTableRecord
100
AcDbLayerTableRecord
2
COORDINATE
70
0
62
7
6
CONTINUOUS
370
-3
390
F
0
LAYER
5
200
100
AcDbSymbolTableRecord
100
AcDbLayerTableRecord
2
COORD_ORIGINE
70
0
62
7
6
CONTINUOUS
370
-3
390
F
0
LAYER
5
201
100
AcDbSymbolTableRecord
100
AcDbLayerTableRecord
2
COPY_PUBLISH
70
0
62
7
6
CONTINUOUS
370
-3
390
F
0
LAYER
5
202
100
AcDbSymbolTableRecord
100
AcDbLayerTableRecord
2
COSMETIC
70
0
62
7
6
CONTINUOUS
370
-3
390
F
0
LAYER
5
203
100
AcDbSymbolTableRecord
100
AcDbLayerTableRecord
2
CURVE
70
0
62
7
6
CONTINUOUS
370
-3
390
F
0
LAYER
5
204
100
AcDbSymbolTableRecord
100
AcDbLayerTableRecord
2
DRAFT
70
0
62
7
6
CONTINUOUS
370
-3
390
F
0
LAYER
5
205
100
AcDbSymbolTableRecord
100
AcDbLayerTableRecord
2
IMPORT_IGES
70
0
62
7
6
CONTINUOUS
370
-3
390
F
0
LAYER
5
206
100
AcDbSymbolTableRecord
100
AcDbLayerTableRecord
2
INTFCLR_1
70
0
62
7
6
CONTINUOUS
370
-3
390
F
0
LAYER
5
207
100
AcDbSymbolTableRecord
100
AcDbLayerTableRecord
2
INTFCLR_19
70
0
62
7
6
CONTINUOUS
370
-3
390
F
0
LAYER
5
208
100
AcDbSymbolTableRecord
100
AcDbLayerTableRecord
2
NOTE
70
0
62
7
6
CONTINUOUS
370
-3
390
F
0
LAYER
5
209
100
AcDbSymbolTableRecord
100
AcDbLayerTableRecord
2
PIANI
70
0
62
7
6
CONTINUOUS
370
-3
390
F
0
LAYER
5
20A
100
AcDbSymbolTableRecord
100
AcDbLayerTableRecord
2
PIANI_ORIGINE
70
0
62
7
6
CONTINUOUS
370
-3
390
F
0
LAYER
5
20B
100
AcDbSymbolTableRecord
100
AcDbLayerTableRecord
2
PUNTI
70
0
62
7
6
CONTINUOUS
370
-3
390
F
0
LAYER
5
20C
100
AcDbSymbolTableRecord
100
AcDbLayerTableRecord
2
PUNZONE
70
0
62
7
6
CONTINUOUS
370
-3
390
F
0
LAYER
5
20D
100
AcDbSymbolTableRecord
100
AcDbLayerTableRecord
2
RACCORDO
70
0
62
7
6
CONTINUOUS
370
-3
390
F
0
LAYER
5
20E
100
AcDbSymbolTableRecord
100
AcDbLayerTableRecord
2
SNAPLINE
70
0
62
7
6
CONTINUOUS
370
-3
390
F
0
LAYER
5
20F
100
AcDbSymbolTableRecord
100
AcDbLayerTableRecord
2
SUPERFICI
70
0
62
7
6
CONTINUOUS
370
-3
390
F
0
LAYER
5
210
100
AcDbSymbolTableRecord
100
AcDbLayerTableRecord
2
TRASH
70
0
62
7
6
CONTINUOUS
370
-3
390
F
0
LAYER
5
211
100
AcDbSymbolTableRecord
100
AcDbLayerTableRecord
2
XSEC_DATUMS
70
0
62
7
6
CONTINUOUS
370
-3
390
F
0
ENDTAB
0
TABLE
2
STYLE
5
3
100
AcDbSymbolTable
70
1
0
STYLE
5
11
100
AcDbSymbolTableRecord
100
AcDbTextStyleTableRecord
2
STANDARD
70
0
40
0.0
41
0.8000000000
50
0.0
71
0
42
0.2
3
txt
4

0
ENDTAB
0
TABLE
2
VIEW
5
6
100
AcDbSymbolTable
70
0
0
ENDTAB
0
TABLE
2
UCS
5
7
100
AcDbSymbolTable
70
0
0
ENDTAB
0
TABLE
2
APPID
5
9
100
AcDbSymbolTable
70
1
0
APPID
5
212
100
AcDbSymbolTableRecord
100
AcDbRegAppTableRecord
2
ACAD
70
0
0
ENDTAB
0
TABLE
2
BLOCK_RECORD
5
1
100
AcDbSymbolTable
70
0
0
BLOCK_RECORD
5
1F
100
AcDbSymbolTableRecord
100
AcDbBlockTableRecord
2
*MODEL_SPACE
0
BLOCK_RECORD
5
1B
100
AcDbSymbolTableRecord
100
AcDbBlockTableRecord
2
*PAPER_SPACE
0
BLOCK_RECORD
5
213
100
AcDbSymbolTableRecord
100
AcDbBlockTableRecord
2
_FILLED
0
BLOCK_RECORD
5
214
100
AcDbSymbolTableRecord
100
AcDbBlockTableRecord
2
*D0
0
BLOCK_RECORD
5
215
100
AcDbSymbolTableRecord
100
AcDbBlockTableRecord
2
*D1
0
BLOCK_RECORD
5
216
100
AcDbSymbolTableRecord
100
AcDbBlockTableRecord
2
*D2
0
BLOCK_RECORD
5
217
100
AcDbSymbolTableRecord
100
AcDbBlockTableRecord
2
*D3
0
BLOCK_RECORD
5
218
100
AcDbSymbolTableRecord
100
AcDbBlockTableRecord
2
*D4
0
BLOCK_RECORD
5
219
100
AcDbSymbolTableRecord
100
AcDbBlockTableRecord
2
*D5
0
ENDTAB
0
TABLE
2
DIMSTYLE
5
A
100
AcDbSymbolTable
70
1
100
AcDbDimStyleTable
71
0
0
DIMSTYLE
105
21A
100
AcDbSymbolTableRecord
100
AcDbDimStyleTableRecord
2
STANDARD
70
0
3

4

40
1.0
41
3.0000000000
42
0.0625
43
0.38
44
0.18
45
0.0
46
0.0
47
0.0100000000
48
0.0100000000
140
3.0000000000
141
0.09
142
0.0
143
25.4
144
1.0000000000
145
0.0
146
1.0000000000
147
0.09
71
1
72
0
73
0
74
0
75
0
76
0
77
1
78
8
170
0
171
2
172
0
173
0
174
0
175
0
176
0
177
0
178
0
270
2
271
2
272
2
273
2
274
2
275
0
280
0
281
0
282
0
283
1
284
8
285
0
286
0
287
3
288
0
340
11
341
213
342
213
343
213
344
213
0
DIMSTYLE
105
21B
100
AcDbSymbolTableRecord
100
AcDbDimStyleTableRecord
2
DIMSTYLE_1
70
0
3

4

40
1.0
41
3.0000000000
42
0.0625
43
0.38
44
0.18
45
0.0
46
0.0
47
0.0000000000
48
0.0000000000
140
3.0000000000
141
0.09
142
0.0
143
25.4
144
1.0000000000
145
0.0
146
1.0000000000
147
0.09
71
0
72
0
73
0
74
0
75
0
76
0
77
1
78
8
170
0
171
2
172
0
173
0
174
0
175
0
176
0
177
0
178
0
270
2
271
2
272
2
273
2
274
2
275
0
280
0
281
0
282
0
283
1
284
8
285
0
286
0
287
3
288
0
340
11
341
213
342
213
343
213
344
213
0
ENDTAB
0
ENDSEC
0
SECTION
2
BLOCKS
0
BLOCK
5
20
100
AcDbEntity
8
0
100
AcDbBlockBegin
2
*MODEL_SPACE
70
0
10
0.0
20
0.0
30
0.0
3
*MODEL_SPACE
1

0
ENDBLK
5
21
100
AcDbEntity
8
0
100
AcDbBlockEnd
0
BLOCK
5
1C
100
AcDbEntity
8
0
100
AcDbBlockBegin
2
*PAPER_SPACE
70
0
10
0.0
20
0.0
30
0.0
3
*PAPER_SPACE
1

0
ENDBLK
5
1D
100
AcDbEntity
8
0
100
AcDbBlockEnd
0
BLOCK
5
21C
100
AcDbEntity
8
0
100
AcDbBlockBegin
62
0
6
CONTINUOUS
2
*D0
70
65
10
0.0000000000
20
0.0000000000
3
*D0
1

0
TEXT
5
21D
100
AcDbEntity
8
0
100
AcDbText
62
0
6
CONTINUOUS
10
-122.4677732709
20
163.1198407612
7
STANDARD
40
3.0000000000
1
126,2
41
0.7000000000
72
0
100
AcDbText
0
LINE
5
21E
100
AcDbEntity
8
0
100
AcDbLine
62
0
6
CONTINUOUS
10
-54.1177732709
20
119.7748164829
11
-54.1177732709
21
163.8698407612
0
LINE
5
21F
100
AcDbEntity
8
0
100
AcDbLine
62
0
6
CONTINUOUS
10
-180.3177732709
20
142.1014096921
11
-180.3177732709
21
163.8698407612
0
LINE
5
220
100
AcDbEntity
8
0
100
AcDbLine
62
0
6
CONTINUOUS
10
-54.1177732709
20
162.3698407612
11
-117.2177732709
21
162.3698407612
0
LINE
5
221
100
AcDbEntity
8
0
100
AcDbLine
62
0
6
CONTINUOUS
10
-180.3177732709
20
162.3698407612
11
-117.2177732709
21
162.3698407612
0
INSERT
5
222
100
AcDbEntity
8
0
100
AcDbBlockReference
62
0
6
CONTINUOUS
2
_FILLED
10
-54.1177732709
20
162.3698407612
41
  3.000000
42
  3.000000
43
  3.000000
0
INSERT
5
223
100
AcDbEntity
8
0
100
AcDbBlockReference
62
0
6
CONTINUOUS
2
_FILLED
10
-180.3177732709
20
162.3698407612
41
  3.000000
42
  3.000000
43
  3.000000
50
180.000000
0
ENDBLK
5
224
100
AcDbEntity
8
0
6
BYBLOCK
62
0
100
AcDbBlockEnd
0
BLOCK
5
225
100
AcDbEntity
8
0
100
AcDbBlockBegin
62
0
6
CONTINUOUS
2
*D1
70
65
10
0.0000000000
20
0.0000000000
3
*D1
1

0
TEXT
5
226
100
AcDbEntity
8
0
100
AcDbText
62
0
6
CONTINUOUS
10
-117.3320589852
20
153.1198407612
7
STANDARD
40
3.0000000000
1
120
41
0.7142857143
72
0
100
AcDbText
0
LINE
5
227
100
AcDbEntity
8
0
100
AcDbLine
62
0
6
CONTINUOUS
10
-54.1177732709
20
119.3827992140
11
-54.1177732709
21
153.8698407612
0
LINE
5
228
100
AcDbEntity
8
0
100
AcDbLine
62
0
6
CONTINUOUS
10
-174.1177732709
20
144.0583598988
11
-174.1177732709
21
153.8698407612
0
LINE
5
229
100
AcDbEntity
8
0
100
AcDbLine
62
0
6
CONTINUOUS
10
-54.1177732709
20
152.3698407612
11
-114.1177732709
21
152.3698407612
0
LINE
5
22A
100
AcDbEntity
8
0
100
AcDbLine
62
0
6
CONTINUOUS
10
-174.1177732709
20
152.3698407612
11
-114.1177732709
21
152.3698407612
0
INSERT
5
22B
100
AcDbEntity
8
0
100
AcDbBlockReference
62
0
6
CONTINUOUS
2
_FILLED
10
-54.1177732709
20
152.3698407612
41
  3.000000
42
  3.000000
43
  3.000000
0
INSERT
5
22C
100
AcDbEntity
8
0
100
AcDbBlockReference
62
0
6
CONTINUOUS
2
_FILLED
10
-174.1177732709
20
152.3698407612
41
  3.000000
42
  3.000000
43
  3.000000
50
180.000000
0
ENDBLK
5
22D
100
AcDbEntity
8
0
6
BYBLOCK
62
0
100
AcDbBlockEnd
0
BLOCK
5
22E
100
AcDbEntity
8
0
100
AcDbBlockBegin
62
0
6
CONTINUOUS
2
*D2
70
65
10
0.0000000000
20
0.0000000000
3
*D2
1

0
TEXT
5
22F
100
AcDbEntity
8
0
100
AcDbText
62
0
6
CONTINUOUS
10
186.7816098353
20
163.1198407612
7
STANDARD
40
3.0000000000
1
284
41
0.7857142857
72
0
100
AcDbText
0
LINE
5
230
100
AcDbEntity
8
0
100
AcDbLine
62
0
6
CONTINUOUS
10
48.3173241210
20
136.9248608952
11
48.3173241210
21
163.8698407612
0
LINE
5
231
100
AcDbEntity
8
0
100
AcDbLine
62
0
6
CONTINUOUS
10
332.3173241210
20
136.4476717493
11
332.3173241210
21
163.8698407612
0
LINE
5
232
100
AcDbEntity
8
0
100
AcDbLine
62
0
6
CONTINUOUS
10
48.3173241210
20
162.3698407612
11
190.3173241210
21
162.3698407612
0
LINE
5
233
100
AcDbEntity
8
0
100
AcDbLine
62
0
6
CONTINUOUS
10
332.3173241210
20
162.3698407612
11
190.3173241210
21
162.3698407612
0
INSERT
5
234
100
AcDbEntity
8
0
100
AcDbBlockReference
62
0
6
CONTINUOUS
2
_FILLED
10
48.3173241210
20
162.3698407612
41
  3.000000
42
  3.000000
43
  3.000000
50
180.000000
0
INSERT
5
235
100
AcDbEntity
8
0
100
AcDbBlockReference
62
0
6
CONTINUOUS
2
_FILLED
10
332.3173241210
20
162.3698407612
41
  3.000000
42
  3.000000
43
  3.000000
50
  0.000000
0
ENDBLK
5
236
100
AcDbEntity
8
0
6
BYBLOCK
62
0
100
AcDbBlockEnd
0
BLOCK
5
237
100
AcDbEntity
8
0
100
AcDbBlockBegin
62
0
6
CONTINUOUS
2
*D3
70
65
10
0.0000000000
20
0.0000000000
3
*D3
1

0
TEXT
5
238
100
AcDbEntity
8
0
100
AcDbText
62
0
6
CONTINUOUS
10
351.5673241210
20
-3.1658735246
7
STANDARD
40
3.0000000000
1
284
50
90.0000000000
41
0.7857142857
72
0
100
AcDbText
0
LINE
5
239
100
AcDbEntity
8
0
100
AcDbLine
62
0
6
CONTINUOUS
10
326.3527304199
20
142.3698407612
11
353.8173241210
21
142.3698407612
0
LINE
5
23A
100
AcDbEntity
8
0
100
AcDbLine
62
0
6
CONTINUOUS
10
327.2015459671
20
-141.6301592388
11
353.8173241210
21
-141.6301592388
0
LINE
5
23B
100
AcDbEntity
8
0
100
AcDbLine
62
0
6
CONTINUOUS
10
352.3173241210
20
142.3698407612
11
352.3173241210
21
0.3698407612
0
LINE
5
23C
100
AcDbEntity
8
0
100
AcDbLine
62
0
6
CONTINUOUS
10
352.3173241210
20
-141.6301592388
11
352.3173241210
21
0.3698407612
0
INSERT
5
23D
100
AcDbEntity
8
0
100
AcDbBlockReference
62
0
6
CONTINUOUS
2
_FILLED
10
352.3173241210
20
142.3698407612
41
  3.000000
42
  3.000000
43
  3.000000
50
 90.000000
0
INSERT
5
23E
100
AcDbEntity
8
0
100
AcDbBlockReference
62
0
6
CONTINUOUS
2
_FILLED
10
352.3173241210
20
-141.6301592388
41
  3.000000
42
  3.000000
43
  3.000000
50
270.000000
0
ENDBLK
5
23F
100
AcDbEntity
8
0
6
BYBLOCK
62
0
100
AcDbBlockEnd
0
BLOCK
5
240
100
AcDbEntity
8
0
100
AcDbBlockBegin
62
0
6
CONTINUOUS
2
*D4
70
65
10
0.0000000000
20
0.0000000000
3
*D4
1

0
TEXT
5
241
100
AcDbEntity
8
0
100
AcDbText
62
0
6
CONTINUOUS
10
341.5673241210
20
-3.1658735246
7
STANDARD
40
3.0000000000
1
224
50
90.0000000000
41
0.7857142857
72
0
100
AcDbText
0
LINE
5
242
100
AcDbEntity
8
0
100
AcDbLine
62
0
6
CONTINUOUS
10
306.7431447423
20
-111.6301592388
11
343.8173241210
21
-111.6301592388
0
LINE
5
243
100
AcDbEntity
8
0
100
AcDbLine
62
0
6
CONTINUOUS
10
306.6685633013
20
112.3698407612
11
343.8173241210
21
112.3698407612
0
LINE
5
244
100
AcDbEntity
8
0
100
AcDbLine
62
0
6
CONTINUOUS
10
342.3173241210
20
-111.6301592388
11
342.3173241210
21
0.3698407612
0
LINE
5
245
100
AcDbEntity
8
0
100
AcDbLine
62
0
6
CONTINUOUS
10
342.3173241210
20
112.3698407612
11
342.3173241210
21
0.3698407612
0
INSERT
5
246
100
AcDbEntity
8
0
100
AcDbBlockReference
62
0
6
CONTINUOUS
2
_FILLED
10
342.3173241210
20
-111.6301592388
41
  3.000000
42
  3.000000
43
  3.000000
50
270.000000
0
INSERT
5
247
100
AcDbEntity
8
0
100
AcDbBlockReference
62
0
6
CONTINUOUS
2
_FILLED
10
342.3173241210
20
112.3698407612
41
  3.000000
42
  3.000000
43
  3.000000
50
 90.000000
0
ENDBLK
5
248
100
AcDbEntity
8
0
6
BYBLOCK
62
0
100
AcDbBlockEnd
0
BLOCK
5
249
100
AcDbEntity
8
0
100
AcDbBlockBegin
62
0
6
CONTINUOUS
2
*D5
70
65
10
0.0000000000
20
0.0000000000
3
*D5
1

0
TEXT
5
24A
100
AcDbEntity
8
0
100
AcDbText
62
0
6
CONTINUOUS
10
186.7816098353
20
153.1198407612
7
STANDARD
40
3.0000000000
1
224
41
0.7857142857
72
0
100
AcDbText
0
LINE
5
24B
100
AcDbEntity
8
0
100
AcDbLine
62
0
6
CONTINUOUS
10
302.3173241210
20
116.7929059259
11
302.3173241210
21
153.8698407612
0
LINE
5
24C
100
AcDbEntity
8
0
100
AcDbLine
62
0
6
CONTINUOUS
10
78.3173241210
20
116.1793070209
11
78.3173241210
21
153.8698407612
0
LINE
5
24D
100
AcDbEntity
8
0
100
AcDbLine
62
0
6
CONTINUOUS
10
302.3173241210
20
152.3698407612
11
190.3173241210
21
152.3698407612
0
LINE
5
24E
100
AcDbEntity
8
0
100
AcDbLine
62
0
6
CONTINUOUS
10
78.3173241210
20
152.3698407612
11
190.3173241210
21
152.3698407612
0
INSERT
5
24F
100
AcDbEntity
8
0
100
AcDbBlockReference
62
0
6
CONTINUOUS
2
_FILLED
10
302.3173241210
20
152.3698407612
41
  3.000000
42
  3.000000
43
  3.000000
0
INSERT
5
250
100
AcDbEntity
8
0
100
AcDbBlockReference
62
0
6
CONTINUOUS
2
_FILLED
10
78.3173241210
20
152.3698407612
41
  3.000000
42
  3.000000
43
  3.000000
50
180.000000
0
ENDBLK
5
251
100
AcDbEntity
8
0
6
BYBLOCK
62
0
100
AcDbBlockEnd
0
BLOCK
5
252
100
AcDbEntity
8
0
100
AcDbBlockBegin
2
_FILLED
70
64
10
0.0000000000
20
0.0000000000
3
_FILLED
1

0
SOLID
5
253
100
AcDbEntity
8
0
6
BYBLOCK
62
0
100
AcDbTrace
10
0.0000000000
20
0.0000000000
11
-1.0000000000
21
0.3166666667
12
-1.0000000000
22
-0.3166666667
13
-1.0000000000
23
-0.3166666667
0
ENDBLK
5
254
100
AcDbEntity
8
0
6
BYBLOCK
62
0
100
AcDbBlockEnd
0
ENDSEC
0
SECTION
2
ENTITIES
0
DIMENSION
5
255
100
AcDbEntity
8
0
100
AcDbDimension
62
0
6
CONTINUOUS
2
*D0
10
-180.3177732709
20
162.3698407612
11
-117.2177732709
21
164.6198407612
70
160
42
126.200000
3
DIMSTYLE_1
100
AcDbAlignedDimension
13
-54.1177732709
23
119.7748164829
14
-180.3177732709
24
142.1014096921
50
180.000000
100
AcDbRotatedDimension
0
DIMENSION
5
256
100
AcDbEntity
8
0
100
AcDbDimension
62
0
6
CONTINUOUS
2
*D1
10
-174.1177732709
20
152.3698407612
11
-114.1177732709
21
154.6198407612
70
160
42
120.000000
3
DIMSTYLE_1
100
AcDbAlignedDimension
13
-54.1177732709
23
119.3827992140
14
-174.1177732709
24
144.0583598988
50
180.000000
100
AcDbRotatedDimension
0
DIMENSION
5
257
100
AcDbEntity
8
0
100
AcDbDimension
62
0
6
CONTINUOUS
2
*D2
10
332.3173241210
20
162.3698407612
11
190.3173241210
21
164.6198407612
70
160
42
284.000000
3
DIMSTYLE_1
100
AcDbAlignedDimension
13
48.3173241210
23
136.9248608952
14
332.3173241210
24
136.4476717493
100
AcDbRotatedDimension
0
DIMENSION
5
258
100
AcDbEntity
8
0
100
AcDbDimension
62
0
6
CONTINUOUS
2
*D3
10
352.3173241210
20
-141.6301592388
11
350.0673241210
21
0.3698407612
70
160
42
284.000000
3
DIMSTYLE_1
100
AcDbAlignedDimension
13
326.3527304199
23
142.3698407612
14
327.2015459671
24
-141.6301592388
50
270.000000
100
AcDbRotatedDimension
0
DIMENSION
5
259
100
AcDbEntity
8
0
100
AcDbDimension
62
0
6
CONTINUOUS
2
*D4
10
342.3173241210
20
112.3698407612
11
340.0673241210
21
0.3698407612
70
160
42
224.000000
3
DIMSTYLE_1
100
AcDbAlignedDimension
13
306.7431447423
23
-111.6301592388
14
306.6685633013
24
112.3698407612
50
90.000000
100
AcDbRotatedDimension
0
DIMENSION
5
25A
100
AcDbEntity
8
0
100
AcDbDimension
62
0
6
CONTINUOUS
2
*D5
10
78.3173241210
20
152.3698407612
11
190.3173241210
21
154.6198407612
70
160
42
224.000000
3
DIMSTYLE_1
100
AcDbAlignedDimension
13
302.3173241210
23
116.7929059259
14
78.3173241210
24
116.1793070209
50
180.000000
100
AcDbRotatedDimension
0
LINE
5
25B
100
AcDbEntity
8
0
100
AcDbLine
62
0
6
CONTINUOUS
10
48.3173241210
20
-131.6438638913
11
48.3173241210
21
132.3835454136
0
LINE
5
25C
100
AcDbEntity
8
0
100
AcDbLine
62
9
6
CONTINUOUS
10
48.5429224165
20
132.1578056799
11
48.5429224165
21
-131.4181114308
0
LINE
5
25D
100
AcDbEntity
8
0
100
AcDbLine
62
9
6
CONTINUOUS
10
50.5401814860
20
132.1579471181
11
50.5401814860
21
-131.4182655958
0
LINE
5
25E
100
AcDbEntity
8
0
100
AcDbLine
62
0
6
CONTINUOUS
10
77.7976006369
20
112.8895642453
11
77.9673241210
21
113.4600356979
0
LINE
5
25F
100
AcDbEntity
8
0
100
AcDbLine
62
0
6
CONTINUOUS
10
78.8370476052
20
111.8501172770
11
78.6673241210
21
111.2796458245
0
LINE
5
260
100
AcDbEntity
8
0
100
AcDbLine
62
0
6
CONTINUOUS
10
77.2271291843
20
112.7198407612
11
77.7976006369
21
112.8895642453
0
LINE
5
261
100
AcDbEntity
8
0
100
AcDbLine
62
0
6
CONTINUOUS
10
78.8370476052
20
111.8501172770
11
79.4075190577
21
112.0198407612
0
LINE
5
262
100
AcDbEntity
8
0
100
AcDbLine
62
0
6
CONTINUOUS
10
58.3036194686
20
-141.6301592388
11
322.3310287735
21
-141.6301592388
0
LINE
5
263
100
AcDbEntity
8
0
100
AcDbLine
62
9
6
CONTINUOUS
10
58.5293592023
20
-141.4045609434
11
322.1052763130
21
-141.4045609434
0
LINE
5
264
100
AcDbEntity
8
0
100
AcDbLine
62
9
6
CONTINUOUS
10
58.5292177641
20
-139.4073018739
11
322.1054304780
21
-139.4073018739
0
LINE
5
265
100
AcDbEntity
8
0
100
AcDbLine
62
0
6
CONTINUOUS
10
77.2271291843
20
-111.9801592388
11
77.7976006369
21
-112.1498827230
0
LINE
5
266
100
AcDbEntity
8
0
100
AcDbLine
62
0
6
CONTINUOUS
10
78.8370476052
20
-111.1104357547
11
79.4075190577
21
-111.2801592388
0
LINE
5
267
100
AcDbEntity
8
0
100
AcDbLine
62
0
6
CONTINUOUS
10
77.9673241210
20
-112.7203541755
11
77.7976006369
21
-112.1498827230
0
LINE
5
268
100
AcDbEntity
8
0
100
AcDbLine
62
0
6
CONTINUOUS
10
78.6673241210
20
-110.5399643021
11
78.8370476052
21
-111.1104357547
0
LINE
5
269
100
AcDbEntity
8
0
100
AcDbLine
62
9
6
CONTINUOUS
10
58.5292177641
20
-139.4073018739
11
58.5292177641
21
-141.4045609434
0
LINE
5
26A
100
AcDbEntity
8
0
100
AcDbLine
62
9
6
CONTINUOUS
10
58.5292177641
20
140.1469833962
11
58.5292177642
21
142.1442424657
0
LINE
5
26B
100
AcDbEntity
8
0
100
AcDbLine
62
9
6
CONTINUOUS
10
50.5401814860
20
-131.4182655958
11
48.5429224165
21
-131.4182655957
0
LINE
5
26C
100
AcDbEntity
8
0
100
AcDbLine
62
9
6
CONTINUOUS
10
330.0944667560
20
-131.4182655958
11
332.0917258256
21
-131.4182655958
0
LINE
5
26D
100
AcDbEntity
8
0
100
AcDbLine
62
0
6
CONTINUOUS
10
76.7236006738
20
-111.9801592388
11
76.7236006738
21
-111.2801592388
0
LINE
5
26E
100
AcDbEntity
8
0
100
AcDbLine
62
0
6
CONTINUOUS
10
76.7236006738
20
112.0198407612
11
76.7236006738
21
112.7198407612
0
LINE
5
26F
100
AcDbEntity
8
0
100
AcDbLine
62
0
6
CONTINUOUS
10
77.1723241210
20
-111.9801592388
11
77.1723241210
21
-111.2801592388
0
LINE
5
270
100
AcDbEntity
8
0
100
AcDbLine
62
0
6
CONTINUOUS
10
77.1723241210
20
112.0198407612
11
77.1723241210
21
112.7198407612
0
LINE
5
271
100
AcDbEntity
8
0
100
AcDbLine
62
0
6
CONTINUOUS
10
77.9673241210
20
114.3116985255
11
77.9673241210
21
113.4600356979
0
LINE
5
272
100
AcDbEntity
8
0
100
AcDbLine
62
0
6
CONTINUOUS
10
77.9673241210
20
111.2796458245
11
77.9673241210
21
110.4279829968
0
LINE
5
273
100
AcDbEntity
8
0
100
AcDbLine
62
0
6
CONTINUOUS
10
77.9673241210
20
-109.6883014745
11
77.9673241210
21
-110.5399643021
0
LINE
5
274
100
AcDbEntity
8
0
100
AcDbLine
62
0
6
CONTINUOUS
10
77.9673241210
20
-112.7203541755
11
77.9673241210
21
-113.5720170032
0
LINE
5
275
100
AcDbEntity
8
0
100
AcDbLine
62
0
6
CONTINUOUS
10
78.6673241210
20
114.3116985255
11
78.6673241210
21
113.4600356979
0
LINE
5
276
100
AcDbEntity
8
0
100
AcDbLine
62
0
6
CONTINUOUS
10
78.6673241210
20
111.2796458245
11
78.6673241210
21
110.4279829968
0
LINE
5
277
100
AcDbEntity
8
0
100
AcDbLine
62
0
6
CONTINUOUS
10
78.6673241210
20
-109.6883014745
11
78.6673241210
21
-110.5399643021
0
LINE
5
278
100
AcDbEntity
8
0
100
AcDbLine
62
0
6
CONTINUOUS
10
78.6673241210
20
-112.7203541755
11
78.6673241210
21
-113.5720170032
0
LINE
5
279
100
AcDbEntity
8
0
100
AcDbLine
62
0
6
CONTINUOUS
10
79.4623241210
20
112.7198407612
11
79.4623241210
21
112.0198407612
0
LINE
5
27A
100
AcDbEntity
8
0
100
AcDbLine
62
0
6
CONTINUOUS
10
79.4623241210
20
-111.2801592388
11
79.4623241210
21
-111.9801592388
0
LINE
5
27B
100
AcDbEntity
8
0
100
AcDbLine
62
0
6
CONTINUOUS
10
79.9110475683
20
-111.9801592388
11
79.9110475683
21
-111.2801592388
0
LINE
5
27C
100
AcDbEntity
8
0
100
AcDbLine
62
0
6
CONTINUOUS
10
79.9110475683
20
112.0198407612
11
79.9110475683
21
112.7198407612
0
LINE
5
27D
100
AcDbEntity
8
0
100
AcDbLine
62
0
6
CONTINUOUS
10
302.6673241210
20
-112.7751592388
11
301.9673241210
21
-112.7751592388
0
LINE
5
27E
100
AcDbEntity
8
0
100
AcDbLine
62
0
6
CONTINUOUS
10
78.6673241210
20
-112.7751592388
11
77.9673241210
21
-112.7751592388
0
LINE
5
27F
100
AcDbEntity
8
0
100
AcDbLine
62
0
6
CONTINUOUS
10
305.0214875776
20
-112.1301592388
11
302.9033418173
21
-112.1301592388
0
LINE
5
280
100
AcDbEntity
8
0
100
AcDbLine
62
0
6
CONTINUOUS
10
301.7313064247
20
-112.1301592388
11
299.6131606644
21
-112.1301592388
0
LINE
5
281
100
AcDbEntity
8
0
100
AcDbLine
62
0
6
CONTINUOUS
10
81.0214875776
20
-112.1301592388
11
78.9033418173
21
-112.1301592388
0
LINE
5
282
100
AcDbEntity
8
0
100
AcDbLine
62
0
6
CONTINUOUS
10
77.7313064247
20
-112.1301592388
11
75.6131606644
21
-112.1301592388
0
LINE
5
283
100
AcDbEntity
8
0
100
AcDbLine
62
0
6
CONTINUOUS
10
303.9110475683
20
-111.9801592388
11
303.4075190577
21
-111.9801592388
0
LINE
5
284
100
AcDbEntity
8
0
100
AcDbLine
62
0
6
CONTINUOUS
10
301.2271291843
20
-111.9801592388
11
300.7236006738
21
-111.9801592388
0
LINE
5
285
100
AcDbEntity
8
0
100
AcDbLine
62
0
6
CONTINUOUS
10
79.9110475683
20
-111.9801592388
11
79.4075190577
21
-111.9801592388
0
LINE
5
286
100
AcDbEntity
8
0
100
AcDbLine
62
0
6
CONTINUOUS
10
77.2271291843
20
-111.9801592388
11
76.7236006738
21
-111.9801592388
0
LINE
5
287
100
AcDbEntity
8
0
100
AcDbLine
62
0
6
CONTINUOUS
10
303.9110475683
20
-111.2801592388
11
303.4075190577
21
-111.2801592388
0
LINE
5
288
100
AcDbEntity
8
0
100
AcDbLine
62
0
6
CONTINUOUS
10
301.2271291843
20
-111.2801592388
11
300.7236006738
21
-111.2801592388
0
LINE
5
289
100
AcDbEntity
8
0
100
AcDbLine
62
0
6
CONTINUOUS
10
79.9110475683
20
-111.2801592388
11
79.4075190577
21
-111.2801592388
0
LINE
5
28A
100
AcDbEntity
8
0
100
AcDbLine
62
0
6
CONTINUOUS
10
77.2271291843
20
-111.2801592388
11
76.7236006738
21
-111.2801592388
0
LINE
5
28B
100
AcDbEntity
8
0
100
AcDbLine
62
0
6
CONTINUOUS
10
75.6131606644
20
-111.1301592388
11
77.7313064247
21
-111.1301592388
0
LINE
5
28C
100
AcDbEntity
8
0
100
AcDbLine
62
0
6
CONTINUOUS
10
78.9033418173
20
-111.1301592388
11
81.0214875776
21
-111.1301592388
0
LINE
5
28D
100
AcDbEntity
8
0
100
AcDbLine
62
0
6
CONTINUOUS
10
299.6131606644
20
-111.1301592388
11
301.7313064247
21
-111.1301592388
0
LINE
5
28E
100
AcDbEntity
8
0
100
AcDbLine
62
0
6
CONTINUOUS
10
302.9033418173
20
-111.1301592388
11
305.0214875776
21
-111.1301592388
0
LINE
5
28F
100
AcDbEntity
8
0
100
AcDbLine
62
0
6
CONTINUOUS
10
77.9673241210
20
-110.4851592388
11
78.6673241210
21
-110.4851592388
0
LINE
5
290
100
AcDbEntity
8
0
100
AcDbLine
62
0
6
CONTINUOUS
10
301.9673241210
20
-110.4851592388
11
302.6673241210
21
-110.4851592388
0
LINE
5
291
100
AcDbEntity
8
0
100
AcDbLine
62
0
6
CONTINUOUS
10
77.7976006369
20
-111.1104357547
11
77.9673241210
21
-110.5399643021
0
LINE
5
292
100
AcDbEntity
8
0
100
AcDbLine
62
0
6
CONTINUOUS
10
78.8370476052
20
-112.1498827230
11
78.6673241210
21
-112.7203541755
0
LINE
5
293
100
AcDbEntity
8
0
100
AcDbLine
62
0
6
CONTINUOUS
10
301.2271291843
20
112.7198407612
11
301.7976006369
21
112.8895642453
0
LINE
5
294
100
AcDbEntity
8
0
100
AcDbLine
62
0
6
CONTINUOUS
10
302.8370476052
20
111.8501172770
11
303.4075190577
21
112.0198407612
0
LINE
5
295
100
AcDbEntity
8
0
100
AcDbLine
62
0
6
CONTINUOUS
10
301.2271291843
20
-111.9801592388
11
301.7976006369
21
-112.1498827230
0
LINE
5
296
100
AcDbEntity
8
0
100
AcDbLine
62
0
6
CONTINUOUS
10
302.8370476052
20
-111.1104357547
11
303.4075190577
21
-111.2801592388
0
LINE
5
297
100
AcDbEntity
8
0
100
AcDbLine
62
0
6
CONTINUOUS
10
77.9673241210
20
111.2796458245
11
77.7976006369
21
111.8501172770
0
LINE
5
298
100
AcDbEntity
8
0
100
AcDbLine
62
0
6
CONTINUOUS
10
78.6673241210
20
113.4600356979
11
78.8370476052
21
112.8895642453
0
LINE
5
299
100
AcDbEntity
8
0
100
AcDbLine
62
9
6
CONTINUOUS
10
48.5429224165
20
-131.4181114308
11
48.3173241210
21
-131.6438638913
0
LINE
5
29A
100
AcDbEntity
8
0
100
AcDbLine
62
9
6
CONTINUOUS
10
322.1052890398
20
142.1442424657
11
322.3310287735
21
142.3698407612
0
LINE
5
29B
100
AcDbEntity
8
0
100
AcDbLine
62
9
6
CONTINUOUS
10
322.1052763130
20
-141.4045609434
11
322.3310287735
21
-141.6301592388
0
LINE
5
29C
100
AcDbEntity
8
0
100
AcDbLine
62
9
6
CONTINUOUS
10
48.5429224165
20
132.1578056799
11
48.3173241210
21
132.3835454136
0
LINE
5
29D
100
AcDbEntity
8
0
100
AcDbLine
62
9
6
CONTINUOUS
10
332.0917258256
20
132.1577929531
11
332.3173241210
21
132.3835454136
0
LINE
5
29E
100
AcDbEntity
8
0
100
AcDbLine
62
9
6
CONTINUOUS
10
58.5293592023
20
-141.4045609434
11
58.3036194686
21
-141.6301592388
0
LINE
5
29F
100
AcDbEntity
8
0
100
AcDbLine
62
9
6
CONTINUOUS
10
58.5293719291
20
142.1442424657
11
58.3036194686
21
142.3698407612
0
LINE
5
2A0
100
AcDbEntity
8
0
100
AcDbLine
62
9
6
CONTINUOUS
10
332.0917258256
20
-131.4181241576
11
332.3173241210
21
-131.6438638913
0
LINE
5
2A1
100
AcDbEntity
8
0
100
AcDbLine
62
0
6
CONTINUOUS
10
301.7976006369
20
112.8895642453
11
301.9673241210
21
113.4600356979
0
LINE
5
2A2
100
AcDbEntity
8
0
100
AcDbLine
62
0
6
CONTINUOUS
10
302.8370476052
20
111.8501172770
11
302.6673241210
21
111.2796458245
0
LINE
5
2A3
100
AcDbEntity
8
0
100
AcDbLine
62
0
6
CONTINUOUS
10
77.2271291843
20
-111.2801592388
11
77.7976006369
21
-111.1104357547
0
LINE
5
2A4
100
AcDbEntity
8
0
100
AcDbLine
62
0
6
CONTINUOUS
10
78.8370476052
20
-112.1498827230
11
79.4075190577
21
-111.9801592388
0
LINE
5
2A5
100
AcDbEntity
8
0
100
AcDbLine
62
0
6
CONTINUOUS
10
77.2271291843
20
112.0198407612
11
77.7976006369
21
111.8501172770
0
LINE
5
2A6
100
AcDbEntity
8
0
100
AcDbLine
62
0
6
CONTINUOUS
10
78.8370476052
20
112.8895642453
11
79.4075190577
21
112.7198407612
0
LINE
5
2A7
100
AcDbEntity
8
0
100
AcDbLine
62
0
6
CONTINUOUS
10
301.9673241210
20
-112.7203541755
11
301.7976006369
21
-112.1498827230
0
LINE
5
2A8
100
AcDbEntity
8
0
100
AcDbLine
62
0
6
CONTINUOUS
10
302.6673241210
20
-110.5399643021
11
302.8370476052
21
-111.1104357547
0
LINE
5
2A9
100
AcDbEntity
8
0
100
AcDbLine
62
0
6
CONTINUOUS
10
300.7236006738
20
-111.9801592388
11
300.7236006738
21
-111.2801592388
0
LINE
5
2AA
100
AcDbEntity
8
0
100
AcDbLine
62
0
6
CONTINUOUS
10
300.7236006738
20
112.0198407612
11
300.7236006738
21
112.7198407612
0
LINE
5
2AB
100
AcDbEntity
8
0
100
AcDbLine
62
0
6
CONTINUOUS
10
301.1723241210
20
-111.9801592388
11
301.1723241210
21
-111.2801592388
0
LINE
5
2AC
100
AcDbEntity
8
0
100
AcDbLine
62
0
6
CONTINUOUS
10
301.1723241210
20
112.0198407612
11
301.1723241210
21
112.7198407612
0
LINE
5
2AD
100
AcDbEntity
8
0
100
AcDbLine
62
0
6
CONTINUOUS
10
301.9673241210
20
114.3116985255
11
301.9673241210
21
113.4600356979
0
LINE
5
2AE
100
AcDbEntity
8
0
100
AcDbLine
62
0
6
CONTINUOUS
10
301.9673241210
20
111.2796458245
11
301.9673241210
21
110.4279829968
0
LINE
5
2AF
100
AcDbEntity
8
0
100
AcDbLine
62
0
6
CONTINUOUS
10
301.9673241210
20
-109.6883014745
11
301.9673241210
21
-110.5399643021
0
LINE
5
2B0
100
AcDbEntity
8
0
100
AcDbLine
62
0
6
CONTINUOUS
10
301.9673241210
20
-112.7203541755
11
301.9673241210
21
-113.5720170032
0
LINE
5
2B1
100
AcDbEntity
8
0
100
AcDbLine
62
0
6
CONTINUOUS
10
302.6673241210
20
114.3116985255
11
302.6673241210
21
113.4600356979
0
LINE
5
2B2
100
AcDbEntity
8
0
100
AcDbLine
62
0
6
CONTINUOUS
10
302.6673241210
20
111.2796458245
11
302.6673241210
21
110.4279829968
0
LINE
5
2B3
100
AcDbEntity
8
0
100
AcDbLine
62
0
6
CONTINUOUS
10
302.6673241210
20
-109.6883014745
11
302.6673241210
21
-110.5399643021
0
LINE
5
2B4
100
AcDbEntity
8
0
100
AcDbLine
62
0
6
CONTINUOUS
10
302.6673241210
20
-112.7203541755
11
302.6673241210
21
-113.5720170032
0
LINE
5
2B5
100
AcDbEntity
8
0
100
AcDbLine
62
0
6
CONTINUOUS
10
303.4623241210
20
112.7198407612
11
303.4623241210
21
112.0198407612
0
LINE
5
2B6
100
AcDbEntity
8
0
100
AcDbLine
62
0
6
CONTINUOUS
10
303.4623241210
20
-111.2801592388
11
303.4623241210
21
-111.9801592388
0
LINE
5
2B7
100
AcDbEntity
8
0
100
AcDbLine
62
0
6
CONTINUOUS
10
303.9110475683
20
-111.9801592388
11
303.9110475683
21
-111.2801592388
0
LINE
5
2B8
100
AcDbEntity
8
0
100
AcDbLine
62
0
6
CONTINUOUS
10
303.9110475683
20
112.0198407612
11
303.9110475683
21
112.7198407612
0
LINE
5
2B9
100
AcDbEntity
8
0
100
AcDbLine
62
0
6
CONTINUOUS
10
302.6673241210
20
111.2248407612
11
301.9673241210
21
111.2248407612
0
LINE
5
2BA
100
AcDbEntity
8
0
100
AcDbLine
62
0
6
CONTINUOUS
10
78.6673241210
20
111.2248407612
11
77.9673241210
21
111.2248407612
0
LINE
5
2BB
100
AcDbEntity
8
0
100
AcDbLine
62
0
6
CONTINUOUS
10
305.0214875776
20
111.8698407612
11
302.9033418173
21
111.8698407612
0
LINE
5
2BC
100
AcDbEntity
8
0
100
AcDbLine
62
0
6
CONTINUOUS
10
301.7313064247
20
111.8698407612
11
299.6131606644
21
111.8698407612
0
LINE
5
2BD
100
AcDbEntity
8
0
100
AcDbLine
62
0
6
CONTINUOUS
10
81.0214875776
20
111.8698407612
11
78.9033418173
21
111.8698407612
0
LINE
5
2BE
100
AcDbEntity
8
0
100
AcDbLine
62
0
6
CONTINUOUS
10
77.7313064247
20
111.8698407612
11
75.6131606644
21
111.8698407612
0
LINE
5
2BF
100
AcDbEntity
8
0
100
AcDbLine
62
0
6
CONTINUOUS
10
303.9110475683
20
112.0198407612
11
303.4075190577
21
112.0198407612
0
LINE
5
2C0
100
AcDbEntity
8
0
100
AcDbLine
62
0
6
CONTINUOUS
10
301.2271291843
20
112.0198407612
11
300.7236006738
21
112.0198407612
0
LINE
5
2C1
100
AcDbEntity
8
0
100
AcDbLine
62
0
6
CONTINUOUS
10
79.9110475683
20
112.0198407612
11
79.4075190577
21
112.0198407612
0
LINE
5
2C2
100
AcDbEntity
8
0
100
AcDbLine
62
0
6
CONTINUOUS
10
77.2271291843
20
112.0198407612
11
76.7236006738
21
112.0198407612
0
LINE
5
2C3
100
AcDbEntity
8
0
100
AcDbLine
62
0
6
CONTINUOUS
10
303.9110475683
20
112.7198407612
11
303.4075190577
21
112.7198407612
0
LINE
5
2C4
100
AcDbEntity
8
0
100
AcDbLine
62
0
6
CONTINUOUS
10
301.2271291843
20
112.7198407612
11
300.7236006738
21
112.7198407612
0
LINE
5
2C5
100
AcDbEntity
8
0
100
AcDbLine
62
0
6
CONTINUOUS
10
79.9110475683
20
112.7198407612
11
79.4075190577
21
112.7198407612
0
LINE
5
2C6
100
AcDbEntity
8
0
100
AcDbLine
62
0
6
CONTINUOUS
10
77.2271291843
20
112.7198407612
11
76.7236006738
21
112.7198407612
0
LINE
5
2C7
100
AcDbEntity
8
0
100
AcDbLine
62
0
6
CONTINUOUS
10
75.6131606644
20
112.8698407612
11
77.7313064247
21
112.8698407612
0
LINE
5
2C8
100
AcDbEntity
8
0
100
AcDbLine
62
0
6
CONTINUOUS
10
78.9033418173
20
112.8698407612
11
81.0214875776
21
112.8698407612
0
LINE
5
2C9
100
AcDbEntity
8
0
100
AcDbLine
62
0
6
CONTINUOUS
10
299.6131606644
20
112.8698407612
11
301.7313064247
21
112.8698407612
0
LINE
5
2CA
100
AcDbEntity
8
0
100
AcDbLine
62
0
6
CONTINUOUS
10
302.9033418173
20
112.8698407612
11
305.0214875776
21
112.8698407612
0
LINE
5
2CB
100
AcDbEntity
8
0
100
AcDbLine
62
0
6
CONTINUOUS
10
77.9673241210
20
113.5148407612
11
78.6673241210
21
113.5148407612
0
LINE
5
2CC
100
AcDbEntity
8
0
100
AcDbLine
62
0
6
CONTINUOUS
10
301.9673241210
20
113.5148407612
11
302.6673241210
21
113.5148407612
0
LINE
5
2CD
100
AcDbEntity
8
0
100
AcDbLine
62
9
6
CONTINUOUS
10
322.1054304780
20
-139.4073018739
11
322.1054304779
21
-141.4045609434
0
LINE
5
2CE
100
AcDbEntity
8
0
100
AcDbLine
62
9
6
CONTINUOUS
10
322.1054304780
20
140.1469833962
11
322.1054304780
21
142.1442424657
0
LINE
5
2CF
100
AcDbEntity
8
0
100
AcDbLine
62
9
6
CONTINUOUS
10
50.5401814860
20
132.1579471181
11
48.5429224165
21
132.1579471181
0
LINE
5
2D0
100
AcDbEntity
8
0
100
AcDbLine
62
9
6
CONTINUOUS
10
330.0944667560
20
132.1579471181
11
332.0917258256
21
132.1579471180
0
LINE
5
2D1
100
AcDbEntity
8
0
100
AcDbLine
62
9
6
CONTINUOUS
10
330.0944667560
20
-131.4182655958
11
330.0944667560
21
132.1579471181
0
LINE
5
2D2
100
AcDbEntity
8
0
100
AcDbLine
62
9
6
CONTINUOUS
10
332.0917258256
20
-131.4181241576
11
332.0917258256
21
132.1577929531
0
LINE
5
2D3
100
AcDbEntity
8
0
100
AcDbLine
62
0
6
CONTINUOUS
10
332.3173241210
20
-131.6438638913
11
332.3173241210
21
132.3835454136
0
LINE
5
2D4
100
AcDbEntity
8
0
100
AcDbLine
62
0
6
CONTINUOUS
10
301.7976006369
20
-111.1104357547
11
301.9673241210
21
-110.5399643021
0
LINE
5
2D5
100
AcDbEntity
8
0
100
AcDbLine
62
0
6
CONTINUOUS
10
302.8370476052
20
-112.1498827230
11
302.6673241210
21
-112.7203541755
0
LINE
5
2D6
100
AcDbEntity
8
0
100
AcDbLine
62
0
6
CONTINUOUS
10
301.2271291843
20
-111.2801592388
11
301.7976006369
21
-111.1104357547
0
LINE
5
2D7
100
AcDbEntity
8
0
100
AcDbLine
62
0
6
CONTINUOUS
10
302.8370476052
20
-112.1498827230
11
303.4075190577
21
-111.9801592388
0
LINE
5
2D8
100
AcDbEntity
8
0
100
AcDbLine
62
9
6
CONTINUOUS
10
322.1054304780
20
140.1469833962
11
58.5292177641
21
140.1469833962
0
LINE
5
2D9
100
AcDbEntity
8
0
100
AcDbLine
62
9
6
CONTINUOUS
10
322.1052890398
20
142.1442424657
11
58.5293719291
21
142.1442424657
0
LINE
5
2DA
100
AcDbEntity
8
0
100
AcDbLine
62
0
6
CONTINUOUS
10
58.3036194686
20
142.3698407612
11
322.3310287735
21
142.3698407612
0
LINE
5
2DB
100
AcDbEntity
8
0
100
AcDbLine
62
0
6
CONTINUOUS
10
301.2271291843
20
112.0198407612
11
301.7976006369
21
111.8501172770
0
LINE
5
2DC
100
AcDbEntity
8
0
100
AcDbLine
62
0
6
CONTINUOUS
10
302.8370476052
20
112.8895642453
11
303.4075190577
21
112.7198407612
0
LINE
5
2DD
100
AcDbEntity
8
0
100
AcDbLine
62
0
6
CONTINUOUS
10
301.9673241210
20
111.2796458245
11
301.7976006369
21
111.8501172770
0
LINE
5
2DE
100
AcDbEntity
8
0
100
AcDbLine
62
0
6
CONTINUOUS
10
302.6673241210
20
113.4600356979
11
302.8370476052
21
112.8895642453
0
LINE
5
2DF
100
AcDbEntity
8
0
100
AcDbLine
62
0
6
CONTINUOUS
10
-178.4224451834
20
-141.4045609434
11
-174.1177732709
21
-141.6301592388
0
LINE
5
2E0
100
AcDbEntity
8
0
100
AcDbLine
62
0
6
CONTINUOUS
10
-156.1177732709
20
134.3698407612
11
-173.4059985577
21
124.3884792380
0
LINE
5
2E1
100
AcDbEntity
8
0
100
AcDbLine
62
0
6
CONTINUOUS
10
-156.1177732709
20
-135.6301592388
11
-150.1003208644
21
-135.5251242164
0
LINE
5
2E2
100
AcDbEntity
8
0
100
AcDbLine
62
0
6
CONTINUOUS
10
-171.4177732709
20
-135.6301592388
11
-166.6177732709
21
-135.6301592388
0
LINE
5
2E3
100
AcDbEntity
8
0
100
AcDbLine
62
9
6
CONTINUOUS
10
-173.3317351960
20
-133.3505735439
11
-174.1177732709
21
-133.3505735439
0
LINE
5
2E4
100
AcDbEntity
8
0
100
AcDbLine
62
0
6
CONTINUOUS
10
-172.1526753077
20
-135.3502689827
11
-156.1177732709
21
-135.6301592388
0
LINE
5
2E5
100
AcDbEntity
8
0
100
AcDbLine
62
9
6
CONTINUOUS
10
-172.1526780837
20
-134.5503907781
11
-156.1177732709
21
-134.8302810827
0
LINE
5
2E6
100
AcDbEntity
8
0
100
AcDbLine
62
9
6
CONTINUOUS
10
-178.4224451834
20
-131.4181241576
11
-174.1177732709
21
-131.6438638913
0
LINE
5
2E7
100
AcDbEntity
8
0
100
AcDbLine
62
0
6
CONTINUOUS
10
-173.4059985577
20
-123.6487977157
11
-156.1177732709
21
-133.6301592388
0
LINE
5
2E8
100
AcDbEntity
8
0
100
AcDbLine
62
0
6
CONTINUOUS
10
-149.1177732709
20
-123.3875631560
11
-100.1177732709
21
-122.1779888678
0
LINE
5
2E9
100
AcDbEntity
8
0
100
AcDbLine
62
0
6
CONTINUOUS
10
-149.1177732709
20
-127.1301592388
11
-100.1177732709
21
-126.2748610574
0
LINE
5
2EA
100
AcDbEntity
8
0
100
AcDbLine
62
9
6
CONTINUOUS
10
-180.3177732709
20
-131.4182655958
11
-178.4224451834
21
-131.4182655958
0
LINE
5
2EB
100
AcDbEntity
8
0
100
AcDbLine
62
9
6
CONTINUOUS
10
-100.1177732709
20
-125.4330491161
11
-149.1177732709
21
-125.4330491161
0
LINE
5
2EC
100
AcDbEntity
8
0
100
AcDbLine
62
9
6
CONTINUOUS
10
-100.1177732709
20
-124.7260500307
11
-149.1177732709
21
-124.7260500307
0
LINE
5
2ED
100
AcDbEntity
8
0
100
AcDbLine
62
9
6
CONTINUOUS
10
-174.1177732709
20
-124.6301592388
11
-171.7062305390
21
-124.6301592388
0
LINE
5
2EE
100
AcDbEntity
8
0
100
AcDbLine
62
9
6
CONTINUOUS
10
-128.6790001986
20
-123.6698263943
11
-100.1177732709
21
-123.7767192967
0
LINE
5
2EF
100
AcDbEntity
8
0
100
AcDbLine
62
0
6
CONTINUOUS
10
-164.4874188116
20
-128.7982577012
11
-174.1177732709
21
-128.6301592388
0
LINE
5
2F0
100
AcDbEntity
8
0
100
AcDbLine
62
9
6
CONTINUOUS
10
-147.5817432706
20
-123.3496459643
11
-100.1177732709
21
-124.5213030607
0
LINE
5
2F1
100
AcDbEntity
8
0
100
AcDbLine
62
0
6
CONTINUOUS
10
-144.6156456142
20
-123.2764272814
11
-100.1177732709
21
-124.3748656949
0
LINE
5
2F2
100
AcDbEntity
8
0
100
AcDbLine
62
0
6
CONTINUOUS
10
-174.1177732709
20
-123.6301592388
11
-156.1177732709
21
-124.1015058271
0
LINE
5
2F3
100
AcDbEntity
8
0
100
AcDbLine
62
9
6
CONTINUOUS
10
-149.1177732709
20
-123.2411257902
11
-100.1177732709
21
-122.0315515021
0
LINE
5
2F4
100
AcDbEntity
8
0
100
AcDbLine
62
0
6
CONTINUOUS
10
-59.0305112387
20
-119.1213036077
11
-100.1177732709
21
-119.8384844342
0
LINE
5
2F5
100
AcDbEntity
8
0
100
AcDbLine
62
9
6
CONTINUOUS
10
-59.0305112387
20
-117.6570605589
11
-100.1177732709
21
-118.3742413854
0
LINE
5
2F6
100
AcDbEntity
8
0
100
AcDbLine
62
0
6
CONTINUOUS
10
-149.1177732709
20
-121.5440156675
11
-100.1177732709
21
-121.1897395608
0
LINE
5
2F7
100
AcDbEntity
8
0
100
AcDbLine
62
9
6
CONTINUOUS
10
-156.1177732709
20
-114.6301592388
11
-174.1177732709
21
-114.6301592388
0
LINE
5
2F8
100
AcDbEntity
8
0
100
AcDbLine
62
9
6
CONTINUOUS
10
-149.1177732709
20
-113.6301592388
11
-156.1177732709
21
-113.6301592388
0
LINE
5
2F9
100
AcDbEntity
8
0
100
AcDbLine
62
0
6
CONTINUOUS
10
-149.1177732709
20
-113.7658410744
11
-100.1177732709
21
-113.9950175314
0
LINE
5
2FA
100
AcDbEntity
8
0
100
AcDbLine
62
0
6
CONTINUOUS
10
-173.4059985577
20
-114.2585718843
11
-156.1177732709
21
-114.5603389791
0
LINE
5
2FB
100
AcDbEntity
8
0
100
AcDbLine
62
0
6
CONTINUOUS
10
-173.4059985577
20
-113.0017465934
11
-156.1177732709
21
-112.6999794986
0
LINE
5
2FC
100
AcDbEntity
8
0
100
AcDbLine
62
9
6
CONTINUOUS
10
-100.1177732709
20
-102.2203015477
11
-59.0305112387
21
-101.9232355227
0
LINE
5
2FD
100
AcDbEntity
8
0
100
AcDbLine
62
0
6
CONTINUOUS
10
-149.1177732709
20
-102.6177097464
11
-100.1177732709
21
-102.8468862034
0
LINE
5
2FE
100
AcDbEntity
8
0
100
AcDbLine
62
9
6
CONTINUOUS
10
-100.1177732709
20
-98.6853061207
11
-59.0305112387
21
-98.3882400957
0
LINE
5
2FF
100
AcDbEntity
8
0
100
AcDbLine
62
9
6
CONTINUOUS
10
-59.0305112387
20
-98.3882400957
11
-54.1177732709
21
-98.3882400957
0
LINE
5
300
100
AcDbEntity
8
0
100
AcDbLine
62
9
6
CONTINUOUS
10
-63.6177732709
20
-82.5753755121
11
-71.4177732709
21
-83.6022649933
0
LINE
5
301
100
AcDbEntity
8
0
100
AcDbLine
62
0
6
CONTINUOUS
10
-65.2598055077
20
-81.7829241966
11
-71.5482994631
21
-82.6108201319
0
LINE
5
302
100
AcDbEntity
8
0
100
AcDbLine
62
0
6
CONTINUOUS
10
-56.6177732709
20
-83.3490093695
11
-149.1177732709
21
-84.9636028753
0
LINE
5
303
100
AcDbEntity
8
0
100
AcDbLine
62
0
6
CONTINUOUS
10
-173.4059985577
20
-84.5017465934
11
-156.1177732709
21
-84.1999794986
0
LINE
5
304
100
AcDbEntity
8
0
100
AcDbLine
62
9
6
CONTINUOUS
10
-71.4177732709
20
-83.6022649933
11
-72.4177732709
21
-83.6022649933
0
LINE
5
305
100
AcDbEntity
8
0
100
AcDbLine
62
9
6
CONTINUOUS
10
-63.6177732709
20
-82.5753755121
11
-62.6177732709
21
-82.5753755099
0
LINE
5
306
100
AcDbEntity
8
0
100
AcDbLine
62
0
6
CONTINUOUS
10
-146.6308630741
20
-81.0728097352
11
-56.6177732709
21
-81.8583420694
0
LINE
5
307
100
AcDbEntity
8
0
100
AcDbLine
62
0
6
CONTINUOUS
10
-173.4059985577
20
-85.7585718843
11
-156.1177732709
21
-86.0603389791
0
LINE
5
308
100
AcDbEntity
8
0
100
AcDbLine
62
0
6
CONTINUOUS
10
-180.3177732709
20
-139.4073018739
11
-180.3177732709
21
140.1469833962
0
LINE
5
309
100
AcDbEntity
8
0
100
AcDbLine
62
9
6
CONTINUOUS
10
-178.4224451834
20
-131.4181241576
11
-178.4224451834
21
132.1577929531
0
LINE
5
30A
100
AcDbEntity
8
0
100
AcDbLine
62
0
6
CONTINUOUS
10
-149.1177732709
20
-64.2272100464
11
-148.1177732709
21
-64.4951592388
0
LINE
5
30B
100
AcDbEntity
8
0
100
AcDbLine
62
0
6
CONTINUOUS
10
-174.1177732709
20
142.3698407612
11
-174.1177732709
21
-141.6301592388
0
LINE
5
30C
100
AcDbEntity
8
0
100
AcDbLine
62
0
6
CONTINUOUS
10
-173.4059985577
20
-114.2585718843
11
-173.4059985577
21
-113.0017465934
0
LINE
5
30D
100
AcDbEntity
8
0
100
AcDbLine
62
0
6
CONTINUOUS
10
-173.4059985577
20
-85.7585718843
11
-173.4059985577
21
-84.5017465934
0
LINE
5
30E
100
AcDbEntity
8
0
100
AcDbLine
62
0
6
CONTINUOUS
10
-173.4059985577
20
-57.2585718843
11
-173.4059985577
21
-56.0017465934
0
LINE
5
30F
100
AcDbEntity
8
0
100
AcDbLine
62
0
6
CONTINUOUS
10
-173.4059985577
20
-28.7585718843
11
-173.4059985577
21
-27.5017465934
0
LINE
5
310
100
AcDbEntity
8
0
100
AcDbLine
62
0
6
CONTINUOUS
10
-173.4059985577
20
-0.2585718843
11
-173.4059985577
21
0.9982534066
0
LINE
5
311
100
AcDbEntity
8
0
100
AcDbLine
62
0
6
CONTINUOUS
10
-173.4059985577
20
28.2414281157
11
-173.4059985577
21
29.4982534066
0
LINE
5
312
100
AcDbEntity
8
0
100
AcDbLine
62
0
6
CONTINUOUS
10
-173.4059985577
20
56.7414281157
11
-173.4059985577
21
57.9982534066
0
LINE
5
313
100
AcDbEntity
8
0
100
AcDbLine
62
0
6
CONTINUOUS
10
-173.4059985577
20
85.2414281157
11
-173.4059985577
21
86.4982534066
0
LINE
5
314
100
AcDbEntity
8
0
100
AcDbLine
62
0
6
CONTINUOUS
10
-173.4059985577
20
113.7414281157
11
-173.4059985577
21
114.9982534066
0
LINE
5
315
100
AcDbEntity
8
0
100
AcDbLine
62
9
6
CONTINUOUS
10
-173.3317351960
20
134.0902550662
11
-173.3317351960
21
129.3835611068
0
LINE
5
316
100
AcDbEntity
8
0
100
AcDbLine
62
9
6
CONTINUOUS
10
-173.3317351960
20
-128.6438795845
11
-173.3317351960
21
-133.3505735439
0
LINE
5
317
100
AcDbEntity
8
0
100
AcDbLine
62
0
6
CONTINUOUS
10
-171.4177732709
20
-135.3630967454
11
-171.4177732709
21
-135.6301592388
0
LINE
5
318
100
AcDbEntity
8
0
100
AcDbLine
62
0
6
CONTINUOUS
10
-171.4177732709
20
136.1027782678
11
-171.4177732709
21
136.3698407612
0
LINE
5
319
100
AcDbEntity
8
0
100
AcDbLine
62
0
6
CONTINUOUS
10
-173.4059985577
20
-56.0017465934
11
-156.1177732709
21
-55.6999794986
0
LINE
5
31A
100
AcDbEntity
8
0
100
AcDbLine
62
0
6
CONTINUOUS
10
-173.4059985577
20
-57.2585718843
11
-156.1177732709
21
-57.5603389791
0
LINE
5
31B
100
AcDbEntity
8
0
100
AcDbLine
62
0
6
CONTINUOUS
10
-166.6177732709
20
-135.4468810571
11
-166.6177732709
21
-135.6301592388
0
LINE
5
31C
100
AcDbEntity
8
0
100
AcDbLine
62
0
6
CONTINUOUS
10
-166.6177732709
20
136.1865625794
11
-166.6177732709
21
136.3698407612
0
LINE
5
31D
100
AcDbEntity
8
0
100
AcDbLine
62
0
6
CONTINUOUS
10
-149.1177732709
20
-59.5331084313
11
-148.1177732709
21
-59.2651592388
0
LINE
5
31E
100
AcDbEntity
8
0
100
AcDbLine
62
0
6
CONTINUOUS
10
-56.6177732709
20
-41.9019764083
11
-146.6308630741
21
-42.6875087425
0
LINE
5
31F
100
AcDbEntity
8
0
100
AcDbLine
62
0
6
CONTINUOUS
10
-74.5427732709
20
-41.9221872388
11
-74.9200602709
21
-41.9221872388
0
LINE
5
320
100
AcDbEntity
8
0
100
AcDbLine
62
0
6
CONTINUOUS
10
-75.8106702709
20
-40.5885642388
11
-74.5427732709
21
-40.5885642388
0
LINE
5
321
100
AcDbEntity
8
0
100
AcDbLine
62
0
6
CONTINUOUS
10
-146.6308630741
20
-39.5728097352
11
-56.6177732709
21
-40.3583420694
0
LINE
5
322
100
AcDbEntity
8
0
100
AcDbLine
62
0
6
CONTINUOUS
10
-156.1177732709
20
-135.6301592388
11
-156.1177732709
21
136.3698407612
0
LINE
5
323
100
AcDbEntity
8
0
100
AcDbLine
62
9
6
CONTINUOUS
10
-150.1003208644
20
136.2648057387
11
-150.1003208644
21
-135.5251242164
0
LINE
5
324
100
AcDbEntity
8
0
100
AcDbLine
62
0
6
CONTINUOUS
10
-149.1177732709
20
-134.5252765212
11
-149.1177732709
21
135.2649580435
0
LINE
5
325
100
AcDbEntity
8
0
100
AcDbLine
62
0
6
CONTINUOUS
10
-148.1177732709
20
-79.5728668506
11
-148.1177732709
21
-64.4951592388
0
LINE
5
326
100
AcDbEntity
8
0
100
AcDbLine
62
0
6
CONTINUOUS
10
-148.1177732709
20
-59.2651592388
11
-148.1177732709
21
-44.1874516271
0
LINE
5
327
100
AcDbEntity
8
0
100
AcDbLine
62
0
6
CONTINUOUS
10
-148.1177732709
20
-38.0728668506
11
-148.1177732709
21
-22.9951592388
0
LINE
5
328
100
AcDbEntity
8
0
100
AcDbLine
62
0
6
CONTINUOUS
10
-148.1177732709
20
-17.7651592388
11
-148.1177732709
21
-2.6874516271
0
LINE
5
329
100
AcDbEntity
8
0
100
AcDbLine
62
0
6
CONTINUOUS
10
-148.1177732709
20
3.4271331494
11
-148.1177732709
21
18.5048407612
0
LINE
5
32A
100
AcDbEntity
8
0
100
AcDbLine
62
0
6
CONTINUOUS
10
-148.1177732709
20
23.7348407612
11
-148.1177732709
21
38.8125483729
0
LINE
5
32B
100
AcDbEntity
8
0
100
AcDbLine
62
0
6
CONTINUOUS
10
-148.1177732709
20
44.9271331494
11
-148.1177732709
21
60.0048407612
0
LINE
5
32C
100
AcDbEntity
8
0
100
AcDbLine
62
0
6
CONTINUOUS
10
-148.1177732709
20
65.2348407612
11
-148.1177732709
21
80.3125483729
0
LINE
5
32D
100
AcDbEntity
8
0
100
AcDbLine
62
0
6
CONTINUOUS
10
-173.4059985577
20
-28.7585718843
11
-156.1177732709
21
-29.0603389791
0
LINE
5
32E
100
AcDbEntity
8
0
100
AcDbLine
62
0
6
CONTINUOUS
10
-149.1177732709
20
-22.7272100464
11
-148.1177732709
21
-22.9951592388
0
LINE
5
32F
100
AcDbEntity
8
0
100
AcDbLine
62
0
6
CONTINUOUS
10
-173.4059985577
20
-27.5017465934
11
-156.1177732709
21
-27.1999794986
0
LINE
5
330
100
AcDbEntity
8
0
100
AcDbLine
62
0
6
CONTINUOUS
10
-149.1177732709
20
-18.0331084313
11
-148.1177732709
21
-17.7651592388
0
LINE
5
331
100
AcDbEntity
8
0
100
AcDbLine
62
0
6
CONTINUOUS
10
-76.5024812825
20
-40.1848108515
11
-76.1790412709
21
-40.3778842388
0
LINE
5
332
100
AcDbEntity
8
0
100
AcDbLine
62
0
6
CONTINUOUS
10
-120.2715612709
20
1.6971561229
11
-120.2715612709
21
0.3228597612
0
LINE
5
333
100
AcDbEntity
8
0
100
AcDbLine
62
0
6
CONTINUOUS
10
-117.3690782709
20
0.7622857612
11
-111.9726072709
21
1.1181967612
0
LINE
5
334
100
AcDbEntity
8
0
100
AcDbLine
62
0
6
CONTINUOUS
10
-56.6177732709
20
-0.4019764083
11
-146.6308630741
21
-1.1875087425
0
LINE
5
335
100
AcDbEntity
8
0
100
AcDbLine
62
0
6
CONTINUOUS
10
-146.6308630741
20
1.9271902648
11
-56.6177732709
21
1.1416579306
0
LINE
5
336
100
AcDbEntity
8
0
100
AcDbLine
62
0
6
CONTINUOUS
10
-173.4059985577
20
-0.2585718843
11
-156.1177732709
21
-0.5603389791
0
LINE
5
337
100
AcDbEntity
8
0
100
AcDbLine
62
0
6
CONTINUOUS
10
-120.2715612709
20
0.3228597612
11
-116.9433909170
21
-0.9284300979
0
LINE
5
338
100
AcDbEntity
8
0
100
AcDbLine
62
0
6
CONTINUOUS
10
-113.0289096888
20
-0.8942689378
11
-117.3690782709
21
0.7622857612
0
LINE
5
339
100
AcDbEntity
8
0
100
AcDbLine
62
0
6
CONTINUOUS
10
-111.9726072709
20
1.1181967612
11
-111.9726072709
21
1.6247322485
0
LINE
5
33A
100
AcDbEntity
8
0
100
AcDbLine
62
0
6
CONTINUOUS
10
-173.4059985577
20
0.9982534066
11
-156.1177732709
21
1.3000205014
0
LINE
5
33B
100
AcDbEntity
8
0
100
AcDbLine
62
0
6
CONTINUOUS
10
-149.1177732709
20
18.7727899536
11
-148.1177732709
21
18.5048407612
0
LINE
5
33C
100
AcDbEntity
8
0
100
AcDbLine
62
0
6
CONTINUOUS
10
-100.1177732709
20
-98.6853061207
11
-100.1177732709
21
-126.2748610574
0
LINE
5
33D
100
AcDbEntity
8
0
100
AcDbLine
62
0
6
CONTINUOUS
10
-100.1177732709
20
99.4249876431
11
-100.1177732709
21
127.0145425797
0
LINE
5
33E
100
AcDbEntity
8
0
100
AcDbLine
62
0
6
CONTINUOUS
10
-149.1177732709
20
23.4668915687
11
-148.1177732709
21
23.7348407612
0
LINE
5
33F
100
AcDbEntity
8
0
100
AcDbLine
62
0
6
CONTINUOUS
10
-173.4059985577
20
29.4982534066
11
-156.1177732709
21
29.8000205014
0
LINE
5
340
100
AcDbEntity
8
0
100
AcDbLine
62
0
6
CONTINUOUS
10
-173.4059985577
20
28.2414281157
11
-156.1177732709
21
27.9396610209
0
LINE
5
341
100
AcDbEntity
8
0
100
AcDbLine
62
0
6
CONTINUOUS
10
-77.6927732709
20
-41.2817422388
11
-77.6927732709
21
-41.7774882388
0
LINE
5
342
100
AcDbEntity
8
0
100
AcDbLine
62
0
6
CONTINUOUS
10
-74.9200602709
20
-41.9221872388
11
-74.9200602709
21
-42.0616980472
0
LINE
5
343
100
AcDbEntity
8
0
100
AcDbLine
62
0
6
CONTINUOUS
10
-74.5427732709
20
-42.0584055135
11
-74.5427732709
21
-41.9221872388
0
LINE
5
344
100
AcDbEntity
8
0
100
AcDbLine
62
0
6
CONTINUOUS
10
-74.5427732709
20
-40.5885642388
11
-74.5427732709
21
-40.2019129642
0
LINE
5
345
100
AcDbEntity
8
0
100
AcDbLine
62
0
6
CONTINUOUS
10
-56.6177732709
20
41.0980235917
11
-146.6308630741
21
40.3124912575
0
LINE
5
346
100
AcDbEntity
8
0
100
AcDbLine
62
0
6
CONTINUOUS
10
-146.6308630741
20
43.4271902648
11
-56.6177732709
21
42.6416579306
0
LINE
5
347
100
AcDbEntity
8
0
100
AcDbLine
62
9
6
CONTINUOUS
10
-71.4177732709
20
-83.6022649933
11
-71.5482994652
21
-82.6108201322
0
LINE
5
348
100
AcDbEntity
8
0
100
AcDbLine
62
9
6
CONTINUOUS
10
-63.6177732709
20
-82.5753755121
11
-63.7203327441
21
-81.7963589719
0
LINE
5
349
100
AcDbEntity
8
0
100
AcDbLine
62
0
6
CONTINUOUS
10
-72.4177732709
20
-83.6022649933
11
-72.4177732709
21
-83.6247993954
0
LINE
5
34A
100
AcDbEntity
8
0
100
AcDbLine
62
0
6
CONTINUOUS
10
-149.1177732709
20
60.2727899536
11
-148.1177732709
21
60.0048407612
0
LINE
5
34B
100
AcDbEntity
8
0
100
AcDbLine
62
9
6
CONTINUOUS
10
-63.6177732709
20
-83.4711948240
11
-63.6177732709
21
-82.5753755121
0
LINE
5
34C
100
AcDbEntity
8
0
100
AcDbLine
62
0
6
CONTINUOUS
10
-62.6177732709
20
-83.4537397591
11
-62.6177732709
21
-81.8059808626
0
LINE
5
34D
100
AcDbEntity
8
0
100
AcDbLine
62
0
6
CONTINUOUS
10
-62.6177732709
20
-41.9543376151
11
-62.6177732709
21
-40.3059808626
0
LINE
5
34E
100
AcDbEntity
8
0
100
AcDbLine
62
0
6
CONTINUOUS
10
-62.6177732709
20
-0.4543376151
11
-62.6177732709
21
1.1940191374
0
LINE
5
34F
100
AcDbEntity
8
0
100
AcDbLine
62
0
6
CONTINUOUS
10
-62.6177732709
20
41.0456623849
11
-62.6177732709
21
42.6940191374
0
LINE
5
350
100
AcDbEntity
8
0
100
AcDbLine
62
0
6
CONTINUOUS
10
-62.6177732709
20
82.5456623849
11
-62.6177732709
21
84.1934212814
0
LINE
5
351
100
AcDbEntity
8
0
100
AcDbLine
62
0
6
CONTINUOUS
10
-60.6177732709
20
-83.4188296292
11
-60.6177732709
21
-81.8234345982
0
LINE
5
352
100
AcDbEntity
8
0
100
AcDbLine
62
0
6
CONTINUOUS
10
-60.6177732709
20
-41.9368838795
11
-60.6177732709
21
-40.3234345982
0
LINE
5
353
100
AcDbEntity
8
0
100
AcDbLine
62
0
6
CONTINUOUS
10
-60.6177732709
20
-0.4368838795
11
-60.6177732709
21
1.1765654018
0
LINE
5
354
100
AcDbEntity
8
0
100
AcDbLine
62
0
6
CONTINUOUS
10
-60.6177732709
20
41.0631161205
11
-60.6177732709
21
42.6765654018
0
LINE
5
355
100
AcDbEntity
8
0
100
AcDbLine
62
0
6
CONTINUOUS
10
-60.6177732709
20
82.5631161205
11
-60.6177732709
21
84.1585111515
0
LINE
5
356
100
AcDbEntity
8
0
100
AcDbLine
62
9
6
CONTINUOUS
10
-60.3230089928
20
-83.4136844996
11
-60.3230089928
21
-81.8260069671
0
LINE
5
357
100
AcDbEntity
8
0
100
AcDbLine
62
9
6
CONTINUOUS
10
-60.3230089928
20
-41.9343115106
11
-60.3230089928
21
-40.3260069671
0
LINE
5
358
100
AcDbEntity
8
0
100
AcDbLine
62
9
6
CONTINUOUS
10
-60.3230089928
20
-0.4343115106
11
-60.3230089928
21
1.1739930329
0
LINE
5
359
100
AcDbEntity
8
0
100
AcDbLine
62
9
6
CONTINUOUS
10
-60.3230089928
20
41.0656884894
11
-60.3230089928
21
42.6739930329
0
LINE
5
35A
100
AcDbEntity
8
0
100
AcDbLine
62
9
6
CONTINUOUS
10
-60.3230089928
20
82.5656884894
11
-60.3230089928
21
84.1533660219
0
LINE
5
35B
100
AcDbEntity
8
0
100
AcDbLine
62
9
6
CONTINUOUS
10
-59.0305112387
20
118.3967420812
11
-59.0305112387
21
102.6629170450
0
LINE
5
35C
100
AcDbEntity
8
0
100
AcDbLine
62
9
6
CONTINUOUS
10
-59.0305112387
20
99.1279216180
11
-59.0305112387
21
84.1308053897
0
LINE
5
35D
100
AcDbEntity
8
0
100
AcDbLine
62
9
6
CONTINUOUS
10
-59.0305112387
20
82.5769679464
11
-59.0305112387
21
42.6627135759
0
LINE
5
35E
100
AcDbEntity
8
0
100
AcDbLine
62
9
6
CONTINUOUS
10
-59.0305112387
20
41.0769679464
11
-59.0305112387
21
1.1627135759
0
LINE
5
35F
100
AcDbEntity
8
0
100
AcDbLine
62
9
6
CONTINUOUS
10
-59.0305112387
20
-0.4230320536
11
-59.0305112387
21
-40.3372864241
0
LINE
5
360
100
AcDbEntity
8
0
100
AcDbLine
62
9
6
CONTINUOUS
10
-59.0305112387
20
-41.9230320536
11
-59.0305112387
21
-81.8372864241
0
LINE
5
361
100
AcDbEntity
8
0
100
AcDbLine
62
9
6
CONTINUOUS
10
-59.0305112387
20
-83.3911238674
11
-59.0305112387
21
-98.3882400957
0
LINE
5
362
100
AcDbEntity
8
0
100
AcDbLine
62
9
6
CONTINUOUS
10
-59.0305112387
20
-101.9232355227
11
-59.0305112387
21
-117.6570605589
0
LINE
5
363
100
AcDbEntity
8
0
100
AcDbLine
62
0
6
CONTINUOUS
10
-56.6177732709
20
-83.3490093695
11
-56.6177732709
21
-81.8583420694
0
LINE
5
364
100
AcDbEntity
8
0
100
AcDbLine
62
0
6
CONTINUOUS
10
-56.6177732709
20
-41.9019764083
11
-56.6177732709
21
-40.3583420694
0
LINE
5
365
100
AcDbEntity
8
0
100
AcDbLine
62
0
6
CONTINUOUS
10
-56.6177732709
20
-0.4019764083
11
-56.6177732709
21
1.1416579306
0
LINE
5
366
100
AcDbEntity
8
0
100
AcDbLine
62
0
6
CONTINUOUS
10
-56.6177732709
20
41.0980235917
11
-56.6177732709
21
42.6416579306
0
LINE
5
367
100
AcDbEntity
8
0
100
AcDbLine
62
0
6
CONTINUOUS
10
-56.6177732709
20
82.5980235917
11
-56.6177732709
21
84.0886908918
0
LINE
5
368
100
AcDbEntity
8
0
100
AcDbLine
62
0
6
CONTINUOUS
10
-54.1177732709
20
114.8617466542
11
-54.1177732709
21
-114.1220651319
0
LINE
5
369
100
AcDbEntity
8
0
100
AcDbLine
62
0
6
CONTINUOUS
10
-77.6927732709
20
-41.7774882388
11
-75.8106702709
21
-40.5885642388
0
LINE
5
36A
100
AcDbEntity
8
0
100
AcDbLine
62
0
6
CONTINUOUS
10
-76.1790412709
20
-40.3778842388
11
-77.6927732709
21
-41.2817422388
0
LINE
5
36B
100
AcDbEntity
8
0
100
AcDbLine
62
0
6
CONTINUOUS
10
-173.4059985577
20
57.9982534066
11
-156.1177732709
21
58.3000205014
0
LINE
5
36C
100
AcDbEntity
8
0
100
AcDbLine
62
0
6
CONTINUOUS
10
-173.4059985577
20
56.7414281157
11
-156.1177732709
21
56.4396610209
0
LINE
5
36D
100
AcDbEntity
8
0
100
AcDbLine
62
0
6
CONTINUOUS
10
-149.1177732709
20
64.9668915687
11
-148.1177732709
21
65.2348407612
0
LINE
5
36E
100
AcDbEntity
8
0
100
AcDbLine
62
0
6
CONTINUOUS
10
-56.6177732709
20
82.5980235917
11
-146.6308630741
21
81.8124912575
0
LINE
5
36F
100
AcDbEntity
8
0
100
AcDbLine
62
0
6
CONTINUOUS
10
-173.4059985577
20
85.2414281157
11
-156.1177732709
21
84.9396610209
0
LINE
5
370
100
AcDbEntity
8
0
100
AcDbLine
62
0
6
CONTINUOUS
10
-173.4059985577
20
86.4982534066
11
-156.1177732709
21
86.8000205014
0
LINE
5
371
100
AcDbEntity
8
0
100
AcDbLine
62
0
6
CONTINUOUS
10
-149.1177732709
20
85.7032843977
11
-56.6177732709
21
84.0886908918
0
LINE
5
372
100
AcDbEntity
8
0
100
AcDbLine
62
0
6
CONTINUOUS
10
-149.1177732709
20
103.3573912687
11
-100.1177732709
21
103.5865677257
0
LINE
5
373
100
AcDbEntity
8
0
100
AcDbLine
62
9
6
CONTINUOUS
10
-54.1177732709
20
99.1279216180
11
-59.0305112387
21
99.1279216180
0
LINE
5
374
100
AcDbEntity
8
0
100
AcDbLine
62
9
6
CONTINUOUS
10
-59.0305112387
20
99.1279216180
11
-100.1177732709
21
99.4249876431
0
LINE
5
375
100
AcDbEntity
8
0
100
AcDbLine
62
9
6
CONTINUOUS
10
-59.0305112387
20
102.6629170450
11
-100.1177732709
21
102.9599830700
0
LINE
5
376
100
AcDbEntity
8
0
100
AcDbLine
62
0
6
CONTINUOUS
10
-149.1177732709
20
114.5055225967
11
-100.1177732709
21
114.7346990537
0
LINE
5
377
100
AcDbEntity
8
0
100
AcDbLine
62
9
6
CONTINUOUS
10
-149.1177732709
20
114.3698407612
11
-156.1177732709
21
114.3698407612
0
LINE
5
378
100
AcDbEntity
8
0
100
AcDbLine
62
9
6
CONTINUOUS
10
-174.1177732709
20
115.3698407612
11
-156.1177732709
21
115.3698407612
0
LINE
5
379
100
AcDbEntity
8
0
100
AcDbLine
62
0
6
CONTINUOUS
10
-173.4059985577
20
113.7414281157
11
-156.1177732709
21
113.4396610209
0
LINE
5
37A
100
AcDbEntity
8
0
100
AcDbLine
62
0
6
CONTINUOUS
10
-156.1177732709
20
124.8411873494
11
-174.1177732709
21
124.3698407612
0
LINE
5
37B
100
AcDbEntity
8
0
100
AcDbLine
62
0
6
CONTINUOUS
10
-100.1177732709
20
125.1145472172
11
-144.6156456142
21
124.0161088037
0
LINE
5
37C
100
AcDbEntity
8
0
100
AcDbLine
62
9
6
CONTINUOUS
10
-100.1177732709
20
125.2609845830
11
-147.5817432706
21
124.0893274866
0
LINE
5
37D
100
AcDbEntity
8
0
100
AcDbLine
62
0
6
CONTINUOUS
10
-173.4059985577
20
114.9982534066
11
-156.1177732709
21
115.3000205014
0
LINE
5
37E
100
AcDbEntity
8
0
100
AcDbLine
62
9
6
CONTINUOUS
10
-100.1177732709
20
124.5164008190
11
-128.6790001986
21
124.4095079166
0
LINE
5
37F
100
AcDbEntity
8
0
100
AcDbLine
62
9
6
CONTINUOUS
10
-174.1177732709
20
125.3698407612
11
-171.7062305390
21
125.3698407612
0
LINE
5
380
100
AcDbEntity
8
0
100
AcDbLine
62
9
6
CONTINUOUS
10
-149.1177732709
20
125.4657315530
11
-100.1177732709
21
125.4657315530
0
LINE
5
381
100
AcDbEntity
8
0
100
AcDbLine
62
0
6
CONTINUOUS
10
-149.1177732709
20
122.2836971898
11
-100.1177732709
21
121.9294210831
0
LINE
5
382
100
AcDbEntity
8
0
100
AcDbLine
62
9
6
CONTINUOUS
10
-100.1177732709
20
119.1139229077
11
-59.0305112387
21
118.3967420812
0
LINE
5
383
100
AcDbEntity
8
0
100
AcDbLine
62
0
6
CONTINUOUS
10
-100.1177732709
20
120.5781659565
11
-59.0305112387
21
119.8609851300
0
LINE
5
384
100
AcDbEntity
8
0
100
AcDbLine
62
9
6
CONTINUOUS
10
-100.1177732709
20
122.7712330244
11
-149.1177732709
21
123.9808073125
0
LINE
5
385
100
AcDbEntity
8
0
100
AcDbLine
62
0
6
CONTINUOUS
10
-100.1177732709
20
122.9176703902
11
-149.1177732709
21
124.1272446783
0
LINE
5
386
100
AcDbEntity
8
0
100
AcDbLine
62
9
6
CONTINUOUS
10
-178.4224451834
20
132.1577929531
11
-174.1177732709
21
132.3835454136
0
LINE
5
387
100
AcDbEntity
8
0
100
AcDbLine
62
0
6
CONTINUOUS
10
-164.4874188116
20
129.5379392235
11
-174.1177732709
21
129.3698407612
0
LINE
5
388
100
AcDbEntity
8
0
100
AcDbLine
62
9
6
CONTINUOUS
10
-156.1177732709
20
135.5699626050
11
-172.1526780837
21
135.2900723004
0
LINE
5
389
100
AcDbEntity
8
0
100
AcDbLine
62
9
6
CONTINUOUS
10
-149.1177732709
20
126.1727306384
11
-100.1177732709
21
126.1727306384
0
LINE
5
38A
100
AcDbEntity
8
0
100
AcDbLine
62
9
6
CONTINUOUS
10
-180.3177732709
20
132.1579471181
11
-178.4224451834
21
132.1579471180
0
LINE
5
38B
100
AcDbEntity
8
0
100
AcDbLine
62
9
6
CONTINUOUS
10
-173.3317351960
20
134.0902550662
11
-174.1177732709
21
134.0902550662
0
LINE
5
38C
100
AcDbEntity
8
0
100
AcDbLine
62
0
6
CONTINUOUS
10
-171.4177732709
20
136.3698407612
11
-166.6177732709
21
136.3698407612
0
LINE
5
38D
100
AcDbEntity
8
0
100
AcDbLine
62
0
6
CONTINUOUS
10
-149.1177732709
20
127.8698407612
11
-100.1177732709
21
127.0145425797
0
LINE
5
38E
100
AcDbEntity
8
0
100
AcDbLine
62
0
6
CONTINUOUS
10
-156.1177732709
20
136.3698407612
11
-150.1003208644
21
136.2648057387
0
LINE
5
38F
100
AcDbEntity
8
0
100
AcDbLine
62
0
6
CONTINUOUS
10
-178.4224451834
20
142.1442424657
11
-174.1177732709
21
142.3698407612
0
LINE
5
390
100
AcDbEntity
8
0
100
AcDbLine
62
0
6
CONTINUOUS
10
-156.1177732709
20
136.3698407612
11
-172.1526753077
21
136.0899505050
0
CIRCLE
5
391
100
AcDbEntity
8
0
100
AcDbCircle
62
0
6
CONTINUOUS
10
78.3173241210
20
112.3698407612
40
2.7500000000
0
CIRCLE
5
392
100
AcDbEntity
8
0
100
AcDbCircle
62
0
6
CONTINUOUS
10
302.3173241210
20
112.3698407612
40
2.7500000000
0
CIRCLE
5
393
100
AcDbEntity
8
0
100
AcDbCircle
62
0
6
CONTINUOUS
10
78.3173241210
20
-111.6301592388
40
2.7500000000
0
CIRCLE
5
394
100
AcDbEntity
8
0
100
AcDbCircle
62
0
6
CONTINUOUS
10
302.3173241210
20
-111.6301592388
40
2.7500000000
0
CIRCLE
5
395
100
AcDbEntity
8
0
100
AcDbCircle
62
0
6
CONTINUOUS
10
302.3173241210
20
112.3698407612
40
3.0000000000
0
CIRCLE
5
396
100
AcDbEntity
8
0
100
AcDbCircle
62
0
6
CONTINUOUS
10
78.3173241210
20
112.3698407612
40
3.0000000000
0
CIRCLE
5
397
100
AcDbEntity
8
0
100
AcDbCircle
62
0
6
CONTINUOUS
10
78.3173241210
20
-111.6301592388
40
3.0000000000
0
CIRCLE
5
398
100
AcDbEntity
8
0
100
AcDbCircle
62
0
6
CONTINUOUS
10
302.3173241210
20
-111.6301592388
40
3.0000000000
0
ARC
5
399
100
AcDbEntity
8
0
100
AcDbCircle
62
0
6
CONTINUOUS
10
-178.3177732709
20
140.1469789415
40
2.0000000000
100
AcDbArc
50
92.9999933211
51
179.9998723836
0
ARC
5
39A
100
AcDbEntity
8
0
100
AcDbCircle
62
0
6
CONTINUOUS
10
-178.3177732709
20
-139.4072974192
40
2.0000000000
100
AcDbArc
50
180.0001276164
51
267.0000066789
0
ARC
5
39B
100
AcDbEntity
8
0
100
AcDbCircle
62
0
6
CONTINUOUS
10
-63.6177732709
20
-82.5753755121
40
1.0000000000
100
AcDbArc
50
0.0000000000
51
50.6069931351
0
ARC
5
39C
100
AcDbEntity
8
0
100
AcDbCircle
62
0
6
CONTINUOUS
10
-71.4177732709
20
-83.6022649933
40
1.0000000000
100
AcDbArc
50
97.5000000000
51
180.0000000000
0
ARC
5
39D
100
AcDbEntity
8
0
100
AcDbCircle
62
0
6
CONTINUOUS
10
-150.1177732709
20
135.2649580435
40
1.0000000000
100
AcDbArc
50
0.0000000000
51
89.0000000000
0
ARC
5
39E
100
AcDbEntity
8
0
100
AcDbCircle
62
0
6
CONTINUOUS
10
-150.1177732709
20
-134.5252765212
40
1.0000000000
100
AcDbArc
50
271.0000000000
51
360.0000000000
0
ARC
5
39F
100
AcDbEntity
8
0
100
AcDbCircle
62
0
6
CONTINUOUS
10
-172.1177732709
20
-133.3505735439
40
2.0000000000
100
AcDbArc
50
179.9999268177
51
269.0000795390
0
ARC
5
3A0
100
AcDbEntity
8
0
100
AcDbCircle
62
0
6
CONTINUOUS
10
-172.1177732709
20
134.0902550662
40
2.0000000000
100
AcDbArc
50
90.9999204610
51
180.0000731822
0
ARC
5
3A1
100
AcDbEntity
8
0
100
AcDbCircle
62
0
6
CONTINUOUS
10
-59.1177732709
20
114.8617466542
40
5.0000000000
100
AcDbArc
50
0.0000000000
51
89.0000000000
0
ARC
5
3A2
100
AcDbEntity
8
0
100
AcDbCircle
62
0
6
CONTINUOUS
10
-59.1177732709
20
-114.1220651319
40
5.0000000000
100
AcDbArc
50
271.0000000000
51
360.0000000000
0
ARC
5
3A3
100
AcDbEntity
8
0
100
AcDbCircle
62
0
6
CONTINUOUS
10
-146.6177732709
20
-79.5728668506
40
1.5000000000
100
AcDbArc
50
180.0000000000
51
269.5000000000
0
ARC
5
3A4
100
AcDbEntity
8
0
100
AcDbCircle
62
0
6
CONTINUOUS
10
-146.6177732709
20
-44.1874516271
40
1.5000000000
100
AcDbArc
50
90.5000000000
51
180.0000000000
0
ARC
5
3A5
100
AcDbEntity
8
0
100
AcDbCircle
62
0
6
CONTINUOUS
10
-146.6177732709
20
-38.0728668506
40
1.5000000000
100
AcDbArc
50
180.0000000000
51
269.5000000000
0
ARC
5
3A6
100
AcDbEntity
8
0
100
AcDbCircle
62
0
6
CONTINUOUS
10
-146.6177732709
20
-2.6874516271
40
1.5000000000
100
AcDbArc
50
90.5000000000
51
180.0000000000
0
ARC
5
3A7
100
AcDbEntity
8
0
100
AcDbCircle
62
0
6
CONTINUOUS
10
-146.6177732709
20
3.4271331494
40
1.5000000000
100
AcDbArc
50
180.0000000000
51
269.5000000000
0
ARC
5
3A8
100
AcDbEntity
8
0
100
AcDbCircle
62
0
6
CONTINUOUS
10
-146.6177732709
20
38.8125483729
40
1.5000000000
100
AcDbArc
50
90.5000000000
51
180.0000000000
0
ARC
5
3A9
100
AcDbEntity
8
0
100
AcDbCircle
62
0
6
CONTINUOUS
10
-146.6177732709
20
44.9271331494
40
1.5000000000
100
AcDbArc
50
180.0000000000
51
269.5000000000
0
ARC
5
3AA
100
AcDbEntity
8
0
100
AcDbCircle
62
0
6
CONTINUOUS
10
-146.6177732709
20
80.3125483729
40
1.5000000000
100
AcDbArc
50
90.5000000000
51
180.0000000000
0
SPLINE
5
3AB
100
AcDbEntity
8
0
100
AcDbSpline
62
0
6
CONTINUOUS
70
0
71
3
72
10
73
6
74
4
42
0.0000001000
43
0.0000001000
44
0.0000000001
12
0.6998580261
22
-0.0168023108
32
0.0000000000
13
0.6998580261
23
0.0168023108
33
0.0000000000
40
0.0000000000
40
0.0000000000
40
0.0000000000
40
0.0000000000
40
0.3330626511
40
0.6669373489
40
1.0000000000
40
1.0000000000
40
1.0000000000
40
1.0000000000
10
77.9673241210
20
110.4279829968
30
0.0000000000
10
78.0450229776
20
110.4261175894
30
0.0000000000
10
78.2006430208
20
110.4236286320
30
0.0000000000
10
78.4340052212
20
110.4236286320
30
0.0000000000
10
78.5896252645
20
110.4261175894
30
0.0000000000
10
78.6673241210
20
110.4279829968
30
0.0000000000
11
77.9673241210
21
110.4279829968
31
0.0000000000
11
78.2004580117
21
110.4242523875
31
0.0000000000
11
78.4341902303
21
110.4242523875
31
0.0000000000
11
78.6673241210
21
110.4279829968
31
0.0000000000
0
SPLINE
5
3AC
100
AcDbEntity
8
0
100
AcDbSpline
62
0
6
CONTINUOUS
70
0
71
3
72
10
73
6
74
4
42
0.0000001000
43
0.0000001000
44
0.0000000001
12
-0.6998580261
22
0.0168023108
32
0.0000000000
13
-0.6998580261
23
-0.0168023108
33
0.0000000000
40
0.0000000000
40
0.0000000000
40
0.0000000000
40
0.0000000000
40
0.3330626511
40
0.6669373489
40
1.0000000000
40
1.0000000000
40
1.0000000000
40
1.0000000000
10
78.6673241210
20
114.3116985255
30
0.0000000000
10
78.5896252645
20
114.3135639329
30
0.0000000000
10
78.4340052212
20
114.3160528903
30
0.0000000000
10
78.2006430208
20
114.3160528903
30
0.0000000000
10
78.0450229776
20
114.3135639329
30
0.0000000000
10
77.9673241210
20
114.3116985255
30
0.0000000000
11
78.6673241210
21
114.3116985255
31
0.0000000000
11
78.4341902303
21
114.3154291348
31
0.0000000000
11
78.2004580117
21
114.3154291348
31
0.0000000000
11
77.9673241210
21
114.3116985255
31
0.0000000000
0
SPLINE
5
3AD
100
AcDbEntity
8
0
100
AcDbSpline
62
0
6
CONTINUOUS
70
0
71
3
72
10
73
6
74
4
42
0.0000001000
43
0.0000001000
44
0.0000000001
12
0.6998580261
22
-0.0168023108
32
0.0000000000
13
0.6998580261
23
0.0168023108
33
0.0000000000
40
0.0000000000
40
0.0000000000
40
0.0000000000
40
0.0000000000
40
0.3330626511
40
0.6669373489
40
1.0000000000
40
1.0000000000
40
1.0000000000
40
1.0000000000
10
301.9673241210
20
110.4279829968
30
0.0000000000
10
302.0450229776
20
110.4261175894
30
0.0000000000
10
302.2006430208
20
110.4236286320
30
0.0000000000
10
302.4340052212
20
110.4236286320
30
0.0000000000
10
302.5896252645
20
110.4261175894
30
0.0000000000
10
302.6673241210
20
110.4279829968
30
0.0000000000
11
301.9673241210
21
110.4279829968
31
0.0000000000
11
302.2004580117
21
110.4242523875
31
0.0000000000
11
302.4341902303
21
110.4242523875
31
0.0000000000
11
302.6673241210
21
110.4279829968
31
0.0000000000
0
SPLINE
5
3AE
100
AcDbEntity
8
0
100
AcDbSpline
62
0
6
CONTINUOUS
70
0
71
3
72
10
73
6
74
4
42
0.0000001000
43
0.0000001000
44
0.0000000001
12
-0.6998580261
22
0.0168023108
32
0.0000000000
13
-0.6998580261
23
-0.0168023108
33
0.0000000000
40
0.0000000000
40
0.0000000000
40
0.0000000000
40
0.0000000000
40
0.3330626511
40
0.6669373489
40
1.0000000000
40
1.0000000000
40
1.0000000000
40
1.0000000000
10
302.6673241210
20
114.3116985255
30
0.0000000000
10
302.5896252645
20
114.3135639329
30
0.0000000000
10
302.4340052212
20
114.3160528903
30
0.0000000000
10
302.2006430208
20
114.3160528903
30
0.0000000000
10
302.0450229776
20
114.3135639329
30
0.0000000000
10
301.9673241210
20
114.3116985255
30
0.0000000000
11
302.6673241210
21
114.3116985255
31
0.0000000000
11
302.4341902303
21
114.3154291348
31
0.0000000000
11
302.2004580117
21
114.3154291348
31
0.0000000000
11
301.9673241210
21
114.3116985255
31
0.0000000000
0
SPLINE
5
3AF
100
AcDbEntity
8
0
100
AcDbSpline
62
0
6
CONTINUOUS
70
0
71
3
72
10
73
6
74
4
42
0.0000001000
43
0.0000001000
44
0.0000000001
12
0.6998580261
22
-0.0168023108
32
0.0000000000
13
0.6998580261
23
0.0168023108
33
0.0000000000
40
0.0000000000
40
0.0000000000
40
0.0000000000
40
0.0000000000
40
0.3330626511
40
0.6669373489
40
1.0000000000
40
1.0000000000
40
1.0000000000
40
1.0000000000
10
77.9673241210
20
-113.5720170032
30
0.0000000000
10
78.0450229776
20
-113.5738824106
30
0.0000000000
10
78.2006430208
20
-113.5763713680
30
0.0000000000
10
78.4340052212
20
-113.5763713680
30
0.0000000000
10
78.5896252645
20
-113.5738824106
30
0.0000000000
10
78.6673241210
20
-113.5720170032
30
0.0000000000
11
77.9673241210
21
-113.5720170032
31
0.0000000000
11
78.2004580117
21
-113.5757476125
31
0.0000000000
11
78.4341902303
21
-113.5757476125
31
0.0000000000
11
78.6673241210
21
-113.5720170032
31
0.0000000000
0
SPLINE
5
3B0
100
AcDbEntity
8
0
100
AcDbSpline
62
0
6
CONTINUOUS
70
0
71
3
72
10
73
6
74
4
42
0.0000001000
43
0.0000001000
44
0.0000000001
12
-0.6998580261
22
0.0168023108
32
0.0000000000
13
-0.6998580261
23
-0.0168023108
33
0.0000000000
40
0.0000000000
40
0.0000000000
40
0.0000000000
40
0.0000000000
40
0.3330626511
40
0.6669373489
40
1.0000000000
40
1.0000000000
40
1.0000000000
40
1.0000000000
10
78.6673241210
20
-109.6883014745
30
0.0000000000
10
78.5896252645
20
-109.6864360671
30
0.0000000000
10
78.4340052212
20
-109.6839471097
30
0.0000000000
10
78.2006430208
20
-109.6839471097
30
0.0000000000
10
78.0450229776
20
-109.6864360671
30
0.0000000000
10
77.9673241210
20
-109.6883014745
30
0.0000000000
11
78.6673241210
21
-109.6883014745
31
0.0000000000
11
78.4341902303
21
-109.6845708652
31
0.0000000000
11
78.2004580117
21
-109.6845708652
31
0.0000000000
11
77.9673241210
21
-109.6883014745
31
0.0000000000
0
SPLINE
5
3B1
100
AcDbEntity
8
0
100
AcDbSpline
62
0
6
CONTINUOUS
70
0
71
3
72
10
73
6
74
4
42
0.0000001000
43
0.0000001000
44
0.0000000001
12
0.6998580261
22
-0.0168023108
32
0.0000000000
13
0.6998580261
23
0.0168023108
33
0.0000000000
40
0.0000000000
40
0.0000000000
40
0.0000000000
40
0.0000000000
40
0.3330626511
40
0.6669373489
40
1.0000000000
40
1.0000000000
40
1.0000000000
40
1.0000000000
10
301.9673241210
20
-113.5720170032
30
0.0000000000
10
302.0450229776
20
-113.5738824106
30
0.0000000000
10
302.2006430208
20
-113.5763713680
30
0.0000000000
10
302.4340052212
20
-113.5763713680
30
0.0000000000
10
302.5896252645
20
-113.5738824106
30
0.0000000000
10
302.6673241210
20
-113.5720170032
30
0.0000000000
11
301.9673241210
21
-113.5720170032
31
0.0000000000
11
302.2004580117
21
-113.5757476125
31
0.0000000000
11
302.4341902303
21
-113.5757476125
31
0.0000000000
11
302.6673241210
21
-113.5720170032
31
0.0000000000
0
SPLINE
5
3B2
100
AcDbEntity
8
0
100
AcDbSpline
62
0
6
CONTINUOUS
70
0
71
3
72
10
73
6
74
4
42
0.0000001000
43
0.0000001000
44
0.0000000001
12
-0.6998580261
22
0.0168023108
32
0.0000000000
13
-0.6998580261
23
-0.0168023108
33
0.0000000000
40
0.0000000000
40
0.0000000000
40
0.0000000000
40
0.0000000000
40
0.3330626511
40
0.6669373489
40
1.0000000000
40
1.0000000000
40
1.0000000000
40
1.0000000000
10
302.6673241210
20
-109.6883014745
30
0.0000000000
10
302.5896252645
20
-109.6864360671
30
0.0000000000
10
302.4340052212
20
-109.6839471097
30
0.0000000000
10
302.2006430208
20
-109.6839471097
30
0.0000000000
10
302.0450229776
20
-109.6864360671
30
0.0000000000
10
301.9673241210
20
-109.6883014745
30
0.0000000000
11
302.6673241210
21
-109.6883014745
31
0.0000000000
11
302.4341902303
21
-109.6845708652
31
0.0000000000
11
302.2004580117
21
-109.6845708652
31
0.0000000000
11
301.9673241210
21
-109.6883014745
31
0.0000000000
0
SPLINE
5
3B3
100
AcDbEntity
8
0
100
AcDbSpline
62
0
6
CONTINUOUS
70
0
71
3
72
19
73
15
74
13
42
0.0000001000
43
0.0000001000
44
0.0000000001
12
0.0000000000
22
-15.6771721641
32
0.0000000000
13
-15.6771721641
23
0.0000000000
33
0.0000000000
40
0.0000000000
40
0.0000000000
40
0.0000000000
40
0.0000000000
40
0.0834625428
40
0.1668608648
40
0.2502017384
40
0.3334957253
40
0.4167565359
40
0.5000001917
40
0.5832438251
40
0.6665045708
40
0.7497984665
40
0.8331392453
40
0.9165374917
40
1.0000000000
40
1.0000000000
40
1.0000000000
40
1.0000000000
10
332.3173241210
20
-131.6438638913
30
0.0000000000
10
332.3173241210
20
-132.0800161090
30
0.0000000000
10
332.2601923361
20
-132.9530621082
30
0.0000000000
10
332.0045388848
20
-134.2389379345
30
0.0000000000
10
331.5835099156
20
-135.4798446907
30
0.0000000000
10
331.0044186480
20
-136.6544647048
30
0.0000000000
10
330.2772022588
20
-137.7430151014
30
0.0000000000
10
329.4142450839
20
-138.7270843074
30
0.0000000000
10
328.4301756292
20
-139.5900406795
30
0.0000000000
10
327.3416256386
20
-140.3172559828
30
0.0000000000
10
326.1670065831
20
-140.8963462021
30
0.0000000000
10
324.9261010288
20
-141.3173744208
30
0.0000000000
10
323.6402262333
20
-141.5730275153
30
0.0000000000
10
322.7671808107
20
-141.6301592388
30
0.0000000000
10
322.3310287735
20
-141.6301592388
30
0.0000000000
11
332.3173241210
21
-131.6438638913
31
0.0000000000
11
332.2318073135
21
-132.9495229926
31
0.0000000000
11
331.9768615284
21
-134.2318754246
31
0.0000000000
11
331.5570278249
21
-135.4691347095
31
0.0000000000
11
330.9796035076
21
-136.6403442591
31
0.0000000000
11
330.2544989740
21
-137.7257087177
31
0.0000000000
11
329.3940609663
21
-138.7069003424
31
0.0000000000
11
328.4128690998
21
-139.5673375445
31
0.0000000000
11
327.3275051129
21
-140.2924409508
31
0.0000000000
11
326.1562966171
21
-140.8698641744
31
0.0000000000
11
324.9190386360
21
-141.2896970937
31
0.0000000000
11
323.6366873369
21
-141.5446425020
31
0.0000000000
11
322.3310287735
21
-141.6301592388
31
0.0000000000
0
SPLINE
5
3B4
100
AcDbEntity
8
0
100
AcDbSpline
62
0
6
CONTINUOUS
70
0
71
3
72
19
73
15
74
13
42
0.0000001000
43
0.0000001000
44
0.0000000001
12
15.6771721641
22
0.0000000000
32
0.0000000000
13
0.0000000000
23
-15.6771721641
33
0.0000000000
40
0.0000000000
40
0.0000000000
40
0.0000000000
40
0.0000000000
40
0.0834625428
40
0.1668608648
40
0.2502017384
40
0.3334957253
40
0.4167565359
40
0.5000001917
40
0.5832438251
40
0.6665045708
40
0.7497984665
40
0.8331392453
40
0.9165374917
40
1.0000000000
40
1.0000000000
40
1.0000000000
40
1.0000000000
10
322.3310287735
20
142.3698407612
30
0.0000000000
10
322.7671809912
20
142.3698407612
30
0.0000000000
10
323.6402269904
20
142.3127089763
30
0.0000000000
10
324.9261028167
20
142.0570555249
30
0.0000000000
10
326.1670095729
20
141.6360265557
30
0.0000000000
10
327.3416295870
20
141.0569352881
30
0.0000000000
10
328.4301799836
20
140.3297188989
30
0.0000000000
10
329.4142491896
20
139.4667617240
30
0.0000000000
10
330.2772055617
20
138.4826922694
30
0.0000000000
10
331.0044208650
20
137.3941422787
30
0.0000000000
10
331.5835110843
20
136.2195232232
30
0.0000000000
10
332.0045393030
20
134.9786176690
30
0.0000000000
10
332.2601923975
20
133.6927428735
30
0.0000000000
10
332.3173241210
20
132.8196974509
30
0.0000000000
10
332.3173241210
20
132.3835454136
30
0.0000000000
11
322.3310287735
21
142.3698407612
31
0.0000000000
11
323.6366878748
21
142.2843239536
31
0.0000000000
11
324.9190403068
21
142.0293781685
31
0.0000000000
11
326.1562995917
21
141.6095444650
31
0.0000000000
11
327.3275091413
21
141.0321201478
31
0.0000000000
11
328.4128735999
21
140.3070156142
31
0.0000000000
11
329.3940652245
21
139.4465776064
31
0.0000000000
11
330.2545024267
21
138.4653857400
31
0.0000000000
11
330.9796058330
21
137.3800217530
31
0.0000000000
11
331.5570290566
21
136.2088132572
31
0.0000000000
11
331.9768619758
21
134.9715552762
31
0.0000000000
11
332.2318073842
21
133.6892039770
31
0.0000000000
11
332.3173241210
21
132.3835454136
31
0.0000000000
0
SPLINE
5
3B5
100
AcDbEntity
8
0
100
AcDbSpline
62
0
6
CONTINUOUS
70
0
71
3
72
19
73
15
74
13
42
0.0000001000
43
0.0000001000
44
0.0000000001
12
0.0000000000
22
15.6771721641
32
0.0000000000
13
15.6771721641
23
0.0000000000
33
0.0000000000
40
0.0000000000
40
0.0000000000
40
0.0000000000
40
0.0000000000
40
0.0834625428
40
0.1668608648
40
0.2502017384
40
0.3334957253
40
0.4167565359
40
0.5000001917
40
0.5832438251
40
0.6665045708
40
0.7497984665
40
0.8331392453
40
0.9165374917
40
1.0000000000
40
1.0000000000
40
1.0000000000
40
1.0000000000
10
48.3173241210
20
132.3835454136
30
0.0000000000
10
48.3173241210
20
132.8196976313
30
0.0000000000
10
48.3744559059
20
133.6927436305
30
0.0000000000
10
48.6301093573
20
134.9786194569
30
0.0000000000
10
49.0511383264
20
136.2195262131
30
0.0000000000
10
49.6302295941
20
137.3941462271
30
0.0000000000
10
50.3574459833
20
138.4826966237
30
0.0000000000
10
51.2204031582
20
139.4667658298
30
0.0000000000
10
52.2044726128
20
140.3297222018
30
0.0000000000
10
53.2930226035
20
141.0569375051
30
0.0000000000
10
54.4676416589
20
141.6360277244
30
0.0000000000
10
55.7085472132
20
142.0570559431
30
0.0000000000
10
56.9944220087
20
142.3127090377
30
0.0000000000
10
57.8674674313
20
142.3698407612
30
0.0000000000
10
58.3036194686
20
142.3698407612
30
0.0000000000
11
48.3173241210
21
132.3835454136
31
0.0000000000
11
48.4028409286
21
133.6892045149
31
0.0000000000
11
48.6577867137
21
134.9715569469
31
0.0000000000
11
49.0776204172
21
136.2088162318
31
0.0000000000
11
49.6550447344
21
137.3800257815
31
0.0000000000
11
50.3801492680
21
138.4653902400
31
0.0000000000
11
51.2405872758
21
139.4465818647
31
0.0000000000
11
52.2217791422
21
140.3070190668
31
0.0000000000
11
53.3071431292
21
141.0321224731
31
0.0000000000
11
54.4783516250
21
141.6095456967
31
0.0000000000
11
55.7156096060
21
142.0293786160
31
0.0000000000
11
56.9979609052
21
142.2843240244
31
0.0000000000
11
58.3036194686
21
142.3698407612
31
0.0000000000
0
SPLINE
5
3B6
100
AcDbEntity
8
0
100
AcDbSpline
62
0
6
CONTINUOUS
70
0
71
3
72
19
73
15
74
13
42
0.0000001000
43
0.0000001000
44
0.0000000001
12
-15.6771721641
22
0.0000000000
32
0.0000000000
13
-0.0000000000
23
15.6771721641
33
0.0000000000
40
0.0000000000
40
0.0000000000
40
0.0000000000
40
0.0000000000
40
0.0834625428
40
0.1668608648
40
0.2502017384
40
0.3334957253
40
0.4167565359
40
0.5000001917
40
0.5832438251
40
0.6665045708
40
0.7497984665
40
0.8331392453
40
0.9165374917
40
1.0000000000
40
1.0000000000
40
1.0000000000
40
1.0000000000
10
58.3036194686
20
-141.6301592388
30
0.0000000000
10
57.8674672509
20
-141.6301592388
30
0.0000000000
10
56.9944212516
20
-141.5730274539
30
0.0000000000
10
55.7085454253
20
-141.3173740026
30
0.0000000000
10
54.4676386691
20
-140.8963450334
30
0.0000000000
10
53.2930186551
20
-140.3172537658
30
0.0000000000
10
52.2044682585
20
-139.5900373766
30
0.0000000000
10
51.2203990524
20
-138.7270802017
30
0.0000000000
10
50.3574426804
20
-137.7430107470
30
0.0000000000
10
49.6302273771
20
-136.6544607564
30
0.0000000000
10
49.0511371578
20
-135.4798417009
30
0.0000000000
10
48.6301089391
20
-134.2389361466
30
0.0000000000
10
48.3744558445
20
-132.9530613512
30
0.0000000000
10
48.3173241210
20
-132.0800159285
30
0.0000000000
10
48.3173241210
20
-131.6438638913
30
0.0000000000
11
58.3036194686
21
-141.6301592388
31
0.0000000000
11
56.9979603673
21
-141.5446424313
31
0.0000000000
11
55.7156079353
21
-141.2896966462
31
0.0000000000
11
54.4783486504
21
-140.8698629427
31
0.0000000000
11
53.3071391007
21
-140.2924386254
31
0.0000000000
11
52.2217746422
21
-139.5673340919
31
0.0000000000
11
51.2405830175
21
-138.7068960841
31
0.0000000000
11
50.3801458153
21
-137.7257042176
31
0.0000000000
11
49.6550424091
21
-136.6403402307
31
0.0000000000
11
49.0776191855
21
-135.4691317349
31
0.0000000000
11
48.6577862662
21
-134.2318737538
31
0.0000000000
11
48.4028408578
21
-132.9495224547
31
0.0000000000
11
48.3173241210
21
-131.6438638913
31
0.0000000000
0
SPLINE
5
3B7
100
AcDbEntity
8
0
100
AcDbSpline
62
9
6
CONTINUOUS
70
0
71
3
72
20
73
16
74
14
42
0.0000001000
43
0.0000001000
44
0.0000000001
12
15.6760194484
22
0.0086909131
32
0.0000000000
13
0.0086817074
23
15.6760194535
33
0.0000000000
40
0.0000000000
40
0.0000000000
40
0.0000000000
40
0.0000000000
40
0.0769928633
40
0.1539510616
40
0.2308879306
40
0.3077973107
40
0.3846835136
40
0.4615620001
40
0.5384367666
40
0.6153151202
40
0.6922012471
40
0.7691107951
40
0.8460475340
40
0.9230055205
40
1.0000000000
40
1.0000000000
40
1.0000000000
40
1.0000000000
10
322.1052764185
20
-141.4045610476
30
0.0000000000
10
322.5075902927
20
-141.4043380015
30
0.0000000000
10
323.3128565327
20
-141.3552995676
30
0.0000000000
10
324.5022323214
20
-141.1368972836
30
0.0000000000
10
325.6564100871
20
-140.7769517235
30
0.0000000000
10
326.7584300573
20
-140.2807475025
30
0.0000000000
10
327.7923962912
20
-139.6555518194
30
0.0000000000
10
328.7433605533
20
-138.9104481761
30
0.0000000000
10
329.5975912408
20
-138.0562202372
30
0.0000000000
10
330.3426973575
20
-137.1052593180
30
0.0000000000
10
330.9678965373
20
-136.0712954521
30
0.0000000000
10
331.4641044060
20
-134.9692773412
30
0.0000000000
10
331.8240537084
20
-133.8151016684
30
0.0000000000
10
332.0424610881
20
-132.6257201441
30
0.0000000000
10
332.0915031067
20
-131.8204465740
30
0.0000000000
10
332.0917259213
20
-131.4181242543
30
0.0000000000
11
322.1052764185
21
-141.4045610476
31
0.0000000000
11
323.3099824095
21
-141.3311307828
31
0.0000000000
11
324.4965449683
21
-141.1132629541
31
0.0000000000
11
325.6479101215
21
-140.7541686026
31
0.0000000000
11
326.7472405902
21
-140.2591698676
31
0.0000000000
11
327.7786212355
21
-139.6355279456
31
0.0000000000
11
328.7272583641
21
-138.8922438051
31
0.0000000000
11
329.5793874127
21
-138.0401174974
31
0.0000000000
11
330.3226734184
21
-137.0914844762
31
0.0000000000
11
330.9463183167
21
-136.0601070223
31
0.0000000000
11
331.4413218789
21
-134.9607758409
31
0.0000000000
11
331.8004195126
21
-133.8094138473
31
0.0000000000
11
332.0182910623
21
-132.6228553480
31
0.0000000000
11
332.0917259213
21
-131.4181242543
31
0.0000000000
0
SPLINE
5
3B8
100
AcDbEntity
8
0
100
AcDbSpline
62
9
6
CONTINUOUS
70
0
71
3
72
20
73
16
74
14
42
0.0000001000
43
0.0000001000
44
0.0000000001
12
0.0086909131
22
-15.6760194484
32
0.0000000000
13
15.6760194535
23
-0.0086817074
33
0.0000000000
40
0.0000000000
40
0.0000000000
40
0.0000000000
40
0.0000000000
40
0.0769928633
40
0.1539510616
40
0.2308879306
40
0.3077973107
40
0.3846835136
40
0.4615620001
40
0.5384367666
40
0.6153151202
40
0.6922012471
40
0.7691107951
40
0.8460475340
40
0.9230055205
40
1.0000000000
40
1.0000000000
40
1.0000000000
40
1.0000000000
10
48.5429223123
20
-131.4181115363
30
0.0000000000
10
48.5431453584
20
-131.8204254106
30
0.0000000000
10
48.5921837923
20
-132.6256916505
30
0.0000000000
10
48.8105860763
20
-133.8150674392
30
0.0000000000
10
49.1705316364
20
-134.9692452050
30
0.0000000000
10
49.6667358574
20
-136.0712651751
30
0.0000000000
10
50.2919315405
20
-137.1052314090
30
0.0000000000
10
51.0370351838
20
-138.0561956711
30
0.0000000000
10
51.8912631227
20
-138.9104263586
30
0.0000000000
10
52.8422240419
20
-139.6555324753
30
0.0000000000
10
53.8761879077
20
-140.2807316551
30
0.0000000000
10
54.9782060187
20
-140.7769395238
30
0.0000000000
10
56.1323816915
20
-141.1368888262
30
0.0000000000
10
57.3217632158
20
-141.3552962059
30
0.0000000000
10
58.1270367859
20
-141.4043382246
30
0.0000000000
10
58.5293591055
20
-141.4045610391
30
0.0000000000
11
48.5429223123
21
-131.4181115363
31
0.0000000000
11
48.6163525771
21
-132.6228175273
31
0.0000000000
11
48.8342204058
21
-133.8093800861
31
0.0000000000
11
49.1933147573
21
-134.9607452393
31
0.0000000000
11
49.6883134923
21
-136.0600757080
31
0.0000000000
11
50.3119554142
21
-137.0914563534
31
0.0000000000
11
51.0552395548
21
-138.0400934819
31
0.0000000000
11
51.9073658625
21
-138.8922225305
31
0.0000000000
11
52.8559988837
21
-139.6355085362
31
0.0000000000
11
53.8873763376
21
-140.2591534345
31
0.0000000000
11
54.9867075189
21
-140.7541569967
31
0.0000000000
11
56.1380695125
21
-141.1132546304
31
0.0000000000
11
57.3246280118
21
-141.3311261801
31
0.0000000000
11
58.5293591055
21
-141.4045610391
31
0.0000000000
0
SPLINE
5
3B9
100
AcDbEntity
8
0
100
AcDbSpline
62
9
6
CONTINUOUS
70
0
71
3
72
20
73
16
74
14
42
0.0000001000
43
0.0000001000
44
0.0000000001
12
-0.0086909131
22
15.6760194484
32
0.0000000000
13
-15.6760194535
23
0.0086817074
33
0.0000000000
40
0.0000000000
40
0.0000000000
40
0.0000000000
40
0.0000000000
40
0.0769928633
40
0.1539510616
40
0.2308879306
40
0.3077973107
40
0.3846835136
40
0.4615620001
40
0.5384367666
40
0.6153151202
40
0.6922012471
40
0.7691107951
40
0.8460475340
40
0.9230055205
40
1.0000000000
40
1.0000000000
40
1.0000000000
40
1.0000000000
10
332.0917259298
20
132.1577930586
30
0.0000000000
10
332.0915028837
20
132.5601069329
30
0.0000000000
10
332.0424644498
20
133.3653731729
30
0.0000000000
10
331.8240621658
20
134.5547489615
30
0.0000000000
10
331.4641166057
20
135.7089267273
30
0.0000000000
10
330.9679123847
20
136.8109466974
30
0.0000000000
10
330.3427167015
20
137.8449129314
30
0.0000000000
10
329.5976130583
20
138.7958771934
30
0.0000000000
10
328.7433851194
20
139.6501078809
30
0.0000000000
10
327.7924242002
20
140.3952139976
30
0.0000000000
10
326.7584603343
20
141.0204131774
30
0.0000000000
10
325.6564422234
20
141.5166210461
30
0.0000000000
10
324.5022665506
20
141.8765703485
30
0.0000000000
10
323.3128850263
20
142.0949777282
30
0.0000000000
10
322.5076114561
20
142.1440197469
30
0.0000000000
10
322.1052891365
20
142.1442425614
30
0.0000000000
11
332.0917259298
21
132.1577930586
31
0.0000000000
11
332.0182956650
21
133.3624990497
31
0.0000000000
11
331.8004278363
21
134.5490616084
31
0.0000000000
11
331.4413334848
21
135.7004267617
31
0.0000000000
11
330.9463347498
21
136.7997572304
31
0.0000000000
11
330.3226928278
21
137.8311378757
31
0.0000000000
11
329.5794086873
21
138.7797750042
31
0.0000000000
11
328.7272823796
21
139.6319040529
31
0.0000000000
11
327.7786493584
21
140.3751900585
31
0.0000000000
11
326.7472719045
21
140.9988349568
31
0.0000000000
11
325.6479407231
21
141.4938385191
31
0.0000000000
11
324.4965787295
21
141.8529361527
31
0.0000000000
11
323.3100202302
21
142.0708077025
31
0.0000000000
11
322.1052891365
21
142.1442425614
31
0.0000000000
0
SPLINE
5
3BA
100
AcDbEntity
8
0
100
AcDbSpline
62
9
6
CONTINUOUS
70
0
71
3
72
20
73
16
74
14
42
0.0000001000
43
0.0000001000
44
0.0000000001
12
-15.6760194484
22
-0.0086909131
32
0.0000000000
13
-0.0086817074
23
-15.6760194535
33
0.0000000000
40
0.0000000000
40
0.0000000000
40
0.0000000000
40
0.0000000000
40
0.0769928633
40
0.1539510616
40
0.2308879306
40
0.3077973107
40
0.3846835136
40
0.4615620001
40
0.5384367666
40
0.6153151202
40
0.6922012471
40
0.7691107951
40
0.8460475340
40
0.9230055205
40
1.0000000000
40
1.0000000000
40
1.0000000000
40
1.0000000000
10
58.5293718236
20
142.1442425699
30
0.0000000000
10
58.1270579493
20
142.1440195238
30
0.0000000000
10
57.3217917093
20
142.0949810899
30
0.0000000000
10
56.1324159207
20
141.8765788059
30
0.0000000000
10
54.9782381549
20
141.5166332458
30
0.0000000000
10
53.8762181848
20
141.0204290248
30
0.0000000000
10
52.8422519508
20
140.3952333417
30
0.0000000000
10
51.8912876888
20
139.6501296984
30
0.0000000000
10
51.0370570013
20
138.7959017595
30
0.0000000000
10
50.2919508846
20
137.8449408403
30
0.0000000000
10
49.6667517048
20
136.8109769745
30
0.0000000000
10
49.1705438361
20
135.7089588635
30
0.0000000000
10
48.8105945337
20
134.5547831907
30
0.0000000000
10
48.5921871540
20
133.3654016664
30
0.0000000000
10
48.5431451353
20
132.5601280963
30
0.0000000000
10
48.5429223208
20
132.1578057766
30
0.0000000000
11
58.5293718236
21
142.1442425699
31
0.0000000000
11
57.3246658325
21
142.0708123051
31
0.0000000000
11
56.1381032738
21
141.8529444764
31
0.0000000000
11
54.9867381205
21
141.4938501249
31
0.0000000000
11
53.8874076518
21
140.9988513899
31
0.0000000000
11
52.8560270065
21
140.3752094680
31
0.0000000000
11
51.9073898780
21
139.6319253274
31
0.0000000000
11
51.0552608293
21
138.7797990197
31
0.0000000000
11
50.3119748237
21
137.8311659985
31
0.0000000000
11
49.6883299254
21
136.7997885446
31
0.0000000000
11
49.1933263631
21
135.7004573633
31
0.0000000000
11
48.8342287295
21
134.5490953696
31
0.0000000000
11
48.6163571797
21
133.3625368704
31
0.0000000000
11
48.5429223208
21
132.1578057766
31
0.0000000000
0
SPLINE
5
3BB
100
AcDbEntity
8
0
100
AcDbSpline
62
9
6
CONTINUOUS
70
0
71
3
72
20
73
16
74
14
42
0.0000001000
43
0.0000001000
44
0.0000000001
12
-0.0004053108
22
12.5430624418
32
0.0000000000
13
-12.5430624426
23
0.0003795400
33
0.0000000000
40
0.0000000000
40
0.0000000000
40
0.0000000000
40
0.0000000000
40
0.0769882532
40
0.1539610854
40
0.2309040676
40
0.3078124879
40
0.3846925040
40
0.4615617715
40
0.5384266891
40
0.6152969478
40
0.6921781992
40
0.7690880317
40
0.8460320680
40
0.9230058017
40
1.0000000000
40
1.0000000000
40
1.0000000000
40
1.0000000000
10
330.0944667560
20
132.1579471181
30
0.0000000000
10
330.0944563547
20
132.4798366072
30
0.0000000000
10
330.0555821837
20
133.1242279231
30
0.0000000000
10
329.8813277876
20
134.0760615619
30
0.0000000000
10
329.5937435459
20
134.9997907617
30
0.0000000000
10
329.1970513036
20
135.8817184974
30
0.0000000000
10
328.6970671783
20
136.7091231864
30
0.0000000000
10
328.1010505387
20
137.4700385875
30
0.0000000000
10
327.4176277274
20
138.1534739933
30
0.0000000000
10
326.6567153089
20
138.7495096523
30
0.0000000000
10
325.8293055110
20
139.2495150324
30
0.0000000000
10
324.9473687162
20
139.6462250083
30
0.0000000000
10
324.0236297009
20
139.9338257242
30
0.0000000000
10
323.0717648346
20
140.1080932733
30
0.0000000000
10
322.4273448235
20
140.1469736554
30
0.0000000000
10
322.1054304780
20
140.1469833962
30
0.0000000000
11
330.0944667560
21
132.1579471181
31
0.0000000000
11
330.0362458370
21
133.1218588952
31
0.0000000000
11
329.8623955282
21
134.0715525954
31
0.0000000000
11
329.5754847593
21
134.9930195994
31
0.0000000000
11
329.1797577993
21
135.8727825352
31
0.0000000000
11
328.6810198280
21
136.6981041915
31
0.0000000000
11
328.0864667739
21
137.4571444198
31
0.0000000000
11
327.4047362027
21
138.1388874961
31
0.0000000000
11
326.6456965959
21
138.7334615061
31
0.0000000000
11
325.8203695717
21
139.2322205523
31
0.0000000000
11
324.9405958034
21
139.6279666096
31
0.0000000000
11
324.0191196687
21
139.9148925274
31
0.0000000000
11
323.0694164149
21
140.0887534484
31
0.0000000000
11
322.1054304780
21
140.1469833962
31
0.0000000000
0
SPLINE
5
3BC
100
AcDbEntity
8
0
100
AcDbSpline
62
9
6
CONTINUOUS
70
0
71
3
72
20
73
16
74
14
42
0.0000001000
43
0.0000001000
44
0.0000000001
12
12.5430624418
22
0.0004053108
32
0.0000000000
13
0.0003795400
23
12.5430624426
33
0.0000000000
40
0.0000000000
40
0.0000000000
40
0.0000000000
40
0.0000000000
40
0.0769882532
40
0.1539610854
40
0.2309040676
40
0.3078124879
40
0.3846925040
40
0.4615617715
40
0.5384266891
40
0.6152969478
40
0.6921781992
40
0.7690880317
40
0.8460320680
40
0.9230058017
40
1.0000000000
40
1.0000000000
40
1.0000000000
40
1.0000000000
10
322.1054304780
20
-139.4073018739
30
0.0000000000
10
322.4273199671
20
-139.4072914725
30
0.0000000000
10
323.0717112829
20
-139.3684173015
30
0.0000000000
10
324.0235449217
20
-139.1941629054
30
0.0000000000
10
324.9472741216
20
-138.9065786637
30
0.0000000000
10
325.8292018573
20
-138.5098864214
30
0.0000000000
10
326.6566065463
20
-138.0099022961
30
0.0000000000
10
327.4175219474
20
-137.4138856565
30
0.0000000000
10
328.1009573532
20
-136.7304628452
30
0.0000000000
10
328.6969930121
20
-135.9695504267
30
0.0000000000
10
329.1969983922
20
-135.1421406288
30
0.0000000000
10
329.5937083682
20
-134.2602038340
30
0.0000000000
10
329.8813090840
20
-133.3364648187
30
0.0000000000
10
330.0555766332
20
-132.3845999524
30
0.0000000000
10
330.0944570153
20
-131.7401799413
30
0.0000000000
10
330.0944667560
20
-131.4182655958
30
0.0000000000
11
322.1054304780
21
-139.4073018739
31
0.0000000000
11
323.0693422551
21
-139.3490809548
31
0.0000000000
11
324.0190359553
21
-139.1752306460
31
0.0000000000
11
324.9405029593
21
-138.8883198771
31
0.0000000000
11
325.8202658951
21
-138.4925929171
31
0.0000000000
11
326.6455875514
21
-137.9938549458
31
0.0000000000
11
327.4046277797
21
-137.3993018917
31
0.0000000000
11
328.0863708560
21
-136.7175713205
31
0.0000000000
11
328.6809448660
21
-135.9585317137
31
0.0000000000
11
329.1797039122
21
-135.1332046895
31
0.0000000000
11
329.5754499695
21
-134.2534309212
31
0.0000000000
11
329.8623758872
21
-133.3319547865
31
0.0000000000
11
330.0362368083
21
-132.3822515327
31
0.0000000000
11
330.0944667560
21
-131.4182655958
31
0.0000000000
0
SPLINE
5
3BD
100
AcDbEntity
8
0
100
AcDbSpline
62
9
6
CONTINUOUS
70
0
71
3
72
20
73
16
74
14
42
0.0000001000
43
0.0000001000
44
0.0000000001
12
0.0004053108
22
-12.5430624418
32
0.0000000000
13
12.5430624426
23
-0.0003795400
33
0.0000000000
40
0.0000000000
40
0.0000000000
40
0.0000000000
40
0.0000000000
40
0.0769882532
40
0.1539610854
40
0.2309040676
40
0.3078124879
40
0.3846925040
40
0.4615617715
40
0.5384266891
40
0.6152969478
40
0.6921781992
40
0.7690880317
40
0.8460320680
40
0.9230058017
40
1.0000000000
40
1.0000000000
40
1.0000000000
40
1.0000000000
10
50.5401814860
20
-131.4182655958
30
0.0000000000
10
50.5401918874
20
-131.7401550849
30
0.0000000000
10
50.5790660584
20
-132.3845464008
30
0.0000000000
10
50.7533204545
20
-133.3363800395
30
0.0000000000
10
51.0409046962
20
-134.2601092394
30
0.0000000000
10
51.4375969385
20
-135.1420369751
30
0.0000000000
10
51.9375810638
20
-135.9694416641
30
0.0000000000
10
52.5335977033
20
-136.7303570652
30
0.0000000000
10
53.2170205146
20
-137.4137924710
30
0.0000000000
10
53.9779329332
20
-138.0098281300
30
0.0000000000
10
54.8053427311
20
-138.5098335100
30
0.0000000000
10
55.6872795259
20
-138.9065434860
30
0.0000000000
10
56.6110185412
20
-139.1941442018
30
0.0000000000
10
57.5628834074
20
-139.3684117510
30
0.0000000000
10
58.2073034186
20
-139.4072921331
30
0.0000000000
10
58.5292177641
20
-139.4073018739
30
0.0000000000
11
50.5401814860
21
-131.4182655958
31
0.0000000000
11
50.5984024051
21
-132.3821773729
31
0.0000000000
11
50.7722527139
21
-133.3318710731
31
0.0000000000
11
51.0591634828
21
-134.2533380771
31
0.0000000000
11
51.4548904428
21
-135.1331010129
31
0.0000000000
11
51.9536284141
21
-135.9584226692
31
0.0000000000
11
52.5481814681
21
-136.7174628975
31
0.0000000000
11
53.2299120393
21
-137.3992059738
31
0.0000000000
11
53.9889516461
21
-137.9937799838
31
0.0000000000
11
54.8142786703
21
-138.4925390300
31
0.0000000000
11
55.6940524387
21
-138.8882850873
31
0.0000000000
11
56.6155285734
21
-139.1752110051
31
0.0000000000
11
57.5652318272
21
-139.3490719261
31
0.0000000000
11
58.5292177641
21
-139.4073018739
31
0.0000000000
0
SPLINE
5
3BE
100
AcDbEntity
8
0
100
AcDbSpline
62
9
6
CONTINUOUS
70
0
71
3
72
20
73
16
74
14
42
0.0000001000
43
0.0000001000
44
0.0000000001
12
-12.5430624418
22
-0.0004053108
32
0.0000000000
13
-0.0003795400
23
-12.5430624426
33
0.0000000000
40
0.0000000000
40
0.0000000000
40
0.0000000000
40
0.0000000000
40
0.0769882532
40
0.1539610854
40
0.2309040676
40
0.3078124879
40
0.3846925040
40
0.4615617715
40
0.5384266891
40
0.6152969478
40
0.6921781992
40
0.7690880317
40
0.8460320680
40
0.9230058017
40
1.0000000000
40
1.0000000000
40
1.0000000000
40
1.0000000000
10
58.5292177641
20
140.1469833962
30
0.0000000000
10
58.2073282750
20
140.1469729948
30
0.0000000000
10
57.5629369591
20
140.1080988238
30
0.0000000000
10
56.6111033203
20
139.9338444277
30
0.0000000000
10
55.6873741205
20
139.6462601860
30
0.0000000000
10
54.8054463848
20
139.2495679437
30
0.0000000000
10
53.9780416958
20
138.7495838184
30
0.0000000000
10
53.2171262947
20
138.1535671788
30
0.0000000000
10
52.5336908889
20
137.4701443675
30
0.0000000000
10
51.9376552299
20
136.7092319490
30
0.0000000000
10
51.4376498498
20
135.8818221511
30
0.0000000000
10
51.0409398739
20
134.9998853563
30
0.0000000000
10
50.7533391580
20
134.0761463410
30
0.0000000000
10
50.5790716089
20
133.1242814748
30
0.0000000000
10
50.5401912268
20
132.4798614636
30
0.0000000000
10
50.5401814860
20
132.1579471181
30
0.0000000000
11
58.5292177641
21
140.1469833962
31
0.0000000000
11
57.5653059870
21
140.0887624771
31
0.0000000000
11
56.6156122868
21
139.9149121683
31
0.0000000000
11
55.6941452828
21
139.6280013994
31
0.0000000000
11
54.8143823470
21
139.2322744394
31
0.0000000000
11
53.9890606906
21
138.7335364681
31
0.0000000000
11
53.2300204624
21
138.1389834141
31
0.0000000000
11
52.5482773860
21
137.4572528429
31
0.0000000000
11
51.9537033761
21
136.6982132361
31
0.0000000000
11
51.4549443299
21
135.8728862119
31
0.0000000000
11
51.0591982726
21
134.9931124435
31
0.0000000000
11
50.7722723548
21
134.0716363088
31
0.0000000000
11
50.5984114338
21
133.1219330550
31
0.0000000000
11
50.5401814860
21
132.1579471181
31
0.0000000000
0
SPLINE
5
3BF
100
AcDbEntity
8
0
100
AcDbSpline
62
9
6
CONTINUOUS
70
0
71
3
72
20
73
16
74
14
42
0.0000001000
43
0.0000001000
44
0.0000000001
12
-9.9732852488
22
0.5307112053
32
0.0000000000
13
0.1041937841
23
9.9873819920
33
0.0000000000
40
0.0000000000
40
0.0000000000
40
0.0000000000
40
0.0000000000
40
0.0074461614
40
0.0292827535
40
0.0652451276
40
0.1148088643
40
0.1772499026
40
0.2516684824
40
0.3369841277
40
0.4319623535
40
0.5352256621
40
0.6452934908
40
0.7605718515
40
0.8793754576
40
1.0000000000
40
1.0000000000
40
1.0000000000
40
1.0000000000
10
-178.4224447514
20
-141.4045609636
30
0.0000000000
10
-178.4471989821
20
-141.4032437098
30
0.0000000000
10
-178.4149987698
20
-141.2516043514
30
0.0000000000
10
-178.4613167298
20
-141.0862434126
30
0.0000000000
10
-178.4473482862
20
-140.6998549080
30
0.0000000000
10
-178.4624271595
20
-140.2198187355
30
0.0000000000
10
-178.4628787136
20
-139.5944062936
30
0.0000000000
10
-178.4660540768
20
-138.8563799933
30
0.0000000000
10
-178.4655251062
20
-138.0078151755
30
0.0000000000
10
-178.4634306504
20
-137.0639405144
30
0.0000000000
10
-178.4590938995
20
-136.0374394846
30
0.0000000000
10
-178.4527843620
20
-134.9434304715
30
0.0000000000
10
-178.4445247348
20
-133.7976745435
30
0.0000000000
10
-178.4344466698
20
-132.6167911279
30
0.0000000000
10
-178.4266327808
20
-131.8196987153
30
0.0000000000
10
-178.4224433383
20
-131.4181242543
30
0.0000000000
11
-178.4224447514
21
-141.4045609636
31
0.0000000000
11
-178.4342491898
21
-141.3311307828
31
0.0000000000
11
-178.4443587108
21
-141.1132629541
31
0.0000000000
11
-178.4526262897
21
-140.7541686026
31
0.0000000000
11
-178.4589329083
21
-140.2591698676
31
0.0000000000
11
-178.4631878552
21
-139.6355279456
31
0.0000000000
11
-178.4653308105
21
-138.8922438051
31
0.0000000000
11
-178.4653308146
21
-138.0401174974
31
0.0000000000
11
-178.4631878835
21
-137.0914844762
31
0.0000000000
11
-178.4589329673
21
-136.0601070223
31
0.0000000000
11
-178.4526263867
21
-134.9607758409
31
0.0000000000
11
-178.4443588490
21
-133.8094138473
31
0.0000000000
11
-178.4342494476
21
-132.6228553480
31
0.0000000000
11
-178.4224433383
21
-131.4181242543
31
0.0000000000
0
SPLINE
5
3C0
100
AcDbEntity
8
0
100
AcDbSpline
62
9
6
CONTINUOUS
70
0
71
3
72
20
73
16
74
14
42
0.0000001000
43
0.0000001000
44
0.0000000001
12
-0.1041859071
22
9.9873963115
32
0.0000000000
13
9.9738958214
23
0.5294732572
33
0.0000000000
40
0.0000000000
40
0.0000000000
40
0.0000000000
40
0.0000000000
40
0.1206218572
40
0.2394257005
40
0.3547042133
40
0.4647718138
40
0.5680352947
40
0.6630137963
40
0.7483295945
40
0.8227482549
40
0.8851895022
40
0.9347536514
40
0.9707163027
40
0.9925532352
40
1.0000000000
40
1.0000000000
40
1.0000000000
40
1.0000000000
10
-178.4224431722
20
132.1577930586
30
0.0000000000
10
-178.4266322048
20
132.5593591560
30
0.0000000000
10
-178.4344466837
20
133.3564445480
30
0.0000000000
10
-178.4445245655
20
134.5373220047
30
0.0000000000
10
-178.4527842555
20
135.6830801016
30
0.0000000000
10
-178.4590938530
20
136.7770909933
30
0.0000000000
10
-178.4634306221
20
137.8035942215
30
0.0000000000
10
-178.4655251042
20
138.7474722190
30
0.0000000000
10
-178.4660540813
20
139.5960399730
30
0.0000000000
10
-178.4628787201
20
140.3340687048
30
0.0000000000
10
-178.4624272605
20
140.9594846594
30
0.0000000000
10
-178.4473481803
20
141.4395237003
30
0.0000000000
10
-178.4613173102
20
141.8259181277
30
0.0000000000
10
-178.4149976013
20
141.9912792281
30
0.0000000000
10
-178.4472010903
20
142.1429282738
30
0.0000000000
10
-178.4224433383
20
142.1442425614
30
0.0000000000
11
-178.4224431722
21
132.1577930586
31
0.0000000000
11
-178.4342491898
21
133.3624990497
31
0.0000000000
11
-178.4443587108
21
134.5490616084
31
0.0000000000
11
-178.4526262897
21
135.7004267617
31
0.0000000000
11
-178.4589329083
21
136.7997572304
31
0.0000000000
11
-178.4631878552
21
137.8311378757
31
0.0000000000
11
-178.4653308105
21
138.7797750042
31
0.0000000000
11
-178.4653308146
21
139.6319040529
31
0.0000000000
11
-178.4631878835
21
140.3751900585
31
0.0000000000
11
-178.4589329673
21
140.9988349568
31
0.0000000000
11
-178.4526263867
21
141.4938385191
31
0.0000000000
11
-178.4443588490
21
141.8529361527
31
0.0000000000
11
-178.4342494476
21
142.0708077025
31
0.0000000000
11
-178.4224433383
21
142.1442425614
31
0.0000000000
0
SPLINE
5
3C1
100
AcDbEntity
8
0
100
AcDbSpline
62
9
6
CONTINUOUS
70
0
71
3
72
29
73
25
74
23
42
0.0000001000
43
0.0000001000
44
0.0000000001
12
-0.0139623105
22
-0.8001439468
32
0.0000000000
13
0.8001438725
23
-0.0139665632
33
0.0000000000
40
0.0000000000
40
0.0000000000
40
0.0000000000
40
0.0000000000
40
0.0713009228
40
0.1422372137
40
0.2124476506
40
0.2815747121
40
0.3492664010
40
0.4151780395
40
0.4789740278
40
0.5403295573
40
0.5989322701
40
0.6544838564
40
0.7067015834
40
0.7553197483
40
0.8000910526
40
0.8407878922
40
0.8772035693
40
0.9091534354
40
0.9364760040
40
0.9590341326
40
0.9767165890
40
0.9894411935
40
0.9971662029
40
1.0000000000
40
1.0000000000
40
1.0000000000
40
1.0000000000
10
-172.1526780837
20
-134.5503907781
30
0.0000000000
10
-172.1530099256
20
-134.5694077787
30
0.0000000000
10
-172.1536483344
20
-134.6073449429
30
0.0000000000
10
-172.1545310754
20
-134.6640096084
30
0.0000000000
10
-172.1553336311
20
-134.7200955199
30
0.0000000000
10
-172.1560519278
20
-134.7753169877
30
0.0000000000
10
-172.1566823285
20
-134.8293927265
30
0.0000000000
10
-172.1572216519
20
-134.8820472874
30
0.0000000000
10
-172.1576671912
20
-134.9330124606
30
0.0000000000
10
-172.1580167310
20
-134.9820286443
30
0.0000000000
10
-172.1582685610
20
-135.0288461586
30
0.0000000000
10
-172.1584214988
20
-135.0732265491
30
0.0000000000
10
-172.1584748801
20
-135.1149436940
30
0.0000000000
10
-172.1584286658
20
-135.1537853271
30
0.0000000000
10
-172.1582831748
20
-135.1895528855
30
0.0000000000
10
-172.1580400917
20
-135.2220665934
30
0.0000000000
10
-172.1576994281
20
-135.2511532804
30
0.0000000000
10
-172.1572694678
20
-135.2766885503
30
0.0000000000
10
-172.1567371387
20
-135.2984714605
30
0.0000000000
10
-172.1561566607
20
-135.3165958942
30
0.0000000000
10
-172.1554065889
20
-135.3304200601
30
0.0000000000
10
-172.1548261786
20
-135.3412271575
30
0.0000000000
10
-172.1538011611
20
-135.3462136332
30
0.0000000000
10
-172.1534338989
20
-135.3502557414
30
0.0000000000
10
-172.1526780837
20
-135.3502689342
30
0.0000000000
11
-172.1526780837
21
-134.5503907781
31
0.0000000000
11
-172.1536380604
21
-134.6074423891
31
0.0000000000
11
-172.1545220279
21
-134.6642033908
31
0.0000000000
11
-172.1553254836
21
-134.7203846544
31
0.0000000000
11
-172.1560443348
21
-134.7757000039
31
0.0000000000
11
-172.1566749198
21
-134.8298676742
31
0.0000000000
11
-172.1572140265
21
-134.8826117464
31
0.0000000000
11
-172.1576589088
21
-134.9336635528
31
0.0000000000
11
-172.1580073007
21
-134.9827630461
31
0.0000000000
11
-172.1582574274
21
-135.0296601234
31
0.0000000000
11
-172.1584080149
21
-135.0741159006
31
0.0000000000
11
-172.1584582961
21
-135.1159039291
31
0.0000000000
11
-172.1584080149
21
-135.1548113492
31
0.0000000000
11
-172.1582574274
21
-135.1906399745
31
0.0000000000
11
-172.1580073007
21
-135.2232073011
31
0.0000000000
11
-172.1576589088
21
-135.2523474380
31
0.0000000000
11
-172.1572140265
21
-135.2779119511
31
0.0000000000
11
-172.1566749198
21
-135.2997706200
31
0.0000000000
11
-172.1560443348
21
-135.3178121012
31
0.0000000000
11
-172.1553254836
21
-135.3319444950
31
0.0000000000
11
-172.1545220279
21
-135.3420958139
31
0.0000000000
11
-172.1536380604
21
-135.3482143491
31
0.0000000000
11
-172.1526780837
21
-135.3502689342
31
0.0000000000
0
SPLINE
5
3C2
100
AcDbEntity
8
0
100
AcDbSpline
62
9
6
CONTINUOUS
70
0
71
3
72
29
73
25
74
23
42
0.0000001000
43
0.0000001000
44
0.0000000001
12
-0.0139623106
22
0.8001439468
32
0.0000000000
13
0.8001438725
23
0.0139665633
33
0.0000000000
40
0.0000000000
40
0.0000000000
40
0.0000000000
40
0.0000000000
40
0.0713009205
40
0.1422372095
40
0.2124476448
40
0.2815747050
40
0.3492663929
40
0.4151780307
40
0.4789740186
40
0.5403295480
40
0.5989322610
40
0.6544838478
40
0.7067015753
40
0.7553197411
40
0.8000910462
40
0.8407878869
40
0.8772035650
40
0.9091534321
40
0.9364760015
40
0.9590341310
40
0.9767165881
40
0.9894411930
40
0.9971662028
40
1.0000000000
40
1.0000000000
40
1.0000000000
40
1.0000000000
10
-172.1526780837
20
135.2900723004
30
0.0000000000
10
-172.1530099256
20
135.3090893004
30
0.0000000000
10
-172.1536483344
20
135.3470264635
30
0.0000000000
10
-172.1545310754
20
135.4036911274
30
0.0000000000
10
-172.1553336310
20
135.4597770377
30
0.0000000000
10
-172.1560519278
20
135.5149985043
30
0.0000000000
10
-172.1566823284
20
135.5690742423
30
0.0000000000
10
-172.1572216519
20
135.6217288027
30
0.0000000000
10
-172.1576671912
20
135.6726939756
30
0.0000000000
10
-172.1580167310
20
135.7217101593
30
0.0000000000
10
-172.1582685610
20
135.7685276737
30
0.0000000000
10
-172.1584214988
20
135.8129080646
30
0.0000000000
10
-172.1584748801
20
135.8546252099
30
0.0000000000
10
-172.1584286658
20
135.8934668436
30
0.0000000000
10
-172.1582831748
20
135.9292344028
30
0.0000000000
10
-172.1580400918
20
135.9617481114
30
0.0000000000
10
-172.1576994282
20
135.9908347992
30
0.0000000000
10
-172.1572694678
20
136.0163700699
30
0.0000000000
10
-172.1567371388
20
136.0381529808
30
0.0000000000
10
-172.1561566608
20
136.0562774152
30
0.0000000000
10
-172.1554065889
20
136.0701015816
30
0.0000000000
10
-172.1548261786
20
136.0809086795
30
0.0000000000
10
-172.1538011612
20
136.0858951553
30
0.0000000000
10
-172.1534338989
20
136.0899372637
30
0.0000000000
10
-172.1526780837
20
136.0899504565
30
0.0000000000
11
-172.1526780837
21
135.2900723004
31
0.0000000000
11
-172.1536380604
21
135.3471239096
31
0.0000000000
11
-172.1545220279
21
135.4038849098
31
0.0000000000
11
-172.1553254836
21
135.4600661720
31
0.0000000000
11
-172.1560443347
21
135.5153815205
31
0.0000000000
11
-172.1566749197
21
135.5695491900
31
0.0000000000
11
-172.1572140264
21
135.6222932616
31
0.0000000000
11
-172.1576589088
21
135.6733450678
31
0.0000000000
11
-172.1580073007
21
135.7224445610
31
0.0000000000
11
-172.1582574274
21
135.7693416385
31
0.0000000000
11
-172.1584080149
21
135.8137974160
31
0.0000000000
11
-172.1584582962
21
135.8555854450
31
0.0000000000
11
-172.1584080150
21
135.8944928657
31
0.0000000000
11
-172.1582574275
21
135.9303214917
31
0.0000000000
11
-172.1580073008
21
135.9628888192
31
0.0000000000
11
-172.1576589089
21
135.9920289568
31
0.0000000000
11
-172.1572140266
21
136.0175934707
31
0.0000000000
11
-172.1566749198
21
136.0394521403
31
0.0000000000
11
-172.1560443349
21
136.0574936222
31
0.0000000000
11
-172.1553254837
21
136.0716260165
31
0.0000000000
11
-172.1545220280
21
136.0817773358
31
0.0000000000
11
-172.1536380604
21
136.0878958714
31
0.0000000000
11
-172.1526780837
21
136.0899504565
31
0.0000000000
0
SPLINE
5
3C3
100
AcDbEntity
8
0
100
AcDbSpline
62
9
6
CONTINUOUS
70
0
71
3
72
25
73
21
74
19
42
0.0000001000
43
0.0000001000
44
0.0000000001
12
1.4643926012
22
-0.0255610679
32
0.0000000000
13
-0.0149721531
23
-1.4645391403
33
0.0000000000
40
0.0000000000
40
0.0000000000
40
0.0000000000
40
0.0000000000
40
0.0034217495
40
0.0132191219
40
0.0294644215
40
0.0521402689
40
0.0812080866
40
0.1166146418
40
0.1582937009
40
0.2061666390
40
0.2601428104
40
0.3201198164
40
0.3859837540
40
0.4576094575
40
0.5348607667
40
0.6175907700
40
0.7056421353
40
0.7988473166
40
0.8970287974
40
1.0000000000
40
1.0000000000
40
1.0000000000
40
1.0000000000
10
-59.0305112387
20
119.8609851300
30
0.0000000000
10
-59.0288409771
20
119.8609559755
30
0.0000000000
10
-59.0294067332
20
119.8511480957
30
0.0000000000
10
-59.0268198753
20
119.8400216405
30
0.0000000000
10
-59.0266143043
20
119.8144400562
30
0.0000000000
10
-59.0253229992
20
119.7820601596
30
0.0000000000
10
-59.0247001400
20
119.7392085034
30
0.0000000000
10
-59.0240467641
20
119.6874990421
30
0.0000000000
10
-59.0236341521
20
119.6264566876
30
0.0000000000
10
-59.0233724859
20
119.5563984836
30
0.0000000000
10
-59.0232950102
20
119.4773900432
30
0.0000000000
10
-59.0233925765
20
119.3896036621
30
0.0000000000
10
-59.0236688133
20
119.2931993760
30
0.0000000000
10
-59.0241225799
20
119.1883627922
30
0.0000000000
10
-59.0247535966
20
119.0752927368
30
0.0000000000
10
-59.0255607685
20
118.9542045682
30
0.0000000000
10
-59.0265427347
20
118.8253286763
30
0.0000000000
10
-59.0276977290
20
118.6889104473
30
0.0000000000
10
-59.0290236402
20
118.5452095049
30
0.0000000000
10
-59.0299973385
20
118.4470105333
30
0.0000000000
10
-59.0305112387
20
118.3967420812
30
0.0000000000
11
-59.0305112387
21
119.8609851300
31
0.0000000000
11
-59.0290181981
21
119.8562011523
31
0.0000000000
11
-59.0276940248
21
119.8419129957
31
0.0000000000
11
-59.0265412662
21
119.8181478170
31
0.0000000000
11
-59.0255621177
21
119.7849508524
31
0.0000000000
11
-59.0247584422
21
119.7423852576
31
0.0000000000
11
-59.0241317695
21
119.6905320487
31
0.0000000000
11
-59.0236832920
21
119.6294898930
31
0.0000000000
11
-59.0234138632
21
119.5593749554
31
0.0000000000
11
-59.0233239957
21
119.4803206601
31
0.0000000000
11
-59.0234138607
21
119.3924774433
31
0.0000000000
11
-59.0236832870
21
119.2960124645
31
0.0000000000
11
-59.0241317620
21
119.1911092954
31
0.0000000000
11
-59.0247584322
21
119.0779675530
31
0.0000000000
11
-59.0255621051
21
118.9568025593
31
0.0000000000
11
-59.0265412514
21
118.8278448670
31
0.0000000000
11
-59.0276940071
21
118.6913399653
31
0.0000000000
11
-59.0290181754
21
118.5475479270
31
0.0000000000
11
-59.0305112387
21
118.3967420812
31
0.0000000000
0
SPLINE
5
3C4
100
AcDbEntity
8
0
100
AcDbSpline
62
9
6
CONTINUOUS
70
0
71
3
72
42
73
38
74
36
42
0.0000001000
43
0.0000001000
44
0.0000000001
12
0.0000000000
22
6.6654048507
32
0.0000000000
13
-6.6648972060
23
0.0822621254
33
0.0000000000
40
0.0000000000
40
0.0000000000
40
0.0000000000
40
0.0000000000
40
0.0231363564
40
0.0467301022
40
0.0704271441
40
0.0942548063
40
0.1182625500
40
0.1424882135
40
0.1669701742
40
0.1917425405
40
0.2168363455
40
0.2422788513
40
0.2680935602
40
0.2943000940
40
0.3209141928
40
0.3479477461
40
0.3754088697
40
0.4033020145
40
0.4316281007
40
0.4603846719
40
0.4895660618
40
0.5191635712
40
0.5491656500
40
0.5795580832
40
0.6103241771
40
0.6414449453
40
0.6728992939
40
0.7046642040
40
0.7367149117
40
0.7690250857
40
0.8015670022
40
0.8343117173
40
0.8672292366
40
0.9002886832
40
0.9334584629
40
0.9667064022
40
1.0000000000
40
1.0000000000
40
1.0000000000
40
1.0000000000
10
-54.1177732709
20
114.8617466542
30
0.0000000000
10
-54.1177732709
20
114.9131510482
30
0.0000000000
10
-54.1209790181
20
115.0170041721
30
0.0000000000
10
-54.1355227702
20
115.1728999161
30
0.0000000000
10
-54.1599912018
20
115.3291090738
30
0.0000000000
10
-54.1942534150
20
115.4844048069
30
0.0000000000
10
-54.2382334713
20
115.6384527960
30
0.0000000000
10
-54.2918449831
20
115.7909579982
30
0.0000000000
10
-54.3549779275
20
115.9416146808
30
0.0000000000
10
-54.4275053783
20
116.0901265559
30
0.0000000000
10
-54.5092812419
20
116.2362004376
30
0.0000000000
10
-54.6001416903
20
116.3795490179
30
0.0000000000
10
-54.6999051879
20
116.5198906102
30
0.0000000000
10
-54.8083730296
20
116.6569498259
30
0.0000000000
10
-54.9253297069
20
116.7904579507
30
0.0000000000
10
-55.0505433443
20
116.9201534056
30
0.0000000000
10
-55.1837661303
20
117.0457821816
30
0.0000000000
10
-55.3247347769
20
117.1670982815
30
0.0000000000
10
-55.4731710000
20
117.2838641591
30
0.0000000000
10
-55.6287820290
20
117.3958511547
30
0.0000000000
10
-55.7912611449
20
117.5028399244
30
0.0000000000
10
-55.9602882486
20
117.6046208603
30
0.0000000000
10
-56.1355304593
20
117.7009944985
30
0.0000000000
10
-56.3166427427
20
117.7917719126
30
0.0000000000
10
-56.5032685670
20
117.8767750900
30
0.0000000000
10
-56.6950405862
20
117.9558372891
30
0.0000000000
10
-56.8915813477
20
118.0288033755
30
0.0000000000
10
-57.0925040244
20
118.0955301365
30
0.0000000000
10
-57.2974131673
20
118.1558865718
30
0.0000000000
10
-57.5059054759
20
118.2097541597
30
0.0000000000
10
-57.7175705947
20
118.2570270991
30
0.0000000000
10
-57.9319918934
20
118.2976125238
30
0.0000000000
10
-58.1487473744
20
118.3314306937
30
0.0000000000
10
-58.3674101721
20
118.3584151526
30
0.0000000000
10
-58.5875505625
20
118.3785128743
30
0.0000000000
10
-58.8087323411
20
118.3916843325
30
0.0000000000
10
-58.9565451030
20
118.3958291471
30
0.0000000000
10
-59.0305112387
20
118.3967420812
30
0.0000000000
11
-54.1177732709
21
114.8617466542
31
0.0000000000
11
-54.1225273519
21
115.0158865395
31
0.0000000000
11
-54.1371204842
21
115.1724698577
31
0.0000000000
11
-54.1615405013
21
115.3285210824
31
0.0000000000
11
-54.1957260565
21
115.4836193177
31
0.0000000000
11
-54.2396176274
21
115.6375035485
31
0.0000000000
11
-54.2931248841
21
115.7898543916
31
0.0000000000
11
-54.3561439624
21
115.9403768802
31
0.0000000000
11
-54.4285499920
21
116.0887725383
31
0.0000000000
11
-54.5102004653
21
116.2347493566
31
0.0000000000
11
-54.6009343335
21
116.3780193893
31
0.0000000000
11
-54.7005727512
21
116.5183002405
31
0.0000000000
11
-54.8089192808
21
116.6553153443
31
0.0000000000
11
-54.9257603300
21
116.7887945913
31
0.0000000000
11
-55.0508655560
21
116.9184748374
31
0.0000000000
11
-55.1839883251
21
117.0441004294
31
0.0000000000
11
-55.3248661972
21
117.1654237073
31
0.0000000000
11
-55.4732214442
21
117.2822054932
31
0.0000000000
11
-55.6287615971
21
117.3942155622
31
0.0000000000
11
-55.7911800227
21
117.5012330968
31
0.0000000000
11
-55.9601565275
21
117.6030471213
31
0.0000000000
11
-56.1353579896
21
117.6994569186
31
0.0000000000
11
-56.3164390151
21
117.7902724256
31
0.0000000000
11
-56.5030426192
21
117.8753146076
31
0.0000000000
11
-56.6948009296
21
117.9544158115
31
0.0000000000
11
-56.8913359121
21
118.0274200966
31
0.0000000000
11
-57.0922601157
21
118.0941835413
31
0.0000000000
11
-57.2971774363
21
118.1545745276
31
0.0000000000
11
-57.5056838983
21
118.2084740000
31
0.0000000000
11
-57.7173684488
21
118.2557757005
31
0.0000000000
11
-57.9318137712
21
118.2963863780
31
0.0000000000
11
-58.1485971016
21
118.3302259718
31
0.0000000000
11
-58.3672910677
21
118.3572277701
31
0.0000000000
11
-58.5874645213
21
118.3773385411
31
0.0000000000
11
-58.8086832135
21
118.3905186316
31
0.0000000000
11
-59.0305112387
21
118.3967420812
31
0.0000000000
0
SPLINE
5
3C5
100
AcDbEntity
8
0
100
AcDbSpline
62
9
6
CONTINUOUS
70
0
71
3
72
42
73
38
74
36
42
0.0000001000
43
0.0000001000
44
0.0000000001
12
0.0000000000
22
6.6654048507
32
0.0000000000
13
-6.6648972060
23
0.0822621254
33
0.0000000000
40
0.0000000000
40
0.0000000000
40
0.0000000000
40
0.0000000000
40
0.0231363564
40
0.0467301022
40
0.0704271441
40
0.0942548063
40
0.1182625500
40
0.1424882135
40
0.1669701743
40
0.1917425405
40
0.2168363455
40
0.2422788513
40
0.2680935603
40
0.2943000940
40
0.3209141928
40
0.3479477461
40
0.3754088697
40
0.4033020145
40
0.4316281007
40
0.4603846719
40
0.4895660618
40
0.5191635712
40
0.5491656500
40
0.5795580833
40
0.6103241771
40
0.6414449453
40
0.6728992939
40
0.7046642041
40
0.7367149117
40
0.7690250857
40
0.8015670022
40
0.8343117174
40
0.8672292366
40
0.9002886832
40
0.9334584629
40
0.9667064022
40
1.0000000000
40
1.0000000000
40
1.0000000000
40
1.0000000000
10
-54.1177732709
20
99.1279216180
30
0.0000000000
10
-54.1177732709
20
99.1793260121
30
0.0000000000
10
-54.1209790181
20
99.2831791359
30
0.0000000000
10
-54.1355227702
20
99.4390748799
30
0.0000000000
10
-54.1599912018
20
99.5952840376
30
0.0000000000
10
-54.1942534151
20
99.7505797708
30
0.0000000000
10
-54.2382334713
20
99.9046277599
30
0.0000000000
10
-54.2918449831
20
100.0571329621
30
0.0000000000
10
-54.3549779275
20
100.2077896447
30
0.0000000000
10
-54.4275053783
20
100.3563015199
30
0.0000000000
10
-54.5092812420
20
100.5023754016
30
0.0000000000
10
-54.6001416904
20
100.6457239819
30
0.0000000000
10
-54.6999051880
20
100.7860655742
30
0.0000000000
10
-54.8083730297
20
100.9231247899
30
0.0000000000
10
-54.9253297071
20
101.0566329147
30
0.0000000000
10
-55.0505433444
20
101.1863283696
30
0.0000000000
10
-55.1837661305
20
101.3119571456
30
0.0000000000
10
-55.3247347770
20
101.4332732454
30
0.0000000000
10
-55.4731710000
20
101.5500391230
30
0.0000000000
10
-55.6287820291
20
101.6620261186
30
0.0000000000
10
-55.7912611450
20
101.7690148883
30
0.0000000000
10
-55.9602882487
20
101.8707958242
30
0.0000000000
10
-56.1355304594
20
101.9671694623
30
0.0000000000
10
-56.3166427428
20
102.0579468765
30
0.0000000000
10
-56.5032685671
20
102.1429500539
30
0.0000000000
10
-56.6950405862
20
102.2220122530
30
0.0000000000
10
-56.8915813478
20
102.2949783394
30
0.0000000000
10
-57.0925040245
20
102.3617051004
30
0.0000000000
10
-57.2974131675
20
102.4220615357
30
0.0000000000
10
-57.5059054761
20
102.4759291236
30
0.0000000000
10
-57.7175705948
20
102.5232020630
30
0.0000000000
10
-57.9319918936
20
102.5637874877
30
0.0000000000
10
-58.1487473746
20
102.5976056575
30
0.0000000000
10
-58.3674101722
20
102.6245901165
30
0.0000000000
10
-58.5875505626
20
102.6446878381
30
0.0000000000
10
-58.8087323412
20
102.6578592964
30
0.0000000000
10
-58.9565451030
20
102.6620041110
30
0.0000000000
10
-59.0305112387
20
102.6629170450
30
0.0000000000
11
-54.1177732709
21
99.1279216180
31
0.0000000000
11
-54.1225273519
21
99.2820615033
31
0.0000000000
11
-54.1371204842
21
99.4386448215
31
0.0000000000
11
-54.1615405013
21
99.5946960462
31
0.0000000000
11
-54.1957260565
21
99.7497942816
31
0.0000000000
11
-54.2396176274
21
99.9036785124
31
0.0000000000
11
-54.2931248842
21
100.0560293555
31
0.0000000000
11
-54.3561439625
21
100.2065518442
31
0.0000000000
11
-54.4285499920
21
100.3549475023
31
0.0000000000
11
-54.5102004654
21
100.5009243206
31
0.0000000000
11
-54.6009343336
21
100.6441943533
31
0.0000000000
11
-54.7005727513
21
100.7844752046
31
0.0000000000
11
-54.8089192810
21
100.9214903083
31
0.0000000000
11
-54.9257603301
21
101.0549695553
31
0.0000000000
11
-55.0508655562
21
101.1846498014
31
0.0000000000
11
-55.1839883252
21
101.3102753934
31
0.0000000000
11
-55.3248661973
21
101.4315986712
31
0.0000000000
11
-55.4732214443
21
101.5483804571
31
0.0000000000
11
-55.6287615972
21
101.6603905261
31
0.0000000000
11
-55.7911800227
21
101.7674080606
31
0.0000000000
11
-55.9601565275
21
101.8692220852
31
0.0000000000
11
-56.1353579896
21
101.9656318825
31
0.0000000000
11
-56.3164390152
21
102.0564473895
31
0.0000000000
11
-56.5030426193
21
102.1414895714
31
0.0000000000
11
-56.6948009297
21
102.2205907754
31
0.0000000000
11
-56.8913359122
21
102.2935950604
31
0.0000000000
11
-57.0922601158
21
102.3603585052
31
0.0000000000
11
-57.2971774365
21
102.4207494915
31
0.0000000000
11
-57.5056838985
21
102.4746489639
31
0.0000000000
11
-57.7173684490
21
102.5219506644
31
0.0000000000
11
-57.9318137714
21
102.5625613419
31
0.0000000000
11
-58.1485971017
21
102.5964009356
31
0.0000000000
11
-58.3672910678
21
102.6234027339
31
0.0000000000
11
-58.5874645214
21
102.6435135049
31
0.0000000000
11
-58.8086832136
21
102.6566935954
31
0.0000000000
11
-59.0305112387
21
102.6629170450
31
0.0000000000
0
SPLINE
5
3C6
100
AcDbEntity
8
0
100
AcDbSpline
62
9
6
CONTINUOUS
70
0
71
3
72
25
73
21
74
19
42
0.0000001000
43
0.0000001000
44
0.0000000001
12
0.0255502956
22
3.5349432461
32
0.0000000000
13
-0.0361280732
23
3.5348509634
33
0.0000000000
40
0.0000000000
40
0.0000000000
40
0.0000000000
40
0.0000000000
40
0.0616846428
40
0.1232527258
40
0.1845860693
40
0.2455679216
40
0.3060822963
40
0.3660140483
40
0.4252491785
40
0.4836750013
40
0.5411803786
40
0.5976559253
40
0.6529942188
40
0.7070900007
40
0.7598403867
40
0.8111450442
40
0.8609064134
40
0.9090298384
40
0.9554237294
40
1.0000000000
40
1.0000000000
40
1.0000000000
40
1.0000000000
10
-59.0305112387
20
99.1279216180
30
0.0000000000
10
-59.0299858851
20
99.2006055219
30
0.0000000000
10
-59.0289914121
20
99.3458363908
30
0.0000000000
10
-59.0276678481
20
99.5633384916
30
0.0000000000
10
-59.0265154223
20
99.7800134264
30
0.0000000000
10
-59.0255363312
20
99.9954475690
30
0.0000000000
10
-59.0247324321
20
100.2092308670
30
0.0000000000
10
-59.0241052459
20
100.4209565065
30
0.0000000000
10
-59.0236559553
20
100.6302215584
30
0.0000000000
10
-59.0233854017
20
100.8366278094
30
0.0000000000
10
-59.0232940834
20
101.0397824764
30
0.0000000000
10
-59.0233821545
20
101.2392989707
30
0.0000000000
10
-59.0236494237
20
101.4347976230
30
0.0000000000
10
-59.0240953544
20
101.6259064145
30
0.0000000000
10
-59.0247190644
20
101.8122616693
30
0.0000000000
10
-59.0255193268
20
101.9935087698
30
0.0000000000
10
-59.0264945712
20
102.1693027778
30
0.0000000000
10
-59.0276428823
20
102.3393090400
30
0.0000000000
10
-59.0289620085
20
102.5032040369
30
0.0000000000
10
-59.0299744204
20
102.6103935540
30
0.0000000000
10
-59.0305112387
20
102.6629170450
30
0.0000000000
11
-59.0305112387
21
99.1279216180
31
0.0000000000
11
-59.0290181981
21
99.3459739139
31
0.0000000000
11
-59.0276940248
21
99.5636152498
31
0.0000000000
11
-59.0265412662
21
99.7804277370
31
0.0000000000
11
-59.0255621177
21
99.9959985309
31
0.0000000000
11
-59.0247584422
21
100.2099174891
31
0.0000000000
11
-59.0241317695
21
100.4217774382
31
0.0000000000
11
-59.0236832920
21
100.6311752509
31
0.0000000000
11
-59.0234138632
21
100.8377124375
31
0.0000000000
11
-59.0233239957
21
101.0409959729
31
0.0000000000
11
-59.0234138607
21
101.2406390198
31
0.0000000000
11
-59.0236832870
21
101.4362616709
31
0.0000000000
11
-59.0241317620
21
101.6274916589
31
0.0000000000
11
-59.0247584322
21
101.8139650973
31
0.0000000000
11
-59.0255621051
21
101.9953271064
31
0.0000000000
11
-59.0265412514
21
102.1712325919
31
0.0000000000
11
-59.0276940071
21
102.3413467062
31
0.0000000000
11
-59.0290181754
21
102.5053454158
31
0.0000000000
11
-59.0305112387
21
102.6629170450
31
0.0000000000
0
SPLINE
5
3C7
100
AcDbEntity
8
0
100
AcDbSpline
62
9
6
CONTINUOUS
70
0
71
3
72
25
73
21
74
19
42
0.0000001000
43
0.0000001000
44
0.0000000001
12
0.0255502956
22
-3.5349432461
32
0.0000000000
13
-0.0361280732
23
-3.5348509634
33
0.0000000000
40
0.0000000000
40
0.0000000000
40
0.0000000000
40
0.0000000000
40
0.0616846428
40
0.1232527258
40
0.1845860693
40
0.2455679215
40
0.3060822963
40
0.3660140483
40
0.4252491785
40
0.4836750012
40
0.5411803786
40
0.5976559253
40
0.6529942188
40
0.7070900007
40
0.7598403867
40
0.8111450442
40
0.8609064134
40
0.9090298384
40
0.9554237294
40
1.0000000000
40
1.0000000000
40
1.0000000000
40
1.0000000000
10
-59.0305112387
20
-98.3882400957
30
0.0000000000
10
-59.0299858851
20
-98.4609239995
30
0.0000000000
10
-59.0289914121
20
-98.6061548685
30
0.0000000000
10
-59.0276678481
20
-98.8236569691
30
0.0000000000
10
-59.0265154223
20
-99.0403319040
30
0.0000000000
10
-59.0255363312
20
-99.2557660466
30
0.0000000000
10
-59.0247324321
20
-99.4695493446
30
0.0000000000
10
-59.0241052459
20
-99.6812749842
30
0.0000000000
10
-59.0236559553
20
-99.8905400360
30
0.0000000000
10
-59.0233854017
20
-100.0969462869
30
0.0000000000
10
-59.0232940834
20
-100.3001009539
30
0.0000000000
10
-59.0233821545
20
-100.4996174481
30
0.0000000000
10
-59.0236494237
20
-100.6951161005
30
0.0000000000
10
-59.0240953544
20
-100.8862248920
30
0.0000000000
10
-59.0247190644
20
-101.0725801470
30
0.0000000000
10
-59.0255193268
20
-101.2538272475
30
0.0000000000
10
-59.0264945712
20
-101.4296212556
30
0.0000000000
10
-59.0276428823
20
-101.5996275178
30
0.0000000000
10
-59.0289620085
20
-101.7635225147
30
0.0000000000
10
-59.0299744204
20
-101.8707120317
30
0.0000000000
10
-59.0305112387
20
-101.9232355227
30
0.0000000000
11
-59.0305112387
21
-98.3882400957
31
0.0000000000
11
-59.0290181981
21
-98.6062923914
31
0.0000000000
11
-59.0276940248
21
-98.8239337273
31
0.0000000000
11
-59.0265412662
21
-99.0407462145
31
0.0000000000
11
-59.0255621177
21
-99.2563170085
31
0.0000000000
11
-59.0247584422
21
-99.4702359668
31
0.0000000000
11
-59.0241317695
21
-99.6820959158
31
0.0000000000
11
-59.0236832920
21
-99.8914937284
31
0.0000000000
11
-59.0234138632
21
-100.0980309150
31
0.0000000000
11
-59.0233239957
21
-100.3013144503
31
0.0000000000
11
-59.0234138607
21
-100.5009574973
31
0.0000000000
11
-59.0236832870
21
-100.6965801484
31
0.0000000000
11
-59.0241317620
21
-100.8878101364
31
0.0000000000
11
-59.0247584322
21
-101.0742835749
31
0.0000000000
11
-59.0255621051
21
-101.2556455842
31
0.0000000000
11
-59.0265412514
21
-101.4315510698
31
0.0000000000
11
-59.0276940071
21
-101.6016651840
31
0.0000000000
11
-59.0290181754
21
-101.7656638936
31
0.0000000000
11
-59.0305112387
21
-101.9232355227
31
0.0000000000
0
SPLINE
5
3C8
100
AcDbEntity
8
0
100
AcDbSpline
62
9
6
CONTINUOUS
70
0
71
3
72
42
73
38
74
36
42
0.0000001000
43
0.0000001000
44
0.0000000001
12
0.0000000000
22
-6.6654048507
32
0.0000000000
13
-6.6648972060
23
-0.0822621254
33
0.0000000000
40
0.0000000000
40
0.0000000000
40
0.0000000000
40
0.0000000000
40
0.0231363564
40
0.0467301022
40
0.0704271441
40
0.0942548063
40
0.1182625500
40
0.1424882135
40
0.1669701742
40
0.1917425405
40
0.2168363455
40
0.2422788513
40
0.2680935602
40
0.2943000940
40
0.3209141928
40
0.3479477461
40
0.3754088697
40
0.4033020145
40
0.4316281007
40
0.4603846719
40
0.4895660618
40
0.5191635712
40
0.5491656500
40
0.5795580832
40
0.6103241771
40
0.6414449453
40
0.6728992939
40
0.7046642040
40
0.7367149117
40
0.7690250857
40
0.8015670022
40
0.8343117173
40
0.8672292366
40
0.9002886832
40
0.9334584629
40
0.9667064022
40
1.0000000000
40
1.0000000000
40
1.0000000000
40
1.0000000000
10
-54.1177732709
20
-98.3882400957
30
0.0000000000
10
-54.1177732709
20
-98.4396444898
30
0.0000000000
10
-54.1209790181
20
-98.5434976136
30
0.0000000000
10
-54.1355227702
20
-98.6993933576
30
0.0000000000
10
-54.1599912018
20
-98.8556025153
30
0.0000000000
10
-54.1942534150
20
-99.0108982485
30
0.0000000000
10
-54.2382334713
20
-99.1649462376
30
0.0000000000
10
-54.2918449831
20
-99.3174514397
30
0.0000000000
10
-54.3549779275
20
-99.4681081223
30
0.0000000000
10
-54.4275053783
20
-99.6166199975
30
0.0000000000
10
-54.5092812419
20
-99.7626938792
30
0.0000000000
10
-54.6001416903
20
-99.9060424595
30
0.0000000000
10
-54.6999051879
20
-100.0463840517
30
0.0000000000
10
-54.8083730296
20
-100.1834432674
30
0.0000000000
10
-54.9253297069
20
-100.3169513922
30
0.0000000000
10
-55.0505433443
20
-100.4466468472
30
0.0000000000
10
-55.1837661303
20
-100.5722756231
30
0.0000000000
10
-55.3247347769
20
-100.6935917230
30
0.0000000000
10
-55.4731710000
20
-100.8103576007
30
0.0000000000
10
-55.6287820290
20
-100.9223445963
30
0.0000000000
10
-55.7912611449
20
-101.0293333660
30
0.0000000000
10
-55.9602882486
20
-101.1311143018
30
0.0000000000
10
-56.1355304593
20
-101.2274879400
30
0.0000000000
10
-56.3166427427
20
-101.3182653541
30
0.0000000000
10
-56.5032685670
20
-101.4032685316
30
0.0000000000
10
-56.6950405862
20
-101.4823307306
30
0.0000000000
10
-56.8915813477
20
-101.5552968170
30
0.0000000000
10
-57.0925040244
20
-101.6220235780
30
0.0000000000
10
-57.2974131673
20
-101.6823800133
30
0.0000000000
10
-57.5059054759
20
-101.7362476013
30
0.0000000000
10
-57.7175705947
20
-101.7835205406
30
0.0000000000
10
-57.9319918934
20
-101.8241059653
30
0.0000000000
10
-58.1487473744
20
-101.8579241352
30
0.0000000000
10
-58.3674101721
20
-101.8849085942
30
0.0000000000
10
-58.5875505625
20
-101.9050063158
30
0.0000000000
10
-58.8087323411
20
-101.9181777741
30
0.0000000000
10
-58.9565451030
20
-101.9223225887
30
0.0000000000
10
-59.0305112387
20
-101.9232355227
30
0.0000000000
11
-54.1177732709
21
-98.3882400957
31
0.0000000000
11
-54.1225273519
21
-98.5423799810
31
0.0000000000
11
-54.1371204842
21
-98.6989632992
31
0.0000000000
11
-54.1615405013
21
-98.8550145239
31
0.0000000000
11
-54.1957260565
21
-99.0101127592
31
0.0000000000
11
-54.2396176274
21
-99.1639969901
31
0.0000000000
11
-54.2931248841
21
-99.3163478331
31
0.0000000000
11
-54.3561439624
21
-99.4668703217
31
0.0000000000
11
-54.4285499920
21
-99.6152659798
31
0.0000000000
11
-54.5102004653
21
-99.7612427981
31
0.0000000000
11
-54.6009343335
21
-99.9045128308
31
0.0000000000
11
-54.7005727512
21
-100.0447936821
31
0.0000000000
11
-54.8089192808
21
-100.1818087859
31
0.0000000000
11
-54.9257603300
21
-100.3152880328
31
0.0000000000
11
-55.0508655560
21
-100.4449682789
31
0.0000000000
11
-55.1839883251
21
-100.5705938709
31
0.0000000000
11
-55.3248661972
21
-100.6919171488
31
0.0000000000
11
-55.4732214442
21
-100.8086989347
31
0.0000000000
11
-55.6287615971
21
-100.9207090038
31
0.0000000000
11
-55.7911800227
21
-101.0277265383
31
0.0000000000
11
-55.9601565275
21
-101.1295405628
31
0.0000000000
11
-56.1353579896
21
-101.2259503602
31
0.0000000000
11
-56.3164390151
21
-101.3167658671
31
0.0000000000
11
-56.5030426192
21
-101.4018080491
31
0.0000000000
11
-56.6948009296
21
-101.4809092531
31
0.0000000000
11
-56.8913359121
21
-101.5539135381
31
0.0000000000
11
-57.0922601157
21
-101.6206769828
31
0.0000000000
11
-57.2971774363
21
-101.6810679691
31
0.0000000000
11
-57.5056838983
21
-101.7349674416
31
0.0000000000
11
-57.7173684488
21
-101.7822691420
31
0.0000000000
11
-57.9318137712
21
-101.8228798196
31
0.0000000000
11
-58.1485971016
21
-101.8567194133
31
0.0000000000
11
-58.3672910677
21
-101.8837212116
31
0.0000000000
11
-58.5874645213
21
-101.9038319826
31
0.0000000000
11
-58.8086832135
21
-101.9170120731
31
0.0000000000
11
-59.0305112387
21
-101.9232355227
31
0.0000000000
0
SPLINE
5
3C9
100
AcDbEntity
8
0
100
AcDbSpline
62
9
6
CONTINUOUS
70
0
71
3
72
25
73
21
74
19
42
0.0000001000
43
0.0000001000
44
0.0000000001
12
1.4643926012
22
0.0255610679
32
0.0000000000
13
-0.0149721531
23
1.4645391403
33
0.0000000000
40
0.0000000000
40
0.0000000000
40
0.0000000000
40
0.0000000000
40
0.0034217495
40
0.0132191219
40
0.0294644215
40
0.0521402689
40
0.0812080866
40
0.1166146418
40
0.1582937009
40
0.2061666391
40
0.2601428105
40
0.3201198165
40
0.3859837541
40
0.4576094576
40
0.5348607667
40
0.6175907699
40
0.7056421352
40
0.7988473166
40
0.8970287974
40
1.0000000000
40
1.0000000000
40
1.0000000000
40
1.0000000000
10
-59.0305112387
20
-119.1213036077
30
0.0000000000
10
-59.0288409771
20
-119.1212744531
30
0.0000000000
10
-59.0294067332
20
-119.1114665734
30
0.0000000000
10
-59.0268198753
20
-119.1003401182
30
0.0000000000
10
-59.0266143043
20
-119.0747585338
30
0.0000000000
10
-59.0253229992
20
-119.0423786373
30
0.0000000000
10
-59.0247001400
20
-118.9995269810
30
0.0000000000
10
-59.0240467641
20
-118.9478175197
30
0.0000000000
10
-59.0236341521
20
-118.8867751652
30
0.0000000000
10
-59.0233724859
20
-118.8167169612
30
0.0000000000
10
-59.0232950102
20
-118.7377085208
30
0.0000000000
10
-59.0233925765
20
-118.6499221397
30
0.0000000000
10
-59.0236688133
20
-118.5535178535
30
0.0000000000
10
-59.0241225799
20
-118.4486812698
30
0.0000000000
10
-59.0247535966
20
-118.3356112145
30
0.0000000000
10
-59.0255607685
20
-118.2145230459
30
0.0000000000
10
-59.0265427347
20
-118.0856471541
30
0.0000000000
10
-59.0276977290
20
-117.9492289251
30
0.0000000000
10
-59.0290236402
20
-117.8055279827
30
0.0000000000
10
-59.0299973385
20
-117.7073290110
30
0.0000000000
10
-59.0305112387
20
-117.6570605589
30
0.0000000000
11
-59.0305112387
21
-119.1213036077
31
0.0000000000
11
-59.0290181981
21
-119.1165196300
31
0.0000000000
11
-59.0276940248
21
-119.1022314733
31
0.0000000000
11
-59.0265412662
21
-119.0784662946
31
0.0000000000
11
-59.0255621177
21
-119.0452693300
31
0.0000000000
11
-59.0247584422
21
-119.0027037352
31
0.0000000000
11
-59.0241317695
21
-118.9508505264
31
0.0000000000
11
-59.0236832920
21
-118.8898083707
31
0.0000000000
11
-59.0234138632
21
-118.8196934330
31
0.0000000000
11
-59.0233239957
21
-118.7406391377
31
0.0000000000
11
-59.0234138607
21
-118.6527959208
31
0.0000000000
11
-59.0236832870
21
-118.5563309420
31
0.0000000000
11
-59.0241317620
21
-118.4514277731
31
0.0000000000
11
-59.0247584322
21
-118.3382860307
31
0.0000000000
11
-59.0255621051
21
-118.2171210370
31
0.0000000000
11
-59.0265412514
21
-118.0881633448
31
0.0000000000
11
-59.0276940071
21
-117.9516584431
31
0.0000000000
11
-59.0290181754
21
-117.8078664048
31
0.0000000000
11
-59.0305112387
21
-117.6570605589
31
0.0000000000
0
SPLINE
5
3CA
100
AcDbEntity
8
0
100
AcDbSpline
62
9
6
CONTINUOUS
70
0
71
3
72
42
73
38
74
36
42
0.0000001000
43
0.0000001000
44
0.0000000001
12
0.0000000000
22
-6.6654048507
32
0.0000000000
13
-6.6648972060
23
-0.0822621254
33
0.0000000000
40
0.0000000000
40
0.0000000000
40
0.0000000000
40
0.0000000000
40
0.0231363564
40
0.0467301022
40
0.0704271441
40
0.0942548063
40
0.1182625500
40
0.1424882135
40
0.1669701743
40
0.1917425405
40
0.2168363455
40
0.2422788513
40
0.2680935603
40
0.2943000940
40
0.3209141928
40
0.3479477461
40
0.3754088697
40
0.4033020145
40
0.4316281007
40
0.4603846719
40
0.4895660618
40
0.5191635712
40
0.5491656500
40
0.5795580833
40
0.6103241771
40
0.6414449453
40
0.6728992939
40
0.7046642041
40
0.7367149117
40
0.7690250857
40
0.8015670022
40
0.8343117174
40
0.8672292366
40
0.9002886832
40
0.9334584629
40
0.9667064022
40
1.0000000000
40
1.0000000000
40
1.0000000000
40
1.0000000000
10
-54.1177732709
20
-114.1220651319
30
0.0000000000
10
-54.1177732709
20
-114.1734695259
30
0.0000000000
10
-54.1209790181
20
-114.2773226498
30
0.0000000000
10
-54.1355227702
20
-114.4332183937
30
0.0000000000
10
-54.1599912018
20
-114.5894275514
30
0.0000000000
10
-54.1942534151
20
-114.7447232846
30
0.0000000000
10
-54.2382334713
20
-114.8987712738
30
0.0000000000
10
-54.2918449831
20
-115.0512764760
30
0.0000000000
10
-54.3549779275
20
-115.2019331585
30
0.0000000000
10
-54.4275053783
20
-115.3504450337
30
0.0000000000
10
-54.5092812420
20
-115.4965189155
30
0.0000000000
10
-54.6001416904
20
-115.6398674958
30
0.0000000000
10
-54.6999051880
20
-115.7802090880
30
0.0000000000
10
-54.8083730297
20
-115.9172683037
30
0.0000000000
10
-54.9253297071
20
-116.0507764285
30
0.0000000000
10
-55.0505433444
20
-116.1804718834
30
0.0000000000
10
-55.1837661305
20
-116.3061006594
30
0.0000000000
10
-55.3247347770
20
-116.4274167593
30
0.0000000000
10
-55.4731710000
20
-116.5441826369
30
0.0000000000
10
-55.6287820291
20
-116.6561696325
30
0.0000000000
10
-55.7912611450
20
-116.7631584022
30
0.0000000000
10
-55.9602882487
20
-116.8649393380
30
0.0000000000
10
-56.1355304594
20
-116.9613129762
30
0.0000000000
10
-56.3166427428
20
-117.0520903903
30
0.0000000000
10
-56.5032685671
20
-117.1370935677
30
0.0000000000
10
-56.6950405862
20
-117.2161557668
30
0.0000000000
10
-56.8915813478
20
-117.2891218532
30
0.0000000000
10
-57.0925040245
20
-117.3558486142
30
0.0000000000
10
-57.2974131675
20
-117.4162050495
30
0.0000000000
10
-57.5059054761
20
-117.4700726375
30
0.0000000000
10
-57.7175705948
20
-117.5173455768
30
0.0000000000
10
-57.9319918936
20
-117.5579310015
30
0.0000000000
10
-58.1487473746
20
-117.5917491714
30
0.0000000000
10
-58.3674101722
20
-117.6187336303
30
0.0000000000
10
-58.5875505626
20
-117.6388313520
30
0.0000000000
10
-58.8087323412
20
-117.6520028102
30
0.0000000000
10
-58.9565451030
20
-117.6561476248
30
0.0000000000
10
-59.0305112387
20
-117.6570605589
30
0.0000000000
11
-54.1177732709
21
-114.1220651319
31
0.0000000000
11
-54.1225273519
21
-114.2762050172
31
0.0000000000
11
-54.1371204842
21
-114.4327883353
31
0.0000000000
11
-54.1615405013
21
-114.5888395601
31
0.0000000000
11
-54.1957260565
21
-114.7439377954
31
0.0000000000
11
-54.2396176274
21
-114.8978220263
31
0.0000000000
11
-54.2931248842
21
-115.0501728693
31
0.0000000000
11
-54.3561439625
21
-115.2006953580
31
0.0000000000
11
-54.4285499920
21
-115.3490910161
31
0.0000000000
11
-54.5102004654
21
-115.4950678344
31
0.0000000000
11
-54.6009343336
21
-115.6383378671
31
0.0000000000
11
-54.7005727513
21
-115.7786187184
31
0.0000000000
11
-54.8089192810
21
-115.9156338222
31
0.0000000000
11
-54.9257603301
21
-116.0491130691
31
0.0000000000
11
-55.0508655562
21
-116.1787933152
31
0.0000000000
11
-55.1839883252
21
-116.3044189072
31
0.0000000000
11
-55.3248661973
21
-116.4257421851
31
0.0000000000
11
-55.4732214443
21
-116.5425239709
31
0.0000000000
11
-55.6287615972
21
-116.6545340400
31
0.0000000000
11
-55.7911800227
21
-116.7615515745
31
0.0000000000
11
-55.9601565275
21
-116.8633655990
31
0.0000000000
11
-56.1353579896
21
-116.9597753963
31
0.0000000000
11
-56.3164390152
21
-117.0505909033
31
0.0000000000
11
-56.5030426193
21
-117.1356330853
31
0.0000000000
11
-56.6948009297
21
-117.2147342892
31
0.0000000000
11
-56.8913359122
21
-117.2877385743
31
0.0000000000
11
-57.0922601158
21
-117.3545020190
31
0.0000000000
11
-57.2971774365
21
-117.4148930053
31
0.0000000000
11
-57.5056838985
21
-117.4687924778
31
0.0000000000
11
-57.7173684490
21
-117.5160941782
31
0.0000000000
11
-57.9318137714
21
-117.5567048558
31
0.0000000000
11
-58.1485971017
21
-117.5905444495
31
0.0000000000
11
-58.3672910678
21
-117.6175462477
31
0.0000000000
11
-58.5874645214
21
-117.6376570188
31
0.0000000000
11
-58.8086832136
21
-117.6508371092
31
0.0000000000
11
-59.0305112387
21
-117.6570605589
31
0.0000000000
0
SPLINE
5
3CB
100
AcDbEntity
8
0
100
AcDbSpline
62
9
6
CONTINUOUS
70
0
71
3
72
35
73
31
74
29
42
0.0000001000
43
0.0000001000
44
0.0000000001
12
0.0000054167
22
-1.8637726142
32
0.0000000000
13
1.8634886540
23
-0.0325329685
33
0.0000000000
40
0.0000000000
40
0.0000000000
40
0.0000000000
40
0.0000000000
40
0.0357100495
40
0.0714232918
40
0.1071366678
40
0.1428500616
40
0.1785635300
40
0.2142771099
40
0.2499907782
40
0.2857045431
40
0.3214184308
40
0.3571324508
40
0.3928466051
40
0.4285608966
40
0.4642753086
40
0.4999898390
40
0.5357044887
40
0.5714192569
40
0.6071341418
40
0.6428491420
40
0.6785642529
40
0.7142794615
40
0.7499947596
40
0.7857101546
40
0.8214256345
40
0.8571411505
40
0.8928567085
40
0.9285723428
40
0.9642879176
40
1.0000000000
40
1.0000000000
40
1.0000000000
40
1.0000000000
10
-173.3317351960
20
-133.3505735439
30
0.0000000000
10
-173.3317351315
20
-133.3727586814
30
0.0000000000
10
-173.3305041070
20
-133.4171407903
30
0.0000000000
10
-173.3249693396
20
-133.4835023279
30
0.0000000000
10
-173.3157632985
20
-133.5494590828
30
0.0000000000
10
-173.3029142863
20
-133.6148034925
30
0.0000000000
10
-173.2864618849
20
-133.6793352214
30
0.0000000000
10
-173.2664566525
20
-133.7428555632
30
0.0000000000
10
-173.2429601160
20
-133.8051691398
30
0.0000000000
10
-173.2160445346
20
-133.8660842093
30
0.0000000000
10
-173.1857926800
20
-133.9254133653
30
0.0000000000
10
-173.1522975852
20
-133.9829740665
30
0.0000000000
10
-173.1156622685
20
-134.0385891971
30
0.0000000000
10
-173.0759994199
20
-134.0920876092
30
0.0000000000
10
-173.0334310504
20
-134.1433046644
30
0.0000000000
10
-172.9880881157
20
-134.1920827414
30
0.0000000000
10
-172.9401101053
20
-134.2382717288
30
0.0000000000
10
-172.8896446190
20
-134.2817294796
30
0.0000000000
10
-172.8368469140
20
-134.3223222477
30
0.0000000000
10
-172.7818794289
20
-134.3599250993
30
0.0000000000
10
-172.7249112877
20
-134.3944222960
30
0.0000000000
10
-172.6661177780
20
-134.4257076539
30
0.0000000000
10
-172.6056798031
20
-134.4536848777
30
0.0000000000
10
-172.5437833236
20
-134.4782678497
30
0.0000000000
10
-172.4806188339
20
-134.4993808943
30
0.0000000000
10
-172.4163806669
20
-134.5169590048
30
0.0000000000
10
-172.3512666878
20
-134.5309481066
30
0.0000000000
10
-172.2854765812
20
-134.5413050557
30
0.0000000000
10
-172.2192176800
20
-134.5479979066
30
0.0000000000
10
-172.1748611039
20
-134.5500035047
30
0.0000000000
10
-172.1526780837
20
-134.5503907781
30
0.0000000000
11
-173.3317351960
21
-133.3505735439
31
0.0000000000
11
-173.3298895268
21
-133.4171033599
31
0.0000000000
11
-173.3243574991
21
-133.4834344364
31
0.0000000000
11
-173.3151561422
21
-133.5493569912
31
0.0000000000
11
-173.3023137365
21
-133.6146679800
31
0.0000000000
11
-173.2858697731
21
-133.6791665630
31
0.0000000000
11
-173.2658747964
21
-133.7426543546
31
0.0000000000
11
-173.2423903101
21
-133.8049359703
31
0.0000000000
11
-173.2154885376
21
-133.8658197886
31
0.0000000000
11
-173.1852521987
21
-133.9251185152
31
0.0000000000
11
-173.1517742809
21
-133.9826496983
31
0.0000000000
11
-173.1151577520
21
-134.0382363075
31
0.0000000000
11
-173.0755152366
21
-134.0917072936
31
0.0000000000
11
-173.0329686959
21
-134.1428980849
31
0.0000000000
11
-172.9876490142
21
-134.1916511473
31
0.0000000000
11
-172.9396956075
21
-134.2378164484
31
0.0000000000
11
-172.8892560003
21
-134.2812519138
31
0.0000000000
11
-172.8364853707
21
-134.3218238654
31
0.0000000000
11
-172.7815460722
21
-134.3594074348
31
0.0000000000
11
-172.7246071392
21
-134.3938869442
31
0.0000000000
11
-172.6658437766
21
-134.4251562604
31
0.0000000000
11
-172.6054368000
21
-134.4531191342
31
0.0000000000
11
-172.5435720592
21
-134.4776895024
31
0.0000000000
11
-172.4804399253
21
-134.4987917271
31
0.0000000000
11
-172.4162347391
21
-134.5163608268
31
0.0000000000
11
-172.3511540524
21
-134.5303427378
31
0.0000000000
11
-172.2853980539
21
-134.5406944133
31
0.0000000000
11
-172.2191693358
21
-134.5473840079
31
0.0000000000
11
-172.1526780837
21
-134.5503907781
31
0.0000000000
0
SPLINE
5
3CC
100
AcDbEntity
8
0
100
AcDbSpline
62
9
6
CONTINUOUS
70
0
71
3
72
35
73
31
74
29
42
0.0000001000
43
0.0000001000
44
0.0000000001
12
-1.8634886540
22
-0.0325329685
32
0.0000000000
13
-0.0000054167
23
-1.8637726142
33
0.0000000000
40
0.0000000000
40
0.0000000000
40
0.0000000000
40
0.0000000000
40
0.0357120824
40
0.0714276572
40
0.1071432915
40
0.1428588495
40
0.1785743655
40
0.2142898454
40
0.2500052404
40
0.2857205385
40
0.3214357471
40
0.3571508580
40
0.3928658582
40
0.4285807431
40
0.4642955113
40
0.5000101610
40
0.5357246914
40
0.5714391034
40
0.6071533949
40
0.6428675492
40
0.6785815692
40
0.7142954569
40
0.7500092218
40
0.7857228901
40
0.8214364700
40
0.8571499384
40
0.8928633322
40
0.9285767082
40
0.9642899505
40
1.0000000000
40
1.0000000000
40
1.0000000000
40
1.0000000000
10
-172.1526780837
20
135.2900723004
30
0.0000000000
10
-172.1748611039
20
135.2896850271
30
0.0000000000
10
-172.2192176800
20
135.2876794289
30
0.0000000000
10
-172.2854765812
20
135.2809865780
30
0.0000000000
10
-172.3512666878
20
135.2706296289
30
0.0000000000
10
-172.4163806669
20
135.2566405271
30
0.0000000000
10
-172.4806188339
20
135.2390624166
30
0.0000000000
10
-172.5437833236
20
135.2179493720
30
0.0000000000
10
-172.6056798031
20
135.1933664000
30
0.0000000000
10
-172.6661177780
20
135.1653891762
30
0.0000000000
10
-172.7249112877
20
135.1341038183
30
0.0000000000
10
-172.7818794289
20
135.0996066216
30
0.0000000000
10
-172.8368469140
20
135.0620037700
30
0.0000000000
10
-172.8896446190
20
135.0214110019
30
0.0000000000
10
-172.9401101053
20
134.9779532511
30
0.0000000000
10
-172.9880881157
20
134.9317642637
30
0.0000000000
10
-173.0334310504
20
134.8829861868
30
0.0000000000
10
-173.0759994199
20
134.8317691316
30
0.0000000000
10
-173.1156622685
20
134.7782707194
30
0.0000000000
10
-173.1522975852
20
134.7226555889
30
0.0000000000
10
-173.1857926800
20
134.6650948876
30
0.0000000000
10
-173.2160445346
20
134.6057657316
30
0.0000000000
10
-173.2429601160
20
134.5448506621
30
0.0000000000
10
-173.2664566525
20
134.4825370855
30
0.0000000000
10
-173.2864618849
20
134.4190167437
30
0.0000000000
10
-173.3029142863
20
134.3544850148
30
0.0000000000
10
-173.3157632985
20
134.2891406051
30
0.0000000000
10
-173.3249693396
20
134.2231838502
30
0.0000000000
10
-173.3305041070
20
134.1568223126
30
0.0000000000
10
-173.3317351315
20
134.1124402037
30
0.0000000000
10
-173.3317351960
20
134.0902550662
30
0.0000000000
11
-172.1526780837
21
135.2900723004
31
0.0000000000
11
-172.2191693358
21
135.2870655302
31
0.0000000000
11
-172.2853980539
21
135.2803759356
31
0.0000000000
11
-172.3511540524
21
135.2700242601
31
0.0000000000
11
-172.4162347391
21
135.2560423492
31
0.0000000000
11
-172.4804399253
21
135.2384732494
31
0.0000000000
11
-172.5435720592
21
135.2173710247
31
0.0000000000
11
-172.6054368000
21
135.1928006565
31
0.0000000000
11
-172.6658437766
21
135.1648377827
31
0.0000000000
11
-172.7246071392
21
135.1335684665
31
0.0000000000
11
-172.7815460722
21
135.0990889571
31
0.0000000000
11
-172.8364853707
21
135.0615053877
31
0.0000000000
11
-172.8892560003
21
135.0209334361
31
0.0000000000
11
-172.9396956075
21
134.9774979708
31
0.0000000000
11
-172.9876490142
21
134.9313326696
31
0.0000000000
11
-173.0329686959
21
134.8825796073
31
0.0000000000
11
-173.0755152366
21
134.8313888159
31
0.0000000000
11
-173.1151577520
21
134.7779178298
31
0.0000000000
11
-173.1517742809
21
134.7223312207
31
0.0000000000
11
-173.1852521987
21
134.6648000375
31
0.0000000000
11
-173.2154885376
21
134.6055013109
31
0.0000000000
11
-173.2423903101
21
134.5446174927
31
0.0000000000
11
-173.2658747964
21
134.4823358770
31
0.0000000000
11
-173.2858697731
21
134.4188480853
31
0.0000000000
11
-173.3023137365
21
134.3543495023
31
0.0000000000
11
-173.3151561422
21
134.2890385135
31
0.0000000000
11
-173.3243574991
21
134.2231159587
31
0.0000000000
11
-173.3298895268
21
134.1567848822
31
0.0000000000
11
-173.3317351960
21
134.0902550662
31
0.0000000000
0
ENDSEC
0
SECTION
2
OBJECTS
0
DICTIONARY
5
C
100
AcDbDictionary
280
0
281
1
3
ACAD_GROUP
350
D
3
ACAD_MLINESTYLE
350
17
3
ACAD_LAYOUT
350
1A
3
ACAD_PLOTSETTINGS
350
19
3
ACAD_PLOTSTYLENAME
350
E
0
DICTIONARY
5
D
102
{ACAD_REACTORS
330
C
102
}
100
AcDbDictionary
280
0
281
1
0
ACDBDICTIONARYWDFLT
5
E
102
{ACAD_REACTORS
330
C
102
}
100
AcDbDictionary
281
1
3
Normal
350
F
100
AcDbDictionaryWithDefault
340
F
0
DICTIONARY
5
17
102
{ACAD_REACTORS
330
C
102
}
100
AcDbDictionary
280
0
281
1
3
Standard
350
18
0
DICTIONARY
5
19
102
{ACAD_REACTORS
330
C
102
}
100
AcDbDictionary
281
1
0
DICTIONARY
5
1A
102
{ACAD_REACTORS
330
C
102
}
100
AcDbDictionary
281
1
3
Layout1
350
1E
3
Model
350
22
0
ACDBPLACEHOLDER
5
F
102
{ACAD_REACTORS
330
E
102
}
0
MLINESTYLE
5
18
102
{ACAD_REACTORS
330
17
102
}
100
AcDbMlineStyle
2
STANDARD
70
0
3

62
256
51
90.0
52
90.0
71
2
49
0.5
62
256
6
BYLAYER
49
-0.5
62
256
6
BYLAYER
0
LAYOUT
5
1E
102
{ACAD_REACTORS
330
1A
102
}
100
AcDbPlotSettings
1

2

4

6

40
0.0
41
0.0
42
0.0
43
0.0
44
0.0
45
0.0
46
0.0
47
0.0
48
0.0
49
0.0
140
0.0
141
0.0
142
1.0
143
1.0
70
0
72
0
73
0
74
0
7

75
0
147
1.0
148
0.0
149
0.0
100
AcDbLayout
1
Layout1
70
0
71
0
10
0.0
20
0.0
11
0.0
21
0.0
12
0.0
22
0.0
32
0.0
14
0.0
24
0.0
34
0.0
15
0.0
25
0.0
35
0.0
146
0.0
13
0.0
23
0.0
33
0.0
16
0.0
26
0.0
36
0.0
17
0.0
27
0.0
37
0.0
76
0
330
1B
331
0
345
0
346
0
0
LAYOUT
5
22
102
{ACAD_REACTORS
330
1A
102
}
100
AcDbPlotSettings
1

2

4

6

40
0.0
41
0.0
42
0.0
43
0.0
44
0.0
45
0.0
46
0.0
47
0.0
48
0.0
49
0.0
140
0.0
141
0.0
142
1.0
143
1.0
70
0
72
0
73
0
74
0
7

75
0
147
1.0
148
0.0
149
0.0
100
AcDbLayout
1
Model
70
0
71
0
10
0.0
20
0.0
11
0.0
21
0.0
12
0.0
22
0.0
32
0.0
14
0.0
24
0.0
34
0.0
15
0.0
25
0.0
35
0.0
146
0.0
13
0.0
23
0.0
33
0.0
16
0.0
26
0.0
36
0.0
17
0.0
27
0.0
37
0.0
76
0
330
1F
331
0
345
0
346
0
0
ENDSEC
0
EOF
