0
SECTION
2
HEADER
9
$ACADVER
1
AC1015
9
$DWGCODEPAGE
3
ANSI_1252
9
$EXTMAX
10
431.8000000000
20
558.8000000000
30
0.0000000000
9
$EXTMIN
10
0.0000000000
20
0.0000000000
30
0.0000000000
9
$LIMMIN
10
0.0000000000
20
0.0000000000
9
$LIMMAX
10
431.8000000000
20
558.8000000000
9
$VIEWCTR
10
215.9000000000
20
279.4000000000
9
$VIEWSIZE
40
558.8000000000
9
$CLAYER
8
0
9
$LTSCALE
40
36.4254814815
9
$CELTYPE
6
BYLAYER
9
$DIMSCALE
40
1
9
$DIMASZ
40
3.0000000000
9
$DIMEXO
40
4.1392592593
9
$DIMDLI
40
25.1666962963
9
$DIMEXE
40
11.9210666667
9
$DIMCEN
40
5.9605333333
9
$DIMLFAC
40
1.0000000000
9
$DIMBLK
1
_FILLED
9
$DIMTXT
40
3.0000000000
9
$DIMTOL
70
1
9
$DIMLIM
70
0
9
$DIMTFAC
40
1.0000000000
9
$DIMTP
40
0.0100000000
9
$DIMTM
40
0.0100000000
9
$PDMODE
70
3
9
$PDSIZE
40
3.0000000000
9
$HANDSEED
5
29C
9
$MEASUREMENT
70
1
9
$INSUNITS
70
4
0
ENDSEC
0
SECTION
2
CLASSES
0
CLASS
1
ACDBDICTIONARYWDFLT
2
AcDbDictionaryWithDefault
3
AutoCAD 2000
90
0
280
0
281
0
0
CLASS
1
ACDBPLACEHOLDER
2
AcDbPlaceHolder
3
AutoCAD 2000
90
0
280
0
281
0
0
CLASS
1
LAYOUT
2
AcDbLayout
3
AutoCAD 2000
90
0
280
0
281
0
0
ENDSEC
0
SECTION
2
TABLES
0
TABLE
2
VPORT
5
8
100
AcDbSymbolTable
70
2
0
VPORT
5
1F4
100
AcDbSymbolTableRecord
100
AcDbViewportTableRecord
2
*ACTIVE
70
0
10
0.0
20
0.0
11
1.0
21
1.0
12
215.9000000000
22
279.4000000000
13
0.0
23
0.0
14
1.0
24
1.0
15
0.0
25
0.0
16
0.0
26
0.0
36
1.0
17
0.0
27
0.0
37
0.0
40
558.8000000000
41
0.7727272727
42
50.0
43
0.0
44
0.0
50
0.0
51
0.0
71
0
72
100
73
1
74
1
75
0
76
0
77
0
78
0
0
ENDTAB
0
TABLE
2
LTYPE
5
5
100
AcDbSymbolTable
70
6
0
LTYPE
5
14
100
AcDbSymbolTableRecord
100
AcDbLinetypeTableRecord
2
BYBLOCK
70
0
3

72
65
73
0
40
0.0
0
LTYPE
5
15
100
AcDbSymbolTableRecord
100
AcDbLinetypeTableRecord
2
BYLAYER
70
0
3

72
65
73
0
40
0.0
0
LTYPE
5
16
100
AcDbSymbolTableRecord
100
AcDbLinetypeTableRecord
2
CONTINUOUS
70
64
3
Solid line
72
65
73
0
40
0
0
LTYPE
5
1F5
100
AcDbSymbolTableRecord
100
AcDbLinetypeTableRecord
2
CENTER
70
64
3
____ _ ____ _ ____ _ ____ _ ____ _ ____ _ ____
72
65
73
4
40
0.6
49
0.375
74
0
49
-0.075
74
0
49
0.075
74
0
49
-0.075
74
0
0
LTYPE
5
1F6
100
AcDbSymbolTableRecord
100
AcDbLinetypeTableRecord
2
HIDDEN
70
64
3
- - - - - - - - - - - - - - - - - - - -
72
65
73
2
40
0.2
49
0.1
74
0
49
-0.1
74
0
0
LTYPE
5
1F7
100
AcDbSymbolTableRecord
100
AcDbLinetypeTableRecord
2
PHANTOM
70
64
3
_____ _ _ _____ _ _ _____ _ _ _____
72
65
73
6
40
0.8
49
0.45
74
0
49
-0.05
74
0
49
0.1
74
0
49
-0.05
74
0
49
0.1
74
0
49
-0.05
74
0
0
LTYPE
5
1F8
100
AcDbSymbolTableRecord
100
AcDbLinetypeTableRecord
2
DOT
70
64
3
. . . . . . . . . . . . . . . . . . . .
72
65
73
2
40
0.2
49
0.1
74
0
49
-0.1
74
0
0
LTYPE
5
1F9
100
AcDbSymbolTableRecord
100
AcDbLinetypeTableRecord
2
DASHED
70
64
3
- - - - - - - - - - - - - - - - - - - -
72
65
73
2
40
0.2
49
0.1
74
0
49
-0.1
74
0
0
ENDTAB
0
TABLE
2
LAYER
5
2
100
AcDbSymbolTable
70
36
0
LAYER
5
10
100
AcDbSymbolTableRecord
100
AcDbLayerTableRecord
2
0
70
0
62
7
6
CONTINUOUS
370
-3
390
F
0
LAYER
5
1FA
100
AcDbSymbolTableRecord
100
AcDbLayerTableRecord
2
DEFAULT_1
70
0
62
7
6
CENTER
370
-3
390
F
0
LAYER
5
1FB
100
AcDbSymbolTableRecord
100
AcDbLayerTableRecord
2
DEFAULT_2
70
0
62
9
6
HIDDEN
370
-3
390
F
0
LAYER
5
1FC
100
AcDbSymbolTableRecord
100
AcDbLayerTableRecord
2
DEFAULT_3
70
0
62
7
6
PHANTOM
370
-3
390
F
0
LAYER
5
1FD
100
AcDbSymbolTableRecord
100
AcDbLayerTableRecord
2
_BLACK_HOLE
70
0
62
7
6
CONTINUOUS
370
-3
390
F
0
LAYER
5
1FE
100
AcDbSymbolTableRecord
100
AcDbLayerTableRecord
2
ASSI
70
0
62
7
6
CONTINUOUS
370
-3
390
F
0
LAYER
5
1FF
100
AcDbSymbolTableRecord
100
AcDbLayerTableRecord
2
COORDINATE
70
0
62
7
6
CONTINUOUS
370
-3
390
F
0
LAYER
5
200
100
AcDbSymbolTableRecord
100
AcDbLayerTableRecord
2
COPY_PUBLISH
70
0
62
7
6
CONTINUOUS
370
-3
390
F
0
LAYER
5
201
100
AcDbSymbolTableRecord
100
AcDbLayerTableRecord
2
COSMETIC
70
0
62
7
6
CONTINUOUS
370
-3
390
F
0
LAYER
5
202
100
AcDbSymbolTableRecord
100
AcDbLayerTableRecord
2
CURVE
70
0
62
7
6
CONTINUOUS
370
-3
390
F
0
LAYER
5
203
100
AcDbSymbolTableRecord
100
AcDbLayerTableRecord
2
DRAFT
70
0
62
7
6
CONTINUOUS
370
-3
390
F
0
LAYER
5
204
100
AcDbSymbolTableRecord
100
AcDbLayerTableRecord
2
IMPORT_IGES
70
0
62
7
6
CONTINUOUS
370
-3
390
F
0
LAYER
5
205
100
AcDbSymbolTableRecord
100
AcDbLayerTableRecord
2
NOTE
70
0
62
7
6
CONTINUOUS
370
-3
390
F
0
LAYER
5
206
100
AcDbSymbolTableRecord
100
AcDbLayerTableRecord
2
PIANI
70
0
62
7
6
CONTINUOUS
370
-3
390
F
0
LAYER
5
207
100
AcDbSymbolTableRecord
100
AcDbLayerTableRecord
2
PUNTI
70
0
62
7
6
CONTINUOUS
370
-3
390
F
0
LAYER
5
208
100
AcDbSymbolTableRecord
100
AcDbLayerTableRecord
2
RACCORDO
70
0
62
7
6
CONTINUOUS
370
-3
390
F
0
LAYER
5
209
100
AcDbSymbolTableRecord
100
AcDbLayerTableRecord
2
SNAPLINE
70
0
62
7
6
CONTINUOUS
370
-3
390
F
0
LAYER
5
20A
100
AcDbSymbolTableRecord
100
AcDbLayerTableRecord
2
TRASH
70
0
62
7
6
CONTINUOUS
370
-3
390
F
0
LAYER
5
20B
100
AcDbSymbolTableRecord
100
AcDbLayerTableRecord
2
XSEC_DATUMS
70
0
62
7
6
CONTINUOUS
370
-3
390
F
0
ENDTAB
0
TABLE
2
STYLE
5
3
100
AcDbSymbolTable
70
1
0
STYLE
5
11
100
AcDbSymbolTableRecord
100
AcDbTextStyleTableRecord
2
STANDARD
70
0
40
0.0
41
0.8000000000
50
0.0
71
0
42
0.2
3
txt
4

0
ENDTAB
0
TABLE
2
VIEW
5
6
100
AcDbSymbolTable
70
0
0
ENDTAB
0
TABLE
2
UCS
5
7
100
AcDbSymbolTable
70
0
0
ENDTAB
0
TABLE
2
APPID
5
9
100
AcDbSymbolTable
70
1
0
APPID
5
20C
100
AcDbSymbolTableRecord
100
AcDbRegAppTableRecord
2
ACAD
70
0
0
ENDTAB
0
TABLE
2
BLOCK_RECORD
5
1
100
AcDbSymbolTable
70
0
0
BLOCK_RECORD
5
1F
100
AcDbSymbolTableRecord
100
AcDbBlockTableRecord
2
*MODEL_SPACE
0
BLOCK_RECORD
5
1B
100
AcDbSymbolTableRecord
100
AcDbBlockTableRecord
2
*PAPER_SPACE
0
BLOCK_RECORD
5
20D
100
AcDbSymbolTableRecord
100
AcDbBlockTableRecord
2
_FILLED
0
BLOCK_RECORD
5
20E
100
AcDbSymbolTableRecord
100
AcDbBlockTableRecord
2
*D0
0
BLOCK_RECORD
5
20F
100
AcDbSymbolTableRecord
100
AcDbBlockTableRecord
2
*D1
0
BLOCK_RECORD
5
210
100
AcDbSymbolTableRecord
100
AcDbBlockTableRecord
2
*D2
0
BLOCK_RECORD
5
211
100
AcDbSymbolTableRecord
100
AcDbBlockTableRecord
2
*D3
0
BLOCK_RECORD
5
212
100
AcDbSymbolTableRecord
100
AcDbBlockTableRecord
2
*D4
0
BLOCK_RECORD
5
213
100
AcDbSymbolTableRecord
100
AcDbBlockTableRecord
2
*D5
0
ENDTAB
0
TABLE
2
DIMSTYLE
5
A
100
AcDbSymbolTable
70
1
100
AcDbDimStyleTable
71
0
0
DIMSTYLE
105
214
100
AcDbSymbolTableRecord
100
AcDbDimStyleTableRecord
2
STANDARD
70
0
3

4

40
1.0
41
3.0000000000
42
0.0625
43
0.38
44
0.18
45
0.0
46
0.0
47
0.0100000000
48
0.0100000000
140
3.0000000000
141
0.09
142
0.0
143
25.4
144
1.0000000000
145
0.0
146
1.0000000000
147
0.09
71
1
72
0
73
0
74
0
75
0
76
0
77
1
78
8
170
0
171
2
172
0
173
0
174
0
175
0
176
0
177
0
178
0
270
2
271
2
272
2
273
2
274
2
275
0
280
0
281
0
282
0
283
1
284
8
285
0
286
0
287
3
288
0
340
11
341
20D
342
20D
343
20D
344
20D
0
DIMSTYLE
105
215
100
AcDbSymbolTableRecord
100
AcDbDimStyleTableRecord
2
DIMSTYLE_1
70
0
3

4

40
1.0
41
3.0000000000
42
0.0625
43
0.38
44
0.18
45
0.0
46
0.0
47
0.0000000000
48
0.0000000000
140
3.0000000000
141
0.09
142
0.0
143
25.4
144
1.0000000000
145
0.0
146
1.0000000000
147
0.09
71
0
72
0
73
0
74
0
75
0
76
0
77
1
78
8
170
0
171
2
172
0
173
0
174
0
175
0
176
0
177
0
178
0
270
2
271
2
272
2
273
2
274
2
275
0
280
0
281
0
282
0
283
1
284
8
285
0
286
0
287
3
288
0
340
11
341
20D
342
20D
343
20D
344
20D
0
ENDTAB
0
ENDSEC
0
SECTION
2
BLOCKS
0
BLOCK
5
20
100
AcDbEntity
8
0
100
AcDbBlockBegin
2
*MODEL_SPACE
70
0
10
0.0
20
0.0
30
0.0
3
*MODEL_SPACE
1

0
ENDBLK
5
21
100
AcDbEntity
8
0
100
AcDbBlockEnd
0
BLOCK
5
1C
100
AcDbEntity
8
0
100
AcDbBlockBegin
2
*PAPER_SPACE
70
0
10
0.0
20
0.0
30
0.0
3
*PAPER_SPACE
1

0
ENDBLK
5
1D
100
AcDbEntity
8
0
100
AcDbBlockEnd
0
BLOCK
5
216
100
AcDbEntity
8
0
100
AcDbBlockBegin
62
0
6
CONTINUOUS
2
*D0
70
65
10
0.0000000000
20
0.0000000000
3
*D0
1

0
TEXT
5
217
100
AcDbEntity
8
0
100
AcDbText
62
0
6
CONTINUOUS
10
191.5406626999
20
161.5572011924
7
STANDARD
40
3.0000000000
1
284
41
0.7857142857
72
0
100
AcDbText
0
LINE
5
218
100
AcDbEntity
8
0
100
AcDbLine
62
0
6
CONTINUOUS
10
53.0763769856
20
133.3209058448
11
53.0763769856
21
162.3072011924
0
LINE
5
219
100
AcDbEntity
8
0
100
AcDbLine
62
0
6
CONTINUOUS
10
337.0763769856
20
133.3209058448
11
337.0763769856
21
162.3072011924
0
LINE
5
21A
100
AcDbEntity
8
0
100
AcDbLine
62
0
6
CONTINUOUS
10
53.0763769856
20
160.8072011924
11
195.0763769856
21
160.8072011924
0
LINE
5
21B
100
AcDbEntity
8
0
100
AcDbLine
62
0
6
CONTINUOUS
10
337.0763769856
20
160.8072011924
11
195.0763769856
21
160.8072011924
0
INSERT
5
21C
100
AcDbEntity
8
0
100
AcDbBlockReference
62
0
6
CONTINUOUS
2
_FILLED
10
53.0763769856
20
160.8072011924
41
  3.000000
42
  3.000000
43
  3.000000
50
180.000000
0
INSERT
5
21D
100
AcDbEntity
8
0
100
AcDbBlockReference
62
0
6
CONTINUOUS
2
_FILLED
10
337.0763769856
20
160.8072011924
41
  3.000000
42
  3.000000
43
  3.000000
0
ENDBLK
5
21E
100
AcDbEntity
8
0
6
BYBLOCK
62
0
100
AcDbBlockEnd
0
BLOCK
5
21F
100
AcDbEntity
8
0
100
AcDbBlockBegin
62
0
6
CONTINUOUS
2
*D1
70
65
10
0.0000000000
20
0.0000000000
3
*D1
1

0
TEXT
5
220
100
AcDbEntity
8
0
100
AcDbText
62
0
6
CONTINUOUS
10
354.3263769856
20
-2.7285130933
7
STANDARD
40
3.0000000000
1
284
50
90.0000000000
41
0.7857142857
72
0
100
AcDbText
0
LINE
5
221
100
AcDbEntity
8
0
100
AcDbLine
62
0
6
CONTINUOUS
10
327.5900816380
20
142.8072011924
11
356.5763769856
21
142.8072011924
0
LINE
5
222
100
AcDbEntity
8
0
100
AcDbLine
62
0
6
CONTINUOUS
10
327.5900816380
20
-141.1927988076
11
356.5763769856
21
-141.1927988076
0
LINE
5
223
100
AcDbEntity
8
0
100
AcDbLine
62
0
6
CONTINUOUS
10
355.0763769856
20
142.8072011924
11
355.0763769856
21
0.8072011924
0
LINE
5
224
100
AcDbEntity
8
0
100
AcDbLine
62
0
6
CONTINUOUS
10
355.0763769856
20
-141.1927988076
11
355.0763769856
21
0.8072011924
0
INSERT
5
225
100
AcDbEntity
8
0
100
AcDbBlockReference
62
0
6
CONTINUOUS
2
_FILLED
10
355.0763769856
20
142.8072011924
41
  3.000000
42
  3.000000
43
  3.000000
50
 90.000000
0
INSERT
5
226
100
AcDbEntity
8
0
100
AcDbBlockReference
62
0
6
CONTINUOUS
2
_FILLED
10
355.0763769856
20
-141.1927988076
41
  3.000000
42
  3.000000
43
  3.000000
50
270.000000
0
ENDBLK
5
227
100
AcDbEntity
8
0
6
BYBLOCK
62
0
100
AcDbBlockEnd
0
BLOCK
5
228
100
AcDbEntity
8
0
100
AcDbBlockBegin
62
0
6
CONTINUOUS
2
*D2
70
65
10
0.0000000000
20
0.0000000000
3
*D2
1

0
TEXT
5
229
100
AcDbEntity
8
0
100
AcDbText
62
0
6
CONTINUOUS
10
-72.3764776336
20
-148.4427988076
7
STANDARD
40
3.0000000000
1
6,2
41
0.7142857143
72
0
100
AcDbText
0
LINE
5
22A
100
AcDbEntity
8
0
100
AcDbLine
62
0
6
CONTINUOUS
10
-55.5945405692
20
-144.6297976915
11
-55.5945405692
21
-150.6927988076
0
LINE
5
22B
100
AcDbEntity
8
0
100
AcDbLine
62
0
6
CONTINUOUS
10
-61.7945405692
20
-143.2278346877
11
-61.7945405692
21
-150.6927988076
0
LINE
5
22C
100
AcDbEntity
8
0
100
AcDbLine
62
0
6
CONTINUOUS
10
-55.5945405692
20
-149.1927988076
11
-51.5945405692
21
-149.1927988076
0
LINE
5
22D
100
AcDbEntity
8
0
100
AcDbLine
62
0
6
CONTINUOUS
10
-51.5945405692
20
-149.1927988076
11
-58.6945405692
21
-149.1927988076
0
LINE
5
22E
100
AcDbEntity
8
0
100
AcDbLine
62
0
6
CONTINUOUS
10
-61.7945405692
20
-149.1927988076
11
-72.3764776336
21
-149.1927988076
0
LINE
5
22F
100
AcDbEntity
8
0
100
AcDbLine
62
0
6
CONTINUOUS
10
-72.3764776336
20
-149.1927988076
11
-58.6945405692
21
-149.1927988076
0
INSERT
5
230
100
AcDbEntity
8
0
100
AcDbBlockReference
62
0
6
CONTINUOUS
2
_FILLED
10
-55.5945405692
20
-149.1927988076
41
  3.000000
42
  3.000000
43
  3.000000
50
180.000000
0
INSERT
5
231
100
AcDbEntity
8
0
100
AcDbBlockReference
62
0
6
CONTINUOUS
2
_FILLED
10
-61.7945405692
20
-149.1927988076
41
  3.000000
42
  3.000000
43
  3.000000
0
ENDBLK
5
232
100
AcDbEntity
8
0
6
BYBLOCK
62
0
100
AcDbBlockEnd
0
BLOCK
5
233
100
AcDbEntity
8
0
100
AcDbBlockBegin
62
0
6
CONTINUOUS
2
*D3
70
65
10
0.0000000000
20
0.0000000000
3
*D3
1

0
TEXT
5
234
100
AcDbEntity
8
0
100
AcDbText
62
0
6
CONTINUOUS
10
-60.9088262835
20
151.5572011924
7
STANDARD
40
3.0000000000
1
8,2
41
0.7142857143
72
0
100
AcDbText
0
LINE
5
235
100
AcDbEntity
8
0
100
AcDbLine
62
0
6
CONTINUOUS
10
-53.5945405692
20
116.5072011924
11
-53.5945405692
21
152.3072011924
0
LINE
5
236
100
AcDbEntity
8
0
100
AcDbLine
62
0
6
CONTINUOUS
10
-61.7945405692
20
141.0843438274
11
-61.7945405692
21
152.3072011924
0
LINE
5
237
100
AcDbEntity
8
0
100
AcDbLine
62
0
6
CONTINUOUS
10
-53.5945405692
20
150.8072011924
11
-49.5945405692
21
150.8072011924
0
LINE
5
238
100
AcDbEntity
8
0
100
AcDbLine
62
0
6
CONTINUOUS
10
-49.5945405692
20
150.8072011924
11
-57.6945405692
21
150.8072011924
0
LINE
5
239
100
AcDbEntity
8
0
100
AcDbLine
62
0
6
CONTINUOUS
10
-61.7945405692
20
150.8072011924
11
-65.7945405692
21
150.8072011924
0
LINE
5
23A
100
AcDbEntity
8
0
100
AcDbLine
62
0
6
CONTINUOUS
10
-65.7945405692
20
150.8072011924
11
-57.6945405692
21
150.8072011924
0
INSERT
5
23B
100
AcDbEntity
8
0
100
AcDbBlockReference
62
0
6
CONTINUOUS
2
_FILLED
10
-53.5945405692
20
150.8072011924
41
  3.000000
42
  3.000000
43
  3.000000
50
180.000000
0
INSERT
5
23C
100
AcDbEntity
8
0
100
AcDbBlockReference
62
0
6
CONTINUOUS
2
_FILLED
10
-61.7945405692
20
150.8072011924
41
  3.000000
42
  3.000000
43
  3.000000
0
ENDBLK
5
23D
100
AcDbEntity
8
0
6
BYBLOCK
62
0
100
AcDbBlockEnd
0
BLOCK
5
23E
100
AcDbEntity
8
0
100
AcDbBlockBegin
62
0
6
CONTINUOUS
2
*D4
70
65
10
0.0000000000
20
0.0000000000
3
*D4
1

0
TEXT
5
23F
100
AcDbEntity
8
0
100
AcDbText
62
0
6
CONTINUOUS
10
191.5406626999
20
151.5572011924
7
STANDARD
40
3.0000000000
1
224
41
0.7857142857
72
0
100
AcDbText
0
LINE
5
240
100
AcDbEntity
8
0
100
AcDbLine
62
0
6
CONTINUOUS
10
307.0763769856
20
113.3072011924
11
307.0763769856
21
152.3072011924
0
LINE
5
241
100
AcDbEntity
8
0
100
AcDbLine
62
0
6
CONTINUOUS
10
83.0763769856
20
114.9572011924
11
83.0763769856
21
152.3072011924
0
LINE
5
242
100
AcDbEntity
8
0
100
AcDbLine
62
0
6
CONTINUOUS
10
307.0763769856
20
150.8072011924
11
195.0763769856
21
150.8072011924
0
LINE
5
243
100
AcDbEntity
8
0
100
AcDbLine
62
0
6
CONTINUOUS
10
83.0763769856
20
150.8072011924
11
195.0763769856
21
150.8072011924
0
INSERT
5
244
100
AcDbEntity
8
0
100
AcDbBlockReference
62
0
6
CONTINUOUS
2
_FILLED
10
307.0763769856
20
150.8072011924
41
  3.000000
42
  3.000000
43
  3.000000
0
INSERT
5
245
100
AcDbEntity
8
0
100
AcDbBlockReference
62
0
6
CONTINUOUS
2
_FILLED
10
83.0763769856
20
150.8072011924
41
  3.000000
42
  3.000000
43
  3.000000
50
180.000000
0
ENDBLK
5
246
100
AcDbEntity
8
0
6
BYBLOCK
62
0
100
AcDbBlockEnd
0
BLOCK
5
247
100
AcDbEntity
8
0
100
AcDbBlockBegin
62
0
6
CONTINUOUS
2
*D5
70
65
10
0.0000000000
20
0.0000000000
3
*D5
1

0
TEXT
5
248
100
AcDbEntity
8
0
100
AcDbText
62
0
6
CONTINUOUS
10
344.3263769856
20
-2.7285130933
7
STANDARD
40
3.0000000000
1
224
50
90.0000000000
41
0.7857142857
72
0
100
AcDbText
0
LINE
5
249
100
AcDbEntity
8
0
100
AcDbLine
62
0
6
CONTINUOUS
10
307.5763769856
20
112.8072011924
11
346.5763769856
21
112.8072011924
0
LINE
5
24A
100
AcDbEntity
8
0
100
AcDbLine
62
0
6
CONTINUOUS
10
307.5763769856
20
-111.1927988076
11
346.5763769856
21
-111.1927988076
0
LINE
5
24B
100
AcDbEntity
8
0
100
AcDbLine
62
0
6
CONTINUOUS
10
345.0763769856
20
112.8072011924
11
345.0763769856
21
0.8072011924
0
LINE
5
24C
100
AcDbEntity
8
0
100
AcDbLine
62
0
6
CONTINUOUS
10
345.0763769856
20
-111.1927988076
11
345.0763769856
21
0.8072011924
0
INSERT
5
24D
100
AcDbEntity
8
0
100
AcDbBlockReference
62
0
6
CONTINUOUS
2
_FILLED
10
345.0763769856
20
112.8072011924
41
  3.000000
42
  3.000000
43
  3.000000
50
 90.000000
0
INSERT
5
24E
100
AcDbEntity
8
0
100
AcDbBlockReference
62
0
6
CONTINUOUS
2
_FILLED
10
345.0763769856
20
-111.1927988076
41
  3.000000
42
  3.000000
43
  3.000000
50
270.000000
0
ENDBLK
5
24F
100
AcDbEntity
8
0
6
BYBLOCK
62
0
100
AcDbBlockEnd
0
BLOCK
5
250
100
AcDbEntity
8
0
100
AcDbBlockBegin
2
_FILLED
70
64
10
0.0000000000
20
0.0000000000
3
_FILLED
1

0
SOLID
5
251
100
AcDbEntity
8
0
6
BYBLOCK
62
0
100
AcDbTrace
10
0.0000000000
20
0.0000000000
11
-1.0000000000
21
0.3166666667
12
-1.0000000000
22
-0.3166666667
13
-1.0000000000
23
-0.3166666667
0
ENDBLK
5
252
100
AcDbEntity
8
0
6
BYBLOCK
62
0
100
AcDbBlockEnd
0
ENDSEC
0
SECTION
2
ENTITIES
0
DIMENSION
5
253
100
AcDbEntity
8
0
100
AcDbDimension
62
0
6
CONTINUOUS
2
*D0
10
337.0763769856
20
160.8072011924
11
195.0763769856
21
163.0572011924
70
160
42
284.000000
3
DIMSTYLE_1
100
AcDbAlignedDimension
13
53.0763769856
23
133.3209058448
14
337.0763769856
24
133.3209058448
100
AcDbRotatedDimension
0
DIMENSION
5
254
100
AcDbEntity
8
0
100
AcDbDimension
62
0
6
CONTINUOUS
2
*D1
10
355.0763769856
20
-141.1927988076
11
352.8263769856
21
0.8072011924
70
160
42
284.000000
3
DIMSTYLE_1
100
AcDbAlignedDimension
13
327.5900816380
23
142.8072011924
14
327.5900816380
24
-141.1927988076
50
270.000000
100
AcDbRotatedDimension
0
DIMENSION
5
255
100
AcDbEntity
8
0
100
AcDbDimension
62
0
6
CONTINUOUS
2
*D2
10
-61.7945405692
20
-149.1927988076
11
-69.1621919193
21
-146.9427988076
70
160
42
6.200000
3
DIMSTYLE_1
100
AcDbAlignedDimension
13
-55.5945405692
23
-144.6297976915
14
-61.7945405692
24
-143.2278346877
50
180.000000
100
AcDbRotatedDimension
0
DIMENSION
5
256
100
AcDbEntity
8
0
100
AcDbDimension
62
0
6
CONTINUOUS
2
*D3
10
-61.7945405692
20
150.8072011924
11
-57.6945405692
21
153.0572011924
70
160
42
8.200000
3
DIMSTYLE_1
100
AcDbAlignedDimension
13
-53.5945405692
23
116.5072011924
14
-61.7945405692
24
141.0843438274
50
180.000000
100
AcDbRotatedDimension
0
DIMENSION
5
257
100
AcDbEntity
8
0
100
AcDbDimension
62
0
6
CONTINUOUS
2
*D4
10
83.0763769856
20
150.8072011924
11
195.0763769856
21
153.0572011924
70
160
42
224.000000
3
DIMSTYLE_1
100
AcDbAlignedDimension
13
307.0763769856
23
113.3072011924
14
83.0763769856
24
114.9572011924
50
180.000000
100
AcDbRotatedDimension
0
DIMENSION
5
258
100
AcDbEntity
8
0
100
AcDbDimension
62
0
6
CONTINUOUS
2
*D5
10
345.0763769856
20
-111.1927988076
11
342.8263769856
21
0.8072011924
70
160
42
224.000000
3
DIMSTYLE_1
100
AcDbAlignedDimension
13
307.5763769856
23
112.8072011924
14
307.5763769856
24
-111.1927988076
50
270.000000
100
AcDbRotatedDimension
0
LINE
5
259
100
AcDbEntity
8
0
100
AcDbLine
62
0
6
CONTINUOUS
10
53.0763769856
20
-131.2065034601
11
53.0763769856
21
132.8209058448
0
LINE
5
25A
100
AcDbEntity
8
0
100
AcDbLine
62
9
6
CONTINUOUS
10
53.3019752811
20
132.5951661111
11
53.3019752811
21
-130.9807509996
0
LINE
5
25B
100
AcDbEntity
8
0
100
AcDbLine
62
9
6
CONTINUOUS
10
55.2992343506
20
132.5953075494
11
55.2992343506
21
-130.9809051646
0
LINE
5
25C
100
AcDbEntity
8
0
100
AcDbLine
62
0
6
CONTINUOUS
10
63.0626723331
20
-141.1927988076
11
327.0900816380
21
-141.1927988076
0
LINE
5
25D
100
AcDbEntity
8
0
100
AcDbLine
62
9
6
CONTINUOUS
10
63.2884120669
20
-140.9672005122
11
326.8643291775
21
-140.9672005122
0
LINE
5
25E
100
AcDbEntity
8
0
100
AcDbLine
62
9
6
CONTINUOUS
10
63.2882706286
20
-138.9699414426
11
326.8644833426
21
-138.9699414426
0
LINE
5
25F
100
AcDbEntity
8
0
100
AcDbLine
62
9
6
CONTINUOUS
10
63.2882706286
20
-138.9699414426
11
63.2882706286
21
-140.9672005122
0
LINE
5
260
100
AcDbEntity
8
0
100
AcDbLine
62
9
6
CONTINUOUS
10
63.2882706286
20
140.5843438274
11
63.2882706288
21
142.5816028969
0
LINE
5
261
100
AcDbEntity
8
0
100
AcDbLine
62
9
6
CONTINUOUS
10
55.2992343506
20
-130.9809051646
11
53.3019752811
21
-130.9809051645
0
LINE
5
262
100
AcDbEntity
8
0
100
AcDbLine
62
9
6
CONTINUOUS
10
334.8535196206
20
-130.9809051646
11
336.8507786901
21
-130.9809051646
0
LINE
5
263
100
AcDbEntity
8
0
100
AcDbLine
62
9
6
CONTINUOUS
10
53.3019752811
20
-130.9807509996
11
53.0763769856
21
-131.2065034601
0
LINE
5
264
100
AcDbEntity
8
0
100
AcDbLine
62
9
6
CONTINUOUS
10
326.8643419043
20
142.5816028969
11
327.0900816380
21
142.8072011924
0
LINE
5
265
100
AcDbEntity
8
0
100
AcDbLine
62
9
6
CONTINUOUS
10
326.8643291775
20
-140.9672005122
11
327.0900816380
21
-141.1927988076
0
LINE
5
266
100
AcDbEntity
8
0
100
AcDbLine
62
9
6
CONTINUOUS
10
53.3019752811
20
132.5951661111
11
53.0763769856
21
132.8209058448
0
LINE
5
267
100
AcDbEntity
8
0
100
AcDbLine
62
9
6
CONTINUOUS
10
336.8507786901
20
132.5951533843
11
337.0763769856
21
132.8209058448
0
LINE
5
268
100
AcDbEntity
8
0
100
AcDbLine
62
9
6
CONTINUOUS
10
63.2884120669
20
-140.9672005122
11
63.0626723331
21
-141.1927988076
0
LINE
5
269
100
AcDbEntity
8
0
100
AcDbLine
62
9
6
CONTINUOUS
10
63.2884247936
20
142.5816028969
11
63.0626723331
21
142.8072011924
0
LINE
5
26A
100
AcDbEntity
8
0
100
AcDbLine
62
9
6
CONTINUOUS
10
336.8507786901
20
-130.9807637264
11
337.0763769856
21
-131.2065034601
0
LINE
5
26B
100
AcDbEntity
8
0
100
AcDbLine
62
9
6
CONTINUOUS
10
326.8644833426
20
-138.9699414426
11
326.8644833424
21
-140.9672005122
0
LINE
5
26C
100
AcDbEntity
8
0
100
AcDbLine
62
9
6
CONTINUOUS
10
326.8644833426
20
140.5843438274
11
326.8644833426
21
142.5816028969
0
LINE
5
26D
100
AcDbEntity
8
0
100
AcDbLine
62
9
6
CONTINUOUS
10
55.2992343506
20
132.5953075494
11
53.3019752811
21
132.5953075494
0
LINE
5
26E
100
AcDbEntity
8
0
100
AcDbLine
62
9
6
CONTINUOUS
10
334.8535196206
20
132.5953075494
11
336.8507786901
21
132.5953075492
0
LINE
5
26F
100
AcDbEntity
8
0
100
AcDbLine
62
9
6
CONTINUOUS
10
334.8535196206
20
-130.9809051646
11
334.8535196206
21
132.5953075494
0
LINE
5
270
100
AcDbEntity
8
0
100
AcDbLine
62
9
6
CONTINUOUS
10
336.8507786901
20
-130.9807637264
11
336.8507786901
21
132.5951533843
0
LINE
5
271
100
AcDbEntity
8
0
100
AcDbLine
62
0
6
CONTINUOUS
10
337.0763769856
20
-131.2065034601
11
337.0763769856
21
132.8209058448
0
LINE
5
272
100
AcDbEntity
8
0
100
AcDbLine
62
9
6
CONTINUOUS
10
326.8644833426
20
140.5843438274
11
63.2882706286
21
140.5843438274
0
LINE
5
273
100
AcDbEntity
8
0
100
AcDbLine
62
9
6
CONTINUOUS
10
326.8643419043
20
142.5816028969
11
63.2884247936
21
142.5816028969
0
LINE
5
274
100
AcDbEntity
8
0
100
AcDbLine
62
0
6
CONTINUOUS
10
63.0626723331
20
142.8072011924
11
327.0900816380
21
142.8072011924
0
LINE
5
275
100
AcDbEntity
8
0
100
AcDbLine
62
0
6
CONTINUOUS
10
-59.8992124817
20
-140.9672005122
11
-55.5945405692
21
-141.1927988076
0
LINE
5
276
100
AcDbEntity
8
0
100
AcDbLine
62
9
6
CONTINUOUS
10
-61.7945405692
20
-130.9809051646
11
-59.8992124817
21
-130.9809051646
0
LINE
5
277
100
AcDbEntity
8
0
100
AcDbLine
62
9
6
CONTINUOUS
10
-59.8992124817
20
-130.9807637264
11
-55.5945405692
21
-131.2065034601
0
LINE
5
278
100
AcDbEntity
8
0
100
AcDbLine
62
0
6
CONTINUOUS
10
-55.5945405692
20
-114.6384128427
11
-53.5945405692
21
-114.3927988076
0
LINE
5
279
100
AcDbEntity
8
0
100
AcDbLine
62
0
6
CONTINUOUS
10
-55.5945405692
20
-107.7471847725
11
-53.5945405692
21
-107.9927988076
0
LINE
5
27A
100
AcDbEntity
8
0
100
AcDbLine
62
0
6
CONTINUOUS
10
-61.7945405692
20
-138.9699414426
11
-61.7945405692
21
140.5843438274
0
LINE
5
27B
100
AcDbEntity
8
0
100
AcDbLine
62
9
6
CONTINUOUS
10
-59.8992124817
20
-130.9807637264
11
-59.8992124817
21
132.5951533843
0
LINE
5
27C
100
AcDbEntity
8
0
100
AcDbLine
62
0
6
CONTINUOUS
10
-55.5945405692
20
142.8072011924
11
-55.5945405692
21
-141.1927988076
0
LINE
5
27D
100
AcDbEntity
8
0
100
AcDbLine
62
0
6
CONTINUOUS
10
-53.5945405692
20
-114.3927988076
11
-53.5945405692
21
-107.9927988076
0
LINE
5
27E
100
AcDbEntity
8
0
100
AcDbLine
62
0
6
CONTINUOUS
10
-53.5945405692
20
109.6072011924
11
-53.5945405692
21
116.0072011924
0
LINE
5
27F
100
AcDbEntity
8
0
100
AcDbLine
62
0
6
CONTINUOUS
10
-55.5945405692
20
109.3615871573
11
-53.5945405692
21
109.6072011924
0
LINE
5
280
100
AcDbEntity
8
0
100
AcDbLine
62
0
6
CONTINUOUS
10
-55.5945405692
20
116.2528152275
11
-53.5945405692
21
116.0072011924
0
LINE
5
281
100
AcDbEntity
8
0
100
AcDbLine
62
9
6
CONTINUOUS
10
-59.8992124817
20
132.5951533843
11
-55.5945405692
21
132.8209058448
0
LINE
5
282
100
AcDbEntity
8
0
100
AcDbLine
62
0
6
CONTINUOUS
10
-59.8992124817
20
142.5816028969
11
-55.5945405692
21
142.8072011924
0
LINE
5
283
100
AcDbEntity
8
0
100
AcDbLine
62
9
6
CONTINUOUS
10
-61.7945405692
20
132.5953075494
11
-59.8992124817
21
132.5953075492
0
CIRCLE
5
284
100
AcDbEntity
8
0
100
AcDbCircle
62
0
6
CONTINUOUS
10
307.0763769856
20
112.8072011924
40
3.0000000000
0
CIRCLE
5
285
100
AcDbEntity
8
0
100
AcDbCircle
62
0
6
CONTINUOUS
10
83.0763769856
20
112.8072011924
40
3.0000000000
0
CIRCLE
5
286
100
AcDbEntity
8
0
100
AcDbCircle
62
0
6
CONTINUOUS
10
83.0763769856
20
-111.1927988076
40
3.0000000000
0
CIRCLE
5
287
100
AcDbEntity
8
0
100
AcDbCircle
62
0
6
CONTINUOUS
10
307.0763769856
20
-111.1927988076
40
3.0000000000
0
CIRCLE
5
288
100
AcDbEntity
8
0
100
AcDbCircle
62
0
6
CONTINUOUS
10
307.0763769856
20
-111.1927988076
40
1.6500000000
0
CIRCLE
5
289
100
AcDbEntity
8
0
100
AcDbCircle
62
0
6
CONTINUOUS
10
83.0763769856
20
-111.1927988076
40
1.6500000000
0
CIRCLE
5
28A
100
AcDbEntity
8
0
100
AcDbCircle
62
0
6
CONTINUOUS
10
83.0763769856
20
112.8072011924
40
1.6500000000
0
CIRCLE
5
28B
100
AcDbEntity
8
0
100
AcDbCircle
62
0
6
CONTINUOUS
10
307.0763769856
20
112.8072011924
40
1.6500000000
0
ARC
5
28C
100
AcDbEntity
8
0
100
AcDbCircle
62
0
6
CONTINUOUS
10
-59.7945405692
20
140.5843393727
40
2.0000000000
100
AcDbArc
50
92.9999933211
51
179.9998723836
0
ARC
5
28D
100
AcDbEntity
8
0
100
AcDbCircle
62
0
6
CONTINUOUS
10
-59.7945405692
20
-138.9699369880
40
2.0000000000
100
AcDbArc
50
180.0001276164
51
267.0000066789
0
SPLINE
5
28E
100
AcDbEntity
8
0
100
AcDbSpline
62
0
6
CONTINUOUS
70
0
71
3
72
19
73
15
74
13
42
0.0000001000
43
0.0000001000
44
0.0000000001
12
0.0000000000
22
-15.6771721641
32
0.0000000000
13
-15.6771721641
23
-0.0000000000
33
0.0000000000
40
0.0000000000
40
0.0000000000
40
0.0000000000
40
0.0000000000
40
0.0834625428
40
0.1668608648
40
0.2502017384
40
0.3334957253
40
0.4167565359
40
0.5000001917
40
0.5832438251
40
0.6665045708
40
0.7497984665
40
0.8331392453
40
0.9165374917
40
1.0000000000
40
1.0000000000
40
1.0000000000
40
1.0000000000
10
337.0763769856
20
-131.2065034601
30
0.0000000000
10
337.0763769856
20
-131.6426556778
30
0.0000000000
10
337.0192452007
20
-132.5157016770
30
0.0000000000
10
336.7635917494
20
-133.8015775033
30
0.0000000000
10
336.3425627802
20
-135.0424842595
30
0.0000000000
10
335.7634715125
20
-136.2171042736
30
0.0000000000
10
335.0362551233
20
-137.3056546702
30
0.0000000000
10
334.1732979484
20
-138.2897238762
30
0.0000000000
10
333.1892284938
20
-139.1526802483
30
0.0000000000
10
332.1006785031
20
-139.8798955516
30
0.0000000000
10
330.9260594477
20
-140.4589857709
30
0.0000000000
10
329.6851538934
20
-140.8800139895
30
0.0000000000
10
328.3992790979
20
-141.1356670841
30
0.0000000000
10
327.5262336753
20
-141.1927988076
30
0.0000000000
10
327.0900816380
20
-141.1927988076
30
0.0000000000
11
337.0763769856
21
-131.2065034601
31
0.0000000000
11
336.9908601780
21
-132.5121625613
31
0.0000000000
11
336.7359143929
21
-133.7945149933
31
0.0000000000
11
336.3160806894
21
-135.0317742783
31
0.0000000000
11
335.7386563722
21
-136.2029838279
31
0.0000000000
11
335.0135518386
21
-137.2883482865
31
0.0000000000
11
334.1531138308
21
-138.2695399111
31
0.0000000000
11
333.1719219644
21
-139.1299771133
31
0.0000000000
11
332.0865579774
21
-139.8550805196
31
0.0000000000
11
330.9153494816
21
-140.4325037432
31
0.0000000000
11
329.6780915006
21
-140.8523366624
31
0.0000000000
11
328.3957402014
21
-141.1072820708
31
0.0000000000
11
327.0900816380
21
-141.1927988076
31
0.0000000000
0
SPLINE
5
28F
100
AcDbEntity
8
0
100
AcDbSpline
62
0
6
CONTINUOUS
70
0
71
3
72
19
73
15
74
13
42
0.0000001000
43
0.0000001000
44
0.0000000001
12
15.6771721641
22
0.0000000000
32
0.0000000000
13
-0.0000000000
23
-15.6771721641
33
0.0000000000
40
0.0000000000
40
0.0000000000
40
0.0000000000
40
0.0000000000
40
0.0834625428
40
0.1668608648
40
0.2502017384
40
0.3334957253
40
0.4167565359
40
0.5000001917
40
0.5832438251
40
0.6665045708
40
0.7497984665
40
0.8331392453
40
0.9165374917
40
1.0000000000
40
1.0000000000
40
1.0000000000
40
1.0000000000
10
327.0900816380
20
142.8072011924
30
0.0000000000
10
327.5262338557
20
142.8072011924
30
0.0000000000
10
328.3992798550
20
142.7500694075
30
0.0000000000
10
329.6851556813
20
142.4944159561
30
0.0000000000
10
330.9260624375
20
142.0733869870
30
0.0000000000
10
332.1006824516
20
141.4942957193
30
0.0000000000
10
333.1892328481
20
140.7670793301
30
0.0000000000
10
334.1733020542
20
139.9041221552
30
0.0000000000
10
335.0362584263
20
138.9200527006
30
0.0000000000
10
335.7634737295
20
137.8315027099
30
0.0000000000
10
336.3425639488
20
136.6568836545
30
0.0000000000
10
336.7635921675
20
135.4159781002
30
0.0000000000
10
337.0192452621
20
134.1301033047
30
0.0000000000
10
337.0763769856
20
133.2570578821
30
0.0000000000
10
337.0763769856
20
132.8209058448
30
0.0000000000
11
327.0900816380
21
142.8072011924
31
0.0000000000
11
328.3957407393
21
142.7216843848
31
0.0000000000
11
329.6780931713
21
142.4667385997
31
0.0000000000
11
330.9153524563
21
142.0469048962
31
0.0000000000
11
332.0865620059
21
141.4694805790
31
0.0000000000
11
333.1719264645
21
140.7443760454
31
0.0000000000
11
334.1531180891
21
139.8839380376
31
0.0000000000
11
335.0135552913
21
138.9027461712
31
0.0000000000
11
335.7386586976
21
137.8173821842
31
0.0000000000
11
336.3160819212
21
136.6461736884
31
0.0000000000
11
336.7359148404
21
135.4089157074
31
0.0000000000
11
336.9908602488
21
134.1265644082
31
0.0000000000
11
337.0763769856
21
132.8209058448
31
0.0000000000
0
SPLINE
5
290
100
AcDbEntity
8
0
100
AcDbSpline
62
0
6
CONTINUOUS
70
0
71
3
72
19
73
15
74
13
42
0.0000001000
43
0.0000001000
44
0.0000000001
12
0.0000000000
22
15.6771721641
32
0.0000000000
13
15.6771721641
23
0.0000000000
33
0.0000000000
40
0.0000000000
40
0.0000000000
40
0.0000000000
40
0.0000000000
40
0.0834625428
40
0.1668608648
40
0.2502017384
40
0.3334957253
40
0.4167565359
40
0.5000001917
40
0.5832438251
40
0.6665045708
40
0.7497984665
40
0.8331392453
40
0.9165374917
40
1.0000000000
40
1.0000000000
40
1.0000000000
40
1.0000000000
10
53.0763769856
20
132.8209058448
30
0.0000000000
10
53.0763769856
20
133.2570580625
30
0.0000000000
10
53.1335087705
20
134.1301040618
30
0.0000000000
10
53.3891622218
20
135.4159798881
30
0.0000000000
10
53.8101911910
20
136.6568866443
30
0.0000000000
10
54.3892824587
20
137.8315066583
30
0.0000000000
10
55.1164988479
20
138.9200570549
30
0.0000000000
10
55.9794560227
20
139.9041262610
30
0.0000000000
10
56.9635254774
20
140.7670826331
30
0.0000000000
10
58.0520754680
20
141.4942979363
30
0.0000000000
10
59.2266945235
20
142.0733881556
30
0.0000000000
10
60.4676000778
20
142.4944163743
30
0.0000000000
10
61.7534748733
20
142.7500694689
30
0.0000000000
10
62.6265202959
20
142.8072011924
30
0.0000000000
10
63.0626723331
20
142.8072011924
30
0.0000000000
11
53.0763769856
21
132.8209058448
31
0.0000000000
11
53.1618937932
21
134.1265649461
31
0.0000000000
11
53.4168395783
21
135.4089173781
31
0.0000000000
11
53.8366732818
21
136.6461766630
31
0.0000000000
11
54.4140975990
21
137.8173862127
31
0.0000000000
11
55.1392021326
21
138.9027506712
31
0.0000000000
11
55.9996401404
21
139.8839422959
31
0.0000000000
11
56.9808320068
21
140.7443794981
31
0.0000000000
11
58.0661959938
21
141.4694829043
31
0.0000000000
11
59.2374044895
21
142.0469061280
31
0.0000000000
11
60.4746624706
21
142.4667390472
31
0.0000000000
11
61.7570137698
21
142.7216844556
31
0.0000000000
11
63.0626723331
21
142.8072011924
31
0.0000000000
0
SPLINE
5
291
100
AcDbEntity
8
0
100
AcDbSpline
62
0
6
CONTINUOUS
70
0
71
3
72
19
73
15
74
13
42
0.0000001000
43
0.0000001000
44
0.0000000001
12
-15.6771721641
22
0.0000000000
32
0.0000000000
13
-0.0000000000
23
15.6771721641
33
0.0000000000
40
0.0000000000
40
0.0000000000
40
0.0000000000
40
0.0000000000
40
0.0834625428
40
0.1668608648
40
0.2502017384
40
0.3334957253
40
0.4167565359
40
0.5000001917
40
0.5832438251
40
0.6665045708
40
0.7497984665
40
0.8331392453
40
0.9165374917
40
1.0000000000
40
1.0000000000
40
1.0000000000
40
1.0000000000
10
63.0626723331
20
-141.1927988076
30
0.0000000000
10
62.6265201154
20
-141.1927988076
30
0.0000000000
10
61.7534741162
20
-141.1356670227
30
0.0000000000
10
60.4675982899
20
-140.8800135714
30
0.0000000000
10
59.2266915337
20
-140.4589846022
30
0.0000000000
10
58.0520715196
20
-139.8798933345
30
0.0000000000
10
56.9635211230
20
-139.1526769454
30
0.0000000000
10
55.9794519170
20
-138.2897197705
30
0.0000000000
10
55.1164955449
20
-137.3056503158
30
0.0000000000
10
54.3892802417
20
-136.2171003252
30
0.0000000000
10
53.8101900223
20
-135.0424812697
30
0.0000000000
10
53.3891618037
20
-133.8015757154
30
0.0000000000
10
53.1335087091
20
-132.5157009199
30
0.0000000000
10
53.0763769856
20
-131.6426554973
30
0.0000000000
10
53.0763769856
20
-131.2065034601
30
0.0000000000
11
63.0626723331
21
-141.1927988076
31
0.0000000000
11
61.7570132319
21
-141.1072820001
31
0.0000000000
11
60.4746607999
21
-140.8523362150
31
0.0000000000
11
59.2374015149
21
-140.4325025115
31
0.0000000000
11
58.0661919653
21
-139.8550781942
31
0.0000000000
11
56.9808275067
21
-139.1299736606
31
0.0000000000
11
55.9996358821
21
-138.2695356529
31
0.0000000000
11
55.1391986799
21
-137.2883437864
31
0.0000000000
11
54.4140952736
21
-136.2029797994
31
0.0000000000
11
53.8366720500
21
-135.0317713037
31
0.0000000000
11
53.4168391308
21
-133.7945133226
31
0.0000000000
11
53.1618937224
21
-132.5121620235
31
0.0000000000
11
53.0763769856
21
-131.2065034601
31
0.0000000000
0
SPLINE
5
292
100
AcDbEntity
8
0
100
AcDbSpline
62
9
6
CONTINUOUS
70
0
71
3
72
20
73
16
74
14
42
0.0000001000
43
0.0000001000
44
0.0000000001
12
15.6760194484
22
0.0086909131
32
0.0000000000
13
0.0086817074
23
15.6760194535
33
0.0000000000
40
0.0000000000
40
0.0000000000
40
0.0000000000
40
0.0000000000
40
0.0769928633
40
0.1539510616
40
0.2308879306
40
0.3077973107
40
0.3846835136
40
0.4615620001
40
0.5384367666
40
0.6153151202
40
0.6922012471
40
0.7691107951
40
0.8460475340
40
0.9230055205
40
1.0000000000
40
1.0000000000
40
1.0000000000
40
1.0000000000
10
326.8643292830
20
-140.9672006164
30
0.0000000000
10
327.2666431573
20
-140.9669775703
30
0.0000000000
10
328.0719093973
20
-140.9179391364
30
0.0000000000
10
329.2612851859
20
-140.6995368524
30
0.0000000000
10
330.4154629517
20
-140.3395912923
30
0.0000000000
10
331.5174829219
20
-139.8433870713
30
0.0000000000
10
332.5514491558
20
-139.2181913881
30
0.0000000000
10
333.5024134179
20
-138.4730877449
30
0.0000000000
10
334.3566441054
20
-137.6188598060
30
0.0000000000
10
335.1017502220
20
-136.6678988868
30
0.0000000000
10
335.7269494018
20
-135.6339350209
30
0.0000000000
10
336.2231572705
20
-134.5319169100
30
0.0000000000
10
336.5831065730
20
-133.3777412372
30
0.0000000000
10
336.8015139526
20
-132.1883597129
30
0.0000000000
10
336.8505559713
20
-131.3830861427
30
0.0000000000
10
336.8507787858
20
-130.9807638231
30
0.0000000000
11
326.8643292830
21
-140.9672006164
31
0.0000000000
11
328.0690352741
21
-140.8937703516
31
0.0000000000
11
329.2555978328
21
-140.6759025229
31
0.0000000000
11
330.4069629861
21
-140.3168081714
31
0.0000000000
11
331.5062934548
21
-139.8218094364
31
0.0000000000
11
332.5376741001
21
-139.1981675144
31
0.0000000000
11
333.4863112286
21
-138.4548833739
31
0.0000000000
11
334.3384402773
21
-137.6027570662
31
0.0000000000
11
335.0817262829
21
-136.6541240450
31
0.0000000000
11
335.7053711812
21
-135.6227465911
31
0.0000000000
11
336.2003747435
21
-134.5234154097
31
0.0000000000
11
336.5594723771
21
-133.3720534161
31
0.0000000000
11
336.7773439269
21
-132.1854949168
31
0.0000000000
11
336.8507787858
21
-130.9807638231
31
0.0000000000
0
SPLINE
5
293
100
AcDbEntity
8
0
100
AcDbSpline
62
9
6
CONTINUOUS
70
0
71
3
72
20
73
16
74
14
42
0.0000001000
43
0.0000001000
44
0.0000000001
12
0.0086909131
22
-15.6760194484
32
0.0000000000
13
15.6760194535
23
-0.0086817074
33
0.0000000000
40
0.0000000000
40
0.0000000000
40
0.0000000000
40
0.0000000000
40
0.0769928633
40
0.1539510616
40
0.2308879306
40
0.3077973107
40
0.3846835136
40
0.4615620001
40
0.5384367666
40
0.6153151202
40
0.6922012471
40
0.7691107951
40
0.8460475340
40
0.9230055205
40
1.0000000000
40
1.0000000000
40
1.0000000000
40
1.0000000000
10
53.3019751768
20
-130.9807511051
30
0.0000000000
10
53.3021982229
20
-131.3830649793
30
0.0000000000
10
53.3512366568
20
-132.1883312193
30
0.0000000000
10
53.5696389408
20
-133.3777070080
30
0.0000000000
10
53.9295845009
20
-134.5318847737
30
0.0000000000
10
54.4257887220
20
-135.6339047439
30
0.0000000000
10
55.0509844051
20
-136.6678709778
30
0.0000000000
10
55.7960880484
20
-137.6188352399
30
0.0000000000
10
56.6503159872
20
-138.4730659274
30
0.0000000000
10
57.6012769064
20
-139.2181720441
30
0.0000000000
10
58.6352407723
20
-139.8433712239
30
0.0000000000
10
59.7372588832
20
-140.3395790926
30
0.0000000000
10
60.8914345561
20
-140.6995283950
30
0.0000000000
10
62.0808160804
20
-140.9179357747
30
0.0000000000
10
62.8860896505
20
-140.9669777933
30
0.0000000000
10
63.2884119701
20
-140.9672006079
30
0.0000000000
11
53.3019751768
21
-130.9807511051
31
0.0000000000
11
53.3754054416
21
-132.1854570961
31
0.0000000000
11
53.5932732703
21
-133.3720196549
31
0.0000000000
11
53.9523676218
21
-134.5233848081
31
0.0000000000
11
54.4473663568
21
-135.6227152768
31
0.0000000000
11
55.0710082788
21
-136.6540959221
31
0.0000000000
11
55.8142924193
21
-137.6027330507
31
0.0000000000
11
56.6664187270
21
-138.4548620993
31
0.0000000000
11
57.6150517482
21
-139.1981481049
31
0.0000000000
11
58.6464292021
21
-139.8217930033
31
0.0000000000
11
59.7457603835
21
-140.3167965655
31
0.0000000000
11
60.8971223771
21
-140.6758941992
31
0.0000000000
11
62.0836808764
21
-140.8937657489
31
0.0000000000
11
63.2884119701
21
-140.9672006079
31
0.0000000000
0
SPLINE
5
294
100
AcDbEntity
8
0
100
AcDbSpline
62
9
6
CONTINUOUS
70
0
71
3
72
20
73
16
74
14
42
0.0000001000
43
0.0000001000
44
0.0000000001
12
-0.0086909131
22
15.6760194484
32
0.0000000000
13
-15.6760194535
23
0.0086817074
33
0.0000000000
40
0.0000000000
40
0.0000000000
40
0.0000000000
40
0.0000000000
40
0.0769928633
40
0.1539510616
40
0.2308879306
40
0.3077973107
40
0.3846835136
40
0.4615620001
40
0.5384367666
40
0.6153151202
40
0.6922012471
40
0.7691107951
40
0.8460475340
40
0.9230055205
40
1.0000000000
40
1.0000000000
40
1.0000000000
40
1.0000000000
10
336.8507787943
20
132.5951534898
30
0.0000000000
10
336.8505557482
20
132.9974673641
30
0.0000000000
10
336.8015173143
20
133.8027336041
30
0.0000000000
10
336.5831150304
20
134.9921093927
30
0.0000000000
10
336.2231694702
20
136.1462871585
30
0.0000000000
10
335.7269652492
20
137.2483071286
30
0.0000000000
10
335.1017695661
20
138.2822733626
30
0.0000000000
10
334.3566659228
20
139.2332376247
30
0.0000000000
10
333.5024379840
20
140.0874683122
30
0.0000000000
10
332.5514770648
20
140.8325744288
30
0.0000000000
10
331.5175131989
20
141.4577736086
30
0.0000000000
10
330.4154950879
20
141.9539814773
30
0.0000000000
10
329.2613194151
20
142.3139307797
30
0.0000000000
10
328.0719378908
20
142.5323381594
30
0.0000000000
10
327.2666643207
20
142.5813801781
30
0.0000000000
10
326.8643420011
20
142.5816029926
30
0.0000000000
11
336.8507787943
21
132.5951534898
31
0.0000000000
11
336.7773485296
21
133.7998594809
31
0.0000000000
11
336.5594807008
21
134.9864220396
31
0.0000000000
11
336.2003863494
21
136.1377871929
31
0.0000000000
11
335.7053876143
21
137.2371176616
31
0.0000000000
11
335.0817456924
21
138.2684983069
31
0.0000000000
11
334.3384615518
21
139.2171354354
31
0.0000000000
11
333.4863352441
21
140.0692644841
31
0.0000000000
11
332.5377022229
21
140.8125504897
31
0.0000000000
11
331.5063247691
21
141.4361953880
31
0.0000000000
11
330.4069935877
21
141.9311989503
31
0.0000000000
11
329.2556315941
21
142.2902965839
31
0.0000000000
11
328.0690730948
21
142.5081681337
31
0.0000000000
11
326.8643420011
21
142.5816029926
31
0.0000000000
0
SPLINE
5
295
100
AcDbEntity
8
0
100
AcDbSpline
62
9
6
CONTINUOUS
70
0
71
3
72
20
73
16
74
14
42
0.0000001000
43
0.0000001000
44
0.0000000001
12
-15.6760194484
22
-0.0086909131
32
0.0000000000
13
-0.0086817074
23
-15.6760194535
33
0.0000000000
40
0.0000000000
40
0.0000000000
40
0.0000000000
40
0.0000000000
40
0.0769928633
40
0.1539510616
40
0.2308879306
40
0.3077973107
40
0.3846835136
40
0.4615620001
40
0.5384367666
40
0.6153151202
40
0.6922012471
40
0.7691107951
40
0.8460475340
40
0.9230055205
40
1.0000000000
40
1.0000000000
40
1.0000000000
40
1.0000000000
10
63.2884246882
20
142.5816030011
30
0.0000000000
10
62.8861108139
20
142.5813799550
30
0.0000000000
10
62.0808445739
20
142.5323415211
30
0.0000000000
10
60.8914687852
20
142.3139392371
30
0.0000000000
10
59.7372910195
20
141.9539936770
30
0.0000000000
10
58.6352710493
20
141.4577894560
30
0.0000000000
10
57.6013048154
20
140.8325937729
30
0.0000000000
10
56.6503405533
20
140.0874901296
30
0.0000000000
10
55.7961098658
20
139.2332621907
30
0.0000000000
10
55.0510037491
20
138.2823012715
30
0.0000000000
10
54.4258045693
20
137.2483374057
30
0.0000000000
10
53.9295967006
20
136.1463192947
30
0.0000000000
10
53.5696473982
20
134.9921436219
30
0.0000000000
10
53.3512400185
20
133.8027620976
30
0.0000000000
10
53.3021979999
20
132.9974885275
30
0.0000000000
10
53.3019751854
20
132.5951662079
30
0.0000000000
11
63.2884246882
21
142.5816030011
31
0.0000000000
11
62.0837186971
21
142.5081727363
31
0.0000000000
11
60.8971561383
21
142.2903049076
31
0.0000000000
11
59.7457909851
21
141.9312105562
31
0.0000000000
11
58.6464605164
21
141.4362118211
31
0.0000000000
11
57.6150798711
21
140.8125698992
31
0.0000000000
11
56.6664427426
21
140.0692857586
31
0.0000000000
11
55.8143136939
21
139.2171594509
31
0.0000000000
11
55.0710276883
21
138.2685264297
31
0.0000000000
11
54.4473827899
21
137.2371489758
31
0.0000000000
11
53.9523792277
21
136.1378177945
31
0.0000000000
11
53.5932815940
21
134.9864558009
31
0.0000000000
11
53.3754100443
21
133.7998973016
31
0.0000000000
11
53.3019751854
21
132.5951662079
31
0.0000000000
0
SPLINE
5
296
100
AcDbEntity
8
0
100
AcDbSpline
62
9
6
CONTINUOUS
70
0
71
3
72
20
73
16
74
14
42
0.0000001000
43
0.0000001000
44
0.0000000001
12
-0.0004053108
22
12.5430624418
32
0.0000000000
13
-12.5430624426
23
0.0003795400
33
0.0000000000
40
0.0000000000
40
0.0000000000
40
0.0000000000
40
0.0000000000
40
0.0769882532
40
0.1539610854
40
0.2309040676
40
0.3078124879
40
0.3846925040
40
0.4615617715
40
0.5384266891
40
0.6152969478
40
0.6921781992
40
0.7690880317
40
0.8460320680
40
0.9230058017
40
1.0000000000
40
1.0000000000
40
1.0000000000
40
1.0000000000
10
334.8535196206
20
132.5953075494
30
0.0000000000
10
334.8535092192
20
132.9171970384
30
0.0000000000
10
334.8146350482
20
133.5615883543
30
0.0000000000
10
334.6403806521
20
134.5134219931
30
0.0000000000
10
334.3527964105
20
135.4371511929
30
0.0000000000
10
333.9561041681
20
136.3190789286
30
0.0000000000
10
333.4561200428
20
137.1464836176
30
0.0000000000
10
332.8601034033
20
137.9073990187
30
0.0000000000
10
332.1766805920
20
138.5908344245
30
0.0000000000
10
331.4157681734
20
139.1868700835
30
0.0000000000
10
330.5883583756
20
139.6868754636
30
0.0000000000
10
329.7064215807
20
140.0835854395
30
0.0000000000
10
328.7826825655
20
140.3711861554
30
0.0000000000
10
327.8308176992
20
140.5454537045
30
0.0000000000
10
327.1863976881
20
140.5843340866
30
0.0000000000
10
326.8644833426
20
140.5843438274
30
0.0000000000
11
334.8535196206
21
132.5953075494
31
0.0000000000
11
334.7952987015
21
133.5592193265
31
0.0000000000
11
334.6214483927
21
134.5089130266
31
0.0000000000
11
334.3345376238
21
135.4303800306
31
0.0000000000
11
333.9388106638
21
136.3101429664
31
0.0000000000
11
333.4400726926
21
137.1354646228
31
0.0000000000
11
332.8455196385
21
137.8945048510
31
0.0000000000
11
332.1637890673
21
138.5762479274
31
0.0000000000
11
331.4047494605
21
139.1708219373
31
0.0000000000
11
330.5794224363
21
139.6695809835
31
0.0000000000
11
329.6996486679
21
140.0653270408
31
0.0000000000
11
328.7781725332
21
140.3522529586
31
0.0000000000
11
327.8284692795
21
140.5261138796
31
0.0000000000
11
326.8644833426
21
140.5843438274
31
0.0000000000
0
SPLINE
5
297
100
AcDbEntity
8
0
100
AcDbSpline
62
9
6
CONTINUOUS
70
0
71
3
72
20
73
16
74
14
42
0.0000001000
43
0.0000001000
44
0.0000000001
12
12.5430624418
22
0.0004053108
32
0.0000000000
13
0.0003795400
23
12.5430624426
33
0.0000000000
40
0.0000000000
40
0.0000000000
40
0.0000000000
40
0.0000000000
40
0.0769882532
40
0.1539610854
40
0.2309040676
40
0.3078124879
40
0.3846925040
40
0.4615617715
40
0.5384266891
40
0.6152969478
40
0.6921781992
40
0.7690880317
40
0.8460320680
40
0.9230058017
40
1.0000000000
40
1.0000000000
40
1.0000000000
40
1.0000000000
10
326.8644833426
20
-138.9699414426
30
0.0000000000
10
327.1863728316
20
-138.9699310413
30
0.0000000000
10
327.8307641475
20
-138.9310568703
30
0.0000000000
10
328.7825977863
20
-138.7568024742
30
0.0000000000
10
329.7063269862
20
-138.4692182325
30
0.0000000000
10
330.5882547219
20
-138.0725259902
30
0.0000000000
10
331.4156594109
20
-137.5725418649
30
0.0000000000
10
332.1765748119
20
-136.9765252253
30
0.0000000000
10
332.8600102178
20
-136.2931024140
30
0.0000000000
10
333.4560458767
20
-135.5321899955
30
0.0000000000
10
333.9560512568
20
-134.7047801976
30
0.0000000000
10
334.3527612327
20
-133.8228434028
30
0.0000000000
10
334.6403619486
20
-132.8991043875
30
0.0000000000
10
334.8146294977
20
-131.9472395212
30
0.0000000000
10
334.8535098798
20
-131.3028195101
30
0.0000000000
10
334.8535196206
20
-130.9809051646
30
0.0000000000
11
326.8644833426
21
-138.9699414426
31
0.0000000000
11
327.8283951197
21
-138.9117205236
31
0.0000000000
11
328.7780888198
21
-138.7378702148
31
0.0000000000
11
329.6995558238
21
-138.4509594459
31
0.0000000000
11
330.5793187596
21
-138.0552324858
31
0.0000000000
11
331.4046404160
21
-137.5564945146
31
0.0000000000
11
332.1636806442
21
-136.9619414605
31
0.0000000000
11
332.8454237206
21
-136.2802108893
31
0.0000000000
11
333.4399977305
21
-135.5211712825
31
0.0000000000
11
333.9387567767
21
-134.6958442583
31
0.0000000000
11
334.3345028341
21
-133.8160704900
31
0.0000000000
11
334.6214287518
21
-132.8945943553
31
0.0000000000
11
334.7952896729
21
-131.9448911015
31
0.0000000000
11
334.8535196206
21
-130.9809051646
31
0.0000000000
0
SPLINE
5
298
100
AcDbEntity
8
0
100
AcDbSpline
62
9
6
CONTINUOUS
70
0
71
3
72
20
73
16
74
14
42
0.0000001000
43
0.0000001000
44
0.0000000001
12
0.0004053108
22
-12.5430624418
32
0.0000000000
13
12.5430624426
23
-0.0003795400
33
0.0000000000
40
0.0000000000
40
0.0000000000
40
0.0000000000
40
0.0000000000
40
0.0769882532
40
0.1539610854
40
0.2309040676
40
0.3078124879
40
0.3846925040
40
0.4615617715
40
0.5384266891
40
0.6152969478
40
0.6921781992
40
0.7690880317
40
0.8460320680
40
0.9230058017
40
1.0000000000
40
1.0000000000
40
1.0000000000
40
1.0000000000
10
55.2992343506
20
-130.9809051646
30
0.0000000000
10
55.2992447520
20
-131.3027946537
30
0.0000000000
10
55.3381189229
20
-131.9471859695
30
0.0000000000
10
55.5123733191
20
-132.8990196083
30
0.0000000000
10
55.7999575607
20
-133.8227488082
30
0.0000000000
10
56.1966498030
20
-134.7046765439
30
0.0000000000
10
56.6966339283
20
-135.5320812329
30
0.0000000000
10
57.2926505679
20
-136.2929966340
30
0.0000000000
10
57.9760733792
20
-136.9764320398
30
0.0000000000
10
58.7369857977
20
-137.5724676987
30
0.0000000000
10
59.5643955956
20
-138.0724730788
30
0.0000000000
10
60.4463323904
20
-138.4691830548
30
0.0000000000
10
61.3700714057
20
-138.7567837706
30
0.0000000000
10
62.3219362720
20
-138.9310513198
30
0.0000000000
10
62.9663562831
20
-138.9699317018
30
0.0000000000
10
63.2882706286
20
-138.9699414426
30
0.0000000000
11
55.2992343506
21
-130.9809051646
31
0.0000000000
11
55.3574552697
21
-131.9448169417
31
0.0000000000
11
55.5313055784
21
-132.8945106419
31
0.0000000000
11
55.8182163473
21
-133.8159776459
31
0.0000000000
11
56.2139433074
21
-134.6957405817
31
0.0000000000
11
56.7126812786
21
-135.5210622380
31
0.0000000000
11
57.3072343327
21
-136.2801024663
31
0.0000000000
11
57.9889649039
21
-136.9618455426
31
0.0000000000
11
58.7480045107
21
-137.5564195526
31
0.0000000000
11
59.5733315349
21
-138.0551785988
31
0.0000000000
11
60.4531053032
21
-138.4509246561
31
0.0000000000
11
61.3745814380
21
-138.7378505738
31
0.0000000000
11
62.3242846917
21
-138.9117114949
31
0.0000000000
11
63.2882706286
21
-138.9699414426
31
0.0000000000
0
SPLINE
5
299
100
AcDbEntity
8
0
100
AcDbSpline
62
9
6
CONTINUOUS
70
0
71
3
72
20
73
16
74
14
42
0.0000001000
43
0.0000001000
44
0.0000000001
12
-12.5430624418
22
-0.0004053108
32
0.0000000000
13
-0.0003795400
23
-12.5430624426
33
0.0000000000
40
0.0000000000
40
0.0000000000
40
0.0000000000
40
0.0000000000
40
0.0769882532
40
0.1539610854
40
0.2309040676
40
0.3078124879
40
0.3846925040
40
0.4615617715
40
0.5384266891
40
0.6152969478
40
0.6921781992
40
0.7690880317
40
0.8460320680
40
0.9230058017
40
1.0000000000
40
1.0000000000
40
1.0000000000
40
1.0000000000
10
63.2882706286
20
140.5843438274
30
0.0000000000
10
62.9663811396
20
140.5843334260
30
0.0000000000
10
62.3219898237
20
140.5454592550
30
0.0000000000
10
61.3701561849
20
140.3712048589
30
0.0000000000
10
60.4464269850
20
140.0836206173
30
0.0000000000
10
59.5644992493
20
139.6869283749
30
0.0000000000
10
58.7370945603
20
139.1869442496
30
0.0000000000
10
57.9761791593
20
138.5909276101
30
0.0000000000
10
57.2927437534
20
137.9075047988
30
0.0000000000
10
56.6967080945
20
137.1465923802
30
0.0000000000
10
56.1967027144
20
136.3191825823
30
0.0000000000
10
55.7999927384
20
135.4372457875
30
0.0000000000
10
55.5123920226
20
134.5135067722
30
0.0000000000
10
55.3381244734
20
133.5616419060
30
0.0000000000
10
55.2992440914
20
132.9172218948
30
0.0000000000
10
55.2992343506
20
132.5953075494
30
0.0000000000
11
63.2882706286
21
140.5843438274
31
0.0000000000
11
62.3243588515
21
140.5261229083
31
0.0000000000
11
61.3746651513
21
140.3522725995
31
0.0000000000
11
60.4531981473
21
140.0653618306
31
0.0000000000
11
59.5734352115
21
139.6696348706
31
0.0000000000
11
58.7481135552
21
139.1708968993
31
0.0000000000
11
57.9890733269
21
138.5763438453
31
0.0000000000
11
57.3073302506
21
137.8946132741
31
0.0000000000
11
56.7127562406
21
137.1355736673
31
0.0000000000
11
56.2139971945
21
136.3102466431
31
0.0000000000
11
55.8182511371
21
135.4304728747
31
0.0000000000
11
55.5313252194
21
134.5089967400
31
0.0000000000
11
55.3574642983
21
133.5592934862
31
0.0000000000
11
55.2992343506
21
132.5953075494
31
0.0000000000
0
SPLINE
5
29A
100
AcDbEntity
8
0
100
AcDbSpline
62
9
6
CONTINUOUS
70
0
71
3
72
20
73
16
74
14
42
0.0000001000
43
0.0000001000
44
0.0000000001
12
-0.1041859071
22
9.9873963115
32
0.0000000000
13
9.9738958214
23
0.5294732572
33
0.0000000000
40
0.0000000000
40
0.0000000000
40
0.0000000000
40
0.0000000000
40
0.1206218572
40
0.2394257005
40
0.3547042133
40
0.4647718138
40
0.5680352947
40
0.6630137963
40
0.7483295945
40
0.8227482549
40
0.8851895022
40
0.9347536514
40
0.9707163027
40
0.9925532352
40
1.0000000000
40
1.0000000000
40
1.0000000000
40
1.0000000000
10
-59.8992104706
20
132.5951534898
30
0.0000000000
10
-59.9033995031
20
132.9967195872
30
0.0000000000
10
-59.9112139820
20
133.7938049793
30
0.0000000000
10
-59.9212918639
20
134.9746824359
30
0.0000000000
10
-59.9295515539
20
136.1204405328
30
0.0000000000
10
-59.9358611514
20
137.2144514245
30
0.0000000000
10
-59.9401979204
20
138.2409546527
30
0.0000000000
10
-59.9422924026
20
139.1848326502
30
0.0000000000
10
-59.9428213797
20
140.0334004043
30
0.0000000000
10
-59.9396460185
20
140.7714291360
30
0.0000000000
10
-59.9391945588
20
141.3968450906
30
0.0000000000
10
-59.9241154786
20
141.8768841315
30
0.0000000000
10
-59.9380846086
20
142.2632785589
30
0.0000000000
10
-59.8917648996
20
142.4286396593
30
0.0000000000
10
-59.9239683886
20
142.5802887050
30
0.0000000000
10
-59.8992106366
20
142.5816029926
30
0.0000000000
11
-59.8992104706
21
132.5951534898
31
0.0000000000
11
-59.9110164881
21
133.7998594809
31
0.0000000000
11
-59.9211260091
21
134.9864220396
31
0.0000000000
11
-59.9293935880
21
136.1377871929
31
0.0000000000
11
-59.9357002066
21
137.2371176616
31
0.0000000000
11
-59.9399551536
21
138.2684983069
31
0.0000000000
11
-59.9420981089
21
139.2171354354
31
0.0000000000
11
-59.9420981129
21
140.0692644841
31
0.0000000000
11
-59.9399551818
21
140.8125504897
31
0.0000000000
11
-59.9357002657
21
141.4361953880
31
0.0000000000
11
-59.9293936850
21
141.9311989503
31
0.0000000000
11
-59.9211261474
21
142.2902965839
31
0.0000000000
11
-59.9110167459
21
142.5081681337
31
0.0000000000
11
-59.8992106366
21
142.5816029926
31
0.0000000000
0
SPLINE
5
29B
100
AcDbEntity
8
0
100
AcDbSpline
62
9
6
CONTINUOUS
70
0
71
3
72
20
73
16
74
14
42
0.0000001000
43
0.0000001000
44
0.0000000001
12
-9.9732852488
22
0.5307112053
32
0.0000000000
13
0.1041937841
23
9.9873819920
33
0.0000000000
40
0.0000000000
40
0.0000000000
40
0.0000000000
40
0.0000000000
40
0.0074461614
40
0.0292827535
40
0.0652451276
40
0.1148088643
40
0.1772499026
40
0.2516684824
40
0.3369841277
40
0.4319623535
40
0.5352256621
40
0.6452934908
40
0.7605718515
40
0.8793754576
40
1.0000000000
40
1.0000000000
40
1.0000000000
40
1.0000000000
10
-59.8992120498
20
-140.9672005324
30
0.0000000000
10
-59.9239662805
20
-140.9658832786
30
0.0000000000
10
-59.8917660682
20
-140.8142439202
30
0.0000000000
10
-59.9380840282
20
-140.6488829814
30
0.0000000000
10
-59.9241155846
20
-140.2624944768
30
0.0000000000
10
-59.9391944578
20
-139.7824583043
30
0.0000000000
10
-59.9396460119
20
-139.1570458623
30
0.0000000000
10
-59.9428213752
20
-138.4190195621
30
0.0000000000
10
-59.9422924046
20
-137.5704547443
30
0.0000000000
10
-59.9401979487
20
-136.6265800832
30
0.0000000000
10
-59.9358611978
20
-135.6000790534
30
0.0000000000
10
-59.9295516604
20
-134.5060700403
30
0.0000000000
10
-59.9212920332
20
-133.3603141123
30
0.0000000000
10
-59.9112139681
20
-132.1794306966
30
0.0000000000
10
-59.9034000791
20
-131.3823382841
30
0.0000000000
10
-59.8992106366
20
-130.9807638231
30
0.0000000000
11
-59.8992120498
21
-140.9672005324
31
0.0000000000
11
-59.9110164881
21
-140.8937703516
31
0.0000000000
11
-59.9211260091
21
-140.6759025229
31
0.0000000000
11
-59.9293935880
21
-140.3168081714
31
0.0000000000
11
-59.9357002066
21
-139.8218094364
31
0.0000000000
11
-59.9399551536
21
-139.1981675144
31
0.0000000000
11
-59.9420981089
21
-138.4548833739
31
0.0000000000
11
-59.9420981129
21
-137.6027570662
31
0.0000000000
11
-59.9399551818
21
-136.6541240450
31
0.0000000000
11
-59.9357002657
21
-135.6227465911
31
0.0000000000
11
-59.9293936850
21
-134.5234154097
31
0.0000000000
11
-59.9211261474
21
-133.3720534161
31
0.0000000000
11
-59.9110167459
21
-132.1854949168
31
0.0000000000
11
-59.8992106366
21
-130.9807638231
31
0.0000000000
0
ENDSEC
0
SECTION
2
OBJECTS
0
DICTIONARY
5
C
100
AcDbDictionary
280
0
281
1
3
ACAD_GROUP
350
D
3
ACAD_MLINESTYLE
350
17
3
ACAD_LAYOUT
350
1A
3
ACAD_PLOTSETTINGS
350
19
3
ACAD_PLOTSTYLENAME
350
E
0
DICTIONARY
5
D
102
{ACAD_REACTORS
330
C
102
}
100
AcDbDictionary
280
0
281
1
0
ACDBDICTIONARYWDFLT
5
E
102
{ACAD_REACTORS
330
C
102
}
100
AcDbDictionary
281
1
3
Normal
350
F
100
AcDbDictionaryWithDefault
340
F
0
DICTIONARY
5
17
102
{ACAD_REACTORS
330
C
102
}
100
AcDbDictionary
280
0
281
1
3
Standard
350
18
0
DICTIONARY
5
19
102
{ACAD_REACTORS
330
C
102
}
100
AcDbDictionary
281
1
0
DICTIONARY
5
1A
102
{ACAD_REACTORS
330
C
102
}
100
AcDbDictionary
281
1
3
Layout1
350
1E
3
Model
350
22
0
ACDBPLACEHOLDER
5
F
102
{ACAD_REACTORS
330
E
102
}
0
MLINESTYLE
5
18
102
{ACAD_REACTORS
330
17
102
}
100
AcDbMlineStyle
2
STANDARD
70
0
3

62
256
51
90.0
52
90.0
71
2
49
0.5
62
256
6
BYLAYER
49
-0.5
62
256
6
BYLAYER
0
LAYOUT
5
1E
102
{ACAD_REACTORS
330
1A
102
}
100
AcDbPlotSettings
1

2

4

6

40
0.0
41
0.0
42
0.0
43
0.0
44
0.0
45
0.0
46
0.0
47
0.0
48
0.0
49
0.0
140
0.0
141
0.0
142
1.0
143
1.0
70
0
72
0
73
0
74
0
7

75
0
147
1.0
148
0.0
149
0.0
100
AcDbLayout
1
Layout1
70
0
71
0
10
0.0
20
0.0
11
0.0
21
0.0
12
0.0
22
0.0
32
0.0
14
0.0
24
0.0
34
0.0
15
0.0
25
0.0
35
0.0
146
0.0
13
0.0
23
0.0
33
0.0
16
0.0
26
0.0
36
0.0
17
0.0
27
0.0
37
0.0
76
0
330
1B
331
0
345
0
346
0
0
LAYOUT
5
22
102
{ACAD_REACTORS
330
1A
102
}
100
AcDbPlotSettings
1

2

4

6

40
0.0
41
0.0
42
0.0
43
0.0
44
0.0
45
0.0
46
0.0
47
0.0
48
0.0
49
0.0
140
0.0
141
0.0
142
1.0
143
1.0
70
0
72
0
73
0
74
0
7

75
0
147
1.0
148
0.0
149
0.0
100
AcDbLayout
1
Model
70
0
71
0
10
0.0
20
0.0
11
0.0
21
0.0
12
0.0
22
0.0
32
0.0
14
0.0
24
0.0
34
0.0
15
0.0
25
0.0
35
0.0
146
0.0
13
0.0
23
0.0
33
0.0
16
0.0
26
0.0
36
0.0
17
0.0
27
0.0
37
0.0
76
0
330
1F
331
0
345
0
346
0
0
ENDSEC
0
EOF
