  0
SECTION
  2
HEADER
  9
$ACADVER
  1
AC1015
  9
$DWGCODEPAGE
  3
ANSI_1252
  9
$EXTMAX
 10
297.0
 20
210.0
 30
0.0
  9
$EXTMIN
 10
0.0
 20
0.0
 30
0.0
  9
$LIMMIN
 10
0.0
 20
0.0
  9
$LIMMAX
 10
297.0
 20
210.0
  9
$VIEWCTR
 10
148.5
 20
105.0
  9
$VIEWSIZE
 40
210.0
  9
$CLAYER
  8
0
  9
$LTSCALE
 40
16.335
  9
$CELTYPE
  6
BYLAYER
  9
$DIMSCALE
 40
1.0
  9
$DIMASZ
 40
3.0
  9
$DIMEXO
 40
1.85625
  9
$DIMDLI
 40
11.286
  9
$DIMEXE
 40
5.346
  9
$DIMCEN
 40
2.673
  9
$DIMLFAC
 40
1.0
  9
$DIMBLK
  1
_FILLED
  9
$DIMTXT
 40
3.0
  9
$DIMTOL
 70
1
  9
$DIMLIM
 70
0
  9
$DIMTFAC
 40
1.0
  9
$DIMTP
 40
0.01
  9
$DIMTM
 40
0.01
  9
$PDMODE
 70
3
  9
$PDSIZE
 40
3.0
  9
$HANDSEED
  5
33B
  9
$TILEMODE
 70
1
  9
$MEASUREMENT
 70
1
  9
$INSUNITS
 70
4
  0
ENDSEC
  0
SECTION
  2
CLASSES
  0
CLASS
  1
ACDBDICTIONARYWDFLT
  2
AcDbDictionaryWithDefault
  3
AutoCAD 2000
 90
0
280
0
281
0
  0
CLASS
  1
ACDBPLACEHOLDER
  2
AcDbPlaceHolder
  3
AutoCAD 2000
 90
0
280
0
281
0
  0
CLASS
  1
LAYOUT
  2
AcDbLayout
  3
AutoCAD 2000
 90
0
280
0
281
0
  0
ENDSEC
  0
SECTION
  2
TABLES
  0
TABLE
  2
VPORT
  5
8
100
AcDbSymbolTable
 70
2
  0
VPORT
  5
1F4
100
AcDbSymbolTableRecord
100
AcDbViewportTableRecord
  2
*ACTIVE
 70
0
 10
0.0
 20
0.0
 11
1.0
 21
1.0
 12
148.5
 22
105.0
 13
0.0
 23
0.0
 14
1.0
 24
1.0
 15
0.0
 25
0.0
 16
0.0
 26
0.0
 36
1.0
 17
0.0
 27
0.0
 37
0.0
 40
210.0
 41
1.4142857143
 42
50.0
 43
0.0
 44
0.0
 50
0.0
 51
0.0
 71
0
 72
100
 73
1
 74
1
 75
0
 76
0
 77
0
 78
0
  0
ENDTAB
  0
TABLE
  2
LTYPE
  5
5
100
AcDbSymbolTable
 70
6
  0
LTYPE
  5
14
100
AcDbSymbolTableRecord
100
AcDbLinetypeTableRecord
  2
BYBLOCK
 70
0
  3

 72
65
 73
0
 40
0.0
  0
LTYPE
  5
15
100
AcDbSymbolTableRecord
100
AcDbLinetypeTableRecord
  2
BYLAYER
 70
0
  3

 72
65
 73
0
 40
0.0
  0
LTYPE
  5
16
100
AcDbSymbolTableRecord
100
AcDbLinetypeTableRecord
  2
CONTINUOUS
 70
64
  3
Solid line
 72
65
 73
0
 40
0.0
  0
LTYPE
  5
1F5
100
AcDbSymbolTableRecord
100
AcDbLinetypeTableRecord
  2
CENTER
 70
64
  3
____ _ ____ _ ____ _ ____ _ ____ _ ____ _ ____
 72
65
 73
4
 40
0.6
 49
0.375
 74
0
 49
-0.075
 74
0
 49
0.075
 74
0
 49
-0.075
 74
0
  0
LTYPE
  5
1F6
100
AcDbSymbolTableRecord
100
AcDbLinetypeTableRecord
  2
HIDDEN
 70
64
  3
- - - - - - - - - - - - - - - - - - - -
 72
65
 73
2
 40
0.2
 49
0.1
 74
0
 49
-0.1
 74
0
  0
LTYPE
  5
1F7
100
AcDbSymbolTableRecord
100
AcDbLinetypeTableRecord
  2
PHANTOM
 70
64
  3
_____ _ _ _____ _ _ _____ _ _ _____
 72
65
 73
6
 40
0.8
 49
0.45
 74
0
 49
-0.05
 74
0
 49
0.1
 74
0
 49
-0.05
 74
0
 49
0.1
 74
0
 49
-0.05
 74
0
  0
LTYPE
  5
1F8
100
AcDbSymbolTableRecord
100
AcDbLinetypeTableRecord
  2
DOT
 70
64
  3
. . . . . . . . . . . . . . . . . . . .
 72
65
 73
2
 40
0.2
 49
0.1
 74
0
 49
-0.1
 74
0
  0
LTYPE
  5
1F9
100
AcDbSymbolTableRecord
100
AcDbLinetypeTableRecord
  2
DASHED
 70
64
  3
- - - - - - - - - - - - - - - - - - - -
 72
65
 73
2
 40
0.2
 49
0.1
 74
0
 49
-0.1
 74
0
  0
ENDTAB
  0
TABLE
  2
LAYER
  5
2
100
AcDbSymbolTable
 70
36
  0
LAYER
  5
10
100
AcDbSymbolTableRecord
100
AcDbLayerTableRecord
  2
0
 70
0
 62
7
  6
CONTINUOUS
370
-3
390
F
  0
LAYER
  5
1FA
100
AcDbSymbolTableRecord
100
AcDbLayerTableRecord
  2
DEFAULT_1
 70
0
 62
7
  6
CENTER
370
-3
390
F
  0
LAYER
  5
1FB
100
AcDbSymbolTableRecord
100
AcDbLayerTableRecord
  2
DEFAULT_2
 70
0
 62
7
  6
HIDDEN
370
-3
390
F
  0
LAYER
  5
1FC
100
AcDbSymbolTableRecord
100
AcDbLayerTableRecord
  2
DEFAULT_3
 70
0
 62
7
  6
PHANTOM
370
-3
390
F
  0
LAYER
  5
1FD
100
AcDbSymbolTableRecord
100
AcDbLayerTableRecord
  2
ASSI
 70
0
 62
7
  6
CONTINUOUS
370
-3
390
F
  0
LAYER
  5
1FE
100
AcDbSymbolTableRecord
100
AcDbLayerTableRecord
  2
COORDINATE
 70
0
 62
7
  6
CONTINUOUS
370
-3
390
F
  0
LAYER
  5
1FF
100
AcDbSymbolTableRecord
100
AcDbLayerTableRecord
  2
COORD_ORIGINE
 70
0
 62
7
  6
CONTINUOUS
370
-3
390
F
  0
LAYER
  5
200
100
AcDbSymbolTableRecord
100
AcDbLayerTableRecord
  2
CURVE
 70
0
 62
7
  6
CONTINUOUS
370
-3
390
F
  0
LAYER
  5
201
100
AcDbSymbolTableRecord
100
AcDbLayerTableRecord
  2
IMPORT
 70
0
 62
7
  6
CONTINUOUS
370
-3
390
F
  0
LAYER
  5
202
100
AcDbSymbolTableRecord
100
AcDbLayerTableRecord
  2
PIANI
 70
0
 62
7
  6
CONTINUOUS
370
-3
390
F
  0
LAYER
  5
203
100
AcDbSymbolTableRecord
100
AcDbLayerTableRecord
  2
PIANI_ORIGINE
 70
0
 62
7
  6
CONTINUOUS
370
-3
390
F
  0
LAYER
  5
204
100
AcDbSymbolTableRecord
100
AcDbLayerTableRecord
  2
PUNTI
 70
0
 62
7
  6
CONTINUOUS
370
-3
390
F
  0
LAYER
  5
205
100
AcDbSymbolTableRecord
100
AcDbLayerTableRecord
  2
RACCORDO
 70
0
 62
7
  6
CONTINUOUS
370
-3
390
F
  0
LAYER
  5
206
100
AcDbSymbolTableRecord
100
AcDbLayerTableRecord
  2
SNAPLINE
 70
0
 62
7
  6
CONTINUOUS
370
-3
390
F
  0
LAYER
  5
207
100
AcDbSymbolTableRecord
100
AcDbLayerTableRecord
  2
SUPERFICI
 70
0
 62
7
  6
CONTINUOUS
370
-3
390
F
  0
LAYER
  5
208
100
AcDbSymbolTableRecord
100
AcDbLayerTableRecord
  2
TRASH
 70
0
 62
7
  6
CONTINUOUS
370
-3
390
F
  0
ENDTAB
  0
TABLE
  2
STYLE
  5
3
100
AcDbSymbolTable
 70
1
  0
STYLE
  5
11
100
AcDbSymbolTableRecord
100
AcDbTextStyleTableRecord
  2
STANDARD
 70
0
 40
0.0
 41
0.8
 50
0.0
 71
0
 42
0.2
  3
txt
  4

  0
STYLE
  5
209
100
AcDbSymbolTableRecord
100
AcDbTextStyleTableRecord
  2
TEXTSTYLE_1
 70
0
 40
0.0
 41
0.8
 50
0.0
 71
0
 42
0.2
  3
gdt
  4

  0
ENDTAB
  0
TABLE
  2
VIEW
  5
6
100
AcDbSymbolTable
 70
0
  0
ENDTAB
  0
TABLE
  2
UCS
  5
7
100
AcDbSymbolTable
 70
0
  0
ENDTAB
  0
TABLE
  2
APPID
  5
9
100
AcDbSymbolTable
 70
1
  0
APPID
  5
20A
100
AcDbSymbolTableRecord
100
AcDbRegAppTableRecord
  2
ACAD
 70
0
  0
ENDTAB
  0
TABLE
  2
BLOCK_RECORD
  5
1
100
AcDbSymbolTable
 70
0
  0
BLOCK_RECORD
  5
20B
100
AcDbSymbolTableRecord
100
AcDbBlockTableRecord
  2
*Model_Space
  0
BLOCK_RECORD
  5
20C
100
AcDbSymbolTableRecord
100
AcDbBlockTableRecord
  2
*Paper_Space
  0
BLOCK_RECORD
  5
20D
100
AcDbSymbolTableRecord
100
AcDbBlockTableRecord
  2
_FILLED
  0
BLOCK_RECORD
  5
20E
100
AcDbSymbolTableRecord
100
AcDbBlockTableRecord
  2
*D0
  0
BLOCK_RECORD
  5
20F
100
AcDbSymbolTableRecord
100
AcDbBlockTableRecord
  2
*D1
  0
ENDTAB
  0
TABLE
  2
DIMSTYLE
  5
A
100
AcDbSymbolTable
 70
1
100
AcDbDimStyleTable
 71
0
  0
DIMSTYLE
105
210
100
AcDbSymbolTableRecord
100
AcDbDimStyleTableRecord
  2
STANDARD
 70
0
  3

  4

 40
1.0
 41
3.0
 42
0.0625
 43
0.38
 44
0.18
 45
0.0
 46
0.0
 47
0.01
 48
0.01
140
3.0
141
0.09
142
0.0
143
25.4
144
1.0
145
0.0
146
1.0
147
0.09
 71
1.0
 72
0.0
 73
0
 74
0
 75
0
 76
0
 77
1
 78
8
170
0
171
2
172
0
173
0
174
0
175
0
176
0
177
0
178
0
270
2
271
2
272
2
273
2
274
2
275
0
280
0
281
0
282
0
283
1
284
8
285
0
286
0
287
3
288
0
340
11
341
20D
342
20D
343
20D
344
20D
  0
DIMSTYLE
105
211
100
AcDbSymbolTableRecord
100
AcDbDimStyleTableRecord
  2
DIMSTYLE_1
 70
0
  3

  4

 40
1.0
 41
3.0
 42
0.0625
 43
0.38
 44
0.18
 45
0.0
 46
0.0
 47
0.0
 48
0.0
140
3.0
141
0.09
142
0.0
143
25.4
144
1.0
145
0.0
146
1.0
147
0.09
 71
0.0
 72
0.0
 73
0
 74
0
 75
0
 76
0
 77
1
 78
8
170
0
171
2
172
0
173
0
174
0
175
0
176
0
177
0
178
0
270
2
271
2
272
2
273
2
274
2
275
0
280
0
281
0
282
0
283
1
284
8
285
0
286
0
287
3
288
0
340
11
341
20D
342
20D
343
20D
344
20D
  0
ENDTAB
  0
ENDSEC
  0
SECTION
  2
BLOCKS
  0
BLOCK
  5
20
100
AcDbEntity
  8
0
100
AcDbBlockBegin
  2
*Model_Space
 70
0
 10
0.0
 20
0.0
 30
0.0
  3
*Model_Space
  1

  0
ENDBLK
  5
21
100
AcDbEntity
  8
0
100
AcDbBlockEnd
  0
BLOCK
  5
1C
100
AcDbEntity
  8
0
100
AcDbBlockBegin
  2
*Paper_Space
 70
0
 10
0.0
 20
0.0
 30
0.0
  3
*Paper_Space
  1

  0
ENDBLK
  5
1D
100
AcDbEntity
  8
0
100
AcDbBlockEnd
  0
BLOCK
  5
212
100
AcDbEntity
  8
0
100
AcDbBlockBegin
  2
_FILLED
 70
64
 10
0.0
 20
0.0
  3
_FILLED
  1

  0
SOLID
  5
213
100
AcDbEntity
  8
0
  6
BYBLOCK
 62
0
100
AcDbTrace
 10
0.0
 20
0.0
 11
-1.0
 21
0.3166666667
 12
-1.0
 22
-0.3166666667
 13
-1.0
 23
-0.3166666667
  0
ENDBLK
  5
214
100
AcDbEntity
  8
0
  6
BYBLOCK
 62
0
100
AcDbBlockEnd
  0
BLOCK
  5
215
100
AcDbEntity
  8
0
100
AcDbBlockBegin
 62
7
  6
CONTINUOUS
  2
*D0
 70
65
 10
0.0
 20
0.0
  3
*D0
  1

  0
MTEXT
  5
216
100
AcDbEntity
  8
0
100
AcDbMText
 62
7
  6
CONTINUOUS
  7
STANDARD
 71
2
 72
1
 10
-69.7954254081
 20
46.75
 30
0.0
 11
1.0
 21
0.0
 31
0.0
 44
0.9
  1
50
 40
3.0
 41
4.5
  0
LINE
  5
217
100
AcDbEntity
  8
0
100
AcDbLine
 62
7
  6
CONTINUOUS
 10
-94.7954254081
 20
32.5
 11
-94.7954254081
 21
44.5
  0
LINE
  5
218
100
AcDbEntity
  8
0
100
AcDbLine
 62
7
  6
CONTINUOUS
 10
-44.7954254081
 20
32.7916397849
 11
-44.7954254081
 21
44.5
  0
LINE
  5
219
100
AcDbEntity
  8
0
100
AcDbLine
 62
7
  6
CONTINUOUS
 10
-94.7954254081
 20
43.0
 11
-69.7954254081
 21
43.0
  0
LINE
  5
21A
100
AcDbEntity
  8
0
100
AcDbLine
 62
7
  6
CONTINUOUS
 10
-44.7954254081
 20
43.0
 11
-69.7954254081
 21
43.0
  0
INSERT
  5
21B
100
AcDbEntity
  8
0
100
AcDbBlockReference
 62
7
  6
CONTINUOUS
  2
_FILLED
 10
-94.7954254081
 20
43.0
 41
3.0
 42
3.0
 43
3.0
 50
180.0
  0
INSERT
  5
21C
100
AcDbEntity
  8
0
100
AcDbBlockReference
 62
7
  6
CONTINUOUS
  2
_FILLED
 10
-44.7954254081
 20
43.0
 41
3.0
 42
3.0
 43
3.0
  0
ENDBLK
  5
21D
100
AcDbEntity
  8
0
  6
BYBLOCK
 62
0
100
AcDbBlockEnd
  0
BLOCK
  5
21E
100
AcDbEntity
  8
0
100
AcDbBlockBegin
 62
7
  6
CONTINUOUS
  2
*D1
 70
65
 10
0.0
 20
0.0
  3
*D1
  1

  0
MTEXT
  5
21F
100
AcDbEntity
  8
0
100
AcDbMText
 62
7
  6
CONTINUOUS
  7
STANDARD
 71
2
 72
1
 10
0.0
 20
46.75
 30
0.0
 11
1.0
 21
0.0
 31
0.0
 44
0.9
  1
60
 40
3.0
 41
4.7142857143
  0
LINE
  5
220
100
AcDbEntity
  8
0
100
AcDbLine
 62
7
  6
CONTINUOUS
 10
-30.0
 20
0.5
 11
-30.0
 21
44.5
  0
LINE
  5
221
100
AcDbEntity
  8
0
100
AcDbLine
 62
7
  6
CONTINUOUS
 10
30.0
 20
0.5
 11
30.0
 21
44.5
  0
LINE
  5
222
100
AcDbEntity
  8
0
100
AcDbLine
 62
7
  6
CONTINUOUS
 10
-30.0
 20
43.0
 11
0.0
 21
43.0
  0
LINE
  5
223
100
AcDbEntity
  8
0
100
AcDbLine
 62
7
  6
CONTINUOUS
 10
30.0
 20
43.0
 11
0.0
 21
43.0
  0
INSERT
  5
224
100
AcDbEntity
  8
0
100
AcDbBlockReference
 62
7
  6
CONTINUOUS
  2
_FILLED
 10
-30.0
 20
43.0
 41
3.0
 42
3.0
 43
3.0
 50
180.0
  0
INSERT
  5
225
100
AcDbEntity
  8
0
100
AcDbBlockReference
 62
7
  6
CONTINUOUS
  2
_FILLED
 10
30.0
 20
43.0
 41
3.0
 42
3.0
 43
3.0
  0
ENDBLK
  5
226
100
AcDbEntity
  8
0
  6
BYBLOCK
 62
0
100
AcDbBlockEnd
  0
ENDSEC
  0
SECTION
  2
ENTITIES
  0
DIMENSION
  5
227
100
AcDbEntity
  8
0
100
AcDbDimension
 62
7
  6
CONTINUOUS
  2
*D0
 10
-44.7954254081
 20
43.0
 11
-72.0454254081
 21
45.25
 70
160
 71
2
 42
50.0
  3
DIMSTYLE_1
100
AcDbAlignedDimension
 13
-94.7954254081
 23
32.5
 14
-44.7954254081
 24
32.7916397849
100
AcDbRotatedDimension
  0
DIMENSION
  5
228
100
AcDbEntity
  8
0
100
AcDbDimension
 62
7
  6
CONTINUOUS
  2
*D1
 10
30.0
 20
43.0
 11
-2.3571428571
 21
45.25
 70
160
 71
2
 42
60.0
  3
DIMSTYLE_1
100
AcDbAlignedDimension
 13
-30.0
 23
0.5
 14
30.0
 24
0.5
100
AcDbRotatedDimension
  0
LINE
  5
229
100
AcDbEntity
  8
0
100
AcDbLine
 62
7
  6
CONTINUOUS
 10
-1.0
 20
17.9722007556
 11
-1.2732954666
 21
16.9522481888
  0
LINE
  5
22A
100
AcDbEntity
  8
0
100
AcDbLine
 62
7
  6
CONTINUOUS
 10
-0.75
 20
13.4791505667
 11
-1.0236115728
 21
12.4580182753
  0
LINE
  5
22B
100
AcDbEntity
  8
0
100
AcDbLine
 62
7
  6
CONTINUOUS
 10
-0.5
 20
10.4880884817
 11
-0.7732026444
 21
9.468482332
  0
LINE
  5
22C
100
AcDbEntity
  8
0
100
AcDbLine
 62
7
  6
CONTINUOUS
 10
16.9522481888
 20
-1.2732954666
 11
17.9722007556
 21
-1.0
  0
LINE
  5
22D
100
AcDbEntity
  8
0
100
AcDbLine
 62
7
  6
CONTINUOUS
 10
12.4580182753
 20
-1.0236115728
 11
13.4791505667
 21
-0.75
  0
LINE
  5
22E
100
AcDbEntity
  8
0
100
AcDbLine
 62
7
  6
CONTINUOUS
 10
-17.9722007556
 20
-1.0
 11
-16.9522481888
 21
-1.2732954666
  0
LINE
  5
22F
100
AcDbEntity
  8
0
100
AcDbLine
 62
7
  6
CONTINUOUS
 10
-13.4791505667
 20
-0.75
 11
-12.4580182753
 21
-1.0236115728
  0
LINE
  5
230
100
AcDbEntity
  8
0
100
AcDbLine
 62
7
  6
CONTINUOUS
 10
-1.2732954666
 20
-16.9522481888
 11
-1.0
 21
-17.9722007556
  0
LINE
  5
231
100
AcDbEntity
  8
0
100
AcDbLine
 62
7
  6
CONTINUOUS
 10
-1.0236115728
 20
-12.4580182753
 11
-0.75
 21
-13.4791505667
  0
LINE
  5
232
100
AcDbEntity
  8
0
100
AcDbLine
 62
7
  6
CONTINUOUS
 10
-0.7732026444
 20
-9.468482332
 11
-0.5
 21
-10.4880884817
  0
LINE
  5
233
100
AcDbEntity
  8
0
100
AcDbLine
 62
7
  6
CONTINUOUS
 10
-1.7796707866
 20
-34.2197561625
 11
-1.7796707866
 21
-34.0775771783
  0
LINE
  5
234
100
AcDbEntity
  8
0
100
AcDbLine
 62
7
  6
CONTINUOUS
 10
-1.7796707866
 20
34.0775771758
 11
-1.7796707866
 21
34.2197561625
  0
LINE
  5
235
100
AcDbEntity
  8
0
100
AcDbLine
 62
7
  6
CONTINUOUS
 10
-1.0256413671
 20
-34.9435658498
 11
-1.0256413671
 21
-34.802136272
  0
LINE
  5
236
100
AcDbEntity
  8
0
100
AcDbLine
 62
7
  6
CONTINUOUS
 10
-1.0256413671
 20
34.8021364545
 11
-1.0256413671
 21
34.9435658498
  0
LINE
  5
237
100
AcDbEntity
  8
0
100
AcDbLine
 62
7
  6
CONTINUOUS
 10
10.4880884817
 20
0.5
 11
9.497106148
 21
0.234467084
  0
LINE
  5
238
100
AcDbEntity
  8
0
100
AcDbLine
 62
7
  6
CONTINUOUS
 10
34.2197561625
 20
-1.7796707866
 11
34.0775771545
 21
-1.7796707866
  0
LINE
  5
239
100
AcDbEntity
  8
0
100
AcDbLine
 62
7
  6
CONTINUOUS
 10
-34.0775771511
 20
-1.7796707866
 11
-34.2197561625
 21
-1.7796707866
  0
LINE
  5
23A
100
AcDbEntity
  8
0
100
AcDbLine
 62
7
  6
CONTINUOUS
 10
34.9435658498
 20
-1.0256413671
 11
34.802136272
 21
-1.0256413671
  0
LINE
  5
23B
100
AcDbEntity
  8
0
100
AcDbLine
 62
7
  6
CONTINUOUS
 10
-34.8021364545
 20
-1.0256413671
 11
-34.9435658498
 21
-1.0256413671
  0
LINE
  5
23C
100
AcDbEntity
  8
0
100
AcDbLine
 62
7
  6
CONTINUOUS
 10
-9.497106148
 20
0.234467084
 11
-10.4880884817
 21
0.5
  0
LINE
  5
23D
100
AcDbEntity
  8
0
100
AcDbLine
 62
7
  6
CONTINUOUS
 10
1.0256413671
 20
-34.9435658498
 11
1.0256413671
 21
-34.8021364501
  0
LINE
  5
23E
100
AcDbEntity
  8
0
100
AcDbLine
 62
7
  6
CONTINUOUS
 10
1.0256413671
 20
34.8021362686
 11
1.0256413671
 21
34.9435658498
  0
LINE
  5
23F
100
AcDbEntity
  8
0
100
AcDbLine
 62
7
  6
CONTINUOUS
 10
1.7796707866
 20
-34.2197561625
 11
1.7796707866
 21
-34.0775771702
  0
LINE
  5
240
100
AcDbEntity
  8
0
100
AcDbLine
 62
7
  6
CONTINUOUS
 10
1.7796707866
 20
34.0775771724
 11
1.7796707866
 21
34.2197561625
  0
LINE
  5
241
100
AcDbEntity
  8
0
100
AcDbLine
 62
7
  6
CONTINUOUS
 10
0.5
 20
-10.4880884817
 11
0.7732026444
 21
-9.468482332
  0
LINE
  5
242
100
AcDbEntity
  8
0
100
AcDbLine
 62
7
  6
CONTINUOUS
 10
-10.4880884817
 20
-0.5
 11
-9.497106148
 21
-0.234467084
  0
LINE
  5
243
100
AcDbEntity
  8
0
100
AcDbLine
 62
7
  6
CONTINUOUS
 10
34.9435658498
 20
1.0256413671
 11
34.8021364501
 21
1.0256413671
  0
LINE
  5
244
100
AcDbEntity
  8
0
100
AcDbLine
 62
7
  6
CONTINUOUS
 10
-34.8021362686
 20
1.0256413671
 11
-34.9435658498
 21
1.0256413671
  0
LINE
  5
245
100
AcDbEntity
  8
0
100
AcDbLine
 62
7
  6
CONTINUOUS
 10
34.2197561625
 20
1.7796707866
 11
34.0775771456
 21
1.7796707866
  0
LINE
  5
246
100
AcDbEntity
  8
0
100
AcDbLine
 62
7
  6
CONTINUOUS
 10
-34.0775771486
 20
1.7796707866
 11
-34.2197561625
 21
1.7796707866
  0
LINE
  5
247
100
AcDbEntity
  8
0
100
AcDbLine
 62
7
  6
CONTINUOUS
 10
9.497106148
 20
-0.234467084
 11
10.4880884817
 21
-0.5
  0
LINE
  5
248
100
AcDbEntity
  8
0
100
AcDbLine
 62
7
  6
CONTINUOUS
 10
0.7732026444
 20
9.468482332
 11
0.5
 21
10.4880884817
  0
LINE
  5
249
100
AcDbEntity
  8
0
100
AcDbLine
 62
7
  6
CONTINUOUS
 10
0.75
 20
-13.4791505667
 11
1.0236115728
 21
-12.4580182753
  0
LINE
  5
24A
100
AcDbEntity
  8
0
100
AcDbLine
 62
7
  6
CONTINUOUS
 10
1.0
 20
-17.9722007556
 11
1.2732954666
 21
-16.9522481888
  0
LINE
  5
24B
100
AcDbEntity
  8
0
100
AcDbLine
 62
7
  6
CONTINUOUS
 10
-12.4580182753
 20
1.0236115728
 11
-13.4791505667
 21
0.75
  0
LINE
  5
24C
100
AcDbEntity
  8
0
100
AcDbLine
 62
7
  6
CONTINUOUS
 10
-16.9522481888
 20
1.2732954666
 11
-17.9722007556
 21
1.0
  0
LINE
  5
24D
100
AcDbEntity
  8
0
100
AcDbLine
 62
7
  6
CONTINUOUS
 10
13.4791505667
 20
0.75
 11
12.4580182753
 21
1.0236115728
  0
LINE
  5
24E
100
AcDbEntity
  8
0
100
AcDbLine
 62
7
  6
CONTINUOUS
 10
17.9722007556
 20
1.0
 11
16.9522481888
 21
1.2732954666
  0
LINE
  5
24F
100
AcDbEntity
  8
0
100
AcDbLine
 62
7
  6
CONTINUOUS
 10
1.0236115728
 20
12.4580182753
 11
0.75
 21
13.4791505667
  0
LINE
  5
250
100
AcDbEntity
  8
0
100
AcDbLine
 62
7
  6
CONTINUOUS
 10
1.2732954666
 20
16.9522481888
 11
1.0
 21
17.9722007556
  0
LINE
  5
251
100
AcDbEntity
  8
0
100
AcDbLine
 62
7
  6
CONTINUOUS
 10
-65.4454254081
 20
-35.0
 11
-44.7954254081
 21
-35.0
  0
LINE
  5
252
100
AcDbEntity
  8
ASSI
100
AcDbLine
 62
7
  6
CONTINUOUS
 10
-45.7954254081
 20
-34.991963363
 11
-44.7954254081
 21
-34.991963363
  0
LINE
  5
253
100
AcDbEntity
  8
ASSI
100
AcDbLine
 62
7
  6
CONTINUOUS
 10
-44.7954254081
 20
-34.1917753268
 11
-45.7954254081
 21
-34.1917753268
  0
LINE
  5
254
100
AcDbEntity
  8
ASSI
100
AcDbLine
 62
7
  6
CONTINUOUS
 10
-56.2954254081
 20
-33.6860505254
 11
-46.8241329948
 21
-33.6860505254
  0
LINE
  5
255
100
AcDbEntity
  8
ASSI
100
AcDbLine
 62
7
  6
CONTINUOUS
 10
-56.2954254081
 20
-33.3878720496
 11
-44.7954254081
 21
-33.3878720496
  0
LINE
  5
256
100
AcDbEntity
  8
ASSI
100
AcDbLine
 62
7
  6
CONTINUOUS
 10
-58.2954254081
 20
-32.6917420766
 11
-44.7954254081
 21
-32.6917420766
  0
LINE
  5
257
100
AcDbEntity
  8
ASSI
100
AcDbLine
 62
7
  6
CONTINUOUS
 10
-58.2954254081
 20
-32.2916397849
 11
-44.7954254081
 21
-32.2916397849
  0
LINE
  5
258
100
AcDbEntity
  8
0
100
AcDbLine
 62
7
  6
CONTINUOUS
 10
-94.7954254081
 20
-32.0
 11
-86.7915345753
 21
-32.0
  0
LINE
  5
259
100
AcDbEntity
  8
0
100
AcDbLine
 62
7
  6
CONTINUOUS
 10
-86.7915345753
 20
-32.0
 11
-65.4454254081
 21
-35.0
  0
LINE
  5
25A
100
AcDbEntity
  8
0
100
AcDbLine
 62
7
  6
CONTINUOUS
 10
-94.7954254081
 20
-31.9999953633
 11
-94.7954254081
 21
31.9999953633
  0
LINE
  5
25B
100
AcDbEntity
  8
0
100
AcDbLine
 62
7
  6
CONTINUOUS
 10
-86.7915345753
 20
-32.0
 11
-86.7915345753
 21
32.0
  0
LINE
  5
25C
100
AcDbEntity
  8
RACCORDO
100
AcDbLine
 62
7
  6
CONTINUOUS
 10
-43.5954254081
 20
-17.9881077953
 11
-44.7954254081
 21
-17.9881077953
  0
LINE
  5
25D
100
AcDbEntity
  8
RACCORDO
100
AcDbLine
 62
253
  6
CONTINUOUS
 10
-43.5954254081
 20
-17.8784334273
 11
-44.7954254081
 21
-17.8784334273
  0
LINE
  5
25E
100
AcDbEntity
  8
0
100
AcDbLine
 62
7
  6
CONTINUOUS
 10
-58.2954254081
 20
-13.5
 11
-44.7954254081
 21
-13.5
  0
LINE
  5
25F
100
AcDbEntity
  8
0
100
AcDbLine
 62
7
  6
CONTINUOUS
 10
-58.2954254081
 20
-12.5
 11
-44.7954254081
 21
-12.5
  0
LINE
  5
260
100
AcDbEntity
  8
RACCORDO
100
AcDbLine
 62
253
  6
CONTINUOUS
 10
-44.7954254081
 20
-11.3930513115
 11
-43.5954254081
 21
-11.3930513115
  0
LINE
  5
261
100
AcDbEntity
  8
RACCORDO
100
AcDbLine
 62
253
  6
CONTINUOUS
 10
-44.7954254081
 20
-10.9194444843
 11
-43.5954254081
 21
-10.9194444843
  0
LINE
  5
262
100
AcDbEntity
  8
0
100
AcDbLine
 62
7
  6
CONTINUOUS
 10
-56.2954254081
 20
-10.5
 11
-44.7954254081
 21
-10.5
  0
LINE
  5
263
100
AcDbEntity
  8
RACCORDO
100
AcDbLine
 62
253
  6
CONTINUOUS
 10
-43.5954254081
 20
-10.3168006123
 11
-44.7954254081
 21
-10.3168006123
  0
LINE
  5
264
100
AcDbEntity
  8
ASSI
100
AcDbLine
 62
7
  6
CONTINUOUS
 10
-44.7954254081
 20
-10.1446352325
 11
-43.5195335181
 21
-10.1446352325
  0
LINE
  5
265
100
AcDbEntity
  8
ASSI
100
AcDbLine
 62
7
  6
CONTINUOUS
 10
-56.2954254081
 20
-9.5
 11
-46.8241329948
 21
-9.5
  0
LINE
  5
266
100
AcDbEntity
  8
0
100
AcDbLine
 62
7
  6
CONTINUOUS
 10
-45.7954254081
 20
-0.75
 11
-46.8241329948
 21
-1.0256413671
  0
LINE
  5
267
100
AcDbEntity
  8
0
100
AcDbLine
 62
7
  6
CONTINUOUS
 10
-70.668087688
 20
-34.2197561625
 11
-70.668087688
 21
-33.8377283208
  0
LINE
  5
268
100
AcDbEntity
  8
0
100
AcDbLine
 62
7
  6
CONTINUOUS
 10
-70.668087688
 20
33.8377283087
 11
-70.668087688
 21
34.2197561625
  0
LINE
  5
269
100
AcDbEntity
  8
ASSI
100
AcDbLine
 62
7
  6
CONTINUOUS
 10
-65.7398978543
 20
1.0256413671
 11
-66.768605441
 21
0.75
  0
LINE
  5
26A
100
AcDbEntity
  8
0
100
AcDbLine
 62
7
  6
CONTINUOUS
 10
-45.7954254081
 20
-0.75
 11
-44.7954254081
 21
-0.75
  0
LINE
  5
26B
100
AcDbEntity
  8
ASSI
100
AcDbLine
 62
7
  6
CONTINUOUS
 10
-71.7118332731
 20
-1.5
 11
-70.668087688
 21
-1.7796707866
  0
LINE
  5
26C
100
AcDbEntity
  8
ASSI
100
AcDbLine
 62
7
  6
CONTINUOUS
 10
-66.768605441
 20
-0.75
 11
-65.7398978543
 21
-1.0256413671
  0
LINE
  5
26D
100
AcDbEntity
  8
ASSI
100
AcDbLine
 62
7
  6
CONTINUOUS
 10
-70.668087688
 20
1.7796707866
 11
-71.7118332731
 21
1.5
  0
LINE
  5
26E
100
AcDbEntity
  8
0
100
AcDbLine
 62
7
  6
CONTINUOUS
 10
-45.7954254081
 20
0.75
 11
-44.7954254081
 21
0.75
  0
LINE
  5
26F
100
AcDbEntity
  8
0
100
AcDbLine
 62
7
  6
CONTINUOUS
 10
-65.7398978543
 20
-34.9435658498
 11
-65.7398978543
 21
-34.6562268807
  0
LINE
  5
270
100
AcDbEntity
  8
0
100
AcDbLine
 62
7
  6
CONTINUOUS
 10
-65.7398978543
 20
34.6562268651
 11
-65.7398978543
 21
34.9435658498
  0
LINE
  5
271
100
AcDbEntity
  8
ASSI
100
AcDbLine
 62
7
  6
CONTINUOUS
 10
-65.4454254081
 20
-5.150485414
 11
-65.4454254081
 21
-10.2531702414
  0
LINE
  5
272
100
AcDbEntity
  8
ASSI
100
AcDbLine
 62
7
  6
CONTINUOUS
 10
-65.4454254081
 20
-11.451091651
 11
-65.4454254081
 21
-33.0737433624
  0
LINE
  5
273
100
AcDbEntity
  8
ASSI
100
AcDbLine
 62
7
  6
CONTINUOUS
 10
-65.4454254081
 20
-33.4644961116
 11
-65.4454254081
 21
-34.6189615673
  0
LINE
  5
274
100
AcDbEntity
  8
ASSI
100
AcDbLine
 62
7
  6
CONTINUOUS
 10
-65.4454254081
 20
-34.9066254456
 11
-65.4454254081
 21
-35.0
  0
LINE
  5
275
100
AcDbEntity
  8
ASSI
100
AcDbLine
 62
7
  6
CONTINUOUS
 10
-65.4454254081
 20
-2.5548972582
 11
-65.4454254081
 21
2.5548972582
  0
LINE
  5
276
100
AcDbEntity
  8
ASSI
100
AcDbLine
 62
7
  6
CONTINUOUS
 10
-65.4454254081
 20
5.150485414
 11
-65.4454254081
 21
10.2531702414
  0
LINE
  5
277
100
AcDbEntity
  8
ASSI
100
AcDbLine
 62
7
  6
CONTINUOUS
 10
-65.4454254081
 20
11.451091651
 11
-65.4454254081
 21
33.0737433624
  0
LINE
  5
278
100
AcDbEntity
  8
ASSI
100
AcDbLine
 62
7
  6
CONTINUOUS
 10
-65.4454254081
 20
33.4644961116
 11
-65.4454254081
 21
34.6189615673
  0
LINE
  5
279
100
AcDbEntity
  8
ASSI
100
AcDbLine
 62
7
  6
CONTINUOUS
 10
-65.4454254081
 20
34.9066254456
 11
-65.4454254081
 21
35.0
  0
LINE
  5
27A
100
AcDbEntity
  8
0
100
AcDbLine
 62
7
  6
CONTINUOUS
 10
-46.8241329948
 20
1.0256413671
 11
-45.7954254081
 21
0.75
  0
LINE
  5
27B
100
AcDbEntity
  8
ASSI
100
AcDbLine
 62
253
  6
CONTINUOUS
 10
-58.2954254081
 20
-32.6917420766
 11
-58.2954254081
 21
-32.2916397849
  0
LINE
  5
27C
100
AcDbEntity
  8
ASSI
100
AcDbLine
 62
253
  6
CONTINUOUS
 10
-58.2954254081
 20
32.2916397849
 11
-58.2954254081
 21
32.6917420766
  0
LINE
  5
27D
100
AcDbEntity
  8
ASSI
100
AcDbLine
 62
7
  6
CONTINUOUS
 10
-56.2954254081
 20
9.5
 11
-46.8241329948
 21
9.5
  0
LINE
  5
27E
100
AcDbEntity
  8
ASSI
100
AcDbLine
 62
7
  6
CONTINUOUS
 10
-44.7954254081
 20
10.1446352325
 11
-43.5195335181
 21
10.1446352325
  0
LINE
  5
27F
100
AcDbEntity
  8
RACCORDO
100
AcDbLine
 62
253
  6
CONTINUOUS
 10
-43.5954254081
 20
10.1544239292
 11
-44.7954254081
 21
10.1544239292
  0
LINE
  5
280
100
AcDbEntity
  8
RACCORDO
100
AcDbLine
 62
253
  6
CONTINUOUS
 10
-43.5954254081
 20
10.3345596034
 11
-44.7954254081
 21
10.3345596034
  0
LINE
  5
281
100
AcDbEntity
  8
0
100
AcDbLine
 62
7
  6
CONTINUOUS
 10
-56.2954254081
 20
10.5
 11
-44.7954254081
 21
10.5
  0
LINE
  5
282
100
AcDbEntity
  8
RACCORDO
100
AcDbLine
 62
253
  6
CONTINUOUS
 10
-43.5954254081
 20
10.6246791933
 11
-44.7954254081
 21
10.6246791933
  0
LINE
  5
283
100
AcDbEntity
  8
0
100
AcDbLine
 62
253
  6
CONTINUOUS
 10
-56.2954254081
 20
-33.6860505254
 11
-56.2954254081
 21
-33.3878720496
  0
LINE
  5
284
100
AcDbEntity
  8
0
100
AcDbLine
 62
253
  6
CONTINUOUS
 10
-56.2954254081
 20
33.3878720496
 11
-56.2954254081
 21
33.6860505254
  0
LINE
  5
285
100
AcDbEntity
  8
0
100
AcDbLine
 62
7
  6
CONTINUOUS
 10
-58.2954254081
 20
12.5
 11
-44.7954254081
 21
12.5
  0
LINE
  5
286
100
AcDbEntity
  8
0
100
AcDbLine
 62
7
  6
CONTINUOUS
 10
-58.2954254081
 20
13.5
 11
-44.7954254081
 21
13.5
  0
LINE
  5
287
100
AcDbEntity
  8
RACCORDO
100
AcDbLine
 62
253
  6
CONTINUOUS
 10
-44.7954254081
 20
16.7079679207
 11
-43.5954254081
 21
16.7079679207
  0
LINE
  5
288
100
AcDbEntity
  8
RACCORDO
100
AcDbLine
 62
253
  6
CONTINUOUS
 10
-44.7954254081
 20
17.0823417592
 11
-43.5954254081
 21
17.0823417592
  0
LINE
  5
289
100
AcDbEntity
  8
RACCORDO
100
AcDbLine
 62
253
  6
CONTINUOUS
 10
-43.5954254081
 20
17.636742358
 11
-44.7954254081
 21
17.636742358
  0
LINE
  5
28A
100
AcDbEntity
  8
RACCORDO
100
AcDbLine
 62
253
  6
CONTINUOUS
 10
-43.5954254081
 20
17.8965993706
 11
-44.7954254081
 21
17.8965993706
  0
LINE
  5
28B
100
AcDbEntity
  8
RACCORDO
100
AcDbLine
 62
253
  6
CONTINUOUS
 10
-43.5954254081
 20
17.9812954434
 11
-44.7954254081
 21
17.9812954434
  0
LINE
  5
28C
100
AcDbEntity
  8
RACCORDO
100
AcDbLine
 62
7
  6
CONTINUOUS
 10
-43.5954254081
 20
17.9881077953
 11
-44.7954254081
 21
17.9881077953
  0
LINE
  5
28D
100
AcDbEntity
  8
ASSI
100
AcDbLine
 62
7
  6
CONTINUOUS
 10
-46.8241329948
 20
34.9849690551
 11
-46.8241329948
 21
33.6860505254
  0
LINE
  5
28E
100
AcDbEntity
  8
ASSI
100
AcDbLine
 62
7
  6
CONTINUOUS
 10
-46.8241329948
 20
9.5
 11
-46.8241329948
 21
1.0256413671
  0
LINE
  5
28F
100
AcDbEntity
  8
ASSI
100
AcDbLine
 62
7
  6
CONTINUOUS
 10
-46.8241329948
 20
-1.0256413671
 11
-46.8241329948
 21
-9.5
  0
LINE
  5
290
100
AcDbEntity
  8
0
100
AcDbLine
 62
7
  6
CONTINUOUS
 10
-46.8241329948
 20
-33.6860505254
 11
-46.8241329948
 21
-33.3878720496
  0
LINE
  5
291
100
AcDbEntity
  8
ASSI
100
AcDbLine
 62
7
  6
CONTINUOUS
 10
-46.8241329948
 20
-33.6860505254
 11
-46.8241329948
 21
-34.9849690551
  0
LINE
  5
292
100
AcDbEntity
  8
0
100
AcDbLine
 62
7
  6
CONTINUOUS
 10
-46.8241329948
 20
33.3878720496
 11
-46.8241329948
 21
33.6860505254
  0
LINE
  5
293
100
AcDbEntity
  8
0
100
AcDbLine
 62
7
  6
CONTINUOUS
 10
-45.7954254081
 20
34.991963363
 11
-45.7954254081
 21
33.3878720496
  0
LINE
  5
294
100
AcDbEntity
  8
0
100
AcDbLine
 62
7
  6
CONTINUOUS
 10
-45.7954254081
 20
13.5
 11
-45.7954254081
 21
12.5
  0
LINE
  5
295
100
AcDbEntity
  8
0
100
AcDbLine
 62
7
  6
CONTINUOUS
 10
-45.7954254081
 20
10.5
 11
-45.7954254081
 21
0.75
  0
LINE
  5
296
100
AcDbEntity
  8
0
100
AcDbLine
 62
7
  6
CONTINUOUS
 10
-45.7954254081
 20
-0.75
 11
-45.7954254081
 21
-10.5
  0
LINE
  5
297
100
AcDbEntity
  8
0
100
AcDbLine
 62
7
  6
CONTINUOUS
 10
-45.7954254081
 20
-12.5
 11
-45.7954254081
 21
-13.5
  0
LINE
  5
298
100
AcDbEntity
  8
ASSI
100
AcDbLine
 62
7
  6
CONTINUOUS
 10
-45.7954254081
 20
-32.2916397849
 11
-45.7954254081
 21
-32.6917420766
  0
LINE
  5
299
100
AcDbEntity
  8
0
100
AcDbLine
 62
7
  6
CONTINUOUS
 10
-45.7954254081
 20
-33.3878720496
 11
-45.7954254081
 21
-34.991963363
  0
LINE
  5
29A
100
AcDbEntity
  8
ASSI
100
AcDbLine
 62
7
  6
CONTINUOUS
 10
-45.7954254081
 20
32.2916397849
 11
-45.7954254081
 21
32.6917420766
  0
LINE
  5
29B
100
AcDbEntity
  8
0
100
AcDbLine
 62
7
  6
CONTINUOUS
 10
-44.7954254081
 20
32.2916397849
 11
-44.7954254081
 21
-32.2916397849
  0
LINE
  5
29C
100
AcDbEntity
  8
ASSI
100
AcDbLine
 62
7
  6
CONTINUOUS
 10
-44.7954254081
 20
-32.2916397849
 11
-44.7954254081
 21
-35.0
  0
LINE
  5
29D
100
AcDbEntity
  8
ASSI
100
AcDbLine
 62
7
  6
CONTINUOUS
 10
-44.7954254081
 20
32.2916397849
 11
-44.7954254081
 21
35.0
  0
LINE
  5
29E
100
AcDbEntity
  8
RACCORDO
100
AcDbLine
 62
253
  6
CONTINUOUS
 10
-43.5954254081
 20
17.9881077953
 11
-43.5954254081
 21
17.8965993706
  0
LINE
  5
29F
100
AcDbEntity
  8
RACCORDO
100
AcDbLine
 62
253
  6
CONTINUOUS
 10
-43.5954254081
 20
17.636742358
 11
-43.5954254081
 21
10.1544239292
  0
LINE
  5
2A0
100
AcDbEntity
  8
RACCORDO
100
AcDbLine
 62
253
  6
CONTINUOUS
 10
-43.5954254081
 20
-10.3168006123
 11
-43.5954254081
 21
-17.9881077953
  0
LINE
  5
2A1
100
AcDbEntity
  8
RACCORDO
100
AcDbLine
 62
7
  6
CONTINUOUS
 10
-43.2954254081
 20
17.6881066101
 11
-43.2954254081
 21
10.4765680954
  0
LINE
  5
2A2
100
AcDbEntity
  8
RACCORDO
100
AcDbLine
 62
7
  6
CONTINUOUS
 10
-43.2954254081
 20
-10.4765680954
 11
-43.2954254081
 21
-17.6879424388
  0
LINE
  5
2A3
100
AcDbEntity
  8
0
100
AcDbLine
 62
7
  6
CONTINUOUS
 10
-94.7954254081
 20
32.0
 11
-86.7915345753
 21
32.0
  0
LINE
  5
2A4
100
AcDbEntity
  8
0
100
AcDbLine
 62
7
  6
CONTINUOUS
 10
-86.7915345753
 20
32.0
 11
-65.4454254081
 21
35.0
  0
LINE
  5
2A5
100
AcDbEntity
  8
ASSI
100
AcDbLine
 62
7
  6
CONTINUOUS
 10
-58.2954254081
 20
32.2916397849
 11
-44.7954254081
 21
32.2916397849
  0
LINE
  5
2A6
100
AcDbEntity
  8
ASSI
100
AcDbLine
 62
7
  6
CONTINUOUS
 10
-58.2954254081
 20
32.6917420766
 11
-44.7954254081
 21
32.6917420766
  0
LINE
  5
2A7
100
AcDbEntity
  8
ASSI
100
AcDbLine
 62
7
  6
CONTINUOUS
 10
-56.2954254081
 20
33.3878720496
 11
-44.7954254081
 21
33.3878720496
  0
LINE
  5
2A8
100
AcDbEntity
  8
ASSI
100
AcDbLine
 62
7
  6
CONTINUOUS
 10
-56.2954254081
 20
33.6860505254
 11
-46.8241329948
 21
33.6860505254
  0
LINE
  5
2A9
100
AcDbEntity
  8
ASSI
100
AcDbLine
 62
7
  6
CONTINUOUS
 10
-44.7954254081
 20
34.1917753268
 11
-45.7954254081
 21
34.1917753268
  0
LINE
  5
2AA
100
AcDbEntity
  8
ASSI
100
AcDbLine
 62
7
  6
CONTINUOUS
 10
-45.7954254081
 20
34.991963363
 11
-44.7954254081
 21
34.991963363
  0
LINE
  5
2AB
100
AcDbEntity
  8
0
100
AcDbLine
 62
7
  6
CONTINUOUS
 10
-65.4454254081
 20
35.0
 11
-44.7954254081
 21
35.0
  0
ARC
  5
2AC
100
AcDbEntity
  8
ASSI
100
AcDbCircle
 62
7
  6
CONTINUOUS
 10
-0.0890936456
 20
-42.8490050085
 40
77.8005749126
100
AcDbArc
 50
88.0524732131
 51
89.1790316255
  0
ARC
  5
2AD
100
AcDbEntity
  8
ASSI
100
AcDbCircle
 62
7
  6
CONTINUOUS
 10
-41.8398189771
 20
-0.0647140488
 40
76.7911219114
100
AcDbArc
 50
0.8135687806
 51
1.9549364602
  0
ARC
  5
2AE
100
AcDbEntity
  8
ASSI
100
AcDbCircle
 62
7
  6
CONTINUOUS
 10
-11.0
 20
-17.3
 40
0.7990244135
100
AcDbArc
 50
237.5502427173
 51
57.5502427173
  0
ARC
  5
2AF
100
AcDbEntity
  8
ASSI
100
AcDbCircle
 62
7
  6
CONTINUOUS
 10
-17.3
 20
-11.0
 40
0.7990244135
100
AcDbArc
 50
32.4497572827
 51
212.4497572827
  0
ARC
  5
2B0
100
AcDbEntity
  8
ASSI
100
AcDbCircle
 62
7
  6
CONTINUOUS
 10
-42.8490073935
 20
0.0890930972
 40
77.800577284
100
AcDbArc
 50
358.0524736764
 51
359.1790320545
  0
ARC
  5
2B1
100
AcDbEntity
  8
ASSI
100
AcDbCircle
 62
7
  6
CONTINUOUS
 10
-0.0647145323
 20
41.8398189649
 40
76.7911219112
100
AcDbArc
 50
270.8135691414
 51
271.954936821
  0
ARC
  5
2B2
100
AcDbEntity
  8
ASSI
100
AcDbCircle
 62
7
  6
CONTINUOUS
 10
0.0647146265
 20
-41.8398205555
 40
76.7911235035
100
AcDbArc
 50
90.8135691948
 51
91.9549368507
  0
CIRCLE
  5
2B3
100
AcDbEntity
  8
ASSI
100
AcDbCircle
 62
7
  6
CONTINUOUS
 10
0.0
 20
-0.0
 40
35.0
  0
CIRCLE
  5
2B4
100
AcDbEntity
  8
0
100
AcDbCircle
 62
7
  6
CONTINUOUS
 10
0.0
 20
0.0
 40
32.0
  0
CIRCLE
  5
2B5
100
AcDbEntity
  8
RACCORDO
100
AcDbCircle
 62
253
  6
CONTINUOUS
 10
0.0
 20
0.0
 40
31.5
  0
CIRCLE
  5
2B6
100
AcDbEntity
  8
RACCORDO
100
AcDbCircle
 62
7
  6
CONTINUOUS
 10
0.0
 20
0.0
 40
30.0
  0
ARC
  5
2B7
100
AcDbEntity
  8
ASSI
100
AcDbCircle
 62
7
  6
CONTINUOUS
 10
0.0
 20
0.0
 40
21.3
100
AcDbArc
 50
32.4497572827
 51
57.5502427173
  0
ARC
  5
2B8
100
AcDbEntity
  8
ASSI
100
AcDbCircle
 62
7
  6
CONTINUOUS
 10
0.0
 20
0.0
 40
21.3
100
AcDbArc
 50
212.4497572827
 51
237.5502427173
  0
ARC
  5
2B9
100
AcDbEntity
  8
ASSI
100
AcDbCircle
 62
7
  6
CONTINUOUS
 10
0.0
 20
0.0
 40
19.7019511731
100
AcDbArc
 50
32.4497572827
 51
57.5502427173
  0
ARC
  5
2BA
100
AcDbEntity
  8
ASSI
100
AcDbCircle
 62
7
  6
CONTINUOUS
 10
0.0
 20
0.0
 40
19.7019511731
100
AcDbArc
 50
212.4497572827
 51
237.5502427173
  0
ARC
  5
2BB
100
AcDbEntity
  8
0
100
AcDbCircle
 62
7
  6
CONTINUOUS
 10
0.0
 20
0.0
 40
18.0
100
AcDbArc
 50
183.1847385367
 51
266.8152614633
  0
ARC
  5
2BC
100
AcDbEntity
  8
0
100
AcDbCircle
 62
7
  6
CONTINUOUS
 10
0.0
 20
0.0
 40
18.0
100
AcDbArc
 50
273.1847385367
 51
356.8152614633
  0
ARC
  5
2BD
100
AcDbEntity
  8
0
100
AcDbCircle
 62
7
  6
CONTINUOUS
 10
0.0
 20
0.0
 40
18.0
100
AcDbArc
 50
3.1847385367
 51
86.8152614633
  0
ARC
  5
2BE
100
AcDbEntity
  8
0
100
AcDbCircle
 62
7
  6
CONTINUOUS
 10
0.0
 20
0.0
 40
18.0
100
AcDbArc
 50
93.1847385367
 51
176.8152614633
  0
ARC
  5
2BF
100
AcDbEntity
  8
0
100
AcDbCircle
 62
7
  6
CONTINUOUS
 10
0.0
 20
0.0
 40
17.0
100
AcDbArc
 50
184.2954612435
 51
265.7045387565
  0
ARC
  5
2C0
100
AcDbEntity
  8
0
100
AcDbCircle
 62
7
  6
CONTINUOUS
 10
0.0
 20
0.0
 40
17.0
100
AcDbArc
 50
274.2954612435
 51
355.7045387565
  0
ARC
  5
2C1
100
AcDbEntity
  8
0
100
AcDbCircle
 62
7
  6
CONTINUOUS
 10
0.0
 20
0.0
 40
17.0
100
AcDbArc
 50
4.2954612435
 51
85.7045387565
  0
ARC
  5
2C2
100
AcDbEntity
  8
0
100
AcDbCircle
 62
7
  6
CONTINUOUS
 10
0.0
 20
0.0
 40
17.0
100
AcDbArc
 50
94.2954612435
 51
175.7045387565
  0
ARC
  5
2C3
100
AcDbEntity
  8
0
100
AcDbCircle
 62
7
  6
CONTINUOUS
 10
0.0
 20
0.0
 40
13.5
100
AcDbArc
 50
183.1847385367
 51
266.8152614633
  0
ARC
  5
2C4
100
AcDbEntity
  8
0
100
AcDbCircle
 62
7
  6
CONTINUOUS
 10
0.0
 20
0.0
 40
13.5
100
AcDbArc
 50
273.1847385367
 51
356.8152614633
  0
ARC
  5
2C5
100
AcDbEntity
  8
0
100
AcDbCircle
 62
7
  6
CONTINUOUS
 10
0.0
 20
0.0
 40
13.5
100
AcDbArc
 50
3.1847385367
 51
86.8152614633
  0
ARC
  5
2C6
100
AcDbEntity
  8
0
100
AcDbCircle
 62
7
  6
CONTINUOUS
 10
0.0
 20
0.0
 40
13.5
100
AcDbArc
 50
93.1847385367
 51
176.8152614633
  0
ARC
  5
2C7
100
AcDbEntity
  8
0
100
AcDbCircle
 62
7
  6
CONTINUOUS
 10
0.0
 20
0.0
 40
12.5
100
AcDbArc
 50
184.6971495355
 51
265.3028504645
  0
ARC
  5
2C8
100
AcDbEntity
  8
0
100
AcDbCircle
 62
7
  6
CONTINUOUS
 10
0.0
 20
0.0
 40
12.5
100
AcDbArc
 50
274.6971495355
 51
355.3028504645
  0
ARC
  5
2C9
100
AcDbEntity
  8
0
100
AcDbCircle
 62
7
  6
CONTINUOUS
 10
0.0
 20
0.0
 40
12.5
100
AcDbArc
 50
4.6971495355
 51
85.3028504645
  0
ARC
  5
2CA
100
AcDbEntity
  8
0
100
AcDbCircle
 62
7
  6
CONTINUOUS
 10
0.0
 20
0.0
 40
12.5
100
AcDbArc
 50
94.6971495355
 51
175.3028504645
  0
ARC
  5
2CB
100
AcDbEntity
  8
0
100
AcDbCircle
 62
7
  6
CONTINUOUS
 10
0.0
 20
0.0
 40
10.5
100
AcDbArc
 50
182.7294026368
 51
267.2705973632
  0
ARC
  5
2CC
100
AcDbEntity
  8
0
100
AcDbCircle
 62
7
  6
CONTINUOUS
 10
0.0
 20
0.0
 40
10.5
100
AcDbArc
 50
272.7294026368
 51
357.2705973632
  0
ARC
  5
2CD
100
AcDbEntity
  8
0
100
AcDbCircle
 62
7
  6
CONTINUOUS
 10
0.0
 20
0.0
 40
10.5
100
AcDbArc
 50
92.7294026368
 51
177.2705973632
  0
ARC
  5
2CE
100
AcDbEntity
  8
0
100
AcDbCircle
 62
7
  6
CONTINUOUS
 10
0.0
 20
0.0
 40
10.5
100
AcDbArc
 50
2.7294026368
 51
87.2705973632
  0
ARC
  5
2CF
100
AcDbEntity
  8
0
100
AcDbCircle
 62
7
  6
CONTINUOUS
 10
0.0
 20
0.0
 40
9.5
100
AcDbArc
 50
181.4142461664
 51
265.331546806
  0
ARC
  5
2D0
100
AcDbEntity
  8
0
100
AcDbCircle
 62
7
  6
CONTINUOUS
 10
0.0
 20
0.0
 40
9.5
100
AcDbArc
 50
274.668453194
 51
358.5857538336
  0
ARC
  5
2D1
100
AcDbEntity
  8
0
100
AcDbCircle
 62
7
  6
CONTINUOUS
 10
0.0
 20
0.0
 40
9.5
100
AcDbArc
 50
94.668453194
 51
178.5857538336
  0
ARC
  5
2D2
100
AcDbEntity
  8
0
100
AcDbCircle
 62
7
  6
CONTINUOUS
 10
0.0
 20
0.0
 40
9.5
100
AcDbArc
 50
1.4142461664
 51
85.331546806
  0
CIRCLE
  5
2D3
100
AcDbEntity
  8
0
100
AcDbCircle
 62
7
  6
CONTINUOUS
 10
0.0
 20
0.0
 40
2.55
  0
ARC
  5
2D4
100
AcDbEntity
  8
ASSI
100
AcDbCircle
 62
7
  6
CONTINUOUS
 10
42.8490050212
 20
-0.0890931099
 40
77.8005749128
100
AcDbArc
 50
178.0524736076
 51
179.1790320201
  0
ARC
  5
2D5
100
AcDbEntity
  8
ASSI
100
AcDbCircle
 62
7
  6
CONTINUOUS
 10
0.089093719
 20
42.8490073787
 40
77.8005772839
100
AcDbArc
 50
268.0524732184
 51
269.1790315965
  0
ARC
  5
2D6
100
AcDbEntity
  8
ASSI
100
AcDbCircle
 62
7
  6
CONTINUOUS
 10
41.8398205703
 20
0.0647140164
 40
76.7911235033
100
AcDbArc
 50
180.8135687396
 51
181.9549363954
  0
ARC
  5
2D7
100
AcDbEntity
  8
ASSI
100
AcDbCircle
 62
7
  6
CONTINUOUS
 10
11.0
 20
17.3
 40
0.7990244135
100
AcDbArc
 50
57.5502427173
 51
237.5502427173
  0
ARC
  5
2D8
100
AcDbEntity
  8
ASSI
100
AcDbCircle
 62
7
  6
CONTINUOUS
 10
17.3
 20
11.0
 40
0.7990244135
100
AcDbArc
 50
212.4497572827
 51
32.4497572827
  0
ARC
  5
2D9
100
AcDbEntity
  8
ASSI
100
AcDbCircle
 62
7
  6
CONTINUOUS
 10
-61.0927332917
 20
70.1897857837
 40
35.8361616132
100
AcDbArc
 50
260.8868944833
 51
263.0235749876
  0
ARC
  5
2DA
100
AcDbEntity
  8
ASSI
100
AcDbCircle
 62
7
  6
CONTINUOUS
 10
-61.0927333842
 20
-70.1897850997
 40
35.8361609232
100
AcDbArc
 50
96.9764249984
 51
99.1131055438
  0
ARC
  5
2DB
100
AcDbEntity
  8
ASSI
100
AcDbCircle
 62
7
  6
CONTINUOUS
 10
-61.1578830393
 20
-70.2771311518
 40
35.6294218174
100
AcDbArc
 50
96.9115597228
 51
97.3888145748
  0
ARC
  5
2DC
100
AcDbEntity
  8
ASSI
100
AcDbCircle
 62
7
  6
CONTINUOUS
 10
-61.161002112
 20
70.2522533032
 40
35.6043493291
100
AcDbArc
 50
262.6110145755
 51
263.0886055097
  0
ARC
  5
2DD
100
AcDbEntity
  8
ASSI
100
AcDbCircle
 62
7
  6
CONTINUOUS
 10
-58.2954254081
 20
-0.0
 40
13.5
100
AcDbArc
 50
186.3793702084
 51
270.0
  0
ARC
  5
2DE
100
AcDbEntity
  8
ASSI
100
AcDbCircle
 62
7
  6
CONTINUOUS
 10
-58.2954254081
 20
-0.0
 40
13.5
100
AcDbArc
 50
90.0
 51
173.6206297916
  0
ARC
  5
2DF
100
AcDbEntity
  8
ASSI
100
AcDbCircle
 62
7
  6
CONTINUOUS
 10
-58.2954254081
 20
-0.0
 40
12.5
100
AcDbArc
 50
188.1852232597
 51
270.0
  0
ARC
  5
2E0
100
AcDbEntity
  8
ASSI
100
AcDbCircle
 62
7
  6
CONTINUOUS
 10
-58.2954254081
 20
-0.0
 40
12.5
100
AcDbArc
 50
90.0
 51
171.8147767403
  0
ARC
  5
2E1
100
AcDbEntity
  8
ASSI
100
AcDbCircle
 62
7
  6
CONTINUOUS
 10
-56.2954254081
 20
-0.0
 40
10.5
100
AcDbArc
 50
184.0960437582
 51
270.0
  0
ARC
  5
2E2
100
AcDbEntity
  8
ASSI
100
AcDbCircle
 62
7
  6
CONTINUOUS
 10
-56.2954254081
 20
-0.0
 40
10.5
100
AcDbArc
 50
90.0
 51
175.9039562418
  0
ARC
  5
2E3
100
AcDbEntity
  8
ASSI
100
AcDbCircle
 62
7
  6
CONTINUOUS
 10
-56.2954254081
 20
-0.0
 40
9.5
100
AcDbArc
 50
186.1978614478
 51
270.0
  0
ARC
  5
2E4
100
AcDbEntity
  8
ASSI
100
AcDbCircle
 62
7
  6
CONTINUOUS
 10
-56.2954254081
 20
-0.0
 40
9.5
100
AcDbArc
 50
90.0
 51
173.8021385522
  0
ARC
  5
2E5
100
AcDbEntity
  8
0
100
AcDbCircle
 62
7
  6
CONTINUOUS
 10
-43.1492600781
 20
0.0
 40
3.6748729167
100
AcDbArc
 50
136.060250832
 51
164.3830774679
  0
ARC
  5
2E6
100
AcDbEntity
  8
0
100
AcDbCircle
 62
7
  6
CONTINUOUS
 10
-43.1492600781
 20
0.0
 40
3.6748729167
100
AcDbArc
 50
195.6169225321
 51
223.939749168
  0
ARC
  5
2E7
100
AcDbEntity
  8
RACCORDO
100
AcDbCircle
 62
7
  6
CONTINUOUS
 10
-43.5954254081
 20
-17.6881077953
 40
0.3
100
AcDbArc
 50
270.0
 51
359.9999978792
  0
ARC
  5
2E8
100
AcDbEntity
  8
RACCORDO
100
AcDbCircle
 62
7
  6
CONTINUOUS
 10
-43.5954254081
 20
17.6881077953
 40
0.3
100
AcDbArc
 50
0.0000021208
 51
90.0
  0
ARC
  5
2E9
100
AcDbEntity
  8
RACCORDO
100
AcDbCircle
 62
253
  6
CONTINUOUS
 10
-43.5888227682
 20
17.6842144651
 40
0.2933973601
100
AcDbArc
 50
0.0001089093
 51
0.7598319309
  0
ARC
  5
2EA
100
AcDbEntity
  8
RACCORDO
100
AcDbCircle
 62
253
  6
CONTINUOUS
 10
-43.510561521
 20
-17.6253233042
 40
0.2151361428
100
AcDbArc
 50
347.1098023168
 51
359.9697926367
  0
ARC
  5
2EB
100
AcDbEntity
  8
RACCORDO
100
AcDbCircle
 62
7
  6
CONTINUOUS
 10
-43.5015548308
 20
17.6159708153
 40
0.2061294664
100
AcDbArc
 50
0.0372852857
 51
16.0366874191
  0
SPLINE
  5
2EC
100
AcDbEntity
  8
ASSI
100
AcDbSpline
 62
7
  6
CONTINUOUS
 70
0
 71
3
 72
15
 73
11
 74
9
 42
0.0000001
 43
0.0000001
 44
0.0000000001
 12
0.3023367886
 22
4.3946842133
 32
0.0
 13
0.0505728789
 23
4.404781408
 33
0.0
 40
0.0
 40
0.0
 40
0.0
 40
0.0
 40
0.1160196836
 40
0.2355659656
 40
0.3580620048
 40
0.4829760366
 40
0.6101085731
 40
0.7389103282
 40
0.8690494376
 40
1.0
 40
1.0
 40
1.0
 40
1.0
 10
34.6189615673
 20
-5.150485414
 30
0.0
 10
34.6306539068
 20
-4.98052879
 30
0.0
 10
34.653655761
 20
-4.6353979754
 30
0.0
 10
34.6858693116
 20
-4.1106200544
 30
0.0
 10
34.7155899962
 20
-3.5726135026
 30
0.0
 10
34.7421570941
 20
-3.0232884829
 30
0.0
 10
34.7649955496
 20
-2.4645280677
 30
0.0
 10
34.7836300296
 20
-1.8979343178
 30
0.0
 10
34.7976647321
 20
-1.3255999026
 30
0.0
 10
34.8037520831
 20
-0.9422695342
 30
0.0
 10
34.8059595987
 20
-0.75
 30
0.0
 11
34.6189615673
 21
-5.150485414
 31
0.0
 11
34.6528726366
 21
-4.6405366685
 31
0.0
 11
34.6850740667
 21
-4.1149121797
 31
0.0
 11
34.7147840049
 21
-3.576126859
 31
0.0
 11
34.741320931
 21
-3.0265118548
 31
0.0
 11
34.7641565353
 21
-2.4669496778
 31
0.0
 11
34.782779347
 21
-1.899874414
 31
0.0
 11
34.796812923
 21
-1.3267740982
 31
0.0
 11
34.8059595987
 21
-0.75
 31
0.0
  0
SPLINE
  5
2ED
100
AcDbEntity
  8
ASSI
100
AcDbSpline
 62
7
  6
CONTINUOUS
 70
0
 71
3
 72
25
 73
21
 74
19
 42
0.0000001
 43
0.0000001
 44
0.0000000001
 12
1.0750018096
 22
9.9503498181
 32
0.0
 13
0.282897909
 23
10.0042520543
 33
0.0
 40
0.0
 40
0.0
 40
0.0
 40
0.0
 40
0.0367178997
 40
0.0763582009
 40
0.1189012766
 40
0.1642239771
 40
0.2121686503
 40
0.2625818145
 40
0.3154806132
 40
0.3707244725
 40
0.4281116129
 40
0.4874097679
 40
0.5480386472
 40
0.6097393831
 40
0.6724666106
 40
0.7361946792
 40
0.8009946286
 40
0.8666943663
 40
0.9331043955
 40
1.0
 40
1.0
 40
1.0
 40
1.0
 10
33.0737433624
 20
-11.451091651
 30
0.0
 10
33.0869006319
 20
-11.3293063353
 30
0.0
 10
33.116297522
 20
-11.0762616842
 30
0.0
 10
33.1663725493
 20
-10.6827661978
 30
0.0
 10
33.223134914
 20
-10.2611970628
 30
0.0
 10
33.2854759459
 20
-9.8124310108
 30
0.0
 10
33.3521815206
 20
-9.3377649435
 30
0.0
 10
33.4220785583
 20
-8.8380244288
 30
0.0
 10
33.4939938282
 20
-8.3139794013
 30
0.0
 10
33.5667294579
 20
-7.7665669266
 30
0.0
 10
33.6389959392
 20
-7.1975636815
 30
0.0
 10
33.7093763397
 20
-6.6102247636
 30
0.0
 10
33.7765501753
 20
-6.0080267224
 30
0.0
 10
33.8394167893
 20
-5.3938615145
 30
0.0
 10
33.8971806996
 20
-4.7688098028
 30
0.0
 10
33.9492095228
 20
-4.1328786554
 30
0.0
 10
33.9948705097
 20
-3.4865154817
 30
0.0
 10
34.0335470021
 20
-2.8307321404
 30
0.0
 10
34.0646602809
 20
-2.1675473648
 30
0.0
 10
34.0800171245
 20
-1.7230801629
 30
0.0
 10
34.0863253334
 20
-1.5
 30
0.0
 11
33.0737433624
 21
-11.451091651
 31
0.0
 11
33.1158109108
 21
-11.0860254747
 31
0.0
 11
33.1656094284
 21
-10.69243321
 31
0.0
 11
33.2221829105
 21
-10.2704266118
 31
0.0
 11
33.2843876445
 21
-9.8211111221
 31
0.0
 11
33.3509851456
 21
-9.3459128125
 31
0.0
 11
33.4207197278
 21
-8.8462075232
 31
0.0
 11
33.4925639646
 21
-8.3216804358
 31
0.0
 11
33.5652705704
 21
-7.7735873918
 31
0.0
 11
33.6375321914
 21
-7.2038064368
 31
0.0
 11
33.7080541125
 21
-6.6145405552
 31
0.0
 11
33.7752484373
 21
-6.0114834499
 31
0.0
 11
33.8380671276
 21
-5.397170509
 31
0.0
 11
33.8957856049
 21
-4.7720395889
 31
0.0
 11
33.9477504119
 21
-4.1363534977
 31
0.0
 11
33.9934146289
 21
-3.4894289706
 31
0.0
 11
34.0320981578
 21
-2.8330283741
 31
0.0
 11
34.0632231649
 21
-2.1691093058
 31
0.0
 11
34.0863253334
 21
-1.5
 31
0.0
  0
SPLINE
  5
2EE
100
AcDbEntity
  8
ASSI
100
AcDbSpline
 62
7
  6
CONTINUOUS
 70
0
 71
3
 72
25
 73
21
 74
19
 42
0.0000001
 43
0.0000001
 44
0.0000000001
 12
10.0042520551
 22
0.282897909
 32
0.0
 13
9.9503498189
 23
1.0750018097
 33
0.0
 40
0.0
 40
0.0
 40
0.0
 40
0.0
 40
0.0668949871
 40
0.1333052178
 40
0.1990048491
 40
0.2638032802
 40
0.327529709
 40
0.3902557226
 40
0.4519542872
 40
0.5125785811
 40
0.5718766307
 40
0.6292660702
 40
0.6845125413
 40
0.7374134204
 40
0.7878287029
 40
0.8357750687
 40
0.8810982891
 40
0.9236411246
 40
0.9632813629
 40
1.0
 40
1.0
 40
1.0
 40
1.0
 10
1.5
 20
-34.0863253334
 30
0.0
 10
1.7230781039
 20
-34.0800171827
 30
0.0
 10
2.1675439195
 20
-34.0646604128
 30
0.0
 10
2.8307269576
 20
-34.0335472786
 30
0.0
 10
3.4865055625
 20
-33.9948711211
 30
0.0
 10
4.1328578825
 20
-33.9492110484
 30
0.0
 10
4.7687745177
 20
-33.8971837253
 30
0.0
 10
5.3938095765
 20
-33.8394217952
 30
0.0
 10
6.0079483891
 20
-33.7765584571
 30
0.0
 10
6.6101237685
 20
-33.709387973
 30
0.0
 10
7.1974548713
 20
-33.6390094112
 30
0.0
 10
7.7664741066
 20
-33.5667415834
 30
0.0
 10
8.3139097553
 20
-33.494003283
 30
0.0
 10
8.8379773189
 20
-33.4220851168
 30
0.0
 10
9.3377373053
 20
-33.352185409
 30
0.0
 10
9.8124176776
 20
-33.2854778073
 30
0.0
 10
10.2611902438
 20
-33.2231358471
 30
0.0
 10
10.6827600918
 20
-33.166373357
 30
0.0
 10
11.0762570075
 20
-33.1162980856
 30
0.0
 10
11.3293038896
 20
-33.0869008962
 30
0.0
 10
11.451091651
 20
-33.0737433624
 30
0.0
 11
1.5
 21
-34.0863253334
 31
0.0
 11
2.1691031313
 21
-34.0632234165
 31
0.0
 11
2.8330242168
 21
-34.0320983781
 31
0.0
 11
3.4894237543
 21
-33.9934149672
 31
0.0
 11
4.1363331334
 21
-33.9477519651
 31
0.0
 11
4.7720028938
 21
-33.895788803
 31
0.0
 11
5.3971217561
 21
-33.8380718774
 31
0.0
 11
6.0114131356
 21
-33.7752559603
 31
0.0
 11
6.614424721
 21
-33.7080675182
 31
0.0
 11
7.2036896624
 21
-33.6375466099
 31
0.0
 11
7.7734935298
 21
-33.5652827717
 31
0.0
 11
8.321612541
 21
-33.492573137
 31
0.0
 11
8.846160284
 21
-33.4207262741
 31
0.0
 11
9.3458865788
 21
-33.3509888238
 31
0.0
 11
9.8211016638
 21
-33.2843889658
 31
0.0
 11
10.2704223049
 21
-33.2221834993
 31
0.0
 11
10.6924265166
 21
-33.165610304
 31
0.0
 11
11.0860181486
 21
-33.1158118009
 31
0.0
 11
11.451091651
 21
-33.0737433624
 31
0.0
  0
SPLINE
  5
2EF
100
AcDbEntity
  8
ASSI
100
AcDbSpline
 62
7
  6
CONTINUOUS
 70
0
 71
3
 72
15
 73
11
 74
9
 42
0.0000001
 43
0.0000001
 44
0.0000000001
 12
4.4047814078
 22
0.0505728789
 32
0.0
 13
4.3946842131
 23
0.3023367886
 33
0.0
 40
0.0
 40
0.0
 40
0.0
 40
0.0
 40
0.1309220189
 40
0.2610572793
 40
0.3898718805
 40
0.5170242597
 40
0.6419579716
 40
0.7644666954
 40
0.8840084386
 40
1.0
 40
1.0
 40
1.0
 40
1.0
 10
0.75
 20
-34.8059595987
 30
0.0
 10
0.9422276249
 20
-34.8037525643
 30
0.0
 10
1.3255104379
 20
-34.7976663366
 30
0.0
 10
1.8978161882
 20
-34.7836334805
 30
0.0
 10
2.4644522948
 20
-34.7649985398
 30
0.0
 10
3.0232895578
 20
-34.7421572635
 30
0.0
 10
3.5726911334
 20
-34.7155861314
 30
0.0
 10
4.1107384401
 20
-34.6858624309
 30
0.0
 10
4.6354870366
 20
-34.6536499184
 30
0.0
 10
4.9805699861
 20
-34.6306510727
 30
0.0
 10
5.150485414
 20
-34.6189615673
 30
0.0
 11
0.75
 21
-34.8059595987
 31
0.0
 11
1.3266483867
 21
-34.7968154641
 31
0.0
 11
1.8997317799
 21
-34.7827834442
 31
0.0
 11
2.466863632
 21
-34.7641597109
 31
0.0
 11
3.0265131585
 21
-34.7413208727
 31
0.0
 11
3.5762147388
 21
-34.7147794495
 31
0.0
 11
4.1150558102
 21
-34.6850656857
 31
0.0
 11
4.640660296
 21
-34.6528647176
 31
0.0
 11
5.150485414
 21
-34.6189615673
 31
0.0
  0
SPLINE
  5
2F0
100
AcDbEntity
  8
ASSI
100
AcDbSpline
 62
7
  6
CONTINUOUS
 70
0
 71
3
 72
15
 73
11
 74
9
 42
0.0000001
 43
0.0000001
 44
0.0000000001
 12
4.3946842133
 22
-0.3023367886
 32
0.0
 13
4.404781408
 23
-0.0505728789
 33
0.0
 40
0.0
 40
0.0
 40
0.0
 40
0.0
 40
0.1160196836
 40
0.2355659656
 40
0.3580620048
 40
0.4829760366
 40
0.6101085731
 40
0.7389103282
 40
0.8690494376
 40
1.0
 40
1.0
 40
1.0
 40
1.0
 10
-5.150485414
 20
-34.6189615673
 30
0.0
 10
-4.98052879
 20
-34.6306539068
 30
0.0
 10
-4.6353979754
 20
-34.653655761
 30
0.0
 10
-4.1106200544
 20
-34.6858693116
 30
0.0
 10
-3.5726135026
 20
-34.7155899962
 30
0.0
 10
-3.0232884829
 20
-34.7421570941
 30
0.0
 10
-2.4645280677
 20
-34.7649955496
 30
0.0
 10
-1.8979343178
 20
-34.7836300296
 30
0.0
 10
-1.3255999026
 20
-34.7976647321
 30
0.0
 10
-0.9422695342
 20
-34.8037520831
 30
0.0
 10
-0.75
 20
-34.8059595987
 30
0.0
 11
-5.150485414
 21
-34.6189615673
 31
0.0
 11
-4.6405366685
 21
-34.6528726366
 31
0.0
 11
-4.1149121797
 21
-34.6850740667
 31
0.0
 11
-3.576126859
 21
-34.7147840049
 31
0.0
 11
-3.0265118548
 21
-34.741320931
 31
0.0
 11
-2.4669496778
 21
-34.7641565353
 31
0.0
 11
-1.899874414
 21
-34.782779347
 31
0.0
 11
-1.3267740982
 21
-34.796812923
 31
0.0
 11
-0.75
 21
-34.8059595987
 31
0.0
  0
SPLINE
  5
2F1
100
AcDbEntity
  8
ASSI
100
AcDbSpline
 62
7
  6
CONTINUOUS
 70
0
 71
3
 72
25
 73
21
 74
19
 42
0.0000001
 43
0.0000001
 44
0.0000000001
 12
9.9503498184
 22
-1.0750018097
 32
0.0
 13
10.0042520546
 23
-0.282897909
 33
0.0
 40
0.0
 40
0.0
 40
0.0
 40
0.0
 40
0.0367186886
 40
0.0763597053
 40
0.1189035409
 40
0.1642271959
 40
0.2121732021
 40
0.2625882902
 40
0.3154894744
 40
0.370735531
 40
0.4281239229
 40
0.4874198248
 40
0.5480413781
 40
0.6097374018
 40
0.6724621209
 40
0.7361893713
 40
0.8009901564
 40
0.8666917892
 40
0.9331036873
 40
1.0
 40
1.0
 40
1.0
 40
1.0
 10
-11.451091651
 20
-33.0737433624
 30
0.0
 10
-11.329303719
 20
-33.0869009146
 30
0.0
 10
-11.0762540871
 20
-33.1162984264
 30
0.0
 10
-10.682751121
 20
-33.1663745161
 30
0.0
 10
-10.2611739669
 20
-33.2231380734
 30
0.0
 10
-9.8123978562
 20
-33.2854805863
 30
0.0
 10
-9.3377178794
 20
-33.3521881383
 30
0.0
 10
-8.8379587108
 20
-33.4220877001
 30
0.0
 10
-8.3138921427
 20
-33.4940056653
 30
0.0
 10
-7.7664603077
 20
-33.5667433649
 30
0.0
 10
-7.1974530102
 20
-33.6390096037
 30
0.0
 10
-6.6101415745
 20
-33.709385844
 30
0.0
 10
-6.0079908557
 20
-33.7765538303
 30
0.0
 10
-5.3938739222
 20
-33.8394154601
 30
0.0
 10
-4.7688489462
 20
-33.8971772283
 30
0.0
 10
-4.1329261248
 20
-33.9492059022
 30
0.0
 10
-3.4865566249
 20
-33.9948678947
 30
0.0
 10
-2.8307579888
 20
-34.0335457085
 30
0.0
 10
-2.1675583182
 20
-34.0646598877
 30
0.0
 10
-1.7230825247
 20
-34.0800170577
 30
0.0
 10
-1.5
 20
-34.0863253334
 30
0.0
 11
-11.451091651
 21
-33.0737433624
 31
0.0
 11
-11.0860176375
 21
-33.115811863
 31
0.0
 11
-10.6924182811
 21
-33.1656113813
 31
0.0
 11
-10.2704041587
 21
-33.2221859801
 31
0.0
 11
-9.8210792172
 21
-33.2843921016
 31
0.0
 11
-9.3458676973
 21
-33.3509914711
 31
0.0
 11
-8.8461433266
 21
-33.4207286241
 31
0.0
 11
-8.3215925487
 21
-33.4925758379
 31
0.0
 11
-7.7734776383
 21
-33.5652848375
 31
0.0
 11
-7.2036841633
 21
-33.6375472889
 31
0.0
 11
-6.6144405697
 21
-33.708065684
 31
0.0
 11
-6.0114562735
 21
-33.775251345
 31
0.0
 11
-5.3971902451
 21
-33.8380652047
 31
0.0
 11
-4.7720843543
 21
-33.8957817034
 31
0.0
 11
-4.1364064673
 21
-33.9477463717
 31
0.0
 11
-3.4894736363
 21
-33.9934117324
 31
0.0
 11
-2.8330541302
 21
-34.0320967933
 31
0.0
 11
-2.1691163882
 21
-34.0632228762
 31
0.0
 11
-1.5
 21
-34.0863253334
 31
0.0
  0
SPLINE
  5
2F2
100
AcDbEntity
  8
ASSI
100
AcDbSpline
 62
7
  6
CONTINUOUS
 70
0
 71
3
 72
25
 73
21
 74
19
 42
0.0000001
 43
0.0000001
 44
0.0000000001
 12
0.282897909
 22
-10.0042520545
 32
0.0
 13
1.0750018096
 23
-9.9503498183
 33
0.0
 40
0.0
 40
0.0
 40
0.0
 40
0.0
 40
0.0668950391
 40
0.1333043631
 40
0.199003404
 40
0.2638028117
 40
0.3275306399
 40
0.3902580502
 40
0.4519594287
 40
0.5125894295
 40
0.5718893431
 40
0.6292776749
 40
0.6845221017
 40
0.7374209804
 40
0.7878338782
 40
0.8357780636
 40
0.8811001704
 40
0.9236426529
 40
0.96328245
 40
1.0
 40
1.0
 40
1.0
 40
1.0
 10
-34.0863253334
 20
-1.5
 30
0.0
 10
-34.0800171778
 20
-1.7230782776
 30
0.0
 10
-34.0646605041
 20
-2.1675412435
 30
0.0
 10
-34.0335476453
 20
-2.8307194674
 30
0.0
 10
-33.9948717264
 20
-3.4864963463
 30
0.0
 10
-33.9492113418
 20
-4.1328546166
 30
0.0
 10
-33.8971829659
 20
-4.7687837944
 30
0.0
 10
-33.8394191461
 20
-5.3938374746
 30
0.0
 10
-33.7765520819
 20
-6.0080091653
 30
0.0
 10
-33.7093770586
 20
-6.6102189
 30
0.0
 10
-33.6389950323
 20
-7.1975713038
 30
0.0
 10
-33.5667269698
 20
-7.7665861775
 30
0.0
 10
-33.4939904081
 20
-8.3140047169
 30
0.0
 10
-33.4220748698
 20
-8.8380509906
 30
0.0
 10
-33.3521781004
 20
-9.3377892717
 30
0.0
 10
-33.2854731627
 20
-9.8124508872
 30
0.0
 10
-33.2231329516
 20
-10.261211413
 30
0.0
 10
-33.1663714083
 20
-10.6827749665
 30
0.0
 10
-33.116297049
 20
-11.0762656718
 30
0.0
 10
-33.0869005066
 20
-11.3293074954
 30
0.0
 10
-33.0737433624
 20
-11.451091651
 30
0.0
 11
-34.0863253334
 21
-1.5
 31
0.0
 11
-34.0632233953
 21
-2.1691036521
 31
0.0
 11
-34.0320988306
 21
-2.8330156747
 31
0.0
 11
-33.9934159032
 21
-3.4894093208
 31
0.0
 11
-33.9477523217
 21
-4.136328458
 31
0.0
 11
-33.8957879941
 21
-4.7720121753
 31
0.0
 11
-33.8380696186
 21
-5.3971449407
 31
0.0
 11
-33.775250486
 21
-6.0114643017
 31
0.0
 11
-33.7080550361
 21
-6.6145325753
 31
0.0
 11
-33.6375310188
 21
-7.2038159333
 31
0.0
 11
-33.5652677999
 21
-7.7736087045
 31
0.0
 11
-33.4925603267
 21
-8.3217073632
 31
0.0
 11
-33.420715888
 21
-8.8462352311
 31
0.0
 11
-33.350981632
 21
-9.345937873
 31
0.0
 11
-33.2843848187
 21
-9.8211313497
 31
0.0
 11
-33.222180949
 21
-10.2704409597
 31
0.0
 11
-33.1656083199
 21
-10.6924416836
 31
0.0
 11
-33.1158104886
 21
-11.0860289497
 31
0.0
 11
-33.0737433624
 21
-11.451091651
 31
0.0
  0
SPLINE
  5
2F3
100
AcDbEntity
  8
ASSI
100
AcDbSpline
 62
7
  6
CONTINUOUS
 70
0
 71
3
 72
15
 73
11
 74
9
 42
0.0000001
 43
0.0000001
 44
0.0000000001
 12
0.0505728789
 22
-4.4047814078
 32
0.0
 13
0.3023367886
 23
-4.3946842131
 33
0.0
 40
0.0
 40
0.0
 40
0.0
 40
0.0
 40
0.1309217404
 40
0.2610573923
 40
0.3898720833
 40
0.5170252255
 40
0.6419590445
 40
0.7644661423
 40
0.8840075037
 40
1.0
 40
1.0
 40
1.0
 40
1.0
 10
-34.8059595987
 20
-0.75
 30
0.0
 10
-34.803752569
 20
-0.9422272161
 30
0.0
 10
-34.7976663423
 20
-1.325510195
 30
0.0
 10
-34.7836334819
 20
-1.8978162431
 30
0.0
 10
-34.7649984754
 20
-2.4644541757
 30
0.0
 10
-34.7421571213
 20
-3.0232928462
 30
0.0
 10
-34.7155860105
 20
-3.5726933115
 30
0.0
 10
-34.6858624575
 20
-4.110737831
 30
0.0
 10
-34.6536500606
 20
-4.6354848561
 30
0.0
 10
-34.6306511669
 20
-4.9805686165
 30
0.0
 10
-34.6189615673
 20
-5.150485414
 30
0.0
 11
-34.8059595987
 21
-0.75
 31
0.0
 11
-34.7968154888
 21
-1.3266471603
 31
0.0
 11
-34.7827834299
 21
-1.8997322776
 31
0.0
 11
-34.7641596779
 21
-2.4668645247
 31
0.0
 11
-34.741320683
 21
-3.026517409
 31
0.0
 11
-34.7147792049
 21
-3.5762194588
 31
0.0
 11
-34.6850658277
 21
-4.1150533776
 31
0.0
 11
-34.6528649809
 21
-4.640656186
 31
0.0
 11
-34.6189615673
 21
-5.150485414
 31
0.0
  0
SPLINE
  5
2F4
100
AcDbEntity
  8
ASSI
100
AcDbSpline
 62
7
  6
CONTINUOUS
 70
0
 71
3
 72
15
 73
11
 74
9
 42
0.0000001
 43
0.0000001
 44
0.0000000001
 12
-0.0505728789
 22
4.4047814078
 32
0.0
 13
-0.3023367886
 23
4.3946842131
 33
0.0
 40
0.0
 40
0.0
 40
0.0
 40
0.0
 40
0.1309220189
 40
0.2610572793
 40
0.3898718805
 40
0.5170242597
 40
0.6419579716
 40
0.7644666954
 40
0.8840084386
 40
1.0
 40
1.0
 40
1.0
 40
1.0
 10
34.8059595987
 20
0.75
 30
0.0
 10
34.8037525643
 20
0.9422276249
 30
0.0
 10
34.7976663366
 20
1.3255104379
 30
0.0
 10
34.7836334805
 20
1.8978161882
 30
0.0
 10
34.7649985398
 20
2.4644522948
 30
0.0
 10
34.7421572635
 20
3.0232895578
 30
0.0
 10
34.7155861314
 20
3.5726911334
 30
0.0
 10
34.6858624309
 20
4.1107384401
 30
0.0
 10
34.6536499184
 20
4.6354870366
 30
0.0
 10
34.6306510727
 20
4.9805699861
 30
0.0
 10
34.6189615673
 20
5.150485414
 30
0.0
 11
34.8059595987
 21
0.75
 31
0.0
 11
34.7968154641
 21
1.3266483867
 31
0.0
 11
34.7827834442
 21
1.8997317799
 31
0.0
 11
34.7641597109
 21
2.466863632
 31
0.0
 11
34.7413208727
 21
3.0265131585
 31
0.0
 11
34.7147794495
 21
3.5762147388
 31
0.0
 11
34.6850656857
 21
4.1150558102
 31
0.0
 11
34.6528647176
 21
4.640660296
 31
0.0
 11
34.6189615673
 21
5.150485414
 31
0.0
  0
SPLINE
  5
2F5
100
AcDbEntity
  8
ASSI
100
AcDbSpline
 62
7
  6
CONTINUOUS
 70
0
 71
3
 72
25
 73
21
 74
19
 42
0.0000001
 43
0.0000001
 44
0.0000000001
 12
-0.282897909
 22
10.0042520548
 32
0.0
 13
-1.0750018097
 23
9.9503498186
 33
0.0
 40
0.0
 40
0.0
 40
0.0
 40
0.0
 40
0.0668941785
 40
0.1333024082
 40
0.1990000248
 40
0.2637975489
 40
0.3275247966
 40
0.3902534031
 40
0.4519568516
 40
0.5125887035
 40
0.5718892742
 40
0.6292775972
 40
0.6845219071
 40
0.7374203698
 40
0.7878336637
 40
0.835778612
 40
0.8811007847
 40
0.9236427693
 40
0.9632822128
 40
1.0
 40
1.0
 40
1.0
 40
1.0
 10
34.0863253334
 20
1.5
 30
0.0
 10
34.080017259
 20
1.7230754075
 30
0.0
 10
34.0646608464
 20
2.1675318563
 30
0.0
 10
34.033548688
 20
2.8306988269
 30
0.0
 10
33.99487395
 20
3.4864610632
 30
0.0
 10
33.9492149717
 20
4.1328064271
 30
0.0
 10
33.8971875413
 20
4.7687314381
 30
0.0
 10
33.8394234288
 20
5.3937940897
 30
0.0
 10
33.7765549642
 20
6.0079827995
 30
0.0
 10
33.7093783863
 20
6.6102077292
 30
0.0
 10
33.6389953966
 20
7.1975684154
 30
0.0
 10
33.5667271155
 20
7.7665850482
 30
0.0
 10
33.4939907989
 20
8.3140017973
 30
0.0
 10
33.4220753382
 20
8.8380476212
 30
0.0
 10
33.3521782306
 20
9.3377883577
 30
0.0
 10
33.2854727206
 20
9.8124540194
 30
0.0
 10
33.2231323729
 20
10.2612156408
 30
0.0
 10
33.1663712037
 20
10.6827766002
 30
0.0
 10
33.1162971019
 20
11.0762652721
 30
0.0
 10
33.0869005916
 20
11.3293067086
 30
0.0
 10
33.0737433624
 20
11.451091651
 30
0.0
 11
34.0863253334
 21
1.5
 31
0.0
 11
34.0632237461
 21
2.1690950453
 31
0.0
 11
34.0320998656
 21
2.8329961369
 31
0.0
 11
33.9934180917
 21
3.4893755719
 31
0.0
 11
33.9477563275
 21
4.1362759386
 31
0.0
 11
33.8957930718
 21
4.7719539135
 31
0.0
 11
33.8380741284
 21
5.3970986504
 31
0.0
 11
33.7752532299
 21
6.0114386554
 31
0.0
 11
33.7080558714
 21
6.6145253579
 31
0.0
 11
33.6375311033
 21
7.2038152486
 31
0.0
 11
33.5652679002
 21
7.7736079327
 31
0.0
 11
33.4925605875
 21
8.321705433
 31
0.0
 11
33.4207167269
 21
8.8462291778
 31
0.0
 11
33.3509819301
 21
9.345935747
 31
0.0
 11
33.2843840594
 21
9.821136785
 31
0.0
 11
33.2221801162
 21
10.2704470515
 31
0.0
 11
33.1656081688
 21
10.6924428388
 31
0.0
 11
33.115810775
 21
11.0860265927
 31
0.0
 11
33.0737433624
 21
11.451091651
 31
0.0
  0
SPLINE
  5
2F6
100
AcDbEntity
  8
ASSI
100
AcDbSpline
 62
7
  6
CONTINUOUS
 70
0
 71
3
 72
25
 73
21
 74
19
 42
0.0000001
 43
0.0000001
 44
0.0000000001
 12
-9.9503498187
 22
1.0750018097
 32
0.0
 13
-10.0042520549
 23
0.282897909
 33
0.0
 40
0.0
 40
0.0
 40
0.0
 40
0.0
 40
0.0367189024
 40
0.0763595326
 40
0.1189028313
 40
0.164226512
 40
0.2121732452
 40
0.2625887047
 40
0.3154894721
 40
0.3707354433
 40
0.4281239006
 40
0.4874205839
 40
0.5480441076
 40
0.6097422464
 40
0.6724681655
 40
0.7361948059
 40
0.8009936557
 40
0.8666938088
 40
0.9331045697
 40
1.0
 40
1.0
 40
1.0
 40
1.0
 10
11.451091651
 20
33.0737433624
 30
0.0
 10
11.3293030096
 20
33.0869009912
 30
0.0
 10
11.0762539513
 20
33.116298448
 30
0.0
 10
10.6827533333
 20
33.1663742363
 30
0.0
 10
10.2611791436
 20
33.223137365
 30
0.0
 10
9.8124023173
 20
33.2854799581
 30
0.0
 10
9.3377186273
 20
33.3521880349
 30
0.0
 10
8.8379572063
 20
33.4220879095
 30
0.0
 10
8.3138910691
 20
33.4940058066
 30
0.0
 10
7.766460679
 20
33.5667433163
 30
0.0
 10
7.1974508621
 20
33.6390098788
 30
0.0
 10
6.6101300915
 20
33.7093872111
 30
0.0
 10
6.0079632194
 20
33.7765568511
 30
0.0
 10
5.3938287074
 20
33.839419922
 30
0.0
 10
4.7687946934
 20
33.8971819685
 30
0.0
 10
4.1328762943
 20
33.9492096558
 30
0.0
 10
3.4865201539
 20
33.9948701932
 30
0.0
 10
2.8307366596
 20
34.0335467858
 30
0.0
 10
2.1675486426
 20
34.0646602404
 30
0.0
 10
1.7230795819
 20
34.0800171409
 30
0.0
 10
1.5
 20
34.0863253334
 30
0.0
 11
11.451091651
 21
33.0737433624
 31
0.0
 11
11.0860155124
 21
33.1158121212
 31
0.0
 11
10.692419995
 21
33.1656111571
 31
0.0
 11
10.2704111949
 21
33.2221850182
 31
0.0
 11
9.8210859959
 21
33.2843911546
 31
0.0
 11
9.3458672706
 21
33.3509915309
 31
0.0
 11
8.8461392172
 21
33.4207291936
 31
0.0
 11
8.3215925712
 21
33.4925758348
 31
0.0
 11
7.7734785083
 21
33.5652847244
 31
0.0
 11
7.2036843849
 21
33.6375472615
 31
0.0
 11
6.6144330227
 21
33.7080665574
 31
0.0
 11
6.0114291104
 21
33.7752542512
 31
0.0
 11
5.3971419875
 21
33.8380699063
 31
0.0
 11
4.7720240861
 21
33.895786956
 31
0.0
 11
4.1363522327
 21
33.9477505084
 31
0.0
 11
3.4894386873
 21
33.9934139988
 31
0.0
 11
2.8330339455
 21
34.0320978627
 31
0.0
 11
2.1691075636
 21
34.0632232359
 31
0.0
 11
1.5
 21
34.0863253334
 31
0.0
  0
SPLINE
  5
2F7
100
AcDbEntity
  8
ASSI
100
AcDbSpline
 62
7
  6
CONTINUOUS
 70
0
 71
3
 72
15
 73
11
 74
9
 42
0.0000001
 43
0.0000001
 44
0.0000000001
 12
-4.3946842133
 22
0.3023367886
 32
0.0
 13
-4.404781408
 23
0.0505728789
 33
0.0
 40
0.0
 40
0.0
 40
0.0
 40
0.0
 40
0.1160188669
 40
0.2355656727
 40
0.3580634753
 40
0.4829775035
 40
0.6101093158
 40
0.7389109246
 40
0.8690494577
 40
1.0
 40
1.0
 40
1.0
 40
1.0
 10
5.150485414
 20
34.6189615673
 30
0.0
 10
4.9805299864
 20
34.6306538245
 30
0.0
 10
4.6353996013
 20
34.6536556553
 30
0.0
 10
4.110619526
 20
34.6858693526
 30
0.0
 10
3.5726096253
 20
34.7155902064
 30
0.0
 10
3.0232830844
 20
34.7421573314
 30
0.0
 10
2.4645239502
 20
34.7649956965
 30
0.0
 10
1.8979323228
 20
34.7836300825
 30
0.0
 10
1.3255989976
 20
34.7976647466
 30
0.0
 10
0.9422695048
 20
34.8037520834
 30
0.0
 10
0.75
 20
34.8059595987
 30
0.0
 11
5.150485414
 21
34.6189615673
 31
0.0
 11
4.6405402588
 21
34.6528724066
 31
0.0
 11
4.1149134679
 21
34.6850739916
 31
0.0
 11
3.5761203899
 21
34.7147843402
 31
0.0
 11
3.0265053997
 21
34.7413212192
 31
0.0
 11
2.4669464084
 21
34.7641566559
 31
0.0
 11
1.8998717878
 21
34.7827794224
 31
0.0
 11
1.32677401
 21
34.7968129248
 31
0.0
 11
0.75
 21
34.8059595987
 31
0.0
  0
SPLINE
  5
2F8
100
AcDbEntity
  8
ASSI
100
AcDbSpline
 62
7
  6
CONTINUOUS
 70
0
 71
3
 72
15
 73
11
 74
9
 42
0.0000001
 43
0.0000001
 44
0.0000000001
 12
-4.4047814078
 22
-0.0505728789
 32
0.0
 13
-4.3946842131
 23
-0.3023367886
 33
0.0
 40
0.0
 40
0.0
 40
0.0
 40
0.0
 40
0.1309217404
 40
0.2610573923
 40
0.3898720833
 40
0.5170252255
 40
0.6419590445
 40
0.7644661423
 40
0.8840075037
 40
1.0
 40
1.0
 40
1.0
 40
1.0
 10
-0.75
 20
34.8059595987
 30
0.0
 10
-0.9422272161
 20
34.803752569
 30
0.0
 10
-1.325510195
 20
34.7976663423
 30
0.0
 10
-1.8978162431
 20
34.7836334819
 30
0.0
 10
-2.4644541757
 20
34.7649984754
 30
0.0
 10
-3.0232928462
 20
34.7421571213
 30
0.0
 10
-3.5726933115
 20
34.7155860105
 30
0.0
 10
-4.110737831
 20
34.6858624575
 30
0.0
 10
-4.6354848561
 20
34.6536500606
 30
0.0
 10
-4.9805686165
 20
34.6306511669
 30
0.0
 10
-5.150485414
 20
34.6189615673
 30
0.0
 11
-0.75
 21
34.8059595987
 31
0.0
 11
-1.3266471603
 21
34.7968154888
 31
0.0
 11
-1.8997322776
 21
34.7827834299
 31
0.0
 11
-2.4668645247
 21
34.7641596779
 31
0.0
 11
-3.026517409
 21
34.741320683
 31
0.0
 11
-3.5762194588
 21
34.7147792049
 31
0.0
 11
-4.1150533776
 21
34.6850658277
 31
0.0
 11
-4.640656186
 21
34.6528649809
 31
0.0
 11
-5.150485414
 21
34.6189615673
 31
0.0
  0
SPLINE
  5
2F9
100
AcDbEntity
  8
ASSI
100
AcDbSpline
 62
7
  6
CONTINUOUS
 70
0
 71
3
 72
25
 73
21
 74
19
 42
0.0000001
 43
0.0000001
 44
0.0000000001
 12
-10.0042520548
 22
-0.282897909
 32
0.0
 13
-9.9503498185
 23
-1.0750018097
 33
0.0
 40
0.0
 40
0.0
 40
0.0
 40
0.0
 40
0.066895837
 40
0.1333071577
 40
0.199008221
 40
0.2638085529
 40
0.3275355818
 40
0.3902604166
 40
0.4519569219
 40
0.5125793366
 40
0.5718767101
 40
0.6292661451
 40
0.6845127235
 40
0.7374140135
 40
0.7878289022
 40
0.8357745096
 40
0.8810976687
 40
0.9236410059
 40
0.9632816001
 40
1.0
 40
1.0
 40
1.0
 40
1.0
 10
-1.5
 20
34.0863253334
 30
0.0
 10
-1.7230809383
 20
34.0800171026
 30
0.0
 10
-2.1675532212
 20
34.0646600737
 30
0.0
 10
-2.8307474885
 20
34.0335462417
 30
0.0
 10
-3.4865408049
 20
33.9948689007
 30
0.0
 10
-4.1329061789
 20
33.949207411
 30
0.0
 10
-4.768827161
 20
33.8971791256
 30
0.0
 10
-5.3938534063
 20
33.8394174696
 30
0.0
 10
-6.0079751999
 20
33.7765555269
 30
0.0
 10
-6.6101352631
 20
33.7093866072
 30
0.0
 10
-7.1974578828
 20
33.6390090314
 30
0.0
 10
-7.7664752199
 20
33.5667414396
 30
0.0
 10
-8.3139125666
 20
33.4940029067
 30
0.0
 10
-8.8379805396
 20
33.4220846691
 30
0.0
 10
-9.3377380763
 20
33.3521852988
 30
0.0
 10
-9.8124144397
 20
33.2854782642
 30
0.0
 10
-10.2611859528
 20
33.2231364343
 30
0.0
 10
-10.6827584301
 20
33.1663735652
 30
0.0
 10
-11.0762573994
 20
33.1162980336
 30
0.0
 10
-11.3293046763
 20
33.0869008112
 30
0.0
 10
-11.451091651
 20
33.0737433624
 30
0.0
 11
-1.5
 21
34.0863253334
 31
0.0
 11
-2.1691116309
 21
34.0632230701
 31
0.0
 11
-2.8330436056
 21
34.0320973509
 31
0.0
 11
-3.4894574305
 21
33.9934127833
 31
0.0
 11
-4.1363857521
 21
33.9477479517
 31
0.0
 11
-4.7720614492
 21
33.8957836996
 31
0.0
 11
-5.3971685139
 21
33.8380673219
 31
0.0
 11
-6.011439355
 21
33.7752531551
 31
0.0
 11
-6.6144322329
 21
33.7080666488
 31
0.0
 11
-7.2036904514
 21
33.6375465125
 31
0.0
 11
-7.7734942728
 21
33.5652826752
 31
0.0
 11
-8.3216143478
 21
33.4925728929
 31
0.0
 11
-8.8461661646
 21
33.4207254592
 31
0.0
 11
-9.3458885545
 21
33.3509885468
 31
0.0
 11
-9.8210961222
 21
33.28438974
 31
0.0
 11
-10.2704161526
 21
33.2221843404
 31
0.0
 11
-10.6924253385
 21
33.1656104581
 31
0.0
 11
-11.086020505
 21
33.1158115146
 31
0.0
 11
-11.451091651
 21
33.0737433624
 31
0.0
  0
SPLINE
  5
2FA
100
AcDbEntity
  8
ASSI
100
AcDbSpline
 62
7
  6
CONTINUOUS
 70
0
 71
3
 72
25
 73
21
 74
19
 42
0.0000001
 43
0.0000001
 44
0.0000000001
 12
-1.0750018097
 22
-9.9503498184
 32
0.0
 13
-0.282897909
 23
-10.0042520546
 33
0.0
 40
0.0
 40
0.0
 40
0.0
 40
0.0
 40
0.0367181135
 40
0.0763580301
 40
0.1189005726
 40
0.1642233034
 40
0.2121687079
 40
0.2625822457
 40
0.3154806224
 40
0.3707243866
 40
0.4281115792
 40
0.4874104967
 40
0.5480413193
 40
0.6097441816
 40
0.6724726271
 40
0.736200105
 40
0.8009981357
 40
0.8666964006
 40
0.9331052882
 40
1.0
 40
1.0
 40
1.0
 40
1.0
 10
-33.0737433624
 20
11.451091651
 30
0.0
 10
-33.0869007085
 20
11.3293056265
 30
0.0
 10
-33.1162975442
 20
11.0762615425
 30
0.0
 10
-33.1663722726
 20
10.6827683855
 30
0.0
 10
-33.2231342136
 20
10.2612021807
 30
0.0
 10
-33.2854753318
 20
9.8124353713
 30
0.0
 10
-33.3521814365
 20
9.3377655546
 30
0.0
 10
-33.4220787872
 20
8.8380227834
 30
0.0
 10
-33.4939939828
 20
8.3139782288
 30
0.0
 10
-33.5667294099
 20
7.7665672919
 30
0.0
 10
-33.6389961977
 20
7.1975616656
 30
0.0
 10
-33.7093776682
 20
6.610213609
 30
0.0
 10
-33.7765531484
 20
6.0079995296
 30
0.0
 10
-33.8394212091
 20
5.3938167366
 30
0.0
 10
-33.8971854164
 20
4.7687558257
 30
0.0
 10
-33.9492132697
 20
4.1328289216
 30
0.0
 10
-33.9948728117
 20
3.4864789644
 30
0.0
 10
-34.0335480852
 20
2.8307107014
 30
0.0
 10
-34.0646606366
 20
2.1675376056
 30
0.0
 10
-34.0800172087
 20
1.7230771858
 30
0.0
 10
-34.0863253334
 20
1.5
 30
0.0
 11
-33.0737433624
 21
11.451091651
 31
0.0
 11
-33.1158111688
 21
11.0860233514
 31
0.0
 11
-33.1656092067
 21
10.6924349048
 31
0.0
 11
-33.2221819563
 21
10.270433592
 31
0.0
 11
-33.2843867117
 21
9.8211177996
 31
0.0
 11
-33.3509852257
 21
9.3459122414
 31
0.0
 11
-33.4207203201
 21
8.8462032489
 31
0.0
 11
-33.4925639768
 21
8.3216803449
 31
0.0
 11
-33.5652704596
 21
7.7735882437
 31
0.0
 11
-33.63753215
 21
7.2038067721
 31
0.0
 11
-33.7080549511
 21
6.6145333095
 31
0.0
 11
-33.7752512824
 21
6.0114568577
 31
0.0
 11
-33.8380717844
 21
5.3971227099
 31
0.0
 11
-33.895790833
 21
4.7719796014
 31
0.0
 11
-33.9477545418
 21
4.1362993504
 31
0.0
 11
-33.9934169004
 21
3.4893939431
 31
0.0
 11
-34.032099235
 21
2.8330080415
 31
0.0
 11
-34.0632235287
 21
2.1691003782
 31
0.0
 11
-34.0863253334
 21
1.5
 31
0.0
  0
SPLINE
  5
2FB
100
AcDbEntity
  8
ASSI
100
AcDbSpline
 62
7
  6
CONTINUOUS
 70
0
 71
3
 72
15
 73
11
 74
9
 42
0.0000001
 43
0.0000001
 44
0.0000000001
 12
-0.3023367886
 22
-4.3946842133
 32
0.0
 13
-0.0505728789
 23
-4.404781408
 33
0.0
 40
0.0
 40
0.0
 40
0.0
 40
0.0
 40
0.1160188669
 40
0.2355656727
 40
0.3580634753
 40
0.4829775035
 40
0.6101093158
 40
0.7389109246
 40
0.8690494577
 40
1.0
 40
1.0
 40
1.0
 40
1.0
 10
-34.6189615673
 20
5.150485414
 30
0.0
 10
-34.6306538245
 20
4.9805299864
 30
0.0
 10
-34.6536556553
 20
4.6353996013
 30
0.0
 10
-34.6858693526
 20
4.110619526
 30
0.0
 10
-34.7155902064
 20
3.5726096253
 30
0.0
 10
-34.7421573314
 20
3.0232830844
 30
0.0
 10
-34.7649956965
 20
2.4645239502
 30
0.0
 10
-34.7836300825
 20
1.8979323228
 30
0.0
 10
-34.7976647466
 20
1.3255989976
 30
0.0
 10
-34.8037520834
 20
0.9422695048
 30
0.0
 10
-34.8059595987
 20
0.75
 30
0.0
 11
-34.6189615673
 21
5.150485414
 31
0.0
 11
-34.6528724066
 21
4.6405402588
 31
0.0
 11
-34.6850739916
 21
4.1149134679
 31
0.0
 11
-34.7147843402
 21
3.5761203899
 31
0.0
 11
-34.7413212192
 21
3.0265053997
 31
0.0
 11
-34.7641566559
 21
2.4669464084
 31
0.0
 11
-34.7827794224
 21
1.8998717878
 31
0.0
 11
-34.7968129248
 21
1.32677401
 31
0.0
 11
-34.8059595987
 21
0.75
 31
0.0
  0
SPLINE
  5
2FC
100
AcDbEntity
  8
ASSI
100
AcDbSpline
 62
7
  6
CONTINUOUS
 70
0
 71
3
 72
23
 73
19
 74
17
 42
0.0000001
 43
0.0000001
 44
0.0000000001
 12
-8.5057094185
 22
0.2701800172
 32
0.0
 13
-8.4713718647
 23
0.8099065889
 33
0.0
 40
0.0
 40
0.0
 40
0.0
 40
0.0
 40
0.0744023792
 40
0.1483559527
 40
0.2215373663
 40
0.2937399174
 40
0.364632279
 40
0.4340761759
 40
0.5017927049
 40
0.5674683015
 40
0.6308663025
 40
0.6918943165
 40
0.7504016219
 40
0.8061855224
 40
0.8591688339
 40
0.9091914239
 40
0.9561698611
 40
1.0
 40
1.0
 40
1.0
 40
1.0
 10
-1.7796707866
 20
-34.2197561625
 30
0.0
 10
-1.9906191258
 20
-34.2130554838
 30
0.0
 10
-2.411172477
 20
-34.1973490339
 30
0.0
 10
-3.0388801269
 20
-34.1670364458
 30
0.0
 10
-3.6600026605
 20
-34.1304568686
 30
0.0
 10
-4.2720592592
 20
-34.0881988549
 30
0.0
 10
-4.8731145702
 20
-34.0409415624
 30
0.0
 10
-5.4610506808
 20
-33.98948726
 30
0.0
 10
-6.0338231439
 20
-33.9347332539
 30
0.0
 10
-6.5891336866
 20
-33.8776978475
 30
0.0
 10
-7.1252329954
 20
-33.8194221249
 30
0.0
 10
-7.6408494739
 20
-33.7609427084
 30
0.0
 10
-8.1348216761
 20
-33.7033126212
 30
0.0
 10
-8.6060412701
 20
-33.6475967835
 30
0.0
 10
-9.0533777893
 20
-33.5948653983
 30
0.0
 10
-9.4760349255
 20
-33.5461386624
 30
0.0
 10
-9.8731291383
 20
-33.502422937
 30
0.0
 10
-10.1294031063
 20
-33.4763288843
 30
0.0
 10
-10.2531702414
 20
-33.4644961116
 30
0.0
 11
-1.7796707866
 21
-34.2197561625
 31
0.0
 11
-2.4123946479
 21
-34.1961463493
 31
0.0
 11
-3.0410083101
 21
-34.1658177243
 31
0.0
 11
-3.6627069682
 21
-34.1292394911
 31
0.0
 11
-4.2756943482
 21
-34.0869607417
 31
0.0
 11
-4.8771362962
 21
-34.0397253807
 31
0.0
 11
-5.4658589686
 21
-33.9882644565
 31
0.0
 11
-6.0395183483
 21
-33.9334986998
 31
0.0
 11
-6.5955014065
 21
-33.876478939
 31
0.0
 11
-7.1318692352
 21
-33.8182716063
 31
0.0
 11
-7.6479218031
 21
-33.7598552645
 31
0.0
 11
-8.1424795976
 21
-33.7022866595
 31
0.0
 11
-8.6139340271
 21
-33.6466924956
 31
0.0
 11
-9.0617417022
 21
-33.5940785278
 31
0.0
 11
-9.4846556486
 21
-33.5455228634
 31
0.0
 11
-9.882066665
 21
-33.5020061071
 31
0.0
 11
-10.2531702414
 21
-33.4644961116
 31
0.0
  0
SPLINE
  5
2FD
100
AcDbEntity
  8
ASSI
100
AcDbSpline
 62
7
  6
CONTINUOUS
 70
0
 71
3
 72
23
 73
19
 74
17
 42
0.0000001
 43
0.0000001
 44
0.0000000001
 12
-8.4713718673
 22
-0.8099065892
 32
0.0
 13
-8.505709421
 23
-0.2701800173
 33
0.0
 40
0.0
 40
0.0
 40
0.0
 40
0.0
 40
0.0438524563
 40
0.0908523093
 40
0.1408932615
 40
0.1938920117
 40
0.2496868458
 40
0.3082000852
 40
0.369229032
 40
0.432620931
 40
0.4982829929
 40
0.5659804383
 40
0.6354035062
 40
0.7062762683
 40
0.7784638093
 40
0.8516367517
 40
0.9255894301
 40
1.0
 40
1.0
 40
1.0
 40
1.0
 10
10.2531702414
 20
-33.4644961116
 30
0.0
 10
10.1293400866
 20
-33.4763349093
 30
0.0
 10
9.872942773
 20
-33.5024423136
 30
0.0
 10
9.4756736905
 20
-33.546179287
 30
0.0
 10
9.0528611589
 20
-33.5949257381
 30
0.0
 10
8.6053987196
 20
-33.647672859
 30
0.0
 10
8.1340880669
 20
-33.703399032
 30
0.0
 10
7.6400654925
 20
-33.761033109
 30
0.0
 10
7.1244464955
 20
-33.8195095833
 30
0.0
 10
6.588399478
 20
-33.8777753993
 30
0.0
 10
6.0331977282
 20
-33.9347950107
 30
0.0
 10
5.4605757852
 20
-33.9895303283
 30
0.0
 10
4.8728075614
 20
-34.0409665801
 30
0.0
 10
4.2719088728
 20
-34.0882094973
 30
0.0
 10
3.6599741444
 20
-34.1304583555
 30
0.0
 10
3.0389206582
 20
-34.1670341305
 30
0.0
 10
2.4112163738
 20
-34.1973472652
 30
0.0
 10
1.9906423485
 20
-34.2130547461
 30
0.0
 10
1.7796707866
 20
-34.2197561625
 30
0.0
 11
10.2531702414
 21
-33.4644961116
 31
0.0
 11
9.8818777959
 21
-33.502026091
 31
0.0
 11
9.4842858139
 21
-33.5455645092
 31
0.0
 11
9.06121682
 21
-33.5941397004
 31
0.0
 11
8.6132787596
 21
-33.6467698517
 31
0.0
 11
8.141731876
 21
-33.7023744935
 31
0.0
 11
7.6471237082
 21
-33.7599471032
 31
0.0
 11
7.131062896
 21
-33.8183611907
 31
0.0
 11
6.5947462454
 21
-33.8765588001
 31
0.0
 11
6.0388773027
 21
-33.9335622921
 31
0.0
 11
5.4653791867
 21
-33.9883084053
 31
0.0
 11
4.8768328088
 21
-34.0397506042
 31
0.0
 11
4.2755569815
 21
-34.0869708896
 31
0.0
 11
3.6626969847
 21
-34.12924013
 31
0.0
 11
3.0410703078
 21
-34.1658144001
 31
0.0
 11
2.4124642883
 21
-34.1961433663
 31
0.0
 11
1.7796707866
 21
-34.2197561625
 31
0.0
  0
SPLINE
  5
2FE
100
AcDbEntity
  8
ASSI
100
AcDbSpline
 62
7
  6
CONTINUOUS
 70
0
 71
3
 72
23
 73
19
 74
17
 42
0.0000001
 43
0.0000001
 44
0.0000000001
 12
-0.8099065892
 22
8.4713718674
 32
0.0
 13
-0.2701800173
 23
8.5057094211
 33
0.0
 40
0.0
 40
0.0
 40
0.0
 40
0.0
 40
0.0438534426
 40
0.0908538689
 40
0.1408961815
 40
0.1938958326
 40
0.2496918096
 40
0.3082061271
 40
0.3692354284
 40
0.4326273779
 40
0.4982861014
 40
0.5659813684
 40
0.6354031667
 40
0.7062762062
 40
0.7784638933
 40
0.8516365421
 40
0.9255891399
 40
1.0
 40
1.0
 40
1.0
 40
1.0
 10
-33.4644961116
 20
-10.2531702414
 30
0.0
 10
-33.4763351756
 20
-10.1293373015
 30
0.0
 10
-33.5024430626
 20
-9.8729355898
 30
0.0
 10
-33.5461810167
 20
-9.4756582821
 30
0.0
 10
-33.5949284675
 20
-9.0528377714
 30
0.0
 10
-33.647676762
 20
-8.6053657471
 30
0.0
 10
-33.7034039546
 20
-8.1340462974
 30
0.0
 10
-33.7610387684
 20
-7.6400164535
 30
0.0
 10
-33.8195155087
 20
-7.1243932525
 30
0.0
 10
-33.8777801361
 20
-6.5883544758
 30
0.0
 10
-33.9347978933
 20
-6.0331681239
 30
0.0
 10
-33.9895312466
 20
-5.4605653321
 30
0.0
 10
-34.0409666915
 20
-4.8728060663
 30
0.0
 10
-34.0882094367
 20
-4.2719097716
 30
0.0
 10
-34.1304583195
 20
-3.6599746754
 30
0.0
 10
-34.1670340617
 20
-3.0389218358
 30
0.0
 10
-34.1973472078
 20
-2.4112177905
 30
0.0
 10
-34.21305472
 20
-1.9906431714
 30
0.0
 10
-34.2197561625
 20
-1.7796707866
 30
0.0
 11
-33.4644961116
 21
-10.2531702414
 31
0.0
 11
-33.5020269741
 21
-9.8818694491
 31
0.0
 11
-33.5455659944
 21
-9.4842726247
 31
0.0
 11
-33.5941425771
 21
-9.0611921374
 31
0.0
 11
-33.6467736639
 21
-8.6132464677
 31
0.0
 11
-33.7023794217
 21
-8.1416899221
 31
0.0
 11
-33.759952981
 21
-7.6470726283
 31
0.0
 11
-33.8183672011
 21
-7.131008795
 31
0.0
 11
-33.8765645697
 21
-6.5946916859
 31
0.0
 11
-33.9335649034
 21
-6.0388509782
 31
0.0
 11
-33.9883091273
 21
-5.4653713048
 31
0.0
 11
-34.0397503649
 21
-4.876835688
 31
0.0
 11
-34.0869708507
 21
-4.2755575081
 31
0.0
 11
-34.1292401757
 21
-3.6626962716
 31
0.0
 11
-34.1658143046
 21
-3.0410720885
 31
0.0
 11
-34.1961432606
 21
-2.4124667561
 31
0.0
 11
-34.2197561625
 21
-1.7796707866
 31
0.0
  0
SPLINE
  5
2FF
100
AcDbEntity
  8
ASSI
100
AcDbSpline
 62
7
  6
CONTINUOUS
 70
0
 71
3
 72
23
 73
19
 74
17
 42
0.0000001
 43
0.0000001
 44
0.0000000001
 12
-0.2701800172
 22
-8.5057094184
 32
0.0
 13
-0.8099065889
 23
-8.4713718647
 33
0.0
 40
0.0
 40
0.0
 40
0.0
 40
0.0
 40
0.0744030324
 40
0.1483567387
 40
0.2215381694
 40
0.2937410019
 40
0.3646341461
 40
0.4340782863
 40
0.501793767
 40
0.5674665855
 40
0.6308642756
 40
0.6918925253
 40
0.750400226
 40
0.8061845131
 40
0.8591681253
 40
0.9091909634
 40
0.9561696279
 40
1.0
 40
1.0
 40
1.0
 40
1.0
 10
34.2197561625
 20
-1.7796707866
 30
0.0
 10
34.2130554249
 20
-1.9906209777
 30
0.0
 10
34.1973488712
 20
-2.4111765563
 30
0.0
 10
34.1670361074
 20
-3.0388864787
 30
0.0
 10
34.1304563883
 20
-3.6600102295
 30
0.0
 10
34.0881980844
 20
-4.2720698825
 30
0.0
 10
34.0409403852
 20
-4.8731288815
 30
0.0
 10
33.9894859457
 20
-5.4610649164
 30
0.0
 10
33.9347328069
 20
-6.0338272518
 30
0.0
 10
33.8776986231
 20
-6.5891261215
 30
0.0
 10
33.8194238603
 20
-7.1252173933
 30
0.0
 10
33.760944405
 20
-7.640834781
 30
0.0
 10
33.7033140148
 20
-8.1348098543
 30
0.0
 10
33.6475978218
 20
-8.6060324983
 30
0.0
 10
33.5948661145
 20
-9.0533716514
 30
0.0
 10
33.5461391066
 20
-9.4760309721
 30
0.0
 10
33.5024231405
 20
-9.8731271808
 30
0.0
 10
33.4763289473
 20
-10.1294024478
 30
0.0
 10
33.4644961116
 20
-10.2531702414
 30
0.0
 11
34.2197561625
 21
-1.7796707866
 31
0.0
 11
34.1961461114
 21
-2.4124002014
 31
0.0
 11
34.1658173662
 21
-3.0410149891
 31
0.0
 11
34.1292390545
 21
-3.6627137891
 31
0.0
 11
34.0869600618
 21
-4.2757035522
 31
0.0
 11
34.0397240646
 21
-4.8771521308
 31
0.0
 11
33.9882628182
 21
-5.4658768536
 31
0.0
 11
33.9334978076
 21
-6.0395273426
 31
0.0
 11
33.8764804748
 21
-6.5954868848
 31
0.0
 11
33.8182735111
 21
-7.1318520912
 31
0.0
 11
33.7598570071
 21
-7.6479066602
 31
0.0
 11
33.7022880454
 21
-8.1424677994
 31
0.0
 11
33.6466935025
 21
-8.6139254974
 31
0.0
 11
33.594079226
 21
-9.061735712
 31
0.0
 11
33.545523302
 21
-9.4846517542
 31
0.0
 11
33.5020063159
 21
-9.8820646913
 31
0.0
 11
33.4644961116
 21
-10.2531702414
 31
0.0
  0
SPLINE
  5
300
100
AcDbEntity
  8
ASSI
100
AcDbSpline
 62
7
  6
CONTINUOUS
 70
0
 71
3
 72
23
 73
19
 74
17
 42
0.0000001
 43
0.0000001
 44
0.0000000001
 12
0.8099065892
 22
-8.4713718673
 32
0.0
 13
0.2701800173
 23
-8.505709421
 33
0.0
 40
0.0
 40
0.0
 40
0.0
 40
0.0
 40
0.043853355
 40
0.0908540648
 40
0.1408958299
 40
0.1938953466
 40
0.2496909074
 40
0.3082047391
 40
0.3692339669
 40
0.4326253955
 40
0.4982842978
 40
0.5659800782
 40
0.6354027005
 40
0.7062756496
 40
0.7784630493
 40
0.8516357767
 40
0.9255885667
 40
1.0
 40
1.0
 40
1.0
 40
1.0
 10
33.4644961116
 20
10.2531702414
 30
0.0
 10
33.4763351519
 20
10.1293375489
 30
0.0
 10
33.5024430923
 20
9.8729352839
 30
0.0
 10
33.5461809422
 20
9.4756589682
 30
0.0
 10
33.5949282578
 20
9.0528395795
 30
0.0
 10
33.6476761823
 20
8.6053706482
 30
0.0
 10
33.7034030318
 20
8.1340541185
 30
0.0
 10
33.761037547
 20
7.6400270256
 30
0.0
 10
33.8195139897
 20
7.1244068747
 30
0.0
 10
33.8777785661
 20
6.5883692784
 30
0.0
 10
33.9347964777
 20
6.033182454
 30
0.0
 10
33.98953034
 20
5.4605753903
 30
0.0
 10
34.0409661572
 20
4.8728126059
 30
0.0
 10
34.0882090413
 20
4.2719150527
 30
0.0
 10
34.1304579239
 20
3.6599808074
 30
0.0
 10
34.1670337341
 20
3.0389280188
 30
0.0
 10
34.197347057
 20
2.4112215849
 30
0.0
 10
34.2130546684
 20
1.9906447964
 30
0.0
 10
34.2197561625
 20
1.7796707866
 30
0.0
 11
33.4644961116
 21
10.2531702414
 31
0.0
 11
33.5020268957
 21
9.8818701905
 31
0.0
 11
33.545566181
 21
9.4842709678
 31
0.0
 11
33.5941422307
 21
9.0611951096
 31
0.0
 11
33.646773179
 21
8.6132505749
 31
0.0
 11
33.7023785259
 21
8.1416975476
 31
0.0
 11
33.7599516307
 21
7.6470843631
 31
0.0
 11
33.8183658279
 21
7.131021156
 31
0.0
 11
33.8765627955
 21
6.5947084629
 31
0.0
 11
33.9335633882
 21
6.038866252
 31
0.0
 11
33.9883081258
 21
5.4653822389
 31
0.0
 11
34.0397500363
 21
4.876839642
 31
0.0
 11
34.0869705017
 21
4.2755622319
 31
0.0
 11
34.1292397169
 21
3.66270344
 31
0.0
 11
34.1658139558
 21
3.0410785933
 31
0.0
 11
34.1961430518
 21
2.4124716291
 31
0.0
 11
34.2197561625
 21
1.7796707866
 31
0.0
  0
SPLINE
  5
301
100
AcDbEntity
  8
ASSI
100
AcDbSpline
 62
7
  6
CONTINUOUS
 70
0
 71
3
 72
23
 73
19
 74
17
 42
0.0000001
 43
0.0000001
 44
0.0000000001
 12
8.5057094184
 22
-0.2701800172
 32
0.0
 13
8.4713718646
 23
-0.8099065889
 33
0.0
 40
0.0
 40
0.0
 40
0.0
 40
0.0
 40
0.0744030997
 40
0.148356917
 40
0.2215383675
 40
0.2937405072
 40
0.3646325857
 40
0.4340770638
 40
0.5017938601
 40
0.5674694311
 40
0.6308668261
 40
0.6918947427
 40
0.7504016021
 40
0.8061851883
 40
0.8591685188
 40
0.909190759
 40
0.9561697055
 40
1.0
 40
1.0
 40
1.0
 40
1.0
 10
1.7796707866
 20
34.2197561625
 30
0.0
 10
1.9906211686
 20
34.2130554189
 30
0.0
 10
2.4111772527
 20
34.1973488442
 30
0.0
 10
3.0388877358
 20
34.1670360419
 30
0.0
 10
3.660009894
 20
34.1304564
 30
0.0
 10
4.2720646271
 20
34.0881984489
 30
0.0
 10
4.8731196149
 20
34.0409411469
 30
0.0
 10
5.4610573198
 20
33.9894866611
 30
0.0
 10
6.0338321005
 20
33.9347323671
 30
0.0
 10
6.5891416085
 20
33.8776970033
 30
0.0
 10
7.1252388574
 20
33.8194214684
 30
0.0
 10
7.6408520943
 20
33.7609424036
 30
0.0
 10
8.1348218797
 20
33.7033125956
 30
0.0
 10
8.6060393857
 20
33.6475970071
 30
0.0
 10
9.0533740872
 20
33.5948658322
 30
0.0
 10
9.4760317246
 20
33.5461390251
 30
0.0
 10
9.873126823
 20
33.5024231757
 30
0.0
 10
10.1294026668
 20
33.4763289263
 30
0.0
 10
10.2531702414
 20
33.4644961116
 30
0.0
 11
1.7796707866
 21
34.2197561625
 31
0.0
 11
2.412400774
 21
34.1961460869
 31
0.0
 11
3.0410165044
 21
34.1658172849
 31
0.0
 11
3.6627154713
 21
34.1292389469
 31
0.0
 11
4.2756993537
 21
34.0869603719
 31
0.0
 11
4.8771388971
 21
34.0397251645
 31
0.0
 11
5.4658664934
 21
33.9882637672
 31
0.0
 11
6.0395281314
 21
33.9334977293
 31
0.0
 11
6.5955109667
 21
33.876477928
 31
0.0
 11
7.1318736635
 21
33.8182711143
 31
0.0
 11
7.6479254062
 21
33.7598548499
 31
0.0
 11
8.1424794304
 21
33.7022866791
 31
0.0
 11
8.6139312037
 21
33.6466928289
 31
0.0
 11
9.0617390388
 21
33.5940788382
 31
0.0
 11
9.4846500262
 21
33.5455234965
 31
0.0
 11
9.8820653478
 21
33.5020062465
 31
0.0
 11
10.2531702414
 21
33.4644961116
 31
0.0
  0
SPLINE
  5
302
100
AcDbEntity
  8
ASSI
100
AcDbSpline
 62
7
  6
CONTINUOUS
 70
0
 71
3
 72
23
 73
19
 74
17
 42
0.0000001
 43
0.0000001
 44
0.0000000001
 12
8.4713718674
 22
0.8099065892
 32
0.0
 13
8.5057094211
 23
0.2701800173
 33
0.0
 40
0.0
 40
0.0
 40
0.0
 40
0.0
 40
0.0438525467
 40
0.0908521192
 40
0.1408936221
 40
0.1938925099
 40
0.2496877636
 40
0.3082014941
 40
0.3692305204
 40
0.4326229179
 40
0.4982848046
 40
0.5659817286
 40
0.6354039672
 40
0.7062768226
 40
0.778464657
 40
0.8516375226
 40
0.9255900067
 40
1.0
 40
1.0
 40
1.0
 40
1.0
 10
-10.2531702414
 20
33.4644961116
 30
0.0
 10
-10.1293398313
 20
33.4763349337
 30
0.0
 10
-9.8729430544
 20
33.5024422865
 30
0.0
 10
-9.4756729546
 20
33.546179367
 30
0.0
 10
-9.0528592746
 20
33.5949259567
 30
0.0
 10
-8.6053937149
 20
33.6476734511
 30
0.0
 10
-8.1340801089
 20
33.7033999709
 30
0.0
 10
-7.6400547417
 20
33.761034351
 30
0.0
 10
-7.1244327256
 20
33.8195111186
 30
0.0
 10
-6.5883845635
 20
33.877776981
 30
0.0
 10
-6.0331833622
 20
33.9347964298
 30
0.0
 10
-5.4605657186
 20
33.9895312355
 30
0.0
 10
-4.8728010427
 20
34.0409671126
 30
0.0
 10
-4.2719036025
 20
34.088209892
 30
0.0
 10
-3.6599679931
 20
34.1304587525
 30
0.0
 10
-3.0389144398
 20
34.1670344599
 30
0.0
 10
-2.4112125543
 20
34.197347417
 30
0.0
 10
-1.9906407138
 20
34.213054798
 30
0.0
 10
-1.7796707866
 20
34.2197561625
 30
0.0
 11
-10.2531702414
 21
33.4644961116
 31
0.0
 11
-9.8818770307
 21
33.5020261719
 31
0.0
 11
-9.4842874212
 21
33.5455643282
 31
0.0
 11
-9.0612137718
 21
33.5941400557
 31
0.0
 11
-8.6132745494
 21
33.6467703487
 31
0.0
 11
-8.1417241188
 21
33.7023754047
 31
0.0
 11
-7.6471117972
 21
33.7599484738
 31
0.0
 11
-7.1310503067
 21
33.8183625893
 31
0.0
 11
-6.59472943
 21
33.8765605783
 31
0.0
 11
-6.0388619598
 21
33.933563814
 31
0.0
 11
-5.4653682525
 21
33.9883094069
 31
0.0
 11
-4.8768288986
 21
34.0397509292
 31
0.0
 11
-4.2755522769
 21
34.0869712371
 31
0.0
 11
-3.6626897857
 21
34.1292405908
 31
0.0
 11
-3.0410637565
 21
34.1658147513
 31
0.0
 11
-2.4124593863
 21
34.1961435762
 31
0.0
 11
-1.7796707866
 21
34.2197561625
 31
0.0
  0
SPLINE
  5
303
100
AcDbEntity
  8
ASSI
100
AcDbSpline
 62
7
  6
CONTINUOUS
 70
0
 71
3
 72
23
 73
19
 74
17
 42
0.0000001
 43
0.0000001
 44
0.0000000001
 12
0.2701800172
 22
8.5057094183
 32
0.0
 13
0.8099065889
 23
8.4713718646
 33
0.0
 40
0.0
 40
0.0
 40
0.0
 40
0.0
 40
0.0744037506
 40
0.1483577004
 40
0.2215391721
 40
0.2937416009
 40
0.3646344661
 40
0.4340791821
 40
0.5017949207
 40
0.5674677166
 40
0.6308647774
 40
0.6918929352
 40
0.7504001942
 40
0.8061841696
 40
0.8591678031
 40
0.9091902939
 40
0.95616947
 40
1.0
 40
1.0
 40
1.0
 40
1.0
 10
-34.2197561625
 20
1.7796707866
 30
0.0
 10
-34.2130553603
 20
1.990623014
 30
0.0
 10
-34.197348682
 20
2.4111813184
 30
0.0
 10
-34.1670357041
 20
3.0388940782
 30
0.0
 10
-34.1304559185
 20
3.6600174864
 30
0.0
 10
-34.0881976735
 20
4.2720753184
 30
0.0
 10
-34.0409399625
 20
4.8731340121
 30
0.0
 10
-33.9894853415
 20
5.4610716108
 30
0.0
 10
-33.9347319179
 20
6.0338362303
 30
0.0
 10
-33.8776977853
 20
6.5891339817
 30
0.0
 10
-33.8194232152
 20
7.1252231517
 30
0.0
 10
-33.7609441166
 20
7.6408372602
 30
0.0
 10
-33.7033140018
 20
8.1348099514
 30
0.0
 10
-33.6475980549
 20
8.6060305336
 30
0.0
 10
-33.5948665554
 20
9.0533678895
 30
0.0
 10
-33.5461394737
 20
9.4760277318
 30
0.0
 10
-33.5024233812
 20
9.8731248461
 30
0.0
 10
-33.4763289899
 20
10.1294020019
 30
0.0
 10
-33.4644961116
 20
10.2531702414
 30
0.0
 11
-34.2197561625
 21
1.7796707866
 31
0.0
 11
-34.1961458498
 21
2.412406308
 31
0.0
 11
-34.165816928
 21
3.0410231621
 31
0.0
 11
-34.1292385095
 21
3.6627223048
 31
0.0
 11
-34.0869596862
 21
4.2757086363
 31
0.0
 11
-34.039723839
 21
4.8771548446
 31
0.0
 11
-33.9882621228
 21
5.4658844447
 31
0.0
 11
-33.9334968383
 21
6.0395371132
 31
0.0
 11
-33.8764794625
 21
6.5954964567
 31
0.0
 11
-33.8182730395
 21
7.1318563354
 31
0.0
 11
-33.7598566083
 21
7.6479101251
 31
0.0
 11
-33.7022880769
 21
8.1424675311
 31
0.0
 11
-33.6466938453
 21
8.613922594
 31
0.0
 11
-33.5940795434
 21
9.0617329885
 31
0.0
 11
-33.5455239395
 21
9.4846460924
 31
0.0
 11
-33.5020064573
 21
9.8820633551
 31
0.0
 11
-33.4644961116
 21
10.2531702414
 31
0.0
  0
SPLINE
  5
304
100
AcDbEntity
  8
ASSI
100
AcDbSpline
 62
7
  6
CONTINUOUS
 70
0
 71
3
 72
18
 73
14
 74
12
 42
0.0000001
 43
0.0000001
 44
0.0000000001
 12
7.0435431035
 22
1.522698312
 32
0.0
 13
7.2062548942
 23
0.0
 33
0.0
 40
0.0
 40
0.0
 40
0.0
 40
0.0
 40
0.0863008769
 40
0.1742304773
 40
0.2634333664
 40
0.3538490521
 40
0.4452227228
 40
0.5371886106
 40
0.6293992297
 40
0.7217963961
 40
0.8143551435
 40
0.9071290226
 40
1.0
 40
1.0
 40
1.0
 40
1.0
 10
-65.4454254081
 20
-33.0737433624
 30
0.0
 10
-65.2428040928
 20
-33.0299399625
 30
0.0
 10
-64.8329886604
 20
-32.9449285146
 30
0.0
 10
-64.2112314068
 20
-32.8271155206
 30
0.0
 10
-63.5777144411
 20
-32.7188025219
 30
0.0
 10
-62.9341173536
 20
-32.6210070293
 30
0.0
 10
-62.2821883561
 20
-32.5346445345
 30
0.0
 10
-61.6244084923
 20
-32.4605662372
 30
0.0
 10
-60.9628342236
 20
-32.3993756353
 30
0.0
 10
-60.2987381396
 20
-32.3514500369
 30
0.0
 10
-59.6324494795
 20
-32.3170150973
 30
0.0
 10
-58.9644579158
 20
-32.2962621612
 30
0.0
 10
-58.5185093867
 20
-32.2916397849
 30
0.0
 10
-58.2954254081
 20
-32.2916397849
 30
0.0
 11
-65.4454254081
 21
-33.0737433624
 31
0.0
 11
-64.8364750532
 21
-32.947463187
 31
0.0
 11
-64.2139025277
 21
-32.8295350472
 31
0.0
 11
-63.5802714803
 21
-32.7212407773
 31
0.0
 11
-62.9361017963
 21
-32.6233946324
 31
0.0
 11
-62.2833381606
 21
-32.5369551145
 31
0.0
 11
-61.6247683574
 21
-32.4628175683
 31
0.0
 11
-60.9630970463
 21
-32.4016430443
 31
0.0
 11
-60.2989851863
 21
-32.3537362879
 31
0.0
 11
-59.6328715123
 21
-32.3193249014
 31
0.0
 11
-58.9646414248
 21
-32.2985734991
 31
0.0
 11
-58.2954254081
 21
-32.2916397849
 31
0.0
  0
SPLINE
  5
305
100
AcDbEntity
  8
ASSI
100
AcDbSpline
 62
7
  6
CONTINUOUS
 70
0
 71
3
 72
18
 73
14
 74
12
 42
0.0000001
 43
0.0000001
 44
0.0000000001
 12
-7.206254894
 22
0.0
 32
0.0
 13
-7.0435431033
 23
1.522698312
 33
0.0
 40
0.0
 40
0.0
 40
0.0
 40
0.0
 40
0.092873911
 40
0.1856497298
 40
0.2782081208
 40
0.3706034523
 40
0.4628132022
 40
0.5547786196
 40
0.6461520613
 40
0.7365676218
 40
0.8257703623
 40
0.9136996689
 40
1.0
 40
1.0
 40
1.0
 40
1.0
 10
-58.2954254081
 20
32.2916397849
 30
0.0
 10
-58.5185164334
 20
32.2916397849
 30
0.0
 10
-58.96447667
 20
32.2962624286
 30
0.0
 10
-59.6324790629
 20
32.3170162825
 30
0.0
 10
-60.2987670832
 20
32.3514518836
 30
0.0
 10
-60.9628557943
 20
32.3993774774
 30
0.0
 10
-61.6244224388
 20
32.4605677
 30
0.0
 10
-62.2821985328
 20
32.5346457984
 30
0.0
 10
-62.9341255439
 20
32.6210082025
 30
0.0
 10
-63.5777214159
 20
32.7188036544
 30
0.0
 10
-64.211237017
 20
32.8271165416
 30
0.0
 10
-64.8329919216
 20
32.9449291796
 30
0.0
 10
-65.2428053741
 20
33.0299402395
 30
0.0
 10
-65.4454254081
 20
33.0737433624
 30
0.0
 11
-58.2954254081
 21
32.2916397849
 31
0.0
 11
-58.9646625617
 21
32.2985739371
 31
0.0
 11
-59.6329066026
 21
32.3193263535
 31
0.0
 11
-60.2990176755
 21
32.3537382998
 31
0.0
 11
-60.9631163092
 21
32.4016446302
 31
0.0
 11
-61.6247813536
 21
32.4628189012
 31
0.0
 11
-62.2833477627
 21
32.5369562914
 31
0.0
 11
-62.9361097407
 21
32.6233957625
 31
0.0
 11
-63.5802785112
 21
32.7212419129
 31
0.0
 11
-64.2139084827
 21
32.8295361208
 31
0.0
 11
-64.8364789109
 21
32.9474639529
 31
0.0
 11
-65.4454254081
 21
33.0737433624
 31
0.0
  0
SPLINE
  5
306
100
AcDbEntity
  8
ASSI
100
AcDbSpline
 62
7
  6
CONTINUOUS
 70
0
 71
3
 72
25
 73
21
 74
19
 42
0.0000001
 43
0.0000001
 44
0.0000000001
 12
6.1622651178
 22
1.558584973
 32
0.0
 13
6.3418986498
 23
0.4278083871
 33
0.0
 40
0.0
 40
0.0
 40
0.0
 40
0.0
 40
0.0148936842
 40
0.0351914151
 40
0.0608062385
 40
0.0916298908
 40
0.1275381914
 40
0.1685553992
 40
0.2146982531
 40
0.2660074249
 40
0.3223599443
 40
0.3832231061
 40
0.4482916684
 40
0.5172459213
 40
0.5898083341
 40
0.6659347698
 40
0.7453361392
 40
0.8276707824
 40
0.9126060131
 40
1.0
 40
1.0
 40
1.0
 40
1.0
 10
-71.7118332731
 20
-34.0863253334
 30
0.0
 10
-71.6812403297
 20
-34.0785876426
 30
0.0
 10
-71.6089319165
 20
-34.0603921206
 30
0.0
 10
-71.4839025163
 20
-34.0293111114
 30
0.0
 10
-71.3259713856
 20
-33.9906813645
 30
0.0
 10
-71.1356974749
 20
-33.9450782388
 30
0.0
 10
-70.9133959874
 20
-33.8931011078
 30
0.0
 10
-70.6591107165
 20
-33.8353729927
 30
0.0
 10
-70.3725317415
 20
-33.7725339396
 30
0.0
 10
-70.0536424836
 20
-33.7053928714
 30
0.0
 10
-69.7035613215
 20
-33.6350860518
 30
0.0
 10
-69.3241349097
 20
-33.5629330866
 30
0.0
 10
-68.9176396119
 20
-33.4903308617
 30
0.0
 10
-68.4858444415
 20
-33.4185671453
 30
0.0
 10
-68.0299986635
 20
-33.3488292732
 30
0.0
 10
-67.551313117
 20
-33.2822981038
 30
0.0
 10
-67.0511631029
 20
-33.2201656842
 30
0.0
 10
-66.531566002
 20
-33.1636525457
 30
0.0
 10
-65.9942708766
 20
-33.1138664817
 30
0.0
 10
-65.6301733439
 20
-33.0862059892
 30
0.0
 10
-65.4454254081
 20
-33.0737433624
 30
0.0
 11
-71.7118332731
 21
-34.0863253334
 31
0.0
 11
-71.6200264005
 21
-34.0632234165
 31
0.0
 11
-71.4948183407
 21
-34.0320983781
 31
0.0
 11
-71.3366646845
 21
-33.9934149672
 31
0.0
 11
-71.1461354356
 21
-33.9477519651
 31
0.0
 11
-70.9238848701
 21
-33.895788803
 31
0.0
 11
-70.6696355546
 21
-33.8380718774
 31
0.0
 11
-70.3831428152
 21
-33.7752559603
 31
0.0
 11
-70.0640016011
 21
-33.7080675182
 31
0.0
 11
-69.7128180723
 21
-33.6375466099
 31
0.0
 11
-69.3327619683
 21
-33.5652827717
 31
0.0
 11
-68.9256071901
 21
-33.492573137
 31
0.0
 11
-68.493241264
 21
-33.4207262741
 31
0.0
 11
-68.0373145502
 21
-33.3509888238
 31
0.0
 11
-67.5580363851
 21
-33.2843889658
 31
0.0
 11
-67.0571846881
 21
-33.2221834993
 31
0.0
 11
-66.5369067791
 21
-33.165610304
 31
0.0
 11
-65.9993336118
 21
-33.1158118009
 31
0.0
 11
-65.4454254081
 21
-33.0737433624
 31
0.0
  0
SPLINE
  5
307
100
AcDbEntity
  8
RACCORDO
100
AcDbSpline
 62
7
  6
CONTINUOUS
 70
0
 71
3
 72
14
 73
10
 74
8
 42
0.0000001
 43
0.0000001
 44
0.0000000001
 12
0.0
 22
0.3263154053
 32
0.0
 13
-0.2171463177
 23
0.2435759029
 33
0.0
 40
0.0
 40
0.0
 40
0.0
 40
0.0
 40
0.139707691
 40
0.2799650204
 40
0.4209173136
 40
0.5628338146
 40
0.7061499388
 40
0.851536858
 40
1.0
 40
1.0
 40
1.0
 40
1.0
 10
-43.2954254081
 20
-10.4765680954
 30
0.0
 10
-43.2954254081
 20
-10.4613718382
 30
0.0
 10
-43.2967545116
 20
-10.4309026767
 30
0.0
 10
-43.3027758689
 20
-10.3854580975
 30
0.0
 10
-43.3129476501
 20
-10.3405034808
 30
0.0
 10
-43.3274586774
 20
-10.2963984807
 30
0.0
 10
-43.3465951768
 20
-10.2535477441
 30
0.0
 10
-43.3707590656
 20
-10.2124754632
 30
0.0
 10
-43.3903562539
 20
-10.1870796279
 30
0.0
 10
-43.4011023288
 20
-10.1750256133
 30
0.0
 11
-43.2954254081
 21
-10.4765680954
 31
0.0
 11
-43.2974182496
 21
-10.4310229014
 31
0.0
 11
-43.3034468919
 21
-10.3856535621
 31
0.0
 11
-43.313627467
 21
-10.3407994971
 31
0.0
 11
-43.3281447167
 21
-10.2968242427
 31
0.0
 11
-43.3472739596
 21
-10.2541492493
 31
0.0
 11
-43.3714102976
 21
-10.2133058931
 31
0.0
 11
-43.4011023288
 21
-10.1750256133
 31
0.0
  0
SPLINE
  5
308
100
AcDbEntity
  8
RACCORDO
100
AcDbSpline
 62
7
  6
CONTINUOUS
 70
0
 71
3
 72
14
 73
10
 74
8
 42
0.0000001
 43
0.0000001
 44
0.0000000001
 12
0.0
 22
-0.3263154053
 32
0.0
 13
-0.2171463177
 23
-0.2435759029
 33
0.0
 40
0.0
 40
0.0
 40
0.0
 40
0.0
 40
0.139707691
 40
0.2799650204
 40
0.4209173136
 40
0.5628338146
 40
0.7061499388
 40
0.851536858
 40
1.0
 40
1.0
 40
1.0
 40
1.0
 10
-43.2954254081
 20
10.4765680954
 30
0.0
 10
-43.2954254081
 20
10.4613718382
 30
0.0
 10
-43.2967545116
 20
10.4309026767
 30
0.0
 10
-43.3027758689
 20
10.3854580975
 30
0.0
 10
-43.3129476501
 20
10.3405034808
 30
0.0
 10
-43.3274586774
 20
10.2963984807
 30
0.0
 10
-43.3465951768
 20
10.2535477441
 30
0.0
 10
-43.3707590656
 20
10.2124754632
 30
0.0
 10
-43.3903562539
 20
10.1870796279
 30
0.0
 10
-43.4011023288
 20
10.1750256133
 30
0.0
 11
-43.2954254081
 21
10.4765680954
 31
0.0
 11
-43.2974182496
 21
10.4310229014
 31
0.0
 11
-43.3034468919
 21
10.3856535621
 31
0.0
 11
-43.313627467
 21
10.3407994971
 31
0.0
 11
-43.3281447167
 21
10.2968242427
 31
0.0
 11
-43.3472739596
 21
10.2541492493
 31
0.0
 11
-43.3714102976
 21
10.2133058931
 31
0.0
 11
-43.4011023288
 21
10.1750256133
 31
0.0
  0
SPLINE
  5
309
100
AcDbEntity
  8
ASSI
100
AcDbSpline
 62
7
  6
CONTINUOUS
 70
0
 71
3
 72
26
 73
22
 74
20
 42
0.0000001
 43
0.0000001
 44
0.0000000001
 12
8.9510476171
 22
2.3658157839
 32
0.0
 13
9.258419831
 23
0.0
 33
0.0
 40
0.0
 40
0.0
 40
0.0
 40
0.0
 40
0.0337983289
 40
0.0707601399
 40
0.1107571784
 40
0.1535978878
 40
0.1991491921
 40
0.2471693199
 40
0.2974816518
 40
0.3498092516
 40
0.4039680818
 40
0.459687738
 40
0.5167642368
 40
0.5749840748
 40
0.6341285531
 40
0.694061475
 40
0.754561926
 40
0.8155557516
 40
0.8768499501
 40
0.9383860787
 40
1.0
 40
1.0
 40
1.0
 40
1.0
 10
-65.4454254081
 20
-34.6189615673
 30
0.0
 10
-65.3445819245
 20
-34.5923080274
 30
0.0
 10
-65.133243282
 20
-34.5373080243
 30
0.0
 10
-64.8017630158
 20
-34.4538869693
 30
0.0
 10
-64.4424318355
 20
-34.3668431538
 30
0.0
 10
-64.0564494371
 20
-34.2772974977
 30
0.0
 10
-63.6453688999
 20
-34.1864688371
 30
0.0
 10
-63.2107172539
 20
-34.0955664147
 30
0.0
 10
-62.7544803324
 20
-34.0058726898
 30
0.0
 10
-62.2784992351
 20
-33.9185946081
 30
0.0
 10
-61.7849325567
 20
-33.8349356128
 30
0.0
 10
-61.2757525519
 20
-33.7559867789
 30
0.0
 10
-60.7530571243
 20
-33.6827669045
 30
0.0
 10
-60.2188212456
 20
-33.6161758257
 30
0.0
 10
-59.6748451891
 20
-33.5569845809
 30
0.0
 10
-59.1229812302
 20
-33.505863925
 30
0.0
 10
-58.5646633637
 20
-33.4633374226
 30
0.0
 10
-58.0015214313
 20
-33.4298441487
 30
0.0
 10
-57.4347012092
 20
-33.4056942949
 30
0.0
 10
-56.8656408824
 20
-33.3911194195
 30
0.0
 10
-56.4855745918
 20
-33.3878720496
 30
0.0
 10
-56.2954254081
 20
-33.3878720496
 30
0.0
 11
-65.4454254081
 21
-34.6189615673
 31
0.0
 11
-65.1425920947
 21
-34.5401557376
 31
0.0
 11
-64.810730192
 21
-34.4566454485
 31
0.0
 11
-64.4508277388
 21
-34.3694717326
 31
0.0
 11
-64.0644495816
 21
-34.2798444659
 31
0.0
 11
-63.6526461174
 21
-34.1888680211
 31
0.0
 11
-63.217468101
 21
-34.0978690689
 31
0.0
 11
-62.7604014688
 21
-34.008027221
 31
0.0
 11
-62.283872515
 21
-33.9206647746
 31
0.0
 11
-61.7894959094
 21
-33.8368853572
 31
0.0
 11
-61.2797087611
 21
-33.7578595373
 31
0.0
 11
-60.7563778757
 21
-33.6845676374
 31
0.0
 11
-60.2214913906
 21
-33.6179118046
 31
0.0
 11
-59.6771185661
 21
-33.5586925939
 31
0.0
 11
-59.1245986262
 21
-33.5075248429
 31
0.0
 11
-58.5660770097
 21
-33.4649945271
 31
0.0
 11
-58.0023661474
 21
-33.4314768846
 31
0.0
 11
-57.4353927987
 21
-33.4073274246
 31
0.0
 11
-56.8658521495
 21
-33.3927445213
 31
0.0
 11
-56.2954254081
 21
-33.3878720496
 31
0.0
  0
SPLINE
  5
30A
100
AcDbEntity
  8
ASSI
100
AcDbSpline
 62
7
  6
CONTINUOUS
 70
0
 71
3
 72
26
 73
22
 74
20
 42
0.0000001
 43
0.0000001
 44
0.0000000001
 12
-9.258419831
 22
0.0
 32
0.0
 13
-8.9510476171
 23
2.3658157839
 33
0.0
 40
0.0
 40
0.0
 40
0.0
 40
0.0
 40
0.0616139252
 40
0.1231500581
 40
0.1844442607
 40
0.2454380903
 40
0.3059385448
 40
0.3658714701
 40
0.4250159527
 40
0.4832357956
 40
0.540312296
 40
0.5960319497
 40
0.6501907835
 40
0.7025184024
 40
0.7528307405
 40
0.8008508317
 40
0.8464021767
 40
0.8892428813
 40
0.929239849
 40
0.9662016703
 40
1.0
 40
1.0
 40
1.0
 40
1.0
 10
-56.2954254081
 20
33.3878720496
 30
0.0
 10
-56.4855746038
 20
33.3878720496
 30
0.0
 10
-56.8656409195
 20
33.3911194199
 30
0.0
 10
-57.4347012843
 20
33.4056942973
 30
0.0
 10
-58.0015215445
 20
33.4298441543
 30
0.0
 10
-58.5646635127
 20
33.4633374326
 30
0.0
 10
-59.1229814126
 20
33.5058639402
 30
0.0
 10
-59.6748454056
 20
33.5569846025
 30
0.0
 10
-60.2188215002
 20
33.6161758552
 30
0.0
 10
-60.7530574116
 20
33.6827669423
 30
0.0
 10
-61.2757528507
 20
33.755986823
 30
0.0
 10
-61.7849328631
 20
33.8349356625
 30
0.0
 10
-62.2784996021
 20
33.9185946723
 30
0.0
 10
-62.7544807861
 20
34.0058727755
 30
0.0
 10
-63.2107176724
 20
34.0955665002
 30
0.0
 10
-63.6453693489
 20
34.1864689336
 30
0.0
 10
-64.0564498829
 20
34.2772975981
 30
0.0
 10
-64.4424321749
 20
34.3668432354
 30
0.0
 10
-64.8017631586
 20
34.4538870054
 30
0.0
 10
-65.1332432464
 20
34.537308015
 30
0.0
 10
-65.344581922
 20
34.5923080267
 30
0.0
 10
-65.4454254081
 20
34.6189615673
 30
0.0
 11
-56.2954254081
 21
33.3878720496
 31
0.0
 11
-56.8658521858
 21
33.392744522
 31
0.0
 11
-57.4353928737
 21
33.4073274271
 31
0.0
 11
-58.0023662612
 21
33.4314768904
 31
0.0
 11
-58.5660771601
 21
33.4649945373
 31
0.0
 11
-59.1245988088
 21
33.5075248583
 31
0.0
 11
-59.67711878
 21
33.5586926155
 31
0.0
 11
-60.2214916435
 21
33.6179118341
 31
0.0
 11
-60.7563781724
 21
33.6845676767
 31
0.0
 11
-61.2797090731
 21
33.7578595834
 31
0.0
 11
-61.789496197
 21
33.8368854038
 31
0.0
 11
-62.2838728344
 21
33.920664831
 31
0.0
 11
-62.7604019617
 21
34.0080273147
 31
0.0
 11
-63.2174686487
 21
34.0978691801
 31
0.0
 11
-63.6526463332
 21
34.1888680675
 31
0.0
 11
-64.0644501648
 21
34.2798445981
 31
0.0
 11
-64.4508282762
 21
34.3694718601
 31
0.0
 11
-64.8107300921
 21
34.4566454238
 31
0.0
 11
-65.1425920872
 21
34.5401557357
 31
0.0
 11
-65.4454254081
 21
34.6189615673
 31
0.0
  0
SPLINE
  5
30B
100
AcDbEntity
  8
ASSI
100
AcDbSpline
 62
7
  6
CONTINUOUS
 70
0
 71
3
 72
25
 73
21
 74
19
 42
0.0000001
 43
0.0000001
 44
0.0000000001
 12
-6.3418986496
 22
0.427808387
 32
0.0
 13
-6.1622651176
 23
1.558584973
 33
0.0
 40
0.0
 40
0.0
 40
0.0
 40
0.0
 40
0.0873945858
 40
0.1723305554
 40
0.2546659234
 40
0.3340678662
 40
0.4101946109
 40
0.4827569901
 40
0.5517108273
 40
0.6167785864
 40
0.6776405895
 40
0.7339918256
 40
0.7853004685
 40
0.8314431783
 40
0.8724605156
 40
0.9083691153
 40
0.9391931147
 40
0.9648082465
 40
0.9851061988
 40
1.0
 40
1.0
 40
1.0
 40
1.0
 10
-65.4454254081
 20
33.0737433624
 30
0.0
 10
-65.63017461
 20
33.0862060746
 30
0.0
 10
-65.9942749678
 20
33.113866803
 30
0.0
 10
-66.5315744362
 20
33.1636533701
 30
0.0
 10
-67.0511758104
 20
33.2201671431
 30
0.0
 10
-67.5513291767
 20
33.2823002032
 30
0.0
 10
-68.0300164702
 20
33.3488318681
 30
0.0
 10
-68.4858619168
 20
33.4185699398
 30
0.0
 10
-68.9176544339
 20
33.4903334322
 30
0.0
 10
-69.324144745
 20
33.5629349232
 30
0.0
 10
-69.7035643874
 20
33.6350866781
 30
0.0
 10
-70.0536393791
 20
33.7053922513
 30
0.0
 10
-70.3725245926
 20
33.7725324098
 30
0.0
 10
-70.6591024573
 20
33.8353711504
 30
0.0
 10
-70.9133883293
 20
33.8930993408
 30
0.0
 10
-71.135691427
 20
33.9450768035
 30
0.0
 10
-71.3259673107
 20
33.9906803748
 30
0.0
 10
-71.4839002494
 20
34.0293105504
 30
0.0
 10
-71.6089309807
 20
34.0603918855
 30
0.0
 10
-71.6812400893
 20
34.0785875818
 30
0.0
 10
-71.7118332731
 20
34.0863253334
 30
0.0
 11
-65.4454254081
 21
33.0737433624
 31
0.0
 11
-65.9993374052
 21
33.1158121212
 31
0.0
 11
-66.5369152401
 21
33.1656111571
 31
0.0
 11
-67.057197711
 21
33.2221850182
 31
0.0
 11
-67.5580529976
 21
33.2843911546
 31
0.0
 11
-68.0373330735
 21
33.3509915309
 31
0.0
 11
-68.4932595385
 21
33.4207291936
 31
0.0
 11
-68.925622823
 21
33.4925758348
 31
0.0
 11
-69.3327725478
 21
33.5652847244
 31
0.0
 11
-69.7128214021
 21
33.6375472615
 31
0.0
 11
-70.0639969352
 21
33.7080665574
 31
0.0
 11
-70.3831348706
 21
33.7752542512
 31
0.0
 11
-70.6696267305
 21
33.8380699063
 31
0.0
 11
-70.9238768619
 21
33.895786956
 31
0.0
 11
-71.146129288
 21
33.9477505084
 31
0.0
 11
-71.3366606889
 21
33.9934139988
 31
0.0
 11
-71.4948162526
 21
34.0320978627
 31
0.0
 11
-71.620025679
 21
34.0632232359
 31
0.0
 11
-71.7118332731
 21
34.0863253334
 31
0.0
  0
SPLINE
  5
30C
100
AcDbEntity
  8
RACCORDO
100
AcDbSpline
 62
7
  6
CONTINUOUS
 70
0
 71
3
 72
11
 73
7
 74
5
 42
0.0000001
 43
0.0000001
 44
0.0000000001
 12
-0.1065209496
 22
-0.0626497923
 32
0.0
 13
-0.1236546743
 23
0.0000318046
 33
0.0
 40
0.0
 40
0.0
 40
0.0
 40
0.0
 40
0.2706699158
 40
0.5369090578
 40
0.8026702838
 40
1.0
 40
1.0
 40
1.0
 40
1.0
 10
-43.4011023288
 20
10.1750256133
 30
0.0
 10
-43.4107130009
 20
10.1693731419
 30
0.0
 10
-43.4307412024
 20
10.1597245543
 30
0.0
 10
-43.4624890732
 20
10.1500948558
 30
0.0
 10
-43.4922651708
 20
10.1454642422
 30
0.0
 10
-43.5113538859
 20
10.1446331909
 30
0.0
 10
-43.5194874665
 20
10.1446352829
 30
0.0
 11
-43.4011023288
 21
10.1750256133
 31
0.0
 11
-43.4312135039
 21
10.1604600307
 31
0.0
 11
-43.4626776994
 21
10.1508416497
 31
0.0
 11
-43.4951190283
 21
10.1457244069
 31
0.0
 11
-43.5194874665
 21
10.1446352829
 31
0.0
  0
SPLINE
  5
30D
100
AcDbEntity
  8
RACCORDO
100
AcDbSpline
 62
7
  6
CONTINUOUS
 70
0
 71
3
 72
11
 73
7
 74
5
 42
0.0000001
 43
0.0000001
 44
0.0000000001
 12
-0.1065209496
 22
0.0626497923
 32
0.0
 13
-0.1236546743
 23
-0.0000318046
 33
0.0
 40
0.0
 40
0.0
 40
0.0
 40
0.0
 40
0.2706699158
 40
0.5369090578
 40
0.8026702838
 40
1.0
 40
1.0
 40
1.0
 40
1.0
 10
-43.4011023288
 20
-10.1750256133
 30
0.0
 10
-43.4107130009
 20
-10.1693731419
 30
0.0
 10
-43.4307412024
 20
-10.1597245543
 30
0.0
 10
-43.4624890732
 20
-10.1500948558
 30
0.0
 10
-43.4922651708
 20
-10.1454642422
 30
0.0
 10
-43.5113538859
 20
-10.1446331909
 30
0.0
 10
-43.5194874665
 20
-10.1446352829
 30
0.0
 11
-43.4011023288
 21
-10.1750256133
 31
0.0
 11
-43.4312135039
 21
-10.1604600307
 31
0.0
 11
-43.4626776994
 21
-10.1508416497
 31
0.0
 11
-43.4951190283
 21
-10.1457244069
 31
0.0
 11
-43.5194874665
 21
-10.1446352829
 31
0.0
  0
SPLINE
  5
30E
100
AcDbEntity
  8
RACCORDO
100
AcDbSpline
 62
7
  6
CONTINUOUS
 70
0
 71
3
 72
10
 73
6
 74
4
 42
0.0000001
 43
0.0000001
 44
0.0000000001
 12
-0.0767696137
 22
0.0000197456
 32
0.0
 13
-0.0743911071
 23
0.0187697184
 33
0.0
 40
0.0
 40
0.0
 40
0.0
 40
0.0
 40
0.1139278714
 40
0.5525136031
 40
1.0
 40
1.0
 40
1.0
 40
1.0
 10
-43.5194874665
 20
10.1446352829
 30
0.0
 10
-43.5224028661
 20
10.1446360327
 30
0.0
 10
-43.5365413715
 20
10.1448616206
 30
0.0
 10
-43.5620629796
 20
10.1471656392
 30
0.0
 10
-43.584329072
 20
10.151624198
 30
0.0
 10
-43.5954254081
 20
10.1544239292
 30
0.0
 11
-43.5194874665
 21
10.1446352829
 31
0.0
 11
-43.5282319704
 21
10.1447735989
 31
0.0
 11
-43.5617505855
 21
10.1477373113
 31
0.0
 11
-43.5954254081
 21
10.1544239292
 31
0.0
  0
SPLINE
  5
30F
100
AcDbEntity
  8
RACCORDO
100
AcDbSpline
 62
253
  6
CONTINUOUS
 70
0
 71
3
 72
18
 73
14
 74
12
 42
0.0000001
 43
0.0000001
 44
0.0000000001
 12
0.0
 22
0.3080933001
 32
0.0
 13
-0.3080933001
 23
0.0000000006
 33
0.0
 40
0.0
 40
0.0
 40
0.0
 40
0.0
 40
0.0216837411
 40
0.056742088
 40
0.1085630551
 40
0.1772738803
 40
0.2619583384
 40
0.3611437499
 40
0.4729651966
 40
0.5952530559
 40
0.7255991013
 40
0.8614167079
 40
1.0
 40
1.0
 40
1.0
 40
1.0
 10
-43.2954254081
 20
-10.9611964146
 30
0.0
 10
-43.2954254081
 20
-10.9589695428
 30
0.0
 10
-43.2991460772
 20
-10.9535929373
 30
0.0
 10
-43.3090145824
 20
-10.9484712477
 30
0.0
 10
-43.3241110328
 20
-10.9430169309
 30
0.0
 10
-43.3446077014
 20
-10.9380614338
 30
0.0
 10
-43.370138975
 20
-10.9334103627
 30
0.0
 10
-43.4002348934
 20
-10.9293098746
 30
0.0
 10
-43.4342894016
 20
-10.9258125109
 30
0.0
 10
-43.471617297
 20
-10.9230125408
 30
0.0
 10
-43.5114612548
 20
-10.9209671447
 30
0.0
 10
-43.5530120291
 20
-10.9197222276
 30
0.0
 10
-43.5811932135
 20
-10.9194444843
 30
0.0
 10
-43.5954254081
 20
-10.9194444843
 30
0.0
 11
-43.2954254081
 21
-10.9611964146
 31
0.0
 11
-43.2984789724
 21
-10.9552544985
 31
0.0
 11
-43.3075775047
 21
-10.949433542
 31
0.0
 11
-43.3225357872
 21
-10.9438520429
 31
0.0
 11
-43.3430493145
 21
-10.9386236244
 31
0.0
 11
-43.3687004926
 21
-10.9338547221
 31
0.0
 11
-43.3989671392
 21
-10.9296424172
 31
0.0
 11
-43.4332331139
 21
-10.9260724603
 31
0.0
 11
-43.4708008609
 21
-10.9232175259
 31
0.0
 11
-43.5109056087
 21
-10.9211357323
 31
0.0
 11
-43.5527309393
 21
-10.9198694592
 31
0.0
 11
-43.5954254081
 21
-10.9194444843
 31
0.0
  0
SPLINE
  5
310
100
AcDbEntity
  8
RACCORDO
100
AcDbSpline
 62
7
  6
CONTINUOUS
 70
0
 71
3
 72
13
 73
9
 74
7
 42
0.0000001
 43
0.0000001
 44
0.0000000001
 12
-0.2074998307
 22
-0.1220400433
 32
0.0
 13
-0.1871936444
 23
-0.1513555133
 33
0.0
 40
0.0
 40
0.0
 40
0.0
 40
0.0
 40
0.1474455383
 40
0.3055853106
 40
0.4718841666
 40
0.644247101
 40
0.8208502093
 40
1.0
 40
1.0
 40
1.0
 40
1.0
 10
-43.4011023288
 20
-10.1750256133
 30
0.0
 10
-43.4113006369
 20
-10.1810236999
 30
0.0
 10
-43.4320613264
 20
-10.1940944847
 30
0.0
 10
-43.4633154751
 20
-10.2154795951
 30
0.0
 10
-43.4955923546
 20
-10.2388828637
 30
0.0
 10
-43.5285681183
 20
-10.2638283083
 30
0.0
 10
-43.5619644196
 20
-10.2899174485
 30
0.0
 10
-43.5842468407
 20
-10.3077621761
 30
0.0
 10
-43.5954254081
 20
-10.3168006123
 30
0.0
 11
-43.4011023288
 21
-10.1750256133
 31
0.0
 11
-43.4312135039
 21
-10.1938181626
 31
0.0
 11
-43.4626776994
 21
-10.2152477606
 31
0.0
 11
-43.4951190283
 21
-10.2387037627
 31
0.0
 11
-43.5282319704
 21
-10.2637071044
 31
0.0
 11
-43.5617505855
 21
-10.2898582739
 31
0.0
 11
-43.5954254081
 21
-10.3168006123
 31
0.0
  0
SPLINE
  5
311
100
AcDbEntity
  8
RACCORDO
100
AcDbSpline
 62
253
  6
CONTINUOUS
 70
0
 71
3
 72
18
 73
14
 74
12
 42
0.0000001
 43
0.0000001
 44
0.0000000001
 12
0.0
 22
-0.4593886317
 32
0.0
 13
-0.4593886317
 23
0.0
 33
0.0
 40
0.0
 40
0.0
 40
0.0
 40
0.0
 40
0.0886384401
 40
0.1774641809
 40
0.2666482475
 40
0.3563308102
 40
0.4466097205
 40
0.5375331061
 40
0.629096431
 40
0.7212439326
 40
0.8138739837
 40
0.9068476997
 40
1.0
 40
1.0
 40
1.0
 40
1.0
 10
-43.2954254081
 20
10.6198765583
 30
0.0
 10
-43.2954254081
 20
10.6063033944
 30
0.0
 10
-43.2974731594
 20
10.5790844321
 30
0.0
 10
-43.3066209429
 20
10.5391416693
 30
0.0
 10
-43.3216560301
 20
10.5008431117
 30
0.0
 10
-43.3422671507
 20
10.4649827293
 30
0.0
 10
-43.3680292084
 20
10.4322871049
 30
0.0
 10
-43.3984129558
 20
10.403420248
 30
0.0
 10
-43.4327968892
 20
10.3789654909
 30
0.0
 10
-43.470479146
 20
10.35941588
 30
0.0
 10
-43.5106962087
 20
10.3451646155
 30
0.0
 10
-43.552621662
 20
10.3364978824
 30
0.0
 10
-43.5811610389
 20
10.3345596034
 30
0.0
 10
-43.5954254081
 20
10.3345596034
 30
0.0
 11
-43.2954254081
 21
10.6198765583
 31
0.0
 11
-43.2984789756
 21
10.579271722
 31
0.0
 11
-43.307577516
 21
10.539493483
 31
0.0
 11
-43.3225358095
 21
10.5013516117
 31
0.0
 11
-43.3430493483
 21
10.4656225665
 31
0.0
 11
-43.3687005358
 21
10.4330336878
 31
0.0
 11
-43.3989671879
 21
10.404248391
 31
0.0
 11
-43.4332331629
 21
10.379852662
 31
0.0
 11
-43.4708009042
 21
10.3603431273
 31
0.0
 11
-43.5109056411
 21
10.3461169448
 31
0.0
 11
-43.5527309567
 21
10.3374637186
 31
0.0
 11
-43.5954254081
 21
10.3345596034
 31
0.0
  0
SPLINE
  5
312
100
AcDbEntity
  8
ASSI
100
AcDbSpline
 62
7
  6
CONTINUOUS
 70
0
 71
3
 72
19
 73
15
 74
13
 42
0.0000001
 43
0.0000001
 44
0.0000000001
 12
-7.2049502719
 22
0.0
 32
0.0
 13
-7.0459208036
 23
-1.5054263353
 33
0.0
 40
0.0
 40
0.0
 40
0.0
 40
0.0
 40
0.0860889404
 40
0.1721436805
 40
0.2579927368
 40
0.3436248373
 40
0.4288402949
 40
0.5135815
 40
0.597646625
 40
0.6808377036
 40
0.7629569049
 40
0.8436700363
 40
0.9228015822
 40
1.0
 40
1.0
 40
1.0
 40
1.0
 10
-58.2954254081
 20
-32.6917420766
 30
0.0
 10
-58.5021809198
 20
-32.6917420766
 30
0.0
 10
-58.9156205343
 20
-32.69566505
 30
0.0
 10
-59.5350133935
 20
-32.7132860535
 30
0.0
 10
-60.1528694279
 20
-32.7425362707
 30
0.0
 10
-60.7680571137
 20
-32.7832128365
 30
0.0
 10
-61.3797343712
 20
-32.8350448565
 30
0.0
 10
-61.9866196065
 20
-32.8976396067
 30
0.0
 10
-62.5874581165
 20
-32.9705102573
 30
0.0
 10
-63.1806889929
 20
-33.0530274935
 30
0.0
 10
-63.7644701197
 20
-33.1444086289
 30
0.0
 10
-64.3370524663
 20
-33.2437632122
 30
0.0
 10
-64.8963632889
 20
-33.3500319186
 30
0.0
 10
-65.2641140956
 20
-33.4257572678
 30
0.0
 10
-65.4454254081
 20
-33.4644961116
 30
0.0
 11
-58.2954254081
 21
-32.6917420766
 31
0.0
 11
-58.9156640419
 21
-32.6976252343
 31
0.0
 11
-59.5354335959
 21
-32.7152505768
 31
0.0
 11
-60.153280291
 21
-32.7444899909
 31
0.0
 11
-60.7689119758
 21
-32.7851816497
 31
0.0
 11
-61.3806941045
 21
-32.8370047801
 31
0.0
 11
-61.9880305258
 21
-32.8996251127
 31
0.0
 11
-62.5893123629
 21
-32.9725259145
 31
0.0
 11
-63.1829877121
 21
-33.0550792659
 31
0.0
 11
-63.7675384968
 21
-33.146553692
 31
0.0
 11
-64.3405153858
 21
-33.2459488184
 31
0.0
 11
-64.9006389368
 21
-33.352343932
 31
0.0
 11
-65.4454254081
 21
-33.4644961116
 31
0.0
  0
SPLINE
  5
313
100
AcDbEntity
  8
RACCORDO
100
AcDbSpline
 62
253
  6
CONTINUOUS
 70
0
 71
3
 72
17
 73
13
 74
11
 42
0.0000001
 43
0.0000001
 44
0.0000000001
 12
-0.0862290333
 22
-0.3772333349
 32
0.0
 13
-0.3865090351
 23
0.0000000003
 33
0.0
 40
0.0
 40
0.0
 40
0.0
 40
0.0
 40
0.0629543861
 40
0.158634945
 40
0.2562860029
 40
0.3562572898
 40
0.4586936582
 40
0.5635371667
 40
0.6705450692
 40
0.7793184662
 40
0.8893374645
 40
1.0
 40
1.0
 40
1.0
 40
1.0
 10
-43.3008469437
 20
-17.6733165952
 30
0.0
 10
-43.3026564423
 20
-17.6812327595
 30
0.0
 10
-43.3083291912
 20
-17.7009219867
 30
0.0
 10
-43.3217878752
 20
-17.7312331871
 30
0.0
 10
-43.3424639183
 20
-17.7630431562
 30
0.0
 10
-43.3682735007
 20
-17.7920131565
 30
0.0
 10
-43.3986779631
 20
-17.8175651111
 30
0.0
 10
-43.4330527047
 20
-17.8391943211
 30
0.0
 10
-43.4706980098
 20
-17.8564748468
 30
0.0
 10
-43.5108549347
 20
-17.8690668394
 30
0.0
 10
-43.5527062585
 20
-17.876722574
 30
0.0
 10
-43.5811680515
 20
-17.8784334273
 30
0.0
 10
-43.5954254081
 20
-17.8784334273
 30
0.0
 11
-43.3008469437
 21
-17.6733165952
 31
0.0
 11
-43.3075774979
 21
-17.6967140828
 31
0.0
 11
-43.3225357736
 21
-17.7305352888
 31
0.0
 11
-43.3430492938
 21
-17.7622169989
 31
0.0
 11
-43.368700466
 21
-17.7911142643
 31
0.0
 11
-43.3989671091
 21
-17.8166388183
 31
0.0
 11
-43.4332330837
 21
-17.8382710522
 31
0.0
 11
-43.470800834
 21
-17.8555705934
 31
0.0
 11
-43.5109055886
 21
-17.8681852704
 31
0.0
 11
-43.5527309286
 21
-17.8758582823
 31
0.0
 11
-43.5954254081
 21
-17.8784334273
 31
0.0
  0
SPLINE
  5
314
100
AcDbEntity
  8
RACCORDO
100
AcDbSpline
 62
253
  6
CONTINUOUS
 70
0
 71
3
 72
18
 73
14
 74
12
 42
0.0000001
 43
0.0000001
 44
0.0000000001
 12
0.0
 22
-0.3701749655
 32
0.0
 13
-0.3701749655
 23
0.0
 33
0.0
 40
0.0
 40
0.0
 40
0.0
 40
0.0
 40
0.0625289294
 40
0.1280356095
 40
0.1989070008
 40
0.2766596967
 40
0.3619618225
 40
0.4547839158
 40
0.5545608137
 40
0.6603265943
 40
0.7708215173
 40
0.8845789656
 40
1.0
 40
1.0
 40
1.0
 40
1.0
 10
-43.2954254081
 20
-11.2318288873
 30
0.0
 10
-43.2954254081
 20
-11.2395444353
 30
0.0
 10
-43.2975888389
 20
-11.2554146243
 30
0.0
 10
-43.3070754869
 20
-11.2782957884
 30
0.0
 10
-43.3224459641
 20
-11.3000143556
 30
0.0
 10
-43.34327832
 20
-11.3201876485
 30
0.0
 10
-43.3691251688
 20
-11.3384975727
 30
0.0
 10
-43.3994755693
 20
-11.3546259804
 30
0.0
 10
-43.4337360789
 20
-11.3682758706
 30
0.0
 10
-43.4712315527
 20
-11.3791842523
 30
0.0
 10
-43.5112178481
 20
-11.3871359603
 30
0.0
 10
-43.5528924247
 20
-11.3919719696
 30
0.0
 10
-43.5811834157
 20
-11.3930513115
 30
0.0
 10
-43.5954254081
 20
-11.3930513115
 30
0.0
 11
-43.2954254081
 21
-11.2318288873
 31
0.0
 11
-43.2984789755
 21
-11.2547732301
 31
0.0
 11
-43.3075775157
 21
-11.2772504924
 31
0.0
 11
-43.3225358088
 21
-11.2988031019
 31
0.0
 11
-43.3430493472
 21
-11.3189923096
 31
0.0
 11
-43.3687005345
 21
-11.3374071215
 31
0.0
 11
-43.3989671865
 21
-11.3536726651
 31
0.0
 11
-43.4332331615
 21
-11.3674578207
 31
0.0
 11
-43.470800903
 21
-11.3784819624
 31
0.0
 11
-43.5109056402
 21
-11.3865206703
 31
0.0
 11
-43.5527309562
 21
-11.3914102996
 31
0.0
 11
-43.5954254081
 21
-11.3930513115
 31
0.0
  0
SPLINE
  5
315
100
AcDbEntity
  8
ASSI
100
AcDbSpline
 62
7
  6
CONTINUOUS
 70
0
 71
3
 72
30
 73
26
 74
24
 42
0.0000001
 43
0.0000001
 44
0.0000000001
 12
-9.2566233799
 22
0.0
 32
0.0
 13
-8.9541104752
 23
-2.3471220664
 33
0.0
 40
0.0
 40
0.0
 40
0.0
 40
0.0
 40
0.0568127965
 40
0.1135289927
 40
0.1699940399
 40
0.2261231905
 40
0.2817366795
 40
0.3367447778
 40
0.3909317273
 40
0.444181904
 40
0.496261092
 40
0.5470194036
 40
0.5962106164
 40
0.643658903
 40
0.6891534875
 40
0.7324779951
 40
0.7734868383
 40
0.8119829614
 40
0.8477688536
 40
0.8807180521
 40
0.9107615879
 40
0.9377694953
 40
0.9616894414
 40
0.9824436139
 40
1.0
 40
1.0
 40
1.0
 40
1.0
 10
-56.2954254081
 20
-33.6860505254
 30
0.0
 10
-56.4707236281
 20
-33.6860505254
 30
0.0
 10
-56.8210281647
 20
-33.688785337
 30
0.0
 10
-57.3454283483
 20
-33.7010564041
 30
0.0
 10
-57.8674682985
 20
-33.7213756702
 30
0.0
 10
-58.3857359202
 20
-33.7495320033
 30
0.0
 10
-58.8990311593
 20
-33.7852394792
 30
0.0
 10
-59.4057636834
 20
-33.8281019892
 30
0.0
 10
-59.9045575372
 20
-33.8776513027
 30
0.0
 10
-60.3936131363
 20
-33.9332903967
 30
0.0
 10
-60.8713559328
 20
-33.9943570317
 30
0.0
 10
-61.3358367442
 20
-34.0600567892
 30
0.0
 10
-61.7853117828
 20
-34.129540401
 30
0.0
 10
-62.2178787454
 20
-34.2018619509
 30
0.0
 10
-62.6317527535
 20
-34.2760329486
 30
0.0
 10
-63.0252656969
 20
-34.351036633
 30
0.0
 10
-63.3968127252
 20
-34.4258369047
 30
0.0
 10
-63.7448644485
 20
-34.499394867
 30
0.0
 10
-64.0679645627
 20
-34.5706793079
 30
0.0
 10
-64.3650529927
 20
-34.6387566554
 30
0.0
 10
-64.6352768172
 20
-34.7027723085
 30
0.0
 10
-64.8780055062
 20
-34.7619659297
 30
0.0
 10
-65.0925782178
 20
-34.815619212
 30
0.0
 10
-65.2786202119
 20
-34.863140939
 30
0.0
 10
-65.3930248013
 20
-34.8928897852
 30
0.0
 10
-65.4454254081
 20
-34.9066254456
 30
0.0
 11
-56.2954254081
 21
-33.6860505254
 31
0.0
 11
-56.8213040501
 21
-33.6901550656
 31
0.0
 11
-57.3461609105
 21
-33.7024338156
 31
0.0
 11
-57.8684413015
 21
-33.722757583
 31
0.0
 11
-58.3872430093
 21
-33.7509362963
 31
0.0
 11
-58.9007955786
 21
-33.7866534851
 31
0.0
 11
-59.408173771
 21
-33.8295610727
 31
0.0
 11
-59.9073063034
 21
-33.8791334541
 31
0.0
 11
-60.3970650687
 21
-33.9348412094
 31
0.0
 11
-60.8752533063
 21
-33.995953047
 31
0.0
 11
-61.3404746359
 21
-34.0617457232
 31
0.0
 11
-61.790475714
 21
-34.1312990943
 31
0.0
 11
-62.2236755578
 21
-34.2037154391
 31
0.0
 11
-62.6381996118
 21
-34.2779927154
 31
0.0
 11
-63.0321480484
 21
-34.3530701966
 31
0.0
 11
-63.4042865423
 21
-34.4279814486
 31
0.0
 11
-63.7529309542
 21
-34.5016577713
 31
0.0
 11
-64.0764094208
 21
-34.5730200041
 31
0.0
 11
-64.3737033078
 21
-34.6411399037
 31
0.0
 11
-64.6443159388
 21
-34.7052441728
 31
0.0
 11
-64.8872005423
 21
-34.7644732443
 31
0.0
 11
-65.1020055335
 21
-34.8181828002
 31
0.0
 11
-65.2881428568
 21
-34.8657276865
 31
0.0
 11
-65.4454254081
 21
-34.9066254456
 31
0.0
  0
SPLINE
  5
316
100
AcDbEntity
  8
ASSI
100
AcDbSpline
 62
7
  6
CONTINUOUS
 70
0
 71
3
 72
19
 73
15
 74
13
 42
0.0000001
 43
0.0000001
 44
0.0000000001
 12
7.0459208036
 22
-1.5054263353
 32
0.0
 13
7.2049502719
 23
0.0
 33
0.0
 40
0.0
 40
0.0
 40
0.0
 40
0.0
 40
0.0771984178
 40
0.1563299637
 40
0.2370430951
 40
0.3191622964
 40
0.402353375
 40
0.4864185
 40
0.5711597051
 40
0.6563751627
 40
0.7420072632
 40
0.8278563195
 40
0.9139110596
 40
1.0
 40
1.0
 40
1.0
 40
1.0
 10
-65.4454254081
 20
33.4644961116
 30
0.0
 10
-65.2641140956
 20
33.4257572678
 30
0.0
 10
-64.8963632889
 20
33.3500319186
 30
0.0
 10
-64.3370524663
 20
33.2437632122
 30
0.0
 10
-63.7644701197
 20
33.1444086289
 30
0.0
 10
-63.1806889929
 20
33.0530274935
 30
0.0
 10
-62.5874581165
 20
32.9705102573
 30
0.0
 10
-61.9866196065
 20
32.8976396067
 30
0.0
 10
-61.3797343712
 20
32.8350448565
 30
0.0
 10
-60.7680571137
 20
32.7832128365
 30
0.0
 10
-60.1528694279
 20
32.7425362707
 30
0.0
 10
-59.5350133935
 20
32.7132860535
 30
0.0
 10
-58.9156205343
 20
32.69566505
 30
0.0
 10
-58.5021809198
 20
32.6917420766
 30
0.0
 10
-58.2954254081
 20
32.6917420766
 30
0.0
 11
-65.4454254081
 21
33.4644961116
 31
0.0
 11
-64.9006389368
 21
33.352343932
 31
0.0
 11
-64.3405153858
 21
33.2459488184
 31
0.0
 11
-63.7675384968
 21
33.146553692
 31
0.0
 11
-63.1829877121
 21
33.0550792659
 31
0.0
 11
-62.5893123629
 21
32.9725259145
 31
0.0
 11
-61.9880305258
 21
32.8996251127
 31
0.0
 11
-61.3806941045
 21
32.8370047801
 31
0.0
 11
-60.7689119758
 21
32.7851816497
 31
0.0
 11
-60.153280291
 21
32.7444899909
 31
0.0
 11
-59.5354335959
 21
32.7152505768
 31
0.0
 11
-58.9156640419
 21
32.6976252343
 31
0.0
 11
-58.2954254081
 21
32.6917420766
 31
0.0
  0
SPLINE
  5
317
100
AcDbEntity
  8
ASSI
100
AcDbSpline
 62
7
  6
CONTINUOUS
 70
0
 71
3
 72
30
 73
26
 74
24
 42
0.0000001
 43
0.0000001
 44
0.0000000001
 12
8.9541104752
 22
-2.3471220664
 32
0.0
 13
9.2566233799
 23
0.0
 33
0.0
 40
0.0
 40
0.0
 40
0.0
 40
0.0
 40
0.0175563907
 40
0.038310573
 40
0.062230529
 40
0.0892384393
 40
0.1192819789
 40
0.1522312131
 40
0.1880171302
 40
0.2265132065
 40
0.2675218969
 40
0.3108463522
 40
0.3563409336
 40
0.4037892356
 40
0.4529804611
 40
0.5037387809
 40
0.5558179787
 40
0.6090681685
 40
0.6632551319
 40
0.7182632442
 40
0.7738767477
 40
0.8300059134
 40
0.886470976
 40
0.9431871879
 40
1.0
 40
1.0
 40
1.0
 40
1.0
 10
-65.4454254081
 20
34.9066254456
 30
0.0
 10
-65.3930247875
 20
34.8928897816
 30
0.0
 10
-65.2786201549
 20
34.8631409242
 30
0.0
 10
-65.0925780879
 20
34.815619179
 30
0.0
 10
-64.8780053084
 20
34.7619658807
 30
0.0
 10
-64.6352765694
 20
34.7027722488
 30
0.0
 10
-64.3650526172
 20
34.6387565674
 30
0.0
 10
-64.0679639929
 20
34.570679179
 30
0.0
 10
-63.7448638358
 20
34.499394735
 30
0.0
 10
-63.3968126387
 20
34.4258368899
 30
0.0
 10
-63.0252663731
 20
34.3510367688
 30
0.0
 10
-62.6317540634
 20
34.2760331917
 30
0.0
 10
-62.2178801796
 20
34.201862199
 30
0.0
 10
-61.785313144
 20
34.1295406195
 30
0.0
 10
-61.3358379974
 20
34.0600569743
 30
0.0
 10
-60.8713570944
 20
33.9943571878
 30
0.0
 10
-60.3936142046
 20
33.9332905253
 30
0.0
 10
-59.9045584941
 20
33.877651404
 30
0.0
 10
-59.4057645159
 20
33.8281020651
 30
0.0
 10
-58.8990318622
 20
33.7852395327
 30
0.0
 10
-58.3857364896
 20
33.7495320379
 30
0.0
 10
-57.8674687294
 20
33.7213756895
 30
0.0
 10
-57.345428637
 20
33.7010564123
 30
0.0
 10
-56.8210283093
 20
33.6887853385
 30
0.0
 10
-56.4707236763
 20
33.6860505254
 30
0.0
 10
-56.2954254081
 20
33.6860505254
 30
0.0
 11
-65.4454254081
 21
34.9066254456
 31
0.0
 11
-65.2881428154
 21
34.8657276759
 31
0.0
 11
-65.1020054037
 21
34.8181827673
 31
0.0
 11
-64.8872003235
 21
34.7644731903
 31
0.0
 11
-64.6443156937
 21
34.7052441138
 31
0.0
 11
-64.373703028
 21
34.6411398384
 31
0.0
 11
-64.0764088184
 21
34.5730198685
 31
0.0
 11
-63.7529301256
 21
34.5016575922
 31
0.0
 11
-63.4042861356
 21
34.4279813646
 31
0.0
 11
-63.0321490295
 21
34.353070389
 31
0.0
 11
-62.6382010714
 21
34.2779929855
 31
0.0
 11
-62.2236770481
 21
34.2037156974
 31
0.0
 11
-61.7904770664
 21
34.131299312
 31
0.0
 11
-61.3404758756
 21
34.0617459068
 31
0.0
 11
-60.8752544731
 21
33.9959532042
 31
0.0
 11
-60.3970661463
 21
33.9348413396
 31
0.0
 11
-59.9073072631
 21
33.8791335564
 31
0.0
 11
-59.4081746037
 21
33.8295611493
 31
0.0
 11
-58.9007962828
 21
33.7866535394
 31
0.0
 11
-58.3872435803
 21
33.7509363317
 31
0.0
 11
-57.8684417338
 21
33.7227576031
 31
0.0
 11
-57.3461611996
 21
33.7024338246
 31
0.0
 11
-56.8213041947
 21
33.6901550679
 31
0.0
 11
-56.2954254081
 21
33.6860505254
 31
0.0
  0
SPLINE
  5
318
100
AcDbEntity
  8
RACCORDO
100
AcDbSpline
 62
253
  6
CONTINUOUS
 70
0
 71
3
 72
18
 73
14
 74
12
 42
0.0000001
 43
0.0000001
 44
0.0000000001
 12
-0.0061626987
 22
0.4647400421
 32
0.0
 13
-0.4646604878
 23
0.0
 33
0.0
 40
0.0
 40
0.0
 40
0.0
 40
0.0
 40
0.0828545636
 40
0.1741165933
 40
0.2654478814
 40
0.3568758962
 40
0.4484201972
 40
0.5400908683
 40
0.6318877354
 40
0.7238004221
 40
0.8158092242
 40
0.9078867231
 40
1.0
 40
1.0
 40
1.0
 40
1.0
 10
-43.2954512075
 20
17.6881052603
 30
0.0
 10
-43.2956214101
 20
17.7009405381
 30
0.0
 10
-43.2977482233
 20
17.7279225673
 30
0.0
 10
-43.3066019606
 20
17.7682112993
 30
0.0
 10
-43.3216161187
 20
17.8080679047
 30
0.0
 10
-43.3422049032
 20
17.8453984337
 30
0.0
 10
-43.3679481601
 20
17.8794459827
 30
0.0
 10
-43.3983208119
 20
17.9095169964
 30
0.0
 10
-43.4327040636
 20
17.9350002834
 30
0.0
 10
-43.4703968362
 20
17.9553779827
 30
0.0
 10
-43.5106348986
 20
17.9702362901
 30
0.0
 10
-43.5525884381
 20
17.9792736076
 30
0.0
 10
-43.5811582747
 20
17.9812954434
 30
0.0
 10
-43.5954254081
 20
17.9812954434
 30
0.0
 11
-43.2954512075
 21
17.6881052603
 31
0.0
 11
-43.2984789756
 21
17.7264939748
 31
0.0
 11
-43.307577516
 21
17.7679122492
 31
0.0
 11
-43.3225358095
 21
17.8076266896
 31
0.0
 11
-43.3430493483
 21
17.8448288242
 31
0.0
 11
-43.3687005358
 21
17.878761325
 31
0.0
 11
-43.3989671879
 21
17.9087334242
 31
0.0
 11
-43.4332331629
 21
17.9341349761
 31
0.0
 11
-43.4708009042
 21
17.9544488785
 31
0.0
 11
-43.5109056411
 21
17.9692615989
 31
0.0
 11
-43.5527309567
 21
17.9782715931
 31
0.0
 11
-43.5954254081
 21
17.9812954434
 31
0.0
  0
SPLINE
  5
319
100
AcDbEntity
  8
RACCORDO
100
AcDbSpline
 62
7
  6
CONTINUOUS
 70
0
 71
3
 72
13
 73
9
 74
7
 42
0.0000001
 43
0.0000001
 44
0.0000000001
 12
-0.1591982755
 22
0.1498420621
 32
0.0
 13
-0.2172266429
 23
0.0246844108
 33
0.0
 40
0.0
 40
0.0
 40
0.0
 40
0.0
 40
0.1801033212
 40
0.3535231271
 40
0.5213355243
 40
0.6844761803
 40
0.8437778606
 40
1.0
 40
1.0
 40
1.0
 40
1.0
 10
-43.4011023288
 20
17.8045296097
 30
0.0
 10
-43.4106597082
 20
17.813525294
 30
0.0
 10
-43.430407306
 20
17.8301669889
 30
0.0
 10
-43.4619882675
 20
17.8514095677
 30
0.0
 10
-43.4945432203
 20
17.8686208222
 30
0.0
 10
-43.5277671278
 20
17.8819386378
 30
0.0
 10
-43.5613925358
 20
17.8914504946
 30
0.0
 10
-43.5841135378
 20
17.8953139534
 30
0.0
 10
-43.5954254081
 20
17.8965993706
 30
0.0
 11
-43.4011023288
 21
17.8045296097
 31
0.0
 11
-43.4312135039
 21
17.8299010438
 31
0.0
 11
-43.4626776994
 21
17.8510543865
 31
0.0
 11
-43.4951190283
 21
17.8681880974
 31
0.0
 11
-43.5282319704
 21
17.8814409128
 31
0.0
 11
-43.5617505855
 21
17.8908982583
 31
0.0
 11
-43.5954254081
 21
17.8965993706
 31
0.0
  0
SPLINE
  5
31A
100
AcDbEntity
  8
RACCORDO
100
AcDbSpline
 62
253
  6
CONTINUOUS
 70
0
 71
3
 72
18
 73
14
 74
12
 42
0.0000001
 43
0.0000001
 44
0.0000000001
 12
0.0
 22
-0.434853544
 32
0.0
 13
-0.434853544
 23
-0.0
 33
0.0
 40
0.0
 40
0.0
 40
0.0
 40
0.0
 40
0.0831459785
 40
0.1669619087
 40
0.2520486945
 40
0.3388808136
 40
0.4277682072
 40
0.5188393784
 40
0.6120431753
 40
0.7071646743
 40
0.8038505335
 40
0.901640136
 40
1.0
 40
1.0
 40
1.0
 40
1.0
 10
-43.2954254081
 20
16.9611189498
 30
0.0
 10
-43.2954254081
 20
16.949066842
 30
0.0
 10
-43.2974876604
 20
16.9248163456
 30
0.0
 10
-43.3066856047
 20
16.8892917871
 30
0.0
 10
-43.3217871917
 20
16.855259229
 30
0.0
 10
-43.3424629351
 20
16.8234298686
 30
0.0
 10
-43.3682723278
 20
16.7944420417
 30
0.0
 10
-43.39867674
 20
16.7688742501
 30
0.0
 10
-43.4330515658
 20
16.7472315695
 30
0.0
 10
-43.4706970644
 20
16.7299402498
 30
0.0
 10
-43.5108542646
 20
16.7173403789
 30
0.0
 10
-43.552705906
 20
16.7096798507
 30
0.0
 10
-43.5811680297
 20
16.7079679207
 30
0.0
 10
-43.5954254081
 20
16.7079679207
 30
0.0
 11
-43.2954254081
 21
16.9611189498
 31
0.0
 11
-43.2984789757
 21
16.9250918011
 31
0.0
 11
-43.3075775166
 21
16.8897980614
 31
0.0
 11
-43.3225358106
 21
16.8559562097
 31
0.0
 11
-43.3430493499
 21
16.8242551683
 31
0.0
 11
-43.3687005379
 21
16.7953402791
 31
0.0
 11
-43.3989671902
 21
16.7698001657
 31
0.0
 11
-43.4332331651
 21
16.748154751
 31
0.0
 11
-43.4708009062
 21
16.7308446733
 31
0.0
 11
-43.5109056425
 21
16.7182223158
 31
0.0
 11
-43.5527309574
 21
16.7105446331
 31
0.0
 11
-43.5954254081
 21
16.7079679207
 31
0.0
  0
SPLINE
  5
31B
100
AcDbEntity
  8
RACCORDO
100
AcDbSpline
 62
253
  6
CONTINUOUS
 70
0
 71
3
 72
18
 73
14
 74
12
 42
0.0000001
 43
0.0000001
 44
0.0000000001
 12
0.0
 22
-0.3700181015
 32
0.0
 13
-0.3700181015
 23
0.0000000003
 33
0.0
 40
0.0
 40
0.0
 40
0.0
 40
0.0
 40
0.0624629614
 40
0.1279127029
 40
0.1987421563
 40
0.2764702451
 40
0.3617648839
 40
0.4545950423
 40
0.5543933512
 40
0.6601913919
 40
0.7707267894
 40
0.8845302202
 40
1.0
 40
1.0
 40
1.0
 40
1.0
 10
-43.2954254081
 20
10.7856591811
 30
0.0
 10
-43.2954254081
 20
10.7779550389
 30
0.0
 10
-43.2975893524
 20
10.7621066315
 30
0.0
 10
-43.3070772226
 20
10.7392590253
 30
0.0
 10
-43.3224484617
 20
10.7175734007
 30
0.0
 10
-43.3432809563
 20
10.6974311617
 30
0.0
 10
-43.3691275605
 20
10.6791494646
 30
0.0
 10
-43.3994775557
 20
10.6630458494
 30
0.0
 10
-43.4337376234
 20
10.6494168645
 30
0.0
 10
-43.4712326719
 20
10.6385251379
 30
0.0
 10
-43.5112185701
 20
10.6305855436
 30
0.0
 10
-43.5528927839
 20
10.625756891
 30
0.0
 10
-43.5811834386
 20
10.6246791933
 30
0.0
 10
-43.5954254081
 20
10.6246791933
 30
0.0
 11
-43.2954254081
 21
10.7856591811
 31
0.0
 11
-43.2984789709
 21
10.7627493577
 31
0.0
 11
-43.307577499
 21
10.7403059086
 31
0.0
 11
-43.3225357758
 21
10.7187857169
 31
0.0
 11
-43.3430492971
 21
10.6986268715
 31
0.0
 11
-43.3687004702
 21
10.6802397486
 31
0.0
 11
-43.3989671139
 21
10.6639986581
 31
0.0
 11
-43.4332330884
 21
10.6502342232
 31
0.0
 11
-43.4708008382
 21
10.6392266497
 31
0.0
 11
-43.5109055917
 21
10.6312000216
 31
0.0
 11
-43.5527309303
 21
10.6263177395
 31
0.0
 11
-43.5954254081
 21
10.6246791933
 31
0.0
  0
SPLINE
  5
31C
100
AcDbEntity
  8
ASSI
100
AcDbSpline
 62
7
  6
CONTINUOUS
 70
0
 71
3
 72
23
 73
19
 74
17
 42
0.0000001
 43
0.0000001
 44
0.0000000001
 12
5.1577150667
 22
-1.1389994562
 32
0.0
 13
5.2702831559
 23
-0.3513686488
 33
0.0
 40
0.0
 40
0.0
 40
0.0
 40
0.0
 40
0.0208665599
 40
0.0480896157
 40
0.0815865125
 40
0.1212783937
 40
0.1669775262
 40
0.2185773516
 40
0.2758467721
 40
0.33846403
 40
0.4061147841
 40
0.4786143544
 40
0.5557100055
 40
0.6370534754
 40
0.7224519309
 40
0.8115697495
 40
0.9041808842
 40
1.0
 40
1.0
 40
1.0
 40
1.0
 10
-70.668087688
 20
34.2197561625
 30
0.0
 10
-70.6322130978
 20
34.211833829
 30
0.0
 10
-70.5495089603
 20
34.1936961752
 30
0.0
 10
-70.4090941499
 20
34.1633975359
 30
0.0
 10
-70.2361218556
 20
34.1268469164
 30
0.0
 10
-70.0311001683
 20
34.0846333825
 30
0.0
 10
-69.7945675986
 20
34.0374324633
 30
0.0
 10
-69.5273182839
 20
33.9860444767
 30
0.0
 10
-69.2303755108
 20
33.9313764567
 30
0.0
 10
-68.9051257879
 20
33.8744463149
 30
0.0
 10
-68.5528841505
 20
33.8162854869
 30
0.0
 10
-68.1748578479
 20
33.7579289162
 30
0.0
 10
-67.7723286176
 20
33.7004381482
 30
0.0
 10
-67.346612414
 20
33.6448780695
 30
0.0
 10
-66.8991932152
 20
33.5923222408
 30
0.0
 10
-66.4313668774
 20
33.5437969408
 30
0.0
 10
-65.9446208455
 20
33.5003136497
 30
0.0
 10
-65.6137566988
 20
33.4757187226
 30
0.0
 10
-65.4454254081
 20
33.4644961116
 30
0.0
 11
-70.668087688
 21
34.2197561625
 31
0.0
 11
-70.5604293831
 21
34.1961460869
 31
0.0
 11
-70.4198725551
 21
34.1658172849
 31
0.0
 11
-70.2467648886
 21
34.1292389469
 31
0.0
 11
-70.041420259
 21
34.0869603719
 31
0.0
 11
-69.8047049763
 21
34.0397251645
 31
0.0
 11
-69.5370580065
 21
33.9882637672
 31
0.0
 11
-69.2395608217
 21
33.9334977293
 31
0.0
 11
-68.9137696806
 21
33.876477928
 31
0.0
 11
-68.5612121801
 21
33.8182711143
 31
0.0
 11
-68.182752498
 21
33.7598548499
 31
0.0
 11
-67.7796243055
 21
33.7022866791
 31
0.0
 11
-67.3535813583
 21
33.6466928289
 31
0.0
 11
-66.9055871716
 21
33.5940788382
 31
0.0
 11
-66.4373793431
 21
33.5455234965
 31
0.0
 11
-65.9501484247
 21
33.5020062465
 31
0.0
 11
-65.4454254081
 21
33.4644961116
 31
0.0
  0
SPLINE
  5
31D
100
AcDbEntity
  8
RACCORDO
100
AcDbSpline
 62
253
  6
CONTINUOUS
 70
0
 71
3
 72
18
 73
14
 74
12
 42
0.0000001
 43
0.0000001
 44
0.0000000001
 12
0.0
 22
-0.3300380664
 32
0.0
 13
-0.3300380664
 23
0.0000000006
 33
0.0
 40
0.0
 40
0.0
 40
0.0
 40
0.0
 40
0.04103183
 40
0.0889234926
 40
0.1477808937
 40
0.2191988535
 40
0.3032823838
 40
0.3992676997
 40
0.5058337495
 40
0.6212713583
 40
0.743591338
 40
0.8706061561
 40
1.0
 40
1.0
 40
1.0
 40
1.0
 10
-43.2954254081
 20
17.1750468575
 30
0.0
 10
-43.2954254081
 20
17.1705328356
 30
0.0
 10
-43.297925609
 20
17.1606837447
 30
0.0
 10
-43.3079053114
 20
17.1475160026
 30
0.0
 10
-43.3233593277
 20
17.1352540187
 30
0.0
 10
-43.344096474
 20
17.1238652244
 30
0.0
 10
-43.3697910129
 20
17.1134830859
 30
0.0
 10
-43.3999928029
 20
17.1043037305
 30
0.0
 10
-43.4341218416
 20
17.096514384
 30
0.0
 10
-43.4715043405
 20
17.0902788607
 30
0.0
 10
-43.5113915068
 20
17.0857285923
 30
0.0
 10
-43.5529781643
 20
17.08295954
 30
0.0
 10
-43.5811904435
 20
17.0823417592
 30
0.0
 10
-43.5954254081
 20
17.0823417592
 30
0.0
 11
-43.2954254081
 21
17.1750468575
 31
0.0
 11
-43.2984789726
 21
17.1618535528
 31
0.0
 11
-43.3075775053
 21
17.1489288243
 31
0.0
 11
-43.3225357884
 21
17.136535782
 31
0.0
 11
-43.3430493163
 21
17.1249267126
 31
0.0
 11
-43.3687004949
 21
17.1143379432
 31
0.0
 11
-43.3989671419
 21
17.1049850311
 31
0.0
 11
-43.4332331166
 21
17.0970583751
 31
0.0
 11
-43.4708008632
 21
17.0907193396
 31
0.0
 11
-43.5109056105
 21
17.0860969697
 31
0.0
 11
-43.5527309403
 21
17.0832853641
 31
0.0
 11
-43.5954254081
 21
17.0823417592
 31
0.0
  0
SPLINE
  5
31E
100
AcDbEntity
  8
RACCORDO
100
AcDbSpline
 62
7
  6
CONTINUOUS
 70
0
 71
3
 72
13
 73
9
 74
7
 42
0.0000001
 43
0.0000001
 44
0.0000000001
 12
-0.1870180531
 22
-0.1760268485
 32
0.0
 13
-0.2028508152
 23
-0.1575206348
 33
0.0
 40
0.0
 40
0.0
 40
0.0
 40
0.0
 40
0.1601320989
 40
0.3255166408
 40
0.4938912957
 40
0.6634487633
 40
0.8326335065
 40
1.0
 40
1.0
 40
1.0
 40
1.0
 10
-43.4011023288
 20
17.8045296097
 30
0.0
 10
-43.4110848599
 20
17.7951337601
 30
0.0
 10
-43.4314843653
 20
17.7761470878
 30
0.0
 10
-43.4628011075
 20
17.7477371304
 30
0.0
 10
-43.4951220073
 20
17.7192390744
 30
0.0
 10
-43.5281280695
 20
17.6910334812
 30
0.0
 10
-43.5615434349
 20
17.6634490745
 30
0.0
 10
-43.5841085983
 20
17.6455302501
 30
0.0
 10
-43.5954254081
 20
17.636742358
 30
0.0
 11
-43.4011023288
 21
17.8045296097
 31
0.0
 11
-43.4312135039
 21
17.7765168736
 31
0.0
 11
-43.4626776994
 21
17.7479830634
 31
0.0
 11
-43.4951190283
 21
17.7193900238
 31
0.0
 11
-43.5282319704
 21
17.6911075172
 31
0.0
 11
-43.5617505855
 21
17.6634571745
 31
0.0
 11
-43.5954254081
 21
17.636742358
 31
0.0
  0
SPLINE
  5
31F
100
AcDbEntity
  8
RACCORDO
100
AcDbSpline
 62
7
  6
CONTINUOUS
 70
0
 71
3
 72
12
 73
8
 74
6
 42
0.0000001
 43
0.0000001
 44
0.0000000001
 12
-0.0459898107
 22
0.1606410932
 32
0.0
 13
-0.1367288354
 23
0.0958365544
 33
0.0
 40
0.0
 40
0.0
 40
0.0
 40
0.0
 40
0.1785912021
 40
0.3647182392
 40
0.5612668
 40
0.7716457036
 40
1.0
 40
1.0
 40
1.0
 40
1.0
 10
-43.3034468919
 20
17.6729146598
 30
0.0
 10
-43.3061846837
 20
17.6824776884
 30
0.0
 10
-43.3131567974
 20
17.7016119753
 30
0.0
 10
-43.3278316069
 20
17.72929907
 30
0.0
 10
-43.3471737212
 20
17.7561722981
 30
0.0
 10
-43.3715822917
 20
17.7818946283
 30
0.0
 10
-43.3906947898
 20
17.7972347134
 30
0.0
 10
-43.4011023288
 20
17.8045296097
 30
0.0
 11
-43.3034468919
 21
17.6729146598
 31
0.0
 11
-43.313627467
 21
17.7009425903
 31
0.0
 11
-43.3281447167
 21
17.7284213791
 31
0.0
 11
-43.3472739596
 21
17.7550876745
 31
0.0
 11
-43.3714102976
 21
17.780609436
 31
0.0
 11
-43.4011023288
 21
17.8045296097
 31
0.0
  0
SPLINE
  5
320
100
AcDbEntity
  8
ASSI
100
AcDbSpline
 62
7
  6
CONTINUOUS
 70
0
 71
3
 72
23
 73
19
 74
17
 42
0.0000001
 43
0.0000001
 44
0.0000000001
 12
-5.2702831455
 22
-0.3513686481
 32
0.0
 13
-5.1577150566
 23
-1.138999454
 33
0.0
 40
0.0
 40
0.0
 40
0.0
 40
0.0
 40
0.095865107
 40
0.1885109443
 40
0.2776527499
 40
0.3630648803
 40
0.4444126218
 40
0.5215043287
 40
0.593993198
 40
0.6616271842
 40
0.7242223093
 40
0.7814682919
 40
0.8330474968
 40
0.8787316176
 40
0.9184145831
 40
0.9519077716
 40
0.9791310194
 40
1.0
 40
1.0
 40
1.0
 40
1.0
 10
-65.4454254081
 20
-33.4644961116
 30
0.0
 10
-65.6138374941
 20
-33.4757241092
 30
0.0
 10
-65.944843255
 20
-33.5003307821
 30
0.0
 10
-66.4317724455
 20
-33.5438353392
 30
0.0
 10
-66.8997248206
 20
-33.5923805668
 30
0.0
 10
-67.3472164429
 20
-33.6449527392
 30
0.0
 10
-67.7729560662
 20
-33.7005238766
 30
0.0
 10
-68.1754661599
 20
-33.7580194353
 30
0.0
 10
-68.5534368039
 20
-33.8163740039
 30
0.0
 10
-68.9055914098
 20
-33.8745258195
 30
0.0
 10
-69.2307323423
 20
-33.9314408722
 30
0.0
 10
-69.5275600397
 20
-33.9860902717
 30
0.0
 10
-69.7947069575
 20
-34.0374599819
 30
0.0
 10
-70.0311624896
 20
-34.0846461441
 30
0.0
 10
-70.236136485
 20
-34.1268500266
 30
0.0
 10
-70.4090873672
 20
-34.163396102
 30
0.0
 10
-70.5495003024
 20
-34.1936942848
 30
0.0
 10
-70.6322089362
 20
-34.21183291
 30
0.0
 10
-70.668087688
 20
-34.2197561625
 30
0.0
 11
-65.4454254081
 21
-33.4644961116
 31
0.0
 11
-65.9503905438
 21
-33.502026091
 31
0.0
 11
-66.4378035989
 21
-33.5455645092
 31
0.0
 11
-66.9061367458
 21
-33.5941397004
 31
0.0
 11
-67.3542017609
 21
-33.6467698517
 31
0.0
 11
-67.7802660531
 21
-33.7023744935
 31
0.0
 11
-68.1833725657
 21
-33.7599471032
 31
0.0
 11
-68.5617753911
 21
-33.8183611907
 31
0.0
 11
-68.9142446438
 21
-33.8765588001
 31
0.0
 11
-69.2399199567
 21
-33.9335622921
 31
0.0
 11
-69.5372949299
 21
-33.9883084053
 31
0.0
 11
-69.8048346786
 21
-34.0397506042
 31
0.0
 11
-70.0414720834
 21
-34.0869708896
 31
0.0
 11
-70.2467705541
 21
-34.12924013
 31
0.0
 11
-70.4198590602
 21
-34.1658144001
 31
0.0
 11
-70.5604168903
 21
-34.1961433663
 31
0.0
 11
-70.668087688
 21
-34.2197561625
 31
0.0
  0
ELLIPSE
  5
321
100
AcDbEntity
  8
ASSI
100
AcDbEllipse
 62
7
  6
CONTINUOUS
 10
24.9054732691
 20
0.0
 30
0.0
 11
47.4837186195
 21
0.0
 31
0.0
 40
0.8514070372
 41
2.0977535574
 42
2.1044828395
  0
ELLIPSE
  5
322
100
AcDbEntity
  8
ASSI
100
AcDbEllipse
 62
7
  6
CONTINUOUS
 10
-24.9054732691
 20
0.0
 30
0.0
 11
47.4837186195
 21
0.0
 31
0.0
 40
0.8514070372
 41
-1.0438390961
 42
-1.0371098141
  0
ELLIPSE
  5
323
100
AcDbEntity
  8
ASSI
100
AcDbEllipse
 62
7
  6
CONTINUOUS
 10
-24.9054732691
 20
0.0
 30
0.0
 11
47.4837186195
 21
0.0
 31
0.0
 40
0.8514070372
 41
1.0371098141
 42
1.0438390961
  0
ELLIPSE
  5
324
100
AcDbEntity
  8
ASSI
100
AcDbEllipse
 62
7
  6
CONTINUOUS
 10
-0.0
 20
24.9054732691
 30
0.0
 11
-0.0
 21
47.4837186195
 31
0.0
 40
0.8514070372
 41
-4.1854317497
 42
-4.1787024677
  0
ELLIPSE
  5
325
100
AcDbEntity
  8
ASSI
100
AcDbEllipse
 62
7
  6
CONTINUOUS
 10
-0.0
 20
24.9054732691
 30
0.0
 11
-0.0
 21
47.4837186195
 31
0.0
 40
0.8514070372
 41
-2.1044828395
 42
-2.0977535574
  0
ELLIPSE
  5
326
100
AcDbEntity
  8
ASSI
100
AcDbEllipse
 62
7
  6
CONTINUOUS
 10
24.1181624518
 20
-0.0
 30
0.0
 11
45.9826652202
 21
0.0
 31
0.0
 40
0.8514070372
 41
-2.0850492625
 42
-2.0780773295
  0
ELLIPSE
  5
327
100
AcDbEntity
  8
ASSI
100
AcDbEllipse
 62
7
  6
CONTINUOUS
 10
24.1181624518
 20
-0.0
 30
0.0
 11
45.9826652202
 21
0.0
 31
0.0
 40
0.8514070372
 41
2.0780773295
 42
2.0850492625
  0
ELLIPSE
  5
328
100
AcDbEntity
  8
ASSI
100
AcDbEllipse
 62
7
  6
CONTINUOUS
 10
0.0
 20
-24.9054732691
 30
0.0
 11
-0.0
 21
47.4837186195
 31
0.0
 40
0.8514070372
 41
1.0371098141
 42
1.0438390961
  0
ELLIPSE
  5
329
100
AcDbEntity
  8
ASSI
100
AcDbEllipse
 62
7
  6
CONTINUOUS
 10
-24.1181624518
 20
0.0
 30
0.0
 11
45.9826652202
 21
-0.0
 31
0.0
 40
0.8514070372
 41
-1.0635153241
 42
-1.0565433911
  0
ELLIPSE
  5
32A
100
AcDbEntity
  8
ASSI
100
AcDbEllipse
 62
7
  6
CONTINUOUS
 10
0.0
 20
-24.9054732691
 30
0.0
 11
-0.0
 21
47.4837186195
 31
0.0
 40
0.8514070372
 41
-1.0438390961
 42
-1.0371098141
  0
ELLIPSE
  5
32B
100
AcDbEntity
  8
ASSI
100
AcDbEllipse
 62
7
  6
CONTINUOUS
 10
-24.1181624518
 20
0.0
 30
0.0
 11
45.9826652202
 21
-0.0
 31
0.0
 40
0.8514070372
 41
1.0565433911
 42
1.0635153241
  0
ELLIPSE
  5
32C
100
AcDbEntity
  8
ASSI
100
AcDbEllipse
 62
7
  6
CONTINUOUS
 10
-0.0
 20
24.1181624518
 30
0.0
 11
0.0
 21
45.9826652202
 31
0.0
 40
0.8514070372
 41
-2.0850492625
 42
-2.0780773295
  0
ELLIPSE
  5
32D
100
AcDbEntity
  8
ASSI
100
AcDbEllipse
 62
7
  6
CONTINUOUS
 10
-0.0
 20
24.1181624518
 30
0.0
 11
0.0
 21
45.9826652202
 31
0.0
 40
0.8514070372
 41
-4.2051079777
 42
-4.1981360447
  0
ELLIPSE
  5
32E
100
AcDbEntity
  8
ASSI
100
AcDbEllipse
 62
7
  6
CONTINUOUS
 10
0.0
 20
-24.1181624518
 30
0.0
 11
-0.0
 21
45.9826652202
 31
0.0
 40
0.8514070372
 41
-1.0635153241
 42
-1.0565433911
  0
ELLIPSE
  5
32F
100
AcDbEntity
  8
ASSI
100
AcDbEllipse
 62
7
  6
CONTINUOUS
 10
0.0
 20
-24.1181624518
 30
0.0
 11
-0.0
 21
45.9826652202
 31
0.0
 40
0.8514070372
 41
1.0565433911
 42
1.0635153241
  0
ELLIPSE
  5
330
100
AcDbEntity
  8
ASSI
100
AcDbEllipse
 62
7
  6
CONTINUOUS
 10
24.9054732691
 20
0.0
 30
0.0
 11
47.4837186195
 21
0.0
 31
0.0
 40
0.8514070372
 41
-2.1044828395
 42
-2.0977535574
  0
ELLIPSE
  5
331
100
AcDbEntity
  8
0
100
AcDbEllipse
 62
7
  6
CONTINUOUS
 10
-42.9963873025
 20
0.0
 30
0.0
 11
127.6361376189
 21
0.0
 31
0.0
 40
0.2679491924
 41
1.5927279095
 42
1.6007903376
  0
ELLIPSE
  5
332
100
AcDbEntity
  8
0
100
AcDbEllipse
 62
7
  6
CONTINUOUS
 10
-42.9963873025
 20
0.0
 30
0.0
 11
127.6361376189
 21
0.0
 31
0.0
 40
0.2679491924
 41
-1.6007903376
 42
-1.5927279095
  0
ELLIPSE
  5
333
100
AcDbEntity
  8
ASSI
100
AcDbEllipse
 62
7
  6
CONTINUOUS
 10
12.700298171
 20
0.0
 30
0.0
 11
171.6096428693
 21
-0.0
 31
0.0
 40
0.2281338281
 41
2.0780773295
 42
2.0850492625
  0
ELLIPSE
  5
334
100
AcDbEntity
  8
ASSI
100
AcDbEllipse
 62
7
  6
CONTINUOUS
 10
12.700298171
 20
0.0
 30
0.0
 11
171.6096428693
 21
-0.0
 31
0.0
 40
0.2281338281
 41
-2.0850492625
 42
-2.0780773295
  0
ELLIPSE
  5
335
100
AcDbEntity
  8
ASSI
100
AcDbEllipse
 62
7
  6
CONTINUOUS
 10
23.3808480801
 20
0.0
 30
0.0
 11
177.2116504204
 21
0.0
 31
0.0
 40
0.2281338281
 41
2.0977535574
 42
2.1044828395
  0
ELLIPSE
  5
336
100
AcDbEntity
  8
ASSI
100
AcDbEllipse
 62
7
  6
CONTINUOUS
 10
23.3808480801
 20
0.0
 30
0.0
 11
177.2116504204
 21
0.0
 31
0.0
 40
0.2281338281
 41
-2.1044828395
 42
-2.0977535574
  0
ELLIPSE
  5
337
100
AcDbEntity
  8
ASSI
100
AcDbEllipse
 62
7
  6
CONTINUOUS
 10
-42.9963873025
 20
0.0
 30
0.0
 11
130.6217782649
 21
0.0
 31
0.0
 40
0.2679491924
 41
1.5922265385
 42
1.6001045615
  0
ELLIPSE
  5
338
100
AcDbEntity
  8
ASSI
100
AcDbEllipse
 62
7
  6
CONTINUOUS
 10
-42.9963873025
 20
0.0
 30
0.0
 11
130.6217782649
 21
0.0
 31
0.0
 40
0.2679491924
 41
-1.6001045615
 42
-1.5922265385
  0
ENDSEC
  0
SECTION
  2
OBJECTS
  0
DICTIONARY
  5
C
100
AcDbDictionary
280
0
281
1
  3
ACAD_GROUP
350
D
  3
ACAD_MLINESTYLE
350
17
  3
ACAD_LAYOUT
350
1A
  3
ACAD_PLOTSETTINGS
350
19
  3
ACAD_PLOTSTYLENAME
350
E
  0
DICTIONARY
  5
D
102
{ACAD_REACTORS
330
C
102
}
100
AcDbDictionary
280
0
281
1
  0
ACDBDICTIONARYWDFLT
  5
E
102
{ACAD_REACTORS
330
C
102
}
100
AcDbDictionary
281
1
  3
Normal
350
F
100
AcDbDictionaryWithDefault
340
F
  0
DICTIONARY
  5
17
102
{ACAD_REACTORS
330
C
102
}
100
AcDbDictionary
280
0
281
1
  3
Standard
350
18
  0
DICTIONARY
  5
19
102
{ACAD_REACTORS
330
C
102
}
100
AcDbDictionary
281
1
  0
DICTIONARY
  5
1A
102
{ACAD_REACTORS
330
C
102
}
100
AcDbDictionary
281
1
  3
Model
350
339
  3
Layout1
350
33A
  0
ACDBPLACEHOLDER
  5
F
102
{ACAD_REACTORS
330
E
102
}
  0
MLINESTYLE
  5
18
102
{ACAD_REACTORS
330
17
102
}
100
AcDbMlineStyle
  2
STANDARD
 70
0
  3

 62
256
 51
90.0
 52
90.0
 71
2
 49
0.5
 62
256
  6
BYLAYER
 49
-0.5
 62
256
  6
BYLAYER
  0
LAYOUT
  5
339
102
{ACAD_REACTORS
330
1A
102
}
100
AcDbPlotSettings
  1

  2
none_device
  4
ISO_A4_(297.00_x_210.00_MM)
  6

 40
0.0
 41
0.0
 42
0.0
 43
0.0
 44
297.0
 45
210.0
 46
0.0
 47
0.0
 48
0.0
 49
0.0
140
0.0
141
0.0
142
1.0
143
1.0
 70
1024
 72
1
 73
0
 74
0
  7

 75
0
147
1.0
148
0.0
149
0.0
100
AcDbLayout
  1
Model
 70
0
 71
0
 10
0.0
 20
0.0
 11
297.0
 21
210.0
 12
0.0
 22
0.0
 32
0.0
 14
0.0
 24
0.0
 34
0.0
 15
0.0
 25
0.0
 35
0.0
146
0.0
 13
0.0
 23
0.0
 33
0.0
 16
1.0
 26
0.0
 36
0.0
 17
0.0
 27
1.0
 37
0.0
 76
0
330
20B
345
0
346
0
  0
LAYOUT
  5
33A
102
{ACAD_REACTORS
330
1A
102
}
100
AcDbPlotSettings
  1

  2
none_device
  4
ISO_A4_(297.00_x_210.00_MM)
  6

 40
0.0
 41
0.0
 42
0.0
 43
0.0
 44
297.0
 45
210.0
 46
0.0
 47
0.0
 48
0.0
 49
0.0
140
0.0
141
0.0
142
1.0
143
1.0
 70
0
 72
1
 73
0
 74
0
  7

 75
0
147
1.0
148
0.0
149
0.0
100
AcDbLayout
  1
Layout1
 70
0
 71
1
 10
0.0
 20
0.0
 11
297.0
 21
210.0
 12
0.0
 22
0.0
 32
0.0
 14
0.0
 24
0.0
 34
0.0
 15
0.0
 25
0.0
 35
0.0
146
0.0
 13
0.0
 23
0.0
 33
0.0
 16
1.0
 26
0.0
 36
0.0
 17
0.0
 27
1.0
 37
0.0
 76
0
330
20C
345
0
346
0
  0
ENDSEC
  0
EOF
