  0
SECTION
  2
HEADER
  9
$ACADVER
  1
AC1015
  9
$DWGCODEPAGE
  3
ANSI_1252
  9
$EXTMAX
 10
297.0
 20
210.0
 30
0.0
  9
$EXTMIN
 10
0.0
 20
0.0
 30
0.0
  9
$LIMMIN
 10
0.0
 20
0.0
  9
$LIMMAX
 10
297.0
 20
210.0
  9
$VIEWCTR
 10
148.5
 20
105.0
  9
$VIEWSIZE
 40
210.0
  9
$CLAYER
  8
0
  9
$LTSCALE
 40
16.335
  9
$CELTYPE
  6
BYLAYER
  9
$DIMSCALE
 40
1.0
  9
$DIMASZ
 40
3.0
  9
$DIMEXO
 40
1.85625
  9
$DIMDLI
 40
11.286
  9
$DIMEXE
 40
5.346
  9
$DIMCEN
 40
2.673
  9
$DIMLFAC
 40
1.0
  9
$DIMBLK
  1
_FILLED
  9
$DIMTXT
 40
3.0
  9
$DIMTOL
 70
1
  9
$DIMLIM
 70
0
  9
$DIMTFAC
 40
1.0
  9
$DIMTP
 40
0.01
  9
$DIMTM
 40
0.01
  9
$PDMODE
 70
3
  9
$PDSIZE
 40
3.0
  9
$HANDSEED
  5
458
  9
$TILEMODE
 70
1
  9
$MEASUREMENT
 70
1
  9
$INSUNITS
 70
4
  0
ENDSEC
  0
SECTION
  2
CLASSES
  0
CLASS
  1
ACDBDICTIONARYWDFLT
  2
AcDbDictionaryWithDefault
  3
AutoCAD 2000
 90
0
280
0
281
0
  0
CLASS
  1
ACDBPLACEHOLDER
  2
AcDbPlaceHolder
  3
AutoCAD 2000
 90
0
280
0
281
0
  0
CLASS
  1
LAYOUT
  2
AcDbLayout
  3
AutoCAD 2000
 90
0
280
0
281
0
  0
ENDSEC
  0
SECTION
  2
TABLES
  0
TABLE
  2
VPORT
  5
8
100
AcDbSymbolTable
 70
2
  0
VPORT
  5
1F4
100
AcDbSymbolTableRecord
100
AcDbViewportTableRecord
  2
*ACTIVE
 70
0
 10
0.0
 20
0.0
 11
1.0
 21
1.0
 12
148.5
 22
105.0
 13
0.0
 23
0.0
 14
1.0
 24
1.0
 15
0.0
 25
0.0
 16
0.0
 26
0.0
 36
1.0
 17
0.0
 27
0.0
 37
0.0
 40
210.0
 41
1.4142857143
 42
50.0
 43
0.0
 44
0.0
 50
0.0
 51
0.0
 71
0
 72
100
 73
1
 74
1
 75
0
 76
0
 77
0
 78
0
  0
ENDTAB
  0
TABLE
  2
LTYPE
  5
5
100
AcDbSymbolTable
 70
6
  0
LTYPE
  5
14
100
AcDbSymbolTableRecord
100
AcDbLinetypeTableRecord
  2
BYBLOCK
 70
0
  3

 72
65
 73
0
 40
0.0
  0
LTYPE
  5
15
100
AcDbSymbolTableRecord
100
AcDbLinetypeTableRecord
  2
BYLAYER
 70
0
  3

 72
65
 73
0
 40
0.0
  0
LTYPE
  5
16
100
AcDbSymbolTableRecord
100
AcDbLinetypeTableRecord
  2
CONTINUOUS
 70
64
  3
Solid line
 72
65
 73
0
 40
0.0
  0
LTYPE
  5
1F5
100
AcDbSymbolTableRecord
100
AcDbLinetypeTableRecord
  2
CENTER
 70
64
  3
____ _ ____ _ ____ _ ____ _ ____ _ ____ _ ____
 72
65
 73
4
 40
0.6
 49
0.375
 74
0
 49
-0.075
 74
0
 49
0.075
 74
0
 49
-0.075
 74
0
  0
LTYPE
  5
1F6
100
AcDbSymbolTableRecord
100
AcDbLinetypeTableRecord
  2
HIDDEN
 70
64
  3
- - - - - - - - - - - - - - - - - - - -
 72
65
 73
2
 40
0.2
 49
0.1
 74
0
 49
-0.1
 74
0
  0
LTYPE
  5
1F7
100
AcDbSymbolTableRecord
100
AcDbLinetypeTableRecord
  2
PHANTOM
 70
64
  3
_____ _ _ _____ _ _ _____ _ _ _____
 72
65
 73
6
 40
0.8
 49
0.45
 74
0
 49
-0.05
 74
0
 49
0.1
 74
0
 49
-0.05
 74
0
 49
0.1
 74
0
 49
-0.05
 74
0
  0
LTYPE
  5
1F8
100
AcDbSymbolTableRecord
100
AcDbLinetypeTableRecord
  2
DOT
 70
64
  3
. . . . . . . . . . . . . . . . . . . .
 72
65
 73
2
 40
0.2
 49
0.1
 74
0
 49
-0.1
 74
0
  0
LTYPE
  5
1F9
100
AcDbSymbolTableRecord
100
AcDbLinetypeTableRecord
  2
DASHED
 70
64
  3
- - - - - - - - - - - - - - - - - - - -
 72
65
 73
2
 40
0.2
 49
0.1
 74
0
 49
-0.1
 74
0
  0
ENDTAB
  0
TABLE
  2
LAYER
  5
2
100
AcDbSymbolTable
 70
36
  0
LAYER
  5
10
100
AcDbSymbolTableRecord
100
AcDbLayerTableRecord
  2
0
 70
0
 62
7
  6
CONTINUOUS
370
-3
390
F
  0
LAYER
  5
1FA
100
AcDbSymbolTableRecord
100
AcDbLayerTableRecord
  2
DEFAULT_1
 70
0
 62
7
  6
CENTER
370
-3
390
F
  0
LAYER
  5
1FB
100
AcDbSymbolTableRecord
100
AcDbLayerTableRecord
  2
DEFAULT_2
 70
0
 62
7
  6
HIDDEN
370
-3
390
F
  0
LAYER
  5
1FC
100
AcDbSymbolTableRecord
100
AcDbLayerTableRecord
  2
DEFAULT_3
 70
0
 62
7
  6
PHANTOM
370
-3
390
F
  0
LAYER
  5
1FD
100
AcDbSymbolTableRecord
100
AcDbLayerTableRecord
  2
ASSI
 70
0
 62
7
  6
CONTINUOUS
370
-3
390
F
  0
LAYER
  5
1FE
100
AcDbSymbolTableRecord
100
AcDbLayerTableRecord
  2
COORDINATE
 70
0
 62
7
  6
CONTINUOUS
370
-3
390
F
  0
LAYER
  5
1FF
100
AcDbSymbolTableRecord
100
AcDbLayerTableRecord
  2
COORD_ORIGINE
 70
0
 62
7
  6
CONTINUOUS
370
-3
390
F
  0
LAYER
  5
200
100
AcDbSymbolTableRecord
100
AcDbLayerTableRecord
  2
COSMETICI
 70
0
 62
7
  6
CONTINUOUS
370
-3
390
F
  0
LAYER
  5
201
100
AcDbSymbolTableRecord
100
AcDbLayerTableRecord
  2
CURVE
 70
0
 62
7
  6
CONTINUOUS
370
-3
390
F
  0
LAYER
  5
202
100
AcDbSymbolTableRecord
100
AcDbLayerTableRecord
  2
IGES
 70
0
 62
7
  6
CONTINUOUS
370
-3
390
F
  0
LAYER
  5
203
100
AcDbSymbolTableRecord
100
AcDbLayerTableRecord
  2
NOTE
 70
0
 62
7
  6
CONTINUOUS
370
-3
390
F
  0
LAYER
  5
204
100
AcDbSymbolTableRecord
100
AcDbLayerTableRecord
  2
PIANI
 70
0
 62
7
  6
CONTINUOUS
370
-3
390
F
  0
LAYER
  5
205
100
AcDbSymbolTableRecord
100
AcDbLayerTableRecord
  2
PIANI_ORIGINE
 70
0
 62
7
  6
CONTINUOUS
370
-3
390
F
  0
LAYER
  5
206
100
AcDbSymbolTableRecord
100
AcDbLayerTableRecord
  2
PUNTI
 70
0
 62
7
  6
CONTINUOUS
370
-3
390
F
  0
LAYER
  5
207
100
AcDbSymbolTableRecord
100
AcDbLayerTableRecord
  2
RACCORDO
 70
0
 62
7
  6
CONTINUOUS
370
-3
390
F
  0
LAYER
  5
208
100
AcDbSymbolTableRecord
100
AcDbLayerTableRecord
  2
SIMBOLI
 70
0
 62
7
  6
CONTINUOUS
370
-3
390
F
  0
LAYER
  5
209
100
AcDbSymbolTableRecord
100
AcDbLayerTableRecord
  2
SNAPLINE
 70
0
 62
7
  6
CONTINUOUS
370
-3
390
F
  0
LAYER
  5
20A
100
AcDbSymbolTableRecord
100
AcDbLayerTableRecord
  2
SUPERFICI
 70
0
 62
7
  6
CONTINUOUS
370
-3
390
F
  0
LAYER
  5
20B
100
AcDbSymbolTableRecord
100
AcDbLayerTableRecord
  2
TRASH
 70
0
 62
7
  6
CONTINUOUS
370
-3
390
F
  0
LAYER
  5
20C
100
AcDbSymbolTableRecord
100
AcDbLayerTableRecord
  2
XSEC_DATUMS
 70
0
 62
7
  6
CONTINUOUS
370
-3
390
F
  0
ENDTAB
  0
TABLE
  2
STYLE
  5
3
100
AcDbSymbolTable
 70
1
  0
STYLE
  5
11
100
AcDbSymbolTableRecord
100
AcDbTextStyleTableRecord
  2
STANDARD
 70
0
 40
0.0
 41
0.8
 50
0.0
 71
0
 42
0.2
  3
txt
  4

  0
STYLE
  5
20D
100
AcDbSymbolTableRecord
100
AcDbTextStyleTableRecord
  2
TEXTSTYLE_1
 70
0
 40
0.0
 41
0.8
 50
0.0
 71
0
 42
0.2
  3
gdt
  4

  0
ENDTAB
  0
TABLE
  2
VIEW
  5
6
100
AcDbSymbolTable
 70
0
  0
ENDTAB
  0
TABLE
  2
UCS
  5
7
100
AcDbSymbolTable
 70
0
  0
ENDTAB
  0
TABLE
  2
APPID
  5
9
100
AcDbSymbolTable
 70
1
  0
APPID
  5
20E
100
AcDbSymbolTableRecord
100
AcDbRegAppTableRecord
  2
ACAD
 70
0
  0
ENDTAB
  0
TABLE
  2
BLOCK_RECORD
  5
1
100
AcDbSymbolTable
 70
0
  0
BLOCK_RECORD
  5
20F
100
AcDbSymbolTableRecord
100
AcDbBlockTableRecord
  2
*Model_Space
  0
BLOCK_RECORD
  5
210
100
AcDbSymbolTableRecord
100
AcDbBlockTableRecord
  2
*Paper_Space
  0
BLOCK_RECORD
  5
211
100
AcDbSymbolTableRecord
100
AcDbBlockTableRecord
  2
_FILLED
  0
BLOCK_RECORD
  5
212
100
AcDbSymbolTableRecord
100
AcDbBlockTableRecord
  2
*D0
  0
BLOCK_RECORD
  5
213
100
AcDbSymbolTableRecord
100
AcDbBlockTableRecord
  2
*D1
  0
BLOCK_RECORD
  5
214
100
AcDbSymbolTableRecord
100
AcDbBlockTableRecord
  2
*D2
  0
ENDTAB
  0
TABLE
  2
DIMSTYLE
  5
A
100
AcDbSymbolTable
 70
1
100
AcDbDimStyleTable
 71
0
  0
DIMSTYLE
105
215
100
AcDbSymbolTableRecord
100
AcDbDimStyleTableRecord
  2
STANDARD
 70
0
  3

  4

 40
1.0
 41
3.0
 42
0.0625
 43
0.38
 44
0.18
 45
0.0
 46
0.0
 47
0.01
 48
0.01
140
3.0
141
0.09
142
0.0
143
25.4
144
1.0
145
0.0
146
1.0
147
0.09
 71
1.0
 72
0.0
 73
0
 74
0
 75
0
 76
0
 77
1
 78
8
170
0
171
2
172
0
173
0
174
0
175
0
176
0
177
0
178
0
270
2
271
2
272
2
273
2
274
2
275
0
280
0
281
0
282
0
283
1
284
8
285
0
286
0
287
3
288
0
340
11
341
211
342
211
343
211
344
211
  0
DIMSTYLE
105
216
100
AcDbSymbolTableRecord
100
AcDbDimStyleTableRecord
  2
DIMSTYLE_1
 70
0
  3

  4

 40
1.0
 41
3.0
 42
0.0625
 43
0.38
 44
0.18
 45
0.0
 46
0.0
 47
0.0
 48
0.0
140
3.0
141
0.09
142
0.0
143
25.4
144
1.0
145
0.0
146
1.0
147
0.09
 71
0.0
 72
0.0
 73
0
 74
0
 75
0
 76
0
 77
1
 78
8
170
0
171
2
172
0
173
0
174
0
175
0
176
0
177
0
178
0
270
2
271
2
272
2
273
2
274
2
275
0
280
0
281
0
282
0
283
1
284
8
285
0
286
0
287
3
288
0
340
11
341
211
342
211
343
211
344
211
  0
ENDTAB
  0
ENDSEC
  0
SECTION
  2
BLOCKS
  0
BLOCK
  5
20
100
AcDbEntity
  8
0
100
AcDbBlockBegin
  2
*Model_Space
 70
0
 10
0.0
 20
0.0
 30
0.0
  3
*Model_Space
  1

  0
ENDBLK
  5
21
100
AcDbEntity
  8
0
100
AcDbBlockEnd
  0
BLOCK
  5
1C
100
AcDbEntity
  8
0
100
AcDbBlockBegin
  2
*Paper_Space
 70
0
 10
0.0
 20
0.0
 30
0.0
  3
*Paper_Space
  1

  0
ENDBLK
  5
1D
100
AcDbEntity
  8
0
100
AcDbBlockEnd
  0
BLOCK
  5
217
100
AcDbEntity
  8
0
100
AcDbBlockBegin
  2
_FILLED
 70
64
 10
0.0
 20
0.0
  3
_FILLED
  1

  0
SOLID
  5
218
100
AcDbEntity
  8
0
  6
BYBLOCK
 62
0
100
AcDbTrace
 10
0.0
 20
0.0
 11
-1.0
 21
0.3166666667
 12
-1.0
 22
-0.3166666667
 13
-1.0
 23
-0.3166666667
  0
ENDBLK
  5
219
100
AcDbEntity
  8
0
  6
BYBLOCK
 62
0
100
AcDbBlockEnd
  0
BLOCK
  5
21A
100
AcDbEntity
  8
0
100
AcDbBlockBegin
 62
7
  6
CONTINUOUS
  2
*D0
 70
65
 10
0.0
 20
0.0
  3
*D0
  1

  0
LINE
  5
21B
100
AcDbEntity
  8
0
100
AcDbLine
 62
7
  6
CONTINUOUS
 10
-75.6238473583
 20
23.2391793547
 11
-75.6238473583
 21
41.2661965161
  0
LINE
  5
21C
100
AcDbEntity
  8
0
100
AcDbLine
 62
7
  6
CONTINUOUS
 10
47.3761526417
 20
23.2391793547
 11
47.3761526417
 21
41.2661965161
  0
LINE
  5
21D
100
AcDbEntity
  8
0
100
AcDbLine
 62
7
  6
CONTINUOUS
 10
-75.6238473583
 20
39.7661965161
 11
-14.1238473583
 21
39.7661965161
  0
LINE
  5
21E
100
AcDbEntity
  8
0
100
AcDbLine
 62
7
  6
CONTINUOUS
 10
47.3761526417
 20
39.7661965161
 11
-14.1238473583
 21
39.7661965161
  0
INSERT
  5
21F
100
AcDbEntity
  8
0
100
AcDbBlockReference
 62
7
  6
CONTINUOUS
  2
_FILLED
 10
-75.6238473583
 20
39.7661965161
 41
3.0
 42
3.0
 43
3.0
 50
180.0
  0
INSERT
  5
220
100
AcDbEntity
  8
0
100
AcDbBlockReference
 62
7
  6
CONTINUOUS
  2
_FILLED
 10
47.3761526417
 20
39.7661965161
 41
3.0
 42
3.0
 43
3.0
  0
ENDBLK
  5
221
100
AcDbEntity
  8
0
  6
BYBLOCK
 62
0
100
AcDbBlockEnd
  0
BLOCK
  5
222
100
AcDbEntity
  8
0
100
AcDbBlockBegin
 62
7
  6
CONTINUOUS
  2
*D1
 70
65
 10
0.0
 20
0.0
  3
*D1
  1

  0
LINE
  5
223
100
AcDbEntity
  8
0
100
AcDbLine
 62
7
  6
CONTINUOUS
 10
25.6970479341
 20
31.7661965161
 11
56.8761526425
 21
31.7661965161
  0
LINE
  5
224
100
AcDbEntity
  8
0
100
AcDbLine
 62
7
  6
CONTINUOUS
 10
45.876517698
 20
-15.2338034839
 11
56.8761526425
 21
-15.2338034839
  0
LINE
  5
225
100
AcDbEntity
  8
0
100
AcDbLine
 62
7
  6
CONTINUOUS
 10
55.3761526425
 20
31.7661965161
 11
55.3761526425
 21
8.2661965161
  0
LINE
  5
226
100
AcDbEntity
  8
0
100
AcDbLine
 62
7
  6
CONTINUOUS
 10
55.3761526425
 20
-15.2338034839
 11
55.3761526425
 21
8.2661965161
  0
INSERT
  5
227
100
AcDbEntity
  8
0
100
AcDbBlockReference
 62
7
  6
CONTINUOUS
  2
_FILLED
 10
55.3761526425
 20
31.7661965161
 41
3.0
 42
3.0
 43
3.0
 50
90.0
  0
INSERT
  5
228
100
AcDbEntity
  8
0
100
AcDbBlockReference
 62
7
  6
CONTINUOUS
  2
_FILLED
 10
55.3761526425
 20
-15.2338034839
 41
3.0
 42
3.0
 43
3.0
 50
270.0
  0
ENDBLK
  5
229
100
AcDbEntity
  8
0
  6
BYBLOCK
 62
0
100
AcDbBlockEnd
  0
BLOCK
  5
22A
100
AcDbEntity
  8
0
100
AcDbBlockBegin
 62
7
  6
CONTINUOUS
  2
*D2
 70
65
 10
0.0
 20
0.0
  3
*D2
  1

  0
LINE
  5
22B
100
AcDbEntity
  8
0
100
AcDbLine
 62
7
  6
CONTINUOUS
 10
100.7526013514
 20
31.5875903209
 11
100.7526013514
 21
41.2661965161
  0
LINE
  5
22C
100
AcDbEntity
  8
0
100
AcDbLine
 62
7
  6
CONTINUOUS
 10
102.7526013514
 20
31.5875903209
 11
102.7526013514
 21
41.2661965161
  0
LINE
  5
22D
100
AcDbEntity
  8
0
100
AcDbLine
 62
7
  6
CONTINUOUS
 10
100.7526013514
 20
39.7661965161
 11
92.7125790763
 21
39.7661965161
  0
LINE
  5
22E
100
AcDbEntity
  8
0
100
AcDbLine
 62
7
  6
CONTINUOUS
 10
92.7125790763
 20
39.7661965161
 11
101.7526013514
 21
39.7661965161
  0
LINE
  5
22F
100
AcDbEntity
  8
0
100
AcDbLine
 62
7
  6
CONTINUOUS
 10
102.7526013514
 20
39.7661965161
 11
106.7526013514
 21
39.7661965161
  0
LINE
  5
230
100
AcDbEntity
  8
0
100
AcDbLine
 62
7
  6
CONTINUOUS
 10
106.7526013514
 20
39.7661965161
 11
101.7526013514
 21
39.7661965161
  0
INSERT
  5
231
100
AcDbEntity
  8
0
100
AcDbBlockReference
 62
7
  6
CONTINUOUS
  2
_FILLED
 10
100.7526013514
 20
39.7661965161
 41
3.0
 42
3.0
 43
3.0
  0
INSERT
  5
232
100
AcDbEntity
  8
0
100
AcDbBlockReference
 62
7
  6
CONTINUOUS
  2
_FILLED
 10
102.7526013514
 20
39.7661965161
 41
3.0
 42
3.0
 43
3.0
 50
180.0
  0
ENDBLK
  5
233
100
AcDbEntity
  8
0
  6
BYBLOCK
 62
0
100
AcDbBlockEnd
  0
ENDSEC
  0
SECTION
  2
ENTITIES
  0
DIMENSION
  5
234
100
AcDbEntity
  8
0
100
AcDbDimension
 62
7
  6
CONTINUOUS
  2
*D0
 10
47.3761526417
 20
39.7661965161
 11
-17.2309902154
 21
40.5161965161
 70
160
 71
2
 42
123.0
  3
DIMSTYLE_1
100
AcDbAlignedDimension
 13
-75.6238473583
 23
23.2391793547
 14
47.3761526417
 24
23.2391793547
100
AcDbRotatedDimension
  0
DIMENSION
  5
235
100
AcDbEntity
  8
0
100
AcDbDimension
 62
7
  6
CONTINUOUS
  2
*D1
 10
55.3761526425
 20
-15.2338034839
 11
54.6261526425
 21
5.9090536589
 70
160
 71
2
 42
47.0
  3
DIMSTYLE_1
100
AcDbAlignedDimension
 13
25.6970479341
 23
31.7661965161
 14
45.876517698
 24
-15.2338034839
 50
270.0
100
AcDbRotatedDimension
  0
DIMENSION
  5
236
100
AcDbEntity
  8
0
100
AcDbDimension
 62
7
  6
CONTINUOUS
  2
*D2
 10
102.7526013514
 20
39.7661965161
 11
92.7125790763
 21
40.5161965161
 70
160
 71
3
 42
2.0
  3
DIMSTYLE_1
100
AcDbAlignedDimension
 13
100.7526013514
 23
31.5875903209
 14
102.7526013514
 24
31.5875903209
100
AcDbRotatedDimension
  0
LINE
  5
237
100
AcDbEntity
  8
0
100
AcDbLine
 62
7
  6
CONTINUOUS
 10
-75.6238473583
 20
22.7391793547
 11
-74.6238473583
 21
-14.2608206453
  0
LINE
  5
238
100
AcDbEntity
  8
0
100
AcDbLine
 62
253
  6
CONTINUOUS
 10
-75.1240298734
 20
22.7526879354
 11
-74.1240298734
 21
-14.2473120646
  0
LINE
  5
239
100
AcDbEntity
  8
0
100
AcDbLine
 62
253
  6
CONTINUOUS
 10
-74.6242123884
 20
23.2661965161
 11
-74.6242124167
 21
23.7661965161
  0
LINE
  5
23A
100
AcDbEntity
  8
0
100
AcDbLine
 62
253
  6
CONTINUOUS
 10
-73.6242123884
 20
-14.7338034839
 11
-73.6242123884
 21
-15.2338034839
  0
LINE
  5
23B
100
AcDbEntity
  8
0
100
AcDbLine
 62
253
  6
CONTINUOUS
 10
-63.3238473583
 20
-11.6338034839
 11
-63.3238473583
 21
-9.6338034839
  0
LINE
  5
23C
100
AcDbEntity
  8
0
100
AcDbLine
 62
7
  6
CONTINUOUS
 10
-62.8238473583
 20
-11.6338034839
 11
-62.8238473583
 21
-9.6338034839
  0
LINE
  5
23D
100
AcDbEntity
  8
0
100
AcDbLine
 62
253
  6
CONTINUOUS
 10
-62.3238473583
 20
-8.6338034839
 11
-62.3238473583
 21
-9.1338034839
  0
LINE
  5
23E
100
AcDbEntity
  8
0
100
AcDbLine
 62
253
  6
CONTINUOUS
 10
-62.3238473583
 20
-12.6338034839
 11
-62.3238473581
 21
-12.1338034839
  0
LINE
  5
23F
100
AcDbEntity
  8
0
100
AcDbLine
 62
253
  6
CONTINUOUS
 10
-61.5564626746
 20
23.2661965161
 11
-61.5564626746
 21
23.7661965161
  0
LINE
  5
240
100
AcDbEntity
  8
0
100
AcDbLine
 62
7
  6
CONTINUOUS
 10
-58.1238473583
 20
0.6661965161
 11
-58.1238473583
 21
-2.2338034839
  0
LINE
  5
241
100
AcDbEntity
  8
0
100
AcDbLine
 62
7
  6
CONTINUOUS
 10
-57.7441973583
 20
-2.2338034839
 11
-57.7441973583
 21
0.1978345161
  0
LINE
  5
242
100
AcDbEntity
  8
0
100
AcDbLine
 62
7
  6
CONTINUOUS
 10
-54.2107870938
 20
31.4089841258
 11
-60.0243737884
 21
24.4806212967
  0
LINE
  5
243
100
AcDbEntity
  8
0
100
AcDbLine
 62
253
  6
CONTINUOUS
 10
-53.8277648723
 20
31.0875903209
 11
-59.6413515668
 21
24.1592274919
  0
LINE
  5
244
100
AcDbEntity
  8
0
100
AcDbLine
 62
7
  6
CONTINUOUS
 10
-56.7303853583
 20
-1.7974064839
 11
-57.5624023583
 21
0.6661965161
  0
LINE
  5
245
100
AcDbEntity
  8
0
100
AcDbLine
 62
7
  6
CONTINUOUS
 10
-57.7441973583
 20
0.1978345161
 11
-56.9282503583
 21
-2.2338034839
  0
LINE
  5
246
100
AcDbEntity
  8
0
100
AcDbLine
 62
253
  6
CONTINUOUS
 10
-56.9238473583
 20
-8.6338034839
 11
-56.9238473585
 21
-9.1338034839
  0
LINE
  5
247
100
AcDbEntity
  8
0
100
AcDbLine
 62
253
  6
CONTINUOUS
 10
-56.9238473583
 20
-12.6338034839
 11
-56.9238473583
 21
-12.1338034839
  0
LINE
  5
248
100
AcDbEntity
  8
0
100
AcDbLine
 62
7
  6
CONTINUOUS
 10
-56.4238473583
 20
-9.6338034839
 11
-56.4238473583
 21
-11.6338034839
  0
LINE
  5
249
100
AcDbEntity
  8
0
100
AcDbLine
 62
253
  6
CONTINUOUS
 10
-55.9238473583
 20
-9.6338034839
 11
-55.9238473583
 21
-11.6338034839
  0
LINE
  5
24A
100
AcDbEntity
  8
0
100
AcDbLine
 62
7
  6
CONTINUOUS
 10
-55.7247003583
 20
0.2018215161
 11
-55.7247003583
 21
-2.2338034839
  0
LINE
  5
24B
100
AcDbEntity
  8
0
100
AcDbLine
 62
7
  6
CONTINUOUS
 10
-55.3448973583
 20
-2.2338034839
 11
-55.3448973583
 21
0.6661965161
  0
LINE
  5
24C
100
AcDbEntity
  8
0
100
AcDbLine
 62
253
  6
CONTINUOUS
 10
-53.4447426507
 20
31.2661965161
 11
-53.444742679
 21
31.7661965161
  0
LINE
  5
24D
100
AcDbEntity
  8
0
100
AcDbLine
 62
7
  6
CONTINUOUS
 10
-52.4125793583
 20
-2.2338034839
 11
-53.4626763583
 21
0.6661965161
  0
LINE
  5
24E
100
AcDbEntity
  8
0
100
AcDbLine
 62
7
  6
CONTINUOUS
 10
-53.1275053583
 20
-1.3897194839
 11
-52.8407653583
 21
-2.2338034839
  0
LINE
  5
24F
100
AcDbEntity
  8
0
100
AcDbLine
 62
7
  6
CONTINUOUS
 10
-53.7008203583
 20
0.2455555161
 11
-53.2687653583
 21
-1.0423764839
  0
LINE
  5
250
100
AcDbEntity
  8
0
100
AcDbLine
 62
7
  6
CONTINUOUS
 10
-52.0329403583
 20
0.6661965161
 11
-52.0329403583
 21
-2.2338034839
  0
LINE
  5
251
100
AcDbEntity
  8
0
100
AcDbLine
 62
7
  6
CONTINUOUS
 10
-51.6410353583
 20
-1.8986554839
 11
-51.6410353583
 21
0.3310485161
  0
LINE
  5
252
100
AcDbEntity
  8
0
100
AcDbLine
 62
7
  6
CONTINUOUS
 10
-49.0964703583
 20
0.6661965161
 11
-49.0964703583
 21
-2.2338034839
  0
LINE
  5
253
100
AcDbEntity
  8
0
100
AcDbLine
 62
7
  6
CONTINUOUS
 10
-48.7045893583
 20
-1.8864604839
 11
-48.7045893583
 21
-0.9171354839
  0
LINE
  5
254
100
AcDbEntity
  8
0
100
AcDbLine
 62
7
  6
CONTINUOUS
 10
-48.7045893583
 20
-0.5697924839
 11
-48.7045893583
 21
0.3188535161
  0
LINE
  5
255
100
AcDbEntity
  8
0
100
AcDbLine
 62
7
  6
CONTINUOUS
 10
-56.5404903583
 20
-2.2338034839
 11
-55.7247003583
 21
0.2018215161
  0
LINE
  5
256
100
AcDbEntity
  8
0
100
AcDbLine
 62
7
  6
CONTINUOUS
 10
-55.9023593583
 20
0.6661965161
 11
-56.7303853583
 21
-1.7974064839
  0
LINE
  5
257
100
AcDbEntity
  8
0
100
AcDbLine
 62
7
  6
CONTINUOUS
 10
-54.5936653583
 20
-2.2338034839
 11
-54.2906953583
 21
-1.3897194839
  0
LINE
  5
258
100
AcDbEntity
  8
0
100
AcDbLine
 62
7
  6
CONTINUOUS
 10
-53.9070463583
 20
0.6661965161
 11
-54.9975303583
 21
-2.2338034839
  0
LINE
  5
259
100
AcDbEntity
  8
0
100
AcDbLine
 62
7
  6
CONTINUOUS
 10
-47.1172473583
 20
-0.9171354839
 11
-47.1172473583
 21
-0.5697924839
  0
LINE
  5
25A
100
AcDbEntity
  8
0
100
AcDbLine
 62
7
  6
CONTINUOUS
 10
-46.9839613583
 20
0.3188535161
 11
-46.9839613583
 21
0.6661965161
  0
LINE
  5
25B
100
AcDbEntity
  8
0
100
AcDbLine
 62
7
  6
CONTINUOUS
 10
-46.9556533583
 20
-2.2338034839
 11
-46.9556533583
 21
-1.8864604839
  0
LINE
  5
25C
100
AcDbEntity
  8
0
100
AcDbLine
 62
7
  6
CONTINUOUS
 10
-45.2591833583
 20
0.6661965161
 11
-45.2591833583
 21
-2.2338034839
  0
LINE
  5
25D
100
AcDbEntity
  8
0
100
AcDbLine
 62
7
  6
CONTINUOUS
 10
-44.8674193583
 20
-2.2338034839
 11
-44.8674193583
 21
0.6661965161
  0
LINE
  5
25E
100
AcDbEntity
  8
0
100
AcDbLine
 62
253
  6
CONTINUOUS
 10
-44.8238473583
 20
-11.6338034839
 11
-44.8238473583
 21
-9.6338034839
  0
LINE
  5
25F
100
AcDbEntity
  8
0
100
AcDbLine
 62
7
  6
CONTINUOUS
 10
-44.7122773583
 20
7.2767445161
 11
-44.7122773583
 21
6.8600795161
  0
LINE
  5
260
100
AcDbEntity
  8
0
100
AcDbLine
 62
7
  6
CONTINUOUS
 10
-44.6986703583
 20
10.6558995161
 11
-44.6986703583
 21
10.2369425161
  0
LINE
  5
261
100
AcDbEntity
  8
0
100
AcDbLine
 62
7
  6
CONTINUOUS
 10
-44.3430223583
 20
10.2369425161
 11
-44.3430223583
 21
9.1745835161
  0
LINE
  5
262
100
AcDbEntity
  8
0
100
AcDbLine
 62
7
  6
CONTINUOUS
 10
-44.3430223583
 20
8.6582275161
 11
-44.3430223583
 21
7.2767445161
  0
LINE
  5
263
100
AcDbEntity
  8
0
100
AcDbLine
 62
7
  6
CONTINUOUS
 10
-44.3238473583
 20
-11.6338034839
 11
-44.3238473583
 21
-9.6338034839
  0
LINE
  5
264
100
AcDbEntity
  8
0
100
AcDbLine
 62
7
  6
CONTINUOUS
 10
-54.1694883583
 20
-1.0423764839
 11
-53.7008203583
 21
0.2455555161
  0
LINE
  5
265
100
AcDbEntity
  8
0
100
AcDbLine
 62
7
  6
CONTINUOUS
 10
-44.1970303583
 20
0.6661965161
 11
-44.1970303583
 21
-2.2338034839
  0
LINE
  5
266
100
AcDbEntity
  8
0
100
AcDbLine
 62
7
  6
CONTINUOUS
 10
-43.8991433583
 20
7.2767445161
 11
-43.8991433583
 21
8.6628875161
  0
LINE
  5
267
100
AcDbEntity
  8
0
100
AcDbLine
 62
7
  6
CONTINUOUS
 10
-43.8991433583
 20
9.1745835161
 11
-43.8991433583
 21
10.2369425161
  0
LINE
  5
268
100
AcDbEntity
  8
0
100
AcDbLine
 62
253
  6
CONTINUOUS
 10
-43.8238473583
 20
-8.6338034839
 11
-43.8238473583
 21
-9.1338034839
  0
LINE
  5
269
100
AcDbEntity
  8
0
100
AcDbLine
 62
253
  6
CONTINUOUS
 10
-43.8238473583
 20
-12.6338034839
 11
-43.8238473581
 21
-12.1338034839
  0
LINE
  5
26A
100
AcDbEntity
  8
0
100
AcDbLine
 62
7
  6
CONTINUOUS
 10
-43.8172043583
 20
-2.2338034839
 11
-43.8172043583
 21
0.1213435161
  0
LINE
  5
26B
100
AcDbEntity
  8
0
100
AcDbLine
 62
7
  6
CONTINUOUS
 10
-43.5436383583
 20
10.2369425161
 11
-43.5436383583
 21
10.6558995161
  0
LINE
  5
26C
100
AcDbEntity
  8
0
100
AcDbLine
 62
7
  6
CONTINUOUS
 10
-43.5300313583
 20
6.8600795161
 11
-43.5300313583
 21
7.2767445161
  0
LINE
  5
26D
100
AcDbEntity
  8
0
100
AcDbLine
 62
7
  6
CONTINUOUS
 10
-42.2742353583
 20
0.6661965161
 11
-42.2742353583
 21
-1.6894274839
  0
LINE
  5
26E
100
AcDbEntity
  8
0
100
AcDbLine
 62
7
  6
CONTINUOUS
 10
-41.8945963583
 20
-2.2338034839
 11
-41.8945963583
 21
0.6661965161
  0
LINE
  5
26F
100
AcDbEntity
  8
0
100
AcDbLine
 62
7
  6
CONTINUOUS
 10
-40.0972763583
 20
0.6661965161
 11
-40.0972763583
 21
-2.2338034839
  0
LINE
  5
270
100
AcDbEntity
  8
0
100
AcDbLine
 62
7
  6
CONTINUOUS
 10
-45.088523182
 20
7.0474558302
 11
-44.8967264219
 21
7.3891744029
  0
LWPOLYLINE
  5
271
100
AcDbEntity
  8
0
100
AcDbPolyline
 62
7
  6
CONTINUOUS
 90
3
 70
0
 43
0.3500000006
 10
-17.2309907112
 20
42.6590537567
 10
-16.3738471069
 20
43.516196228
 10
-16.3738471069
 20
40.5161953125
  0
LWPOLYLINE
  5
272
100
AcDbEntity
  8
0
100
AcDbPolyline
 62
7
  6
CONTINUOUS
 90
5
 70
0
 43
0.3500000006
 10
-12.3024192352
 20
42.2304802551
 10
-11.9452757835
 20
42.4447692719
 10
-11.9452757835
 20
43.0876272583
 10
-12.3024192352
 20
43.516196228
 10
-13.1595617065
 20
43.516196228
  0
LINE
  5
273
100
AcDbEntity
  8
0
100
AcDbLine
 62
7
  6
CONTINUOUS
 10
-43.8172043583
 20
0.1213435161
 11
-42.3348383583
 21
-2.2338034839
  0
LINE
  5
274
100
AcDbEntity
  8
0
100
AcDbLine
 62
7
  6
CONTINUOUS
 10
-42.2742353583
 20
-1.6894274839
 11
-43.7324433583
 21
0.6661965161
  0
LINE
  5
275
100
AcDbEntity
  8
0
100
AcDbLine
 62
7
  6
CONTINUOUS
 10
-43.3509683583
 20
7.3891745161
 11
-43.1591713583
 21
7.0474555161
  0
LINE
  5
276
100
AcDbEntity
  8
0
100
AcDbLine
 62
7
  6
CONTINUOUS
 10
-39.7053953583
 20
-2.2338034839
 11
-39.7053953583
 21
0.6661965161
  0
LINE
  5
277
100
AcDbEntity
  8
0
100
AcDbLine
 62
7
  6
CONTINUOUS
 10
-39.2853233583
 20
0.6661965161
 11
-39.2853233583
 21
0.3188535161
  0
LINE
  5
278
100
AcDbEntity
  8
0
100
AcDbLine
 62
253
  6
CONTINUOUS
 10
-38.4238473583
 20
-8.6338034839
 11
-38.4238473585
 21
-9.1338034839
  0
LINE
  5
279
100
AcDbEntity
  8
0
100
AcDbLine
 62
253
  6
CONTINUOUS
 10
-38.4238473583
 20
-12.6338034839
 11
-38.4238473583
 21
-12.1338034839
  0
LINE
  5
27A
100
AcDbEntity
  8
0
100
AcDbLine
 62
7
  6
CONTINUOUS
 10
-38.3038033583
 20
0.3188535161
 11
-38.3038033583
 21
-2.2338034839
  0
LINE
  5
27B
100
AcDbEntity
  8
0
100
AcDbLine
 62
7
  6
CONTINUOUS
 10
-37.9238473583
 20
-9.6338034839
 11
-37.9238473583
 21
-11.6338034839
  0
LINE
  5
27C
100
AcDbEntity
  8
0
100
AcDbLine
 62
7
  6
CONTINUOUS
 10
-37.9120633583
 20
-2.2338034839
 11
-37.9120633583
 21
0.3188535161
  0
LINE
  5
27D
100
AcDbEntity
  8
0
100
AcDbLine
 62
253
  6
CONTINUOUS
 10
-37.4238473583
 20
-9.6338034839
 11
-37.4238473583
 21
-11.6338034839
  0
LINE
  5
27E
100
AcDbEntity
  8
0
100
AcDbLine
 62
7
  6
CONTINUOUS
 10
-36.9305423583
 20
0.3188535161
 11
-36.9305423583
 21
0.6661965161
  0
LINE
  5
27F
100
AcDbEntity
  8
0
100
AcDbLine
 62
7
  6
CONTINUOUS
 10
-42.6149153583
 20
5.5371785161
 11
-42.3974873583
 21
5.8454165161
  0
LINE
  5
280
100
AcDbEntity
  8
0
100
AcDbLine
 62
7
  6
CONTINUOUS
 10
-73.6242123884
 20
-15.2338034839
 11
-24.1238473583
 21
-15.2338034839
  0
LINE
  5
281
100
AcDbEntity
  8
0
100
AcDbLine
 62
7
  6
CONTINUOUS
 10
-4.1238473583
 20
-15.2338034839
 11
45.3765176718
 21
-15.2338034839
  0
LINE
  5
282
100
AcDbEntity
  8
0
100
AcDbLine
 62
253
  6
CONTINUOUS
 10
-73.6242123884
 20
-14.7338034839
 11
-24.3309541395
 21
-14.7338034839
  0
LINE
  5
283
100
AcDbEntity
  8
0
100
AcDbLine
 62
253
  6
CONTINUOUS
 10
-3.9167405771
 20
-14.7338034839
 11
45.3765176718
 21
-14.7338034839
  0
LINE
  5
284
100
AcDbEntity
  8
0
100
AcDbLine
 62
7
  6
CONTINUOUS
 10
-22.1238473583
 20
-13.2338034839
 11
-6.1238473583
 21
-13.2338034839
  0
LINE
  5
285
100
AcDbEntity
  8
0
100
AcDbLine
 62
7
  6
CONTINUOUS
 10
-34.2322873583
 20
-2.2338034839
 11
-35.2825963583
 21
0.6661965161
  0
LINE
  5
286
100
AcDbEntity
  8
0
100
AcDbLine
 62
7
  6
CONTINUOUS
 10
-34.9473083583
 20
-1.3897194839
 11
-34.6605453583
 21
-2.2338034839
  0
LINE
  5
287
100
AcDbEntity
  8
0
100
AcDbLine
 62
7
  6
CONTINUOUS
 10
-35.5207873583
 20
0.2455555161
 11
-35.0887083583
 21
-1.0423764839
  0
LINE
  5
288
100
AcDbEntity
  8
0
100
AcDbLine
 62
7
  6
CONTINUOUS
 10
-33.8729833583
 20
0.6661965161
 11
-33.8729833583
 21
-2.2338034839
  0
LINE
  5
289
100
AcDbEntity
  8
0
100
AcDbLine
 62
7
  6
CONTINUOUS
 10
-33.4810783583
 20
-1.8864604839
 11
-33.4810783583
 21
0.6661965161
  0
LINE
  5
28A
100
AcDbEntity
  8
0
100
AcDbLine
 62
7
  6
CONTINUOUS
 10
-32.0107913583
 20
-2.2338034839
 11
-32.0107913583
 21
-1.8864604839
  0
LINE
  5
28B
100
AcDbEntity
  8
0
100
AcDbLine
 62
7
  6
CONTINUOUS
 10
-26.7939613583
 20
28.0666255161
 11
-28.6289043583
 21
22.3513695161
  0
LINE
  5
28C
100
AcDbEntity
  8
0
100
AcDbLine
 62
7
  6
CONTINUOUS
 10
-36.4136083583
 20
-2.2338034839
 11
-36.1106153583
 21
-1.3897194839
  0
LINE
  5
28D
100
AcDbEntity
  8
0
100
AcDbLine
 62
7
  6
CONTINUOUS
 10
-35.9894323583
 20
-1.0423764839
 11
-35.5207873583
 21
0.2455555161
  0
LINE
  5
28E
100
AcDbEntity
  8
0
100
AcDbLine
 62
7
  6
CONTINUOUS
 10
-35.7268253583
 20
0.6661965161
 11
-36.8174503583
 21
-2.2338034839
  0
LINE
  5
28F
100
AcDbEntity
  8
0
100
AcDbLine
 62
7
  6
CONTINUOUS
 10
-42.730067971
 20
10.1597708425
 11
-43.8991433583
 21
9.1745835161
  0
LINE
  5
290
100
AcDbEntity
  8
0
100
AcDbLine
 62
7
  6
CONTINUOUS
 10
-43.8991433583
 20
8.6628875161
 11
-42.784311461
 21
9.6023634295
  0
LINE
  5
291
100
AcDbEntity
  8
0
100
AcDbLine
 62
7
  6
CONTINUOUS
 10
19.8115690779
 20
-1.8635907189
 11
19.5699026417
 21
-1.9252928392
  0
LINE
  5
292
100
AcDbEntity
  8
0
100
AcDbLine
 62
7
  6
CONTINUOUS
 10
17.1532362055
 20
-1.8635907189
 11
16.9115690779
 21
-1.9252928392
  0
LINE
  5
293
100
AcDbEntity
  8
0
100
AcDbLine
 62
7
  6
CONTINUOUS
 10
19.5699026417
 20
-2.2338034839
 11
19.8719862055
 21
-2.1721013582
  0
LINE
  5
294
100
AcDbEntity
  8
0
100
AcDbLine
 62
253
  6
CONTINUOUS
 10
-74.1240298734
 20
-14.2473120646
 11
-74.6238473576
 21
-14.2608206714
  0
LINE
  5
295
100
AcDbEntity
  8
0
100
AcDbLine
 62
253
  6
CONTINUOUS
 10
-22.3309541395
 20
-12.7338034839
 11
-5.9167405771
 21
-12.7338034839
  0
LINE
  5
296
100
AcDbEntity
  8
0
100
AcDbLine
 62
253
  6
CONTINUOUS
 10
34.0761526417
 20
-12.6338034839
 11
28.6761526417
 21
-12.6338034839
  0
LINE
  5
297
100
AcDbEntity
  8
0
100
AcDbLine
 62
253
  6
CONTINUOUS
 10
10.1761526417
 20
-12.6338034839
 11
15.5761526417
 21
-12.6338034839
  0
LINE
  5
298
100
AcDbEntity
  8
0
100
AcDbLine
 62
253
  6
CONTINUOUS
 10
-38.4238473583
 20
-12.6338034839
 11
-43.8238473583
 21
-12.6338034839
  0
LINE
  5
299
100
AcDbEntity
  8
0
100
AcDbLine
 62
253
  6
CONTINUOUS
 10
-56.9238473583
 20
-12.6338034839
 11
-62.3238473583
 21
-12.6338034839
  0
LINE
  5
29A
100
AcDbEntity
  8
0
100
AcDbLine
 62
7
  6
CONTINUOUS
 10
34.0761526417
 20
-12.1338034839
 11
28.6761526417
 21
-12.1338034839
  0
LINE
  5
29B
100
AcDbEntity
  8
0
100
AcDbLine
 62
7
  6
CONTINUOUS
 10
10.1761526417
 20
-12.1338034839
 11
15.5761526417
 21
-12.1338034839
  0
LINE
  5
29C
100
AcDbEntity
  8
0
100
AcDbLine
 62
7
  6
CONTINUOUS
 10
-38.4238473583
 20
-12.1338034839
 11
-43.8238473583
 21
-12.1338034839
  0
LINE
  5
29D
100
AcDbEntity
  8
0
100
AcDbLine
 62
7
  6
CONTINUOUS
 10
-56.9238473583
 20
-12.1338034839
 11
-62.3238473583
 21
-12.1338034839
  0
LINE
  5
29E
100
AcDbEntity
  8
0
100
AcDbLine
 62
253
  6
CONTINUOUS
 10
-63.3238473583
 20
-11.6338034839
 11
-62.8238473583
 21
-11.6338034839
  0
LINE
  5
29F
100
AcDbEntity
  8
0
100
AcDbLine
 62
253
  6
CONTINUOUS
 10
-44.8238473583
 20
-11.6338034839
 11
-44.3238473583
 21
-11.6338034839
  0
LINE
  5
2A0
100
AcDbEntity
  8
0
100
AcDbLine
 62
253
  6
CONTINUOUS
 10
35.0761526417
 20
-11.6338034839
 11
34.5761526417
 21
-11.6338034837
  0
LINE
  5
2A1
100
AcDbEntity
  8
0
100
AcDbLine
 62
253
  6
CONTINUOUS
 10
9.6761526417
 20
-11.6338034839
 11
9.1761526417
 21
-11.6338034844
  0
LINE
  5
2A2
100
AcDbEntity
  8
0
100
AcDbLine
 62
253
  6
CONTINUOUS
 10
16.0761526417
 20
-11.6338034839
 11
16.5761526417
 21
-11.6338034839
  0
LINE
  5
2A3
100
AcDbEntity
  8
0
100
AcDbLine
 62
253
  6
CONTINUOUS
 10
27.6761526417
 20
-11.6338034839
 11
28.1761526417
 21
-11.6338034839
  0
LINE
  5
2A4
100
AcDbEntity
  8
0
100
AcDbLine
 62
253
  6
CONTINUOUS
 10
-37.4238473583
 20
-11.6338034839
 11
-37.9238473583
 21
-11.6338034837
  0
LINE
  5
2A5
100
AcDbEntity
  8
0
100
AcDbLine
 62
253
  6
CONTINUOUS
 10
-55.9238473583
 20
-11.6338034839
 11
-56.4238473583
 21
-11.6338034837
  0
LINE
  5
2A6
100
AcDbEntity
  8
0
100
AcDbLine
 62
253
  6
CONTINUOUS
 10
-63.3238473583
 20
-9.6338034839
 11
-62.8238473583
 21
-9.6338034841
  0
LINE
  5
2A7
100
AcDbEntity
  8
0
100
AcDbLine
 62
253
  6
CONTINUOUS
 10
-44.8238473583
 20
-9.6338034839
 11
-44.3238473583
 21
-9.6338034841
  0
LINE
  5
2A8
100
AcDbEntity
  8
0
100
AcDbLine
 62
253
  6
CONTINUOUS
 10
35.0761526417
 20
-9.6338034839
 11
34.5761526417
 21
-9.6338034839
  0
LINE
  5
2A9
100
AcDbEntity
  8
0
100
AcDbLine
 62
253
  6
CONTINUOUS
 10
9.6761526417
 20
-9.6338034839
 11
9.1761526417
 21
-9.6338034839
  0
LINE
  5
2AA
100
AcDbEntity
  8
0
100
AcDbLine
 62
253
  6
CONTINUOUS
 10
16.0761526417
 20
-9.6338034839
 11
16.5761526417
 21
-9.6338034835
  0
LINE
  5
2AB
100
AcDbEntity
  8
0
100
AcDbLine
 62
253
  6
CONTINUOUS
 10
27.6761526417
 20
-9.6338034839
 11
28.1761526417
 21
-9.6338034841
  0
LINE
  5
2AC
100
AcDbEntity
  8
0
100
AcDbLine
 62
253
  6
CONTINUOUS
 10
-37.4238473583
 20
-9.6338034839
 11
-37.9238473583
 21
-9.6338034839
  0
LINE
  5
2AD
100
AcDbEntity
  8
0
100
AcDbLine
 62
253
  6
CONTINUOUS
 10
-55.9238473583
 20
-9.6338034839
 11
-56.4238473583
 21
-9.6338034839
  0
LINE
  5
2AE
100
AcDbEntity
  8
0
100
AcDbLine
 62
7
  6
CONTINUOUS
 10
-62.3238473583
 20
-9.1338034839
 11
-56.9238473583
 21
-9.1338034839
  0
LINE
  5
2AF
100
AcDbEntity
  8
0
100
AcDbLine
 62
7
  6
CONTINUOUS
 10
-43.8238473583
 20
-9.1338034839
 11
-38.4238473583
 21
-9.1338034839
  0
LINE
  5
2B0
100
AcDbEntity
  8
0
100
AcDbLine
 62
7
  6
CONTINUOUS
 10
15.5761526417
 20
-9.1338034839
 11
10.1761526417
 21
-9.1338034839
  0
LINE
  5
2B1
100
AcDbEntity
  8
0
100
AcDbLine
 62
7
  6
CONTINUOUS
 10
28.6761526417
 20
-9.1338034839
 11
34.0761526417
 21
-9.1338034839
  0
LINE
  5
2B2
100
AcDbEntity
  8
0
100
AcDbLine
 62
253
  6
CONTINUOUS
 10
45.8763351568
 20
-14.2473120646
 11
46.3761526417
 21
-14.2608206453
  0
LINE
  5
2B3
100
AcDbEntity
  8
0
100
AcDbLine
 62
253
  6
CONTINUOUS
 10
-59.6413515668
 20
24.1592274919
 11
-60.0243737884
 21
24.4806212967
  0
LINE
  5
2B4
100
AcDbEntity
  8
0
100
AcDbLine
 62
7
  6
CONTINUOUS
 10
-45.4633833583
 20
9.6023635161
 11
-44.3430223583
 21
8.6582275161
  0
LINE
  5
2B5
100
AcDbEntity
  8
0
100
AcDbLine
 62
7
  6
CONTINUOUS
 10
-44.3430223583
 20
9.1745835161
 11
-45.5150963583
 21
10.1622965161
  0
LINE
  5
2B6
100
AcDbEntity
  8
0
100
AcDbLine
 62
7
  6
CONTINUOUS
 10
-31.8775773583
 20
0.6661965161
 11
-30.7830113583
 21
-1.0665324839
  0
LINE
  5
2B7
100
AcDbEntity
  8
0
100
AcDbLine
 62
7
  6
CONTINUOUS
 10
-30.5890523583
 20
-0.7273984839
 11
-31.4211753583
 21
0.6661965161
  0
LINE
  5
2B8
100
AcDbEntity
  8
0
100
AcDbLine
 62
7
  6
CONTINUOUS
 10
-30.7830113583
 20
-1.0665324839
 11
-30.7830113583
 21
-2.2338034839
  0
LINE
  5
2B9
100
AcDbEntity
  8
0
100
AcDbLine
 62
7
  6
CONTINUOUS
 10
-30.3913413583
 20
-2.2338034839
 11
-30.3913413583
 21
-1.0665324839
  0
LINE
  5
2BA
100
AcDbEntity
  8
0
100
AcDbLine
 62
7
  6
CONTINUOUS
 10
-27.7988643583
 20
19.7662515161
 11
-25.1338793583
 21
28.0666255161
  0
LINE
  5
2BB
100
AcDbEntity
  8
0
100
AcDbLine
 62
7
  6
CONTINUOUS
 10
18.9657362055
 20
-0.7529524238
 11
19.2074026417
 21
-0.6912503035
  0
LINE
  5
2BC
100
AcDbEntity
  8
0
100
AcDbLine
 62
7
  6
CONTINUOUS
 10
16.3074026417
 20
-0.7529524238
 11
16.5490690779
 21
-0.6912503035
  0
LINE
  5
2BD
100
AcDbEntity
  8
0
100
AcDbLine
 62
7
  6
CONTINUOUS
 10
16.9115690779
 20
-2.2338034839
 11
17.2136526417
 21
-2.1721013582
  0
LINE
  5
2BE
100
AcDbEntity
  8
0
100
AcDbLine
 62
7
  6
CONTINUOUS
 10
19.2074026417
 20
-0.3827397019
 11
18.9053190779
 21
-0.4444418222
  0
LINE
  5
2BF
100
AcDbEntity
  8
0
100
AcDbLine
 62
7
  6
CONTINUOUS
 10
21.6240697693
 20
0.2959837943
 11
21.9261526417
 21
0.3576859146
  0
LINE
  5
2C0
100
AcDbEntity
  8
0
100
AcDbLine
 62
7
  6
CONTINUOUS
 10
16.5490690779
 20
-0.3827397019
 11
16.2469862055
 21
-0.4444418222
  0
LINE
  5
2C1
100
AcDbEntity
  8
0
100
AcDbLine
 62
7
  6
CONTINUOUS
 10
21.9865697693
 20
0.6661965161
 11
21.5636526417
 21
0.6044943958
  0
LINE
  5
2C2
100
AcDbEntity
  8
0
100
AcDbLine
 62
253
  6
CONTINUOUS
 10
-62.3238473583
 20
-8.6338034839
 11
-56.9238473583
 21
-8.6338034839
  0
LINE
  5
2C3
100
AcDbEntity
  8
0
100
AcDbLine
 62
253
  6
CONTINUOUS
 10
-43.8238473583
 20
-8.6338034839
 11
-38.4238473583
 21
-8.6338034839
  0
LINE
  5
2C4
100
AcDbEntity
  8
0
100
AcDbLine
 62
253
  6
CONTINUOUS
 10
15.5761526417
 20
-8.6338034839
 11
10.1761526417
 21
-8.6338034839
  0
LINE
  5
2C5
100
AcDbEntity
  8
0
100
AcDbLine
 62
253
  6
CONTINUOUS
 10
28.6761526417
 20
-8.6338034839
 11
34.0761526417
 21
-8.6338034839
  0
LINE
  5
2C6
100
AcDbEntity
  8
0
100
AcDbLine
 62
7
  6
CONTINUOUS
 10
-24.0271783583
 20
28.0666255161
 11
-24.0271973583
 21
19.7662305161
  0
LINE
  5
2C7
100
AcDbEntity
  8
0
100
AcDbLine
 62
7
  6
CONTINUOUS
 10
-22.3671363583
 20
19.7662515161
 11
-22.3671153583
 21
28.0666255161
  0
LINE
  5
2C8
100
AcDbEntity
  8
0
100
AcDbLine
 62
7
  6
CONTINUOUS
 10
-29.7571643583
 20
0.6661965161
 11
-30.5890523583
 21
-0.7273984839
  0
LINE
  5
2C9
100
AcDbEntity
  8
0
100
AcDbLine
 62
7
  6
CONTINUOUS
 10
-30.3913413583
 20
-1.0665324839
 11
-29.2965413583
 21
0.6661965161
  0
LINE
  5
2CA
100
AcDbEntity
  8
0
100
AcDbLine
 62
7
  6
CONTINUOUS
 10
-58.1238473583
 20
-2.2338034839
 11
-57.7441973583
 21
-2.2338034839
  0
LINE
  5
2CB
100
AcDbEntity
  8
0
100
AcDbLine
 62
7
  6
CONTINUOUS
 10
-56.9282503583
 20
-2.2338034839
 11
-56.5404903583
 21
-2.2338034839
  0
LINE
  5
2CC
100
AcDbEntity
  8
0
100
AcDbLine
 62
7
  6
CONTINUOUS
 10
-55.7247003583
 20
-2.2338034839
 11
-55.3448973583
 21
-2.2338034839
  0
LINE
  5
2CD
100
AcDbEntity
  8
0
100
AcDbLine
 62
7
  6
CONTINUOUS
 10
-54.9975303583
 20
-2.2338034839
 11
-54.5936653583
 21
-2.2338034839
  0
LINE
  5
2CE
100
AcDbEntity
  8
0
100
AcDbLine
 62
7
  6
CONTINUOUS
 10
-52.8407653583
 20
-2.2338034839
 11
-52.4125793583
 21
-2.2338034839
  0
LINE
  5
2CF
100
AcDbEntity
  8
0
100
AcDbLine
 62
7
  6
CONTINUOUS
 10
-52.0329403583
 20
-2.2338034839
 11
-50.8575316042
 21
-2.2338034839
  0
LINE
  5
2D0
100
AcDbEntity
  8
0
100
AcDbLine
 62
7
  6
CONTINUOUS
 10
-49.0964703583
 20
-2.2338034839
 11
-46.9556533583
 21
-2.2338034839
  0
LINE
  5
2D1
100
AcDbEntity
  8
0
100
AcDbLine
 62
7
  6
CONTINUOUS
 10
-45.2591833583
 20
-2.2338034839
 11
-44.8674193583
 21
-2.2338034839
  0
LINE
  5
2D2
100
AcDbEntity
  8
0
100
AcDbLine
 62
7
  6
CONTINUOUS
 10
-44.1970303583
 20
-2.2338034839
 11
-43.8172043583
 21
-2.2338034839
  0
LINE
  5
2D3
100
AcDbEntity
  8
0
100
AcDbLine
 62
7
  6
CONTINUOUS
 10
-42.3348383583
 20
-2.2338034839
 11
-41.8945963583
 21
-2.2338034839
  0
LINE
  5
2D4
100
AcDbEntity
  8
0
100
AcDbLine
 62
7
  6
CONTINUOUS
 10
-40.0972763583
 20
-2.2338034839
 11
-39.7053953583
 21
-2.2338034839
  0
LINE
  5
2D5
100
AcDbEntity
  8
0
100
AcDbLine
 62
7
  6
CONTINUOUS
 10
-38.3038033583
 20
-2.2338034839
 11
-37.9120633583
 21
-2.2338034839
  0
LINE
  5
2D6
100
AcDbEntity
  8
0
100
AcDbLine
 62
7
  6
CONTINUOUS
 10
-36.8174503583
 20
-2.2338034839
 11
-36.4136083583
 21
-2.2338034839
  0
LINE
  5
2D7
100
AcDbEntity
  8
0
100
AcDbLine
 62
7
  6
CONTINUOUS
 10
-34.6605453583
 20
-2.2338034839
 11
-34.2322873583
 21
-2.2338034839
  0
LINE
  5
2D8
100
AcDbEntity
  8
0
100
AcDbLine
 62
7
  6
CONTINUOUS
 10
-33.8729833583
 20
-2.2338034839
 11
-32.0107913583
 21
-2.2338034839
  0
LINE
  5
2D9
100
AcDbEntity
  8
0
100
AcDbLine
 62
7
  6
CONTINUOUS
 10
-30.7830113583
 20
-2.2338034839
 11
-30.3913413583
 21
-2.2338034839
  0
LINE
  5
2DA
100
AcDbEntity
  8
0
100
AcDbLine
 62
7
  6
CONTINUOUS
 10
9.8428193372
 20
-2.2338034839
 11
10.3261526417
 21
-2.2338034839
  0
LINE
  5
2DB
100
AcDbEntity
  8
0
100
AcDbLine
 62
7
  6
CONTINUOUS
 10
12.3803194236
 20
-2.2338034839
 11
12.7428194236
 21
-2.2338034839
  0
LINE
  5
2DC
100
AcDbEntity
  8
0
100
AcDbLine
 62
7
  6
CONTINUOUS
 10
14.7969862055
 20
-2.2338034839
 11
15.1594862055
 21
-2.2338034839
  0
LINE
  5
2DD
100
AcDbEntity
  8
0
100
AcDbLine
 62
7
  6
CONTINUOUS
 10
16.5490690779
 20
-2.2338034839
 11
16.9115690779
 21
-2.2338034839
  0
LINE
  5
2DE
100
AcDbEntity
  8
0
100
AcDbLine
 62
7
  6
CONTINUOUS
 10
19.2074026417
 20
-2.2338034839
 11
19.5699026417
 21
-2.2338034839
  0
LINE
  5
2DF
100
AcDbEntity
  8
0
100
AcDbLine
 62
7
  6
CONTINUOUS
 10
20.9594855141
 20
-2.2338034839
 11
23.1344855141
 21
-2.2338034839
  0
LINE
  5
2E0
100
AcDbEntity
  8
0
100
AcDbLine
 62
7
  6
CONTINUOUS
 10
23.1344855141
 20
-1.9252928392
 11
21.4428197693
 21
-1.9252928392
  0
LINE
  5
2E1
100
AcDbEntity
  8
0
100
AcDbLine
 62
7
  6
CONTINUOUS
 10
19.5699026417
 20
-1.9252928392
 11
19.2074026417
 21
-1.9252928392
  0
LINE
  5
2E2
100
AcDbEntity
  8
0
100
AcDbLine
 62
7
  6
CONTINUOUS
 10
16.9115690779
 20
-1.9252928392
 11
16.5490690779
 21
-1.9252928392
  0
LINE
  5
2E3
100
AcDbEntity
  8
0
100
AcDbLine
 62
7
  6
CONTINUOUS
 10
-50.8674998263
 20
-1.8986554839
 11
-51.6410353583
 21
-1.8986554839
  0
LINE
  5
2E4
100
AcDbEntity
  8
0
100
AcDbLine
 62
7
  6
CONTINUOUS
 10
-32.0107913583
 20
-1.8864604839
 11
-33.4810783583
 21
-1.8864604839
  0
LINE
  5
2E5
100
AcDbEntity
  8
0
100
AcDbLine
 62
7
  6
CONTINUOUS
 10
-46.9556533583
 20
-1.8864604839
 11
-48.7045893583
 21
-1.8864604839
  0
LINE
  5
2E6
100
AcDbEntity
  8
0
100
AcDbLine
 62
7
  6
CONTINUOUS
 10
18.6636526417
 20
-1.4933779538
 11
18.3011526417
 21
-1.4933779538
  0
LINE
  5
2E7
100
AcDbEntity
  8
0
100
AcDbLine
 62
7
  6
CONTINUOUS
 10
16.0053190779
 20
-1.4933779538
 11
15.6428190779
 21
-1.4933779538
  0
LINE
  5
2E8
100
AcDbEntity
  8
0
100
AcDbLine
 62
7
  6
CONTINUOUS
 10
-54.2906953583
 20
-1.3897194839
 11
-53.1275053583
 21
-1.3897194839
  0
LINE
  5
2E9
100
AcDbEntity
  8
0
100
AcDbLine
 62
7
  6
CONTINUOUS
 10
-36.1106153583
 20
-1.3897194839
 11
-34.9473083583
 21
-1.3897194839
  0
LINE
  5
2EA
100
AcDbEntity
  8
0
100
AcDbLine
 62
7
  6
CONTINUOUS
 10
-35.0887083583
 20
-1.0423764839
 11
-35.9894323583
 21
-1.0423764839
  0
LINE
  5
2EB
100
AcDbEntity
  8
0
100
AcDbLine
 62
7
  6
CONTINUOUS
 10
-53.2687653583
 20
-1.0423764839
 11
-54.1694883583
 21
-1.0423764839
  0
LINE
  5
2EC
100
AcDbEntity
  8
0
100
AcDbLine
 62
7
  6
CONTINUOUS
 10
15.6428190779
 20
-0.9380587847
 11
16.0657362055
 21
-0.9380587847
  0
LINE
  5
2ED
100
AcDbEntity
  8
0
100
AcDbLine
 62
7
  6
CONTINUOUS
 10
18.3011526417
 20
-0.9380587847
 11
18.7240690779
 21
-0.9380587847
  0
LINE
  5
2EE
100
AcDbEntity
  8
0
100
AcDbLine
 62
7
  6
CONTINUOUS
 10
-48.7045893583
 20
-0.9171354839
 11
-47.1172473583
 21
-0.9171354839
  0
LINE
  5
2EF
100
AcDbEntity
  8
0
100
AcDbLine
 62
7
  6
CONTINUOUS
 10
16.5490690779
 20
-0.6912503035
 11
16.9115690779
 21
-0.6912503035
  0
LINE
  5
2F0
100
AcDbEntity
  8
0
100
AcDbLine
 62
7
  6
CONTINUOUS
 10
19.2074026417
 20
-0.6912503035
 11
19.5699026417
 21
-0.6912503035
  0
LINE
  5
2F1
100
AcDbEntity
  8
0
100
AcDbLine
 62
7
  6
CONTINUOUS
 10
-47.1172473583
 20
-0.5697924839
 11
-48.7045893583
 21
-0.5697924839
  0
LINE
  5
2F2
100
AcDbEntity
  8
0
100
AcDbLine
 62
7
  6
CONTINUOUS
 10
19.5699026417
 20
-0.3827397019
 11
19.2074026417
 21
-0.3827397019
  0
LINE
  5
2F3
100
AcDbEntity
  8
0
100
AcDbLine
 62
7
  6
CONTINUOUS
 10
16.9115690779
 20
-0.3827397019
 11
16.5490690779
 21
-0.3827397019
  0
LINE
  5
2F4
100
AcDbEntity
  8
0
100
AcDbLine
 62
7
  6
CONTINUOUS
 10
21.0199026417
 20
-0.0125268073
 11
21.3219855141
 21
-0.0125268073
  0
LINE
  5
2F5
100
AcDbEntity
  8
0
100
AcDbLine
 62
7
  6
CONTINUOUS
 10
-6.1238473583
 20
-13.2338034839
 11
-4.1238473583
 21
-15.2338034839
  0
LINE
  5
2F6
100
AcDbEntity
  8
0
100
AcDbLine
 62
253
  6
CONTINUOUS
 10
-5.9167405771
 20
-12.7338034839
 11
-3.9167405771
 21
-14.7338034839
  0
LINE
  5
2F7
100
AcDbEntity
  8
0
100
AcDbLine
 62
7
  6
CONTINUOUS
 10
-32.1239523583
 20
28.0666255161
 11
-29.4589883583
 21
19.7662305161
  0
LINE
  5
2F8
100
AcDbEntity
  8
0
100
AcDbLine
 62
7
  6
CONTINUOUS
 10
-28.6289043583
 20
22.3513695161
 11
-30.4638683583
 21
28.0666255161
  0
LINE
  5
2F9
100
AcDbEntity
  8
0
100
AcDbLine
 62
7
  6
CONTINUOUS
 10
-20.7071153583
 20
28.0666255161
 11
-20.7071153583
 21
19.7662515161
  0
LINE
  5
2FA
100
AcDbEntity
  8
0
100
AcDbLine
 62
7
  6
CONTINUOUS
 10
-19.0470523583
 20
19.7662515161
 11
-19.0470523583
 21
25.2397905161
  0
LINE
  5
2FB
100
AcDbEntity
  8
0
100
AcDbLine
 62
7
  6
CONTINUOUS
 10
-15.0975403583
 20
28.0666255161
 11
-16.6475433583
 21
22.6611255161
  0
LINE
  5
2FC
100
AcDbEntity
  8
0
100
AcDbLine
 62
7
  6
CONTINUOUS
 10
-15.8175433583
 20
19.7662725161
 11
-14.2480553583
 21
25.2397905161
  0
LINE
  5
2FD
100
AcDbEntity
  8
0
100
AcDbLine
 62
7
  6
CONTINUOUS
 10
-48.7045893583
 20
0.3188535161
 11
-46.9839613583
 21
0.3188535161
  0
LINE
  5
2FE
100
AcDbEntity
  8
0
100
AcDbLine
 62
7
  6
CONTINUOUS
 10
-39.2853233583
 20
0.3188535161
 11
-38.3038033583
 21
0.3188535161
  0
LINE
  5
2FF
100
AcDbEntity
  8
0
100
AcDbLine
 62
7
  6
CONTINUOUS
 10
-37.9120633583
 20
0.3188535161
 11
-36.9305423583
 21
0.3188535161
  0
LINE
  5
300
100
AcDbEntity
  8
0
100
AcDbLine
 62
7
  6
CONTINUOUS
 10
-51.6410353583
 20
0.3310485161
 11
-50.8674998262
 21
0.3310485161
  0
LINE
  5
301
100
AcDbEntity
  8
0
100
AcDbLine
 62
7
  6
CONTINUOUS
 10
11.7761526417
 20
0.3576859146
 11
13.5886526417
 21
0.3576859146
  0
LINE
  5
302
100
AcDbEntity
  8
0
100
AcDbLine
 62
7
  6
CONTINUOUS
 10
15.9449026417
 20
0.3576859146
 11
17.6969862055
 21
0.3576859146
  0
LINE
  5
303
100
AcDbEntity
  8
0
100
AcDbLine
 62
7
  6
CONTINUOUS
 10
18.6032362055
 20
0.3576859146
 11
20.3553190779
 21
0.3576859146
  0
LINE
  5
304
100
AcDbEntity
  8
0
100
AcDbLine
 62
7
  6
CONTINUOUS
 10
21.9261526417
 20
0.3576859146
 11
22.1678197693
 21
0.3576859146
  0
LINE
  5
305
100
AcDbEntity
  8
0
100
AcDbLine
 62
7
  6
CONTINUOUS
 10
22.2282355141
 20
0.6661965161
 11
21.9865697693
 21
0.6661965161
  0
LINE
  5
306
100
AcDbEntity
  8
0
100
AcDbLine
 62
7
  6
CONTINUOUS
 10
20.3553190779
 20
0.6661965161
 11
18.3011526417
 21
0.6661965161
  0
LINE
  5
307
100
AcDbEntity
  8
0
100
AcDbLine
 62
7
  6
CONTINUOUS
 10
17.6969862055
 20
0.6661965161
 11
15.6428190779
 21
0.6661965161
  0
LINE
  5
308
100
AcDbEntity
  8
0
100
AcDbLine
 62
7
  6
CONTINUOUS
 10
15.1594862055
 20
0.6661965161
 11
14.7969862055
 21
0.6661965161
  0
LINE
  5
309
100
AcDbEntity
  8
0
100
AcDbLine
 62
7
  6
CONTINUOUS
 10
13.9511526417
 20
0.6661965161
 11
11.7761526417
 21
0.6661965161
  0
LINE
  5
30A
100
AcDbEntity
  8
0
100
AcDbLine
 62
7
  6
CONTINUOUS
 10
11.2928192507
 20
0.6661965161
 11
10.9303192507
 21
0.6661965161
  0
LINE
  5
30B
100
AcDbEntity
  8
0
100
AcDbLine
 62
7
  6
CONTINUOUS
 10
9.2386526417
 20
0.6661965161
 11
8.8761526417
 21
0.6661965161
  0
LINE
  5
30C
100
AcDbEntity
  8
0
100
AcDbLine
 62
7
  6
CONTINUOUS
 10
-29.2965413583
 20
0.6661965161
 11
-29.7571643583
 21
0.6661965161
  0
LINE
  5
30D
100
AcDbEntity
  8
0
100
AcDbLine
 62
7
  6
CONTINUOUS
 10
-31.4211753583
 20
0.6661965161
 11
-31.8775773583
 21
0.6661965161
  0
LINE
  5
30E
100
AcDbEntity
  8
0
100
AcDbLine
 62
7
  6
CONTINUOUS
 10
-33.4810783583
 20
0.6661965161
 11
-33.8729833583
 21
0.6661965161
  0
LINE
  5
30F
100
AcDbEntity
  8
0
100
AcDbLine
 62
7
  6
CONTINUOUS
 10
-35.2825963583
 20
0.6661965161
 11
-35.7268253583
 21
0.6661965161
  0
LINE
  5
310
100
AcDbEntity
  8
0
100
AcDbLine
 62
7
  6
CONTINUOUS
 10
-36.9305423583
 20
0.6661965161
 11
-39.2853233583
 21
0.6661965161
  0
LINE
  5
311
100
AcDbEntity
  8
0
100
AcDbLine
 62
7
  6
CONTINUOUS
 10
-39.7053953583
 20
0.6661965161
 11
-40.0972763583
 21
0.6661965161
  0
LINE
  5
312
100
AcDbEntity
  8
0
100
AcDbLine
 62
7
  6
CONTINUOUS
 10
-41.8945963583
 20
0.6661965161
 11
-42.2742353583
 21
0.6661965161
  0
LINE
  5
313
100
AcDbEntity
  8
0
100
AcDbLine
 62
7
  6
CONTINUOUS
 10
-43.7324433583
 20
0.6661965161
 11
-44.1970303583
 21
0.6661965161
  0
LINE
  5
314
100
AcDbEntity
  8
0
100
AcDbLine
 62
7
  6
CONTINUOUS
 10
-44.8674193583
 20
0.6661965161
 11
-45.2591833583
 21
0.6661965161
  0
LINE
  5
315
100
AcDbEntity
  8
0
100
AcDbLine
 62
7
  6
CONTINUOUS
 10
-46.9839613583
 20
0.6661965161
 11
-49.0964703583
 21
0.6661965161
  0
LINE
  5
316
100
AcDbEntity
  8
0
100
AcDbLine
 62
7
  6
CONTINUOUS
 10
-50.8452014605
 20
0.6661965161
 11
-52.0329403583
 21
0.6661965161
  0
LINE
  5
317
100
AcDbEntity
  8
0
100
AcDbLine
 62
7
  6
CONTINUOUS
 10
-53.4626763583
 20
0.6661965161
 11
-53.9070463583
 21
0.6661965161
  0
LINE
  5
318
100
AcDbEntity
  8
0
100
AcDbLine
 62
7
  6
CONTINUOUS
 10
-55.3448973583
 20
0.6661965161
 11
-55.9023593583
 21
0.6661965161
  0
LINE
  5
319
100
AcDbEntity
  8
0
100
AcDbLine
 62
7
  6
CONTINUOUS
 10
-57.5624023583
 20
0.6661965161
 11
-58.1238473583
 21
0.6661965161
  0
LINE
  5
31A
100
AcDbEntity
  8
0
100
AcDbLine
 62
7
  6
CONTINUOUS
 10
16.2469862055
 20
-2.1721013582
 11
16.5490690779
 21
-2.2338034839
  0
LINE
  5
31B
100
AcDbEntity
  8
0
100
AcDbLine
 62
253
  6
CONTINUOUS
 10
-53.8277648723
 20
31.0875903209
 11
-54.2107870938
 21
31.4089841258
  0
LINE
  5
31C
100
AcDbEntity
  8
0
100
AcDbLine
 62
7
  6
CONTINUOUS
 10
-14.2480553583
 20
25.2397905161
 11
-14.2480343583
 21
19.7662515161
  0
LINE
  5
31D
100
AcDbEntity
  8
0
100
AcDbLine
 62
7
  6
CONTINUOUS
 10
-8.8163273583
 20
28.0666465161
 11
-11.4812703583
 21
19.7662515161
  0
LINE
  5
31E
100
AcDbEntity
  8
0
100
AcDbLine
 62
7
  6
CONTINUOUS
 10
-9.8212093583
 20
19.7662725161
 11
-9.2971263583
 21
21.3985925161
  0
LINE
  5
31F
100
AcDbEntity
  8
0
100
AcDbLine
 62
7
  6
CONTINUOUS
 10
-8.7907633583
 20
22.9756535161
 11
-7.9862643583
 21
25.4815075161
  0
LINE
  5
320
100
AcDbEntity
  8
0
100
AcDbLine
 62
7
  6
CONTINUOUS
 10
-44.7122773583
 20
6.8600795161
 11
-43.5300313583
 21
6.8600795161
  0
LWPOLYLINE
  5
321
100
AcDbEntity
  8
0
100
AcDbPolyline
 62
7
  6
CONTINUOUS
 90
2
 70
0
 43
0.3500000006
 10
54.6261519012
 20
6.9090541763
 10
53.1261514435
 20
6.9090541763
  0
LINE
  5
322
100
AcDbEntity
  8
0
100
AcDbLine
 62
7
  6
CONTINUOUS
 10
-43.5300313583
 20
7.2767445161
 11
-43.8991433583
 21
7.2767445161
  0
LINE
  5
323
100
AcDbEntity
  8
0
100
AcDbLine
 62
7
  6
CONTINUOUS
 10
-44.3430223583
 20
7.2767445161
 11
-44.7122773583
 21
7.2767445161
  0
LWPOLYLINE
  5
324
100
AcDbEntity
  8
0
100
AcDbPolyline
 62
7
  6
CONTINUOUS
 90
4
 70
0
 43
0.3500000006
 10
52.2690089722
 20
8.2661968002
 10
51.6261509857
 20
8.2661968002
 10
51.6261509857
 20
9.766197258
 10
54.6261519012
 20
8.9090547867
  0
LINE
  5
325
100
AcDbEntity
  8
0
100
AcDbLine
 62
7
  6
CONTINUOUS
 10
17.5332076417
 20
8.3911965161
 11
18.9937086417
 21
8.3911965161
  0
LINE
  5
326
100
AcDbEntity
  8
0
100
AcDbLine
 62
7
  6
CONTINUOUS
 10
22.5907355141
 20
0.6044943958
 11
22.2282355141
 21
0.6661965161
  0
LINE
  5
327
100
AcDbEntity
  8
0
100
AcDbLine
 62
7
  6
CONTINUOUS
 10
18.9053190779
 20
-2.1721013582
 11
19.2074026417
 21
-2.2338034839
  0
LINE
  5
328
100
AcDbEntity
  8
0
100
AcDbLine
 62
7
  6
CONTINUOUS
 10
17.2136526417
 20
-0.4444418222
 11
16.9115690779
 21
-0.3827397019
  0
LINE
  5
329
100
AcDbEntity
  8
0
100
AcDbLine
 62
7
  6
CONTINUOUS
 10
19.8719862055
 20
-0.4444418222
 11
19.5699026417
 21
-0.3827397019
  0
LINE
  5
32A
100
AcDbEntity
  8
0
100
AcDbLine
 62
7
  6
CONTINUOUS
 10
22.1678197693
 20
0.3576859146
 11
22.4699026417
 21
0.2959837943
  0
LINE
  5
32B
100
AcDbEntity
  8
0
100
AcDbLine
 62
7
  6
CONTINUOUS
 10
16.5490690779
 20
-1.9252928392
 11
16.3074026417
 21
-1.8635907189
  0
LINE
  5
32C
100
AcDbEntity
  8
0
100
AcDbLine
 62
7
  6
CONTINUOUS
 10
19.2074026417
 20
-1.9252928392
 11
18.9657362055
 21
-1.8635907189
  0
LINE
  5
32D
100
AcDbEntity
  8
0
100
AcDbLine
 62
7
  6
CONTINUOUS
 10
16.9115690779
 20
-0.6912503035
 11
17.1532362055
 21
-0.7529524238
  0
LINE
  5
32E
100
AcDbEntity
  8
0
100
AcDbLine
 62
7
  6
CONTINUOUS
 10
19.5699026417
 20
-0.6912503035
 11
19.8115690779
 21
-0.7529524238
  0
LINE
  5
32F
100
AcDbEntity
  8
0
100
AcDbLine
 62
7
  6
CONTINUOUS
 10
-19.0470523583
 20
25.2397905161
 11
-17.4775643583
 21
19.7662515161
  0
LINE
  5
330
100
AcDbEntity
  8
0
100
AcDbLine
 62
7
  6
CONTINUOUS
 10
-12.5879713583
 20
19.7662515161
 11
-12.5879713583
 21
28.0666255161
  0
LINE
  5
331
100
AcDbEntity
  8
0
100
AcDbLine
 62
7
  6
CONTINUOUS
 10
18.9937086417
 20
9.1411965161
 11
17.533204632
 21
9.1411965161
  0
LINE
  5
332
100
AcDbEntity
  8
0
100
AcDbLine
 62
7
  6
CONTINUOUS
 10
-44.6986703583
 20
10.2369425161
 11
-44.3430223583
 21
10.2369425161
  0
LINE
  5
333
100
AcDbEntity
  8
0
100
AcDbLine
 62
7
  6
CONTINUOUS
 10
-43.8991433583
 20
10.2369425161
 11
-43.5436383583
 21
10.2369425161
  0
LINE
  5
334
100
AcDbEntity
  8
0
100
AcDbLine
 62
7
  6
CONTINUOUS
 10
-43.5436383583
 20
10.6558995161
 11
-44.6986703583
 21
10.6558995161
  0
LINE
  5
335
100
AcDbEntity
  8
0
100
AcDbLine
 62
7
  6
CONTINUOUS
 10
-16.6475433583
 20
22.6611255161
 11
-18.1975483583
 21
28.0666255161
  0
LINE
  5
336
100
AcDbEntity
  8
0
100
AcDbLine
 62
253
  6
CONTINUOUS
 10
-24.3309541395
 20
-14.7338034839
 11
-22.3309541395
 21
-12.7338034839
  0
LINE
  5
337
100
AcDbEntity
  8
0
100
AcDbLine
 62
253
  6
CONTINUOUS
 10
25.5800701557
 20
31.0875903209
 11
25.963092359
 21
31.4089841475
  0
LINE
  5
338
100
AcDbEntity
  8
0
100
AcDbLine
 62
7
  6
CONTINUOUS
 10
15.9449026417
 20
-1.9869949811
 11
16.2469862055
 21
-2.1721013582
  0
LINE
  5
339
100
AcDbEntity
  8
0
100
AcDbLine
 62
7
  6
CONTINUOUS
 10
18.6032362055
 20
-1.9869949811
 11
18.9053190779
 21
-2.1721013582
  0
LINE
  5
33A
100
AcDbEntity
  8
0
100
AcDbLine
 62
7
  6
CONTINUOUS
 10
17.5157362055
 20
-0.6295481832
 11
17.2136526417
 21
-0.4444418222
  0
LINE
  5
33B
100
AcDbEntity
  8
0
100
AcDbLine
 62
7
  6
CONTINUOUS
 10
16.3074026417
 20
-1.8635907189
 11
16.1261526417
 21
-1.7401864783
  0
LINE
  5
33C
100
AcDbEntity
  8
0
100
AcDbLine
 62
7
  6
CONTINUOUS
 10
-3.3844963583
 20
28.0666465161
 11
-3.3844963583
 21
19.7662725161
  0
LINE
  5
33D
100
AcDbEntity
  8
0
100
AcDbLine
 62
7
  6
CONTINUOUS
 10
-1.7473013583
 20
24.5112375161
 11
-1.7473203583
 21
26.5310835161
  0
LINE
  5
33E
100
AcDbEntity
  8
0
100
AcDbLine
 62
7
  6
CONTINUOUS
 10
-1.7244123583
 20
19.7662725161
 11
-1.7242273583
 21
22.9756745161
  0
LINE
  5
33F
100
AcDbEntity
  8
0
100
AcDbLine
 62
7
  6
CONTINUOUS
 10
-24.1238473583
 20
-15.2338034839
 11
-22.1238473583
 21
-13.2338034839
  0
LINE
  5
340
100
AcDbEntity
  8
0
100
AcDbLine
 62
7
  6
CONTINUOUS
 10
1.3882326417
 20
19.7662725161
 11
3.2580356417
 21
19.7662935161
  0
LINE
  5
341
100
AcDbEntity
  8
0
100
AcDbLine
 62
7
  6
CONTINUOUS
 10
-11.4812703583
 20
19.7662515161
 11
-9.8212093583
 21
19.7662725161
  0
LINE
  5
342
100
AcDbEntity
  8
0
100
AcDbLine
 62
7
  6
CONTINUOUS
 10
-20.7071153583
 20
19.7662515161
 11
-19.0470523583
 21
19.7662515161
  0
LINE
  5
343
100
AcDbEntity
  8
0
100
AcDbLine
 62
7
  6
CONTINUOUS
 10
-14.2480343583
 20
19.7662515161
 11
-12.5879713583
 21
19.7662515161
  0
LINE
  5
344
100
AcDbEntity
  8
0
100
AcDbLine
 62
7
  6
CONTINUOUS
 10
-3.3844963583
 20
19.7662725161
 11
-1.7244123583
 21
19.7662725161
  0
LINE
  5
345
100
AcDbEntity
  8
0
100
AcDbLine
 62
7
  6
CONTINUOUS
 10
-17.4775643583
 20
19.7662515161
 11
-15.8175433583
 21
19.7662725161
  0
LINE
  5
346
100
AcDbEntity
  8
0
100
AcDbLine
 62
7
  6
CONTINUOUS
 10
-24.0271973583
 20
19.7662305161
 11
-22.3671363583
 21
19.7662515161
  0
LINE
  5
347
100
AcDbEntity
  8
0
100
AcDbLine
 62
7
  6
CONTINUOUS
 10
-6.1512813583
 20
19.7662725161
 11
-4.4911973583
 21
19.7662515161
  0
LINE
  5
348
100
AcDbEntity
  8
0
100
AcDbLine
 62
7
  6
CONTINUOUS
 10
-29.4589883583
 20
19.7662305161
 11
-27.7988643583
 21
19.7662515161
  0
LINE
  5
349
100
AcDbEntity
  8
0
100
AcDbLine
 62
7
  6
CONTINUOUS
 10
-9.2971263583
 20
21.3985925161
 11
-6.6753433583
 21
21.3985925161
  0
LINE
  5
34A
100
AcDbEntity
  8
0
100
AcDbLine
 62
7
  6
CONTINUOUS
 10
22.8324026417
 20
0.4810901552
 11
22.5907355141
 21
0.6044943958
  0
LINE
  5
34B
100
AcDbEntity
  8
0
100
AcDbLine
 62
7
  6
CONTINUOUS
 10
20.1740690779
 20
-0.6295481832
 11
19.8719862055
 21
-0.4444418222
  0
LINE
  5
34C
100
AcDbEntity
  8
0
100
AcDbLine
 62
7
  6
CONTINUOUS
 10
17.1532362055
 20
-0.7529524238
 11
17.3344862055
 21
-0.8763566644
  0
LINE
  5
34D
100
AcDbEntity
  8
0
100
AcDbLine
 62
7
  6
CONTINUOUS
 10
18.9657362055
 20
-1.8635907189
 11
18.7844862055
 21
-1.7401864783
  0
LINE
  5
34E
100
AcDbEntity
  8
0
100
AcDbLine
 62
7
  6
CONTINUOUS
 10
19.8115690779
 20
-0.7529524238
 11
19.9928190779
 21
-0.8763566644
  0
LINE
  5
34F
100
AcDbEntity
  8
0
100
AcDbLine
 62
7
  6
CONTINUOUS
 10
-6.6753433583
 20
21.3985925161
 11
-6.1512813583
 21
19.7662725161
  0
LINE
  5
350
100
AcDbEntity
  8
0
100
AcDbLine
 62
7
  6
CONTINUOUS
 10
-7.9862643583
 20
25.4815075161
 11
-7.1817253583
 21
22.9756535161
  0
LINE
  5
351
100
AcDbEntity
  8
0
100
AcDbLine
 62
7
  6
CONTINUOUS
 10
-4.4911973583
 20
19.7662515161
 11
-7.1561823583
 21
28.0666465161
  0
LINE
  5
352
100
AcDbEntity
  8
0
100
AcDbLine
 62
253
  6
CONTINUOUS
 10
31.3936568502
 20
24.1592274919
 11
31.7766790718
 21
24.4806212967
  0
LINE
  5
353
100
AcDbEntity
  8
0
100
AcDbLine
 62
253
  6
CONTINUOUS
 10
-75.1240298734
 20
22.7526879354
 11
-75.6238473583
 21
22.7391793547
  0
LINE
  5
354
100
AcDbEntity
  8
0
100
AcDbLine
 62
7
  6
CONTINUOUS
 10
-7.1817253583
 20
22.9756535161
 11
-8.7907633583
 21
22.9756535161
  0
LINE
  5
355
100
AcDbEntity
  8
0
100
AcDbLine
 62
7
  6
CONTINUOUS
 10
-1.7242273583
 20
22.9756745161
 11
-0.2753583583
 21
22.9756535161
  0
LINE
  5
356
100
AcDbEntity
  8
0
100
AcDbLine
 62
253
  6
CONTINUOUS
 10
46.3765176718
 20
23.2661965161
 11
33.308767958
 21
23.2661965161
  0
LINE
  5
357
100
AcDbEntity
  8
0
100
AcDbLine
 62
253
  6
CONTINUOUS
 10
-61.5564626746
 20
23.2661965161
 11
-74.6242123884
 21
23.2661965161
  0
LINE
  5
358
100
AcDbEntity
  8
0
100
AcDbLine
 62
7
  6
CONTINUOUS
 10
46.3765176718
 20
23.7661965161
 11
33.308767958
 21
23.7661965161
  0
LINE
  5
359
100
AcDbEntity
  8
0
100
AcDbLine
 62
7
  6
CONTINUOUS
 10
-61.5564626746
 20
23.7661965161
 11
-74.6242123884
 21
23.7661965161
  0
LINE
  5
35A
100
AcDbEntity
  8
0
100
AcDbLine
 62
7
  6
CONTINUOUS
 10
0.2724248057
 20
24.5112375161
 11
-1.7473013583
 21
24.5112375161
  0
LINE
  5
35B
100
AcDbEntity
  8
0
100
AcDbLine
 62
253
  6
CONTINUOUS
 10
46.8763351568
 20
22.7526879354
 11
47.3761526425
 21
22.739179383
  0
LINE
  5
35C
100
AcDbEntity
  8
0
100
AcDbLine
 62
7
  6
CONTINUOUS
 10
22.4699026417
 20
0.2959837943
 11
22.6511526417
 21
0.1725795537
  0
LINE
  5
35D
100
AcDbEntity
  8
0
100
AcDbLine
 62
7
  6
CONTINUOUS
 10
-1.7473203583
 20
26.5310835161
 11
0.272384587
 21
26.5310835161
  0
LINE
  5
35E
100
AcDbEntity
  8
0
100
AcDbLine
 62
7
  6
CONTINUOUS
 10
-12.5879713583
 20
28.0666255161
 11
-15.0975403583
 21
28.0666255161
  0
LINE
  5
35F
100
AcDbEntity
  8
0
100
AcDbLine
 62
7
  6
CONTINUOUS
 10
-18.1975483583
 20
28.0666255161
 11
-20.7071153583
 21
28.0666255161
  0
LINE
  5
360
100
AcDbEntity
  8
0
100
AcDbLine
 62
7
  6
CONTINUOUS
 10
-22.3671153583
 20
28.0666255161
 11
-24.0271783583
 21
28.0666255161
  0
LINE
  5
361
100
AcDbEntity
  8
0
100
AcDbLine
 62
7
  6
CONTINUOUS
 10
-25.1338793583
 20
28.0666255161
 11
-26.7939613583
 21
28.0666255161
  0
LINE
  5
362
100
AcDbEntity
  8
0
100
AcDbLine
 62
7
  6
CONTINUOUS
 10
-30.4638683583
 20
28.0666255161
 11
-32.1239523583
 21
28.0666255161
  0
LINE
  5
363
100
AcDbEntity
  8
0
100
AcDbLine
 62
7
  6
CONTINUOUS
 10
0.5028454847
 20
28.0666465161
 11
-3.3844963583
 21
28.0666465161
  0
LINE
  5
364
100
AcDbEntity
  8
0
100
AcDbLine
 62
7
  6
CONTINUOUS
 10
-7.1561823583
 20
28.0666465161
 11
-8.8163273583
 21
28.0666465161
  0
LINE
  5
365
100
AcDbEntity
  8
0
100
AcDbLine
 62
7
  6
CONTINUOUS
 10
23.0740697693
 20
0.234281674
 11
22.8324026417
 21
0.4810901552
  0
LINE
  5
366
100
AcDbEntity
  8
0
100
AcDbLine
 62
7
  6
CONTINUOUS
 10
15.7636526417
 20
-1.7401864783
 11
15.9449026417
 21
-1.9869949811
  0
LINE
  5
367
100
AcDbEntity
  8
0
100
AcDbLine
 62
7
  6
CONTINUOUS
 10
17.6969862055
 20
-0.8763566644
 11
17.5157362055
 21
-0.6295481832
  0
LINE
  5
368
100
AcDbEntity
  8
0
100
AcDbLine
 62
7
  6
CONTINUOUS
 10
18.4219862055
 20
-1.7401864783
 11
18.6032362055
 21
-1.9869949811
  0
LINE
  5
369
100
AcDbEntity
  8
0
100
AcDbLine
 62
7
  6
CONTINUOUS
 10
20.3553190779
 20
-0.8763566644
 11
20.1740690779
 21
-0.6295481832
  0
LINE
  5
36A
100
AcDbEntity
  8
0
100
AcDbLine
 62
7
  6
CONTINUOUS
 10
17.3344862055
 20
-0.8763566644
 11
17.4553190779
 21
-1.0614630253
  0
LINE
  5
36B
100
AcDbEntity
  8
0
100
AcDbLine
 62
7
  6
CONTINUOUS
 10
-0.2753583583
 20
22.9756535161
 11
1.3882326417
 21
19.7662725161
  0
LINE
  5
36C
100
AcDbEntity
  8
0
100
AcDbLine
 62
7
  6
CONTINUOUS
 10
3.2580356417
 20
19.7662935161
 11
1.4909832265
 21
23.1752971047
  0
LINE
  5
36D
100
AcDbEntity
  8
0
100
AcDbLine
 62
7
  6
CONTINUOUS
 10
15.6428190779
 20
-1.4933779538
 11
15.7636526417
 21
-1.7401864783
  0
LINE
  5
36E
100
AcDbEntity
  8
0
100
AcDbLine
 62
7
  6
CONTINUOUS
 10
10.0844859462
 20
-1.8635907189
 11
9.2386526417
 21
0.6661965161
  0
LINE
  5
36F
100
AcDbEntity
  8
0
100
AcDbLine
 62
7
  6
CONTINUOUS
 10
8.8761526417
 20
0.6661965161
 11
9.8428193372
 21
-2.2338034839
  0
LINE
  5
370
100
AcDbEntity
  8
0
100
AcDbLine
 62
253
  6
CONTINUOUS
 10
9.1761526417
 20
-9.6338034839
 11
9.1761526417
 21
-11.6338034839
  0
LINE
  5
371
100
AcDbEntity
  8
0
100
AcDbLine
 62
7
  6
CONTINUOUS
 10
9.6761526417
 20
-9.6338034839
 11
9.6761526417
 21
-11.6338034839
  0
LINE
  5
372
100
AcDbEntity
  8
0
100
AcDbLine
 62
253
  6
CONTINUOUS
 10
10.1761526417
 20
-12.1338034839
 11
10.1761526417
 21
-12.6338034839
  0
LINE
  5
373
100
AcDbEntity
  8
0
100
AcDbLine
 62
253
  6
CONTINUOUS
 10
10.1761526417
 20
-9.1338034839
 11
10.1761526413
 21
-8.6338034839
  0
LINE
  5
374
100
AcDbEntity
  8
0
100
AcDbLine
 62
7
  6
CONTINUOUS
 10
11.7761526417
 20
0.6661965161
 11
11.7761526417
 21
0.3576859146
  0
LINE
  5
375
100
AcDbEntity
  8
0
100
AcDbLine
 62
7
  6
CONTINUOUS
 10
10.3261526417
 20
-2.2338034839
 11
11.2928192507
 21
0.6661965161
  0
LINE
  5
376
100
AcDbEntity
  8
0
100
AcDbLine
 62
7
  6
CONTINUOUS
 10
10.9303192507
 20
0.6661965161
 11
10.0844859462
 21
-1.8635907189
  0
LINE
  5
377
100
AcDbEntity
  8
0
100
AcDbLine
 62
7
  6
CONTINUOUS
 10
16.0657362055
 20
-0.9380587847
 11
16.3074026417
 21
-0.7529524238
  0
LINE
  5
378
100
AcDbEntity
  8
0
100
AcDbLine
 62
7
  6
CONTINUOUS
 10
17.3344862055
 20
-1.7401864783
 11
17.1532362055
 21
-1.8635907189
  0
LINE
  5
379
100
AcDbEntity
  8
0
100
AcDbLine
 62
7
  6
CONTINUOUS
 10
21.4428197693
 20
0.1725795537
 11
21.6240697693
 21
0.2959837943
  0
LINE
  5
37A
100
AcDbEntity
  8
0
100
AcDbLine
 62
7
  6
CONTINUOUS
 10
16.2469862055
 20
-0.4444418222
 11
15.9449026417
 21
-0.6295481832
  0
LINE
  5
37B
100
AcDbEntity
  8
0
100
AcDbLine
 62
7
  6
CONTINUOUS
 10
18.9053190779
 20
-0.4444418222
 11
18.6032362055
 21
-0.6295481832
  0
LINE
  5
37C
100
AcDbEntity
  8
0
100
AcDbLine
 62
7
  6
CONTINUOUS
 10
17.2136526417
 20
-2.1721013582
 11
17.5157362055
 21
-1.9869949811
  0
LINE
  5
37D
100
AcDbEntity
  8
0
100
AcDbLine
 62
7
  6
CONTINUOUS
 10
19.8719862055
 20
-2.1721013582
 11
20.1740690779
 21
-1.9869949811
  0
LINE
  5
37E
100
AcDbEntity
  8
0
100
AcDbLine
 62
7
  6
CONTINUOUS
 10
21.5636526417
 20
0.6044943958
 11
21.3219855141
 21
0.4810901552
  0
LINE
  5
37F
100
AcDbEntity
  8
0
100
AcDbLine
 62
253
  6
CONTINUOUS
 10
25.1970479341
 20
31.2661965161
 11
-53.4447426507
 21
31.2661965161
  0
LINE
  5
380
100
AcDbEntity
  8
0
100
AcDbLine
 62
7
  6
CONTINUOUS
 10
25.1970479341
 20
31.7661965161
 11
-53.4447426507
 21
31.7661965161
  0
LINE
  5
381
100
AcDbEntity
  8
0
100
AcDbLine
 62
7
  6
CONTINUOUS
 10
19.9928190779
 20
-0.8763566644
 11
20.1136526417
 21
-1.0614630253
  0
LINE
  5
382
100
AcDbEntity
  8
0
100
AcDbLine
 62
7
  6
CONTINUOUS
 10
22.6511526417
 20
0.1725795537
 11
22.7719855141
 21
-0.0125268073
  0
LINE
  5
383
100
AcDbEntity
  8
0
100
AcDbLine
 62
7
  6
CONTINUOUS
 10
16.1261526417
 20
-1.7401864783
 11
16.0053190779
 21
-1.4933779538
  0
LINE
  5
384
100
AcDbEntity
  8
0
100
AcDbLine
 62
7
  6
CONTINUOUS
 10
18.3011526417
 20
-1.4933779538
 11
18.4219862055
 21
-1.7401864783
  0
LINE
  5
385
100
AcDbEntity
  8
0
100
AcDbLine
 62
7
  6
CONTINUOUS
 10
18.7844862055
 20
-1.7401864783
 11
18.6636526417
 21
-1.4933779538
  0
LINE
  5
386
100
AcDbEntity
  8
0
100
AcDbLine
 62
7
  6
CONTINUOUS
 10
17.8178190779
 20
-1.1848673523
 11
17.6969862055
 21
-0.8763566644
  0
LINE
  5
387
100
AcDbEntity
  8
0
100
AcDbLine
 62
7
  6
CONTINUOUS
 10
13.9511526417
 20
0.3576859146
 11
13.9511526417
 21
0.6661965161
  0
LINE
  5
388
100
AcDbEntity
  8
0
100
AcDbLine
 62
7
  6
CONTINUOUS
 10
14.4344858598
 20
0.234281674
 11
14.4344858598
 21
-0.2593354613
  0
LINE
  5
389
100
AcDbEntity
  8
0
100
AcDbLine
 62
7
  6
CONTINUOUS
 10
14.7969862055
 20
0.1725795537
 11
14.7969862055
 21
-2.2338034839
  0
LINE
  5
38A
100
AcDbEntity
  8
0
100
AcDbLine
 62
7
  6
CONTINUOUS
 10
15.0085986417
 20
6.2181594988
 11
15.0085986417
 21
6.968976498
  0
LINE
  5
38B
100
AcDbEntity
  8
0
100
AcDbLine
 62
7
  6
CONTINUOUS
 10
15.0085986417
 20
10.5634165161
 11
15.0085986417
 21
11.3142335161
  0
LINE
  5
38C
100
AcDbEntity
  8
0
100
AcDbLine
 62
7
  6
CONTINUOUS
 10
15.1594862055
 20
-2.2338034839
 11
15.1594862055
 21
0.6661965161
  0
LINE
  5
38D
100
AcDbEntity
  8
0
100
AcDbLine
 62
253
  6
CONTINUOUS
 10
15.5761526417
 20
-12.1338034839
 11
15.5761526421
 21
-12.6338034839
  0
LINE
  5
38E
100
AcDbEntity
  8
0
100
AcDbLine
 62
253
  6
CONTINUOUS
 10
15.5761526417
 20
-9.1338034839
 11
15.5761526417
 21
-8.6338034839
  0
LINE
  5
38F
100
AcDbEntity
  8
0
100
AcDbLine
 62
7
  6
CONTINUOUS
 10
15.6428190779
 20
0.6661965161
 11
15.6428190779
 21
-0.9380587847
  0
LINE
  5
390
100
AcDbEntity
  8
0
100
AcDbLine
 62
7
  6
CONTINUOUS
 10
15.9449026417
 20
-0.6295481832
 11
15.9449026417
 21
0.3576859146
  0
LINE
  5
391
100
AcDbEntity
  8
0
100
AcDbLine
 62
7
  6
CONTINUOUS
 10
16.0761526417
 20
-11.6338034839
 11
16.0761526417
 21
-9.6338034839
  0
LINE
  5
392
100
AcDbEntity
  8
0
100
AcDbLine
 62
253
  6
CONTINUOUS
 10
16.5761526417
 20
-11.6338034839
 11
16.5761526417
 21
-9.6338034839
  0
LINE
  5
393
100
AcDbEntity
  8
0
100
AcDbLine
 62
7
  6
CONTINUOUS
 10
13.5886526417
 20
0.3576859146
 11
12.3803194236
 21
-2.2338034839
  0
LINE
  5
394
100
AcDbEntity
  8
0
100
AcDbLine
 62
7
  6
CONTINUOUS
 10
12.7428194236
 20
-2.2338034839
 11
13.9511526417
 21
0.3576859146
  0
LINE
  5
395
100
AcDbEntity
  8
0
100
AcDbLine
 62
7
  6
CONTINUOUS
 10
14.7969862055
 20
0.6661965161
 11
14.4344858598
 21
0.234281674
  0
LINE
  5
396
100
AcDbEntity
  8
0
100
AcDbLine
 62
7
  6
CONTINUOUS
 10
14.4344858598
 20
-0.2593354613
 11
14.7969862055
 21
0.1725795537
  0
LINE
  5
397
100
AcDbEntity
  8
0
100
AcDbLine
 62
7
  6
CONTINUOUS
 10
21.3219855141
 20
0.4810901552
 11
21.0803197693
 21
0.234281674
  0
LINE
  5
398
100
AcDbEntity
  8
0
100
AcDbLine
 62
7
  6
CONTINUOUS
 10
22.6511526417
 20
-0.3827397019
 11
20.9594855141
 21
-1.9252928392
  0
LINE
  5
399
100
AcDbEntity
  8
0
100
AcDbLine
 62
7
  6
CONTINUOUS
 10
18.7240690779
 20
-0.9380587847
 11
18.9657362055
 21
-0.7529524238
  0
LINE
  5
39A
100
AcDbEntity
  8
0
100
AcDbLine
 62
7
  6
CONTINUOUS
 10
19.9928190779
 20
-1.7401864783
 11
19.8115690779
 21
-1.8635907189
  0
LINE
  5
39B
100
AcDbEntity
  8
0
100
AcDbLine
 62
7
  6
CONTINUOUS
 10
20.4761526417
 20
-1.1848673523
 11
20.3553190779
 21
-0.8763566644
  0
LINE
  5
39C
100
AcDbEntity
  8
0
100
AcDbLine
 62
7
  6
CONTINUOUS
 10
17.4553190779
 20
-1.0614630253
 11
17.5157362055
 21
-1.2465694726
  0
LINE
  5
39D
100
AcDbEntity
  8
0
100
AcDbLine
 62
7
  6
CONTINUOUS
 10
20.1136526417
 20
-1.0614630253
 11
20.1740690779
 21
-1.2465694726
  0
LINE
  5
39E
100
AcDbEntity
  8
0
100
AcDbLine
 62
7
  6
CONTINUOUS
 10
17.5157362055
 20
-1.2465694726
 11
17.5157362055
 21
-1.3699737132
  0
LINE
  5
39F
100
AcDbEntity
  8
0
100
AcDbLine
 62
7
  6
CONTINUOUS
 10
17.6969862055
 20
0.3576859146
 11
17.6969862055
 21
0.6661965161
  0
LINE
  5
3A0
100
AcDbEntity
  8
0
100
AcDbLine
 62
7
  6
CONTINUOUS
 10
17.8178190779
 20
-1.4316758335
 11
17.8178190779
 21
-1.1848673523
  0
LINE
  5
3A1
100
AcDbEntity
  8
0
100
AcDbLine
 62
7
  6
CONTINUOUS
 10
18.3011526417
 20
0.6661965161
 11
18.3011526417
 21
-0.9380587847
  0
LINE
  5
3A2
100
AcDbEntity
  8
0
100
AcDbLine
 62
7
  6
CONTINUOUS
 10
18.6032362055
 20
-0.6295481832
 11
18.6032362055
 21
0.3576859146
  0
LINE
  5
3A3
100
AcDbEntity
  8
0
100
AcDbLine
 62
7
  6
CONTINUOUS
 10
18.9937086417
 20
8.3911965161
 11
18.9937086417
 21
9.1411965161
  0
LINE
  5
3A4
100
AcDbEntity
  8
0
100
AcDbLine
 62
7
  6
CONTINUOUS
 10
19.3937086417
 20
6.2181593818
 11
19.3937086417
 21
6.9689800561
  0
LINE
  5
3A5
100
AcDbEntity
  8
0
100
AcDbLine
 62
7
  6
CONTINUOUS
 10
19.3937086417
 20
10.5634165161
 11
19.3937086417
 21
11.3142331934
  0
LINE
  5
3A6
100
AcDbEntity
  8
0
100
AcDbLine
 62
7
  6
CONTINUOUS
 10
20.1740690779
 20
-1.2465694726
 11
20.1740690779
 21
-1.3699737132
  0
LINE
  5
3A7
100
AcDbEntity
  8
0
100
AcDbLine
 62
7
  6
CONTINUOUS
 10
20.3553190779
 20
0.3576859146
 11
20.3553190779
 21
0.6661965161
  0
LINE
  5
3A8
100
AcDbEntity
  8
0
100
AcDbLine
 62
7
  6
CONTINUOUS
 10
20.4761526417
 20
-1.4316758335
 11
20.4761526417
 21
-1.1848673523
  0
LINE
  5
3A9
100
AcDbEntity
  8
0
100
AcDbLine
 62
7
  6
CONTINUOUS
 10
20.9594855141
 20
-1.9252928392
 11
20.9594855141
 21
-2.2338034839
  0
LINE
  5
3AA
100
AcDbEntity
  8
0
100
AcDbLine
 62
7
  6
CONTINUOUS
 10
17.5157362055
 20
-1.3699737132
 11
17.4553190779
 21
-1.5550800741
  0
LINE
  5
3AB
100
AcDbEntity
  8
0
100
AcDbLine
 62
7
  6
CONTINUOUS
 10
20.1740690779
 20
-1.3699737132
 11
20.1136526417
 21
-1.5550800741
  0
LINE
  5
3AC
100
AcDbEntity
  8
0
100
AcDbLine
 62
7
  6
CONTINUOUS
 10
17.6969862055
 20
-1.7401864783
 11
17.8178190779
 21
-1.4316758335
  0
LINE
  5
3AD
100
AcDbEntity
  8
0
100
AcDbLine
 62
7
  6
CONTINUOUS
 10
17.4553190779
 20
-1.5550800741
 11
17.3344862055
 21
-1.7401864783
  0
LINE
  5
3AE
100
AcDbEntity
  8
0
100
AcDbLine
 62
7
  6
CONTINUOUS
 10
20.1136526417
 20
-1.5550800741
 11
19.9928190779
 21
-1.7401864783
  0
LINE
  5
3AF
100
AcDbEntity
  8
0
100
AcDbLine
 62
7
  6
CONTINUOUS
 10
21.3219855141
 20
-0.0125268073
 11
21.4428197693
 21
0.1725795537
  0
LINE
  5
3B0
100
AcDbEntity
  8
0
100
AcDbLine
 62
7
  6
CONTINUOUS
 10
17.5157362055
 20
-1.9869949811
 11
17.6969862055
 21
-1.7401864783
  0
LINE
  5
3B1
100
AcDbEntity
  8
0
100
AcDbLine
 62
7
  6
CONTINUOUS
 10
20.1740690779
 20
-1.9869949811
 11
20.3553190779
 21
-1.7401864783
  0
LINE
  5
3B2
100
AcDbEntity
  8
0
100
AcDbLine
 62
7
  6
CONTINUOUS
 10
21.4428197693
 20
-1.9252928392
 11
22.9532355141
 21
-0.5678460628
  0
LWPOLYLINE
  5
3B3
100
AcDbEntity
  8
0
100
AcDbPolyline
 62
7
  6
CONTINUOUS
 90
6
 70
0
 43
0.3500000006
 10
-13.1595617065
 20
40.5161953125
 10
-12.0881336174
 20
40.5161953125
 10
-11.8738468666
 20
40.7304843292
 10
-11.8738468666
 20
41.8019112854
 10
-12.3024192352
 20
42.2304802551
 10
-12.7309904709
 20
42.2304802551
  0
LWPOLYLINE
  5
3B4
100
AcDbEntity
  8
0
100
AcDbPolyline
 62
7
  6
CONTINUOUS
 90
7
 70
0
 43
0.3500000006
 10
-14.0167041779
 20
40.5161953125
 10
-15.5167046356
 20
40.5161953125
 10
-14.0167041779
 20
42.6590537567
 10
-14.0167041779
 20
43.0876272583
 10
-14.4452754135
 20
43.516196228
 10
-15.0881334
 20
43.516196228
 10
-15.5167046356
 20
42.8733382416
  0
LINE
  5
3B5
100
AcDbEntity
  8
0
100
AcDbLine
 62
7
  6
CONTINUOUS
 10
23.1344855141
 20
-0.0125268073
 11
23.0740697693
 21
0.234281674
  0
LINE
  5
3B6
100
AcDbEntity
  8
0
100
AcDbLine
 62
7
  6
CONTINUOUS
 10
22.7719855141
 20
-0.0125268073
 11
22.7719855141
 21
-0.1359312207
  0
LINE
  5
3B7
100
AcDbEntity
  8
0
100
AcDbLine
 62
7
  6
CONTINUOUS
 10
23.1344855141
 20
-2.2338034839
 11
23.1344855141
 21
-1.9252928392
  0
LINE
  5
3B8
100
AcDbEntity
  8
0
100
AcDbLine
 62
7
  6
CONTINUOUS
 10
23.1344855141
 20
-0.1359312207
 11
23.1344855141
 21
-0.0125268073
  0
LINE
  5
3B9
100
AcDbEntity
  8
0
100
AcDbLine
 62
253
  6
CONTINUOUS
 10
25.1970479341
 20
31.2661965161
 11
25.1970479341
 21
31.7661965161
  0
LINE
  5
3BA
100
AcDbEntity
  8
0
100
AcDbLine
 62
7
  6
CONTINUOUS
 10
21.0803197693
 20
0.234281674
 11
21.0199026417
 21
-0.0125268073
  0
LINE
  5
3BB
100
AcDbEntity
  8
0
100
AcDbLine
 62
7
  6
CONTINUOUS
 10
23.0740697693
 20
-0.3827397019
 11
23.1344855141
 21
-0.1359312207
  0
LINE
  5
3BC
100
AcDbEntity
  8
0
100
AcDbLine
 62
7
  6
CONTINUOUS
 10
20.3553190779
 20
-1.7401864783
 11
20.4761526417
 21
-1.4316758335
  0
LINE
  5
3BD
100
AcDbEntity
  8
0
100
AcDbLine
 62
7
  6
CONTINUOUS
 10
22.7719855141
 20
-0.1359312207
 11
22.6511526417
 21
-0.3827397019
  0
LINE
  5
3BE
100
AcDbEntity
  8
0
100
AcDbLine
 62
7
  6
CONTINUOUS
 10
22.9532355141
 20
-0.5678460628
 11
23.0740697693
 21
-0.3827397019
  0
LINE
  5
3BF
100
AcDbEntity
  8
0
100
AcDbLine
 62
253
  6
CONTINUOUS
 10
27.6761526417
 20
-11.6338034839
 11
27.6761526417
 21
-9.6338034839
  0
LINE
  5
3C0
100
AcDbEntity
  8
0
100
AcDbLine
 62
7
  6
CONTINUOUS
 10
28.1761526417
 20
-11.6338034839
 11
28.1761526417
 21
-9.6338034839
  0
LINE
  5
3C1
100
AcDbEntity
  8
0
100
AcDbLine
 62
253
  6
CONTINUOUS
 10
28.6761526417
 20
-8.6338034839
 11
28.6761526417
 21
-9.1338034839
  0
LINE
  5
3C2
100
AcDbEntity
  8
0
100
AcDbLine
 62
253
  6
CONTINUOUS
 10
28.6761526417
 20
-12.6338034839
 11
28.6761526419
 21
-12.1338034839
  0
LINE
  5
3C3
100
AcDbEntity
  8
0
100
AcDbLine
 62
253
  6
CONTINUOUS
 10
33.308767958
 20
23.2661965161
 11
33.308767958
 21
23.7661965161
  0
LINE
  5
3C4
100
AcDbEntity
  8
0
100
AcDbLine
 62
253
  6
CONTINUOUS
 10
34.0761526417
 20
-8.6338034839
 11
34.0761526415
 21
-9.1338034839
  0
LINE
  5
3C5
100
AcDbEntity
  8
0
100
AcDbLine
 62
253
  6
CONTINUOUS
 10
34.0761526417
 20
-12.6338034839
 11
34.0761526417
 21
-12.1338034839
  0
LINE
  5
3C6
100
AcDbEntity
  8
0
100
AcDbLine
 62
7
  6
CONTINUOUS
 10
34.5761526417
 20
-9.6338034839
 11
34.5761526417
 21
-11.6338034839
  0
LINE
  5
3C7
100
AcDbEntity
  8
0
100
AcDbLine
 62
253
  6
CONTINUOUS
 10
31.3936568502
 20
24.1592274919
 11
25.5800701557
 21
31.0875903209
  0
LINE
  5
3C8
100
AcDbEntity
  8
0
100
AcDbLine
 62
7
  6
CONTINUOUS
 10
31.7766790718
 20
24.4806212967
 11
25.9630923772
 21
31.4089841258
  0
LINE
  5
3C9
100
AcDbEntity
  8
0
100
AcDbLine
 62
253
  6
CONTINUOUS
 10
35.0761526417
 20
-9.6338034839
 11
35.0761526417
 21
-11.6338034839
  0
LINE
  5
3CA
100
AcDbEntity
  8
0
100
AcDbLine
 62
253
  6
CONTINUOUS
 10
45.3765176718
 20
-14.7338034839
 11
45.376517698
 21
-15.2338034839
  0
LINE
  5
3CB
100
AcDbEntity
  8
0
100
AcDbLine
 62
253
  6
CONTINUOUS
 10
46.3765176718
 20
23.2661965161
 11
46.3765176718
 21
23.7661965161
  0
LWPOLYLINE
  5
3CC
100
AcDbEntity
  8
0
100
AcDbPolyline
 62
7
  6
CONTINUOUS
 90
3
 70
0
 43
0.3500000006
 10
53.9832939148
 20
7.4090543289
 10
53.9832939148
 20
5.9090538712
 10
51.6261509857
 20
6.5519118576
  0
LINE
  5
3CD
100
AcDbEntity
  8
0
100
AcDbLine
 62
253
  6
CONTINUOUS
 10
45.8763351568
 20
-14.2473120646
 11
46.8763351568
 21
22.7526879354
  0
LINE
  5
3CE
100
AcDbEntity
  8
0
100
AcDbLine
 62
7
  6
CONTINUOUS
 10
46.3761526417
 20
-14.2608206453
 11
47.3761526417
 21
22.7391793547
  0
LINE
  5
3CF
100
AcDbEntity
  8
0
100
AcDbLine
 62
7
  6
CONTINUOUS
 10
101.2526013514
 20
-15.2338034839
 11
102.2526013514
 21
-15.2338034839
  0
LINE
  5
3D0
100
AcDbEntity
  8
0
100
AcDbLine
 62
253
  6
CONTINUOUS
 10
101.2526013514
 20
-14.2608206453
 11
102.2526013514
 21
-14.2608206453
  0
LINE
  5
3D1
100
AcDbEntity
  8
0
100
AcDbLine
 62
7
  6
CONTINUOUS
 10
100.7526013514
 20
-2.2338034839
 11
100.5526013514
 21
-2.2338034839
  0
LINE
  5
3D2
100
AcDbEntity
  8
0
100
AcDbLine
 62
7
  6
CONTINUOUS
 10
102.7526013514
 20
-2.2338034839
 11
102.9526013514
 21
-2.2338034839
  0
LINE
  5
3D3
100
AcDbEntity
  8
0
100
AcDbLine
 62
7
  6
CONTINUOUS
 10
100.7526013514
 20
-1.9252928392
 11
100.5526013514
 21
-1.9252928392
  0
LINE
  5
3D4
100
AcDbEntity
  8
0
100
AcDbLine
 62
7
  6
CONTINUOUS
 10
100.7526013514
 20
-0.5678460628
 11
100.5526013514
 21
-0.5678460628
  0
LINE
  5
3D5
100
AcDbEntity
  8
0
100
AcDbLine
 62
7
  6
CONTINUOUS
 10
100.7526013514
 20
-0.3827397019
 11
100.5526013514
 21
-0.3827397019
  0
LINE
  5
3D6
100
AcDbEntity
  8
0
100
AcDbLine
 62
7
  6
CONTINUOUS
 10
100.7526013514
 20
-0.1359312207
 11
100.5526013514
 21
-0.1359312207
  0
LINE
  5
3D7
100
AcDbEntity
  8
0
100
AcDbLine
 62
7
  6
CONTINUOUS
 10
100.7526013514
 20
-0.0125268073
 11
100.5526013514
 21
-0.0125268073
  0
LINE
  5
3D8
100
AcDbEntity
  8
0
100
AcDbLine
 62
7
  6
CONTINUOUS
 10
100.7526013514
 20
0.234281674
 11
100.5526013514
 21
0.234281674
  0
LINE
  5
3D9
100
AcDbEntity
  8
0
100
AcDbLine
 62
7
  6
CONTINUOUS
 10
100.7526013514
 20
0.4810901552
 11
100.5526013514
 21
0.4810901552
  0
LINE
  5
3DA
100
AcDbEntity
  8
0
100
AcDbLine
 62
7
  6
CONTINUOUS
 10
100.7526013514
 20
0.6044943958
 11
100.5526013514
 21
0.6044943958
  0
LINE
  5
3DB
100
AcDbEntity
  8
0
100
AcDbLine
 62
7
  6
CONTINUOUS
 10
100.7526013514
 20
0.6661965161
 11
100.5526013514
 21
0.6661965161
  0
LINE
  5
3DC
100
AcDbEntity
  8
0
100
AcDbLine
 62
7
  6
CONTINUOUS
 10
102.7526013514
 20
0.6661965161
 11
102.9526013514
 21
0.6661965161
  0
LINE
  5
3DD
100
AcDbEntity
  8
0
100
AcDbLine
 62
7
  6
CONTINUOUS
 10
100.7526013514
 20
5.5371785161
 11
100.5526013514
 21
5.5371785161
  0
LINE
  5
3DE
100
AcDbEntity
  8
0
100
AcDbLine
 62
7
  6
CONTINUOUS
 10
102.7526013514
 20
5.5371785161
 11
102.9526013514
 21
5.5371785161
  0
LINE
  5
3DF
100
AcDbEntity
  8
0
100
AcDbLine
 62
7
  6
CONTINUOUS
 10
100.7526013514
 20
5.8454165161
 11
100.5526013514
 21
5.8454165161
  0
LINE
  5
3E0
100
AcDbEntity
  8
0
100
AcDbLine
 62
7
  6
CONTINUOUS
 10
102.7526013514
 20
6.1424540835
 11
102.9526013514
 21
6.1424540835
  0
LINE
  5
3E1
100
AcDbEntity
  8
0
100
AcDbLine
 62
7
  6
CONTINUOUS
 10
100.7526013514
 20
6.2181593983
 11
100.5526013514
 21
6.2181565161
  0
LINE
  5
3E2
100
AcDbEntity
  8
0
100
AcDbLine
 62
7
  6
CONTINUOUS
 10
100.5526013514
 20
-2.2338034839
 11
100.5526013514
 21
0.6661965161
  0
LINE
  5
3E3
100
AcDbEntity
  8
0
100
AcDbLine
 62
7
  6
CONTINUOUS
 10
100.5526013514
 20
5.5371785161
 11
100.5526013514
 21
11.3142331934
  0
LINE
  5
3E4
100
AcDbEntity
  8
0
100
AcDbLine
 62
7
  6
CONTINUOUS
 10
100.5526013514
 20
11.316195056
 11
100.5526013514
 21
11.3893897754
  0
LINE
  5
3E5
100
AcDbEntity
  8
0
100
AcDbLine
 62
7
  6
CONTINUOUS
 10
100.5526013514
 20
19.7662935161
 11
100.5526013514
 21
28.0666465091
  0
LINE
  5
3E6
100
AcDbEntity
  8
0
100
AcDbLine
 62
7
  6
CONTINUOUS
 10
100.7526013514
 20
-14.7338034839
 11
100.7526013514
 21
31.2661965161
  0
LINE
  5
3E7
100
AcDbEntity
  8
0
100
AcDbLine
 62
253
  6
CONTINUOUS
 10
101.2526013514
 20
-15.2338034839
 11
101.2526013514
 21
31.7661965161
  0
LINE
  5
3E8
100
AcDbEntity
  8
0
100
AcDbLine
 62
7
  6
CONTINUOUS
 10
100.7526013514
 20
6.9689795645
 11
100.5526013514
 21
6.9689765161
  0
LINE
  5
3E9
100
AcDbEntity
  8
0
100
AcDbLine
 62
7
  6
CONTINUOUS
 10
100.7526013514
 20
8.3911965161
 11
100.5526013514
 21
8.3911965161
  0
LINE
  5
3EA
100
AcDbEntity
  8
0
100
AcDbLine
 62
253
  6
CONTINUOUS
 10
102.2526013514
 20
31.7661965161
 11
102.2526013514
 21
-15.2338034839
  0
LINE
  5
3EB
100
AcDbEntity
  8
0
100
AcDbLine
 62
7
  6
CONTINUOUS
 10
102.7526013514
 20
31.2661965161
 11
102.7526013514
 21
-14.7338034839
  0
LINE
  5
3EC
100
AcDbEntity
  8
0
100
AcDbLine
 62
7
  6
CONTINUOUS
 10
102.9526013514
 20
28.0666255161
 11
102.9526013514
 21
19.7662305161
  0
LINE
  5
3ED
100
AcDbEntity
  8
0
100
AcDbLine
 62
7
  6
CONTINUOUS
 10
102.9526013514
 20
11.3896762983
 11
102.9526013514
 21
5.5371785161
  0
LINE
  5
3EE
100
AcDbEntity
  8
0
100
AcDbLine
 62
7
  6
CONTINUOUS
 10
102.9526013514
 20
0.6661965161
 11
102.9526013514
 21
-2.2338034839
  0
LINE
  5
3EF
100
AcDbEntity
  8
0
100
AcDbLine
 62
7
  6
CONTINUOUS
 10
100.7526013514
 20
9.1411965161
 11
100.5526013514
 21
9.1411965161
  0
LINE
  5
3F0
100
AcDbEntity
  8
0
100
AcDbLine
 62
7
  6
CONTINUOUS
 10
100.7526013514
 20
10.5634165161
 11
100.5526013514
 21
10.5634165161
  0
LINE
  5
3F1
100
AcDbEntity
  8
0
100
AcDbLine
 62
7
  6
CONTINUOUS
 10
100.7526013514
 20
11.3142336338
 11
100.5526013514
 21
11.3142365161
  0
LINE
  5
3F2
100
AcDbEntity
  8
0
100
AcDbLine
 62
7
  6
CONTINUOUS
 10
100.7526013514
 20
11.3899389487
 11
100.5526013514
 21
11.3899389487
  0
LINE
  5
3F3
100
AcDbEntity
  8
0
100
AcDbLine
 62
7
  6
CONTINUOUS
 10
102.7526013514
 20
11.3899389487
 11
102.9526013514
 21
11.3899389487
  0
LINE
  5
3F4
100
AcDbEntity
  8
0
100
AcDbLine
 62
7
  6
CONTINUOUS
 10
102.7526013514
 20
19.7662305161
 11
102.9526013514
 21
19.7662305161
  0
LINE
  5
3F5
100
AcDbEntity
  8
0
100
AcDbLine
 62
7
  6
CONTINUOUS
 10
100.7526013514
 20
19.7662935161
 11
100.5526013514
 21
19.7662935161
  0
LINE
  5
3F6
100
AcDbEntity
  8
0
100
AcDbLine
 62
253
  6
CONTINUOUS
 10
101.2526013514
 20
22.7391793547
 11
102.2526013514
 21
22.7391793547
  0
LINE
  5
3F7
100
AcDbEntity
  8
0
100
AcDbLine
 62
7
  6
CONTINUOUS
 10
100.7526013514
 20
23.1752966945
 11
100.5526013514
 21
23.1752905161
  0
LINE
  5
3F8
100
AcDbEntity
  8
0
100
AcDbLine
 62
7
  6
CONTINUOUS
 10
101.2526013514
 20
23.7661965161
 11
102.2526013514
 21
23.7661965161
  0
LINE
  5
3F9
100
AcDbEntity
  8
0
100
AcDbLine
 62
253
  6
CONTINUOUS
 10
101.2526013514
 20
24.4806212967
 11
102.2526013514
 21
24.4806212967
  0
LINE
  5
3FA
100
AcDbEntity
  8
0
100
AcDbLine
 62
7
  6
CONTINUOUS
 10
102.7526013514
 20
28.0666255161
 11
102.9526013514
 21
28.0666255161
  0
LINE
  5
3FB
100
AcDbEntity
  8
0
100
AcDbLine
 62
7
  6
CONTINUOUS
 10
100.7526013514
 20
28.0666465161
 11
100.5526013514
 21
28.0666465161
  0
LINE
  5
3FC
100
AcDbEntity
  8
0
100
AcDbLine
 62
253
  6
CONTINUOUS
 10
101.2526013514
 20
31.4089841258
 11
102.2526013514
 21
31.4089841258
  0
LINE
  5
3FD
100
AcDbEntity
  8
0
100
AcDbLine
 62
7
  6
CONTINUOUS
 10
101.2526013514
 20
31.7661965161
 11
102.2526013514
 21
31.7661965161
  0
LWPOLYLINE
  5
3FE
100
AcDbEntity
  8
0
100
AcDbPolyline
 62
7
  6
CONTINUOUS
 90
7
 70
0
 43
0.3500000006
 10
94.2125820007
 20
40.5161953125
 10
92.712581543
 20
40.5161953125
 10
94.2125820007
 20
42.6590537567
 10
94.2125820007
 20
43.0876272583
 10
93.7840039673
 20
43.516196228
 10
93.1411505127
 20
43.516196228
 10
92.712581543
 20
42.8733382416
  0
ARC
  5
3FF
100
AcDbEntity
  8
0
100
AcDbCircle
 62
7
  6
CONTINUOUS
 10
-73.6242123884
 20
-14.2338034839
 40
1.0
100
AcDbArc
 50
181.548157699
 51
270.0
  0
ARC
  5
400
100
AcDbEntity
  8
0
100
AcDbCircle
 62
253
  6
CONTINUOUS
 10
-62.3238473583
 20
-9.6338034839
 40
1.0
100
AcDbArc
 50
90.0
 51
180.0
  0
ARC
  5
401
100
AcDbEntity
  8
0
100
AcDbCircle
 62
253
  6
CONTINUOUS
 10
-56.9238473583
 20
-9.6338034839
 40
1.0
100
AcDbArc
 50
0.0
 51
90.0
  0
ARC
  5
402
100
AcDbEntity
  8
0
100
AcDbCircle
 62
253
  6
CONTINUOUS
 10
-56.9238473583
 20
-11.6338034839
 40
1.0
100
AcDbArc
 50
270.0
 51
360.0
  0
ARC
  5
403
100
AcDbEntity
  8
0
100
AcDbCircle
 62
253
  6
CONTINUOUS
 10
-62.3238473583
 20
-11.6338034839
 40
1.0
100
AcDbArc
 50
180.0
 51
270.0
  0
ARC
  5
404
100
AcDbEntity
  8
0
100
AcDbCircle
 62
7
  6
CONTINUOUS
 10
-62.3238473583
 20
-11.6338034839
 40
0.5
100
AcDbArc
 50
180.0
 51
270.0
  0
ARC
  5
405
100
AcDbEntity
  8
0
100
AcDbCircle
 62
7
  6
CONTINUOUS
 10
-62.3238473583
 20
-9.6338034839
 40
0.5
100
AcDbArc
 50
90.0
 51
180.0
  0
ARC
  5
406
100
AcDbEntity
  8
0
100
AcDbCircle
 62
7
  6
CONTINUOUS
 10
-56.9238473583
 20
-9.6338034839
 40
0.5
100
AcDbArc
 50
0.0
 51
90.0
  0
ARC
  5
407
100
AcDbEntity
  8
0
100
AcDbCircle
 62
7
  6
CONTINUOUS
 10
-56.9238473583
 20
-11.6338034839
 40
0.5
100
AcDbArc
 50
270.0
 51
360.0
  0
ARC
  5
408
100
AcDbEntity
  8
0
100
AcDbCircle
 62
253
  6
CONTINUOUS
 10
-73.6242123884
 20
-14.2338034839
 40
0.5
100
AcDbArc
 50
181.548157699
 51
270.0
  0
ARC
  5
409
100
AcDbEntity
  8
0
100
AcDbCircle
 62
253
  6
CONTINUOUS
 10
-43.8238473583
 20
-9.6338034839
 40
1.0
100
AcDbArc
 50
90.0
 51
180.0
  0
ARC
  5
40A
100
AcDbEntity
  8
0
100
AcDbCircle
 62
253
  6
CONTINUOUS
 10
-38.4238473583
 20
-9.6338034839
 40
1.0
100
AcDbArc
 50
0.0
 51
90.0
  0
ARC
  5
40B
100
AcDbEntity
  8
0
100
AcDbCircle
 62
253
  6
CONTINUOUS
 10
-38.4238473583
 20
-11.6338034839
 40
1.0
100
AcDbArc
 50
270.0
 51
360.0
  0
ARC
  5
40C
100
AcDbEntity
  8
0
100
AcDbCircle
 62
253
  6
CONTINUOUS
 10
-43.8238473583
 20
-11.6338034839
 40
1.0
100
AcDbArc
 50
180.0
 51
270.0
  0
ARC
  5
40D
100
AcDbEntity
  8
0
100
AcDbCircle
 62
7
  6
CONTINUOUS
 10
-38.4238473583
 20
-11.6338034839
 40
0.5
100
AcDbArc
 50
270.0
 51
360.0
  0
ARC
  5
40E
100
AcDbEntity
  8
0
100
AcDbCircle
 62
7
  6
CONTINUOUS
 10
-43.8238473583
 20
-11.6338034839
 40
0.5
100
AcDbArc
 50
180.0
 51
270.0
  0
ARC
  5
40F
100
AcDbEntity
  8
0
100
AcDbCircle
 62
7
  6
CONTINUOUS
 10
-43.8238473583
 20
-9.6338034839
 40
0.5
100
AcDbArc
 50
90.0
 51
180.0
  0
ARC
  5
410
100
AcDbEntity
  8
0
100
AcDbCircle
 62
7
  6
CONTINUOUS
 10
-38.4238473583
 20
-9.6338034839
 40
0.5
100
AcDbArc
 50
0.0
 51
90.0
  0
ARC
  5
411
100
AcDbEntity
  8
0
100
AcDbCircle
 62
7
  6
CONTINUOUS
 10
-44.2032043583
 20
3.8201035161
 40
2.3390187052
100
AcDbArc
 50
47.2312712626
 51
84.2013274301
  0
ARC
  5
412
100
AcDbEntity
  8
0
100
AcDbCircle
 62
7
  6
CONTINUOUS
 10
-44.0191253583
 20
4.1989725161
 40
2.3109495123
100
AcDbArc
 50
45.4348886633
 51
67.5658628982
  0
ARC
  5
413
100
AcDbEntity
  8
0
100
AcDbCircle
 62
7
  6
CONTINUOUS
 10
-44.1238473583
 20
8.7661965161
 40
2.6237424326
100
AcDbArc
 50
292.0885382275
 51
273.4296897698
  0
ARC
  5
414
100
AcDbEntity
  8
0
100
AcDbCircle
 62
253
  6
CONTINUOUS
 10
-61.5564626746
 20
25.7661965161
 40
2.5
100
AcDbArc
 50
270.0
 51
320.0
  0
CIRCLE
  5
415
100
AcDbEntity
  8
0
100
AcDbCircle
 62
7
  6
CONTINUOUS
 10
-44.1238473583
 20
8.7661965161
 40
2.20376
  0
ARC
  5
416
100
AcDbEntity
  8
0
100
AcDbCircle
 62
7
  6
CONTINUOUS
 10
-61.5564626746
 20
25.7661965161
 40
2.0
100
AcDbArc
 50
270.0
 51
320.0
  0
ARC
  5
417
100
AcDbEntity
  8
0
100
AcDbCircle
 62
7
  6
CONTINUOUS
 10
-44.1238473583
 20
8.7661965161
 40
1.9709567246
100
AcDbArc
 50
299.3041457634
 51
44.9957848459
  0
ARC
  5
418
100
AcDbEntity
  8
0
100
AcDbCircle
 62
7
  6
CONTINUOUS
 10
-44.1238473583
 20
8.7661965161
 40
1.9709563643
100
AcDbArc
 50
134.9002846268
 51
240.6958542366
  0
ARC
  5
419
100
AcDbEntity
  8
0
100
AcDbCircle
 62
7
  6
CONTINUOUS
 10
-44.1238473583
 20
8.7661965161
 40
1.5790921275
100
AcDbArc
 50
148.0267086216
 51
240.6958772397
  0
ARC
  5
41A
100
AcDbEntity
  8
0
100
AcDbCircle
 62
7
  6
CONTINUOUS
 10
-44.1238473583
 20
8.7661965161
 40
1.5790919977
100
AcDbArc
 50
299.3041227603
 51
31.9732906878
  0
ARC
  5
41B
100
AcDbEntity
  8
0
100
AcDbCircle
 62
7
  6
CONTINUOUS
 10
-74.6242123884
 20
22.7661965161
 40
1.0
100
AcDbArc
 50
90.0
 51
181.548157699
  0
ARC
  5
41C
100
AcDbEntity
  8
0
100
AcDbCircle
 62
7
  6
CONTINUOUS
 10
-53.4447426507
 20
30.7661965161
 40
1.0
100
AcDbArc
 50
90.0
 51
140.0
  0
ARC
  5
41D
100
AcDbEntity
  8
0
100
AcDbCircle
 62
253
  6
CONTINUOUS
 10
-53.4447426507
 20
30.7661965161
 40
0.5
100
AcDbArc
 50
90.0
 51
140.0
  0
ARC
  5
41E
100
AcDbEntity
  8
0
100
AcDbCircle
 62
253
  6
CONTINUOUS
 10
-74.6242123884
 20
22.7661965161
 40
0.5
100
AcDbArc
 50
90.0
 51
181.548157699
  0
ARC
  5
41F
100
AcDbEntity
  8
0
100
AcDbCircle
 62
253
  6
CONTINUOUS
 10
15.5761526417
 20
-11.6338034839
 40
1.0
100
AcDbArc
 50
270.0
 51
360.0
  0
ARC
  5
420
100
AcDbEntity
  8
0
100
AcDbCircle
 62
253
  6
CONTINUOUS
 10
10.1761526417
 20
-11.6338034839
 40
1.0
100
AcDbArc
 50
180.0
 51
270.0
  0
ARC
  5
421
100
AcDbEntity
  8
0
100
AcDbCircle
 62
253
  6
CONTINUOUS
 10
10.1761526417
 20
-9.6338034839
 40
1.0
100
AcDbArc
 50
90.0
 51
180.0
  0
ARC
  5
422
100
AcDbEntity
  8
0
100
AcDbCircle
 62
253
  6
CONTINUOUS
 10
15.5761526417
 20
-9.6338034839
 40
1.0
100
AcDbArc
 50
0.0
 51
90.0
  0
ARC
  5
423
100
AcDbEntity
  8
0
100
AcDbCircle
 62
7
  6
CONTINUOUS
 10
10.1761526417
 20
-11.6338034839
 40
0.5
100
AcDbArc
 50
180.0
 51
270.0
  0
ARC
  5
424
100
AcDbEntity
  8
0
100
AcDbCircle
 62
7
  6
CONTINUOUS
 10
10.1761526417
 20
-9.6338034839
 40
0.5
100
AcDbArc
 50
90.0
 51
180.0
  0
ARC
  5
425
100
AcDbEntity
  8
0
100
AcDbCircle
 62
7
  6
CONTINUOUS
 10
15.5761526417
 20
-9.6338034839
 40
0.5
100
AcDbArc
 50
0.0
 51
90.0
  0
ARC
  5
426
100
AcDbEntity
  8
0
100
AcDbCircle
 62
7
  6
CONTINUOUS
 10
15.5761526417
 20
-11.6338034839
 40
0.5
100
AcDbArc
 50
270.0
 51
360.0
  0
ARC
  5
427
100
AcDbEntity
  8
0
100
AcDbCircle
 62
7
  6
CONTINUOUS
 10
45.3765176718
 20
-14.2338034839
 40
1.0
100
AcDbArc
 50
270.0
 51
358.451842301
  0
ARC
  5
428
100
AcDbEntity
  8
0
100
AcDbCircle
 62
253
  6
CONTINUOUS
 10
45.3765176718
 20
-14.2338034839
 40
0.5
100
AcDbArc
 50
270.0
 51
358.451842301
  0
ARC
  5
429
100
AcDbEntity
  8
0
100
AcDbCircle
 62
253
  6
CONTINUOUS
 10
34.0761526417
 20
-9.6338034839
 40
1.0
100
AcDbArc
 50
0.0
 51
90.0
  0
ARC
  5
42A
100
AcDbEntity
  8
0
100
AcDbCircle
 62
253
  6
CONTINUOUS
 10
34.0761526417
 20
-11.6338034839
 40
1.0
100
AcDbArc
 50
270.0
 51
360.0
  0
ARC
  5
42B
100
AcDbEntity
  8
0
100
AcDbCircle
 62
253
  6
CONTINUOUS
 10
28.6761526417
 20
-11.6338034839
 40
1.0
100
AcDbArc
 50
180.0
 51
270.0
  0
ARC
  5
42C
100
AcDbEntity
  8
0
100
AcDbCircle
 62
253
  6
CONTINUOUS
 10
28.6761526417
 20
-9.6338034839
 40
1.0
100
AcDbArc
 50
90.0
 51
180.0
  0
ARC
  5
42D
100
AcDbEntity
  8
0
100
AcDbCircle
 62
7
  6
CONTINUOUS
 10
28.6761526417
 20
-11.6338034839
 40
0.5
100
AcDbArc
 50
180.0
 51
270.0
  0
ARC
  5
42E
100
AcDbEntity
  8
0
100
AcDbCircle
 62
7
  6
CONTINUOUS
 10
34.0761526417
 20
-11.6338034839
 40
0.5
100
AcDbArc
 50
270.0
 51
360.0
  0
ARC
  5
42F
100
AcDbEntity
  8
0
100
AcDbCircle
 62
7
  6
CONTINUOUS
 10
34.0761526417
 20
-9.6338034839
 40
0.5
100
AcDbArc
 50
0.0
 51
90.0
  0
ARC
  5
430
100
AcDbEntity
  8
0
100
AcDbCircle
 62
7
  6
CONTINUOUS
 10
28.6761526417
 20
-9.6338034839
 40
0.5
100
AcDbArc
 50
90.0
 51
180.0
  0
ARC
  5
431
100
AcDbEntity
  8
0
100
AcDbCircle
 62
7
  6
CONTINUOUS
 10
19.2937086417
 20
8.7661965161
 40
2.5499986575
100
AcDbArc
 50
87.75252881
 51
272.2474707873
  0
ARC
  5
432
100
AcDbEntity
  8
0
100
AcDbCircle
 62
7
  6
CONTINUOUS
 10
14.9085986417
 20
8.7661965161
 40
2.5499985399
100
AcDbArc
 50
87.7525290943
 51
272.2474708905
  0
ARC
  5
433
100
AcDbEntity
  8
0
100
AcDbCircle
 62
7
  6
CONTINUOUS
 10
0.5028076417
 20
25.5211565161
 40
2.5454959653
100
AcDbArc
 50
292.8428919725
 51
89.9991482015
  0
ARC
  5
434
100
AcDbEntity
  8
0
100
AcDbCircle
 62
253
  6
CONTINUOUS
 10
33.308767958
 20
25.7661965161
 40
2.5
100
AcDbArc
 50
220.0
 51
270.0
  0
ARC
  5
435
100
AcDbEntity
  8
0
100
AcDbCircle
 62
7
  6
CONTINUOUS
 10
33.308767958
 20
25.7661965161
 40
2.0
100
AcDbArc
 50
220.0
 51
270.0
  0
ARC
  5
436
100
AcDbEntity
  8
0
100
AcDbCircle
 62
7
  6
CONTINUOUS
 10
14.9085986417
 20
8.7661965161
 40
1.7999999246
100
AcDbArc
 50
86.8152613297
 51
273.1847386383
  0
ARC
  5
437
100
AcDbEntity
  8
0
100
AcDbCircle
 62
7
  6
CONTINUOUS
 10
19.2937086417
 20
8.7661965161
 40
1.7999999246
100
AcDbArc
 50
86.8152613297
 51
167.9752996292
  0
ARC
  5
438
100
AcDbEntity
  8
0
100
AcDbCircle
 62
7
  6
CONTINUOUS
 10
19.2937086417
 20
8.7661965161
 40
1.7999968808
100
AcDbArc
 50
192.0247203293
 51
273.1847449305
  0
ARC
  5
439
100
AcDbEntity
  8
0
100
AcDbCircle
 62
7
  6
CONTINUOUS
 10
0.2723946417
 20
25.5211565161
 40
1.009925
100
AcDbArc
 50
270.0017112976
 51
90.000570428
  0
ARC
  5
43A
100
AcDbEntity
  8
0
100
AcDbCircle
 62
7
  6
CONTINUOUS
 10
25.1970479341
 20
30.7661965161
 40
1.0
100
AcDbArc
 50
40.0
 51
90.0
  0
ARC
  5
43B
100
AcDbEntity
  8
0
100
AcDbCircle
 62
7
  6
CONTINUOUS
 10
46.3765176718
 20
22.7661965161
 40
1.0
100
AcDbArc
 50
358.451842301
 51
90.0
  0
ARC
  5
43C
100
AcDbEntity
  8
0
100
AcDbCircle
 62
253
  6
CONTINUOUS
 10
46.3765176718
 20
22.7661965161
 40
0.5
100
AcDbArc
 50
358.451842301
 51
90.0
  0
ARC
  5
43D
100
AcDbEntity
  8
0
100
AcDbCircle
 62
253
  6
CONTINUOUS
 10
25.1970479341
 20
30.7661965161
 40
0.5
100
AcDbArc
 50
40.0
 51
90.0
  0
ARC
  5
43E
100
AcDbEntity
  8
0
100
AcDbCircle
 62
7
  6
CONTINUOUS
 10
101.2526013514
 20
-14.7338034839
 40
0.5
100
AcDbArc
 50
180.0
 51
270.0
  0
ARC
  5
43F
100
AcDbEntity
  8
0
100
AcDbCircle
 62
7
  6
CONTINUOUS
 10
101.2526013514
 20
31.2661965161
 40
0.5
100
AcDbArc
 50
90.0
 51
180.0
  0
ARC
  5
440
100
AcDbEntity
  8
0
100
AcDbCircle
 62
7
  6
CONTINUOUS
 10
102.2526013514
 20
-14.7338034839
 40
0.5
100
AcDbArc
 50
270.0
 51
360.0
  0
ARC
  5
441
100
AcDbEntity
  8
0
100
AcDbCircle
 62
7
  6
CONTINUOUS
 10
102.2526013514
 20
23.2661965161
 40
0.5
100
AcDbArc
 50
0.0
 51
90.0
  0
ARC
  5
442
100
AcDbEntity
  8
0
100
AcDbCircle
 62
7
  6
CONTINUOUS
 10
101.2526013514
 20
23.2661965161
 40
0.5
100
AcDbArc
 50
90.0
 51
180.0
  0
ARC
  5
443
100
AcDbEntity
  8
0
100
AcDbCircle
 62
7
  6
CONTINUOUS
 10
102.2526013514
 20
31.2661965161
 40
0.5
100
AcDbArc
 50
0.0
 51
90.0
  0
SPLINE
  5
444
100
AcDbEntity
  8
0
100
AcDbSpline
 62
7
  6
CONTINUOUS
 70
0
 71
3
 72
15
 73
11
 74
9
 42
0.0000001
 43
0.0000001
 44
0.0000000001
 12
0.0365913311
 22
2.1221281011
 32
0.0
 13
-2.1224211779
 23
0.0097440516
 33
0.0
 40
0.0
 40
0.0
 40
0.0
 40
0.0
 40
0.1149293105
 40
0.2060811432
 40
0.3341924356
 40
0.4552601699
 40
0.5704742312
 40
0.6837748557
 40
0.8381885424
 40
1.0
 40
1.0
 40
1.0
 40
1.0
 10
-49.6390941406
 20
-0.7838034839
 30
0.0
 10
-49.6376923351
 20
-0.7025052441
 30
0.0
 10
-49.6414836788
 20
-0.5564461018
 30
0.0
 10
-49.6750381969
 20
-0.3217397281
 30
0.0
 10
-49.7467656003
 20
-0.091082853
 30
0.0
 10
-49.8554141381
 20
0.1448900278
 30
0.0
 10
-50.0151305323
 20
0.3363532964
 30
0.0
 10
-50.2219251558
 20
0.5142541944
 30
0.0
 10
-50.5061142078
 20
0.6366810454
 30
0.0
 10
-50.7307241056
 20
0.6656709497
 30
0.0
 10
-50.8452014605
 20
0.6661965161
 30
0.0
 11
-49.6390941406
 21
-0.7838034839
 31
0.0
 11
-49.6471773785
 21
-0.5400064762
 31
0.0
 11
-49.6755089596
 21
-0.3486275842
 31
0.0
 11
-49.7540071399
 21
-0.0882960031
 31
0.0
 11
-49.8670051181
 21
0.1424844255
 31
0.0
 11
-50.0208352839
 21
0.3325733863
 31
0.0
 11
-50.20555344
 21
0.4865442718
 31
0.0
 11
-50.5048878516
 21
0.6199935238
 31
0.0
 11
-50.8452014605
 21
0.6661965161
 31
0.0
  0
SPLINE
  5
445
100
AcDbEntity
  8
0
100
AcDbSpline
 62
7
  6
CONTINUOUS
 70
0
 71
3
 72
15
 73
11
 74
9
 42
0.0000001
 43
0.0000001
 44
0.0000000001
 12
2.1346429542
 22
-0.0098038964
 32
0.0
 13
-0.0368020393
 23
2.1343482069
 33
0.0
 40
0.0
 40
0.0
 40
0.0
 40
0.0
 40
0.1666104649
 40
0.3201400637
 40
0.432791991
 40
0.5473463999
 40
0.6677209668
 40
0.7950987643
 40
0.8857287116
 40
1.0
 40
1.0
 40
1.0
 40
1.0
 10
-50.8575316042
 20
-2.2338034839
 30
0.0
 10
-50.7389803191
 20
-2.2343479612
 30
0.0
 10
-50.5098935958
 20
-2.2059144321
 30
0.0
 10
-50.2219307492
 20
-2.0818638859
 30
0.0
 10
-50.0151292103
 20
-1.9039596205
 30
0.0
 10
-49.8554145146
 20
-1.712497179
 30
0.0
 10
-49.7467654895
 20
-1.4765240608
 30
0.0
 10
-49.6750382177
 20
-1.2458672499
 30
0.0
 10
-49.6414836723
 20
-1.0111608628
 30
0.0
 10
-49.6376923351
 20
-0.8651017237
 30
0.0
 10
-49.6390941406
 20
-0.7838034839
 30
0.0
 11
-50.8575316042
 21
-2.2338034839
 31
0.0
 11
-50.5048878516
 21
-2.1876004916
 31
0.0
 11
-50.20555344
 21
-2.0541512397
 31
0.0
 11
-50.0208352839
 21
-1.9001803541
 31
0.0
 11
-49.8670051181
 21
-1.7100913933
 31
0.0
 11
-49.7540071399
 21
-1.4793109647
 31
0.0
 11
-49.6755089596
 21
-1.2189793836
 31
0.0
 11
-49.6471773785
 21
-1.0276004916
 31
0.0
 11
-49.6390941406
 21
-0.7838034839
 31
0.0
  0
SPLINE
  5
446
100
AcDbEntity
  8
0
100
AcDbSpline
 62
7
  6
CONTINUOUS
 70
0
 71
3
 72
14
 73
10
 74
8
 42
0.0000001
 43
0.0000001
 44
0.0000000001
 12
1.5560699852
 22
-0.0383374356
 32
0.0
 13
-0.0419851072
 23
-1.5559756837
 33
0.0
 40
0.0
 40
0.0
 40
0.0
 40
0.0
 40
0.134413714
 40
0.2464867212
 40
0.3932270452
 40
0.5898660683
 40
0.7257733257
 40
0.8770579266
 40
1.0
 40
1.0
 40
1.0
 40
1.0
 10
-50.8674998174
 20
0.3310488725
 30
0.0
 10
-50.7977807688
 20
0.3293311801
 30
0.0
 10
-50.6696551768
 20
0.3106122095
 30
0.0
 10
-50.4786919228
 20
0.2346635071
 30
0.0
 10
-50.2868080253
 20
0.090389698
 30
0.0
 10
-50.1489875383
 20
-0.1246653229
 30
0.0
 10
-50.079488235
 20
-0.3668787059
 30
0.0
 10
-50.0453988097
 20
-0.5774392352
 30
0.0
 10
-50.0404920714
 20
-0.720038525
 30
0.0
 10
-50.0422126501
 20
-0.7838034839
 30
0.0
 11
-50.8674998174
 21
0.3310488725
 31
0.0
 11
-50.6605473745
 21
0.3003251048
 31
0.0
 11
-50.498649275
 21
0.2353594761
 31
0.0
 11
-50.3162178152
 21
0.0979231639
 31
0.0
 11
-50.1482570389
 21
-0.157952291
 31
0.0
 11
-50.085589833
 21
-0.3600024326
 31
0.0
 11
-50.0484867194
 21
-0.5925418584
 31
0.0
 11
-50.0422126501
 21
-0.7838034839
 31
0.0
  0
SPLINE
  5
447
100
AcDbEntity
  8
0
100
AcDbSpline
 62
7
  6
CONTINUOUS
 70
0
 71
3
 72
14
 73
10
 74
8
 42
0.0000001
 43
0.0000001
 44
0.0000000001
 12
0.0419851072
 22
-1.5559756838
 32
0.0
 13
-1.5560699853
 23
-0.0383374355
 33
0.0
 40
0.0
 40
0.0
 40
0.0
 40
0.0
 40
0.1229420734
 40
0.2742266742
 40
0.4101339316
 40
0.6067729548
 40
0.7535132787
 40
0.865586286
 40
1.0
 40
1.0
 40
1.0
 40
1.0
 10
-50.0422126501
 20
-0.7838034839
 30
0.0
 10
-50.0404920714
 20
-0.8475684428
 30
0.0
 10
-50.0453988097
 20
-0.9901677326
 30
0.0
 10
-50.079488235
 20
-1.2007282619
 30
0.0
 10
-50.1489875383
 20
-1.4429416449
 30
0.0
 10
-50.2868080253
 20
-1.6579966658
 30
0.0
 10
-50.4786919228
 20
-1.8022704749
 30
0.0
 10
-50.6696551769
 20
-1.8782191773
 30
0.0
 10
-50.7977807689
 20
-1.896938148
 30
0.0
 10
-50.8674998175
 20
-1.8986558403
 30
0.0
 11
-50.0422126501
 21
-0.7838034839
 31
0.0
 11
-50.0484867194
 21
-0.9750651095
 31
0.0
 11
-50.085589833
 21
-1.2076045353
 31
0.0
 11
-50.1482570389
 21
-1.4096546768
 31
0.0
 11
-50.3162178152
 21
-1.6655301317
 31
0.0
 11
-50.498649275
 21
-1.8029664439
 31
0.0
 11
-50.6605473745
 21
-1.8679320727
 31
0.0
 11
-50.8674998175
 21
-1.8986558403
 31
0.0
  0
LINE
  5
448
100
AcDbEntity
  8
0
100
AcDbLine
 62
7
  6
CONTINUOUS
 10
-4.1238473583
 20
-15.2338034839
 11
-3.9167405771
 21
-14.7338034839
  0
LINE
  5
449
100
AcDbEntity
  8
0
100
AcDbLine
 62
7
  6
CONTINUOUS
 10
-6.1238473583
 20
-13.2338034839
 11
-5.9167405771
 21
-12.7338034839
  0
LINE
  5
44A
100
AcDbEntity
  8
0
100
AcDbLine
 62
7
  6
CONTINUOUS
 10
-22.1238473583
 20
-13.2338034839
 11
-22.3309541395
 21
-12.7338034839
  0
LINE
  5
44B
100
AcDbEntity
  8
0
100
AcDbLine
 62
7
  6
CONTINUOUS
 10
-24.1238473583
 20
-15.2338034839
 11
-24.3309541395
 21
-14.7338034839
  0
SPLINE
  5
44C
100
AcDbEntity
  8
0
100
AcDbSpline
 62
253
  6
CONTINUOUS
 70
0
 71
3
 72
11
 73
7
 74
5
 42
0.0000001
 43
0.0000001
 44
0.0000000001
 12
0.0
 22
0.6485833211
 32
0.0
 13
0.6485833211
 23
0.0
 33
0.0
 40
0.0
 40
0.0
 40
0.0
 40
0.0
 40
0.1985040175
 40
0.4303898877
 40
0.7025835001
 40
1.0
 40
1.0
 40
1.0
 40
1.0
 10
100.7526013514
 20
24.1592274919
 30
0.0
 10
100.7526013514
 20
24.2021429569
 30
0.0
 10
100.7847023732
 20
24.2960151182
 30
0.0
 10
100.9019429842
 20
24.3992620156
 30
0.0
 10
101.0644752301
 20
24.4655650505
 30
0.0
 10
101.1883015576
 20
24.4806212967
 30
0.0
 10
101.2526013514
 20
24.4806212967
 30
0.0
 11
100.7526013514
 21
24.1592274919
 31
0.0
 11
100.7906615851
 21
24.2822195762
 31
0.0
 11
100.8990479608
 21
24.3864872307
 31
0.0
 11
101.0612596352
 21
24.45615665
 31
0.0
 11
101.2526013514
 21
24.4806212967
 31
0.0
  0
SPLINE
  5
44D
100
AcDbEntity
  8
0
100
AcDbSpline
 62
253
  6
CONTINUOUS
 70
0
 71
3
 72
9
 73
5
 74
3
 42
0.0000001
 43
0.0000001
 44
0.0000000001
 12
0.0
 22
0.2267522703
 32
0.0
 13
0.1737991667
 23
0.1456380505
 33
0.0
 40
0.0
 40
0.0
 40
0.0
 40
0.0
 40
0.4701533337
 40
1.0
 40
1.0
 40
1.0
 40
1.0
 10
100.7526013514
 20
31.0875903209
 30
0.0
 10
100.7526013514
 20
31.1231264329
 30
0.0
 10
100.7736356893
 20
31.1994204157
 30
0.0
 10
100.8252402152
 20
31.2575148888
 30
0.0
 10
100.8559358516
 20
31.283236834
 30
0.0
 11
100.7526013514
 21
31.0875903209
 31
0.0
 11
100.779137441
 21
31.1908432783
 31
0.0
 11
100.8559358516
 21
31.283236834
 31
0.0
  0
SPLINE
  5
44E
100
AcDbEntity
  8
0
100
AcDbSpline
 62
253
  6
CONTINUOUS
 70
0
 71
3
 72
9
 73
5
 74
3
 42
0.0000001
 43
0.0000001
 44
0.0000000001
 12
0.32259312
 22
0.2703225452
 32
0.0
 13
0.4208807426
 23
0.0
 33
0.0
 40
0.0
 40
0.0
 40
0.0
 40
0.0
 40
0.2265557617
 40
1.0
 40
1.0
 40
1.0
 40
1.0
 10
100.8559358516
 20
31.283236834
 30
0.0
 10
100.8802976283
 20
31.3036512107
 30
0.0
 10
100.9987812043
 20
31.3805262575
 30
0.0
 10
101.1440920896
 20
31.4089841349
 30
0.0
 10
101.2526013514
 20
31.4089841349
 30
0.0
 11
100.8559358516
 21
31.283236834
 31
0.0
 11
100.935360881
 21
31.3359990474
 31
0.0
 11
101.2526013514
 21
31.4089841349
 31
0.0
  0
SPLINE
  5
44F
100
AcDbEntity
  8
0
100
AcDbSpline
 62
253
  6
CONTINUOUS
 70
0
 71
3
 72
18
 73
14
 74
12
 42
0.0000001
 43
0.0000001
 44
0.0000000001
 12
0.0
 22
-0.5006951585
 32
0.0
 13
-0.5006951585
 23
-0.0
 33
0.0
 40
0.0
 40
0.0
 40
0.0
 40
0.0
 40
0.0055117295
 40
0.0201517647
 40
0.0440754339
 40
0.0771542901
 40
0.119165215
 40
0.1696362812
 40
0.2938128035
 40
0.4451074141
 40
0.617840934
 40
0.8055825958
 40
1.0
 40
1.0
 40
1.0
 40
1.0
 10
102.7526013514
 20
-14.2473120646
 30
0.0
 10
102.7526013514
 20
-14.2482319633
 30
0.0
 10
102.7478996258
 20
-14.2489811022
 30
0.0
 10
102.74193646
 20
-14.2503016243
 30
0.0
 10
102.7293136883
 20
-14.2513978616
 30
0.0
 10
102.7131452546
 20
-14.2526443659
 30
0.0
 10
102.6921015207
 20
-14.2537912929
 30
0.0
 10
102.6560313505
 20
-14.2553956443
 30
0.0
 10
102.6016224709
 20
-14.2570964402
 30
0.0
 10
102.5268486492
 20
-14.258707674
 30
0.0
 10
102.4414382384
 20
-14.2599123384
 30
0.0
 10
102.3488315003
 20
-14.2606510569
 30
0.0
 10
102.2850493024
 20
-14.2608206714
 30
0.0
 10
102.2526013514
 20
-14.2608206714
 30
0.0
 11
102.7526013514
 21
-14.2473120646
 31
0.0
 11
102.7501771728
 21
-14.248630883
 31
0.0
 11
102.7429651896
 21
-14.2499420096
 31
0.0
 11
102.73105623
 21
-14.2512305411
 31
0.0
 11
102.7145411225
 21
-14.2524815743
 31
0.0
 11
102.6935406806
 21
-14.2536810096
 31
0.0
 11
102.6682956514
 21
-14.2548179601
 31
0.0
 11
102.6061547449
 21
-14.2568640735
 31
0.0
 11
102.5304208722
 21
-14.2585429411
 31
0.0
 11
102.4439430603
 21
-14.2597923659
 31
0.0
 11
102.3499448562
 21
-14.2605603192
 31
0.0
 11
102.2526013514
 21
-14.2608206714
 31
0.0
  0
SPLINE
  5
450
100
AcDbEntity
  8
0
100
AcDbSpline
 62
253
  6
CONTINUOUS
 70
0
 71
3
 72
18
 73
14
 74
12
 42
0.0000001
 43
0.0000001
 44
0.0000000001
 12
0.0
 22
-0.5006951583
 32
0.0
 13
-0.5006951583
 23
0.0
 33
0.0
 40
0.0
 40
0.0
 40
0.0
 40
0.0
 40
0.0055117311
 40
0.02015177
 40
0.0440754427
 40
0.0771542998
 40
0.1191652245
 40
0.1696362911
 40
0.2938128094
 40
0.4451074059
 40
0.6178409198
 40
0.8055825899
 40
1.0
 40
1.0
 40
1.0
 40
1.0
 10
102.7526013514
 20
22.7526879354
 30
0.0
 10
102.7526013514
 20
22.7517680364
 30
0.0
 10
102.7478996241
 20
22.751018898
 30
0.0
 10
102.7419364575
 20
22.7496983753
 30
0.0
 10
102.7293136843
 20
22.7486021381
 30
0.0
 10
102.7131452499
 20
22.7473556338
 30
0.0
 10
102.6921015158
 20
22.7462087073
 30
0.0
 10
102.6560313462
 20
22.7446043567
 30
0.0
 10
102.6016224696
 20
22.7429035603
 30
0.0
 10
102.5268486521
 20
22.7412923213
 30
0.0
 10
102.4414382432
 20
22.7400876592
 30
0.0
 10
102.3488315036
 20
22.7393489601
 30
0.0
 10
102.2850493033
 20
22.7391793547
 30
0.0
 10
102.2526013514
 20
22.7391793547
 30
0.0
 11
102.7526013514
 21
22.7526879354
 31
0.0
 11
102.750177172
 21
22.7513691169
 31
0.0
 11
102.7429651869
 21
22.7500579902
 31
0.0
 11
102.7310562256
 21
22.7487694586
 31
0.0
 11
102.7145411176
 21
22.7475184254
 31
0.0
 11
102.6935406758
 21
22.7463189906
 31
0.0
 11
102.6682956463
 21
22.7451820405
 31
0.0
 11
102.6061547419
 21
22.7431359264
 31
0.0
 11
102.5304208764
 21
22.7414570556
 31
0.0
 11
102.4439430675
 21
22.7402076342
 31
0.0
 11
102.3499448591
 21
22.7394396965
 31
0.0
 11
102.2526013514
 21
22.7391793547
 31
0.0
  0
SPLINE
  5
451
100
AcDbEntity
  8
0
100
AcDbSpline
 62
253
  6
CONTINUOUS
 70
0
 71
3
 72
18
 73
14
 74
12
 42
0.0000001
 43
0.0000001
 44
0.0000000001
 12
0.0
 22
-0.5006951583
 32
0.0
 13
0.5006951583
 23
0.0
 33
0.0
 40
0.0
 40
0.0
 40
0.0
 40
0.0
 40
0.0055117307
 40
0.0201517684
 40
0.04407544
 40
0.0771542968
 40
0.1191652215
 40
0.169636288
 40
0.2938128076
 40
0.4451074087
 40
0.6178409245
 40
0.8055825918
 40
1.0
 40
1.0
 40
1.0
 40
1.0
 10
100.7526013514
 20
22.7526879354
 30
0.0
 10
100.7526013514
 20
22.7517680365
 30
0.0
 10
100.757303078
 20
22.7510188978
 30
0.0
 10
100.7632662444
 20
22.7496983753
 30
0.0
 10
100.7758890171
 20
22.748602138
 30
0.0
 10
100.7920574513
 20
22.7473556339
 30
0.0
 10
100.8131011853
 20
22.7462087077
 30
0.0
 10
100.8491713551
 20
22.7446043575
 30
0.0
 10
100.9035802327
 20
22.7429035605
 30
0.0
 10
100.9783540515
 20
22.7412923185
 30
0.0
 10
101.063764461
 20
22.7400876577
 30
0.0
 10
101.1563712002
 20
22.7393489701
 30
0.0
 10
101.2201533997
 20
22.7391793702
 30
0.0
 10
101.2526013514
 20
22.7391793702
 30
0.0
 11
100.7526013514
 21
22.7526879354
 31
0.0
 11
100.7550255304
 21
22.7513691168
 31
0.0
 11
100.762237515
 21
22.7500579901
 31
0.0
 11
100.7741464757
 21
22.7487694585
 31
0.0
 11
100.7906615835
 21
22.7475184255
 31
0.0
 11
100.8116620253
 21
22.7463189909
 31
0.0
 11
100.8369070548
 21
22.7451820411
 31
0.0
 11
100.8990479598
 21
22.7431359264
 31
0.0
 11
100.9747818277
 21
22.7414570536
 31
0.0
 11
101.0612596375
 21
22.7402076342
 31
0.0
 11
101.1552578445
 21
22.7394397058
 31
0.0
 11
101.2526013514
 21
22.7391793702
 31
0.0
  0
SPLINE
  5
452
100
AcDbEntity
  8
0
100
AcDbSpline
 62
253
  6
CONTINUOUS
 70
0
 71
3
 72
11
 73
7
 74
5
 42
0.0000001
 43
0.0000001
 44
0.0000000001
 12
0.0
 22
0.6485833211
 32
0.0
 13
-0.6485833211
 23
-0.0
 33
0.0
 40
0.0
 40
0.0
 40
0.0
 40
0.0
 40
0.1985040175
 40
0.4303898878
 40
0.7025835001
 40
1.0
 40
1.0
 40
1.0
 40
1.0
 10
102.7526013514
 20
24.1592274919
 30
0.0
 10
102.7526013514
 20
24.2021429568
 30
0.0
 10
102.7205003295
 20
24.2960151182
 30
0.0
 10
102.6032597185
 20
24.3992620156
 30
0.0
 10
102.4407274726
 20
24.4655650505
 30
0.0
 10
102.3169011451
 20
24.4806212967
 30
0.0
 10
102.2526013514
 20
24.4806212967
 30
0.0
 11
102.7526013514
 21
24.1592274919
 31
0.0
 11
102.7145411176
 21
24.2822195762
 31
0.0
 11
102.6061547419
 21
24.3864872307
 31
0.0
 11
102.4439430675
 21
24.45615665
 31
0.0
 11
102.2526013514
 21
24.4806212967
 31
0.0
  0
SPLINE
  5
453
100
AcDbEntity
  8
0
100
AcDbSpline
 62
253
  6
CONTINUOUS
 70
0
 71
3
 72
9
 73
5
 74
3
 42
0.0000001
 43
0.0000001
 44
0.0000000001
 12
0.0
 22
0.2267523963
 32
0.0
 13
-0.1737993118
 23
0.1456380734
 33
0.0
 40
0.0
 40
0.0
 40
0.0
 40
0.0
 40
0.4701533166
 40
1.0
 40
1.0
 40
1.0
 40
1.0
 10
102.7526013514
 20
31.0875903209
 30
0.0
 10
102.7526013514
 20
31.1231264513
 30
0.0
 10
102.7315669889
 20
31.1994204764
 30
0.0
 10
102.6799624155
 20
31.2575149664
 30
0.0
 10
102.6492667525
 20
31.2832369165
 30
0.0
 11
102.7526013514
 21
31.0875903209
 31
0.0
 11
102.7260652348
 21
31.1908433286
 31
0.0
 11
102.6492667525
 21
31.2832369165
 31
0.0
  0
SPLINE
  5
454
100
AcDbEntity
  8
0
100
AcDbSpline
 62
253
  6
CONTINUOUS
 70
0
 71
3
 72
9
 73
5
 74
3
 42
0.0000001
 43
0.0000001
 44
0.0000000001
 12
-0.3225931131
 22
0.2703223563
 32
0.0
 13
-0.420880616
 23
0.0
 33
0.0
 40
0.0
 40
0.0
 40
0.0
 40
0.0
 40
0.2265557747
 40
1.0
 40
1.0
 40
1.0
 40
1.0
 10
102.6492667525
 20
31.2832369165
 30
0.0
 10
102.624904975
 20
31.3036512801
 30
0.0
 10
102.5064214184
 20
31.3805262771
 30
0.0
 10
102.3611105787
 20
31.4089841258
 30
0.0
 10
102.2526013514
 20
31.4089841258
 30
0.0
 11
102.6492667525
 21
31.2832369165
 31
0.0
 11
102.5698417292
 21
31.335999097
 31
0.0
 11
102.2526013514
 21
31.4089841258
 31
0.0
  0
SPLINE
  5
455
100
AcDbEntity
  8
0
100
AcDbSpline
 62
253
  6
CONTINUOUS
 70
0
 71
3
 72
18
 73
14
 74
12
 42
0.0000001
 43
0.0000001
 44
0.0000000001
 12
0.0
 22
-0.5006951583
 32
0.0
 13
0.5006951583
 23
0.0
 33
0.0
 40
0.0
 40
0.0
 40
0.0
 40
0.0
 40
0.0055117311
 40
0.0201517701
 40
0.0440754427
 40
0.0771542998
 40
0.1191652245
 40
0.1696362911
 40
0.2938128094
 40
0.4451074059
 40
0.6178409198
 40
0.8055825899
 40
1.0
 40
1.0
 40
1.0
 40
1.0
 10
100.7526013514
 20
-14.2473120646
 30
0.0
 10
100.7526013514
 20
-14.2482319636
 30
0.0
 10
100.7573030786
 20
-14.248981102
 30
0.0
 10
100.7632662452
 20
-14.2503016247
 30
0.0
 10
100.7758890184
 20
-14.2513978619
 30
0.0
 10
100.7920574528
 20
-14.2526443662
 30
0.0
 10
100.8131011869
 20
-14.2537912927
 30
0.0
 10
100.8491713565
 20
-14.2553956433
 30
0.0
 10
100.9035802331
 20
-14.2570964397
 30
0.0
 10
100.9783540506
 20
-14.2587076787
 30
0.0
 10
101.0637644596
 20
-14.2599123408
 30
0.0
 10
101.1563711991
 20
-14.2606510399
 30
0.0
 10
101.2201533994
 20
-14.2608206453
 30
0.0
 10
101.2526013514
 20
-14.2608206453
 30
0.0
 11
100.7526013514
 21
-14.2473120646
 31
0.0
 11
100.7550255307
 21
-14.2486308831
 31
0.0
 11
100.7622375158
 21
-14.2499420098
 31
0.0
 11
100.7741464771
 21
-14.2512305414
 31
0.0
 11
100.7906615851
 21
-14.2524815746
 31
0.0
 11
100.8116620269
 21
-14.2536810094
 31
0.0
 11
100.8369070564
 21
-14.2548179595
 31
0.0
 11
100.8990479608
 21
-14.2568640736
 31
0.0
 11
100.9747818264
 21
-14.2585429444
 31
0.0
 11
101.0612596352
 21
-14.2597923658
 31
0.0
 11
101.1552578436
 21
-14.2605603035
 31
0.0
 11
101.2526013514
 21
-14.2608206453
 31
0.0
  0
ENDSEC
  0
SECTION
  2
OBJECTS
  0
DICTIONARY
  5
C
100
AcDbDictionary
280
0
281
1
  3
ACAD_GROUP
350
D
  3
ACAD_MLINESTYLE
350
17
  3
ACAD_LAYOUT
350
1A
  3
ACAD_PLOTSETTINGS
350
19
  3
ACAD_PLOTSTYLENAME
350
E
  0
DICTIONARY
  5
D
102
{ACAD_REACTORS
330
C
102
}
100
AcDbDictionary
280
0
281
1
  0
ACDBDICTIONARYWDFLT
  5
E
102
{ACAD_REACTORS
330
C
102
}
100
AcDbDictionary
281
1
  3
Normal
350
F
100
AcDbDictionaryWithDefault
340
F
  0
DICTIONARY
  5
17
102
{ACAD_REACTORS
330
C
102
}
100
AcDbDictionary
280
0
281
1
  3
Standard
350
18
  0
DICTIONARY
  5
19
102
{ACAD_REACTORS
330
C
102
}
100
AcDbDictionary
281
1
  0
DICTIONARY
  5
1A
102
{ACAD_REACTORS
330
C
102
}
100
AcDbDictionary
281
1
  3
Model
350
456
  3
Layout1
350
457
  0
ACDBPLACEHOLDER
  5
F
102
{ACAD_REACTORS
330
E
102
}
  0
MLINESTYLE
  5
18
102
{ACAD_REACTORS
330
17
102
}
100
AcDbMlineStyle
  2
STANDARD
 70
0
  3

 62
256
 51
90.0
 52
90.0
 71
2
 49
0.5
 62
256
  6
BYLAYER
 49
-0.5
 62
256
  6
BYLAYER
  0
LAYOUT
  5
456
102
{ACAD_REACTORS
330
1A
102
}
100
AcDbPlotSettings
  1

  2
none_device
  4
ISO_A4_(297.00_x_210.00_MM)
  6

 40
0.0
 41
0.0
 42
0.0
 43
0.0
 44
297.0
 45
210.0
 46
0.0
 47
0.0
 48
0.0
 49
0.0
140
0.0
141
0.0
142
1.0
143
1.0
 70
1024
 72
1
 73
0
 74
0
  7

 75
0
147
1.0
148
0.0
149
0.0
100
AcDbLayout
  1
Model
 70
0
 71
0
 10
0.0
 20
0.0
 11
297.0
 21
210.0
 12
0.0
 22
0.0
 32
0.0
 14
0.0
 24
0.0
 34
0.0
 15
0.0
 25
0.0
 35
0.0
146
0.0
 13
0.0
 23
0.0
 33
0.0
 16
1.0
 26
0.0
 36
0.0
 17
0.0
 27
1.0
 37
0.0
 76
0
330
20F
345
0
346
0
  0
LAYOUT
  5
457
102
{ACAD_REACTORS
330
1A
102
}
100
AcDbPlotSettings
  1

  2
none_device
  4
ISO_A4_(297.00_x_210.00_MM)
  6

 40
0.0
 41
0.0
 42
0.0
 43
0.0
 44
297.0
 45
210.0
 46
0.0
 47
0.0
 48
0.0
 49
0.0
140
0.0
141
0.0
142
1.0
143
1.0
 70
0
 72
1
 73
0
 74
0
  7

 75
0
147
1.0
148
0.0
149
0.0
100
AcDbLayout
  1
Layout1
 70
0
 71
1
 10
0.0
 20
0.0
 11
297.0
 21
210.0
 12
0.0
 22
0.0
 32
0.0
 14
0.0
 24
0.0
 34
0.0
 15
0.0
 25
0.0
 35
0.0
146
0.0
 13
0.0
 23
0.0
 33
0.0
 16
1.0
 26
0.0
 36
0.0
 17
0.0
 27
1.0
 37
0.0
 76
0
330
210
345
0
346
0
  0
ENDSEC
  0
EOF
