  0
SECTION
  2
HEADER
  9
$ACADVER
  1
AC1024
  9
$DWGCODEPAGE
  3
ANSI_1252
  9
$EXTMAX
 10
297.0
 20
210.0
 30
0.0
  9
$EXTMIN
 10
0.0
 20
0.0
 30
0.0
  9
$LIMMIN
 10
0.0
 20
0.0
  9
$LIMMAX
 10
297.0
 20
210.0
  9
$VIEWCTR
 10
148.5
 20
105.0
  9
$VIEWSIZE
 40
210.0
  9
$CLAYER
  8
0
  9
$LTSCALE
 40
16.335
  9
$CELTYPE
  6
BYLAYER
  9
$DIMSCALE
 40
1.0
  9
$DIMASZ
 40
3.0
  9
$DIMEXO
 40
0.5
  9
$DIMDLI
 40
11.286
  9
$DIMEXE
 40
1.5
  9
$DIMCEN
 40
2.673
  9
$DIMLFAC
 40
1.0
  9
$DIMBLK
  1
_FILLED
  9
$DIMALT
 70
0
  9
$DIMALTF
 40
0.0393700787
  9
$DIMTXT
 40
3.0
  9
$DIMTOL
 70
1
  9
$DIMLIM
 70
0
  9
$DIMTFAC
 40
1.0
  9
$DIMTP
 40
0.01
  9
$DIMTM
 40
0.01
  9
$DIMGAP
 40
0.625
  9
$DIMDSEP
 70
44
  9
$AUNITS
 70
0
  9
$PDMODE
 70
3
  9
$PDSIZE
 40
3.0
  9
$HANDSEED
  5
56E
  9
$TILEMODE
 70
1
  9
$MEASUREMENT
 70
1
  9
$INSUNITS
 70
4
  0
ENDSEC
  0
SECTION
  2
CLASSES
  0
CLASS
  1
ACDBDICTIONARYWDFLT
  2
AcDbDictionaryWithDefault
  3
AutoCAD 2000
 90
0
 91
1
280
0
281
0
  0
CLASS
  1
ACDBPLACEHOLDER
  2
AcDbPlaceHolder
  3
AutoCAD 2000
 90
0
 91
1
280
0
281
0
  0
CLASS
  1
LAYOUT
  2
AcDbLayout
  3
AutoCAD 2000
 90
0
 91
0
280
0
281
0
  0
ENDSEC
  0
SECTION
  2
TABLES
  0
TABLE
  2
VPORT
  5
8
100
AcDbSymbolTable
 70
2
  0
VPORT
  5
1F4
100
AcDbSymbolTableRecord
100
AcDbViewportTableRecord
  2
*ACTIVE
 70
0
 10
0.0
 20
0.0
 11
1.0
 21
1.0
 12
148.5
 22
105.0
 13
0.0
 23
0.0
 14
1.0
 24
1.0
 15
0.0
 25
0.0
 16
0.0
 26
0.0
 36
1.0
 17
0.0
 27
0.0
 37
0.0
 40
210.0
 41
1.4142857143
 42
50.0
 43
0.0
 44
0.0
 50
0.0
 51
0.0
 71
0
 72
100
 73
1
 74
1
 75
0
 76
0
 77
0
 78
0
  0
ENDTAB
  0
TABLE
  2
LTYPE
  5
5
100
AcDbSymbolTable
 70
6
  0
LTYPE
  5
14
100
AcDbSymbolTableRecord
100
AcDbLinetypeTableRecord
  2
BYBLOCK
 70
0
  3

 72
65
 73
0
 40
0.0
  0
LTYPE
  5
15
100
AcDbSymbolTableRecord
100
AcDbLinetypeTableRecord
  2
BYLAYER
 70
0
  3

 72
65
 73
0
 40
0.0
  0
LTYPE
  5
16
100
AcDbSymbolTableRecord
100
AcDbLinetypeTableRecord
  2
CONTINUOUS
 70
64
  3
Solid line
 72
65
 73
0
 40
0.0
  0
LTYPE
  5
1F5
100
AcDbSymbolTableRecord
100
AcDbLinetypeTableRecord
  2
CENTER
 70
64
  3
____ _ ____ _ ____ _ ____ _ ____ _ ____ _ ____
 72
65
 73
4
 40
0.6
 49
0.375
 74
0
 49
-0.075
 74
0
 49
0.075
 74
0
 49
-0.075
 74
0
  0
LTYPE
  5
1F6
100
AcDbSymbolTableRecord
100
AcDbLinetypeTableRecord
  2
HIDDEN
 70
64
  3
- - - - - - - - - - - - - - - - - - - -
 72
65
 73
2
 40
0.2
 49
0.1
 74
0
 49
-0.1
 74
0
  0
LTYPE
  5
1F7
100
AcDbSymbolTableRecord
100
AcDbLinetypeTableRecord
  2
PHANTOM
 70
64
  3
_____ _ _ _____ _ _ _____ _ _ _____
 72
65
 73
6
 40
0.8
 49
0.45
 74
0
 49
-0.05
 74
0
 49
0.1
 74
0
 49
-0.05
 74
0
 49
0.1
 74
0
 49
-0.05
 74
0
  0
LTYPE
  5
1F8
100
AcDbSymbolTableRecord
100
AcDbLinetypeTableRecord
  2
DOT
 70
64
  3
. . . . . . . . . . . . . . . . . . . .
 72
65
 73
2
 40
0.2
 49
0.1
 74
0
 49
-0.1
 74
0
  0
LTYPE
  5
1F9
100
AcDbSymbolTableRecord
100
AcDbLinetypeTableRecord
  2
DASHED
 70
64
  3
- - - - - - - - - - - - - - - - - - - -
 72
65
 73
2
 40
0.2
 49
0.1
 74
0
 49
-0.1
 74
0
  0
ENDTAB
  0
TABLE
  2
LAYER
  5
2
100
AcDbSymbolTable
 70
36
  0
LAYER
  5
10
100
AcDbSymbolTableRecord
100
AcDbLayerTableRecord
  2
0
 70
0
 62
7
  6
CONTINUOUS
370
-3
390
F
  0
LAYER
  5
1FA
100
AcDbSymbolTableRecord
100
AcDbLayerTableRecord
  2
DEFAULT_1
 70
0
 62
7
  6
CENTER
370
-3
390
F
  0
LAYER
  5
1FB
100
AcDbSymbolTableRecord
100
AcDbLayerTableRecord
  2
DEFAULT_2
 70
0
 62
7
  6
HIDDEN
370
-3
390
F
  0
LAYER
  5
1FC
100
AcDbSymbolTableRecord
100
AcDbLayerTableRecord
  2
DEFAULT_3
 70
0
 62
7
  6
PHANTOM
370
-3
390
F
  0
LAYER
  5
1FD
100
AcDbSymbolTableRecord
100
AcDbLayerTableRecord
  2
ASSI
 70
0
 62
7
  6
CONTINUOUS
370
-3
390
F
  0
LAYER
  5
1FE
100
AcDbSymbolTableRecord
100
AcDbLayerTableRecord
  2
COORDINATE
 70
0
 62
7
  6
CONTINUOUS
370
-3
390
F
  0
LAYER
  5
1FF
100
AcDbSymbolTableRecord
100
AcDbLayerTableRecord
  2
COORD_ORIGINE
 70
0
 62
7
  6
CONTINUOUS
370
-3
390
F
  0
LAYER
  5
200
100
AcDbSymbolTableRecord
100
AcDbLayerTableRecord
  2
COSMETICI
 70
0
 62
7
  6
CONTINUOUS
370
-3
390
F
  0
LAYER
  5
201
100
AcDbSymbolTableRecord
100
AcDbLayerTableRecord
  2
CURVE
 70
0
 62
7
  6
CONTINUOUS
370
-3
390
F
  0
LAYER
  5
202
100
AcDbSymbolTableRecord
100
AcDbLayerTableRecord
  2
DRAFT
 70
0
 62
7
  6
CONTINUOUS
370
-3
390
F
  0
LAYER
  5
203
100
AcDbSymbolTableRecord
100
AcDbLayerTableRecord
  2
NOTE
 70
0
 62
7
  6
CONTINUOUS
370
-3
390
F
  0
LAYER
  5
204
100
AcDbSymbolTableRecord
100
AcDbLayerTableRecord
  2
PIANI
 70
0
 62
7
  6
CONTINUOUS
370
-3
390
F
  0
LAYER
  5
205
100
AcDbSymbolTableRecord
100
AcDbLayerTableRecord
  2
PIANI_ORIGINE
 70
0
 62
7
  6
CONTINUOUS
370
-3
390
F
  0
LAYER
  5
206
100
AcDbSymbolTableRecord
100
AcDbLayerTableRecord
  2
PUNTI
 70
0
 62
7
  6
CONTINUOUS
370
-3
390
F
  0
LAYER
  5
207
100
AcDbSymbolTableRecord
100
AcDbLayerTableRecord
  2
RACCORDO
 70
0
 62
7
  6
CONTINUOUS
370
-3
390
F
  0
LAYER
  5
208
100
AcDbSymbolTableRecord
100
AcDbLayerTableRecord
  2
SIMBOLI
 70
0
 62
7
  6
CONTINUOUS
370
-3
390
F
  0
LAYER
  5
209
100
AcDbSymbolTableRecord
100
AcDbLayerTableRecord
  2
SNAPLINE
 70
0
 62
7
  6
CONTINUOUS
370
-3
390
F
  0
LAYER
  5
20A
100
AcDbSymbolTableRecord
100
AcDbLayerTableRecord
  2
SUPERFICI
 70
0
 62
7
  6
CONTINUOUS
370
-3
390
F
  0
LAYER
  5
20B
100
AcDbSymbolTableRecord
100
AcDbLayerTableRecord
  2
TRASH
 70
0
 62
7
  6
CONTINUOUS
370
-3
390
F
  0
LAYER
  5
20C
100
AcDbSymbolTableRecord
100
AcDbLayerTableRecord
  2
XSEC_DATUMS
 70
0
 62
7
  6
CONTINUOUS
370
-3
390
F
  0
ENDTAB
  0
TABLE
  2
STYLE
  5
3
100
AcDbSymbolTable
 70
1
  0
STYLE
  5
11
100
AcDbSymbolTableRecord
100
AcDbTextStyleTableRecord
  2
STANDARD
 70
0
 40
0.0
 41
0.8
 50
0.0
 71
0
 42
0.2
  3
txt
  4

  0
STYLE
  5
20D
100
AcDbSymbolTableRecord
100
AcDbTextStyleTableRecord
  2
TEXTSTYLE_1
 70
0
 40
0.0
 41
0.8
 50
0.0
 71
0
 42
0.2
  3
gdt
  4

  0
ENDTAB
  0
TABLE
  2
VIEW
  5
6
100
AcDbSymbolTable
 70
0
  0
ENDTAB
  0
TABLE
  2
UCS
  5
7
100
AcDbSymbolTable
 70
0
  0
ENDTAB
  0
TABLE
  2
APPID
  5
9
100
AcDbSymbolTable
 70
1
  0
APPID
  5
20E
100
AcDbSymbolTableRecord
100
AcDbRegAppTableRecord
  2
ACAD
 70
0
  0
ENDTAB
  0
TABLE
  2
BLOCK_RECORD
  5
1
100
AcDbSymbolTable
 70
0
  0
BLOCK_RECORD
  5
20F
100
AcDbSymbolTableRecord
100
AcDbBlockTableRecord
  2
*Model_Space
  0
BLOCK_RECORD
  5
210
100
AcDbSymbolTableRecord
100
AcDbBlockTableRecord
  2
*Paper_Space
  0
BLOCK_RECORD
  5
211
100
AcDbSymbolTableRecord
100
AcDbBlockTableRecord
  2
_FILLED
  0
BLOCK_RECORD
  5
212
100
AcDbSymbolTableRecord
100
AcDbBlockTableRecord
  2
*D0
  0
BLOCK_RECORD
  5
213
100
AcDbSymbolTableRecord
100
AcDbBlockTableRecord
  2
*D1
  0
BLOCK_RECORD
  5
214
100
AcDbSymbolTableRecord
100
AcDbBlockTableRecord
  2
*D2
  0
ENDTAB
  0
TABLE
  2
DIMSTYLE
  5
A
100
AcDbSymbolTable
 70
1
100
AcDbDimStyleTable
 71
0
  0
DIMSTYLE
105
215
100
AcDbSymbolTableRecord
100
AcDbDimStyleTableRecord
  2
STANDARD
 70
0
  3

  4

 40
1.0
 41
3.0
 42
0.5
 43
0.38
 44
1.5
 45
0.0
 46
0.0
 47
0.01
 48
0.01
140
3.0
141
0.09
142
0.0
143
25.4
144
1.0
145
0.0
146
1.0
147
0.625
 71
1.0
 72
0.0
 73
0
 74
0
 75
0
 76
0
 77
1
 78
8
 79
2
170
0
171
1
172
0
173
0
174
0
175
0
176
0
177
0
178
0
270
2
179
2
271
2
272
2
273
2
274
2
275
0
280
0
281
0
282
0
283
1
284
8
285
0
286
0
287
3
288
0
340
11
278
44
341
211
342
211
343
211
344
211
  0
DIMSTYLE
105
216
100
AcDbSymbolTableRecord
100
AcDbDimStyleTableRecord
  2
DIMSTYLE_1
 70
0
  3

  4

 40
1.0
 41
3.0
 42
0.5
 43
0.38
 44
1.5
 45
0.0
 46
0.0
 47
0.0
 48
0.0
140
3.0
141
0.09
142
0.0
143
25.4
144
1.0
145
0.0
146
1.0
147
0.75
 71
0.0
 72
0.0
 73
0
 74
0
 75
0
 76
0
 77
1
 78
8
 79
2
170
0
171
1
172
0
173
0
174
0
175
0
176
0
177
0
178
0
270
2
179
2
271
2
272
2
273
2
274
2
275
0
280
0
281
0
282
0
283
1
284
8
285
0
286
0
287
3
288
0
340
11
278
44
341
211
342
211
343
211
344
211
  0
ENDTAB
  0
ENDSEC
  0
SECTION
  2
BLOCKS
  0
BLOCK
  5
20
100
AcDbEntity
  8
0
100
AcDbBlockBegin
  2
*Model_Space
 70
0
 10
0.0
 20
0.0
 30
0.0
  3
*Model_Space
  1

  0
ENDBLK
  5
21
100
AcDbEntity
  8
0
100
AcDbBlockEnd
  0
BLOCK
  5
1C
100
AcDbEntity
  8
0
100
AcDbBlockBegin
  2
*Paper_Space
 70
0
 10
0.0
 20
0.0
 30
0.0
  3
*Paper_Space
  1

  0
ENDBLK
  5
1D
100
AcDbEntity
  8
0
100
AcDbBlockEnd
  0
BLOCK
  5
217
100
AcDbEntity
  8
0
100
AcDbBlockBegin
  2
_FILLED
 70
64
 10
0.0
 20
0.0
  3
_FILLED
  1

  0
SOLID
  5
218
100
AcDbEntity
  8
0
  6
BYBLOCK
 62
0
100
AcDbTrace
 10
0.0
 20
0.0
 11
-1.0
 21
0.3166666667
 12
-1.0
 22
-0.3166666667
 13
-1.0
 23
-0.3166666667
  0
ENDBLK
  5
219
100
AcDbEntity
  8
0
  6
BYBLOCK
 62
0
100
AcDbBlockEnd
  0
BLOCK
  5
21A
100
AcDbEntity
  8
0
100
AcDbBlockBegin
 62
7
  6
CONTINUOUS
  2
*D0
 70
65
 10
0.0
 20
0.0
  3
*D0
  1

  0
LINE
  5
21B
100
AcDbEntity
  8
0
100
AcDbLine
 62
7
  6
CONTINUOUS
 10
-18.5184275435
 20
29.0203400935
 11
-18.5184275435
 21
38.5969412335
  0
LINE
  5
21C
100
AcDbEntity
  8
0
100
AcDbLine
 62
7
  6
CONTINUOUS
 10
-25.5184275435
 20
29.3437073249
 11
-25.5184275435
 21
38.5969412335
  0
LINE
  5
21D
100
AcDbEntity
  8
0
100
AcDbLine
 62
7
  6
CONTINUOUS
 10
-18.5184275435
 20
37.0969412335
 11
-14.5184275435
 21
37.0969412335
  0
LINE
  5
21E
100
AcDbEntity
  8
0
100
AcDbLine
 62
7
  6
CONTINUOUS
 10
-14.5184275435
 20
37.0969412335
 11
-22.0184275435
 21
37.0969412335
  0
LINE
  5
21F
100
AcDbEntity
  8
0
100
AcDbLine
 62
7
  6
CONTINUOUS
 10
-25.5184275435
 20
37.0969412335
 11
-29.5184275435
 21
37.0969412335
  0
LINE
  5
220
100
AcDbEntity
  8
0
100
AcDbLine
 62
7
  6
CONTINUOUS
 10
-29.5184275435
 20
37.0969412335
 11
-22.0184275435
 21
37.0969412335
  0
INSERT
  5
221
100
AcDbEntity
  8
0
100
AcDbBlockReference
 62
7
  6
CONTINUOUS
  2
_FILLED
 10
-18.5184275435
 20
37.0969412335
 41
3.0
 42
3.0
 43
3.0
 50
180.0
  0
INSERT
  5
222
100
AcDbEntity
  8
0
100
AcDbBlockReference
 62
7
  6
CONTINUOUS
  2
_FILLED
 10
-25.5184275435
 20
37.0969412335
 41
3.0
 42
3.0
 43
3.0
  0
ENDBLK
  5
223
100
AcDbEntity
  8
0
  6
BYBLOCK
 62
0
100
AcDbBlockEnd
  0
BLOCK
  5
224
100
AcDbEntity
  8
0
100
AcDbBlockBegin
 62
7
  6
CONTINUOUS
  2
*D1
 70
65
 10
0.0
 20
0.0
  3
*D1
  1

  0
LINE
  5
225
100
AcDbEntity
  8
0
100
AcDbLine
 62
7
  6
CONTINUOUS
 10
0.5
 20
26.5030587665
 11
12.1
 21
26.5030587665
  0
LINE
  5
226
100
AcDbEntity
  8
0
100
AcDbLine
 62
7
  6
CONTINUOUS
 10
0.5
 20
-26.4969412335
 11
12.1
 21
-26.4969412335
  0
LINE
  5
227
100
AcDbEntity
  8
0
100
AcDbLine
 62
7
  6
CONTINUOUS
 10
10.6
 20
26.5030587665
 11
10.6
 21
0.0030587665
  0
LINE
  5
228
100
AcDbEntity
  8
0
100
AcDbLine
 62
7
  6
CONTINUOUS
 10
10.6
 20
-26.4969412335
 11
10.6
 21
0.0030587665
  0
INSERT
  5
229
100
AcDbEntity
  8
0
100
AcDbBlockReference
 62
7
  6
CONTINUOUS
  2
_FILLED
 10
10.6
 20
26.5030587665
 41
3.0
 42
3.0
 43
3.0
 50
90.0
  0
INSERT
  5
22A
100
AcDbEntity
  8
0
100
AcDbBlockReference
 62
7
  6
CONTINUOUS
  2
_FILLED
 10
10.6
 20
-26.4969412335
 41
3.0
 42
3.0
 43
3.0
 50
270.0
  0
ENDBLK
  5
22B
100
AcDbEntity
  8
0
  6
BYBLOCK
 62
0
100
AcDbBlockEnd
  0
BLOCK
  5
22C
100
AcDbEntity
  8
0
100
AcDbBlockBegin
 62
7
  6
CONTINUOUS
  2
*D2
 70
65
 10
0.0
 20
0.0
  3
*D2
  1

  0
LINE
  5
22D
100
AcDbEntity
  8
0
100
AcDbLine
 62
7
  6
CONTINUOUS
 10
2.6
 20
24.9857771074
 11
2.6
 21
38.5969412335
  0
LINE
  5
22E
100
AcDbEntity
  8
0
100
AcDbLine
 62
7
  6
CONTINUOUS
 10
-2.6
 20
27.0030587665
 11
-2.6
 21
38.5969412335
  0
LINE
  5
22F
100
AcDbEntity
  8
0
100
AcDbLine
 62
7
  6
CONTINUOUS
 10
2.6
 20
37.0969412335
 11
13.0326312038
 21
37.0969412335
  0
LINE
  5
230
100
AcDbEntity
  8
0
100
AcDbLine
 62
7
  6
CONTINUOUS
 10
13.0326312038
 20
37.0969412335
 11
-0.0
 21
37.0969412335
  0
LINE
  5
231
100
AcDbEntity
  8
0
100
AcDbLine
 62
7
  6
CONTINUOUS
 10
-2.6
 20
37.0969412335
 11
-6.6
 21
37.0969412335
  0
LINE
  5
232
100
AcDbEntity
  8
0
100
AcDbLine
 62
7
  6
CONTINUOUS
 10
-6.6
 20
37.0969412335
 11
-0.0
 21
37.0969412335
  0
INSERT
  5
233
100
AcDbEntity
  8
0
100
AcDbBlockReference
 62
7
  6
CONTINUOUS
  2
_FILLED
 10
2.6
 20
37.0969412335
 41
3.0
 42
3.0
 43
3.0
 50
180.0
  0
INSERT
  5
234
100
AcDbEntity
  8
0
100
AcDbBlockReference
 62
7
  6
CONTINUOUS
  2
_FILLED
 10
-2.6
 20
37.0969412335
 41
3.0
 42
3.0
 43
3.0
  0
ENDBLK
  5
235
100
AcDbEntity
  8
0
  6
BYBLOCK
 62
0
100
AcDbBlockEnd
  0
ENDSEC
  0
SECTION
  2
ENTITIES
  0
DIMENSION
  5
236
100
AcDbEntity
  8
0
100
AcDbDimension
 62
7
  6
CONTINUOUS
  2
*D0
 10
-25.5184275435
 20
37.0969412335
 11
-23.1969989721
 21
37.0969412335
 70
160
 71
2
 72
2
 41
0.9
 42
7.0
  3
DIMSTYLE_1
100
AcDbAlignedDimension
 13
-18.5184275435
 23
28.5203400935
 14
-25.5184275435
 24
28.8437073249
 50
180.0
100
AcDbRotatedDimension
  0
DIMENSION
  5
237
100
AcDbEntity
  8
0
100
AcDbDimension
 62
7
  6
CONTINUOUS
  2
*D1
 10
10.6
 20
-26.4969412335
 11
10.6
 21
-2.1397983764
 70
160
 71
2
 72
2
 41
0.9
 42
53.0
  3
DIMSTYLE_1
100
AcDbAlignedDimension
 13
-0.0
 23
26.5030587665
 14
0.0
 24
-26.4969412335
 50
270.0
100
AcDbRotatedDimension
  0
DIMENSION
  5
238
100
AcDbEntity
  8
0
100
AcDbDimension
 62
7
  6
CONTINUOUS
  2
*D2
 10
-2.6
 20
37.0969412335
 11
6.8183454895
 21
37.0969412335
 70
160
 71
1
 72
2
 41
0.9
 42
5.2
  3
DIMSTYLE_1
100
AcDbAlignedDimension
 13
2.6
 23
24.4857771074
 14
-2.6
 24
26.5030587665
 50
180.0
100
AcDbRotatedDimension
  0
LINE
  5
239
100
AcDbEntity
  8
DRAFT
100
AcDbLine
 62
7
  6
CONTINUOUS
 10
-0.75
 20
-29.0969412335
 11
0.75
 21
-29.0969412335
  0
LINE
  5
23A
100
AcDbEntity
  8
RACCORDO
100
AcDbLine
 62
7
  6
CONTINUOUS
 10
-0.75
 20
-29.0374102872
 11
0.75
 21
-29.0374102872
  0
LINE
  5
23B
100
AcDbEntity
  8
RACCORDO
100
AcDbLine
 62
250
  6
CONTINUOUS
 10
-0.5040345775
 20
-28.8574171411
 11
0.5040345775
 21
-28.8574171411
  0
LINE
  5
23C
100
AcDbEntity
  8
RACCORDO
100
AcDbLine
 62
250
  6
CONTINUOUS
 10
0.4536773301
 20
-27.5628819702
 11
-0.4536773301
 21
-27.5628819702
  0
LINE
  5
23D
100
AcDbEntity
  8
RACCORDO
100
AcDbLine
 62
7
  6
CONTINUOUS
 10
0.6669595408
 20
-27.4428848945
 11
-0.6669595408
 21
-27.4428848945
  0
LINE
  5
23E
100
AcDbEntity
  8
DRAFT
100
AcDbLine
 62
7
  6
CONTINUOUS
 10
-0.632455532
 20
-27.3969412335
 11
0.632455532
 21
-27.3969412335
  0
LINE
  5
23F
100
AcDbEntity
  8
DRAFT
100
AcDbLine
 62
250
  6
CONTINUOUS
 10
-1.775
 20
-26.4969412335
 11
-1.7662731322
 21
-26.4969412335
  0
LINE
  5
240
100
AcDbEntity
  8
DRAFT
100
AcDbLine
 62
7
  6
CONTINUOUS
 10
0.632455532
 20
-25.5969412335
 11
-0.632455532
 21
-25.5969412335
  0
LINE
  5
241
100
AcDbEntity
  8
RACCORDO
100
AcDbLine
 62
7
  6
CONTINUOUS
 10
-0.6669595408
 20
-25.5509975726
 11
0.6669595408
 21
-25.5509975726
  0
LINE
  5
242
100
AcDbEntity
  8
RACCORDO
100
AcDbLine
 62
250
  6
CONTINUOUS
 10
-0.4536773301
 20
-25.4310004969
 11
0.4536773301
 21
-25.4310004969
  0
LINE
  5
243
100
AcDbEntity
  8
RACCORDO
100
AcDbLine
 62
7
  6
CONTINUOUS
 10
-0.1258120897
 20
-28.4547604626
 11
-0.1043780955
 21
-28.4645314976
  0
LINE
  5
244
100
AcDbEntity
  8
RACCORDO
100
AcDbLine
 62
7
  6
CONTINUOUS
 10
-0.3
 20
-28.3735353061
 11
-0.0604759076
 21
-28.4852272247
  0
LINE
  5
245
100
AcDbEntity
  8
RACCORDO
100
AcDbLine
 62
7
  6
CONTINUOUS
 10
-0.1658247301
 20
-28.4360471978
 11
-0.146410681
 21
-28.445211554
  0
LINE
  5
246
100
AcDbEntity
  8
RACCORDO
100
AcDbLine
 62
7
  6
CONTINUOUS
 10
-0.2135540554
 20
-28.4138127389
 11
-0.1997537089
 21
-28.4203477902
  0
LINE
  5
247
100
AcDbEntity
  8
RACCORDO
100
AcDbLine
 62
7
  6
CONTINUOUS
 10
-0.0824824923
 20
-28.474687085
 11
-0.0604759076
 21
-28.4852272247
  0
LINE
  5
248
100
AcDbEntity
  8
RACCORDO
100
AcDbLine
 62
250
  6
CONTINUOUS
 10
0.0
 20
-24.21335612
 11
0.7
 21
-24.21335612
  0
LINE
  5
249
100
AcDbEntity
  8
RACCORDO
100
AcDbLine
 62
250
  6
CONTINUOUS
 10
-1.5592840223
 20
-24.1523965432
 11
-1.7592764069
 21
-24.1523965431
  0
LINE
  5
24A
100
AcDbEntity
  8
RACCORDO
100
AcDbLine
 62
250
  6
CONTINUOUS
 10
1.7680032747
 20
-24.0899368929
 11
1.5680108901
 21
-24.0899368929
  0
LINE
  5
24B
100
AcDbEntity
  8
RACCORDO
100
AcDbLine
 62
250
  6
CONTINUOUS
 10
-1.5592840223
 20
-24.0812100251
 11
-1.7592764069
 21
-24.0812100251
  0
LINE
  5
24C
100
AcDbEntity
  8
RACCORDO
100
AcDbLine
 62
7
  6
CONTINUOUS
 10
-2.4000076154
 20
-23.8969412335
 11
-1.9749923846
 21
-23.8969412335
  0
LINE
  5
24D
100
AcDbEntity
  8
RACCORDO
100
AcDbLine
 62
7
  6
CONTINUOUS
 10
1.9749923846
 20
-23.8969412335
 11
2.4000076154
 21
-23.8969412335
  0
LINE
  5
24E
100
AcDbEntity
  8
RACCORDO
100
AcDbLine
 62
7
  6
CONTINUOUS
 10
0.7145445745
 20
-23.8882143657
 11
1.6226009544
 21
-23.8882144213
  0
LINE
  5
24F
100
AcDbEntity
  8
RACCORDO
100
AcDbLine
 62
7
  6
CONTINUOUS
 10
-2.3842840223
 20
-23.8812176405
 11
-1.9592583382
 21
-23.8812176405
  0
LINE
  5
250
100
AcDbEntity
  8
RACCORDO
100
AcDbLine
 62
7
  6
CONTINUOUS
 10
0.8342840223
 20
-23.8812176405
 11
2.3842840223
 21
-23.8812176405
  0
LINE
  5
251
100
AcDbEntity
  8
RACCORDO
100
AcDbLine
 62
7
  6
CONTINUOUS
 10
0.0
 20
-23.8633694469
 11
0.6979815289
 21
-23.8633694469
  0
LINE
  5
252
100
AcDbEntity
  8
RACCORDO
100
AcDbLine
 62
7
  6
CONTINUOUS
 10
0.0
 20
-23.8375833015
 11
0.7906496833
 21
-23.8375833015
  0
LINE
  5
253
100
AcDbEntity
  8
RACCORDO
100
AcDbLine
 62
250
  6
CONTINUOUS
 10
-1.2308085066
 20
-23.8029689395
 11
-1.0308161219
 21
-23.8029689395
  0
LINE
  5
254
100
AcDbEntity
  8
RACCORDO
100
AcDbLine
 62
250
  6
CONTINUOUS
 10
-0.7906496834
 20
-23.7490770971
 11
-0.990642068
 21
-23.7490770969
  0
LINE
  5
255
100
AcDbEntity
  8
RACCORDO
100
AcDbLine
 62
250
  6
CONTINUOUS
 10
1.2308085065
 20
-23.6812252558
 11
2.5842764069
 21
-23.6812252558
  0
LINE
  5
256
100
AcDbEntity
  8
RACCORDO
100
AcDbLine
 62
250
  6
CONTINUOUS
 10
-1.9592687915
 20
-23.6812252558
 11
-2.5842764069
 21
-23.6812252558
  0
LINE
  5
257
100
AcDbEntity
  8
RACCORDO
100
AcDbLine
 62
250
  6
CONTINUOUS
 10
0.0
 20
-23.6375909169
 11
0.990642068
 21
-23.6375909169
  0
LWPOLYLINE
  5
258
100
AcDbEntity
  8
RACCORDO
100
AcDbPolyline
 62
7
  6
CONTINUOUS
 90
4
 70
0
 10
-0.2404690537
 20
-28.4012950423
 10
-0.2385189904
 20
-28.4024108126
 10
-0.2332268634
 20
-28.4048442501
 10
-0.224813483
 20
-28.4085953548
  0
LINE
  5
259
100
AcDbEntity
  8
RACCORDO
100
AcDbLine
 62
7
  6
CONTINUOUS
 10
1.8513240599
 20
28.3161488555
 11
1.8570008079
 21
28.3203431671
  0
LINE
  5
25A
100
AcDbEntity
  8
RACCORDO
100
AcDbLine
 62
250
  6
CONTINUOUS
 10
-2.3842840214
 20
25.0719453345
 11
-2.2128091975
 21
25.1748692805
  0
LINE
  5
25B
100
AcDbEntity
  8
RACCORDO
100
AcDbLine
 62
7
  6
CONTINUOUS
 10
2.3842840223
 20
-22.2469412335
 11
2.1075462644
 21
-22.2469412335
  0
LINE
  5
25C
100
AcDbEntity
  8
RACCORDO
100
AcDbLine
 62
7
  6
CONTINUOUS
 10
1.5075462644
 20
-22.2469412335
 11
1.2308085065
 21
-22.2469412335
  0
LINE
  5
25D
100
AcDbEntity
  8
RACCORDO
100
AcDbLine
 62
7
  6
CONTINUOUS
 10
-1.2308085065
 20
-22.2469412335
 11
-1.5075462644
 21
-22.2469412335
  0
LINE
  5
25E
100
AcDbEntity
  8
RACCORDO
100
AcDbLine
 62
7
  6
CONTINUOUS
 10
-2.1075462644
 20
-22.2469412335
 11
-2.3842840223
 21
-22.2469412335
  0
LINE
  5
25F
100
AcDbEntity
  8
RACCORDO
100
AcDbLine
 62
7
  6
CONTINUOUS
 10
-2.3406496833
 20
-22.2050370371
 11
-2.1564984469
 21
-22.2050370371
  0
LINE
  5
260
100
AcDbEntity
  8
RACCORDO
100
AcDbLine
 62
7
  6
CONTINUOUS
 10
-1.458594082
 20
-22.2050370371
 11
-0.990642068
 21
-22.2050370371
  0
LINE
  5
261
100
AcDbEntity
  8
RACCORDO
100
AcDbLine
 62
7
  6
CONTINUOUS
 10
0.990642068
 20
-22.2050370371
 11
1.458594082
 21
-22.2050370371
  0
LINE
  5
262
100
AcDbEntity
  8
RACCORDO
100
AcDbLine
 62
7
  6
CONTINUOUS
 10
2.1564984469
 20
-22.2050370371
 11
2.3406496833
 21
-22.2050370371
  0
LINE
  5
263
100
AcDbEntity
  8
RACCORDO
100
AcDbLine
 62
250
  6
CONTINUOUS
 10
-1.5525887995
 20
-22.0050446525
 11
-0.7906496833
 21
-22.0050446525
  0
LINE
  5
264
100
AcDbEntity
  8
RACCORDO
100
AcDbLine
 62
250
  6
CONTINUOUS
 10
0.7906496833
 20
-22.0050446525
 11
1.5525887995
 21
-22.0050446525
  0
LINE
  5
265
100
AcDbEntity
  8
RACCORDO
100
AcDbLine
 62
250
  6
CONTINUOUS
 10
2.0625037293
 20
-22.0050446525
 11
2.540642068
 21
-22.0050446525
  0
LINE
  5
266
100
AcDbEntity
  8
RACCORDO
100
AcDbLine
 62
250
  6
CONTINUOUS
 10
-2.0625037293
 20
-22.0050446525
 11
-2.540642068
 21
-22.0050446525
  0
LINE
  5
267
100
AcDbEntity
  8
RACCORDO
100
AcDbLine
 62
250
  6
CONTINUOUS
 10
1.1900587528
 20
-21.2963960633
 11
2.540642068
 21
-21.2963960633
  0
LINE
  5
268
100
AcDbEntity
  8
RACCORDO
100
AcDbLine
 62
250
  6
CONTINUOUS
 10
-1.1900587528
 20
-21.2963960633
 11
-2.540642068
 21
-21.2963960633
  0
LINE
  5
269
100
AcDbEntity
  8
RACCORDO
100
AcDbLine
 62
7
  6
CONTINUOUS
 10
-0.9459436609
 20
-25.8299816927
 11
-0.9
 21
-25.8644857015
  0
LINE
  5
26A
100
AcDbEntity
  8
RACCORDO
100
AcDbLine
 62
250
  6
CONTINUOUS
 10
0.5040345775
 20
-28.8574171411
 11
0.0604759076
 21
-28.4852272247
  0
LINE
  5
26B
100
AcDbEntity
  8
RACCORDO
100
AcDbLine
 62
7
  6
CONTINUOUS
 10
0.8081523868
 20
-28.8776379177
 11
0.2404690537
 21
-28.4012950423
  0
LINE
  5
26C
100
AcDbEntity
  8
DRAFT
100
AcDbLine
 62
7
  6
CONTINUOUS
 10
0.8464181415
 20
-28.8320345671
 11
0.3
 21
-28.3735353061
  0
LINE
  5
26D
100
AcDbEntity
  8
RACCORDO
100
AcDbLine
 62
7
  6
CONTINUOUS
 10
0.3
 20
-28.2464054372
 11
0.240642068
 21
-28.1956228107
  0
LINE
  5
26E
100
AcDbEntity
  8
RACCORDO
100
AcDbLine
 62
7
  6
CONTINUOUS
 10
2.4744586685
 20
27.2664465443
 11
2.4575605678
 21
27.2530587665
  0
LINE
  5
26F
100
AcDbEntity
  8
RACCORDO
100
AcDbLine
 62
250
  6
CONTINUOUS
 10
2.3406496833
 20
-21.0994345127
 11
1.1900436268
 21
-21.0994345127
  0
LINE
  5
270
100
AcDbEntity
  8
RACCORDO
100
AcDbLine
 62
250
  6
CONTINUOUS
 10
-1.1900411906
 20
-21.0994345127
 11
-2.3406496833
 21
-21.0994345127
  0
LINE
  5
271
100
AcDbEntity
  8
RACCORDO
100
AcDbLine
 62
250
  6
CONTINUOUS
 10
0.7906496833
 20
-20.890840908
 11
0.990642068
 21
-20.890840908
  0
LINE
  5
272
100
AcDbEntity
  8
RACCORDO
100
AcDbLine
 62
250
  6
CONTINUOUS
 10
-0.7906496833
 20
-20.890840908
 11
-0.990642068
 21
-20.8908409081
  0
LINE
  5
273
100
AcDbEntity
  8
RACCORDO
100
AcDbLine
 62
250
  6
CONTINUOUS
 10
-2.3813994371
 20
-20.2760828579
 11
-1.2308085065
 21
-20.2760828579
  0
LINE
  5
274
100
AcDbEntity
  8
RACCORDO
100
AcDbLine
 62
250
  6
CONTINUOUS
 10
1.2308085065
 20
-20.2760828579
 11
2.3813994371
 21
-20.2760828579
  0
LINE
  5
275
100
AcDbEntity
  8
RACCORDO
100
AcDbLine
 62
250
  6
CONTINUOUS
 10
-1.0308161219
 20
-20.0791213073
 11
-2.3842840223
 21
-20.0791213073
  0
LINE
  5
276
100
AcDbEntity
  8
RACCORDO
100
AcDbLine
 62
250
  6
CONTINUOUS
 10
1.0308161219
 20
-20.0791213073
 11
2.3842840223
 21
-20.0791213073
  0
LINE
  5
277
100
AcDbEntity
  8
RACCORDO
100
AcDbLine
 62
7
  6
CONTINUOUS
 10
0.9459436609
 20
-27.1639007743
 11
0.9
 21
-27.1293967656
  0
LWPOLYLINE
  5
278
100
AcDbEntity
  8
RACCORDO
100
AcDbPolyline
 62
7
  6
CONTINUOUS
 90
7
 70
0
 10
0.990642068
 20
22.21115457
 10
0.9886611117
 20
22.2096957165
 10
0.9849951053
 20
22.2059246497
 10
0.979644049
 20
22.200156551
 10
0.9723860255
 20
22.1927456284
 10
0.963442952
 20
22.1839787775
 10
0.9425818114
 20
22.1629913054
  0
LINE
  5
279
100
AcDbEntity
  8
RACCORDO
100
AcDbLine
 62
250
  6
CONTINUOUS
 10
-0.8464181415
 20
-28.8320345671
 11
-0.8081523868
 21
-28.8776379177
  0
LINE
  5
27A
100
AcDbEntity
  8
RACCORDO
100
AcDbLine
 62
250
  6
CONTINUOUS
 10
0.8342840223
 20
-23.8812176405
 11
0.7906496833
 21
-23.8375833015
  0
LINE
  5
27B
100
AcDbEntity
  8
RACCORDO
100
AcDbLine
 62
250
  6
CONTINUOUS
 10
0.990642068
 20
-23.6375909169
 11
1.0308161219
 21
-23.6777649709
  0
LINE
  5
27C
100
AcDbEntity
  8
RACCORDO
100
AcDbLine
 62
250
  6
CONTINUOUS
 10
1.9749923846
 20
-23.8969412335
 11
1.9680200385
 21
-23.8899447115
  0
LINE
  5
27D
100
AcDbEntity
  8
RACCORDO
100
AcDbLine
 62
7
  6
CONTINUOUS
 10
0.632455532
 20
-27.3969412335
 11
0.6669595408
 21
-27.4428848945
  0
LINE
  5
27E
100
AcDbEntity
  8
RACCORDO
100
AcDbLine
 62
7
  6
CONTINUOUS
 10
-0.632455532
 20
-25.5969412335
 11
-0.6669595408
 21
-25.5509975726
  0
LINE
  5
27F
100
AcDbEntity
  8
RACCORDO
100
AcDbLine
 62
7
  6
CONTINUOUS
 10
0.7906496833
 20
22.0111621854
 11
1.0308161219
 21
22.251328624
  0
LINE
  5
280
100
AcDbEntity
  8
RACCORDO
100
AcDbLine
 62
250
  6
CONTINUOUS
 10
2.3406496833
 20
22.21115457
 11
2.3825538798
 21
22.2530587665
  0
LINE
  5
281
100
AcDbEntity
  8
RACCORDO
100
AcDbLine
 62
250
  6
CONTINUOUS
 10
2.5842764069
 20
22.0547965243
 11
2.540642068
 21
22.0111621854
  0
LINE
  5
282
100
AcDbEntity
  8
RACCORDO
100
AcDbLine
 62
7
  6
CONTINUOUS
 10
0.9425818114
 20
22.1629913054
 11
0.9306637443
 21
22.1511961993
  0
LINE
  5
283
100
AcDbEntity
  8
RACCORDO
100
AcDbLine
 62
7
  6
CONTINUOUS
 10
0.8050863055
 20
22.0254481251
 11
0.7906496833
 21
22.0111621854
  0
LINE
  5
284
100
AcDbEntity
  8
RACCORDO
100
AcDbLine
 62
250
  6
CONTINUOUS
 10
2.3842840223
 20
-23.8812176405
 11
2.4000076154
 21
-23.8969412335
  0
LINE
  5
285
100
AcDbEntity
  8
RACCORDO
100
AcDbLine
 62
7
  6
CONTINUOUS
 10
0.7906496833
 20
-22.0050446525
 11
1.0308161219
 21
-22.245211091
  0
LINE
  5
286
100
AcDbEntity
  8
RACCORDO
100
AcDbLine
 62
250
  6
CONTINUOUS
 10
2.5842764069
 20
-23.6812252558
 11
2.6
 21
-23.6969488489
  0
LINE
  5
287
100
AcDbEntity
  8
RACCORDO
100
AcDbLine
 62
250
  6
CONTINUOUS
 10
2.3406496833
 20
-22.2050370371
 11
2.3825538798
 21
-22.2469412335
  0
LINE
  5
288
100
AcDbEntity
  8
RACCORDO
100
AcDbLine
 62
250
  6
CONTINUOUS
 10
2.540642068
 20
-22.0050446525
 11
2.5842764069
 21
-22.0486789914
  0
LINE
  5
289
100
AcDbEntity
  8
RACCORDO
100
AcDbLine
 62
7
  6
CONTINUOUS
 10
0.804935623
 20
-22.0194812746
 11
0.7906496833
 21
-22.0050446525
  0
LINE
  5
28A
100
AcDbEntity
  8
RACCORDO
100
AcDbLine
 62
7
  6
CONTINUOUS
 10
0.9424788034
 20
-22.1569767805
 11
0.9306836973
 21
-22.1450587135
  0
LINE
  5
28B
100
AcDbEntity
  8
RACCORDO
100
AcDbLine
 62
250
  6
CONTINUOUS
 10
-1.5592840223
 20
-24.1523965432
 11
-1.4485324649
 21
-24.3189229568
  0
LINE
  5
28C
100
AcDbEntity
  8
RACCORDO
100
AcDbLine
 62
250
  6
CONTINUOUS
 10
-1.0168660588
 20
24.3948309897
 11
-1.1037502538
 21
24.2146974544
  0
LINE
  5
28D
100
AcDbEntity
  8
RACCORDO
100
AcDbLine
 62
250
  6
CONTINUOUS
 10
-1.2308085065
 20
24.0094657022
 11
-1.1422902473
 21
24.1888018995
  0
LWPOLYLINE
  5
28E
100
AcDbEntity
  8
RACCORDO
100
AcDbPolyline
 62
7
  6
CONTINUOUS
 90
7
 70
0
 10
0.990642068
 20
-22.2050370371
 10
0.9891832145
 20
-22.2030560808
 10
0.9854121476
 20
-22.1993900745
 10
0.979644049
 20
-22.1940390181
 10
0.9722331264
 20
-22.1867809946
 10
0.9634662755
 20
-22.1778379211
 10
0.9424788034
 20
-22.1569767805
  0
LINE
  5
28F
100
AcDbEntity
  8
RACCORDO
100
AcDbLine
 62
7
  6
CONTINUOUS
 10
0.6979815289
 20
-23.8633694469
 11
0.7145445745
 21
-23.8882143657
  0
LINE
  5
290
100
AcDbEntity
  8
RACCORDO
100
AcDbLine
 62
250
  6
CONTINUOUS
 10
-0.7906496833
 20
-23.7490770972
 11
-0.7353490387
 21
-23.941271771
  0
LINE
  5
291
100
AcDbEntity
  8
RACCORDO
100
AcDbLine
 62
250
  6
CONTINUOUS
 10
-2.3093845435
 20
4.419340975
 11
-2.5010547638
 21
4.3622491144
  0
LINE
  5
292
100
AcDbEntity
  8
RACCORDO
100
AcDbLine
 62
250
  6
CONTINUOUS
 10
-2.540642068
 20
-21.2963960633
 11
-2.5842764069
 21
-20.4147611598
  0
LINE
  5
293
100
AcDbEntity
  8
RACCORDO
100
AcDbLine
 62
250
  6
CONTINUOUS
 10
-2.3406496833
 20
-21.0994345127
 11
-2.3813994371
 21
-20.2760828579
  0
LINE
  5
294
100
AcDbEntity
  8
RACCORDO
100
AcDbLine
 62
250
  6
CONTINUOUS
 10
-1.1900411906
 20
-21.0994345127
 11
-1.2308085065
 21
-20.2760828579
  0
LINE
  5
295
100
AcDbEntity
  8
RACCORDO
100
AcDbLine
 62
250
  6
CONTINUOUS
 10
-0.990642068
 20
-20.8908344346
 11
-1.0308161219
 21
-20.0791213073
  0
LINE
  5
296
100
AcDbEntity
  8
0
100
AcDbLine
 62
7
  6
CONTINUOUS
 10
-2.6
 20
26.5030587665
 11
-2.6
 21
4.9308749585
  0
LINE
  5
297
100
AcDbEntity
  8
0
100
AcDbLine
 62
7
  6
CONTINUOUS
 10
-2.6
 20
-1.9247574255
 11
-2.6
 21
-23.6969488489
  0
LINE
  5
298
100
AcDbEntity
  8
RACCORDO
100
AcDbLine
 62
7
  6
CONTINUOUS
 10
-2.5842764069
 20
26.5030587665
 11
-2.5842764069
 21
22.0547965243
  0
LINE
  5
299
100
AcDbEntity
  8
RACCORDO
100
AcDbLine
 62
7
  6
CONTINUOUS
 10
-2.5842764069
 20
20.4208786927
 11
-2.5842764069
 21
4.9331677209
  0
LINE
  5
29A
100
AcDbEntity
  8
RACCORDO
100
AcDbLine
 62
7
  6
CONTINUOUS
 10
-2.5842764069
 20
-1.927050188
 11
-2.5842764069
 21
-20.4147611598
  0
LINE
  5
29B
100
AcDbEntity
  8
RACCORDO
100
AcDbLine
 62
7
  6
CONTINUOUS
 10
-2.5842764069
 20
-22.0486789914
 11
-2.5842764069
 21
-23.6812252558
  0
LINE
  5
29C
100
AcDbEntity
  8
RACCORDO
100
AcDbLine
 62
7
  6
CONTINUOUS
 10
-2.540642068
 20
22.0111621854
 11
-2.540642068
 21
21.3025135962
  0
LINE
  5
29D
100
AcDbEntity
  8
RACCORDO
100
AcDbLine
 62
7
  6
CONTINUOUS
 10
-2.540642068
 20
-21.2963960633
 11
-2.540642068
 21
-22.0050446525
  0
LINE
  5
29E
100
AcDbEntity
  8
RACCORDO
100
AcDbLine
 62
250
  6
CONTINUOUS
 10
-2.3842840223
 20
25.0719453359
 11
-2.3842840223
 21
22.2530587665
  0
LINE
  5
29F
100
AcDbEntity
  8
RACCORDO
100
AcDbLine
 62
250
  6
CONTINUOUS
 10
-2.3842840223
 20
20.0852388402
 11
-2.3842840223
 21
4.9331677209
  0
LINE
  5
2A0
100
AcDbEntity
  8
RACCORDO
100
AcDbLine
 62
250
  6
CONTINUOUS
 10
-2.3842840223
 20
-1.927050188
 11
-2.3842840223
 21
-20.0791213073
  0
LINE
  5
2A1
100
AcDbEntity
  8
RACCORDO
100
AcDbLine
 62
250
  6
CONTINUOUS
 10
-2.3842840223
 20
-22.2469412335
 11
-2.3842840223
 21
-23.8812176405
  0
LINE
  5
2A2
100
AcDbEntity
  8
RACCORDO
100
AcDbLine
 62
250
  6
CONTINUOUS
 10
-2.3406496833
 20
-21.0994345127
 11
-2.3406496833
 21
-22.2050370371
  0
LINE
  5
2A3
100
AcDbEntity
  8
RACCORDO
100
AcDbLine
 62
250
  6
CONTINUOUS
 10
-2.3406496833
 20
21.1055520456
 11
-2.3406496833
 21
22.21115457
  0
LINE
  5
2A4
100
AcDbEntity
  8
RACCORDO
100
AcDbLine
 62
250
  6
CONTINUOUS
 10
-1.9592687915
 20
-23.6812252558
 11
-1.9592687915
 21
-23.8812176405
  0
LINE
  5
2A5
100
AcDbEntity
  8
RACCORDO
100
AcDbLine
 62
7
  6
CONTINUOUS
 10
-1.775
 20
-24.0969336182
 11
-1.775
 21
-26.4969412335
  0
LINE
  5
2A6
100
AcDbEntity
  8
RACCORDO
100
AcDbLine
 62
7
  6
CONTINUOUS
 10
-1.7662731322
 20
-26.4969412335
 11
-1.7662731322
 21
-24.165489227
  0
LINE
  5
2A7
100
AcDbEntity
  8
RACCORDO
100
AcDbLine
 62
7
  6
CONTINUOUS
 10
-1.7592764069
 20
-24.0811695381
 11
-1.7592764069
 21
-24.1523965432
  0
LINE
  5
2A8
100
AcDbEntity
  8
RACCORDO
100
AcDbLine
 62
250
  6
CONTINUOUS
 10
-2.5842764069
 20
20.4208786927
 11
-2.540642068
 21
21.3025135962
  0
LINE
  5
2A9
100
AcDbEntity
  8
RACCORDO
100
AcDbLine
 62
250
  6
CONTINUOUS
 10
-2.3813994371
 20
20.2822003908
 11
-2.3406496833
 21
21.1055520456
  0
LINE
  5
2AA
100
AcDbEntity
  8
RACCORDO
100
AcDbLine
 62
250
  6
CONTINUOUS
 10
-1.2308085065
 20
20.2822003908
 11
-1.1900436268
 21
21.1055520456
  0
LINE
  5
2AB
100
AcDbEntity
  8
RACCORDO
100
AcDbLine
 62
250
  6
CONTINUOUS
 10
-1.0308161219
 20
20.0852388402
 11
-0.990642068
 21
20.8969584409
  0
LWPOLYLINE
  5
2AC
100
AcDbEntity
  8
0
100
AcDbPolyline
 62
7
  6
CONTINUOUS
 90
3
 70
0
 43
0.3500000006
 10
9.6754878616
 20
38.1326542969
 10
9.6040600777
 20
37.918369812
 10
9.4612028103
 20
37.6326541443
  0
LINE
  5
2AD
100
AcDbEntity
  8
RACCORDO
100
AcDbLine
 62
250
  6
CONTINUOUS
 10
2.5166693109
 20
-1.3534728549
 11
2.5010547638
 21
-1.3561315814
  0
LINE
  5
2AE
100
AcDbEntity
  8
RACCORDO
100
AcDbLine
 62
250
  6
CONTINUOUS
 10
2.3842840223
 20
-1.927050188
 11
2.5842764069
 21
-1.927050188
  0
LINE
  5
2AF
100
AcDbEntity
  8
RACCORDO
100
AcDbLine
 62
250
  6
CONTINUOUS
 10
-2.3842840223
 20
-1.927050188
 11
-2.5842764069
 21
-1.927050188
  0
LINE
  5
2B0
100
AcDbEntity
  8
RACCORDO
100
AcDbLine
 62
250
  6
CONTINUOUS
 10
-2.5010547638
 20
-1.3561315814
 11
-2.5166693109
 21
-1.3534728549
  0
LINE
  5
2B1
100
AcDbEntity
  8
RACCORDO
100
AcDbLine
 62
250
  6
CONTINUOUS
 10
-2.3093845435
 20
-1.4132234421
 11
-2.5010547638
 21
-1.3561315814
  0
LINE
  5
2B2
100
AcDbEntity
  8
RACCORDO
100
AcDbLine
 62
250
  6
CONTINUOUS
 10
-1.5592840223
 20
-24.0812100251
 11
-1.5592840223
 21
-24.1523965432
  0
LINE
  5
2B3
100
AcDbEntity
  8
RACCORDO
100
AcDbLine
 62
250
  6
CONTINUOUS
 10
-1.2308085065
 20
24.0094657022
 11
-1.2308085065
 21
22.2530587665
  0
LINE
  5
2B4
100
AcDbEntity
  8
RACCORDO
100
AcDbLine
 62
250
  6
CONTINUOUS
 10
-1.2308085065
 20
-22.2469412335
 11
-1.2308085066
 21
-23.8029689395
  0
LINE
  5
2B5
100
AcDbEntity
  8
RACCORDO
100
AcDbLine
 62
250
  6
CONTINUOUS
 10
-1.2308085065
 20
-20.2760828579
 11
-1.2308085065
 21
20.2822003908
  0
LINE
  5
2B6
100
AcDbEntity
  8
RACCORDO
100
AcDbLine
 62
250
  6
CONTINUOUS
 10
-1.1900587528
 20
21.3025135962
 11
-1.1900587527
 21
21.1055520456
  0
LINE
  5
2B7
100
AcDbEntity
  8
RACCORDO
100
AcDbLine
 62
250
  6
CONTINUOUS
 10
-1.1900587528
 20
-21.2963960633
 11
-1.1900587528
 21
-21.0994345127
  0
LINE
  5
2B8
100
AcDbEntity
  8
RACCORDO
100
AcDbLine
 62
250
  6
CONTINUOUS
 10
-1.0659407366
 20
-26.9506185636
 11
-1.0659407366
 21
-26.0432639035
  0
LINE
  5
2B9
100
AcDbEntity
  8
RACCORDO
100
AcDbLine
 62
7
  6
CONTINUOUS
 10
-1.0308161219
 20
24.0094657022
 11
-1.0308161219
 21
22.251328624
  0
LINE
  5
2BA
100
AcDbEntity
  8
RACCORDO
100
AcDbLine
 62
7
  6
CONTINUOUS
 10
-1.0308161219
 20
-22.245211091
 11
-1.0308161219
 21
-23.8029593754
  0
LINE
  5
2BB
100
AcDbEntity
  8
RACCORDO
100
AcDbLine
 62
7
  6
CONTINUOUS
 10
-1.0308161219
 20
-20.0791213073
 11
-1.0308161219
 21
20.0852388402
  0
LINE
  5
2BC
100
AcDbEntity
  8
RACCORDO
100
AcDbLine
 62
7
  6
CONTINUOUS
 10
-0.990642068
 20
24.0345531241
 11
-0.990642068
 21
22.21115457
  0
LINE
  5
2BD
100
AcDbEntity
  8
RACCORDO
100
AcDbLine
 62
7
  6
CONTINUOUS
 10
-0.990642068
 20
20.8969584409
 11
-0.990642068
 21
-20.8908344346
  0
LINE
  5
2BE
100
AcDbEntity
  8
RACCORDO
100
AcDbLine
 62
7
  6
CONTINUOUS
 10
-0.990642068
 20
-22.2050370371
 11
-0.990642068
 21
-23.7490770971
  0
LINE
  5
2BF
100
AcDbEntity
  8
RACCORDO
100
AcDbLine
 62
7
  6
CONTINUOUS
 10
-0.9459436609
 20
-27.1639007743
 11
-0.9459436609
 21
-25.8299816927
  0
LINE
  5
2C0
100
AcDbEntity
  8
DRAFT
100
AcDbLine
 62
7
  6
CONTINUOUS
 10
-0.9
 20
-25.8644857015
 11
-0.9
 21
-27.1293967656
  0
LINE
  5
2C1
100
AcDbEntity
  8
RACCORDO
100
AcDbLine
 62
250
  6
CONTINUOUS
 10
-0.7906496833
 20
24.0345639208
 11
-0.7906496833
 21
22.0111621854
  0
LINE
  5
2C2
100
AcDbEntity
  8
RACCORDO
100
AcDbLine
 62
250
  6
CONTINUOUS
 10
-0.7906496833
 20
20.8969584409
 11
-0.7906496833
 21
-20.890840908
  0
LINE
  5
2C3
100
AcDbEntity
  8
RACCORDO
100
AcDbLine
 62
250
  6
CONTINUOUS
 10
-0.7906496833
 20
-22.0050446525
 11
-0.7906496834
 21
-23.7490770972
  0
LINE
  5
2C4
100
AcDbEntity
  8
RACCORDO
100
AcDbLine
 62
250
  6
CONTINUOUS
 10
-0.75
 20
-29.0969412335
 11
-0.75
 21
-29.0374102872
  0
LINE
  5
2C5
100
AcDbEntity
  8
DRAFT
100
AcDbLine
 62
7
  6
CONTINUOUS
 10
-0.7145445745
 20
-24.8816558629
 11
-0.7145445745
 21
-23.9879809067
  0
LINE
  5
2C6
100
AcDbEntity
  8
RACCORDO
100
AcDbLine
 62
7
  6
CONTINUOUS
 10
-0.7
 20
-24.5261504716
 11
-0.7
 21
-24.3232897042
  0
LINE
  5
2C7
100
AcDbEntity
  8
DRAFT
100
AcDbLine
 62
7
  6
CONTINUOUS
 10
-0.3
 20
-28.2464054372
 11
-0.3
 21
-28.3735353061
  0
LINE
  5
2C8
100
AcDbEntity
  8
RACCORDO
100
AcDbLine
 62
7
  6
CONTINUOUS
 10
-0.2404690537
 20
-28.4012950423
 11
-0.2404690537
 21
-28.1944767149
  0
LINE
  5
2C9
100
AcDbEntity
  8
RACCORDO
100
AcDbLine
 62
250
  6
CONTINUOUS
 10
-0.0604759076
 20
-28.4852272247
 11
-0.0604759076
 21
-28.0113839123
  0
LINE
  5
2CA
100
AcDbEntity
  8
RACCORDO
100
AcDbLine
 62
250
  6
CONTINUOUS
 10
0.0
 20
-24.21335612
 11
0.0
 21
-23.6375909169
  0
LINE
  5
2CB
100
AcDbEntity
  8
RACCORDO
100
AcDbLine
 62
250
  6
CONTINUOUS
 10
0.0604759076
 20
-28.0113839123
 11
0.0604759076
 21
-28.4852272247
  0
LINE
  5
2CC
100
AcDbEntity
  8
RACCORDO
100
AcDbLine
 62
7
  6
CONTINUOUS
 10
0.2404690537
 20
-28.1944767149
 11
0.2404690537
 21
-28.4012950423
  0
LINE
  5
2CD
100
AcDbEntity
  8
RACCORDO
100
AcDbLine
 62
250
  6
CONTINUOUS
 10
2.5219733558
 20
25.7369422031
 11
2.523148369
 21
25.7447012962
  0
LINE
  5
2CE
100
AcDbEntity
  8
RACCORDO
100
AcDbLine
 62
250
  6
CONTINUOUS
 10
0.990642068
 20
20.8969519675
 11
1.0308161219
 21
20.0852388402
  0
LINE
  5
2CF
100
AcDbEntity
  8
DRAFT
100
AcDbLine
 62
7
  6
CONTINUOUS
 10
0.3
 20
-28.3735353061
 11
0.3
 21
-28.2464054372
  0
LINE
  5
2D0
100
AcDbEntity
  8
RACCORDO
100
AcDbLine
 62
7
  6
CONTINUOUS
 10
0.7
 20
-24.21335612
 11
0.7
 21
-24.5261504716
  0
LINE
  5
2D1
100
AcDbEntity
  8
DRAFT
100
AcDbLine
 62
7
  6
CONTINUOUS
 10
0.7145445745
 20
-23.8882143657
 11
0.7145445745
 21
-24.8816558629
  0
LINE
  5
2D2
100
AcDbEntity
  8
RACCORDO
100
AcDbLine
 62
250
  6
CONTINUOUS
 10
0.75
 20
-29.0969412335
 11
0.75
 21
-29.0374102872
  0
LINE
  5
2D3
100
AcDbEntity
  8
RACCORDO
100
AcDbLine
 62
250
  6
CONTINUOUS
 10
0.7906496833
 20
-22.0050446525
 11
0.7906496833
 21
-23.8375833015
  0
LINE
  5
2D4
100
AcDbEntity
  8
RACCORDO
100
AcDbLine
 62
250
  6
CONTINUOUS
 10
0.7906496833
 20
-20.890840908
 11
0.7906496833
 21
20.8969584409
  0
LINE
  5
2D5
100
AcDbEntity
  8
RACCORDO
100
AcDbLine
 62
250
  6
CONTINUOUS
 10
0.7906496833
 20
22.0111621854
 11
0.7906496833
 21
24.0345639208
  0
LINE
  5
2D6
100
AcDbEntity
  8
DRAFT
100
AcDbLine
 62
7
  6
CONTINUOUS
 10
0.9
 20
-27.1293967656
 11
0.9
 21
-25.8644857015
  0
LINE
  5
2D7
100
AcDbEntity
  8
RACCORDO
100
AcDbLine
 62
7
  6
CONTINUOUS
 10
0.9459436609
 20
-25.8299816927
 11
0.9459436609
 21
-27.1639007743
  0
LINE
  5
2D8
100
AcDbEntity
  8
RACCORDO
100
AcDbLine
 62
7
  6
CONTINUOUS
 10
0.990642068
 20
-23.6375909169
 11
0.990642068
 21
-22.2050370371
  0
LINE
  5
2D9
100
AcDbEntity
  8
RACCORDO
100
AcDbLine
 62
7
  6
CONTINUOUS
 10
0.990642068
 20
-20.890840908
 11
0.990642068
 21
20.8969519675
  0
LINE
  5
2DA
100
AcDbEntity
  8
RACCORDO
100
AcDbLine
 62
7
  6
CONTINUOUS
 10
0.990642068
 20
22.21115457
 11
0.990642068
 21
24.0345695198
  0
LINE
  5
2DB
100
AcDbEntity
  8
RACCORDO
100
AcDbLine
 62
7
  6
CONTINUOUS
 10
1.0308161219
 20
20.0852388402
 11
1.0308161219
 21
-20.0791213073
  0
LINE
  5
2DC
100
AcDbEntity
  8
RACCORDO
100
AcDbLine
 62
7
  6
CONTINUOUS
 10
1.0308161219
 20
-23.6777649709
 11
1.0308161219
 21
-22.245211091
  0
LINE
  5
2DD
100
AcDbEntity
  8
RACCORDO
100
AcDbLine
 62
7
  6
CONTINUOUS
 10
1.0308161219
 20
22.251328624
 11
1.0308161219
 21
24.0094657022
  0
LINE
  5
2DE
100
AcDbEntity
  8
RACCORDO
100
AcDbLine
 62
250
  6
CONTINUOUS
 10
1.0659407366
 20
-26.0432639035
 11
1.0659407366
 21
-26.9506185636
  0
LINE
  5
2DF
100
AcDbEntity
  8
RACCORDO
100
AcDbLine
 62
250
  6
CONTINUOUS
 10
1.1900587528
 20
21.3025135962
 11
1.1900587528
 21
21.1055520456
  0
LINE
  5
2E0
100
AcDbEntity
  8
RACCORDO
100
AcDbLine
 62
250
  6
CONTINUOUS
 10
1.1900587528
 20
-21.2963960633
 11
1.1900587527
 21
-21.0994345127
  0
LINE
  5
2E1
100
AcDbEntity
  8
RACCORDO
100
AcDbLine
 62
250
  6
CONTINUOUS
 10
1.2308085065
 20
-23.6812252558
 11
1.2308085065
 21
-22.2469412335
  0
LINE
  5
2E2
100
AcDbEntity
  8
RACCORDO
100
AcDbLine
 62
250
  6
CONTINUOUS
 10
1.2308085065
 20
-20.2760828579
 11
1.2308085065
 21
20.2822003908
  0
LINE
  5
2E3
100
AcDbEntity
  8
RACCORDO
100
AcDbLine
 62
250
  6
CONTINUOUS
 10
1.2308085065
 20
22.2530587665
 11
1.2308085065
 21
24.0094657022
  0
LINE
  5
2E4
100
AcDbEntity
  8
RACCORDO
100
AcDbLine
 62
250
  6
CONTINUOUS
 10
1.5680108901
 20
-24.0899368929
 11
1.5680108901
 21
-25.6838836549
  0
LINE
  5
2E5
100
AcDbEntity
  8
RACCORDO
100
AcDbLine
 62
7
  6
CONTINUOUS
 10
1.7680032747
 20
-24.0899387928
 11
1.7680032747
 21
-26.4969412335
  0
LINE
  5
2E6
100
AcDbEntity
  8
RACCORDO
100
AcDbLine
 62
7
  6
CONTINUOUS
 10
1.775
 20
-26.4969412335
 11
1.775
 21
-24.0969336182
  0
LINE
  5
2E7
100
AcDbEntity
  8
RACCORDO
100
AcDbLine
 62
250
  6
CONTINUOUS
 10
1.0308161219
 20
-20.0791213073
 11
0.990642068
 21
-20.890840908
  0
LINE
  5
2E8
100
AcDbEntity
  8
RACCORDO
100
AcDbLine
 62
250
  6
CONTINUOUS
 10
2.3093845435
 20
-1.4132234421
 11
2.5010547638
 21
-1.3561315814
  0
LINE
  5
2E9
100
AcDbEntity
  8
RACCORDO
100
AcDbLine
 62
250
  6
CONTINUOUS
 10
1.1900411906
 20
21.1055520456
 11
1.2308085065
 21
20.2822003908
  0
LINE
  5
2EA
100
AcDbEntity
  8
RACCORDO
100
AcDbLine
 62
250
  6
CONTINUOUS
 10
2.3406496833
 20
21.1055520456
 11
2.3813994371
 21
20.2822003908
  0
LINE
  5
2EB
100
AcDbEntity
  8
RACCORDO
100
AcDbLine
 62
250
  6
CONTINUOUS
 10
2.540642068
 20
21.3025135962
 11
2.5842764069
 21
20.4208786927
  0
LINE
  5
2EC
100
AcDbEntity
  8
RACCORDO
100
AcDbLine
 62
250
  6
CONTINUOUS
 10
2.3406496833
 20
-21.0994345127
 11
2.3406496833
 21
-22.2050370371
  0
LINE
  5
2ED
100
AcDbEntity
  8
RACCORDO
100
AcDbLine
 62
250
  6
CONTINUOUS
 10
2.3406496833
 20
21.1055520456
 11
2.3406496833
 21
22.21115457
  0
LINE
  5
2EE
100
AcDbEntity
  8
RACCORDO
100
AcDbLine
 62
250
  6
CONTINUOUS
 10
2.3842840223
 20
-22.2469412335
 11
2.3842840223
 21
-23.8812176405
  0
LINE
  5
2EF
100
AcDbEntity
  8
RACCORDO
100
AcDbLine
 62
250
  6
CONTINUOUS
 10
2.3842840223
 20
-20.0791213073
 11
2.3842840223
 21
-1.927050188
  0
LINE
  5
2F0
100
AcDbEntity
  8
RACCORDO
100
AcDbLine
 62
250
  6
CONTINUOUS
 10
2.3842840223
 20
4.9331677209
 11
2.3842840223
 21
20.0852388402
  0
LINE
  5
2F1
100
AcDbEntity
  8
RACCORDO
100
AcDbLine
 62
250
  6
CONTINUOUS
 10
2.3842840223
 20
22.2530587665
 11
2.3842840223
 21
25.0719454897
  0
LINE
  5
2F2
100
AcDbEntity
  8
RACCORDO
100
AcDbLine
 62
7
  6
CONTINUOUS
 10
2.540642068
 20
-22.0050446525
 11
2.540642068
 21
-21.2963960633
  0
LINE
  5
2F3
100
AcDbEntity
  8
RACCORDO
100
AcDbLine
 62
7
  6
CONTINUOUS
 10
2.540642068
 20
21.3025135962
 11
2.540642068
 21
22.0111621854
  0
LINE
  5
2F4
100
AcDbEntity
  8
RACCORDO
100
AcDbLine
 62
7
  6
CONTINUOUS
 10
2.5842764069
 20
-23.6812252558
 11
2.5842764069
 21
-22.0486789914
  0
LINE
  5
2F5
100
AcDbEntity
  8
RACCORDO
100
AcDbLine
 62
7
  6
CONTINUOUS
 10
2.5842764069
 20
-20.4147611598
 11
2.5842764069
 21
-1.927050188
  0
LINE
  5
2F6
100
AcDbEntity
  8
RACCORDO
100
AcDbLine
 62
7
  6
CONTINUOUS
 10
2.5842764069
 20
4.9331677209
 11
2.5842764069
 21
20.4208786927
  0
LINE
  5
2F7
100
AcDbEntity
  8
RACCORDO
100
AcDbLine
 62
7
  6
CONTINUOUS
 10
2.5842764069
 20
22.0547965243
 11
2.5842764069
 21
25.0719453359
  0
LINE
  5
2F8
100
AcDbEntity
  8
RACCORDO
100
AcDbLine
 62
7
  6
CONTINUOUS
 10
2.5912731322
 20
25.5396743732
 11
2.5912731322
 21
24.6899686774
  0
LINE
  5
2F9
100
AcDbEntity
  8
0
100
AcDbLine
 62
7
  6
CONTINUOUS
 10
2.6
 20
-23.6969488489
 11
2.6
 21
-1.9247574255
  0
LINE
  5
2FA
100
AcDbEntity
  8
0
100
AcDbLine
 62
7
  6
CONTINUOUS
 10
2.6
 20
4.9308749585
 11
2.6
 21
24.4857771074
  0
LINE
  5
2FB
100
AcDbEntity
  8
RACCORDO
100
AcDbLine
 62
250
  6
CONTINUOUS
 10
1.2308085065
 20
-20.2760828579
 11
1.1900436268
 21
-21.0994345127
  0
LINE
  5
2FC
100
AcDbEntity
  8
RACCORDO
100
AcDbLine
 62
250
  6
CONTINUOUS
 10
2.3813994371
 20
-20.2760828579
 11
2.3406496833
 21
-21.0994345127
  0
LINE
  5
2FD
100
AcDbEntity
  8
RACCORDO
100
AcDbLine
 62
250
  6
CONTINUOUS
 10
2.5842764069
 20
-20.4147611598
 11
2.540642068
 21
-21.2963960633
  0
LINE
  5
2FE
100
AcDbEntity
  8
RACCORDO
100
AcDbLine
 62
250
  6
CONTINUOUS
 10
-2.5166693109
 20
4.3595903878
 11
-2.5010547638
 21
4.3622491143
  0
LINE
  5
2FF
100
AcDbEntity
  8
RACCORDO
100
AcDbLine
 62
250
  6
CONTINUOUS
 10
2.3842840223
 20
4.9331677209
 11
2.5842764069
 21
4.9331677209
  0
LINE
  5
300
100
AcDbEntity
  8
RACCORDO
100
AcDbLine
 62
250
  6
CONTINUOUS
 10
-2.3842840223
 20
4.9331677209
 11
-2.5842764069
 21
4.933167721
  0
LINE
  5
301
100
AcDbEntity
  8
RACCORDO
100
AcDbLine
 62
250
  6
CONTINUOUS
 10
2.5010547638
 20
4.3622491143
 11
2.5166693109
 21
4.3595903878
  0
LINE
  5
302
100
AcDbEntity
  8
RACCORDO
100
AcDbLine
 62
250
  6
CONTINUOUS
 10
2.3093845435
 20
4.419340975
 11
2.5010547638
 21
4.3622491144
  0
LWPOLYLINE
  5
303
100
AcDbEntity
  8
0
100
AcDbPolyline
 62
7
  6
CONTINUOUS
 90
5
 70
0
 43
0.3500000006
 10
8.135714098
 20
0.8602011566
 10
7.9214284801
 20
1.2173434753
 10
7.2785716267
 20
1.2173434753
 10
6.8499998245
 20
0.8602011566
 10
6.8499998245
 20
0.0030586853
  0
LWPOLYLINE
  5
304
100
AcDbEntity
  8
0
100
AcDbPolyline
 62
7
  6
CONTINUOUS
 90
8
 70
0
 43
0.3500000006
 10
9.8499996071
 20
-2.1397986259
 10
9.8499996071
 20
-1.2826550217
 10
9.4214283714
 20
-0.854083786
 10
8.5642859001
 20
-0.854083786
 10
8.135714098
 20
-1.2826550217
 10
8.135714098
 20
-2.1397986259
 10
6.8499998245
 20
-2.1397986259
 10
6.8499998245
 20
-0.854083786
  0
LWPOLYLINE
  5
305
100
AcDbEntity
  8
0
100
AcDbPolyline
 62
7
  6
CONTINUOUS
 90
6
 70
0
 43
0.3500000006
 10
9.8499996071
 20
0.0030586853
 10
9.8499996071
 20
1.0744879074
 10
9.6357139893
 20
1.2887723923
 10
8.5642859001
 20
1.2887723923
 10
8.135714098
 20
0.8602011566
 10
8.135714098
 20
0.431629921
  0
LINE
  5
306
100
AcDbEntity
  8
RACCORDO
100
AcDbLine
 62
250
  6
CONTINUOUS
 10
1.2308085065
 20
24.0094657022
 11
1.1422902468
 21
24.1888018993
  0
LINE
  5
307
100
AcDbEntity
  8
RACCORDO
100
AcDbLine
 62
250
  6
CONTINUOUS
 10
1.0168660588
 20
24.3948309897
 11
1.1037502545
 21
24.2146974547
  0
LINE
  5
308
100
AcDbEntity
  8
RACCORDO
100
AcDbLine
 62
250
  6
CONTINUOUS
 10
-0.7353490388
 20
-23.941271771
 11
-0.7442132555
 21
-23.9539823974
  0
LINE
  5
309
100
AcDbEntity
  8
RACCORDO
100
AcDbLine
 62
250
  6
CONTINUOUS
 10
-2.5842764069
 20
-22.0486789914
 11
-2.540642068
 21
-22.0050446525
  0
LINE
  5
30A
100
AcDbEntity
  8
RACCORDO
100
AcDbLine
 62
250
  6
CONTINUOUS
 10
-2.540642068
 20
22.0111621854
 11
-2.5842764069
 21
22.0547965243
  0
LWPOLYLINE
  5
30B
100
AcDbEntity
  8
RACCORDO
100
AcDbPolyline
 62
7
  6
CONTINUOUS
 90
7
 70
0
 10
-0.990642068
 20
22.21115457
 10
-0.9891832145
 20
22.2091736137
 10
-0.9854121476
 20
22.2055076074
 10
-0.979644049
 20
22.200156551
 10
-0.9722331264
 20
22.1928985275
 10
-0.9634662755
 20
22.183955454
 10
-0.9424788034
 20
22.1630943134
  0
LINE
  5
30C
100
AcDbEntity
  8
RACCORDO
100
AcDbLine
 62
250
  6
CONTINUOUS
 10
-1.775
 20
-24.0969336182
 11
-1.7592764069
 21
-24.0811695381
  0
LINE
  5
30D
100
AcDbEntity
  8
RACCORDO
100
AcDbLine
 62
250
  6
CONTINUOUS
 10
-2.3406496833
 20
-22.2050370371
 11
-2.3825538798
 21
-22.2469412335
  0
LINE
  5
30E
100
AcDbEntity
  8
RACCORDO
100
AcDbLine
 62
250
  6
CONTINUOUS
 10
-2.5842764069
 20
-23.6812252558
 11
-2.6
 21
-23.6969488489
  0
LINE
  5
30F
100
AcDbEntity
  8
RACCORDO
100
AcDbLine
 62
7
  6
CONTINUOUS
 10
-0.7906496833
 20
-22.0050446525
 11
-1.0308161219
 21
-22.245211091
  0
LINE
  5
310
100
AcDbEntity
  8
RACCORDO
100
AcDbLine
 62
250
  6
CONTINUOUS
 10
-2.3842840223
 20
-23.8812176405
 11
-2.4000076154
 21
-23.8969412335
  0
LINE
  5
311
100
AcDbEntity
  8
RACCORDO
100
AcDbLine
 62
250
  6
CONTINUOUS
 10
-1.9749923846
 20
-23.8969412335
 11
-1.9592583382
 21
-23.8812176405
  0
LINE
  5
312
100
AcDbEntity
  8
RACCORDO
100
AcDbLine
 62
7
  6
CONTINUOUS
 10
-0.8050863055
 20
-22.0193305921
 11
-0.7906496833
 21
-22.0050446525
  0
LINE
  5
313
100
AcDbEntity
  8
RACCORDO
100
AcDbLine
 62
7
  6
CONTINUOUS
 10
-0.9425818114
 20
-22.1568737725
 11
-0.9306637443
 21
-22.1450786664
  0
LINE
  5
314
100
AcDbEntity
  8
RACCORDO
100
AcDbLine
 62
250
  6
CONTINUOUS
 10
-2.3406496833
 20
22.21115457
 11
-2.3825538798
 21
22.2530587665
  0
LINE
  5
315
100
AcDbEntity
  8
RACCORDO
100
AcDbLine
 62
7
  6
CONTINUOUS
 10
-0.7906496833
 20
22.0111621854
 11
-1.0308161219
 21
22.251328624
  0
LINE
  5
316
100
AcDbEntity
  8
RACCORDO
100
AcDbLine
 62
7
  6
CONTINUOUS
 10
-0.9424788034
 20
22.1630943134
 11
-0.9306836973
 21
22.1511762464
  0
LINE
  5
317
100
AcDbEntity
  8
RACCORDO
100
AcDbLine
 62
7
  6
CONTINUOUS
 10
-0.804935623
 20
22.0255988075
 11
-0.7906496833
 21
22.0111621854
  0
LINE
  5
318
100
AcDbEntity
  8
RACCORDO
100
AcDbLine
 62
7
  6
CONTINUOUS
 10
0.6669595408
 20
-25.5509975726
 11
0.632455532
 21
-25.5969412335
  0
LINE
  5
319
100
AcDbEntity
  8
RACCORDO
100
AcDbLine
 62
7
  6
CONTINUOUS
 10
-0.6669595408
 20
-27.4428848945
 11
-0.632455532
 21
-27.3969412335
  0
LWPOLYLINE
  5
31A
100
AcDbEntity
  8
RACCORDO
100
AcDbPolyline
 62
7
  6
CONTINUOUS
 90
7
 70
0
 10
-0.990642068
 20
-22.2050370371
 10
-0.9886611117
 20
-22.2035781836
 10
-0.9849951053
 20
-22.1998071167
 10
-0.979644049
 20
-22.1940390181
 10
-0.9723860255
 20
-22.1866280955
 10
-0.963442952
 20
-22.1778612446
 10
-0.9425818114
 20
-22.1568737725
  0
LINE
  5
31B
100
AcDbEntity
  8
RACCORDO
100
AcDbLine
 62
250
  6
CONTINUOUS
 10
0.8464181415
 20
-28.8320345671
 11
0.8081523868
 21
-28.8776379177
  0
LINE
  5
31C
100
AcDbEntity
  8
RACCORDO
100
AcDbLine
 62
7
  6
CONTINUOUS
 10
-0.3
 20
-28.2464054372
 11
-0.240642068
 21
-28.1956228107
  0
LINE
  5
31D
100
AcDbEntity
  8
DRAFT
100
AcDbLine
 62
7
  6
CONTINUOUS
 10
-0.3
 20
-28.3735353061
 11
-0.8464181415
 21
-28.8320345671
  0
LINE
  5
31E
100
AcDbEntity
  8
RACCORDO
100
AcDbLine
 62
7
  6
CONTINUOUS
 10
-0.2404690537
 20
-28.4012950423
 11
-0.8081523868
 21
-28.8776379177
  0
LINE
  5
31F
100
AcDbEntity
  8
RACCORDO
100
AcDbLine
 62
7
  6
CONTINUOUS
 10
-0.9
 20
-27.1293967656
 11
-0.9459436609
 21
-27.1639007743
  0
LINE
  5
320
100
AcDbEntity
  8
RACCORDO
100
AcDbLine
 62
7
  6
CONTINUOUS
 10
0.9
 20
-25.8644857015
 11
0.9459436609
 21
-25.8299816927
  0
LINE
  5
321
100
AcDbEntity
  8
RACCORDO
100
AcDbLine
 62
250
  6
CONTINUOUS
 10
1.0308161219
 20
20.0852388402
 11
2.3842840223
 21
20.0852388402
  0
LINE
  5
322
100
AcDbEntity
  8
RACCORDO
100
AcDbLine
 62
250
  6
CONTINUOUS
 10
-1.0308161219
 20
20.0852388402
 11
-2.3842840223
 21
20.0852388402
  0
LINE
  5
323
100
AcDbEntity
  8
RACCORDO
100
AcDbLine
 62
250
  6
CONTINUOUS
 10
2.3813994371
 20
20.2822003908
 11
1.2308085065
 21
20.2822003908
  0
LINE
  5
324
100
AcDbEntity
  8
RACCORDO
100
AcDbLine
 62
250
  6
CONTINUOUS
 10
-1.2308085065
 20
20.2822003908
 11
-2.3813994371
 21
20.2822003908
  0
LINE
  5
325
100
AcDbEntity
  8
RACCORDO
100
AcDbLine
 62
250
  6
CONTINUOUS
 10
0.7906496833
 20
20.8969584409
 11
0.990642068
 21
20.896958441
  0
LINE
  5
326
100
AcDbEntity
  8
RACCORDO
100
AcDbLine
 62
250
  6
CONTINUOUS
 10
-0.7906496833
 20
20.8969584409
 11
-0.990642068
 21
20.8969584409
  0
LINE
  5
327
100
AcDbEntity
  8
RACCORDO
100
AcDbLine
 62
250
  6
CONTINUOUS
 10
-2.3406496833
 20
21.1055520456
 11
-1.1900436268
 21
21.1055520456
  0
LINE
  5
328
100
AcDbEntity
  8
RACCORDO
100
AcDbLine
 62
250
  6
CONTINUOUS
 10
1.1900411906
 20
21.1055520456
 11
2.3406496833
 21
21.1055520456
  0
LINE
  5
329
100
AcDbEntity
  8
RACCORDO
100
AcDbLine
 62
250
  6
CONTINUOUS
 10
1.1900587528
 20
21.3025135962
 11
2.540642068
 21
21.3025135962
  0
LINE
  5
32A
100
AcDbEntity
  8
RACCORDO
100
AcDbLine
 62
250
  6
CONTINUOUS
 10
-1.1900587528
 20
21.3025135962
 11
-2.540642068
 21
21.3025135962
  0
LINE
  5
32B
100
AcDbEntity
  8
RACCORDO
100
AcDbLine
 62
250
  6
CONTINUOUS
 10
-0.0604759076
 20
-28.4852272247
 11
-0.5040345775
 21
-28.8574171411
  0
LINE
  5
32C
100
AcDbEntity
  8
RACCORDO
100
AcDbLine
 62
250
  6
CONTINUOUS
 10
-1.0166364086
 20
-23.8769363191
 11
-1.2024533324
 21
-23.9508929449
  0
LINE
  5
32D
100
AcDbEntity
  8
RACCORDO
100
AcDbLine
 62
250
  6
CONTINUOUS
 10
1.5525887995
 20
22.0111621854
 11
0.7906496833
 21
22.0111621854
  0
LINE
  5
32E
100
AcDbEntity
  8
RACCORDO
100
AcDbLine
 62
250
  6
CONTINUOUS
 10
-0.7906496833
 20
22.0111621854
 11
-1.5525887995
 21
22.0111621854
  0
LINE
  5
32F
100
AcDbEntity
  8
RACCORDO
100
AcDbLine
 62
250
  6
CONTINUOUS
 10
2.0625037293
 20
22.0111621854
 11
2.540642068
 21
22.0111621854
  0
LINE
  5
330
100
AcDbEntity
  8
RACCORDO
100
AcDbLine
 62
250
  6
CONTINUOUS
 10
-2.0625037293
 20
22.0111621854
 11
-2.540642068
 21
22.0111621854
  0
LINE
  5
331
100
AcDbEntity
  8
RACCORDO
100
AcDbLine
 62
7
  6
CONTINUOUS
 10
2.3406496833
 20
22.21115457
 11
2.1564984469
 21
22.21115457
  0
LINE
  5
332
100
AcDbEntity
  8
RACCORDO
100
AcDbLine
 62
7
  6
CONTINUOUS
 10
1.458594082
 20
22.21115457
 11
0.990642068
 21
22.21115457
  0
LINE
  5
333
100
AcDbEntity
  8
RACCORDO
100
AcDbLine
 62
7
  6
CONTINUOUS
 10
-0.990642068
 20
22.21115457
 11
-1.458594082
 21
22.21115457
  0
LINE
  5
334
100
AcDbEntity
  8
RACCORDO
100
AcDbLine
 62
7
  6
CONTINUOUS
 10
-2.1564984469
 20
22.21115457
 11
-2.3406496833
 21
22.21115457
  0
LINE
  5
335
100
AcDbEntity
  8
RACCORDO
100
AcDbLine
 62
7
  6
CONTINUOUS
 10
-2.3842840223
 20
22.2530587665
 11
-2.1075462644
 21
22.2530587665
  0
LINE
  5
336
100
AcDbEntity
  8
RACCORDO
100
AcDbLine
 62
7
  6
CONTINUOUS
 10
-1.5075462644
 20
22.2530587665
 11
-1.2308085065
 21
22.2530587665
  0
LINE
  5
337
100
AcDbEntity
  8
RACCORDO
100
AcDbLine
 62
7
  6
CONTINUOUS
 10
1.2308085065
 20
22.2530587665
 11
1.5075462644
 21
22.2530587665
  0
LINE
  5
338
100
AcDbEntity
  8
RACCORDO
100
AcDbLine
 62
7
  6
CONTINUOUS
 10
2.1075462644
 20
22.2530587665
 11
2.3842840223
 21
22.2530587665
  0
LINE
  5
339
100
AcDbEntity
  8
RACCORDO
100
AcDbLine
 62
7
  6
CONTINUOUS
 10
2.5982637652
 20
24.6857743658
 11
2.5912731322
 21
24.6899686774
  0
LINE
  5
33A
100
AcDbEntity
  8
RACCORDO
100
AcDbLine
 62
7
  6
CONTINUOUS
 10
2.5832827193
 20
25.7438410587
 11
2.5895379128
 21
25.7396709886
  0
LINE
  5
33B
100
AcDbEntity
  8
RACCORDO
100
AcDbLine
 62
7
  6
CONTINUOUS
 10
2.467122717
 20
25.7454854338
 11
2.4575605678
 21
25.7530587665
  0
LINE
  5
33C
100
AcDbEntity
  8
RACCORDO
100
AcDbLine
 62
250
  6
CONTINUOUS
 10
-1.2308085065
 20
24.0094657022
 11
-1.0308161219
 21
24.0094657022
  0
LINE
  5
33D
100
AcDbEntity
  8
RACCORDO
100
AcDbLine
 62
250
  6
CONTINUOUS
 10
1.2308085065
 20
24.0094657022
 11
1.0308161219
 21
24.0094657022
  0
LINE
  5
33E
100
AcDbEntity
  8
RACCORDO
100
AcDbLine
 62
250
  6
CONTINUOUS
 10
0.7906496833
 20
24.0345639208
 11
0.990642068
 21
24.0345639208
  0
LINE
  5
33F
100
AcDbEntity
  8
RACCORDO
100
AcDbLine
 62
250
  6
CONTINUOUS
 10
-0.7906496833
 20
24.0345639208
 11
-0.990642068
 21
24.0345639208
  0
LINE
  5
340
100
AcDbEntity
  8
RACCORDO
100
AcDbLine
 62
250
  6
CONTINUOUS
 10
2.3842840223
 20
25.0719453359
 11
2.5842764069
 21
25.0719453359
  0
LINE
  5
341
100
AcDbEntity
  8
RACCORDO
100
AcDbLine
 62
7
  6
CONTINUOUS
 10
0.1258120897
 20
-28.4547604626
 11
0.1045495368
 21
-28.4648991545
  0
LINE
  5
342
100
AcDbEntity
  8
RACCORDO
100
AcDbLine
 62
7
  6
CONTINUOUS
 10
0.3
 20
-28.3735353061
 11
0.0604759076
 21
-28.4852272247
  0
LINE
  5
343
100
AcDbEntity
  8
RACCORDO
100
AcDbLine
 62
7
  6
CONTINUOUS
 10
0.1658669117
 20
-28.4361376566
 11
0.1463674974
 21
-28.4451189464
  0
LINE
  5
344
100
AcDbEntity
  8
RACCORDO
100
AcDbLine
 62
7
  6
CONTINUOUS
 10
0.2135793143
 20
-28.4138669068
 11
0.1997024828
 21
-28.4202379356
  0
LINE
  5
345
100
AcDbEntity
  8
RACCORDO
100
AcDbLine
 62
7
  6
CONTINUOUS
 10
0.082695683
 20
-28.475144274
 11
0.0604759076
 21
-28.4852272247
  0
LWPOLYLINE
  5
346
100
AcDbEntity
  8
RACCORDO
100
AcDbPolyline
 62
7
  6
CONTINUOUS
 90
4
 70
0
 10
0.2404690537
 20
-28.4012950423
 10
0.2383608475
 20
-28.4020716741
 10
0.2330950126
 20
-28.4045614951
 10
0.224813483
 20
-28.4085953548
  0
LINE
  5
347
100
AcDbEntity
  8
RACCORDO
100
AcDbLine
 62
250
  6
CONTINUOUS
 10
-2.6
 20
26.5030587665
 11
-2.5842764069
 21
26.5030587665
  0
LWPOLYLINE
  5
348
100
AcDbEntity
  8
0
100
AcDbPolyline
 62
7
  6
CONTINUOUS
 90
7
 70
0
 43
0.3500000006
 10
12.1754886246
 20
37.846943161
 10
10.6754881668
 20
37.846943161
 10
12.1754886246
 20
39.9897970734
 10
12.1754886246
 20
40.418370575
 10
11.7469173889
 20
40.8469395447
 10
11.1040594025
 20
40.8469395447
 10
10.6754881668
 20
40.2040860901
  0
LWPOLYLINE
  5
349
100
AcDbEntity
  8
0
100
AcDbPolyline
 62
7
  6
CONTINUOUS
 90
8
 70
0
 43
0.3500000006
 10
6.8183453465
 20
37.846943161
 10
7.6754883842
 20
37.846943161
 10
8.1040596199
 20
38.2755121307
 10
8.1040596199
 20
39.1326546021
 10
7.6754883842
 20
39.5612281036
 10
6.8183453465
 20
39.5612281036
 10
6.8183453465
 20
40.8469395447
 10
8.1040596199
 20
40.8469395447
  0
LWPOLYLINE
  5
34A
100
AcDbEntity
  8
0
100
AcDbPolyline
 62
7
  6
CONTINUOUS
 90
10
 70
0
 43
0.3500000006
 10
9.6040600777
 20
38.3469433136
 10
9.6754878616
 20
38.2040854797
 10
9.6754878616
 20
38.1326542969
 10
9.5326311607
 20
37.989796463
 10
9.4612028103
 20
37.989796463
 10
9.3897738934
 20
38.0612276459
 10
9.3897738934
 20
38.1326542969
 10
9.4612028103
 20
38.2755121307
 10
9.5326311607
 20
38.3469433136
 10
9.6040600777
 20
38.3469433136
  0
LINE
  5
34B
100
AcDbEntity
  8
RACCORDO
100
AcDbLine
 62
7
  6
CONTINUOUS
 10
-18.5184275435
 20
-29.0969412335
 11
-25.3399983199
 21
-29.0374102872
  0
LINE
  5
34C
100
AcDbEntity
  8
RACCORDO
100
AcDbLine
 62
250
  6
CONTINUOUS
 10
-18.5184275435
 20
-28.8320345671
 11
-25.3399983199
 21
-28.8776379177
  0
LINE
  5
34D
100
AcDbEntity
  8
RACCORDO
100
AcDbLine
 62
7
  6
CONTINUOUS
 10
-18.5184275435
 20
-28.3735353061
 11
-25.3399983199
 21
-28.4012950423
  0
LINE
  5
34E
100
AcDbEntity
  8
RACCORDO
100
AcDbLine
 62
7
  6
CONTINUOUS
 10
-18.5184275435
 20
-28.2464054372
 11
-25.3201728506
 21
-28.1956228107
  0
LINE
  5
34F
100
AcDbEntity
  8
DRAFT
100
AcDbLine
 62
7
  6
CONTINUOUS
 10
-25.3399983199
 20
-27.8511034676
 11
-18.5184275435
 21
-27.9106344139
  0
LINE
  5
350
100
AcDbEntity
  8
RACCORDO
100
AcDbLine
 62
250
  6
CONTINUOUS
 10
-18.5184275435
 20
-26.4969412335
 11
-19.3201728506
 21
-26.4969412335
  0
LINE
  5
351
100
AcDbEntity
  8
DRAFT
100
AcDbLine
 62
7
  6
CONTINUOUS
 10
-25.3399983199
 20
-25.1427789995
 11
-19.5184275435
 21
-25.091974921
  0
LINE
  5
352
100
AcDbEntity
  8
DRAFT
100
AcDbLine
 62
7
  6
CONTINUOUS
 10
-22.3653732561
 20
-24.7555130202
 11
-25.3201728506
 21
-24.7812991656
  0
LINE
  5
353
100
AcDbEntity
  8
RACCORDO
100
AcDbLine
 62
250
  6
CONTINUOUS
 10
-19.3201728506
 20
-24.0899368929
 11
-19.5184275435
 21
-24.0899368929
  0
LINE
  5
354
100
AcDbEntity
  8
RACCORDO
100
AcDbLine
 62
250
  6
CONTINUOUS
 10
-20.5184275435
 20
-23.6812252558
 11
-20.3201728506
 21
-23.6812252558
  0
LINE
  5
355
100
AcDbEntity
  8
RACCORDO
100
AcDbLine
 62
250
  6
CONTINUOUS
 10
-25.5184275435
 20
-23.6375909169
 11
-25.3201728506
 21
-23.6375909169
  0
LINE
  5
356
100
AcDbEntity
  8
RACCORDO
100
AcDbLine
 62
250
  6
CONTINUOUS
 10
-18.5184275435
 20
-24.0969336182
 11
-19.3201728506
 21
-24.0899387928
  0
LINE
  5
357
100
AcDbEntity
  8
RACCORDO
100
AcDbLine
 62
7
  6
CONTINUOUS
 10
-18.5184275435
 20
-23.8969412335
 11
-25.3201728506
 21
-23.8375833015
  0
LINE
  5
358
100
AcDbEntity
  8
RACCORDO
100
AcDbLine
 62
250
  6
CONTINUOUS
 10
-25.3201728506
 20
-23.6375909169
 11
-20.7166822364
 21
-23.6777649709
  0
LINE
  5
359
100
AcDbEntity
  8
RACCORDO
100
AcDbLine
 62
250
  6
CONTINUOUS
 10
-20.3201728506
 20
-23.6812252558
 11
-18.5184275435
 21
-23.6969488489
  0
LINE
  5
35A
100
AcDbEntity
  8
RACCORDO
100
AcDbLine
 62
250
  6
CONTINUOUS
 10
-22.365574693
 20
-23.9750552458
 11
-22.258163251
 21
-23.9762910552
  0
LINE
  5
35B
100
AcDbEntity
  8
RACCORDO
100
AcDbLine
 62
7
  6
CONTINUOUS
 10
-25.320745775
 20
-23.9490636611
 11
-22.2365042339
 21
-23.9850537256
  0
LINE
  5
35C
100
AcDbEntity
  8
ASSI
100
AcDbLine
 62
7
  6
CONTINUOUS
 10
-18.5184275435
 20
-22.4552562335
 11
-18.3184275435
 21
-22.4552562335
  0
LINE
  5
35D
100
AcDbEntity
  8
ASSI
100
AcDbLine
 62
7
  6
CONTINUOUS
 10
-20.5184275435
 20
-22.3469412335
 11
-25.3184275435
 21
-22.3469412335
  0
LINE
  5
35E
100
AcDbEntity
  8
RACCORDO
100
AcDbLine
 62
250
  6
CONTINUOUS
 10
-25.5184275435
 20
-22.0050446525
 11
-25.3201728506
 21
-22.0050446525
  0
LINE
  5
35F
100
AcDbEntity
  8
ASSI
100
AcDbLine
 62
7
  6
CONTINUOUS
 10
-18.5184275435
 20
-21.9267322335
 11
-18.3184275435
 21
-21.9267322335
  0
LINE
  5
360
100
AcDbEntity
  8
ASSI
100
AcDbLine
 62
7
  6
CONTINUOUS
 10
-18.5184275435
 20
-21.7376502335
 11
-18.3184275435
 21
-21.7376502335
  0
LINE
  5
361
100
AcDbEntity
  8
RACCORDO
100
AcDbLine
 62
250
  6
CONTINUOUS
 10
-25.5184275435
 20
-21.2963960633
 11
-25.3201728506
 21
-21.2963960633
  0
LINE
  5
362
100
AcDbEntity
  8
RACCORDO
100
AcDbLine
 62
7
  6
CONTINUOUS
 10
-25.3201728506
 20
-22.2050370371
 11
-20.5184275435
 21
-22.2469412335
  0
LINE
  5
363
100
AcDbEntity
  8
RACCORDO
100
AcDbLine
 62
250
  6
CONTINUOUS
 10
-25.3201728506
 20
-22.0050446525
 11
-20.3201728506
 21
-22.0486789914
  0
LINE
  5
364
100
AcDbEntity
  8
RACCORDO
100
AcDbLine
 62
250
  6
CONTINUOUS
 10
-20.3201728506
 20
-20.4147611598
 11
-25.3201728506
 21
-21.2963960633
  0
LINE
  5
365
100
AcDbEntity
  8
RACCORDO
100
AcDbLine
 62
7
  6
CONTINUOUS
 10
-20.683697908
 20
-20.2760828579
 11
-25.3531571791
 21
-21.0994345127
  0
LINE
  5
366
100
AcDbEntity
  8
RACCORDO
100
AcDbLine
 62
250
  6
CONTINUOUS
 10
-20.7166822364
 20
-20.0791213073
 11
-25.3201728506
 21
-20.890840908
  0
LINE
  5
367
100
AcDbEntity
  8
ASSI
100
AcDbLine
 62
7
  6
CONTINUOUS
 10
-18.5184275435
 20
-21.2092392335
 11
-18.3184275435
 21
-21.2092392335
  0
LINE
  5
368
100
AcDbEntity
  8
ASSI
100
AcDbLine
 62
7
  6
CONTINUOUS
 10
-18.5184275435
 20
-21.1449292335
 11
-18.3184275435
 21
-21.1449292335
  0
LINE
  5
369
100
AcDbEntity
  8
RACCORDO
100
AcDbLine
 62
250
  6
CONTINUOUS
 10
-25.5184275435
 20
-20.890840908
 11
-25.3201728506
 21
-20.890840908
  0
LINE
  5
36A
100
AcDbEntity
  8
ASSI
100
AcDbLine
 62
7
  6
CONTINUOUS
 10
-18.5184275435
 20
-20.2459402335
 11
-18.3184275435
 21
-20.2459402335
  0
LINE
  5
36B
100
AcDbEntity
  8
RACCORDO
100
AcDbLine
 62
250
  6
CONTINUOUS
 10
-20.7166822364
 20
-20.0791213073
 11
-20.5184275435
 21
-20.0791213073
  0
LINE
  5
36C
100
AcDbEntity
  8
ASSI
100
AcDbLine
 62
7
  6
CONTINUOUS
 10
-18.5184275435
 20
-20.0724822335
 11
-18.3184275435
 21
-20.0724822335
  0
LINE
  5
36D
100
AcDbEntity
  8
ASSI
100
AcDbLine
 62
7
  6
CONTINUOUS
 10
-18.5184275435
 20
-19.8657372335
 11
-18.3184275435
 21
-19.8657372335
  0
LINE
  5
36E
100
AcDbEntity
  8
ASSI
100
AcDbLine
 62
7
  6
CONTINUOUS
 10
-18.5184275435
 20
-19.7273002335
 11
-18.3184275435
 21
-19.7273002335
  0
LINE
  5
36F
100
AcDbEntity
  8
ASSI
100
AcDbLine
 62
7
  6
CONTINUOUS
 10
-18.5184275435
 20
-19.1657032335
 11
-18.3184275435
 21
-19.1657032335
  0
LINE
  5
370
100
AcDbEntity
  8
ASSI
100
AcDbLine
 62
7
  6
CONTINUOUS
 10
-18.5184275435
 20
-19.0194312335
 11
-18.3184275435
 21
-19.0194312335
  0
LINE
  5
371
100
AcDbEntity
  8
ASSI
100
AcDbLine
 62
7
  6
CONTINUOUS
 10
-18.5184275435
 20
-18.8244732335
 11
-18.3184275435
 21
-18.8244732335
  0
LINE
  5
372
100
AcDbEntity
  8
ASSI
100
AcDbLine
 62
7
  6
CONTINUOUS
 10
-18.5184275435
 20
-18.7698762335
 11
-18.3184275435
 21
-18.7698762335
  0
LINE
  5
373
100
AcDbEntity
  8
ASSI
100
AcDbLine
 62
7
  6
CONTINUOUS
 10
-18.5184275435
 20
-18.2960392335
 11
-18.3184275435
 21
-18.2960392335
  0
LINE
  5
374
100
AcDbEntity
  8
ASSI
100
AcDbLine
 62
7
  6
CONTINUOUS
 10
-18.5184275435
 20
-18.1069232335
 11
-18.3184275435
 21
-18.1069232335
  0
LINE
  5
375
100
AcDbEntity
  8
ASSI
100
AcDbLine
 62
7
  6
CONTINUOUS
 10
-18.5184275435
 20
-17.6330862335
 11
-18.3184275435
 21
-17.6330862335
  0
LINE
  5
376
100
AcDbEntity
  8
ASSI
100
AcDbLine
 62
7
  6
CONTINUOUS
 10
-18.5184275435
 20
-17.4302922335
 11
-18.3184275435
 21
-17.4302922335
  0
LINE
  5
377
100
AcDbEntity
  8
ASSI
100
AcDbLine
 62
7
  6
CONTINUOUS
 10
-18.5184275435
 20
-17.2411082335
 11
-18.3184275435
 21
-17.2411082335
  0
LINE
  5
378
100
AcDbEntity
  8
ASSI
100
AcDbLine
 62
7
  6
CONTINUOUS
 10
-18.5184275435
 20
-16.3734372335
 11
-18.3184275435
 21
-16.3734372335
  0
LINE
  5
379
100
AcDbEntity
  8
ASSI
100
AcDbLine
 62
7
  6
CONTINUOUS
 10
-18.5184275435
 20
-16.1609062335
 11
-18.3184275435
 21
-16.1609062335
  0
LINE
  5
37A
100
AcDbEntity
  8
ASSI
100
AcDbLine
 62
7
  6
CONTINUOUS
 10
-18.5184275435
 20
-15.4452812335
 11
-18.3184275435
 21
-15.4452812335
  0
LINE
  5
37B
100
AcDbEntity
  8
ASSI
100
AcDbLine
 62
7
  6
CONTINUOUS
 10
-18.5184275435
 20
-15.2619172335
 11
-18.3184275435
 21
-15.2619172335
  0
LINE
  5
37C
100
AcDbEntity
  8
ASSI
100
AcDbLine
 62
7
  6
CONTINUOUS
 10
-18.5184275435
 20
-14.9382812335
 11
-18.3184275435
 21
-14.9382812335
  0
LINE
  5
37D
100
AcDbEntity
  8
ASSI
100
AcDbLine
 62
7
  6
CONTINUOUS
 10
-18.5184275435
 20
-14.7491532335
 11
-18.3184275435
 21
-14.7491532335
  0
LINE
  5
37E
100
AcDbEntity
  8
ASSI
100
AcDbLine
 62
7
  6
CONTINUOUS
 10
-18.5184275435
 20
-13.9301682335
 11
-18.3184275435
 21
-13.9301682335
  0
LINE
  5
37F
100
AcDbEntity
  8
ASSI
100
AcDbLine
 62
7
  6
CONTINUOUS
 10
-18.5184275435
 20
-12.8966702335
 11
-18.3184275435
 21
-12.8966702335
  0
LINE
  5
380
100
AcDbEntity
  8
ASSI
100
AcDbLine
 62
7
  6
CONTINUOUS
 10
-18.5184275435
 20
-12.6349099789
 11
-18.3184275435
 21
-12.6349099789
  0
LINE
  5
381
100
AcDbEntity
  8
ASSI
100
AcDbLine
 62
250
  6
CONTINUOUS
 10
-18.5184275435
 20
-12.0465022335
 11
-18.3184275435
 21
-12.0465022335
  0
LINE
  5
382
100
AcDbEntity
  8
ASSI
100
AcDbLine
 62
7
  6
CONTINUOUS
 10
-18.5184275435
 20
-11.4790642335
 11
-18.3184275435
 21
-11.4790642335
  0
LINE
  5
383
100
AcDbEntity
  8
ASSI
100
AcDbLine
 62
7
  6
CONTINUOUS
 10
-18.5184275435
 20
-11.2957902335
 11
-18.3184275435
 21
-11.2957902335
  0
LINE
  5
384
100
AcDbEntity
  8
ASSI
100
AcDbLine
 62
7
  6
CONTINUOUS
 10
-18.5184275435
 20
-11.0890792335
 11
-18.3184275435
 21
-11.0890792335
  0
LINE
  5
385
100
AcDbEntity
  8
ASSI
100
AcDbLine
 62
7
  6
CONTINUOUS
 10
-18.5184275435
 20
-10.9506532335
 11
-18.3184275435
 21
-10.9506532335
  0
LINE
  5
386
100
AcDbEntity
  8
ASSI
100
AcDbLine
 62
7
  6
CONTINUOUS
 10
-18.5184275435
 20
-10.3891132335
 11
-18.3184275435
 21
-10.3891132335
  0
LINE
  5
387
100
AcDbEntity
  8
ASSI
100
AcDbLine
 62
7
  6
CONTINUOUS
 10
-18.5184275435
 20
-10.2428522335
 11
-18.3184275435
 21
-10.2428522335
  0
LINE
  5
388
100
AcDbEntity
  8
ASSI
100
AcDbLine
 62
7
  6
CONTINUOUS
 10
-18.5184275435
 20
-10.0478822335
 11
-18.3184275435
 21
-10.0478822335
  0
LINE
  5
389
100
AcDbEntity
  8
ASSI
100
AcDbLine
 62
7
  6
CONTINUOUS
 10
-18.5184275435
 20
-9.8801882335
 11
-18.3184275435
 21
-9.8801882335
  0
LINE
  5
38A
100
AcDbEntity
  8
ASSI
100
AcDbLine
 62
7
  6
CONTINUOUS
 10
-18.5184275435
 20
-9.6968352335
 11
-18.3184275435
 21
-9.6968352335
  0
LINE
  5
38B
100
AcDbEntity
  8
ASSI
100
AcDbLine
 62
7
  6
CONTINUOUS
 10
-18.5184275435
 20
-9.3030052335
 11
-18.3184275435
 21
-9.3030052335
  0
LINE
  5
38C
100
AcDbEntity
  8
ASSI
100
AcDbLine
 62
7
  6
CONTINUOUS
 10
-18.5184275435
 20
-9.1158102335
 11
-18.3184275435
 21
-9.1158102335
  0
LINE
  5
38D
100
AcDbEntity
  8
ASSI
100
AcDbLine
 62
7
  6
CONTINUOUS
 10
-18.5184275435
 20
-8.7219052335
 11
-18.3184275435
 21
-8.7219052335
  0
LINE
  5
38E
100
AcDbEntity
  8
ASSI
100
AcDbLine
 62
7
  6
CONTINUOUS
 10
-18.5184275435
 20
-8.5386262335
 11
-18.3184275435
 21
-8.5386262335
  0
LINE
  5
38F
100
AcDbEntity
  8
RACCORDO
100
AcDbLine
 62
7
  6
CONTINUOUS
 10
-25.5184275435
 20
-25.4437239607
 11
-25.5181562679
 21
-25.4536025042
  0
LINE
  5
390
100
AcDbEntity
  8
RACCORDO
100
AcDbLine
 62
7
  6
CONTINUOUS
 10
-25.5184275435
 20
-27.5402799628
 11
-25.5184275435
 21
-25.4536025042
  0
LINE
  5
391
100
AcDbEntity
  8
RACCORDO
100
AcDbLine
 62
7
  6
CONTINUOUS
 10
-25.5184275435
 20
-24.9813836904
 11
-25.5184275435
 21
-25.4437233869
  0
LINE
  5
392
100
AcDbEntity
  8
RACCORDO
100
AcDbLine
 62
7
  6
CONTINUOUS
 10
-25.5184275435
 20
-27.55015788
 11
-25.5184275435
 21
-28.8574171411
  0
LINE
  5
393
100
AcDbEntity
  8
RACCORDO
100
AcDbLine
 62
7
  6
CONTINUOUS
 10
-25.5184275435
 20
-23.7490770972
 11
-25.5184275435
 21
28.8437082906
  0
LINE
  5
394
100
AcDbEntity
  8
RACCORDO
100
AcDbLine
 62
250
  6
CONTINUOUS
 10
-25.3399983199
 20
-25.1427789995
 11
-25.3399983199
 21
-25.4374877606
  0
LINE
  5
395
100
AcDbEntity
  8
RACCORDO
100
AcDbLine
 62
250
  6
CONTINUOUS
 10
-25.3399983199
 20
-27.5563947065
 11
-25.3399983199
 21
-27.8511034676
  0
LINE
  5
396
100
AcDbEntity
  8
RACCORDO
100
AcDbLine
 62
250
  6
CONTINUOUS
 10
-25.3399983199
 20
-28.1944767149
 11
-25.3399983199
 21
-28.8776379177
  0
LINE
  5
397
100
AcDbEntity
  8
RACCORDO
100
AcDbLine
 62
250
  6
CONTINUOUS
 10
-25.3201728506
 20
-23.941271771
 11
-25.3201728533
 21
-23.8490882157
  0
LINE
  5
398
100
AcDbEntity
  8
RACCORDO
100
AcDbLine
 62
250
  6
CONTINUOUS
 10
-25.3201728506
 20
-23.6375909169
 11
-25.3201728506
 21
-22.3469412335
  0
LINE
  5
399
100
AcDbEntity
  8
RACCORDO
100
AcDbLine
 62
250
  6
CONTINUOUS
 10
-25.3201728506
 20
-22.0050446525
 11
-25.3201728506
 21
-21.2963960633
  0
LINE
  5
39A
100
AcDbEntity
  8
RACCORDO
100
AcDbLine
 62
250
  6
CONTINUOUS
 10
-25.3201728506
 20
-24.7812991656
 11
-25.3201728506
 21
-25.1427789995
  0
LINE
  5
39B
100
AcDbEntity
  8
RACCORDO
100
AcDbLine
 62
250
  6
CONTINUOUS
 10
-25.3201728506
 20
-25.4362098192
 11
-25.3201728506
 21
-27.5576726479
  0
LINE
  5
39C
100
AcDbEntity
  8
RACCORDO
100
AcDbLine
 62
250
  6
CONTINUOUS
 10
-25.3201728506
 20
-27.8511034676
 11
-25.3201728506
 21
-28.1956228107
  0
LINE
  5
39D
100
AcDbEntity
  8
RACCORDO
100
AcDbLine
 62
250
  6
CONTINUOUS
 10
-25.3201728506
 20
-20.890840908
 11
-25.3201728506
 21
20.8969519675
  0
LINE
  5
39E
100
AcDbEntity
  8
RACCORDO
100
AcDbLine
 62
250
  6
CONTINUOUS
 10
-25.3201728506
 20
21.3025135962
 11
-25.3201728506
 21
22.0111621854
  0
LINE
  5
39F
100
AcDbEntity
  8
RACCORDO
100
AcDbLine
 62
250
  6
CONTINUOUS
 10
-25.3201728506
 20
22.3530587665
 11
-25.3201728506
 21
24.0345695198
  0
LINE
  5
3A0
100
AcDbEntity
  8
RACCORDO
100
AcDbLine
 62
250
  6
CONTINUOUS
 10
-25.3201728506
 20
24.2147018219
 11
-25.3201728523
 21
29.0437008344
  0
LINE
  5
3A1
100
AcDbEntity
  8
RACCORDO
100
AcDbLine
 62
250
  6
CONTINUOUS
 10
-25.3184275435
 20
-22.3469412335
 11
-25.3184275435
 21
-22.2050524352
  0
LINE
  5
3A2
100
AcDbEntity
  8
RACCORDO
100
AcDbLine
 62
250
  6
CONTINUOUS
 10
-25.3184275435
 20
22.2111699681
 11
-25.3184275435
 21
22.3530587665
  0
LINE
  5
3A3
100
AcDbEntity
  8
RACCORDO
100
AcDbLine
 62
7
  6
CONTINUOUS
 10
-25.5184275435
 20
-27.5501585064
 11
-25.5181562679
 21
-27.5402799628
  0
LINE
  5
3A4
100
AcDbEntity
  8
RACCORDO
100
AcDbLine
 62
250
  6
CONTINUOUS
 10
-20.5184275435
 20
-1.927050188
 11
-20.3201728506
 21
-1.927050188
  0
LINE
  5
3A5
100
AcDbEntity
  8
0
100
AcDbLine
 62
7
  6
CONTINUOUS
 10
-18.5184275435
 20
-1.8719409951
 11
-18.3184275435
 21
-1.8719409951
  0
LINE
  5
3A6
100
AcDbEntity
  8
0
100
AcDbLine
 62
7
  6
CONTINUOUS
 10
-18.5184275435
 20
-1.840691472
 11
-18.3184275435
 21
-1.840691472
  0
LINE
  5
3A7
100
AcDbEntity
  8
0
100
AcDbLine
 62
7
  6
CONTINUOUS
 10
-18.5184275435
 20
-1.7781909951
 11
-18.3184275435
 21
-1.7781909951
  0
LWPOLYLINE
  5
3A8
100
AcDbEntity
  8
0
100
AcDbPolyline
 62
7
  6
CONTINUOUS
 90
4
 70
0
 43
0.3500000006
 10
-23.1969979248
 20
40.2040860901
 10
-23.1969979248
 20
40.8469395447
 10
-21.696999733
 20
40.8469395447
 10
-22.5541422043
 20
37.846943161
  0
LINE
  5
3A9
100
AcDbEntity
  8
RACCORDO
100
AcDbLine
 62
250
  6
CONTINUOUS
 10
-22.3653732561
 20
-24.9015121353
 11
-22.3653732561
 21
-24.7555130202
  0
LINE
  5
3AA
100
AcDbEntity
  8
RACCORDO
100
AcDbLine
 62
250
  6
CONTINUOUS
 10
-22.3653732561
 20
-23.9575471836
 11
-22.3653732561
 21
-23.8633694469
  0
LINE
  5
3AB
100
AcDbEntity
  8
RACCORDO
100
AcDbLine
 62
7
  6
CONTINUOUS
 10
-22.0184275435
 20
-24.21335612
 11
-22.0184275435
 21
-24.5261504716
  0
LINE
  5
3AC
100
AcDbEntity
  8
DRAFT
100
AcDbLine
 62
7
  6
CONTINUOUS
 10
-22.0184275435
 20
25.7530587665
 11
-22.0184275435
 21
27.2530587665
  0
LINE
  5
3AD
100
AcDbEntity
  8
RACCORDO
100
AcDbLine
 62
250
  6
CONTINUOUS
 10
-18.5184275435
 20
-1.3534728549
 11
-20.3201728506
 21
-1.3561315814
  0
LINE
  5
3AE
100
AcDbEntity
  8
0
100
AcDbLine
 62
7
  6
CONTINUOUS
 10
-18.5184275435
 20
-1.6844409951
 11
-18.3184275435
 21
-1.6844409951
  0
LINE
  5
3AF
100
AcDbEntity
  8
0
100
AcDbLine
 62
7
  6
CONTINUOUS
 10
-18.5184275435
 20
-1.559441472
 11
-18.3184275435
 21
-1.559441472
  0
LINE
  5
3B0
100
AcDbEntity
  8
0
100
AcDbLine
 62
7
  6
CONTINUOUS
 10
-18.5184275435
 20
-1.4344412335
 11
-18.3184275435
 21
-1.4344412335
  0
LINE
  5
3B1
100
AcDbEntity
  8
0
100
AcDbLine
 62
7
  6
CONTINUOUS
 10
-18.5184275435
 20
-1.184441472
 11
-18.3184275435
 21
-1.184441472
  0
LINE
  5
3B2
100
AcDbEntity
  8
0
100
AcDbLine
 62
7
  6
CONTINUOUS
 10
-18.5184275435
 20
-1.0594412335
 11
-18.3184275435
 21
-1.0594412335
  0
LINE
  5
3B3
100
AcDbEntity
  8
0
100
AcDbLine
 62
7
  6
CONTINUOUS
 10
-18.5184275435
 20
-0.9344409951
 11
-18.3184275435
 21
-0.9344409951
  0
LINE
  5
3B4
100
AcDbEntity
  8
0
100
AcDbLine
 62
7
  6
CONTINUOUS
 10
-18.5184275435
 20
-0.8406909951
 11
-18.3184275435
 21
-0.8406909951
  0
LINE
  5
3B5
100
AcDbEntity
  8
0
100
AcDbLine
 62
7
  6
CONTINUOUS
 10
-18.5184275435
 20
-0.7781912335
 11
-18.3184275435
 21
-0.7781912335
  0
LINE
  5
3B6
100
AcDbEntity
  8
0
100
AcDbLine
 62
7
  6
CONTINUOUS
 10
-18.5184275435
 20
-0.7469409951
 11
-18.3184275435
 21
-0.7469409951
  0
LINE
  5
3B7
100
AcDbEntity
  8
0
100
AcDbLine
 62
7
  6
CONTINUOUS
 10
-18.5184275435
 20
-0.4969412335
 11
-18.3184275435
 21
-0.4969412335
  0
LINE
  5
3B8
100
AcDbEntity
  8
0
100
AcDbLine
 62
7
  6
CONTINUOUS
 10
-18.5184275435
 20
-0.4344411143
 11
-18.3184275435
 21
-0.4344411143
  0
LINE
  5
3B9
100
AcDbEntity
  8
0
100
AcDbLine
 62
7
  6
CONTINUOUS
 10
-18.5184275435
 20
-0.3406911143
 11
-18.3184275435
 21
-0.3406911143
  0
LINE
  5
3BA
100
AcDbEntity
  8
0
100
AcDbLine
 62
7
  6
CONTINUOUS
 10
-18.5184275435
 20
-0.1844413527
 11
-18.3184275435
 21
-0.1844413527
  0
LINE
  5
3BB
100
AcDbEntity
  8
0
100
AcDbLine
 62
7
  6
CONTINUOUS
 10
-18.5184275435
 20
-0.0281912335
 11
-18.3184275435
 21
-0.0281912335
  0
LINE
  5
3BC
100
AcDbEntity
  8
0
100
AcDbLine
 62
7
  6
CONTINUOUS
 10
-18.5184275435
 20
0.1280588857
 11
-18.3184275435
 21
0.1280588857
  0
LINE
  5
3BD
100
AcDbEntity
  8
RACCORDO
100
AcDbLine
 62
250
  6
CONTINUOUS
 10
-20.7166822364
 20
20.0852388402
 11
-20.7166822364
 21
-20.0791213073
  0
LINE
  5
3BE
100
AcDbEntity
  8
RACCORDO
100
AcDbLine
 62
250
  6
CONTINUOUS
 10
-20.7166822364
 20
-23.6777649709
 11
-20.7166822364
 21
-22.3469412335
  0
LINE
  5
3BF
100
AcDbEntity
  8
RACCORDO
100
AcDbLine
 62
250
  6
CONTINUOUS
 10
-20.7166822364
 20
22.3530587665
 11
-20.7166822364
 21
24.0094657022
  0
LINE
  5
3C0
100
AcDbEntity
  8
RACCORDO
100
AcDbLine
 62
250
  6
CONTINUOUS
 10
-20.7166822364
 20
24.1888018995
 11
-20.7166822364
 21
25.7454854338
  0
LINE
  5
3C1
100
AcDbEntity
  8
RACCORDO
100
AcDbLine
 62
7
  6
CONTINUOUS
 10
-20.5184275435
 20
-23.6812252558
 11
-20.5184275435
 21
-22.2469412335
  0
LINE
  5
3C2
100
AcDbEntity
  8
RACCORDO
100
AcDbLine
 62
7
  6
CONTINUOUS
 10
-20.5184275435
 20
-20.0791213073
 11
-20.5184275435
 21
20.0852388402
  0
LINE
  5
3C3
100
AcDbEntity
  8
RACCORDO
100
AcDbLine
 62
7
  6
CONTINUOUS
 10
-20.5184275435
 20
22.2530587665
 11
-20.5184275435
 21
25.0719454897
  0
LINE
  5
3C4
100
AcDbEntity
  8
RACCORDO
100
AcDbLine
 62
250
  6
CONTINUOUS
 10
-20.3201728506
 20
-23.6812252558
 11
-20.3201728506
 21
-22.0486789914
  0
LINE
  5
3C5
100
AcDbEntity
  8
RACCORDO
100
AcDbLine
 62
250
  6
CONTINUOUS
 10
-20.3201728506
 20
-20.4147611598
 11
-20.3201728506
 21
20.4208786927
  0
LINE
  5
3C6
100
AcDbEntity
  8
RACCORDO
100
AcDbLine
 62
250
  6
CONTINUOUS
 10
-20.3201728506
 20
22.0547965243
 11
-20.3201728506
 21
25.0719453359
  0
LINE
  5
3C7
100
AcDbEntity
  8
0
100
AcDbLine
 62
7
  6
CONTINUOUS
 10
-18.5184275435
 20
0.2843086473
 11
-18.3184275435
 21
0.2843086473
  0
LINE
  5
3C8
100
AcDbEntity
  8
0
100
AcDbLine
 62
7
  6
CONTINUOUS
 10
-18.5184275435
 20
0.4405587665
 11
-18.3184275435
 21
0.4405587665
  0
LINE
  5
3C9
100
AcDbEntity
  8
0
100
AcDbLine
 62
7
  6
CONTINUOUS
 10
-18.5184275435
 20
0.5343087665
 11
-18.3184275435
 21
0.5343087665
  0
LINE
  5
3CA
100
AcDbEntity
  8
0
100
AcDbLine
 62
7
  6
CONTINUOUS
 10
-18.5184275435
 20
0.5968088857
 11
-18.3184275435
 21
0.5968088857
  0
LINE
  5
3CB
100
AcDbEntity
  8
0
100
AcDbLine
 62
7
  6
CONTINUOUS
 10
-18.5184275435
 20
0.6280587665
 11
-18.3184275435
 21
0.6280587665
  0
LINE
  5
3CC
100
AcDbEntity
  8
0
100
AcDbLine
 62
7
  6
CONTINUOUS
 10
-18.5184275435
 20
0.8780588857
 11
-18.3184275435
 21
0.8780588857
  0
LINE
  5
3CD
100
AcDbEntity
  8
0
100
AcDbLine
 62
7
  6
CONTINUOUS
 10
-18.5184275435
 20
0.9405586473
 11
-18.3184275435
 21
0.9405586473
  0
LINE
  5
3CE
100
AcDbEntity
  8
0
100
AcDbLine
 62
7
  6
CONTINUOUS
 10
-18.5184275435
 20
1.0343086473
 11
-18.3184275435
 21
1.0343086473
  0
LINE
  5
3CF
100
AcDbEntity
  8
0
100
AcDbLine
 62
7
  6
CONTINUOUS
 10
-18.5184275435
 20
1.1905587665
 11
-18.3184275435
 21
1.1905587665
  0
LINE
  5
3D0
100
AcDbEntity
  8
0
100
AcDbLine
 62
7
  6
CONTINUOUS
 10
-18.5184275435
 20
1.3468088857
 11
-18.3184275435
 21
1.3468088857
  0
LINE
  5
3D1
100
AcDbEntity
  8
0
100
AcDbLine
 62
7
  6
CONTINUOUS
 10
-18.5184275435
 20
1.5343088857
 11
-18.3184275435
 21
1.5343088857
  0
LINE
  5
3D2
100
AcDbEntity
  8
0
100
AcDbLine
 62
7
  6
CONTINUOUS
 10
-18.5184275435
 20
1.6905586473
 11
-18.3184275435
 21
1.6905586473
  0
LINE
  5
3D3
100
AcDbEntity
  8
0
100
AcDbLine
 62
7
  6
CONTINUOUS
 10
-18.5184275435
 20
1.8468087665
 11
-18.3184275435
 21
1.8468087665
  0
LINE
  5
3D4
100
AcDbEntity
  8
0
100
AcDbLine
 62
7
  6
CONTINUOUS
 10
-18.5184275435
 20
1.9405587665
 11
-18.3184275435
 21
1.9405587665
  0
LINE
  5
3D5
100
AcDbEntity
  8
0
100
AcDbLine
 62
7
  6
CONTINUOUS
 10
-18.5184275435
 20
2.0030588857
 11
-18.3184275435
 21
2.0030588857
  0
LINE
  5
3D6
100
AcDbEntity
  8
RACCORDO
100
AcDbLine
 62
7
  6
CONTINUOUS
 10
-19.5184275435
 20
25.5396743732
 11
-19.5184275435
 21
24.6899686774
  0
LINE
  5
3D7
100
AcDbEntity
  8
RACCORDO
100
AcDbLine
 62
7
  6
CONTINUOUS
 10
-19.5184275435
 20
-23.8882144213
 11
-19.5184275435
 21
-25.6838836549
  0
LINE
  5
3D8
100
AcDbEntity
  8
RACCORDO
100
AcDbLine
 62
7
  6
CONTINUOUS
 10
-19.5184275435
 20
27.4664431597
 11
-19.5184275435
 21
28.3161488555
  0
LINE
  5
3D9
100
AcDbEntity
  8
RACCORDO
100
AcDbLine
 62
250
  6
CONTINUOUS
 10
-19.3201728506
 20
-24.0899387928
 11
-19.3201728506
 21
-26.4969412335
  0
LINE
  5
3DA
100
AcDbEntity
  8
RACCORDO
100
AcDbLine
 62
250
  6
CONTINUOUS
 10
-18.7173803508
 20
28.3203431671
 11
-18.7173803508
 21
24.6857743658
  0
LINE
  5
3DB
100
AcDbEntity
  8
RACCORDO
100
AcDbLine
 62
7
  6
CONTINUOUS
 10
-18.5184275435
 20
-23.6969488489
 11
-18.5184275435
 21
-26.4969412335
  0
LINE
  5
3DC
100
AcDbEntity
  8
DRAFT
100
AcDbLine
 62
7
  6
CONTINUOUS
 10
-18.5184275435
 20
-26.4969412335
 11
-18.5184275435
 21
-29.0969412335
  0
LINE
  5
3DD
100
AcDbEntity
  8
0
100
AcDbLine
 62
7
  6
CONTINUOUS
 10
-18.5184275435
 20
-23.6969488489
 11
-18.5184275435
 21
24.4857771074
  0
LINE
  5
3DE
100
AcDbEntity
  8
RACCORDO
100
AcDbLine
 62
7
  6
CONTINUOUS
 10
-18.5184275435
 20
24.4857771074
 11
-18.5184275435
 21
29.1029347655
  0
LINE
  5
3DF
100
AcDbEntity
  8
0
100
AcDbLine
 62
7
  6
CONTINUOUS
 10
-18.3184275435
 20
23.4170477665
 11
-18.3184275435
 21
21.3612377665
  0
LINE
  5
3E0
100
AcDbEntity
  8
0
100
AcDbLine
 62
7
  6
CONTINUOUS
 10
-18.3184275435
 20
21.1675987665
 11
-18.3184275435
 21
20.6458057665
  0
LINE
  5
3E1
100
AcDbEntity
  8
0
100
AcDbLine
 62
7
  6
CONTINUOUS
 10
-18.3184275435
 20
20.3649087665
 11
-18.3184275435
 21
17.8297447665
  0
LINE
  5
3E2
100
AcDbEntity
  8
0
100
AcDbLine
 62
7
  6
CONTINUOUS
 10
-18.3184275435
 20
17.7478087665
 11
-18.3184275435
 21
15.6919797665
  0
LINE
  5
3E3
100
AcDbEntity
  8
0
100
AcDbLine
 62
7
  6
CONTINUOUS
 10
-18.3184275435
 20
15.5387562644
 11
-18.3184275435
 21
13.7181050058
  0
LINE
  5
3E4
100
AcDbEntity
  8
0
100
AcDbLine
 62
7
  6
CONTINUOUS
 10
-18.3184275435
 20
5.5030587665
 11
-18.3184275435
 21
4.2530587963
  0
LINE
  5
3E5
100
AcDbEntity
  8
0
100
AcDbLine
 62
7
  6
CONTINUOUS
 10
-18.3184275435
 20
4.0030587665
 11
-18.3184275435
 21
2.8780587665
  0
LINE
  5
3E6
100
AcDbEntity
  8
0
100
AcDbLine
 62
7
  6
CONTINUOUS
 10
-18.3184275435
 20
2.6280588261
 11
-18.3184275435
 21
2.2530586473
  0
LINE
  5
3E7
100
AcDbEntity
  8
0
100
AcDbLine
 62
7
  6
CONTINUOUS
 10
-18.3184275435
 20
2.0030588857
 11
-18.3184275435
 21
0.8780588857
  0
LINE
  5
3E8
100
AcDbEntity
  8
0
100
AcDbLine
 62
7
  6
CONTINUOUS
 10
-18.3184275435
 20
0.6280587665
 11
-18.3184275435
 21
-0.4969412335
  0
LINE
  5
3E9
100
AcDbEntity
  8
0
100
AcDbLine
 62
7
  6
CONTINUOUS
 10
-18.3184275435
 20
-0.7469409951
 11
-18.3184275435
 21
-1.8719409951
  0
LINE
  5
3EA
100
AcDbEntity
  8
ASSI
100
AcDbLine
 62
7
  6
CONTINUOUS
 10
-18.3184275435
 20
-8.5386262335
 11
-18.3184275435
 21
-9.8801882335
  0
LINE
  5
3EB
100
AcDbEntity
  8
ASSI
100
AcDbLine
 62
7
  6
CONTINUOUS
 10
-18.3184275435
 20
-10.0478822335
 11
-18.3184275435
 21
-11.2957902335
  0
LINE
  5
3EC
100
AcDbEntity
  8
ASSI
100
AcDbLine
 62
7
  6
CONTINUOUS
 10
-18.3184275435
 20
-11.4790642335
 11
-18.3184275435
 21
-12.6348610379
  0
LINE
  5
3ED
100
AcDbEntity
  8
ASSI
100
AcDbLine
 62
7
  6
CONTINUOUS
 10
-18.3184275435
 20
-12.8966702335
 11
-18.3184275435
 21
-13.9301682335
  0
LINE
  5
3EE
100
AcDbEntity
  8
ASSI
100
AcDbLine
 62
7
  6
CONTINUOUS
 10
-18.3184275435
 20
-14.7491532335
 11
-18.3184275435
 21
-14.9382812335
  0
LINE
  5
3EF
100
AcDbEntity
  8
ASSI
100
AcDbLine
 62
7
  6
CONTINUOUS
 10
-18.3184275435
 20
-15.2619172335
 11
-18.3184275435
 21
-16.3734372335
  0
LINE
  5
3F0
100
AcDbEntity
  8
ASSI
100
AcDbLine
 62
7
  6
CONTINUOUS
 10
-18.3184275435
 20
-17.2411082335
 11
-18.3184275435
 21
-17.4302922335
  0
LINE
  5
3F1
100
AcDbEntity
  8
ASSI
100
AcDbLine
 62
7
  6
CONTINUOUS
 10
-18.3184275435
 20
-17.6330862335
 11
-18.3184275435
 21
-18.7698762335
  0
LINE
  5
3F2
100
AcDbEntity
  8
ASSI
100
AcDbLine
 62
7
  6
CONTINUOUS
 10
-18.3184275435
 20
-18.8244732335
 11
-18.3184275435
 21
-20.0724822335
  0
LINE
  5
3F3
100
AcDbEntity
  8
ASSI
100
AcDbLine
 62
7
  6
CONTINUOUS
 10
-18.3184275435
 20
-20.2459402335
 11
-18.3184275435
 21
-21.1449292335
  0
LINE
  5
3F4
100
AcDbEntity
  8
ASSI
100
AcDbLine
 62
7
  6
CONTINUOUS
 10
-18.3184275435
 20
-21.2092392335
 11
-18.3184275435
 21
-22.4552562335
  0
LINE
  5
3F5
100
AcDbEntity
  8
0
100
AcDbLine
 62
7
  6
CONTINUOUS
 10
-18.5184275435
 20
2.2530586473
 11
-18.3184275435
 21
2.2530586473
  0
LINE
  5
3F6
100
AcDbEntity
  8
0
100
AcDbLine
 62
7
  6
CONTINUOUS
 10
-18.5184275435
 20
2.4405586473
 11
-18.3184275435
 21
2.4405586473
  0
LINE
  5
3F7
100
AcDbEntity
  8
0
100
AcDbLine
 62
7
  6
CONTINUOUS
 10
-18.5184275435
 20
2.6280588261
 11
-18.3184275435
 21
2.6280588261
  0
LINE
  5
3F8
100
AcDbEntity
  8
0
100
AcDbLine
 62
7
  6
CONTINUOUS
 10
-18.5184275435
 20
2.8780587665
 11
-18.3184275435
 21
2.8780587665
  0
LINE
  5
3F9
100
AcDbEntity
  8
0
100
AcDbLine
 62
7
  6
CONTINUOUS
 10
-18.5184275435
 20
3.5030587069
 11
-18.3184275435
 21
3.5030587069
  0
LINE
  5
3FA
100
AcDbEntity
  8
0
100
AcDbLine
 62
7
  6
CONTINUOUS
 10
-18.5184275435
 20
3.6905587069
 11
-18.3184275435
 21
3.6905587069
  0
LINE
  5
3FB
100
AcDbEntity
  8
0
100
AcDbLine
 62
7
  6
CONTINUOUS
 10
-18.5184275435
 20
4.0030587665
 11
-18.3184275435
 21
4.0030587665
  0
LINE
  5
3FC
100
AcDbEntity
  8
0
100
AcDbLine
 62
7
  6
CONTINUOUS
 10
-18.5184275435
 20
4.2530587963
 11
-18.3184275435
 21
4.2530587963
  0
LINE
  5
3FD
100
AcDbEntity
  8
0
100
AcDbLine
 62
7
  6
CONTINUOUS
 10
-18.5184275435
 20
4.7530587665
 11
-18.3184275435
 21
4.7530587665
  0
LINE
  5
3FE
100
AcDbEntity
  8
RACCORDO
100
AcDbLine
 62
250
  6
CONTINUOUS
 10
-20.5184275435
 20
4.9331677209
 11
-20.3201728506
 21
4.9331677209
  0
LINE
  5
3FF
100
AcDbEntity
  8
0
100
AcDbLine
 62
7
  6
CONTINUOUS
 10
-18.5184275435
 20
5.0030587516
 11
-18.3184275435
 21
5.0030587516
  0
LINE
  5
400
100
AcDbEntity
  8
0
100
AcDbLine
 62
7
  6
CONTINUOUS
 10
-18.5184275435
 20
5.5030587665
 11
-18.3184275435
 21
5.5030587665
  0
LINE
  5
401
100
AcDbEntity
  8
RACCORDO
100
AcDbLine
 62
250
  6
CONTINUOUS
 10
-20.3201728506
 20
4.3622491143
 11
-18.5184275435
 21
4.3595903878
  0
LINE
  5
402
100
AcDbEntity
  8
0
100
AcDbLine
 62
7
  6
CONTINUOUS
 10
-18.5184275435
 20
13.7181050058
 11
-18.3184275435
 21
13.7181050058
  0
LINE
  5
403
100
AcDbEntity
  8
0
100
AcDbLine
 62
7
  6
CONTINUOUS
 10
-18.5184275435
 20
14.2200091041
 11
-18.3184275435
 21
14.2200091041
  0
LINE
  5
404
100
AcDbEntity
  8
0
100
AcDbLine
 62
250
  6
CONTINUOUS
 10
-18.5184275435
 20
14.4481763005
 11
-18.3184275435
 21
14.4481763005
  0
LINE
  5
405
100
AcDbEntity
  8
0
100
AcDbLine
 62
250
  6
CONTINUOUS
 10
-18.5184275435
 20
14.7392900501
 11
-18.3184275435
 21
14.7392900501
  0
LINE
  5
406
100
AcDbEntity
  8
0
100
AcDbLine
 62
7
  6
CONTINUOUS
 10
-18.5184275435
 20
15.0190629228
 11
-18.3184275435
 21
15.0190629228
  0
LINE
  5
407
100
AcDbEntity
  8
0
100
AcDbLine
 62
7
  6
CONTINUOUS
 10
-18.5184275435
 20
15.5387562644
 11
-18.3184275435
 21
15.5387562644
  0
LINE
  5
408
100
AcDbEntity
  8
0
100
AcDbLine
 62
7
  6
CONTINUOUS
 10
-18.5184275435
 20
15.6919797665
 11
-18.3184275435
 21
15.6919797665
  0
LINE
  5
409
100
AcDbEntity
  8
0
100
AcDbLine
 62
7
  6
CONTINUOUS
 10
-18.5184275435
 20
16.2419277665
 11
-18.3184275435
 21
16.2419277665
  0
LINE
  5
40A
100
AcDbEntity
  8
0
100
AcDbLine
 62
7
  6
CONTINUOUS
 10
-18.5184275435
 20
16.3770997665
 11
-18.3184275435
 21
16.3770997665
  0
LINE
  5
40B
100
AcDbEntity
  8
0
100
AcDbLine
 62
7
  6
CONTINUOUS
 10
-18.5184275435
 20
17.0876947665
 11
-18.3184275435
 21
17.0876947665
  0
LINE
  5
40C
100
AcDbEntity
  8
0
100
AcDbLine
 62
7
  6
CONTINUOUS
 10
-18.5184275435
 20
17.2316777665
 11
-18.3184275435
 21
17.2316777665
  0
LINE
  5
40D
100
AcDbEntity
  8
0
100
AcDbLine
 62
7
  6
CONTINUOUS
 10
-18.5184275435
 20
17.7478087665
 11
-18.3184275435
 21
17.7478087665
  0
LINE
  5
40E
100
AcDbEntity
  8
0
100
AcDbLine
 62
7
  6
CONTINUOUS
 10
-18.5184275435
 20
17.8297447665
 11
-18.3184275435
 21
17.8297447665
  0
LINE
  5
40F
100
AcDbEntity
  8
0
100
AcDbLine
 62
7
  6
CONTINUOUS
 10
-18.5184275435
 20
18.3401967665
 11
-18.3184275435
 21
18.3401967665
  0
LINE
  5
410
100
AcDbEntity
  8
0
100
AcDbLine
 62
7
  6
CONTINUOUS
 10
-18.5184275435
 20
18.4474007665
 11
-18.3184275435
 21
18.4474007665
  0
LINE
  5
411
100
AcDbEntity
  8
0
100
AcDbLine
 62
7
  6
CONTINUOUS
 10
-18.5184275435
 20
19.0678117665
 11
-18.3184275435
 21
19.0678117665
  0
LINE
  5
412
100
AcDbEntity
  8
0
100
AcDbLine
 62
7
  6
CONTINUOUS
 10
-18.5184275435
 20
19.1409937665
 11
-18.3184275435
 21
19.1409937665
  0
LINE
  5
413
100
AcDbEntity
  8
0
100
AcDbLine
 62
7
  6
CONTINUOUS
 10
-18.5184275435
 20
19.7531197665
 11
-18.3184275435
 21
19.7531197665
  0
LINE
  5
414
100
AcDbEntity
  8
0
100
AcDbLine
 62
7
  6
CONTINUOUS
 10
-18.5184275435
 20
19.8657227665
 11
-18.3184275435
 21
19.8657227665
  0
LINE
  5
415
100
AcDbEntity
  8
RACCORDO
100
AcDbLine
 62
250
  6
CONTINUOUS
 10
-20.7166822364
 20
20.0852388402
 11
-20.5184275435
 21
20.0852388402
  0
LINE
  5
416
100
AcDbEntity
  8
0
100
AcDbLine
 62
7
  6
CONTINUOUS
 10
-18.5184275435
 20
20.3649087665
 11
-18.3184275435
 21
20.3649087665
  0
LINE
  5
417
100
AcDbEntity
  8
0
100
AcDbLine
 62
7
  6
CONTINUOUS
 10
-18.5184275435
 20
20.6458057665
 11
-18.3184275435
 21
20.6458057665
  0
LINE
  5
418
100
AcDbEntity
  8
RACCORDO
100
AcDbLine
 62
250
  6
CONTINUOUS
 10
-25.5184275435
 20
20.8969584409
 11
-25.3201728506
 21
20.896958441
  0
LINE
  5
419
100
AcDbEntity
  8
0
100
AcDbLine
 62
7
  6
CONTINUOUS
 10
-18.5184275435
 20
21.1675987665
 11
-18.3184275435
 21
21.1675987665
  0
LINE
  5
41A
100
AcDbEntity
  8
RACCORDO
100
AcDbLine
 62
250
  6
CONTINUOUS
 10
-25.5184275435
 20
21.3025135962
 11
-25.3201728506
 21
21.3025135962
  0
LINE
  5
41B
100
AcDbEntity
  8
0
100
AcDbLine
 62
7
  6
CONTINUOUS
 10
-18.5184275435
 20
21.3612377665
 11
-18.3184275435
 21
21.3612377665
  0
LINE
  5
41C
100
AcDbEntity
  8
RACCORDO
100
AcDbLine
 62
250
  6
CONTINUOUS
 10
-25.3201728506
 20
20.8969519675
 11
-20.7166822364
 21
20.0852388402
  0
LINE
  5
41D
100
AcDbEntity
  8
RACCORDO
100
AcDbLine
 62
7
  6
CONTINUOUS
 10
-25.3531571791
 20
21.1055520456
 11
-20.683697908
 21
20.2822003908
  0
LINE
  5
41E
100
AcDbEntity
  8
RACCORDO
100
AcDbLine
 62
250
  6
CONTINUOUS
 10
-25.3201728506
 20
21.3025135962
 11
-20.3201728506
 21
20.4208786927
  0
LINE
  5
41F
100
AcDbEntity
  8
RACCORDO
100
AcDbLine
 62
250
  6
CONTINUOUS
 10
-20.3201728506
 20
22.0547965243
 11
-25.3201728506
 21
22.0111621854
  0
LINE
  5
420
100
AcDbEntity
  8
RACCORDO
100
AcDbLine
 62
7
  6
CONTINUOUS
 10
-25.3201728506
 20
22.21115457
 11
-20.5184275435
 21
22.2530587665
  0
LINE
  5
421
100
AcDbEntity
  8
RACCORDO
100
AcDbLine
 62
250
  6
CONTINUOUS
 10
-25.5184275435
 20
22.0111621854
 11
-25.3201728506
 21
22.0111621854
  0
LINE
  5
422
100
AcDbEntity
  8
0
100
AcDbLine
 62
7
  6
CONTINUOUS
 10
-18.5184275435
 20
22.1647527665
 11
-18.3184275435
 21
22.1647527665
  0
LINE
  5
423
100
AcDbEntity
  8
ASSI
100
AcDbLine
 62
7
  6
CONTINUOUS
 10
-20.5184275435
 20
22.3530587665
 11
-25.3184275435
 21
22.3530587665
  0
LINE
  5
424
100
AcDbEntity
  8
0
100
AcDbLine
 62
7
  6
CONTINUOUS
 10
-18.5184275435
 20
22.6245827665
 11
-18.3184275435
 21
22.6245827665
  0
LINE
  5
425
100
AcDbEntity
  8
0
100
AcDbLine
 62
7
  6
CONTINUOUS
 10
-18.5184275435
 20
23.4170477665
 11
-18.3184275435
 21
23.4170477665
  0
LINE
  5
426
100
AcDbEntity
  8
RACCORDO
100
AcDbLine
 62
250
  6
CONTINUOUS
 10
-20.5184275435
 20
24.0094657022
 11
-20.7166822364
 21
24.0094657022
  0
LINE
  5
427
100
AcDbEntity
  8
RACCORDO
100
AcDbLine
 62
250
  6
CONTINUOUS
 10
-25.5184275435
 20
24.0345639208
 11
-25.3201728506
 21
24.0345639208
  0
LINE
  5
428
100
AcDbEntity
  8
RACCORDO
100
AcDbLine
 62
250
  6
CONTINUOUS
 10
-20.5184275435
 20
25.0719453359
 11
-20.3201728506
 21
25.0719453359
  0
LINE
  5
429
100
AcDbEntity
  8
RACCORDO
100
AcDbLine
 62
7
  6
CONTINUOUS
 10
-18.7173803508
 20
24.6857743658
 11
-19.5184275435
 21
24.6899686774
  0
LINE
  5
42A
100
AcDbEntity
  8
DRAFT
100
AcDbLine
 62
7
  6
CONTINUOUS
 10
-18.5184275435
 20
29.1030587665
 11
-25.3201728506
 21
29.0437008344
  0
LINE
  5
42B
100
AcDbEntity
  8
RACCORDO
100
AcDbLine
 62
7
  6
CONTINUOUS
 10
-19.7172639972
 20
27.2664465443
 11
-22.0184275435
 21
27.2530587665
  0
LINE
  5
42C
100
AcDbEntity
  8
RACCORDO
100
AcDbLine
 62
7
  6
CONTINUOUS
 10
-19.5184275435
 20
28.3161488555
 11
-18.7173803508
 21
28.3203431671
  0
LINE
  5
42D
100
AcDbEntity
  8
RACCORDO
100
AcDbLine
 62
7
  6
CONTINUOUS
 10
-19.7172639972
 20
25.7396709886
 11
-22.0184275435
 21
25.7530587665
  0
ARC
  5
42E
100
AcDbEntity
  8
RACCORDO
100
AcDbCircle
 62
7
  6
CONTINUOUS
 10
-242.4720350582
 20
25.0454725
 40
245.056312895
100
AcDbArc
 50
0.0061895234
 51
0.1632833884
  0
ARC
  5
42F
100
AcDbEntity
  8
RACCORDO
100
AcDbCircle
 62
7
  6
CONTINUOUS
 10
1.6175555857
 20
-59.37328197
 40
35.485067963
100
AcDbArc
 50
89.4341152032
 51
89.9918534791
  0
ARC
  5
430
100
AcDbEntity
  8
RACCORDO
100
AcDbCircle
 62
7
  6
CONTINUOUS
 10
-0.0089793634
 20
-26.5029103129
 40
1.7769926635
100
AcDbArc
 50
0.192462076
 51
27.4455883038
  0
ARC
  5
431
100
AcDbEntity
  8
RACCORDO
100
AcDbCircle
 62
7
  6
CONTINUOUS
 10
-2.5583263515
 20
-25.4886106687
 40
1.5357283378
100
AcDbArc
 50
12.7948728942
 51
14.8625253848
  0
ARC
  5
432
100
AcDbEntity
  8
DRAFT
100
AcDbCircle
 62
7
  6
CONTINUOUS
 10
-1.1136931804
 20
-27.6106344139
 40
0.3
100
AcDbArc
 50
172.8616290878
 51
277.1383709122
  0
ARC
  5
433
100
AcDbEntity
  8
RACCORDO
100
AcDbCircle
 62
7
  6
CONTINUOUS
 10
-1.1136931804
 20
-27.6106344139
 40
0.2404690537
100
AcDbArc
 50
166.9643100587
 51
283.0356899413
  0
ARC
  5
434
100
AcDbEntity
  8
DRAFT
100
AcDbCircle
 62
7
  6
CONTINUOUS
 10
-0.75
 20
-28.9469412335
 40
0.15
100
AcDbArc
 50
130.0
 51
270.0
  0
ARC
  5
435
100
AcDbEntity
  8
RACCORDO
100
AcDbCircle
 62
250
  6
CONTINUOUS
 10
-0.7499802608
 20
-28.9469316103
 40
0.0904771205
100
AcDbArc
 50
130.0134931875
 51
269.9874996
  0
ARC
  5
436
100
AcDbEntity
  8
RACCORDO
100
AcDbCircle
 62
250
  6
CONTINUOUS
 10
-1.1136931804
 20
-27.6106344139
 40
0.0604759076
100
AcDbArc
 50
55.8583871846
 51
34.1416128154
  0
ARC
  5
437
100
AcDbEntity
  8
RACCORDO
100
AcDbCircle
 62
7
  6
CONTINUOUS
 10
-1.0083305649
 20
-23.938614882
 40
1.5357283378
100
AcDbArc
 50
255.1374746152
 51
257.2051271058
  0
ARC
  5
438
100
AcDbEntity
  8
RACCORDO
100
AcDbCircle
 62
7
  6
CONTINUOUS
 10
-1.8075462644
 20
-21.8469412335
 40
0.5
100
AcDbArc
 50
225.743469319
 51
314.2565306811
  0
ARC
  5
439
100
AcDbEntity
  8
RACCORDO
100
AcDbCircle
 62
250
  6
CONTINUOUS
 10
-1.9592754056
 20
-24.0812215279
 40
0.3999926844
100
AcDbArc
 50
0.0016477004
 51
89.9990525887
  0
ARC
  5
43A
100
AcDbEntity
  8
RACCORDO
100
AcDbCircle
 62
250
  6
CONTINUOUS
 10
-1.8075462644
 20
-21.8469412335
 40
0.3
100
AcDbArc
 50
211.8037484298
 51
328.1962515702
  0
ARC
  5
43B
100
AcDbEntity
  8
DRAFT
100
AcDbCircle
 62
7
  6
CONTINUOUS
 10
-1.1136931804
 20
-25.3832480532
 40
0.2912731322
100
AcDbArc
 50
82.1631446578
 51
187.8368553422
  0
ARC
  5
43C
100
AcDbEntity
  8
RACCORDO
100
AcDbCircle
 62
7
  6
CONTINUOUS
 10
-1.1136931804
 20
-25.3832480532
 40
0.2404690537
100
AcDbArc
 50
76.9643100587
 51
193.0356899413
  0
ARC
  5
43D
100
AcDbEntity
  8
RACCORDO
100
AcDbCircle
 62
250
  6
CONTINUOUS
 10
-0.7906164988
 20
-23.7490330179
 40
0.2000275542
100
AcDbArc
 50
180.0126260941
 51
286.0396183658
  0
ARC
  5
43E
100
AcDbEntity
  8
RACCORDO
100
AcDbCircle
 62
250
  6
CONTINUOUS
 10
-1.559260283
 20
-24.1523522448
 40
0.2000161288
100
AcDbArc
 50
180.0126894902
 51
303.6139585698
  0
ARC
  5
43F
100
AcDbEntity
  8
RACCORDO
100
AcDbCircle
 62
250
  6
CONTINUOUS
 10
-2.384264031
 20
-23.6812052645
 40
0.2000123769
100
AcDbArc
 50
180.0057267296
 51
269.9942732704
  0
ARC
  5
440
100
AcDbEntity
  8
RACCORDO
100
AcDbCircle
 62
250
  6
CONTINUOUS
 10
-2.340629692
 20
-22.0050246611
 40
0.200012377
100
AcDbArc
 50
180.0057267553
 51
269.9942732447
  0
ARC
  5
441
100
AcDbEntity
  8
RACCORDO
100
AcDbCircle
 62
7
  6
CONTINUOUS
 10
-1.5663029552
 20
-24.1655095525
 40
0.1999684917
100
AcDbArc
 50
179.994176293
 51
303.8327325608
  0
ARC
  5
442
100
AcDbEntity
  8
RACCORDO
100
AcDbCircle
 62
250
  6
CONTINUOUS
 10
-1.9592444704
 20
-24.0811857019
 40
0.1999676951
100
AcDbArc
 50
0.0046319733
 51
90.0039733045
  0
ARC
  5
443
100
AcDbEntity
  8
RACCORDO
100
AcDbCircle
 62
250
  6
CONTINUOUS
 10
-1.1136931804
 20
-25.3832480532
 40
0.0604759076
100
AcDbArc
 50
325.8583871845
 51
304.1416128155
  0
ARC
  5
444
100
AcDbEntity
  8
DRAFT
100
AcDbCircle
 62
7
  6
CONTINUOUS
 10
1.1136931804
 20
-27.6106344139
 40
0.3
100
AcDbArc
 50
262.8616290878
 51
7.1383709122
  0
ARC
  5
445
100
AcDbEntity
  8
RACCORDO
100
AcDbCircle
 62
7
  6
CONTINUOUS
 10
1.1136931804
 20
-27.6106344139
 40
0.2404690537
100
AcDbArc
 50
256.9643100587
 51
13.0356899413
  0
ARC
  5
446
100
AcDbEntity
  8
DRAFT
100
AcDbCircle
 62
7
  6
CONTINUOUS
 10
0.75
 20
-28.9469412335
 40
0.15
100
AcDbArc
 50
270.0
 51
50.0
  0
ARC
  5
447
100
AcDbEntity
  8
RACCORDO
100
AcDbCircle
 62
250
  6
CONTINUOUS
 10
0.7499786971
 20
-28.9469359155
 40
0.0904771203
100
AcDbArc
 50
270.0134907468
 51
49.9875007542
  0
ARC
  5
448
100
AcDbEntity
  8
RACCORDO
100
AcDbCircle
 62
250
  6
CONTINUOUS
 10
1.1136931804
 20
-27.6106344139
 40
0.0604759076
100
AcDbArc
 50
145.8583871846
 51
124.1416128154
  0
ARC
  5
449
100
AcDbEntity
  8
RACCORDO
100
AcDbCircle
 62
250
  6
CONTINUOUS
 10
0.0
 20
-26.4969412335
 40
2.8593506649
100
AcDbArc
 50
90.0
 51
106.0522442067
  0
ARC
  5
44A
100
AcDbEntity
  8
RACCORDO
100
AcDbCircle
 62
250
  6
CONTINUOUS
 10
0.0
 20
-26.4969412335
 40
2.8157159777
100
AcDbArc
 50
115.2805682607
 51
123.6266477495
  0
ARC
  5
44B
100
AcDbEntity
  8
RACCORDO
100
AcDbCircle
 62
7
  6
CONTINUOUS
 10
0.0
 20
-26.4969412335
 40
2.6593579321
100
AcDbArc
 50
90.0
 51
106.0522442066
  0
ARC
  5
44C
100
AcDbEntity
  8
RACCORDO
100
AcDbCircle
 62
7
  6
CONTINUOUS
 10
0.0
 20
-26.4969412335
 40
2.6335717866
100
AcDbArc
 50
90.0
 51
105.3688707475
  0
ARC
  5
44D
100
AcDbEntity
  8
RACCORDO
100
AcDbCircle
 62
7
  6
CONTINUOUS
 10
0.0
 20
-26.4969412335
 40
2.6157235931
100
AcDbArc
 50
107.2352384959
 51
123.6266477495
  0
ARC
  5
44E
100
AcDbEntity
  8
RACCORDO
100
AcDbCircle
 62
7
  6
CONTINUOUS
 10
0.0
 20
-26.4969412335
 40
2.6087268678
100
AcDbArc
 50
105.8967983035
 51
123.8933969446
  0
ARC
  5
44F
100
AcDbEntity
  8
RACCORDO
100
AcDbCircle
 62
250
  6
CONTINUOUS
 10
0.0
 20
-26.4969412335
 40
2.2835851136
100
AcDbArc
 50
90.0
 51
107.850569652
  0
ARC
  5
450
100
AcDbEntity
  8
RACCORDO
100
AcDbCircle
 62
250
  6
CONTINUOUS
 10
0.0
 20
-26.4969412335
 40
2.0914148864
100
AcDbArc
 50
70.4456039258
 51
109.5543960742
  0
ARC
  5
451
100
AcDbEntity
  8
DRAFT
100
AcDbCircle
 62
7
  6
CONTINUOUS
 10
0.0
 20
-26.4969412335
 40
1.775
100
AcDbArc
 50
180.0
 51
217.3318190924
  0
ARC
  5
452
100
AcDbEntity
  8
DRAFT
100
AcDbCircle
 62
7
  6
CONTINUOUS
 10
0.0
 20
-26.4969412335
 40
1.775
100
AcDbArc
 50
232.6681809076
 51
260.2694991964
  0
ARC
  5
453
100
AcDbEntity
  8
DRAFT
100
AcDbCircle
 62
7
  6
CONTINUOUS
 10
0.0
 20
-26.4969412335
 40
1.775
100
AcDbArc
 50
279.7305008036
 51
307.3318190924
  0
ARC
  5
454
100
AcDbEntity
  8
DRAFT
100
AcDbCircle
 62
7
  6
CONTINUOUS
 10
0.0
 20
-26.4969412335
 40
1.775
100
AcDbArc
 50
322.6681809076
 51
360.0
  0
ARC
  5
455
100
AcDbEntity
  8
DRAFT
100
AcDbCircle
 62
7
  6
CONTINUOUS
 10
0.0
 20
-26.4969412335
 40
1.7662731322
100
AcDbArc
 50
142.5515706256
 51
180.0
  0
ARC
  5
456
100
AcDbEntity
  8
DRAFT
100
AcDbCircle
 62
7
  6
CONTINUOUS
 10
0.0
 20
-26.4969412335
 40
1.7662731322
100
AcDbArc
 50
113.8628875877
 51
127.4484293744
  0
ARC
  5
457
100
AcDbEntity
  8
RACCORDO
100
AcDbCircle
 62
7
  6
CONTINUOUS
 10
0.0
 20
-26.4969412335
 40
1.7662731322
100
AcDbArc
 50
27.4080043752
 51
37.4484293744
  0
ARC
  5
458
100
AcDbEntity
  8
DRAFT
100
AcDbCircle
 62
7
  6
CONTINUOUS
 10
0.0
 20
-26.4969412335
 40
1.7662731322
100
AcDbArc
 50
52.5515706256
 51
66.1371124123
  0
ARC
  5
459
100
AcDbEntity
  8
RACCORDO
100
AcDbCircle
 62
7
  6
CONTINUOUS
 10
0.0
 20
-26.4969412335
 40
1.7414282134
100
AcDbArc
 50
66.3711859927
 51
113.6288140073
  0
ARC
  5
45A
100
AcDbEntity
  8
RACCORDO
100
AcDbCircle
 62
7
  6
CONTINUOUS
 10
0.0
 20
-26.4969412335
 40
1.715642068
100
AcDbArc
 50
231.8100303335
 51
261.9369022608
  0
ARC
  5
45B
100
AcDbEntity
  8
RACCORDO
100
AcDbCircle
 62
7
  6
CONTINUOUS
 10
0.0
 20
-26.4969412335
 40
1.715642068
100
AcDbArc
 50
141.8100303335
 51
218.1899696665
  0
ARC
  5
45C
100
AcDbEntity
  8
RACCORDO
100
AcDbCircle
 62
7
  6
CONTINUOUS
 10
0.0
 20
-26.4969412335
 40
1.715642068
100
AcDbArc
 50
278.0630977392
 51
308.1899696665
  0
ARC
  5
45D
100
AcDbEntity
  8
RACCORDO
100
AcDbCircle
 62
7
  6
CONTINUOUS
 10
0.0
 20
-26.4969412335
 40
1.715642068
100
AcDbArc
 50
321.8100303335
 51
38.1899696665
  0
ARC
  5
45E
100
AcDbEntity
  8
RACCORDO
100
AcDbCircle
 62
7
  6
CONTINUOUS
 10
0.0
 20
-26.4969412335
 40
1.715642068
100
AcDbArc
 50
51.8100303335
 51
128.1899696665
  0
ARC
  5
45F
100
AcDbEntity
  8
RACCORDO
100
AcDbCircle
 62
250
  6
CONTINUOUS
 10
0.0
 20
-26.4969412335
 40
1.5156496833
100
AcDbArc
 50
272.2867648095
 51
314.5693244829
  0
ARC
  5
460
100
AcDbEntity
  8
RACCORDO
100
AcDbCircle
 62
250
  6
CONTINUOUS
 10
0.0
 20
-26.4969412335
 40
1.5156496833
100
AcDbArc
 50
315.4306755171
 51
44.5693244829
  0
ARC
  5
461
100
AcDbEntity
  8
RACCORDO
100
AcDbCircle
 62
250
  6
CONTINUOUS
 10
0.0
 20
-26.4969412335
 40
1.5156496833
100
AcDbArc
 50
45.4306755171
 51
134.5693244829
  0
ARC
  5
462
100
AcDbEntity
  8
RACCORDO
100
AcDbCircle
 62
250
  6
CONTINUOUS
 10
0.0
 20
-26.4969412335
 40
1.5156496833
100
AcDbArc
 50
135.4306755171
 51
224.5693244829
  0
ARC
  5
463
100
AcDbEntity
  8
RACCORDO
100
AcDbCircle
 62
250
  6
CONTINUOUS
 10
0.0
 20
-26.4969412335
 40
1.5156496833
100
AcDbArc
 50
225.4306755171
 51
267.7132351905
  0
CIRCLE
  5
464
100
AcDbEntity
  8
DRAFT
100
AcDbCircle
 62
7
  6
CONTINUOUS
 10
0.0
 20
-26.4969412335
 40
1.1610880745
  0
ARC
  5
465
100
AcDbEntity
  8
DRAFT
100
AcDbCircle
 62
7
  6
CONTINUOUS
 10
0.0
 20
-26.4969412335
 40
1.1
100
AcDbArc
 50
305.0968012276
 51
324.9031987724
  0
ARC
  5
466
100
AcDbEntity
  8
DRAFT
100
AcDbCircle
 62
7
  6
CONTINUOUS
 10
0.0
 20
-26.4969412335
 40
1.1
100
AcDbArc
 50
215.0968012276
 51
234.9031987724
  0
ARC
  5
467
100
AcDbEntity
  8
DRAFT
100
AcDbCircle
 62
7
  6
CONTINUOUS
 10
0.0
 20
-26.4969412335
 40
1.1
100
AcDbArc
 50
125.0968012276
 51
144.9031987724
  0
ARC
  5
468
100
AcDbEntity
  8
DRAFT
100
AcDbCircle
 62
7
  6
CONTINUOUS
 10
0.0
 20
-26.4969412335
 40
1.1
100
AcDbArc
 50
35.0968012276
 51
54.9031987724
  0
ARC
  5
469
100
AcDbEntity
  8
RACCORDO
100
AcDbCircle
 62
7
  6
CONTINUOUS
 10
2.5583263515
 20
-25.4886106687
 40
1.5357283378
100
AcDbArc
 50
165.1374746152
 51
167.2051271058
  0
ARC
  5
46A
100
AcDbEntity
  8
RACCORDO
100
AcDbCircle
 62
7
  6
CONTINUOUS
 10
1.0083305649
 20
-23.938614882
 40
1.5357283378
100
AcDbArc
 50
282.7948728942
 51
284.8625253848
  0
ARC
  5
46B
100
AcDbEntity
  8
RACCORDO
100
AcDbCircle
 62
250
  6
CONTINUOUS
 10
0.8613722325
 20
-23.2736091597
 40
0.6046763634
100
AcDbArc
 50
284.4145205953
 51
286.3821857208
  0
ARC
  5
46C
100
AcDbEntity
  8
RACCORDO
100
AcDbCircle
 62
7
  6
CONTINUOUS
 10
1.8075462644
 20
-21.8469412335
 40
0.5
100
AcDbArc
 50
225.743469319
 51
314.2565306811
  0
ARC
  5
46D
100
AcDbEntity
  8
RACCORDO
100
AcDbCircle
 62
250
  6
CONTINUOUS
 10
1.9679915365
 20
-24.0899317069
 40
0.3999806465
100
AcDbArc
 50
149.7139354046
 51
180.0007428659
  0
ARC
  5
46E
100
AcDbEntity
  8
RACCORDO
100
AcDbCircle
 62
250
  6
CONTINUOUS
 10
1.8075462644
 20
-21.8469412335
 40
0.3
100
AcDbArc
 50
211.8037484298
 51
328.1962515702
  0
ARC
  5
46F
100
AcDbEntity
  8
DRAFT
100
AcDbCircle
 62
7
  6
CONTINUOUS
 10
1.1136931804
 20
-25.3832480532
 40
0.2912731322
100
AcDbArc
 50
352.1631446578
 51
97.8368553422
  0
ARC
  5
470
100
AcDbEntity
  8
RACCORDO
100
AcDbCircle
 62
7
  6
CONTINUOUS
 10
1.1136931804
 20
-25.3832480532
 40
0.2404690537
100
AcDbArc
 50
346.9643100587
 51
103.0356899413
  0
ARC
  5
471
100
AcDbEntity
  8
RACCORDO
100
AcDbCircle
 62
250
  6
CONTINUOUS
 10
0.8266620562
 20
-23.6777320094
 40
0.204154199
100
AcDbArc
 50
356.7071859818
 51
359.9907127194
  0
ARC
  5
472
100
AcDbEntity
  8
RACCORDO
100
AcDbCircle
 62
250
  6
CONTINUOUS
 10
2.340629692
 20
-22.0050246611
 40
0.200012377
100
AcDbArc
 50
270.0057267553
 51
359.9942732447
  0
ARC
  5
473
100
AcDbEntity
  8
RACCORDO
100
AcDbCircle
 62
250
  6
CONTINUOUS
 10
2.384264031
 20
-23.6812052645
 40
0.2000123769
100
AcDbArc
 50
270.0057267296
 51
359.9942732704
  0
ARC
  5
474
100
AcDbEntity
  8
RACCORDO
100
AcDbCircle
 62
250
  6
CONTINUOUS
 10
0.790629692
 20
-23.6375709255
 40
0.200012377
100
AcDbArc
 50
270.0057267553
 51
359.9942732447
  0
ARC
  5
475
100
AcDbEntity
  8
RACCORDO
100
AcDbCircle
 62
250
  6
CONTINUOUS
 10
1.9679829666
 20
-24.0899241999
 40
0.1999806483
100
AcDbArc
 50
89.98943631
 51
180.0041810166
  0
ARC
  5
476
100
AcDbEntity
  8
RACCORDO
100
AcDbCircle
 62
250
  6
CONTINUOUS
 10
1.1136931804
 20
-25.3832480532
 40
0.0604759076
100
AcDbArc
 50
235.8583871846
 51
214.1416128154
  0
ARC
  5
477
100
AcDbEntity
  8
RACCORDO
100
AcDbCircle
 62
7
  6
CONTINUOUS
 10
8.8307858473
 20
-29.1631507316
 40
10.8579793507
100
AcDbArc
 50
151.3711705995
 51
151.5348810895
  0
ARC
  5
478
100
AcDbEntity
  8
RACCORDO
100
AcDbCircle
 62
250
  6
CONTINUOUS
 10
4.6665444474
 20
-28.0089330414
 40
7.0816757859
100
AcDbArc
 50
143.020288335
 51
143.5640711811
  0
ARC
  5
479
100
AcDbEntity
  8
RACCORDO
100
AcDbCircle
 62
250
  6
CONTINUOUS
 10
4.5960075495
 20
-27.6689681488
 40
6.5053115578
100
AcDbArc
 50
145.1751535747
 51
145.6532640302
  0
ARC
  5
47A
100
AcDbEntity
  8
RACCORDO
100
AcDbCircle
 62
250
  6
CONTINUOUS
 10
3.861641013
 20
-27.1646285577
 40
6.3771666397
100
AcDbArc
 50
151.8132822939
 51
151.9466570684
  0
ARC
  5
47B
100
AcDbEntity
  8
RACCORDO
100
AcDbCircle
 62
250
  6
CONTINUOUS
 10
3.9747437727
 20
-27.010360017
 40
6.0543999371
100
AcDbArc
 50
153.6059390513
 51
153.7387178126
  0
ARC
  5
47C
100
AcDbEntity
  8
RACCORDO
100
AcDbCircle
 62
250
  6
CONTINUOUS
 10
-12.1
 20
1.5030587665
 40
10.2157159515
100
AcDbArc
 50
343.4130448648
 51
16.5869551352
  0
ARC
  5
47D
100
AcDbEntity
  8
RACCORDO
100
AcDbCircle
 62
7
  6
CONTINUOUS
 10
-12.1
 20
1.5030587665
 40
10.0157235931
100
AcDbArc
 50
343.4130448648
 51
16.5869551352
  0
ARC
  5
47E
100
AcDbEntity
  8
0
100
AcDbCircle
 62
7
  6
CONTINUOUS
 10
-12.1
 20
1.5030587665
 40
10.0
100
AcDbArc
 50
343.4021048262
 51
16.5978951738
  0
ARC
  5
47F
100
AcDbEntity
  8
RACCORDO
100
AcDbCircle
 62
250
  6
CONTINUOUS
 10
-0.58419388
 20
4.9331908515
 40
2.000082527
100
AcDbArc
 50
180.0006626147
 51
196.5862925204
  0
ARC
  5
480
100
AcDbEntity
  8
RACCORDO
100
AcDbCircle
 62
250
  6
CONTINUOUS
 10
-0.5842072154
 20
-1.9270713747
 40
2.0000691916
100
AcDbArc
 50
163.4136517981
 51
179.9993930667
  0
ARC
  5
481
100
AcDbEntity
  8
0
100
AcDbCircle
 62
7
  6
CONTINUOUS
 10
-0.5999699737
 20
4.9308904465
 40
2.0000300264
100
AcDbArc
 50
180.0004436925
 51
196.5974514813
  0
ARC
  5
482
100
AcDbEntity
  8
0
100
AcDbCircle
 62
7
  6
CONTINUOUS
 10
-0.5999700109
 20
-1.9247729081
 40
2.0000299892
100
AcDbArc
 50
163.4025483633
 51
179.9995564629
  0
ARC
  5
483
100
AcDbEntity
  8
RACCORDO
100
AcDbCircle
 62
250
  6
CONTINUOUS
 10
-0.5842146938
 20
4.9331878175
 40
1.8000693286
100
AcDbArc
 50
180.0006396696
 51
196.5863154656
  0
ARC
  5
484
100
AcDbEntity
  8
RACCORDO
100
AcDbCircle
 62
250
  6
CONTINUOUS
 10
-0.5842782808
 20
-1.9270610156
 40
1.8000057415
100
AcDbArc
 50
163.4133895183
 51
179.9996553466
  0
ARC
  5
485
100
AcDbEntity
  8
RACCORDO
100
AcDbCircle
 62
250
  6
CONTINUOUS
 10
-6.529622365
 20
32.8597575326
 40
10.4194306746
100
AcDbArc
 50
301.853244411
 51
302.1136953475
  0
ARC
  5
486
100
AcDbEntity
  8
RACCORDO
100
AcDbCircle
 62
250
  6
CONTINUOUS
 10
-6.1063896579
 20
31.6200174358
 40
8.9367358305
100
AcDbArc
 50
303.7431762681
 51
304.0408803411
  0
ARC
  5
487
100
AcDbEntity
  8
RACCORDO
100
AcDbCircle
 62
250
  6
CONTINUOUS
 10
-3.0934148134
 20
26.5914428483
 40
5.6800313065
100
AcDbArc
 50
350.8527566446
 51
351.3476072544
  0
ARC
  5
488
100
AcDbEntity
  8
RACCORDO
100
AcDbCircle
 62
7
  6
CONTINUOUS
 10
-1.8075462644
 20
21.8530587665
 40
0.5
100
AcDbArc
 50
45.743469319
 51
134.256530681
  0
ARC
  5
489
100
AcDbEntity
  8
RACCORDO
100
AcDbCircle
 62
250
  6
CONTINUOUS
 10
-1.1906491086
 20
24.0345562936
 40
0.3999973885
100
AcDbArc
 50
0.0010925177
 51
64.2490755383
  0
ARC
  5
48A
100
AcDbEntity
  8
RACCORDO
100
AcDbCircle
 62
250
  6
CONTINUOUS
 10
-1.8075462644
 20
21.8530587665
 40
0.3
100
AcDbArc
 50
31.8037484298
 51
148.1962515702
  0
ARC
  5
48B
100
AcDbEntity
  8
RACCORDO
100
AcDbCircle
 62
250
  6
CONTINUOUS
 10
-2.340629692
 20
22.011142194
 40
0.200012377
100
AcDbArc
 50
90.0057267553
 51
179.9942732447
  0
ARC
  5
48C
100
AcDbEntity
  8
RACCORDO
100
AcDbCircle
 62
250
  6
CONTINUOUS
 10
-1.1906150951
 20
24.034576075
 40
0.1999730279
100
AcDbArc
 50
359.9934241238
 51
64.2524477429
  0
ARC
  5
48D
100
AcDbEntity
  8
RACCORDO
100
AcDbCircle
 62
250
  6
CONTINUOUS
 10
-1.2305121165
 20
24.0094433289
 40
0.1996959958
100
AcDbArc
 50
0.006419218
 51
63.7092623151
  0
ARC
  5
48E
100
AcDbEntity
  8
RACCORDO
100
AcDbCircle
 62
250
  6
CONTINUOUS
 10
12.1
 20
1.5030587665
 40
10.2157159515
100
AcDbArc
 50
163.4130448648
 51
196.5869551352
  0
ARC
  5
48F
100
AcDbEntity
  8
RACCORDO
100
AcDbCircle
 62
7
  6
CONTINUOUS
 10
12.1
 20
1.5030587665
 40
10.0157235931
100
AcDbArc
 50
163.4130448648
 51
196.5869551352
  0
ARC
  5
490
100
AcDbEntity
  8
0
100
AcDbCircle
 62
7
  6
CONTINUOUS
 10
12.1
 20
1.5030587665
 40
10.0
100
AcDbArc
 50
163.4021048262
 51
196.5978951738
  0
ARC
  5
491
100
AcDbEntity
  8
RACCORDO
100
AcDbCircle
 62
250
  6
CONTINUOUS
 10
0.58419388
 20
-1.9270733185
 40
2.000082527
100
AcDbArc
 50
0.0006626147
 51
16.5862925204
  0
ARC
  5
492
100
AcDbEntity
  8
RACCORDO
100
AcDbCircle
 62
250
  6
CONTINUOUS
 10
0.5842072154
 20
4.9331889076
 40
2.0000691916
100
AcDbArc
 50
343.4136517981
 51
359.9993930667
  0
ARC
  5
493
100
AcDbEntity
  8
0
100
AcDbCircle
 62
7
  6
CONTINUOUS
 10
0.5999699737
 20
-1.9247729136
 40
2.0000300264
100
AcDbArc
 50
0.0004436925
 51
16.5974514813
  0
ARC
  5
494
100
AcDbEntity
  8
0
100
AcDbCircle
 62
7
  6
CONTINUOUS
 10
0.5999700109
 20
4.9308904411
 40
2.0000299892
100
AcDbArc
 50
343.4025483633
 51
359.9995564629
  0
ARC
  5
495
100
AcDbEntity
  8
RACCORDO
100
AcDbCircle
 62
250
  6
CONTINUOUS
 10
0.5842146938
 20
-1.9270702846
 40
1.8000693286
100
AcDbArc
 50
0.0006396696
 51
16.5863154656
  0
ARC
  5
496
100
AcDbEntity
  8
RACCORDO
100
AcDbCircle
 62
250
  6
CONTINUOUS
 10
0.5842782808
 20
4.9331785485
 40
1.8000057415
100
AcDbArc
 50
343.4133895183
 51
359.9996553466
  0
ARC
  5
497
100
AcDbEntity
  8
RACCORDO
100
AcDbCircle
 62
250
  6
CONTINUOUS
 10
6.5332290105
 20
32.8597654358
 40
10.4213412271
100
AcDbArc
 50
237.8694847055
 51
238.1299356507
  0
ARC
  5
498
100
AcDbEntity
  8
RACCORDO
100
AcDbCircle
 62
250
  6
CONTINUOUS
 10
6.1073000877
 20
31.6167858675
 40
8.9345547479
100
AcDbArc
 50
235.9427306474
 51
236.2404575607
  0
ARC
  5
499
100
AcDbEntity
  8
RACCORDO
100
AcDbCircle
 62
250
  6
CONTINUOUS
 10
2.9349370708
 20
26.5111882549
 40
5.5192194648
100
AcDbArc
 50
180.0843933727
 51
184.8134918073
  0
ARC
  5
49A
100
AcDbEntity
  8
RACCORDO
100
AcDbCircle
 62
250
  6
CONTINUOUS
 10
2.7927365007
 20
26.5003916247
 40
5.376614574
100
AcDbArc
 50
184.8260009395
 51
185.7333190173
  0
ARC
  5
49B
100
AcDbEntity
  8
RACCORDO
100
AcDbCircle
 62
250
  6
CONTINUOUS
 10
-0.0
 20
26.5030587665
 40
2.7808085065
100
AcDbArc
 50
296.270410101
 51
329.026652275
  0
ARC
  5
49C
100
AcDbEntity
  8
RACCORDO
100
AcDbCircle
 62
250
  6
CONTINUOUS
 10
-0.0
 20
26.5030587665
 40
2.7808085065
100
AcDbArc
 50
210.9733504421
 51
243.729589899
  0
ARC
  5
49D
100
AcDbEntity
  8
RACCORDO
100
AcDbCircle
 62
7
  6
CONTINUOUS
 10
0.0196501896
 20
26.516076195
 40
2.6043638192
100
AcDbArc
 50
191.3827579008
 51
210.9964167107
  0
ARC
  5
49E
100
AcDbEntity
  8
RACCORDO
100
AcDbCircle
 62
7
  6
CONTINUOUS
 10
-0.0
 20
26.5030587665
 40
2.6
100
AcDbArc
 50
50.8846631767
 51
180.0
  0
ARC
  5
49F
100
AcDbEntity
  8
RACCORDO
100
AcDbCircle
 62
7
  6
CONTINUOUS
 10
-0.0
 20
26.5030587665
 40
2.5912731322
100
AcDbArc
 50
21.8254571256
 51
44.4022057585
  0
ARC
  5
4A0
100
AcDbEntity
  8
RACCORDO
100
AcDbCircle
 62
250
  6
CONTINUOUS
 10
0.0035087181
 20
26.5123362213
 40
2.5878017552
100
AcDbArc
 50
180.2054099183
 51
191.3721150335
  0
ARC
  5
4A1
100
AcDbEntity
  8
RACCORDO
100
AcDbCircle
 62
7
  6
CONTINUOUS
 10
-0.0
 20
26.5030587665
 40
2.5808161219
100
AcDbArc
 50
296.270410101
 51
342.9299767882
  0
ARC
  5
4A2
100
AcDbEntity
  8
RACCORDO
100
AcDbCircle
 62
7
  6
CONTINUOUS
 10
-0.0
 20
26.5030587665
 40
2.5808161219
100
AcDbArc
 50
210.9733504421
 51
243.729589899
  0
ARC
  5
4A3
100
AcDbEntity
  8
DRAFT
100
AcDbCircle
 62
7
  6
CONTINUOUS
 10
-0.0
 20
26.5030587665
 40
2.5694559627
100
AcDbArc
 50
343.0288235545
 51
16.9711764455
  0
ARC
  5
4A4
100
AcDbEntity
  8
RACCORDO
100
AcDbCircle
 62
7
  6
CONTINUOUS
 10
-0.0
 20
26.5030587665
 40
2.5406420679
100
AcDbArc
 50
295.7497348895
 51
244.2506119461
  0
ARC
  5
4A5
100
AcDbEntity
  8
RACCORDO
100
AcDbCircle
 62
7
  6
CONTINUOUS
 10
0.1422186051
 20
26.6728253159
 40
2.3785607786
100
AcDbArc
 50
45.130511116
 51
50.9627411758
  0
ARC
  5
4A6
100
AcDbEntity
  8
RACCORDO
100
AcDbCircle
 62
250
  6
CONTINUOUS
 10
-0.0
 20
26.5030587665
 40
2.3406485585
100
AcDbArc
 50
295.7495082168
 51
244.2504917832
  0
CIRCLE
  5
4A7
100
AcDbEntity
  8
RACCORDO
100
AcDbCircle
 62
250
  6
CONTINUOUS
 10
-0.0
 20
26.5030587665
 40
2.0172800588
  0
CIRCLE
  5
4A8
100
AcDbEntity
  8
RACCORDO
100
AcDbCircle
 62
7
  6
CONTINUOUS
 10
-0.0
 20
26.5030587665
 40
1.8172844006
  0
ARC
  5
4A9
100
AcDbEntity
  8
RACCORDO
100
AcDbCircle
 62
7
  6
CONTINUOUS
 10
-0.0
 20
26.5030587665
 40
1.8
100
AcDbArc
 50
331.6406957268
 51
28.3593042732
  0
ARC
  5
4AA
100
AcDbEntity
  8
DRAFT
100
AcDbCircle
 62
7
  6
CONTINUOUS
 10
-0.0
 20
26.5030587665
 40
1.8
100
AcDbArc
 50
90.0
 51
270.0
  0
ARC
  5
4AB
100
AcDbEntity
  8
RACCORDO
100
AcDbCircle
 62
7
  6
CONTINUOUS
 10
1.8075462644
 20
21.8530587665
 40
0.5
100
AcDbArc
 50
45.743469319
 51
134.256530681
  0
ARC
  5
4AC
100
AcDbEntity
  8
RACCORDO
100
AcDbCircle
 62
250
  6
CONTINUOUS
 10
1.190657193
 20
24.0345480651
 40
0.4000078193
100
AcDbArc
 50
115.7514553791
 51
179.9977288855
  0
ARC
  5
4AD
100
AcDbEntity
  8
RACCORDO
100
AcDbCircle
 62
250
  6
CONTINUOUS
 10
1.8075462644
 20
21.8530587665
 40
0.3
100
AcDbArc
 50
31.8037484298
 51
148.1962515702
  0
ARC
  5
4AE
100
AcDbEntity
  8
RACCORDO
100
AcDbCircle
 62
250
  6
CONTINUOUS
 10
2.340629692
 20
22.011142194
 40
0.200012377
100
AcDbArc
 50
0.0057267553
 51
89.9942732447
  0
ARC
  5
4AF
100
AcDbEntity
  8
RACCORDO
100
AcDbCircle
 62
250
  6
CONTINUOUS
 10
1.1906150955
 20
24.034576076
 40
0.1999730277
100
AcDbArc
 50
115.7431459034
 51
180.0018784326
  0
ARC
  5
4B0
100
AcDbEntity
  8
RACCORDO
100
AcDbCircle
 62
250
  6
CONTINUOUS
 10
1.2306977094
 20
24.0097405852
 40
0.1996968544
100
AcDbArc
 50
116.2768117369
 51
179.960014992
  0
ARC
  5
4B1
100
AcDbEntity
  8
RACCORDO
100
AcDbCircle
 62
250
  6
CONTINUOUS
 10
-20.3452906349
 20
-23.2716564923
 40
0.6064577166
100
AcDbArc
 50
253.4118410232
 51
255.3795520302
  0
ARC
  5
4B2
100
AcDbEntity
  8
RACCORDO
100
AcDbCircle
 62
7
  6
CONTINUOUS
 10
-22.3684275435
 20
-24.4055263471
 40
0.35
100
AcDbArc
 50
270.5
 51
354.0333333333
  0
ARC
  5
4B3
100
AcDbEntity
  8
RACCORDO
100
AcDbCircle
 62
7
  6
CONTINUOUS
 10
-22.3684275435
 20
-24.21335612
 40
0.35
100
AcDbArc
 50
0.0
 51
89.5
  0
ARC
  5
4B4
100
AcDbEntity
  8
RACCORDO
100
AcDbCircle
 62
7
  6
CONTINUOUS
 10
-25.3184275435
 20
-23.7490770971
 40
0.2
100
AcDbArc
 50
180.0000000014
 51
269.3358607211
  0
ARC
  5
4B5
100
AcDbEntity
  8
RACCORDO
100
AcDbCircle
 62
7
  6
CONTINUOUS
 10
-25.3184275435
 20
-22.1469412335
 40
0.2
100
AcDbArc
 50
180.0
 51
270.0
  0
ARC
  5
4B6
100
AcDbEntity
  8
RACCORDO
100
AcDbCircle
 62
7
  6
CONTINUOUS
 10
-25.3184275435
 20
-24.9812915502
 40
0.2
100
AcDbArc
 50
90.5
 51
180.0
  0
ARC
  5
4B7
100
AcDbEntity
  8
RACCORDO
100
AcDbCircle
 62
7
  6
CONTINUOUS
 10
-20.3184275435
 20
-23.6812252558
 40
0.2
100
AcDbArc
 50
180.0
 51
269.5
  0
ARC
  5
4B8
100
AcDbEntity
  8
RACCORDO
100
AcDbCircle
 62
7
  6
CONTINUOUS
 10
-20.7184275435
 20
-20.0791213073
 40
0.2
100
AcDbArc
 50
280.0
 51
360.0
  0
ARC
  5
4B9
100
AcDbEntity
  8
RACCORDO
100
AcDbCircle
 62
7
  6
CONTINUOUS
 10
-25.3184275435
 20
-23.6375909169
 40
0.2
100
AcDbArc
 50
180.0
 51
269.5
  0
ARC
  5
4BA
100
AcDbEntity
  8
RACCORDO
100
AcDbCircle
 62
7
  6
CONTINUOUS
 10
-25.3184275435
 20
-22.0050446525
 40
0.2
100
AcDbArc
 50
180.0
 51
269.5
  0
ARC
  5
4BB
100
AcDbEntity
  8
RACCORDO
100
AcDbCircle
 62
7
  6
CONTINUOUS
 10
-25.3184275435
 20
-21.2963939333
 40
0.1999989512
100
AcDbArc
 50
100.0001059607
 51
180.0006101935
  0
ARC
  5
4BC
100
AcDbEntity
  8
RACCORDO
100
AcDbCircle
 62
7
  6
CONTINUOUS
 10
-25.3186653022
 20
-27.9974986715
 40
0.1981298746
100
AcDbArc
 50
263.8188725459
 51
269.5640384989
  0
ARC
  5
4BD
100
AcDbEntity
  8
RACCORDO
100
AcDbCircle
 62
7
  6
CONTINUOUS
 10
-25.3384275435
 20
-25.3227721456
 40
0.18
100
AcDbArc
 50
90.5
 51
180.0
  0
ARC
  5
4BE
100
AcDbEntity
  8
RACCORDO
100
AcDbCircle
 62
7
  6
CONTINUOUS
 10
-25.3384275435
 20
-27.6711103215
 40
0.18
100
AcDbArc
 50
180.0
 51
269.5
  0
ARC
  5
4BF
100
AcDbEntity
  8
RACCORDO
100
AcDbCircle
 62
7
  6
CONTINUOUS
 10
-25.3384275435
 20
-28.8574171411
 40
0.18
100
AcDbArc
 50
180.0008142574
 51
269.4999999636
  0
ARC
  5
4C0
100
AcDbEntity
  8
RACCORDO
100
AcDbCircle
 62
7
  6
CONTINUOUS
 10
-25.3197833087
 20
-27.3972082973
 40
0.1604648234
100
AcDbArc
 50
262.7627719264
 51
269.8609095156
  0
ARC
  5
4C1
100
AcDbEntity
  8
RACCORDO
100
AcDbCircle
 62
7
  6
CONTINUOUS
 10
-25.3197833087
 20
-25.5966741698
 40
0.1604648235
100
AcDbArc
 50
90.1390904856
 51
97.2372280724
  0
ARC
  5
4C2
100
AcDbEntity
  8
RACCORDO
100
AcDbCircle
 62
7
  6
CONTINUOUS
 10
-25.3184275435
 20
28.8437084498
 40
0.2
100
AcDbArc
 50
90.5
 51
180.0
  0
ARC
  5
4C3
100
AcDbEntity
  8
RACCORDO
100
AcDbCircle
 62
7
  6
CONTINUOUS
 10
-25.3184275435
 20
22.1530587665
 40
0.2
100
AcDbArc
 50
90.0
 51
180.0
  0
ARC
  5
4C4
100
AcDbEntity
  8
RACCORDO
100
AcDbCircle
 62
7
  6
CONTINUOUS
 10
-18.7184275435
 20
28.5203404255
 40
0.2
100
AcDbArc
 50
270.3
 51
360.0
  0
ARC
  5
4C5
100
AcDbEntity
  8
RACCORDO
100
AcDbCircle
 62
7
  6
CONTINUOUS
 10
-19.7184275435
 20
27.4664431597
 40
0.2
100
AcDbArc
 50
270.3333333333
 51
360.0
  0
ARC
  5
4C6
100
AcDbEntity
  8
RACCORDO
100
AcDbCircle
 62
7
  6
CONTINUOUS
 10
-19.7184275435
 20
25.5396743732
 40
0.2
100
AcDbArc
 50
0.0
 51
89.6666666667
  0
ARC
  5
4C7
100
AcDbEntity
  8
RACCORDO
100
AcDbCircle
 62
7
  6
CONTINUOUS
 10
-18.7184275435
 20
24.4857771074
 40
0.2
100
AcDbArc
 50
0.0
 51
89.7
  0
ARC
  5
4C8
100
AcDbEntity
  8
RACCORDO
100
AcDbCircle
 62
7
  6
CONTINUOUS
 10
-20.7184275435
 20
20.0852388402
 40
0.2
100
AcDbArc
 50
0.0
 51
80.0
  0
ARC
  5
4C9
100
AcDbEntity
  8
RACCORDO
100
AcDbCircle
 62
7
  6
CONTINUOUS
 10
-25.3184275435
 20
22.0111621854
 40
0.2
100
AcDbArc
 50
90.5
 51
180.0
  0
ARC
  5
4CA
100
AcDbEntity
  8
RACCORDO
100
AcDbCircle
 62
7
  6
CONTINUOUS
 10
-25.3184275435
 20
21.3025114663
 40
0.1999989512
100
AcDbArc
 50
180.0
 51
259.9998940393
  0
ARC
  5
4CB
100
AcDbEntity
  8
RACCORDO
100
AcDbCircle
 62
250
  6
CONTINUOUS
 10
53.0247619357
 20
-23.2925143124
 40
85.3834889591
100
AcDbArc
 50
149.2051663285
 51
149.3475836441
  0
ARC
  5
4CC
100
AcDbEntity
  8
RACCORDO
100
AcDbCircle
 62
250
  6
CONTINUOUS
 10
60.6737498783
 20
27.8445703927
 40
94.2813799268
100
AcDbArc
 50
210.6591563137
 51
210.7881315516
  0
SPLINE
  5
4CD
100
AcDbEntity
  8
RACCORDO
100
AcDbSpline
 62
7
  6
CONTINUOUS
 70
0
 71
3
 72
9
 73
5
 74
0
 42
0.0000001
 43
0.0000001
 44
0.0000000001
 40
0.0
 40
0.0
 40
0.0
 40
0.0
 40
0.2416528416
 40
1.0
 40
1.0
 40
1.0
 40
1.0
 10
0.8342840223
 20
-23.8812176405
 30
0.0
 10
0.8425490786
 20
-23.8810724017
 30
0.0
 10
0.8766842253
 20
-23.8783037268
 30
0.0
 10
0.9100223237
 20
-23.8662682299
 30
0.0
 10
0.9322382664
 20
-23.8528744065
 30
0.0
  0
SPLINE
  5
4CE
100
AcDbEntity
  8
RACCORDO
100
AcDbSpline
 62
7
  6
CONTINUOUS
 70
0
 71
3
 72
13
 73
9
 74
0
 42
0.0000001
 43
0.0000001
 44
0.0000000001
 40
0.0
 40
0.0
 40
0.0
 40
0.0
 40
0.0189569031
 40
0.069725406
 40
0.151852103
 40
0.2647228686
 40
0.5783359553
 40
1.0
 40
1.0
 40
1.0
 40
1.0
 10
2.467122717
 20
25.7454854338
 30
0.0
 10
2.4673433644
 20
25.7453106054
 30
0.0
 10
2.4685051576
 20
25.7455013048
 30
0.0
 10
2.4706432795
 20
25.7451854786
 30
0.0
 10
2.4743546968
 20
25.7452247199
 30
0.0
 10
2.4818696973
 20
25.745017996
 30
0.0
 10
2.494491248
 20
25.7449285384
 30
0.0
 10
2.5054004663
 20
25.7448205564
 30
0.0
 10
2.5116621137
 20
25.744776115
 30
0.0
  0
LINE
  5
4CF
100
AcDbEntity
  8
RACCORDO
100
AcDbLine
 62
7
  6
CONTINUOUS
 10
2.5116621137
 20
25.744776115
 11
2.523145452
 21
25.744701357
  0
SPLINE
  5
4D0
100
AcDbEntity
  8
RACCORDO
100
AcDbSpline
 62
7
  6
CONTINUOUS
 70
0
 71
3
 72
9
 73
5
 74
0
 42
0.0000001
 43
0.0000001
 44
0.0000000001
 40
0.0
 40
0.0
 40
0.0
 40
0.0
 40
0.4094475938
 40
1.0
 40
1.0
 40
1.0
 40
1.0
 10
0.9322382664
 20
-23.8528744065
 30
0.0
 10
0.9551739567
 20
-23.8390507585
 30
0.0
 10
1.0048032733
 20
-23.7937990603
 30
0.0
 10
1.0282634738
 20
-23.7280191862
 30
0.0
 10
1.0304792024
 20
-23.6894583847
 30
0.0
  0
SPLINE
  5
4D1
100
AcDbEntity
  8
RACCORDO
100
AcDbSpline
 62
7
  6
CONTINUOUS
 70
0
 71
3
 72
14
 73
10
 74
0
 42
0.0000001
 43
0.0000001
 44
0.0000000001
 40
0.0
 40
0.0
 40
0.0
 40
0.0
 40
0.4231700321
 40
0.5944282662
 40
0.7366238451
 40
0.8489211302
 40
0.9305604333
 40
0.9810294421
 40
1.0
 40
1.0
 40
1.0
 40
1.0
 10
2.523145452
 20
25.744701357
 30
0.0
 10
2.5316298437
 20
25.7446506576
 30
0.0
 10
2.5435500927
 20
25.744573215
 30
0.0
 10
2.5583136382
 20
25.7444169381
 30
0.0
 10
2.5668599861
 20
25.7443365082
 30
0.0
 10
2.5735704266
 20
25.7441635181
 30
0.0
 10
2.5785349323
 20
25.7442070041
 30
0.0
 10
2.5814429657
 20
25.7438288106
 30
0.0
 10
2.5829661451
 20
25.7440518991
 30
0.0
 10
2.5832827193
 20
25.7438410587
 30
0.0
  0
SPLINE
  5
4D2
100
AcDbEntity
  8
RACCORDO
100
AcDbSpline
 62
7
  6
CONTINUOUS
 70
0
 71
3
 72
14
 73
10
 74
0
 42
0.0000001
 43
0.0000001
 44
0.0000000001
 40
0.0
 40
0.0
 40
0.0
 40
0.0
 40
0.0180495697
 40
0.0710761427
 40
0.1572052204
 40
0.2744696227
 40
0.4205339734
 40
0.5922857442
 40
1.0
 40
1.0
 40
1.0
 40
1.0
 10
1.8570008079
 20
28.3203431671
 30
0.0
 10
1.8572573037
 20
28.3205326897
 30
0.0
 10
1.8554802067
 20
28.3217356999
 30
0.0
 10
1.8545446889
 20
28.3235774371
 30
0.0
 10
1.8509503525
 20
28.3270200331
 30
0.0
 10
1.8469192291
 20
28.3314482743
 30
0.0
 10
1.841510135
 20
28.3370089622
 30
0.0
 10
1.8326036766
 20
28.34618531
 30
0.0
 10
1.8253792326
 20
28.3534602797
 30
0.0
 10
1.8202795954
 20
28.3585485109
 30
0.0
  0
SPLINE
  5
4D3
100
AcDbEntity
  8
RACCORDO
100
AcDbSpline
 62
7
  6
CONTINUOUS
 70
0
 71
3
 72
13
 73
9
 74
0
 42
0.0000001
 43
0.0000001
 44
0.0000000001
 40
0.0
 40
0.0
 40
0.0
 40
0.0
 40
0.0180133871
 40
0.067342916
 40
0.147820665
 40
0.2590817604
 40
0.5721614781
 40
1.0
 40
1.0
 40
1.0
 40
1.0
 10
2.4744586685
 20
27.2664465443
 30
0.0
 10
2.4745871541
 20
27.2665484139
 30
0.0
 10
2.4742425999
 20
27.2673050586
 30
0.0
 10
2.474159992
 20
27.2684776487
 30
0.0
 10
2.4734883528
 20
27.2706780939
 30
0.0
 10
2.4723478288
 20
27.2750651415
 30
0.0
 10
2.470143853
 20
27.2825524132
 30
0.0
 10
2.4682285282
 20
27.2890015179
 30
0.0
 10
2.4670956452
 20
27.2927275589
 30
0.0
  0
SPLINE
  5
4D4
100
AcDbEntity
  8
RACCORDO
100
AcDbSpline
 62
7
  6
CONTINUOUS
 70
0
 71
3
 72
9
 73
5
 74
0
 42
0.0000001
 43
0.0000001
 44
0.0000000001
 40
0.0
 40
0.0
 40
0.0
 40
0.0
 40
0.1860736827
 40
1.0
 40
1.0
 40
1.0
 40
1.0
 10
2.4670956452
 20
27.2927275589
 30
0.0
 10
2.4637698771
 20
27.3036659766
 30
0.0
 10
2.4452169882
 20
27.3622422191
 30
0.0
 10
2.4241251878
 20
27.4200181373
 30
0.0
 10
2.4055325723
 20
27.4664431597
 30
0.0
  0
SPLINE
  5
4D5
100
AcDbEntity
  8
RACCORDO
100
AcDbSpline
 62
7
  6
CONTINUOUS
 70
0
 71
3
 72
20
 73
16
 74
0
 42
0.0000001
 43
0.0000001
 44
0.0000000001
 40
0.0
 40
0.0
 40
0.0
 40
0.0
 40
0.0016447051
 40
0.0059375733
 40
0.0128623806
 40
0.022364318
 40
0.048859819
 40
0.0849371603
 40
0.1300607481
 40
0.1834977849
 40
0.3121728313
 40
0.4646515657
 40
0.6344118791
 40
0.814950041
 40
1.0
 40
1.0
 40
1.0
 40
1.0
 10
1.4585944117
 20
22.21115457
 30
0.0
 10
1.4585075857
 20
22.2110699685
 30
0.0
 10
1.4587681042
 20
22.2105507905
 30
0.0
 10
1.458961513
 20
22.2097439585
 30
0.0
 10
1.4595996934
 20
22.208280472
 30
0.0
 10
1.4607758887
 20
22.2053871233
 30
0.0
 10
1.462896002
 20
22.2004837261
 30
0.0
 10
1.4659964752
 20
22.1931911482
 30
0.0
 10
1.4698539512
 20
22.1840420772
 30
0.0
 10
1.4763675244
 20
22.1686139552
 30
0.0
 10
1.4861147454
 20
22.1459575966
 30
0.0
 10
1.4997515422
 20
22.115646754
 30
0.0
 10
1.5155862928
 20
22.0821383046
 30
0.0
 10
1.5332487315
 20
22.0468486042
 30
0.0
 10
1.5459557456
 20
22.0230803485
 30
0.0
 10
1.5525887995
 20
22.0111621854
 30
0.0
  0
SPLINE
  5
4D6
100
AcDbEntity
  8
RACCORDO
100
AcDbSpline
 62
7
  6
CONTINUOUS
 70
0
 71
3
 72
20
 73
16
 74
0
 42
0.0000001
 43
0.0000001
 44
0.0000000001
 40
0.0
 40
0.0
 40
0.0
 40
0.0
 40
0.0016452982
 40
0.0059395294
 40
0.012866176
 40
0.0223701589
 40
0.0488692816
 40
0.0849477684
 40
0.1300703853
 40
0.1835061984
 40
0.3121760966
 40
0.4646451404
 40
0.6343997578
 40
0.8149439696
 40
1.0
 40
1.0
 40
1.0
 40
1.0
 10
2.1564981171
 20
22.21115457
 30
0.0
 10
2.1565849744
 20
22.2110699379
 30
0.0
 10
2.1563244834
 20
22.2105505792
 30
0.0
 10
2.1561312191
 20
22.209743415
 30
0.0
 10
2.155493175
 20
22.2082794502
 30
0.0
 10
2.1543172296
 20
22.2053853963
 30
0.0
 10
2.1521972998
 20
22.2004813752
 30
0.0
 10
2.1490963034
 20
22.1931887127
 30
0.0
 10
2.1452381104
 20
22.1840400269
 30
0.0
 10
2.1387244102
 20
22.1686125423
 30
0.0
 10
2.1289776242
 20
22.1459572823
 30
0.0
 10
2.1153414875
 20
22.1156477944
 30
0.0
 10
2.0995069277
 20
22.0821400076
 30
0.0
 10
2.0818442992
 20
22.0468498667
 30
0.0
 10
2.0691370021
 20
22.0230807419
 30
0.0
 10
2.0625037293
 20
22.0111621854
 30
0.0
  0
SPLINE
  5
4D7
100
AcDbEntity
  8
RACCORDO
100
AcDbSpline
 62
7
  6
CONTINUOUS
 70
0
 71
3
 72
20
 73
16
 74
0
 42
0.0000001
 43
0.0000001
 44
0.0000000001
 40
0.0
 40
0.0
 40
0.0
 40
0.0
 40
0.0016447051
 40
0.0059375733
 40
0.0128623806
 40
0.022364318
 40
0.048859819
 40
0.0849371603
 40
0.1300607481
 40
0.1834977849
 40
0.3121728313
 40
0.4646515657
 40
0.6344118791
 40
0.814950041
 40
1.0
 40
1.0
 40
1.0
 40
1.0
 10
2.1564981171
 20
-22.2050370371
 30
0.0
 10
2.1565849431
 20
-22.2049524355
 30
0.0
 10
2.1563244247
 20
-22.2044332575
 30
0.0
 10
2.1561310158
 20
-22.2036264256
 30
0.0
 10
2.1554928354
 20
-22.2021629391
 30
0.0
 10
2.1543166401
 20
-22.1992695904
 30
0.0
 10
2.1521965268
 20
-22.1943661932
 30
0.0
 10
2.1490960536
 20
-22.1870736153
 30
0.0
 10
2.1452385776
 20
-22.1779245443
 30
0.0
 10
2.1387250045
 20
-22.1624964223
 30
0.0
 10
2.1289777834
 20
-22.1398400636
 30
0.0
 10
2.1153409866
 20
-22.1095292211
 30
0.0
 10
2.099506236
 20
-22.0760207717
 30
0.0
 10
2.0818437973
 20
-22.0407310713
 30
0.0
 10
2.0691367832
 20
-22.0169628156
 30
0.0
 10
2.0625037293
 20
-22.0050446525
 30
0.0
  0
SPLINE
  5
4D8
100
AcDbEntity
  8
RACCORDO
100
AcDbSpline
 62
7
  6
CONTINUOUS
 70
0
 71
3
 72
20
 73
16
 74
0
 42
0.0000001
 43
0.0000001
 44
0.0000000001
 40
0.0
 40
0.0
 40
0.0
 40
0.0
 40
0.0016452982
 40
0.0059395294
 40
0.012866176
 40
0.0223701589
 40
0.0488692816
 40
0.0849477684
 40
0.1300703853
 40
0.1835061984
 40
0.3121760966
 40
0.4646451404
 40
0.6343997578
 40
0.8149439696
 40
1.0
 40
1.0
 40
1.0
 40
1.0
 10
1.4585944117
 20
-22.2050370371
 30
0.0
 10
1.4585075544
 20
-22.204952405
 30
0.0
 10
1.4587680455
 20
-22.2044330463
 30
0.0
 10
1.4589613097
 20
-22.203625882
 30
0.0
 10
1.4595993538
 20
-22.2021619173
 30
0.0
 10
1.4607752992
 20
-22.1992678633
 30
0.0
 10
1.4628952291
 20
-22.1943638423
 30
0.0
 10
1.4659962254
 20
-22.1870711798
 30
0.0
 10
1.4698544184
 20
-22.1779224939
 30
0.0
 10
1.4763681186
 20
-22.1624950094
 30
0.0
 10
1.4861149047
 20
-22.1398397493
 30
0.0
 10
1.4997510414
 20
-22.1095302615
 30
0.0
 10
1.5155856012
 20
-22.0760224747
 30
0.0
 10
1.5332482297
 20
-22.0407323338
 30
0.0
 10
1.5459555267
 20
-22.0169632089
 30
0.0
 10
1.5525887995
 20
-22.0050446525
 30
0.0
  0
SPLINE
  5
4D9
100
AcDbEntity
  8
RACCORDO
100
AcDbSpline
 62
250
  6
CONTINUOUS
 70
0
 71
3
 72
11
 73
7
 74
0
 42
0.0000001
 43
0.0000001
 44
0.0000000001
 40
0.0
 40
0.0
 40
0.0
 40
0.0
 40
0.2480475068
 40
0.4973442991
 40
0.748180949
 40
1.0
 40
1.0
 40
1.0
 40
1.0
 10
2.540642068
 20
-21.2963960633
 30
0.0
 10
2.5406026766
 20
-21.2707950885
 30
0.0
 10
2.5300808517
 20
-21.2189113763
 30
0.0
 10
2.4854688188
 20
-21.1534970736
 30
0.0
 10
2.4190573236
 20
-21.1097424828
 30
0.0
 10
2.3666399209
 20
-21.0994733001
 30
0.0
 10
2.3406496833
 20
-21.0994345127
 30
0.0
  0
SPLINE
  5
4DA
100
AcDbEntity
  8
RACCORDO
100
AcDbSpline
 62
250
  6
CONTINUOUS
 70
0
 71
3
 72
9
 73
5
 74
0
 42
0.0000001
 43
0.0000001
 44
0.0000000001
 40
0.0
 40
0.0
 40
0.0
 40
0.0
 40
0.1796756752
 40
1.0
 40
1.0
 40
1.0
 40
1.0
 10
2.550418419
 20
-20.3393793484
 30
0.0
 10
2.5428453724
 20
-20.3314672757
 30
0.0
 10
2.4959239877
 20
-20.2920482089
 30
0.0
 10
2.4314029078
 20
-20.2761613461
 30
0.0
 10
2.3813995278
 20
-20.276081024
 30
0.0
  0
SPLINE
  5
4DB
100
AcDbEntity
  8
RACCORDO
100
AcDbSpline
 62
250
  6
CONTINUOUS
 70
0
 71
3
 72
8
 73
4
 74
0
 42
0.0000001
 43
0.0000001
 44
0.0000000001
 40
0.0
 40
0.0
 40
0.0
 40
0.0
 40
1.0
 40
1.0
 40
1.0
 40
1.0
 10
-1.0308161209
 20
-23.8029593743
 30
0.0
 10
-1.0308180966
 20
-23.8280639476
 30
0.0
 10
-1.0259331525
 20
-23.8536037673
 30
0.0
 10
-1.0166494749
 20
-23.8769287097
 30
0.0
  0
SPLINE
  5
4DC
100
AcDbEntity
  8
RACCORDO
100
AcDbSpline
 62
250
  6
CONTINUOUS
 70
0
 71
3
 72
10
 73
6
 74
0
 42
0.0000001
 43
0.0000001
 44
0.0000000001
 40
0.0
 40
0.0
 40
0.0
 40
0.0
 40
0.3412094979
 40
0.6053371326
 40
1.0
 40
1.0
 40
1.0
 40
1.0
 10
-1.0166494749
 20
-23.8769287097
 30
0.0
 10
-1.0082506752
 20
-23.8980638118
 30
0.0
 10
-0.9868095658
 20
-23.9333589475
 30
0.0
 10
-0.9368579259
 20
-23.9782650214
 30
0.0
 10
-0.895263712
 20
-23.9963625887
 30
0.0
 10
-0.8695387468
 20
-24.0018589608
 30
0.0
  0
SPLINE
  5
4DD
100
AcDbEntity
  8
RACCORDO
100
AcDbSpline
 62
250
  6
CONTINUOUS
 70
0
 71
3
 72
11
 73
7
 74
0
 42
0.0000001
 43
0.0000001
 44
0.0000000001
 40
0.0
 40
0.0
 40
0.0
 40
0.0
 40
0.2515969722
 40
0.5023659615
 40
0.7517391396
 40
1.0
 40
1.0
 40
1.0
 40
1.0
 10
-2.3406496833
 20
-21.0994345127
 30
0.0
 10
-2.3666169788
 20
-21.0994732658
 30
0.0
 10
-2.4190027179
 20
-21.1097285366
 30
0.0
 10
-2.4854123462
 20
-21.1534420939
 30
0.0
 10
-2.5300664706
 20
-21.2188577732
 30
0.0
 10
-2.5406026428
 20
-21.2707730894
 30
0.0
 10
-2.540642068
 20
-21.2963960633
 30
0.0
  0
SPLINE
  5
4DE
100
AcDbEntity
  8
RACCORDO
100
AcDbSpline
 62
250
  6
CONTINUOUS
 70
0
 71
3
 72
9
 73
5
 74
0
 42
0.0000001
 43
0.0000001
 44
0.0000000001
 40
0.0
 40
0.0
 40
0.0
 40
0.0
 40
0.3381352146
 40
1.0
 40
1.0
 40
1.0
 40
1.0
 10
-2.3813995278
 20
-20.276081024
 30
0.0
 10
-2.4020659236
 20
-20.2761152189
 30
0.0
 10
-2.4628289775
 20
-20.2824782354
 30
0.0
 10
-2.5224503496
 20
-20.310151552
 30
0.0
 10
-2.5504177152
 20
-20.339378637
 30
0.0
  0
SPLINE
  5
4DF
100
AcDbEntity
  8
RACCORDO
100
AcDbSpline
 62
250
  6
CONTINUOUS
 70
0
 71
3
 72
11
 73
7
 74
0
 42
0.0000001
 43
0.0000001
 44
0.0000000001
 40
0.0
 40
0.0
 40
0.0
 40
0.0
 40
0.2480475068
 40
0.4973442991
 40
0.748180949
 40
1.0
 40
1.0
 40
1.0
 40
1.0
 10
-2.540642068
 20
21.3025135962
 30
0.0
 10
-2.5406026766
 20
21.2769126215
 30
0.0
 10
-2.5300808517
 20
21.2250289093
 30
0.0
 10
-2.4854688188
 20
21.1596146065
 30
0.0
 10
-2.4190573236
 20
21.1158600158
 30
0.0
 10
-2.3666399209
 20
21.105590833
 30
0.0
 10
-2.3406496833
 20
21.1055520456
 30
0.0
  0
SPLINE
  5
4E0
100
AcDbEntity
  8
RACCORDO
100
AcDbSpline
 62
250
  6
CONTINUOUS
 70
0
 71
3
 72
9
 73
5
 74
0
 42
0.0000001
 43
0.0000001
 44
0.0000000001
 40
0.0
 40
0.0
 40
0.0
 40
0.0
 40
0.1796756752
 40
1.0
 40
1.0
 40
1.0
 40
1.0
 10
-2.550418419
 20
20.3454968813
 30
0.0
 10
-2.5428453724
 20
20.3375848087
 30
0.0
 10
-2.4959239877
 20
20.2981657418
 30
0.0
 10
-2.4314029078
 20
20.282278879
 30
0.0
 10
-2.3813995278
 20
20.2821985569
 30
0.0
  0
SPLINE
  5
4E1
100
AcDbEntity
  8
RACCORDO
100
AcDbSpline
 62
250
  6
CONTINUOUS
 70
0
 71
3
 72
11
 73
7
 74
0
 42
0.0000001
 43
0.0000001
 44
0.0000000001
 40
0.0
 40
0.0
 40
0.0
 40
0.0
 40
0.2515969722
 40
0.5023659615
 40
0.7517391396
 40
1.0
 40
1.0
 40
1.0
 40
1.0
 10
2.3406496833
 20
21.1055520456
 30
0.0
 10
2.3666169788
 20
21.1055907988
 30
0.0
 10
2.4190027179
 20
21.1158460695
 30
0.0
 10
2.4854123462
 20
21.1595596268
 30
0.0
 10
2.5300664706
 20
21.2249753061
 30
0.0
 10
2.5406026428
 20
21.2768906223
 30
0.0
 10
2.540642068
 20
21.3025135962
 30
0.0
  0
SPLINE
  5
4E2
100
AcDbEntity
  8
RACCORDO
100
AcDbSpline
 62
250
  6
CONTINUOUS
 70
0
 71
3
 72
9
 73
5
 74
0
 42
0.0000001
 43
0.0000001
 44
0.0000000001
 40
0.0
 40
0.0
 40
0.0
 40
0.0
 40
0.3381352146
 40
1.0
 40
1.0
 40
1.0
 40
1.0
 10
2.3813995278
 20
20.2821985569
 30
0.0
 10
2.4020659236
 20
20.2822327518
 30
0.0
 10
2.4628289775
 20
20.2885957683
 30
0.0
 10
2.5224503496
 20
20.3162690849
 30
0.0
 10
2.5504177152
 20
20.34549617
 30
0.0
  0
SPLINE
  5
4E3
100
AcDbEntity
  8
RACCORDO
100
AcDbSpline
 62
7
  6
CONTINUOUS
 70
0
 71
3
 72
11
 73
7
 74
0
 42
0.0000001
 43
0.0000001
 44
0.0000000001
 40
0.0
 40
0.0
 40
0.0
 40
0.0
 40
0.2163893598
 40
0.4465360911
 40
0.7054223706
 40
1.0
 40
1.0
 40
1.0
 40
1.0
 10
2.5842764069
 20
22.0547965243
 30
0.0
 10
2.5840796483
 20
22.0771477872
 30
0.0
 10
2.5756569163
 20
22.1235611987
 30
0.0
 10
2.5380096461
 20
22.1877556713
 30
0.0
 10
2.4726208221
 20
22.2387630088
 30
0.0
 10
2.4147126772
 20
22.2530512831
 30
0.0
 10
2.3842840223
 20
22.2530512831
 30
0.0
  0
SPLINE
  5
4E4
100
AcDbEntity
  8
RACCORDO
100
AcDbSpline
 62
250
  6
CONTINUOUS
 70
0
 71
3
 72
11
 73
7
 74
0
 42
0.0000001
 43
0.0000001
 44
0.0000000001
 40
0.0
 40
0.0
 40
0.0
 40
0.0
 40
0.248648773
 40
0.4980545235
 40
0.7486126551
 40
1.0
 40
1.0
 40
1.0
 40
1.0
 10
-0.9906420774
 20
-20.8908342467
 30
0.0
 10
-0.9906042979
 20
-20.9172409341
 30
0.0
 10
-1.000271935
 20
-20.9706641825
 30
0.0
 10
-1.0430084359
 20
-21.0399363137
 30
0.0
 10
-1.1093619115
 20
-21.0879968178
 30
0.0
 10
-1.163343675
 20
-21.0994757164
 30
0.0
 10
-1.1900411962
 20
-21.0994343987
 30
0.0
  0
SPLINE
  5
4E5
100
AcDbEntity
  8
RACCORDO
100
AcDbSpline
 62
250
  6
CONTINUOUS
 70
0
 71
3
 72
11
 73
7
 74
0
 42
0.0000001
 43
0.0000001
 44
0.0000000001
 40
0.0
 40
0.0
 40
0.0
 40
0.0
 40
0.2515619358
 40
0.5023176142
 40
0.7517034513
 40
1.0
 40
1.0
 40
1.0
 40
1.0
 10
-1.2308085065
 20
-20.2760828579
 30
0.0
 10
-1.2048448299
 20
-20.2760441102
 30
0.0
 10
-1.1524643276
 20
-20.2657912345
 30
0.0
 10
-1.0860551437
 20
-20.2220843127
 30
0.0
 10
-1.0413942961
 20
-20.1566685114
 30
0.0
 10
-1.0308555528
 20
-20.1047479619
 30
0.0
 10
-1.0308161219
 20
-20.0791213073
 30
0.0
  0
SPLINE
  5
4E6
100
AcDbEntity
  8
RACCORDO
100
AcDbSpline
 62
250
  6
CONTINUOUS
 70
0
 71
3
 72
11
 73
7
 74
0
 42
0.0000001
 43
0.0000001
 44
0.0000000001
 40
0.0
 40
0.0
 40
0.0
 40
0.0
 40
0.2513882797
 40
0.5019455626
 40
0.7513508199
 40
1.0
 40
1.0
 40
1.0
 40
1.0
 10
-1.1900436316
 20
21.1055519474
 30
0.0
 10
-1.1633463559
 20
21.105593067
 30
0.0
 10
-1.1093651344
 20
21.0941159476
 30
0.0
 10
-1.0430116734
 20
21.0460570626
 30
0.0
 10
-1.0002741564
 20
20.9767871054
 30
0.0
 10
-0.9906049611
 20
20.9233648312
 30
0.0
 10
-0.990642068
 20
20.8969584409
 30
0.0
  0
SPLINE
  5
4E7
100
AcDbEntity
  8
RACCORDO
100
AcDbSpline
 62
250
  6
CONTINUOUS
 70
0
 71
3
 72
11
 73
7
 74
0
 42
0.0000001
 43
0.0000001
 44
0.0000000001
 40
0.0
 40
0.0
 40
0.0
 40
0.0
 40
0.2480479086
 40
0.4973480538
 40
0.7481896613
 40
1.0
 40
1.0
 40
1.0
 40
1.0
 10
-1.0308161219
 20
20.0852388402
 30
0.0
 10
-1.0308555133
 20
20.1108398522
 30
0.0
 10
-1.0413773778
 20
20.1627239394
 30
0.0
 10
-1.0859901557
 20
20.2281389762
 30
0.0
 10
-1.1524023139
 20
20.2718925531
 30
0.0
 10
-1.2048191726
 20
20.2821616048
 30
0.0
 10
-1.2308085065
 20
20.2822003908
 30
0.0
  0
SPLINE
  5
4E8
100
AcDbEntity
  8
RACCORDO
100
AcDbSpline
 62
250
  6
CONTINUOUS
 70
0
 71
3
 72
11
 73
7
 74
0
 42
0.0000001
 43
0.0000001
 44
0.0000000001
 40
0.0
 40
0.0
 40
0.0
 40
0.0
 40
0.248648773
 40
0.4980545235
 40
0.7486126551
 40
1.0
 40
1.0
 40
1.0
 40
1.0
 10
0.9906420774
 20
20.8969517796
 30
0.0
 10
0.9906042979
 20
20.923358467
 30
0.0
 10
1.000271935
 20
20.9767817155
 30
0.0
 10
1.0430084359
 20
21.0460538466
 30
0.0
 10
1.1093619115
 20
21.0941143507
 30
0.0
 10
1.163343675
 20
21.1055932493
 30
0.0
 10
1.1900411962
 20
21.1055519316
 30
0.0
  0
SPLINE
  5
4E9
100
AcDbEntity
  8
RACCORDO
100
AcDbSpline
 62
250
  6
CONTINUOUS
 70
0
 71
3
 72
11
 73
7
 74
0
 42
0.0000001
 43
0.0000001
 44
0.0000000001
 40
0.0
 40
0.0
 40
0.0
 40
0.0
 40
0.2515619358
 40
0.5023176142
 40
0.7517034513
 40
1.0
 40
1.0
 40
1.0
 40
1.0
 10
1.2308085065
 20
20.2822003908
 30
0.0
 10
1.2048448299
 20
20.2821616431
 30
0.0
 10
1.1524643276
 20
20.2719087674
 30
0.0
 10
1.0860551437
 20
20.2282018457
 30
0.0
 10
1.0413942961
 20
20.1627860443
 30
0.0
 10
1.0308555528
 20
20.1108654948
 30
0.0
 10
1.0308161219
 20
20.0852388402
 30
0.0
  0
SPLINE
  5
4EA
100
AcDbEntity
  8
RACCORDO
100
AcDbSpline
 62
250
  6
CONTINUOUS
 70
0
 71
3
 72
11
 73
7
 74
0
 42
0.0000001
 43
0.0000001
 44
0.0000000001
 40
0.0
 40
0.0
 40
0.0
 40
0.0
 40
0.2513882797
 40
0.5019455626
 40
0.7513508199
 40
1.0
 40
1.0
 40
1.0
 40
1.0
 10
1.1900436316
 20
-21.0994344145
 30
0.0
 10
1.1633463559
 20
-21.099475534
 30
0.0
 10
1.1093651344
 20
-21.0879984146
 30
0.0
 10
1.0430116734
 20
-21.0399395297
 30
0.0
 10
1.0002741564
 20
-20.9706695725
 30
0.0
 10
0.9906049611
 20
-20.9172472983
 30
0.0
 10
0.990642068
 20
-20.890840908
 30
0.0
  0
SPLINE
  5
4EB
100
AcDbEntity
  8
RACCORDO
100
AcDbSpline
 62
250
  6
CONTINUOUS
 70
0
 71
3
 72
11
 73
7
 74
0
 42
0.0000001
 43
0.0000001
 44
0.0000000001
 40
0.0
 40
0.0
 40
0.0
 40
0.0
 40
0.2480479086
 40
0.4973480538
 40
0.7481896613
 40
1.0
 40
1.0
 40
1.0
 40
1.0
 10
1.0308161219
 20
-20.0791213073
 30
0.0
 10
1.0308555133
 20
-20.1047223192
 30
0.0
 10
1.0413773778
 20
-20.1566064065
 30
0.0
 10
1.0859901557
 20
-20.2220214432
 30
0.0
 10
1.1524023139
 20
-20.2657750202
 30
0.0
 10
1.2048191726
 20
-20.2760440719
 30
0.0
 10
1.2308085065
 20
-20.2760828579
 30
0.0
  0
SPLINE
  5
4EC
100
AcDbEntity
  8
RACCORDO
100
AcDbSpline
 62
250
  6
CONTINUOUS
 70
0
 71
3
 72
13
 73
9
 74
0
 42
0.0000001
 43
0.0000001
 44
0.0000000001
 40
0.0
 40
0.0
 40
0.0
 40
0.0
 40
0.2417702631
 40
0.4865285624
 40
0.6110951194
 40
0.7378585665
 40
0.8675673123
 40
1.0
 40
1.0
 40
1.0
 40
1.0
 10
1.0319170742
 20
-23.8537366986
 30
0.0
 10
1.0535205902
 20
-23.8473783165
 30
0.0
 10
1.0962996313
 20
-23.832064814
 30
0.0
 10
1.1467279355
 20
-23.8048492253
 30
0.0
 10
1.1830726764
 20
-23.7760992072
 30
0.0
 10
1.207216294
 20
-23.7498065793
 30
0.0
 10
1.2254689938
 20
-23.71805856
 30
0.0
 10
1.2305808956
 20
-23.6935589195
 30
0.0
 10
1.2307935399
 20
-23.6812252558
 30
0.0
  0
SPLINE
  5
4ED
100
AcDbEntity
  8
RACCORDO
100
AcDbSpline
 62
250
  6
CONTINUOUS
 70
0
 71
3
 72
11
 73
7
 74
0
 42
0.0000001
 43
0.0000001
 44
0.0000000001
 40
0.0
 40
0.0
 40
0.0
 40
0.0
 40
0.3540373594
 40
0.6632229849
 40
0.8879767673
 40
1.0
 40
1.0
 40
1.0
 40
1.0
 10
1.2308085065
 20
-23.6812327768
 30
0.0
 10
1.2074285556
 20
-23.6808296839
 30
0.0
 10
1.1636315035
 20
-23.6802572804
 30
0.0
 10
1.1049688116
 20
-23.679810521
 30
0.0
 10
1.0623456867
 20
-23.6789070559
 30
0.0
 10
1.0400545151
 20
-23.678898431
 30
0.0
 10
1.0326947543
 20
-23.6781384061
 30
0.0
  0
SPLINE
  5
4EE
100
AcDbEntity
  8
RACCORDO
100
AcDbSpline
 62
250
  6
CONTINUOUS
 70
0
 71
3
 72
9
 73
5
 74
0
 42
0.0000001
 43
0.0000001
 44
0.0000000001
 40
0.0
 40
0.0
 40
0.0
 40
0.0
 40
0.4066763291
 40
1.0
 40
1.0
 40
1.0
 40
1.0
 10
1.0326947543
 20
-23.6781384061
 30
0.0
 10
1.0324348886
 20
-23.6781115704
 30
0.0
 10
1.0318575057
 20
-23.6779862201
 30
0.0
 10
1.0309856733
 20
-23.6780759397
 30
0.0
 10
1.0308161219
 20
-23.6777345789
 30
0.0
  0
SPLINE
  5
4EF
100
AcDbEntity
  8
RACCORDO
100
AcDbSpline
 62
7
  6
CONTINUOUS
 70
0
 71
3
 72
21
 73
17
 74
0
 42
0.0000001
 43
0.0000001
 44
0.0000000001
 40
0.0
 40
0.0
 40
0.0
 40
0.0
 40
0.0016662317
 40
0.0059249817
 40
0.0127486894
 40
0.0221011438
 40
0.0482423357
 40
0.0839799078
 40
0.1286786935
 40
0.1816372731
 40
0.2421440587
 40
0.3094295897
 40
0.4611803238
 40
0.6308229588
 40
0.8126048507
 40
1.0
 40
1.0
 40
1.0
 40
1.0
 10
-0.6979815289
 20
-24.9015121353
 30
0.0
 10
-0.6981150154
 20
-24.901351978
 30
0.0
 10
-0.6980340395
 20
-24.9005218357
 30
0.0
 10
-0.6982588673
 20
-24.8990094005
 30
0.0
 10
-0.6982817268
 20
-24.8964110624
 30
0.0
 10
-0.698471169
 20
-24.8911431987
 30
0.0
 10
-0.698606613
 20
-24.882213309
 30
0.0
 10
-0.6988043141
 20
-24.8688873111
 30
0.0
 10
-0.6989746665
 20
-24.8521935558
 30
0.0
 10
-0.6991434802
 20
-24.8324046141
 30
0.0
 10
-0.699298026
 20
-24.8097877886
 30
0.0
 10
-0.6994959006
 20
-24.7748098413
 30
0.0
 10
-0.6996975494
 20
-24.7261755635
 30
0.0
 10
-0.699870383
 20
-24.6632145349
 30
0.0
 10
-0.6999760325
 20
-24.5957932016
 30
0.0
 10
-0.7
 20
-24.5495988396
 30
0.0
 10
-0.7
 20
-24.5261504716
 30
0.0
  0
SPLINE
  5
4F0
100
AcDbEntity
  8
RACCORDO
100
AcDbSpline
 62
7
  6
CONTINUOUS
 70
0
 71
3
 72
21
 73
17
 74
0
 42
0.0000001
 43
0.0000001
 44
0.0000000001
 40
0.0
 40
0.0
 40
0.0
 40
0.0
 40
0.1873951493
 40
0.3691770412
 40
0.5388196762
 40
0.6905704103
 40
0.7578559413
 40
0.8183627269
 40
0.8713213065
 40
0.9160200922
 40
0.9517576643
 40
0.9778988562
 40
0.9872513106
 40
0.9940750183
 40
0.9983337683
 40
1.0
 40
1.0
 40
1.0
 40
1.0
 10
0.7
 20
-24.5261504716
 30
0.0
 10
0.7
 20
-24.5495988396
 30
0.0
 10
0.6999760325
 20
-24.5957932016
 30
0.0
 10
0.699870383
 20
-24.6632145349
 30
0.0
 10
0.6996975494
 20
-24.7261755635
 30
0.0
 10
0.6994959006
 20
-24.7748098413
 30
0.0
 10
0.699298026
 20
-24.8097877886
 30
0.0
 10
0.6991434802
 20
-24.8324046141
 30
0.0
 10
0.6989746665
 20
-24.8521935558
 30
0.0
 10
0.6988043141
 20
-24.8688873111
 30
0.0
 10
0.698606613
 20
-24.882213309
 30
0.0
 10
0.698471169
 20
-24.8911431987
 30
0.0
 10
0.6982817268
 20
-24.8964110624
 30
0.0
 10
0.6982588673
 20
-24.8990094005
 30
0.0
 10
0.6980340395
 20
-24.9005218357
 30
0.0
 10
0.6981150154
 20
-24.901351978
 30
0.0
 10
0.6979815289
 20
-24.9015121353
 30
0.0
  0
SPLINE
  5
4F1
100
AcDbEntity
  8
RACCORDO
100
AcDbSpline
 62
7
  6
CONTINUOUS
 70
0
 71
3
 72
18
 73
14
 74
0
 42
0.0000001
 43
0.0000001
 44
0.0000000001
 40
0.0
 40
0.0
 40
0.0
 40
0.0
 40
0.1898829983
 40
0.3737919181
 40
0.5447043845
 40
0.6963778642
 40
0.822737099
 40
0.8746088134
 40
0.9181585418
 40
0.9528488361
 40
0.978211026
 40
0.9939941328
 40
1.0
 40
1.0
 40
1.0
 40
1.0
 10
-0.7
 20
-24.3232897042
 30
0.0
 10
-0.7
 20
-24.3001390074
 30
0.0
 10
-0.6999763166
 20
-24.2545659373
 30
0.0
 10
-0.6998696362
 20
-24.1881553457
 30
0.0
 10
-0.6996970167
 20
-24.1264027658
 30
0.0
 10
-0.6994560651
 20
-24.0716690864
 30
0.0
 10
-0.6992146569
 20
-24.0314435927
 30
0.0
 10
-0.6989581347
 20
-24.0044114036
 30
0.0
 10
-0.6988210544
 20
-23.9885347746
 30
0.0
 10
-0.6985356033
 20
-23.9759428154
 30
0.0
 10
-0.6985954223
 20
-23.9666096049
 30
0.0
 10
-0.6979740467
 20
-23.9610275475
 30
0.0
 10
-0.6983325799
 20
-23.9581897872
 30
0.0
 10
-0.6979815289
 20
-23.9575471836
 30
0.0
  0
SPLINE
  5
4F2
100
AcDbEntity
  8
RACCORDO
100
AcDbSpline
 62
250
  6
CONTINUOUS
 70
0
 71
3
 72
9
 73
5
 74
0
 42
0.0000001
 43
0.0000001
 44
0.0000000001
 40
0.0
 40
0.0
 40
0.0
 40
0.0
 40
0.7490079724
 40
1.0
 40
1.0
 40
1.0
 40
1.0
 10
0.8343817868
 20
-23.8812172017
 30
0.0
 10
0.8791052112
 20
-23.8810204981
 30
0.0
 10
0.9390214746
 20
-23.8757457822
 30
0.0
 10
0.9973829156
 20
-23.8629831202
 30
0.0
 10
1.0118975543
 20
-23.859250374
 30
0.0
  0
SPLINE
  5
4F3
100
AcDbEntity
  8
RACCORDO
100
AcDbSpline
 62
7
  6
CONTINUOUS
 70
0
 71
3
 72
16
 73
12
 74
0
 42
0.0000001
 43
0.0000001
 44
0.0000000001
 40
0.0
 40
0.0
 40
0.0
 40
0.0
 40
0.0140647879
 40
0.0372465177
 40
0.1126431909
 40
0.2223723812
 40
0.3580478232
 40
0.510434489
 40
0.6715100373
 40
0.8355805776
 40
1.0
 40
1.0
 40
1.0
 40
1.0
 10
-1.059453473
 20
-25.1489759466
 30
0.0
 10
-1.0581925087
 20
-25.1493569641
 30
0.0
 10
-1.0555944977
 20
-25.1520500776
 30
0.0
 10
-1.0504963403
 20
-25.1611453749
 30
0.0
 10
-1.0440946884
 20
-25.1798225726
 30
0.0
 10
-1.0368283288
 20
-25.2089045414
 30
0.0
 10
-1.0306427921
 20
-25.2457220195
 30
0.0
 10
-1.0272587222
 20
-25.2877055008
 30
0.0
 10
-1.0289610534
 20
-25.3325519049
 30
0.0
 10
-1.038749487
 20
-25.3776900136
 30
0.0
 10
-1.0538166979
 20
-25.4053307002
 30
0.0
 10
-1.063640118
 20
-25.4171895667
 30
0.0
  0
SPLINE
  5
4F4
100
AcDbEntity
  8
RACCORDO
100
AcDbSpline
 62
7
  6
CONTINUOUS
 70
0
 71
3
 72
16
 73
12
 74
0
 42
0.0000001
 43
0.0000001
 44
0.0000000001
 40
0.0
 40
0.0
 40
0.0
 40
0.0
 40
0.1644197795
 40
0.3284902833
 40
0.4895657049
 40
0.6419522134
 40
0.7776274627
 40
0.8873566322
 40
0.9627533578
 40
0.9859351681
 40
1.0
 40
1.0
 40
1.0
 40
1.0
 10
-1.0797516668
 20
-25.4333011156
 30
0.0
 10
-1.0916105589
 20
-25.4431245568
 30
0.0
 10
-1.1192512833
 20
-25.4581917683
 30
0.0
 10
-1.1643894123
 20
-25.4679801785
 30
0.0
 10
-1.209235785
 20
-25.4696825079
 30
0.0
 10
-1.2512192208
 20
-25.4662984401
 30
0.0
 10
-1.2880366639
 20
-25.4601129072
 30
0.0
 10
-1.3171186174
 20
-25.4528465579
 30
0.0
 10
-1.3357958293
 20
-25.4464449061
 30
0.0
 10
-1.3448911372
 20
-25.4413467418
 30
0.0
 10
-1.3475842682
 20
-25.4387487287
 30
0.0
 10
-1.347965287
 20
-25.4374877606
 30
0.0
  0
SPLINE
  5
4F5
100
AcDbEntity
  8
RACCORDO
100
AcDbSpline
 62
7
  6
CONTINUOUS
 70
0
 71
3
 72
16
 73
12
 74
0
 42
0.0000001
 43
0.0000001
 44
0.0000000001
 40
0.0
 40
0.0
 40
0.0
 40
0.0
 40
0.0140647879
 40
0.0372465177
 40
0.1126431909
 40
0.2223723812
 40
0.3580478232
 40
0.510434489
 40
0.6715100373
 40
0.8355805776
 40
1.0
 40
1.0
 40
1.0
 40
1.0
 10
1.347965287
 20
-25.4374877606
 30
0.0
 10
1.3475842694
 20
-25.4387487248
 30
0.0
 10
1.3448911559
 20
-25.4413467358
 30
0.0
 10
1.3357958586
 20
-25.4464448932
 30
0.0
 10
1.317118661
 20
-25.4528465451
 30
0.0
 10
1.2880366921
 20
-25.4601129047
 30
0.0
 10
1.251219214
 20
-25.4662984414
 30
0.0
 10
1.2092357327
 20
-25.4696825113
 30
0.0
 10
1.1643893286
 20
-25.4679801801
 30
0.0
 10
1.11925122
 20
-25.4581917465
 30
0.0
 10
1.0916105333
 20
-25.4431245356
 30
0.0
 10
1.0797516668
 20
-25.4333011156
 30
0.0
  0
SPLINE
  5
4F6
100
AcDbEntity
  8
RACCORDO
100
AcDbSpline
 62
7
  6
CONTINUOUS
 70
0
 71
3
 72
16
 73
12
 74
0
 42
0.0000001
 43
0.0000001
 44
0.0000000001
 40
0.0
 40
0.0
 40
0.0
 40
0.0
 40
0.1644197795
 40
0.3284902833
 40
0.4895657049
 40
0.6419522134
 40
0.7776274627
 40
0.8873566322
 40
0.9627533578
 40
0.9859351681
 40
1.0
 40
1.0
 40
1.0
 40
1.0
 10
1.063640118
 20
-25.4171895667
 30
0.0
 10
1.0538166768
 20
-25.4053306747
 30
0.0
 10
1.0387494652
 20
-25.3776899502
 30
0.0
 10
1.0289610551
 20
-25.3325518212
 30
0.0
 10
1.0272587256
 20
-25.2877054486
 30
0.0
 10
1.0306427934
 20
-25.2457220127
 30
0.0
 10
1.0368283263
 20
-25.2089045697
 30
0.0
 10
1.0440946756
 20
-25.1798226161
 30
0.0
 10
1.0504963275
 20
-25.1611454042
 30
0.0
 10
1.0555944917
 20
-25.1520500963
 30
0.0
 10
1.0581925048
 20
-25.1493569653
 30
0.0
 10
1.059453473
 20
-25.1489759466
 30
0.0
  0
SPLINE
  5
4F7
100
AcDbEntity
  8
RACCORDO
100
AcDbSpline
 62
7
  6
CONTINUOUS
 70
0
 71
3
 72
16
 73
12
 74
0
 42
0.0000001
 43
0.0000001
 44
0.0000000001
 40
0.0
 40
0.0
 40
0.0
 40
0.0
 40
0.0140647879
 40
0.0372465177
 40
0.1126431909
 40
0.2223723812
 40
0.3580478232
 40
0.510434489
 40
0.6715100373
 40
0.8355805776
 40
1.0
 40
1.0
 40
1.0
 40
1.0
 10
1.059453473
 20
-27.8449065205
 30
0.0
 10
1.0581925087
 20
-27.8445255029
 30
0.0
 10
1.0555944977
 20
-27.8418323895
 30
0.0
 10
1.0504963403
 20
-27.8327370921
 30
0.0
 10
1.0440946884
 20
-27.8140598945
 30
0.0
 10
1.0368283288
 20
-27.7849779257
 30
0.0
 10
1.0306427921
 20
-27.7481604476
 30
0.0
 10
1.0272587222
 20
-27.7061769663
 30
0.0
 10
1.0289610534
 20
-27.6613305622
 30
0.0
 10
1.038749487
 20
-27.6161924535
 30
0.0
 10
1.0538166979
 20
-27.5885517669
 30
0.0
 10
1.063640118
 20
-27.5766929004
 30
0.0
  0
SPLINE
  5
4F8
100
AcDbEntity
  8
RACCORDO
100
AcDbSpline
 62
7
  6
CONTINUOUS
 70
0
 71
3
 72
16
 73
12
 74
0
 42
0.0000001
 43
0.0000001
 44
0.0000000001
 40
0.0
 40
0.0
 40
0.0
 40
0.0
 40
0.1644197795
 40
0.3284902833
 40
0.4895657049
 40
0.6419522134
 40
0.7776274627
 40
0.8873566322
 40
0.9627533578
 40
0.9859351681
 40
1.0
 40
1.0
 40
1.0
 40
1.0
 10
1.0797516668
 20
-27.5605813515
 30
0.0
 10
1.0916105589
 20
-27.5507579103
 30
0.0
 10
1.1192512833
 20
-27.5356906988
 30
0.0
 10
1.1643894123
 20
-27.5259022886
 30
0.0
 10
1.209235785
 20
-27.5241999592
 30
0.0
 10
1.2512192208
 20
-27.527584027
 30
0.0
 10
1.2880366639
 20
-27.5337695599
 30
0.0
 10
1.3171186174
 20
-27.5410359092
 30
0.0
 10
1.3357958293
 20
-27.547437561
 30
0.0
 10
1.3448911372
 20
-27.5525357252
 30
0.0
 10
1.3475842682
 20
-27.5551337383
 30
0.0
 10
1.347965287
 20
-27.5563947065
 30
0.0
  0
SPLINE
  5
4F9
100
AcDbEntity
  8
RACCORDO
100
AcDbSpline
 62
7
  6
CONTINUOUS
 70
0
 71
3
 72
16
 73
12
 74
0
 42
0.0000001
 43
0.0000001
 44
0.0000000001
 40
0.0
 40
0.0
 40
0.0
 40
0.0
 40
0.0140647879
 40
0.0372465177
 40
0.1126431909
 40
0.2223723812
 40
0.3580478232
 40
0.510434489
 40
0.6715100373
 40
0.8355805776
 40
1.0
 40
1.0
 40
1.0
 40
1.0
 10
-1.347965287
 20
-27.5563947065
 30
0.0
 10
-1.3475842694
 20
-27.5551337423
 30
0.0
 10
-1.3448911559
 20
-27.5525357313
 30
0.0
 10
-1.3357958586
 20
-27.5474375739
 30
0.0
 10
-1.317118661
 20
-27.5410359219
 30
0.0
 10
-1.2880366921
 20
-27.5337695624
 30
0.0
 10
-1.251219214
 20
-27.5275840257
 30
0.0
 10
-1.2092357327
 20
-27.5241999557
 30
0.0
 10
-1.1643893286
 20
-27.5259022869
 30
0.0
 10
-1.11925122
 20
-27.5356907206
 30
0.0
 10
-1.0916105333
 20
-27.5507579314
 30
0.0
 10
-1.0797516668
 20
-27.5605813515
 30
0.0
  0
SPLINE
  5
4FA
100
AcDbEntity
  8
RACCORDO
100
AcDbSpline
 62
7
  6
CONTINUOUS
 70
0
 71
3
 72
16
 73
12
 74
0
 42
0.0000001
 43
0.0000001
 44
0.0000000001
 40
0.0
 40
0.0
 40
0.0
 40
0.0
 40
0.1644197795
 40
0.3284902833
 40
0.4895657049
 40
0.6419522134
 40
0.7776274627
 40
0.8873566322
 40
0.9627533578
 40
0.9859351681
 40
1.0
 40
1.0
 40
1.0
 40
1.0
 10
-1.063640118
 20
-27.5766929004
 30
0.0
 10
-1.0538166768
 20
-27.5885517924
 30
0.0
 10
-1.0387494652
 20
-27.6161925169
 30
0.0
 10
-1.0289610551
 20
-27.6613306458
 30
0.0
 10
-1.0272587256
 20
-27.7061770185
 30
0.0
 10
-1.0306427934
 20
-27.7481604544
 30
0.0
 10
-1.0368283263
 20
-27.7849778974
 30
0.0
 10
-1.0440946756
 20
-27.814059851
 30
0.0
 10
-1.0504963275
 20
-27.8327370628
 30
0.0
 10
-1.0555944917
 20
-27.8418323708
 30
0.0
 10
-1.0581925048
 20
-27.8445255017
 30
0.0
 10
-1.059453473
 20
-27.8449065205
 30
0.0
  0
SPLINE
  5
4FB
100
AcDbEntity
  8
RACCORDO
100
AcDbSpline
 62
250
  6
CONTINUOUS
 70
0
 71
3
 72
22
 73
18
 74
0
 42
0.0000001
 43
0.0000001
 44
0.0000000001
 40
0.0
 40
0.0
 40
0.0
 40
0.0
 40
0.1581280728
 40
0.3150101733
 40
0.4688534955
 40
0.6170838358
 40
0.6878528483
 40
0.7554214575
 40
0.818715495
 40
0.8762683711
 40
0.925847436
 40
0.9467758238
 40
0.9647047378
 40
0.9793388233
 40
0.9903713598
 40
0.9974039745
 40
1.0
 40
1.0
 40
1.0
 40
1.0
 10
-0.5040383227
 20
-28.8574196992
 30
0.0
 10
-0.5174236016
 20
-28.8663105691
 30
0.0
 10
-0.5438841929
 20
-28.8843308019
 30
0.0
 10
-0.5828269071
 20
-28.9117830769
 30
0.0
 10
-0.6206245929
 20
-28.9391077846
 30
0.0
 10
-0.6511012846
 20
-28.9616187988
 30
0.0
 10
-0.6744038961
 20
-28.9790840332
 30
0.0
 10
-0.6907621003
 20
-28.9914224695
 30
0.0
 10
-0.7060183268
 20
-29.002992854
 30
0.0
 10
-0.7197749454
 20
-29.0135107831
 30
0.0
 10
-0.7300770748
 20
-29.0214703266
 30
0.0
 10
-0.7371128699
 20
-29.0270486061
 30
0.0
 10
-0.7413901157
 20
-29.0304333235
 30
0.0
 10
-0.7447561413
 20
-29.0332354471
 30
0.0
 10
-0.7475719558
 20
-29.0352345062
 30
0.0
 10
-0.7488181831
 20
-29.0366603718
 30
0.0
 10
-0.7500222638
 20
-29.0371429651
 30
0.0
 10
-0.7500002706
 20
-29.0374058555
 30
0.0
  0
SPLINE
  5
4FC
100
AcDbEntity
  8
RACCORDO
100
AcDbSpline
 62
250
  6
CONTINUOUS
 70
0
 71
3
 72
22
 73
18
 74
0
 42
0.0000001
 43
0.0000001
 44
0.0000000001
 40
0.0
 40
0.0
 40
0.0
 40
0.0
 40
0.0024679851
 40
0.0092161325
 40
0.0200152819
 40
0.0345659419
 40
0.0525117549
 40
0.0734927469
 40
0.1230685816
 40
0.1804796174
 40
0.2437327765
 40
0.311331426
 40
0.3821666156
 40
0.5305510931
 40
0.6845823886
 40
0.8416568542
 40
1.0
 40
1.0
 40
1.0
 40
1.0
 10
-0.8081520901
 20
-28.8776376688
 30
0.0
 10
-0.8079744965
 20
-28.8778147582
 30
0.0
 10
-0.8068717517
 20
-28.8775016
 30
0.0
 10
-0.8049885258
 20
-28.8777647558
 30
0.0
 10
-0.801646012
 20
-28.8775392711
 30
0.0
 10
-0.7972817872
 20
-28.8774946507
 30
0.0
 10
-0.7918373273
 20
-28.8773061166
 30
0.0
 10
-0.7828547331
 20
-28.8769964381
 30
0.0
 10
-0.769858069
 20
-28.8764586404
 30
0.0
 10
-0.7525755432
 20
-28.8757128543
 30
0.0
 10
-0.7334650986
 20
-28.8748059703
 30
0.0
 10
-0.7129970855
 20
-28.8737437232
 30
0.0
 10
-0.6838952189
 20
-28.8721250818
 30
0.0
 10
-0.6460368124
 20
-28.8697851865
 30
0.0
 10
-0.5994627764
 20
-28.8664280314
 30
0.0
 10
-0.5519247509
 20
-28.862415795
 30
0.0
 10
-0.5200295892
 20
-28.8592131381
 30
0.0
 10
-0.5040390996
 20
-28.8574175962
 30
0.0
  0
SPLINE
  5
4FD
100
AcDbEntity
  8
RACCORDO
100
AcDbSpline
 62
250
  6
CONTINUOUS
 70
0
 71
3
 72
22
 73
18
 74
0
 42
0.0000001
 43
0.0000001
 44
0.0000000001
 40
0.0
 40
0.0
 40
0.0
 40
0.0
 40
0.1581277183
 40
0.3150094678
 40
0.4688524385
 40
0.6170824462
 40
0.6878512977
 40
0.7554197142
 40
0.8187135786
 40
0.8762664216
 40
0.9258452797
 40
0.9467733427
 40
0.9647020125
 40
0.9793362863
 40
0.9903697112
 40
0.9974034527
 40
1.0
 40
1.0
 40
1.0
 40
1.0
 10
0.5040390908
 20
-28.8574175889
 30
0.0
 10
0.5200077557
 20
-28.8592106793
 30
0.0
 10
0.5518609377
 20
-28.8624149211
 30
0.0
 10
0.5993387849
 20
-28.8664171544
 30
0.0
 10
0.6458574906
 20
-28.8697810971
 30
0.0
 10
0.6836738036
 20
-28.8721267003
 30
0.0
 10
0.712751081
 20
-28.8737261894
 30
0.0
 10
0.733213186
 20
-28.874789242
 30
0.0
 10
0.7523374428
 20
-28.8757323137
 30
0.0
 10
0.7696364193
 20
-28.8765177308
 30
0.0
 10
0.7826445797
 20
-28.877042478
 30
0.0
 10
0.791619908
 20
-28.8772916853
 30
0.0
 10
0.7970720992
 20
-28.8774481495
 30
0.0
 10
0.8014518887
 20
-28.8774652403
 30
0.0
 10
0.8048941391
 20
-28.8777441373
 30
0.0
 10
0.8067655418
 20
-28.8774530348
 30
0.0
 10
0.8079983585
 20
-28.8778577068
 30
0.0
 10
0.8081505248
 20
-28.8776421405
 30
0.0
  0
SPLINE
  5
4FE
100
AcDbEntity
  8
RACCORDO
100
AcDbSpline
 62
250
  6
CONTINUOUS
 70
0
 71
3
 72
22
 73
18
 74
0
 42
0.0000001
 43
0.0000001
 44
0.0000000001
 40
0.0
 40
0.0
 40
0.0
 40
0.0
 40
0.0024679851
 40
0.0092161324
 40
0.0200152818
 40
0.0345659418
 40
0.0525117549
 40
0.0734927469
 40
0.1230685817
 40
0.1804796174
 40
0.2437327766
 40
0.3113314261
 40
0.3821666157
 40
0.5305510931
 40
0.6845823886
 40
0.8416568542
 40
1.0
 40
1.0
 40
1.0
 40
1.0
 10
0.7499996127
 20
-29.0374102872
 30
0.0
 10
0.749977399
 20
-29.0371604739
 30
0.0
 10
0.7489313532
 20
-29.0366915363
 30
0.0
 10
0.7476578718
 20
-29.0352794329
 30
0.0
 10
0.744952419
 20
-29.0333036378
 30
0.0
 10
0.7415805473
 20
-29.0305325494
 30
0.0
 10
0.7372886617
 20
-29.0271773435
 30
0.0
 10
0.7302085379
 20
-29.0216406707
 30
0.0
 10
0.7199068258
 20
-29.013698553
 30
0.0
 10
0.7061882609
 20
-29.0031608649
 30
0.0
 10
0.6909658772
 20
-28.9915716214
 30
0.0
 10
0.6746036702
 20
-28.9792287646
 30
0.0
 10
0.6512699044
 20
-28.9617623966
 30
0.0
 10
0.6207646268
 20
-28.9392199458
 30
0.0
 10
0.5829289076
 20
-28.9118544625
 30
0.0
 10
0.5439336516
 20
-28.8843711601
 30
0.0
 10
0.517441912
 20
-28.8663227229
 30
0.0
 10
0.5040383342
 20
-28.8574196992
 30
0.0
  0
SPLINE
  5
4FF
100
AcDbEntity
  8
RACCORDO
100
AcDbSpline
 62
7
  6
CONTINUOUS
 70
0
 71
3
 72
16
 73
12
 74
0
 42
0.0000001
 43
0.0000001
 44
0.0000000001
 40
0.0
 40
0.0
 40
0.0
 40
0.0
 40
0.3290306214
 40
0.4869605071
 40
0.6355909083
 40
0.7695341431
 40
0.8813470659
 40
0.9259253296
 40
0.9611823389
 40
0.9860645734
 40
1.0
 40
1.0
 40
1.0
 40
1.0
 10
0.0604759076
 20
-28.0113839123
 30
0.0
 10
0.0802649368
 20
-28.0314697746
 30
0.0
 10
0.1098209383
 20
-28.0609329496
 30
0.0
 10
0.1487172527
 20
-28.0990601135
 30
0.0
 10
0.1757488099
 20
-28.1254135427
 30
0.0
 10
0.1998803954
 20
-28.1490649227
 30
0.0
 10
0.2174996778
 20
-28.1666614898
 30
0.0
 10
0.228756091
 20
-28.1785845134
 30
0.0
 10
0.2347609137
 20
-28.1853303984
 30
0.0
 10
0.2385189352
 20
-28.1903109378
 30
0.0
 10
0.2403731642
 20
-28.1932863614
 30
0.0
 10
0.2404690537
 20
-28.1944767149
 30
0.0
  0
SPLINE
  5
500
100
AcDbEntity
  8
RACCORDO
100
AcDbSpline
 62
7
  6
CONTINUOUS
 70
0
 71
3
 72
16
 73
12
 74
0
 42
0.0000001
 43
0.0000001
 44
0.0000000001
 40
0.0
 40
0.0
 40
0.0
 40
0.0
 40
0.0139354266
 40
0.0388176611
 40
0.0740746704
 40
0.1186529341
 40
0.2304658569
 40
0.3644090917
 40
0.5130394929
 40
0.6709693786
 40
1.0
 40
1.0
 40
1.0
 40
1.0
 10
-0.2404690537
 20
-28.1944767149
 30
0.0
 10
-0.2403731642
 20
-28.1932863614
 30
0.0
 10
-0.2385189352
 20
-28.1903109378
 30
0.0
 10
-0.2347609137
 20
-28.1853303984
 30
0.0
 10
-0.228756091
 20
-28.1785845134
 30
0.0
 10
-0.2174996778
 20
-28.1666614898
 30
0.0
 10
-0.1998803954
 20
-28.1490649227
 30
0.0
 10
-0.1757488099
 20
-28.1254135427
 30
0.0
 10
-0.1487172527
 20
-28.0990601135
 30
0.0
 10
-0.1098209383
 20
-28.0609329496
 30
0.0
 10
-0.0802649368
 20
-28.0314697746
 30
0.0
 10
-0.0604759076
 20
-28.0113839123
 30
0.0
  0
SPLINE
  5
501
100
AcDbEntity
  8
RACCORDO
100
AcDbSpline
 62
7
  6
CONTINUOUS
 70
0
 71
3
 72
11
 73
7
 74
0
 42
0.0000001
 43
0.0000001
 44
0.0000000001
 40
0.0
 40
0.0
 40
0.0
 40
0.0
 40
0.2945762014
 40
0.553461366
 40
0.7836102928
 40
1.0
 40
1.0
 40
1.0
 40
1.0
 10
2.3842840223
 20
-22.2469337502
 30
0.0
 10
2.4147125281
 20
-22.2469337502
 30
0.0
 10
2.4726204293
 20
-22.2326456516
 30
0.0
 10
2.5380092457
 20
-22.1816384333
 30
0.0
 10
2.5756568959
 20
-22.1174439824
 30
0.0
 10
2.584079648
 20
-22.0710302891
 30
0.0
 10
2.5842764069
 20
-22.0486789914
 30
0.0
  0
SPLINE
  5
502
100
AcDbEntity
  8
RACCORDO
100
AcDbSpline
 62
250
  6
CONTINUOUS
 70
0
 71
3
 72
9
 73
5
 74
0
 42
0.0000001
 43
0.0000001
 44
0.0000000001
 40
0.0
 40
0.0
 40
0.0
 40
0.0
 40
0.2506333072
 40
1.0
 40
1.0
 40
1.0
 40
1.0
 10
-0.9697788915
 20
-24.0379839665
 30
0.0
 10
-0.9532181027
 20
-24.0366145379
 30
0.0
 10
-0.8873515866
 20
-24.0286834005
 30
0.0
 10
-0.8225426095
 20
-24.013191586
 30
0.0
 10
-0.7750271751
 20
-23.9986732749
 30
0.0
  0
SPLINE
  5
503
100
AcDbEntity
  8
RACCORDO
100
AcDbSpline
 62
250
  6
CONTINUOUS
 70
0
 71
3
 72
9
 73
5
 74
0
 42
0.0000001
 43
0.0000001
 44
0.0000000001
 40
0.0
 40
0.0
 40
0.0
 40
0.0
 40
0.2660943901
 40
1.0
 40
1.0
 40
1.0
 40
1.0
 10
-0.8695403889
 20
-24.0018667218
 30
0.0
 10
-0.8612888949
 20
-24.0036280234
 30
0.0
 10
-0.8298877565
 20
-24.0082994115
 30
0.0
 10
-0.7973794153
 20
-24.0051469996
 30
0.0
 10
-0.7750271752
 20
-23.9986732743
 30
0.0
  0
SPLINE
  5
504
100
AcDbEntity
  8
RACCORDO
100
AcDbSpline
 62
250
  6
CONTINUOUS
 70
0
 71
3
 72
13
 73
9
 74
0
 42
0.0000001
 43
0.0000001
 44
0.0000000001
 40
0.0
 40
0.0
 40
0.0
 40
0.0
 40
0.1338494078
 40
0.2642437629
 40
0.3909513115
 40
0.5149792172
 40
0.7586563543
 40
1.0
 40
1.0
 40
1.0
 40
1.0
 10
-1.2024533724
 20
-23.9508928533
 30
0.0
 10
-1.1987325618
 20
-23.9621928641
 30
0.0
 10
-1.1872756232
 20
-23.9833779301
 30
0.0
 10
-1.161076348
 20
-24.0069754297
 30
0.0
 10
-1.1307231782
 20
-24.0226008822
 30
0.0
 10
-1.0885171133
 20
-24.0353899572
 30
0.0
 10
-1.0343155533
 20
-24.0412321408
 30
0.0
 10
-0.9911575408
 20
-24.0397462787
 30
0.0
 10
-0.9697788915
 20
-24.0379839665
 30
0.0
  0
SPLINE
  5
505
100
AcDbEntity
  8
RACCORDO
100
AcDbSpline
 62
7
  6
CONTINUOUS
 70
0
 71
3
 72
11
 73
7
 74
0
 42
0.0000001
 43
0.0000001
 44
0.0000000001
 40
0.0
 40
0.0
 40
0.0
 40
0.0
 40
0.2163893515
 40
0.4465360748
 40
0.7054223493
 40
1.0
 40
1.0
 40
1.0
 40
1.0
 10
-2.5842764069
 20
-22.0486789914
 30
0.0
 10
-2.5840796483
 20
-22.0710302535
 30
0.0
 10
-2.5756569171
 20
-22.1174436633
 30
0.0
 10
-2.5380096492
 20
-22.1816381346
 30
0.0
 10
-2.4726208266
 20
-22.2326454756
 30
0.0
 10
-2.4147126794
 20
-22.2469337502
 30
0.0
 10
-2.3842840223
 20
-22.2469337502
 30
0.0
  0
SPLINE
  5
506
100
AcDbEntity
  8
RACCORDO
100
AcDbSpline
 62
250
  6
CONTINUOUS
 70
0
 71
3
 72
9
 73
5
 74
0
 42
0.0000001
 43
0.0000001
 44
0.0000000001
 40
0.0
 40
0.0
 40
0.0
 40
0.0
 40
0.5350554384
 40
1.0
 40
1.0
 40
1.0
 40
1.0
 10
2.5504177152
 20
20.34549617
 30
0.0
 10
2.5607880102
 20
20.3563334442
 30
0.0
 10
2.5773869656
 20
20.3797495426
 30
0.0
 10
2.5839745313
 20
20.407848014
 30
0.0
 10
2.5842764069
 20
20.4208786927
 30
0.0
  0
SPLINE
  5
507
100
AcDbEntity
  8
RACCORDO
100
AcDbSpline
 62
250
  6
CONTINUOUS
 70
0
 71
3
 72
9
 73
5
 74
0
 42
0.0000001
 43
0.0000001
 44
0.0000000001
 40
0.0
 40
0.0
 40
0.0
 40
0.0
 40
0.2524698981
 40
1.0
 40
1.0
 40
1.0
 40
1.0
 10
2.5512016687
 20
20.2384339241
 30
0.0
 10
2.556902277
 20
20.2530145349
 30
0.0
 10
2.5762022654
 20
20.3120294176
 30
0.0
 10
2.5840329779
 20
20.3745257936
 30
0.0
 10
2.5842764069
 20
20.4208786927
 30
0.0
  0
SPLINE
  5
508
100
AcDbEntity
  8
RACCORDO
100
AcDbSpline
 62
250
  6
CONTINUOUS
 70
0
 71
3
 72
11
 73
7
 74
0
 42
0.0000001
 43
0.0000001
 44
0.0000000001
 40
0.0
 40
0.0
 40
0.0
 40
0.0
 40
0.1206965478
 40
0.3473696285
 40
0.6527448626
 40
1.0
 40
1.0
 40
1.0
 40
1.0
 10
2.3810379762
 20
20.2822003908
 30
0.0
 10
2.3818505314
 20
20.2743164064
 30
0.0
 10
2.3821020799
 20
20.2514667964
 30
0.0
 10
2.383033837
 20
20.2086401734
 30
0.0
 10
2.3835929277
 20
20.1508892865
 30
0.0
 10
2.3841171596
 20
20.1080396945
 30
0.0
 10
2.3844376013
 20
20.0852388402
 30
0.0
  0
SPLINE
  5
509
100
AcDbEntity
  8
RACCORDO
100
AcDbSpline
 62
250
  6
CONTINUOUS
 70
0
 71
3
 72
11
 73
7
 74
0
 42
0.0000001
 43
0.0000001
 44
0.0000000001
 40
0.0
 40
0.0
 40
0.0
 40
0.0
 40
0.2651152939
 40
0.5180745135
 40
0.7617042262
 40
1.0
 40
1.0
 40
1.0
 40
1.0
 10
2.3844375238
 20
20.0852776075
 30
0.0
 10
2.4055291931
 20
20.085580876
 30
0.0
 10
2.4469479368
 20
20.0980725959
 30
0.0
 10
2.4937816383
 20
20.1379538332
 30
0.0
 10
2.5278654474
 20
20.1859413615
 30
0.0
 10
2.5442982212
 20
20.2207754284
 30
0.0
 10
2.5512016687
 20
20.2384339241
 30
0.0
  0
SPLINE
  5
50A
100
AcDbEntity
  8
RACCORDO
100
AcDbSpline
 62
250
  6
CONTINUOUS
 70
0
 71
3
 72
11
 73
7
 74
0
 42
0.0000001
 43
0.0000001
 44
0.0000000001
 40
0.0
 40
0.0
 40
0.0
 40
0.0
 40
0.347256292
 40
0.6526326061
 40
0.8793061994
 40
1.0
 40
1.0
 40
1.0
 40
1.0
 10
2.3844300518
 20
-20.0791213073
 30
0.0
 10
2.3841085089
 20
-20.1019221044
 30
0.0
 10
2.3835850068
 20
-20.1447717639
 30
0.0
 10
2.3830286873
 20
-20.2025220846
 30
0.0
 10
2.382110751
 20
-20.2453496975
 30
0.0
 10
2.3818628839
 20
-20.2681976003
 30
0.0
 10
2.3810649727
 20
-20.2760828579
 30
0.0
  0
SPLINE
  5
50B
100
AcDbEntity
  8
RACCORDO
100
AcDbSpline
 62
250
  6
CONTINUOUS
 70
0
 71
3
 72
11
 73
7
 74
0
 42
0.0000001
 43
0.0000001
 44
0.0000000001
 40
0.0
 40
0.0
 40
0.0
 40
0.0
 40
0.238292813
 40
0.4820065518
 40
0.7350791606
 40
1.0
 40
1.0
 40
1.0
 40
1.0
 10
2.5512023547
 20
-20.2323182774
 30
0.0
 10
2.5443024411
 20
-20.2146578261
 30
0.0
 10
2.5278591079
 20
-20.1798189736
 30
0.0
 10
2.4937625507
 20
-20.1318203133
 30
0.0
 10
2.4469229372
 20
-20.0919366004
 30
0.0
 10
2.4055070097
 20
-20.0794616678
 30
0.0
 10
2.384429964
 20
-20.0791579102
 30
0.0
  0
SPLINE
  5
50C
100
AcDbEntity
  8
RACCORDO
100
AcDbSpline
 62
250
  6
CONTINUOUS
 70
0
 71
3
 72
9
 73
5
 74
0
 42
0.0000001
 43
0.0000001
 44
0.0000000001
 40
0.0
 40
0.0
 40
0.0
 40
0.0
 40
0.4649630311
 40
1.0
 40
1.0
 40
1.0
 40
1.0
 10
2.5842764069
 20
-20.4147611598
 30
0.0
 10
2.5839739403
 20
-20.4017300873
 30
0.0
 10
2.5773887358
 20
-20.3736311962
 30
0.0
 10
2.5607876997
 20
-20.3502167007
 30
0.0
 10
2.550418419
 20
-20.3393793484
 30
0.0
  0
SPLINE
  5
50D
100
AcDbEntity
  8
RACCORDO
100
AcDbSpline
 62
250
  6
CONTINUOUS
 70
0
 71
3
 72
9
 73
5
 74
0
 42
0.0000001
 43
0.0000001
 44
0.0000000001
 40
0.0
 40
0.0
 40
0.0
 40
0.0
 40
0.249160949
 40
1.0
 40
1.0
 40
1.0
 40
1.0
 10
2.5842764069
 20
-20.4147611598
 30
0.0
 10
2.5841950734
 20
-20.3993167087
 30
0.0
 10
2.5813243645
 20
-20.3374098379
 30
0.0
 10
2.5681534588
 20
-20.2756636481
 30
0.0
 10
2.5512023547
 20
-20.2323182774
 30
0.0
  0
LINE
  5
50E
100
AcDbEntity
  8
RACCORDO
100
AcDbLine
 62
7
  6
CONTINUOUS
 10
0.7145445745
 20
-24.8816558629
 11
0.6979815289
 21
-24.9015121353
  0
LINE
  5
50F
100
AcDbEntity
  8
RACCORDO
100
AcDbLine
 62
7
  6
CONTINUOUS
 10
-0.6979815289
 20
-24.9015121353
 11
-0.7145445745
 21
-24.8816558629
  0
SPLINE
  5
510
100
AcDbEntity
  8
RACCORDO
100
AcDbSpline
 62
250
  6
CONTINUOUS
 70
0
 71
3
 72
9
 73
5
 74
0
 42
0.0000001
 43
0.0000001
 44
0.0000000001
 40
0.0
 40
0.0
 40
0.0
 40
0.0
 40
0.2486694725
 40
1.0
 40
1.0
 40
1.0
 40
1.0
 10
-2.5569823366
 20
25.9632765165
 30
0.0
 10
-2.5494622814
 20
25.8883759059
 30
0.0
 10
-2.5128455735
 20
25.5878913085
 30
0.0
 10
-2.4497994211
 20
25.2902516206
 30
0.0
 10
-2.3844131317
 20
25.0724104373
 30
0.0
  0
SPLINE
  5
511
100
AcDbEntity
  8
RACCORDO
100
AcDbSpline
 62
7
  6
CONTINUOUS
 70
0
 71
3
 72
11
 73
7
 74
0
 42
0.0000001
 43
0.0000001
 44
0.0000000001
 40
0.0
 40
0.0
 40
0.0
 40
0.0
 40
0.2945762014
 40
0.553461366
 40
0.7836102928
 40
1.0
 40
1.0
 40
1.0
 40
1.0
 10
-2.3842840223
 20
22.2530512831
 30
0.0
 10
-2.4147125281
 20
22.2530512831
 30
0.0
 10
-2.4726204293
 20
22.2387631845
 30
0.0
 10
-2.5380092457
 20
22.1877559662
 30
0.0
 10
-2.5756568959
 20
22.1235615154
 30
0.0
 10
-2.584079648
 20
22.077147822
 30
0.0
 10
-2.5842764069
 20
22.0547965243
 30
0.0
  0
SPLINE
  5
512
100
AcDbEntity
  8
RACCORDO
100
AcDbSpline
 62
250
  6
CONTINUOUS
 70
0
 71
3
 72
9
 73
5
 74
0
 42
0.0000001
 43
0.0000001
 44
0.0000000001
 40
0.0
 40
0.0
 40
0.0
 40
0.0
 40
0.5350554384
 40
1.0
 40
1.0
 40
1.0
 40
1.0
 10
-2.5504177152
 20
-20.339378637
 30
0.0
 10
-2.5607880102
 20
-20.3502159113
 30
0.0
 10
-2.5773869656
 20
-20.3736320097
 30
0.0
 10
-2.5839745313
 20
-20.4017304811
 30
0.0
 10
-2.5842764069
 20
-20.4147611598
 30
0.0
  0
SPLINE
  5
513
100
AcDbEntity
  8
RACCORDO
100
AcDbSpline
 62
250
  6
CONTINUOUS
 70
0
 71
3
 72
11
 73
7
 74
0
 42
0.0000001
 43
0.0000001
 44
0.0000000001
 40
0.0
 40
0.0
 40
0.0
 40
0.0
 40
0.2500838839
 40
0.5000875275
 40
0.7500397004
 40
1.0
 40
1.0
 40
1.0
 40
1.0
 10
-0.7906496833
 20
-20.890840908
 30
0.0
 10
-0.7906525111
 20
-20.9432088034
 30
0.0
 10
-0.811052533
 20
-21.0490338296
 30
0.0
 10
-0.8990378981
 20
-21.1838085374
 30
0.0
 10
-1.0318521464
 20
-21.2749145206
 30
0.0
 10
-1.1377167369
 20
-21.2964049597
 30
0.0
 10
-1.1900587528
 20
-21.2963960633
 30
0.0
  0
SPLINE
  5
514
100
AcDbEntity
  8
RACCORDO
100
AcDbSpline
 62
250
  6
CONTINUOUS
 70
0
 71
3
 72
11
 73
7
 74
0
 42
0.0000001
 43
0.0000001
 44
0.0000000001
 40
0.0
 40
0.0
 40
0.0
 40
0.0
 40
0.2499614894
 40
0.4999124113
 40
0.7499157274
 40
1.0
 40
1.0
 40
1.0
 40
1.0
 10
-1.1900587528
 20
21.3025135962
 30
0.0
 10
-1.1377164784
 20
21.3025212938
 30
0.0
 10
-1.0318518522
 20
21.2810322915
 30
0.0
 10
-0.8990380001
 20
21.1899256755
 30
0.0
 10
-0.8110514678
 20
21.0551517025
 30
0.0
 10
-0.7906534315
 20
20.9493264268
 30
0.0
 10
-0.7906496833
 20
20.8969584409
 30
0.0
  0
SPLINE
  5
515
100
AcDbEntity
  8
RACCORDO
100
AcDbSpline
 62
250
  6
CONTINUOUS
 70
0
 71
3
 72
11
 73
7
 74
0
 42
0.0000001
 43
0.0000001
 44
0.0000000001
 40
0.0
 40
0.0
 40
0.0
 40
0.0
 40
0.2500838839
 40
0.5000875275
 40
0.7500397004
 40
1.0
 40
1.0
 40
1.0
 40
1.0
 10
0.7906496833
 20
20.8969584409
 30
0.0
 10
0.7906525111
 20
20.9493263363
 30
0.0
 10
0.811052533
 20
21.0551513625
 30
0.0
 10
0.8990378981
 20
21.1899260704
 30
0.0
 10
1.0318521464
 20
21.2810320535
 30
0.0
 10
1.1377167369
 20
21.3025224927
 30
0.0
 10
1.1900587528
 20
21.3025135962
 30
0.0
  0
SPLINE
  5
516
100
AcDbEntity
  8
RACCORDO
100
AcDbSpline
 62
250
  6
CONTINUOUS
 70
0
 71
3
 72
11
 73
7
 74
0
 42
0.0000001
 43
0.0000001
 44
0.0000000001
 40
0.0
 40
0.0
 40
0.0
 40
0.0
 40
0.2499614894
 40
0.4999124113
 40
0.7499157274
 40
1.0
 40
1.0
 40
1.0
 40
1.0
 10
1.1900587528
 20
-21.2963960633
 30
0.0
 10
1.1377164784
 20
-21.2964037609
 30
0.0
 10
1.0318518522
 20
-21.2749147586
 30
0.0
 10
0.8990380001
 20
-21.1838081426
 30
0.0
 10
0.8110514678
 20
-21.0490341696
 30
0.0
 10
0.7906534315
 20
-20.9432088939
 30
0.0
 10
0.7906496833
 20
-20.890840908
 30
0.0
  0
SPLINE
  5
517
100
AcDbEntity
  8
RACCORDO
100
AcDbSpline
 62
250
  6
CONTINUOUS
 70
0
 71
3
 72
9
 73
5
 74
0
 42
0.0000001
 43
0.0000001
 44
0.0000000001
 40
0.0
 40
0.0
 40
0.0
 40
0.0
 40
0.2524698981
 40
1.0
 40
1.0
 40
1.0
 40
1.0
 10
-2.5512016687
 20
-20.2323163912
 30
0.0
 10
-2.556902277
 20
-20.2468970019
 30
0.0
 10
-2.5762022654
 20
-20.3059118846
 30
0.0
 10
-2.5840329779
 20
-20.3684082607
 30
0.0
 10
-2.5842764069
 20
-20.4147611598
 30
0.0
  0
SPLINE
  5
518
100
AcDbEntity
  8
RACCORDO
100
AcDbSpline
 62
250
  6
CONTINUOUS
 70
0
 71
3
 72
11
 73
7
 74
0
 42
0.0000001
 43
0.0000001
 44
0.0000000001
 40
0.0
 40
0.0
 40
0.0
 40
0.0
 40
0.2651152939
 40
0.5180745135
 40
0.7617042262
 40
1.0
 40
1.0
 40
1.0
 40
1.0
 10
-2.3844375238
 20
-20.0791600746
 30
0.0
 10
-2.4055291931
 20
-20.0794633431
 30
0.0
 10
-2.4469479368
 20
-20.0919550629
 30
0.0
 10
-2.4937816383
 20
-20.1318363003
 30
0.0
 10
-2.5278654474
 20
-20.1798238286
 30
0.0
 10
-2.5442982212
 20
-20.2146578955
 30
0.0
 10
-2.5512016687
 20
-20.2323163912
 30
0.0
  0
SPLINE
  5
519
100
AcDbEntity
  8
RACCORDO
100
AcDbSpline
 62
250
  6
CONTINUOUS
 70
0
 71
3
 72
11
 73
7
 74
0
 42
0.0000001
 43
0.0000001
 44
0.0000000001
 40
0.0
 40
0.0
 40
0.0
 40
0.0
 40
0.1206965478
 40
0.3473696285
 40
0.6527448626
 40
1.0
 40
1.0
 40
1.0
 40
1.0
 10
-2.3810379762
 20
-20.2760828579
 30
0.0
 10
-2.3818505314
 20
-20.2681988735
 30
0.0
 10
-2.3821020799
 20
-20.2453492635
 30
0.0
 10
-2.383033837
 20
-20.2025226405
 30
0.0
 10
-2.3835929277
 20
-20.1447717536
 30
0.0
 10
-2.3841171596
 20
-20.1019221616
 30
0.0
 10
-2.3844376013
 20
-20.0791213073
 30
0.0
  0
SPLINE
  5
51A
100
AcDbEntity
  8
RACCORDO
100
AcDbSpline
 62
250
  6
CONTINUOUS
 70
0
 71
3
 72
11
 73
7
 74
0
 42
0.0000001
 43
0.0000001
 44
0.0000000001
 40
0.0
 40
0.0
 40
0.0
 40
0.0
 40
0.238292813
 40
0.4820065518
 40
0.7350791606
 40
1.0
 40
1.0
 40
1.0
 40
1.0
 10
-2.5512023547
 20
20.2384358103
 30
0.0
 10
-2.5443024411
 20
20.2207753591
 30
0.0
 10
-2.5278591079
 20
20.1859365065
 30
0.0
 10
-2.4937625507
 20
20.1379378462
 30
0.0
 10
-2.4469229372
 20
20.0980541333
 30
0.0
 10
-2.4055070097
 20
20.0855792007
 30
0.0
 10
-2.384429964
 20
20.0852754431
 30
0.0
  0
SPLINE
  5
51B
100
AcDbEntity
  8
RACCORDO
100
AcDbSpline
 62
250
  6
CONTINUOUS
 70
0
 71
3
 72
11
 73
7
 74
0
 42
0.0000001
 43
0.0000001
 44
0.0000000001
 40
0.0
 40
0.0
 40
0.0
 40
0.0
 40
0.347256292
 40
0.6526326061
 40
0.8793061994
 40
1.0
 40
1.0
 40
1.0
 40
1.0
 10
-2.3844300518
 20
20.0852388402
 30
0.0
 10
-2.3841085089
 20
20.1080396373
 30
0.0
 10
-2.3835850068
 20
20.1508892968
 30
0.0
 10
-2.3830286873
 20
20.2086396176
 30
0.0
 10
-2.382110751
 20
20.2514672304
 30
0.0
 10
-2.3818628839
 20
20.2743151332
 30
0.0
 10
-2.3810649727
 20
20.2822003908
 30
0.0
  0
SPLINE
  5
51C
100
AcDbEntity
  8
RACCORDO
100
AcDbSpline
 62
250
  6
CONTINUOUS
 70
0
 71
3
 72
9
 73
5
 74
0
 42
0.0000001
 43
0.0000001
 44
0.0000000001
 40
0.0
 40
0.0
 40
0.0
 40
0.0
 40
0.4649630311
 40
1.0
 40
1.0
 40
1.0
 40
1.0
 10
-2.5842764069
 20
20.4208786927
 30
0.0
 10
-2.5839739403
 20
20.4078476202
 30
0.0
 10
-2.5773887358
 20
20.3797487291
 30
0.0
 10
-2.5607876997
 20
20.3563342336
 30
0.0
 10
-2.550418419
 20
20.3454968813
 30
0.0
  0
SPLINE
  5
51D
100
AcDbEntity
  8
RACCORDO
100
AcDbSpline
 62
250
  6
CONTINUOUS
 70
0
 71
3
 72
9
 73
5
 74
0
 42
0.0000001
 43
0.0000001
 44
0.0000000001
 40
0.0
 40
0.0
 40
0.0
 40
0.0
 40
0.249160949
 40
1.0
 40
1.0
 40
1.0
 40
1.0
 10
-2.5842764069
 20
20.4208786927
 30
0.0
 10
-2.5841950734
 20
20.4054342416
 30
0.0
 10
-2.5813243645
 20
20.3435273708
 30
0.0
 10
-2.5681534588
 20
20.281781181
 30
0.0
 10
-2.5512023547
 20
20.2384358103
 30
0.0
  0
LINE
  5
51E
100
AcDbEntity
  8
RACCORDO
100
AcDbLine
 62
250
  6
CONTINUOUS
 10
-2.6
 20
4.9308749585
 11
-2.5842764069
 21
4.9331677209
  0
LINE
  5
51F
100
AcDbEntity
  8
RACCORDO
100
AcDbLine
 62
250
  6
CONTINUOUS
 10
-2.5842764069
 20
-1.927050188
 11
-2.6
 21
-1.9247574255
  0
SPLINE
  5
520
100
AcDbEntity
  8
RACCORDO
100
AcDbSpline
 62
7
  6
CONTINUOUS
 70
0
 71
3
 72
9
 73
5
 74
0
 42
0.0000001
 43
0.0000001
 44
0.0000000001
 40
0.0
 40
0.0
 40
0.0
 40
0.0
 40
0.7475789666
 40
1.0
 40
1.0
 40
1.0
 40
1.0
 10
-1.0764133766
 20
-27.9083090958
 30
0.0
 10
-1.0722038124
 20
-27.8927042099
 30
0.0
 10
-1.0668343982
 20
-27.8717570937
 30
0.0
 10
-1.0619347211
 20
-27.8506991382
 30
0.0
 10
-1.0607314143
 20
-27.8453760937
 30
0.0
  0
SPLINE
  5
521
100
AcDbEntity
  8
RACCORDO
100
AcDbSpline
 62
7
  6
CONTINUOUS
 70
0
 71
3
 72
9
 73
5
 74
0
 42
0.0000001
 43
0.0000001
 44
0.0000000001
 40
0.0
 40
0.0
 40
0.0
 40
0.0
 40
0.7475789666
 40
1.0
 40
1.0
 40
1.0
 40
1.0
 10
-1.4113678623
 20
-27.5733546102
 30
0.0
 10
-1.3957629763
 20
-27.569145046
 30
0.0
 10
-1.3748158601
 20
-27.5637756317
 30
0.0
 10
-1.3537579046
 20
-27.5588759546
 30
0.0
 10
-1.3484348601
 20
-27.5576726479
 30
0.0
  0
SPLINE
  5
522
100
AcDbEntity
  8
RACCORDO
100
AcDbSpline
 62
7
  6
CONTINUOUS
 70
0
 71
3
 72
9
 73
5
 74
0
 42
0.0000001
 43
0.0000001
 44
0.0000000001
 40
0.0
 40
0.0
 40
0.0
 40
0.0
 40
0.7475789666
 40
1.0
 40
1.0
 40
1.0
 40
1.0
 10
1.0764133766
 20
-27.9083090958
 30
0.0
 10
1.0722038124
 20
-27.8927042099
 30
0.0
 10
1.0668343982
 20
-27.8717570937
 30
0.0
 10
1.0619347211
 20
-27.8506991382
 30
0.0
 10
1.0607314143
 20
-27.8453760937
 30
0.0
  0
SPLINE
  5
523
100
AcDbEntity
  8
RACCORDO
100
AcDbSpline
 62
7
  6
CONTINUOUS
 70
0
 71
3
 72
9
 73
5
 74
0
 42
0.0000001
 43
0.0000001
 44
0.0000000001
 40
0.0
 40
0.0
 40
0.0
 40
0.0
 40
0.7475789666
 40
1.0
 40
1.0
 40
1.0
 40
1.0
 10
1.4113678623
 20
-27.5733546102
 30
0.0
 10
1.3957629763
 20
-27.569145046
 30
0.0
 10
1.3748158601
 20
-27.5637756317
 30
0.0
 10
1.3537579046
 20
-27.5588759546
 30
0.0
 10
1.3484348601
 20
-27.5576726479
 30
0.0
  0
SPLINE
  5
524
100
AcDbEntity
  8
RACCORDO
100
AcDbSpline
 62
250
  6
CONTINUOUS
 70
0
 71
3
 72
9
 73
5
 74
0
 42
0.0000001
 43
0.0000001
 44
0.0000000001
 40
0.0
 40
0.0
 40
0.0
 40
0.0
 40
0.2510652585
 40
1.0
 40
1.0
 40
1.0
 40
1.0
 10
2.3842840223
 20
25.0719453359
 30
0.0
 10
2.3972828072
 20
25.1230603034
 30
0.0
 10
2.4473701955
 20
25.3270669103
 30
0.0
 10
2.4893754287
 20
25.5331455875
 30
0.0
 10
2.5143838845
 20
25.6884758463
 30
0.0
  0
LINE
  5
525
100
AcDbEntity
  8
RACCORDO
100
AcDbLine
 62
250
  6
CONTINUOUS
 10
2.6
 20
-1.9247574255
 11
2.5842764069
 21
-1.927050188
  0
LINE
  5
526
100
AcDbEntity
  8
RACCORDO
100
AcDbLine
 62
250
  6
CONTINUOUS
 10
2.5842764069
 20
4.9331677209
 11
2.6
 21
4.9308749585
  0
SPLINE
  5
527
100
AcDbEntity
  8
RACCORDO
100
AcDbSpline
 62
7
  6
CONTINUOUS
 70
0
 71
3
 72
20
 73
16
 74
0
 42
0.0000001
 43
0.0000001
 44
0.0000000001
 40
0.0
 40
0.0
 40
0.0
 40
0.0
 40
0.0016447051
 40
0.0059375733
 40
0.0128623806
 40
0.022364318
 40
0.048859819
 40
0.0849371603
 40
0.1300607481
 40
0.1834977849
 40
0.3121728313
 40
0.4646515657
 40
0.6344118791
 40
0.814950041
 40
1.0
 40
1.0
 40
1.0
 40
1.0
 10
-1.4585944117
 20
-22.2050370371
 30
0.0
 10
-1.4585075857
 20
-22.2049524355
 30
0.0
 10
-1.4587681042
 20
-22.2044332575
 30
0.0
 10
-1.458961513
 20
-22.2036264256
 30
0.0
 10
-1.4595996934
 20
-22.2021629391
 30
0.0
 10
-1.4607758887
 20
-22.1992695904
 30
0.0
 10
-1.462896002
 20
-22.1943661932
 30
0.0
 10
-1.4659964752
 20
-22.1870736153
 30
0.0
 10
-1.4698539512
 20
-22.1779245443
 30
0.0
 10
-1.4763675244
 20
-22.1624964223
 30
0.0
 10
-1.4861147454
 20
-22.1398400636
 30
0.0
 10
-1.4997515422
 20
-22.1095292211
 30
0.0
 10
-1.5155862928
 20
-22.0760207717
 30
0.0
 10
-1.5332487315
 20
-22.0407310713
 30
0.0
 10
-1.5459557456
 20
-22.0169628156
 30
0.0
 10
-1.5525887995
 20
-22.0050446525
 30
0.0
  0
SPLINE
  5
528
100
AcDbEntity
  8
RACCORDO
100
AcDbSpline
 62
250
  6
CONTINUOUS
 70
0
 71
3
 72
8
 73
4
 74
0
 42
0.0000001
 43
0.0000001
 44
0.0000000001
 40
0.0
 40
0.0
 40
0.0
 40
0.0
 40
1.0
 40
1.0
 40
1.0
 40
1.0
 10
-1.2308085066
 20
-23.8029689395
 30
0.0
 10
-1.2308050447
 20
-23.8531783422
 30
0.0
 10
-1.2210268558
 20
-23.9042571378
 30
0.0
 10
-1.2024502208
 20
-23.9509036036
 30
0.0
  0
SPLINE
  5
529
100
AcDbEntity
  8
RACCORDO
100
AcDbSpline
 62
7
  6
CONTINUOUS
 70
0
 71
3
 72
20
 73
16
 74
0
 42
0.0000001
 43
0.0000001
 44
0.0000000001
 40
0.0
 40
0.0
 40
0.0
 40
0.0
 40
0.0016452982
 40
0.0059395294
 40
0.012866176
 40
0.0223701589
 40
0.0488692816
 40
0.0849477684
 40
0.1300703853
 40
0.1835061984
 40
0.3121760966
 40
0.4646451404
 40
0.6343997578
 40
0.8149439696
 40
1.0
 40
1.0
 40
1.0
 40
1.0
 10
-2.1564981171
 20
-22.2050370371
 30
0.0
 10
-2.1565849744
 20
-22.204952405
 30
0.0
 10
-2.1563244834
 20
-22.2044330463
 30
0.0
 10
-2.1561312191
 20
-22.203625882
 30
0.0
 10
-2.155493175
 20
-22.2021619173
 30
0.0
 10
-2.1543172296
 20
-22.1992678633
 30
0.0
 10
-2.1521972998
 20
-22.1943638423
 30
0.0
 10
-2.1490963034
 20
-22.1870711798
 30
0.0
 10
-2.1452381104
 20
-22.1779224939
 30
0.0
 10
-2.1387244102
 20
-22.1624950094
 30
0.0
 10
-2.1289776242
 20
-22.1398397493
 30
0.0
 10
-2.1153414875
 20
-22.1095302615
 30
0.0
 10
-2.0995069277
 20
-22.0760224747
 30
0.0
 10
-2.0818442992
 20
-22.0407323338
 30
0.0
 10
-2.0691370021
 20
-22.0169632089
 30
0.0
 10
-2.0625037293
 20
-22.0050446525
 30
0.0
  0
SPLINE
  5
52A
100
AcDbEntity
  8
RACCORDO
100
AcDbSpline
 62
7
  6
CONTINUOUS
 70
0
 71
3
 72
20
 73
16
 74
0
 42
0.0000001
 43
0.0000001
 44
0.0000000001
 40
0.0
 40
0.0
 40
0.0
 40
0.0
 40
0.0016447051
 40
0.0059375733
 40
0.0128623806
 40
0.022364318
 40
0.048859819
 40
0.0849371603
 40
0.1300607481
 40
0.1834977849
 40
0.3121728313
 40
0.4646515657
 40
0.6344118791
 40
0.814950041
 40
1.0
 40
1.0
 40
1.0
 40
1.0
 10
-2.1564981171
 20
22.21115457
 30
0.0
 10
-2.1565849431
 20
22.2110699685
 30
0.0
 10
-2.1563244247
 20
22.2105507905
 30
0.0
 10
-2.1561310158
 20
22.2097439585
 30
0.0
 10
-2.1554928354
 20
22.208280472
 30
0.0
 10
-2.1543166401
 20
22.2053871233
 30
0.0
 10
-2.1521965268
 20
22.2004837261
 30
0.0
 10
-2.1490960536
 20
22.1931911482
 30
0.0
 10
-2.1452385776
 20
22.1840420772
 30
0.0
 10
-2.1387250045
 20
22.1686139552
 30
0.0
 10
-2.1289777834
 20
22.1459575966
 30
0.0
 10
-2.1153409866
 20
22.115646754
 30
0.0
 10
-2.099506236
 20
22.0821383046
 30
0.0
 10
-2.0818437973
 20
22.0468486042
 30
0.0
 10
-2.0691367832
 20
22.0230803485
 30
0.0
 10
-2.0625037293
 20
22.0111621854
 30
0.0
  0
SPLINE
  5
52B
100
AcDbEntity
  8
RACCORDO
100
AcDbSpline
 62
7
  6
CONTINUOUS
 70
0
 71
3
 72
20
 73
16
 74
0
 42
0.0000001
 43
0.0000001
 44
0.0000000001
 40
0.0
 40
0.0
 40
0.0
 40
0.0
 40
0.0016452982
 40
0.0059395294
 40
0.012866176
 40
0.0223701589
 40
0.0488692816
 40
0.0849477684
 40
0.1300703853
 40
0.1835061984
 40
0.3121760966
 40
0.4646451404
 40
0.6343997578
 40
0.8149439696
 40
1.0
 40
1.0
 40
1.0
 40
1.0
 10
-1.4585944117
 20
22.21115457
 30
0.0
 10
-1.4585075544
 20
22.2110699379
 30
0.0
 10
-1.4587680455
 20
22.2105505792
 30
0.0
 10
-1.4589613097
 20
22.209743415
 30
0.0
 10
-1.4595993538
 20
22.2082794502
 30
0.0
 10
-1.4607752992
 20
22.2053853963
 30
0.0
 10
-1.4628952291
 20
22.2004813752
 30
0.0
 10
-1.4659962254
 20
22.1931887127
 30
0.0
 10
-1.4698544184
 20
22.1840400269
 30
0.0
 10
-1.4763681186
 20
22.1686125423
 30
0.0
 10
-1.4861149047
 20
22.1459572823
 30
0.0
 10
-1.4997510414
 20
22.1156477944
 30
0.0
 10
-1.5155856012
 20
22.0821400076
 30
0.0
 10
-1.5332482297
 20
22.0468498667
 30
0.0
 10
-1.5459555267
 20
22.0230807419
 30
0.0
 10
-1.5525887995
 20
22.0111621854
 30
0.0
  0
SPLINE
  5
52C
100
AcDbEntity
  8
RACCORDO
100
AcDbSpline
 62
7
  6
CONTINUOUS
 70
0
 71
3
 72
8
 73
4
 74
0
 42
0.0000001
 43
0.0000001
 44
0.0000000001
 40
0.0
 40
0.0
 40
0.0
 40
0.0
 40
1.0
 40
1.0
 40
1.0
 40
1.0
 10
-22.0204571698
 20
-24.2838992897
 30
0.0
 10
-22.0256578155
 20
-24.2334700712
 30
0.0
 10
-22.0413064667
 20
-24.1830627645
 30
0.0
 10
-22.066006756
 20
-24.1387903295
 30
0.0
  0
SPLINE
  5
52D
100
AcDbEntity
  8
RACCORDO
100
AcDbSpline
 62
7
  6
CONTINUOUS
 70
0
 71
3
 72
9
 73
5
 74
0
 42
0.0000001
 43
0.0000001
 44
0.0000000001
 40
0.0
 40
0.0
 40
0.0
 40
0.0
 40
0.5000647446
 40
1.0
 40
1.0
 40
1.0
 40
1.0
 10
-22.066006756
 20
-24.1387903295
 30
0.0
 10
-22.0849212424
 20
-24.1048882823
 30
0.0
 10
-22.1338916874
 20
-24.042689075
 30
0.0
 10
-22.2005914113
 20
-23.9997790365
 30
0.0
 10
-22.236312722
 20
-23.9846029321
 30
0.0
  0
SPLINE
  5
52E
100
AcDbEntity
  8
RACCORDO
100
AcDbSpline
 62
7
  6
CONTINUOUS
 70
0
 71
3
 72
8
 73
4
 74
0
 42
0.0000001
 43
0.0000001
 44
0.0000000001
 40
0.0
 40
0.0
 40
0.0
 40
0.0
 40
1.0
 40
1.0
 40
1.0
 40
1.0
 10
-22.236312722
 20
-23.9846029321
 30
0.0
 10
-22.2767683888
 20
-23.9674154489
 30
0.0
 10
-22.3214204239
 20
-23.9580152644
 30
0.0
 10
-22.3653732561
 20
-23.9575471836
 30
0.0
  0
SPLINE
  5
52F
100
AcDbEntity
  8
RACCORDO
100
AcDbSpline
 62
7
  6
CONTINUOUS
 70
0
 71
3
 72
10
 73
6
 74
0
 42
0.0000001
 43
0.0000001
 44
0.0000000001
 40
0.0
 40
0.0
 40
0.0
 40
0.0
 40
0.6450619419
 40
0.8937585694
 40
1.0
 40
1.0
 40
1.0
 40
1.0
 10
-20.3201728506
 20
22.0547965243
 30
0.0
 10
-20.3629870825
 20
22.0972403826
 30
0.0
 10
-20.4221188303
 20
22.1562355404
 30
0.0
 10
-20.4884263046
 20
22.2221045848
 30
0.0
 10
-20.5115566286
 20
22.2458823476
 30
0.0
 10
-20.5184275435
 20
22.2530512831
 30
0.0
  0
SPLINE
  5
530
100
AcDbEntity
  8
RACCORDO
100
AcDbSpline
 62
250
  6
CONTINUOUS
 70
0
 71
3
 72
18
 73
14
 74
0
 42
0.0000001
 43
0.0000001
 44
0.0000000001
 40
0.0
 40
0.0
 40
0.0
 40
0.0
 40
0.0050788476
 40
0.0195235842
 40
0.0433051244
 40
0.0762661125
 40
0.1181752272
 40
0.1685598136
 40
0.2926217209
 40
0.4439106122
 40
0.6168005844
 40
0.8049199294
 40
1.0
 40
1.0
 40
1.0
 40
1.0
 10
-20.5184275435
 20
-23.6812327768
 30
0.0
 10
-20.518427543
 20
-23.6808969937
 30
0.0
 10
-20.5203970774
 20
-23.6809896153
 30
0.0
 10
-20.522605083
 20
-23.6804934683
 30
0.0
 10
-20.5276697655
 20
-23.6804401721
 30
0.0
 10
-20.5340311321
 20
-23.6801761317
 30
0.0
 10
-20.5423703979
 20
-23.6800155565
 30
0.0
 10
-20.5566444971
 20
-23.6797472395
 30
0.0
 10
-20.5781957318
 20
-23.6794639774
 30
0.0
 10
-20.6078216669
 20
-23.6791228537
 30
0.0
 10
-20.6416921215
 20
-23.6787556243
 30
0.0
 10
-20.6784542715
 20
-23.6783321129
 30
0.0
 10
-20.703786693
 20
-23.6779609893
 30
0.0
 10
-20.7166822364
 20
-23.6777345789
 30
0.0
  0
SPLINE
  5
531
100
AcDbEntity
  8
RACCORDO
100
AcDbSpline
 62
250
  6
CONTINUOUS
 70
0
 71
3
 72
9
 73
5
 74
0
 42
0.0000001
 43
0.0000001
 44
0.0000000001
 40
0.0
 40
0.0
 40
0.0
 40
0.0
 40
0.7491438708
 40
1.0
 40
1.0
 40
1.0
 40
1.0
 10
-20.3201728506
 20
-23.8812176405
 30
0.0
 10
-20.3650959004
 20
-23.8808283837
 30
0.0
 10
-20.4252470733
 20
-23.875304101
 30
0.0
 10
-20.483813756
 20
-23.8622757745
 30
0.0
 10
-20.498369479
 20
-23.8584765921
 30
0.0
  0
SPLINE
  5
532
100
AcDbEntity
  8
RACCORDO
100
AcDbSpline
 62
7
  6
CONTINUOUS
 70
0
 71
3
 72
8
 73
4
 74
0
 42
0.0000001
 43
0.0000001
 44
0.0000000001
 40
0.0
 40
0.0
 40
0.0
 40
0.0
 40
1.0
 40
1.0
 40
1.0
 40
1.0
 10
-18.5184275435
 20
-27.5733546102
 30
0.0
 10
-20.7856751701
 20
-27.5677873832
 30
0.0
 10
-23.0529235371
 20
-27.5625042374
 30
0.0
 10
-25.3201728506
 20
-27.5576726479
 30
0.0
  0
SPLINE
  5
533
100
AcDbEntity
  8
RACCORDO
100
AcDbSpline
 62
7
  6
CONTINUOUS
 70
0
 71
3
 72
8
 73
4
 74
0
 42
0.0000001
 43
0.0000001
 44
0.0000000001
 40
0.0
 40
0.0
 40
0.0
 40
0.0
 40
1.0
 40
1.0
 40
1.0
 40
1.0
 10
-19.5184275435
 20
-25.422963972
 30
0.0
 10
-21.4523420404
 20
-25.4276369574
 30
0.0
 10
-23.3862570993
 20
-25.4320885754
 30
0.0
 10
-25.3201728506
 20
-25.4362098192
 30
0.0
  0
SPLINE
  5
534
100
AcDbEntity
  8
RACCORDO
100
AcDbSpline
 62
7
  6
CONTINUOUS
 70
0
 71
3
 72
10
 73
6
 74
0
 42
0.0000001
 43
0.0000001
 44
0.0000000001
 40
0.0
 40
0.0
 40
0.0
 40
0.0
 40
0.1062405242
 40
0.3549351339
 40
1.0
 40
1.0
 40
1.0
 40
1.0
 10
-20.5184275435
 20
-22.2469337502
 30
0.0
 10
-20.5115566682
 20
-22.2397648945
 30
0.0
 10
-20.4884265072
 20
-22.2159873544
 30
0.0
 10
-20.4221191642
 20
-22.15011818
 30
0.0
 10
-20.3629872765
 20
-22.091123042
 30
0.0
 10
-20.3201728506
 20
-22.0486789914
 30
0.0
  0
LINE
  5
535
100
AcDbEntity
  8
RACCORDO
100
AcDbLine
 62
250
  6
CONTINUOUS
 10
-18.5184275435
 20
-1.9247574255
 11
-20.3201728506
 21
-1.927050188
  0
SPLINE
  5
536
100
AcDbEntity
  8
RACCORDO
100
AcDbSpline
 62
7
  6
CONTINUOUS
 70
0
 71
3
 72
14
 73
10
 74
0
 42
0.0000001
 43
0.0000001
 44
0.0000000001
 40
0.0
 40
0.0
 40
0.0
 40
0.0
 40
0.1326794477
 40
0.2264066854
 40
0.2998425484
 40
0.3790919165
 40
0.4834174075
 40
0.6203985591
 40
1.0
 40
1.0
 40
1.0
 40
1.0
 10
-25.5181565805
 20
-27.540280836
 30
0.0
 10
-25.5180306457
 20
-27.5380286119
 30
0.0
 10
-25.5177042221
 20
-27.5342005517
 30
0.0
 10
-25.5163946922
 20
-27.5291763482
 30
0.0
 10
-25.5134316346
 20
-27.5259100406
 30
0.0
 10
-25.5090244916
 20
-27.5248379226
 30
0.0
 10
-25.5035740477
 20
-27.5250910163
 30
0.0
 10
-25.4931443596
 20
-27.5268385508
 30
0.0
 10
-25.4846278891
 20
-27.5289959386
 30
0.0
 10
-25.4783571035
 20
-27.530521859
 30
0.0
  0
SPLINE
  5
537
100
AcDbEntity
  8
RACCORDO
100
AcDbSpline
 62
7
  6
CONTINUOUS
 70
0
 71
3
 72
9
 73
5
 74
0
 42
0.0000001
 43
0.0000001
 44
0.0000000001
 40
0.0
 40
0.0
 40
0.0
 40
0.0
 40
0.4317128861
 40
1.0
 40
1.0
 40
1.0
 40
1.0
 10
-25.4783571035
 20
-27.530521859
 30
0.0
 10
-25.4586663442
 20
-27.5353133688
 30
0.0
 10
-25.4129169096
 20
-27.5459219861
 30
0.0
 10
-25.3664627725
 20
-27.5530387702
 30
0.0
 10
-25.3399983199
 20
-27.5563947065
 30
0.0
  0
LINE
  5
538
100
AcDbEntity
  8
RACCORDO
100
AcDbLine
 62
250
  6
CONTINUOUS
 10
-20.3201728506
 20
4.9331677209
 11
-18.5184275435
 21
4.9308749585
  0
SPLINE
  5
539
100
AcDbEntity
  8
RACCORDO
100
AcDbSpline
 62
250
  6
CONTINUOUS
 70
0
 71
3
 72
9
 73
5
 74
0
 42
0.0000001
 43
0.0000001
 44
0.0000000001
 40
0.0
 40
0.0
 40
0.0
 40
0.0
 40
0.4998174642
 40
1.0
 40
1.0
 40
1.0
 40
1.0
 10
-20.3201728506
 20
25.0719453359
 30
0.0
 10
-20.3201678964
 20
25.1857720704
 30
0.0
 10
-20.3454447264
 20
25.4135945522
 30
0.0
 10
-20.4014148816
 20
25.6347027026
 30
0.0
 10
-20.4340381676
 20
25.7438410587
 30
0.0
  0
LINE
  5
53A
100
AcDbEntity
  8
RACCORDO
100
AcDbLine
 62
250
  6
CONTINUOUS
 10
-20.518435437
 20
20.34549617
 11
-20.3201728506
 21
20.4208786927
  0
SPLINE
  5
53B
100
AcDbEntity
  8
RACCORDO
100
AcDbSpline
 62
250
  6
CONTINUOUS
 70
0
 71
3
 72
17
 73
13
 74
0
 42
0.0000001
 43
0.0000001
 44
0.0000000001
 40
0.0
 40
0.0
 40
0.0
 40
0.0
 40
0.0085272864
 40
0.0306996782
 40
0.0649273348
 40
0.1094828947
 40
0.1624981567
 40
0.2222078417
 40
0.356858456
 40
0.5057900232
 40
0.6643945046
 40
1.0
 40
1.0
 40
1.0
 40
1.0
 10
-20.5184274846
 20
20.0852776075
 30
0.0
 10
-20.5184140255
 20
20.0857821293
 30
0.0
 10
-20.5171528434
 20
20.0873021397
 30
0.0
 10
-20.5156250402
 20
20.0907257386
 30
0.0
 10
-20.5124714643
 20
20.095872554
 30
0.0
 10
-20.5086322967
 20
20.1026363037
 30
0.0
 10
-20.5039199071
 20
20.1106739706
 30
0.0
 10
-20.4965440479
 20
20.1233177701
 30
0.0
 10
-20.4862578132
 20
20.1408421947
 30
0.0
 10
-20.4729760416
 20
20.1633922988
 30
0.0
 10
-20.4536268435
 20
20.1961734181
 30
0.0
 10
-20.438724753
 20
20.2213432578
 30
0.0
 10
-20.4286024015
 20
20.2384339241
 30
0.0
  0
SPLINE
  5
53C
100
AcDbEntity
  8
RACCORDO
100
AcDbSpline
 62
250
  6
CONTINUOUS
 70
0
 71
3
 72
17
 73
13
 74
0
 42
0.0000001
 43
0.0000001
 44
0.0000000001
 40
0.0
 40
0.0
 40
0.0
 40
0.0
 40
0.3356082807
 40
0.4942788095
 40
0.6432435613
 40
0.7779682354
 40
0.8376633855
 40
0.8906782692
 40
0.9352138722
 40
0.9693964727
 40
0.9915052354
 40
1.0
 40
1.0
 40
1.0
 40
1.0
 10
-20.4286013621
 20
-20.2323182774
 30
0.0
 10
-20.4387219241
 20
-20.2152258391
 30
0.0
 10
-20.4536271638
 20
-20.1900523699
 30
0.0
 10
-20.4729884409
 20
-20.1572703685
 30
0.0
 10
-20.4862714765
 20
-20.1347084215
 30
0.0
 10
-20.4965574116
 20
-20.1171769155
 30
0.0
 10
-20.5039348702
 20
-20.1045296409
 30
0.0
 10
-20.5086452698
 20
-20.0964928949
 30
0.0
 10
-20.512481098
 20
-20.0897316492
 30
0.0
 10
-20.5156315544
 20
-20.0845913361
 30
0.0
 10
-20.5171560877
 20
-20.0811758278
 30
0.0
 10
-20.5184147706
 20
-20.079660537
 30
0.0
 10
-20.5184274903
 20
-20.0791579102
 30
0.0
  0
LINE
  5
53D
100
AcDbEntity
  8
RACCORDO
100
AcDbLine
 62
250
  6
CONTINUOUS
 10
-20.3201728506
 20
-20.4147611598
 11
-20.5184333789
 21
-20.3393793484
  0
LINE
  5
53E
100
AcDbEntity
  8
RACCORDO
100
AcDbLine
 62
250
  6
CONTINUOUS
 10
-20.7166822364
 20
24.0094657022
 11
-25.3201728506
 21
24.0345695198
  0
SPLINE
  5
53F
100
AcDbEntity
  8
RACCORDO
100
AcDbSpline
 62
250
  6
CONTINUOUS
 70
0
 71
3
 72
13
 73
9
 74
0
 42
0.0000001
 43
0.0000001
 44
0.0000000001
 40
0.0
 40
0.0
 40
0.0
 40
0.0
 40
0.1230064449
 40
0.2196639324
 40
0.3409584306
 40
0.484398347
 40
0.6458182689
 40
1.0
 40
1.0
 40
1.0
 40
1.0
 10
-20.5184275435
 20
4.419340975
 30
0.0
 10
-20.5184275435
 20
4.4105275485
 30
0.0
 10
-20.5050909654
 20
4.3971028595
 30
0.0
 10
-20.4837900461
 20
4.3867326202
 30
0.0
 10
-20.4590129101
 20
4.3781933956
 30
0.0
 10
-20.4292850756
 20
4.3714156819
 30
0.0
 10
-20.3825411888
 20
4.3643094301
 30
0.0
 10
-20.3455499353
 20
4.3623123355
 30
0.0
 10
-20.3201728506
 20
4.3622491144
 30
0.0
  0
SPLINE
  5
540
100
AcDbEntity
  8
RACCORDO
100
AcDbSpline
 62
250
  6
CONTINUOUS
 70
0
 71
3
 72
13
 73
9
 74
0
 42
0.0000001
 43
0.0000001
 44
0.0000000001
 40
0.0
 40
0.0
 40
0.0
 40
0.0
 40
0.1230064651
 40
0.2196639652
 40
0.3409584738
 40
0.4843983898
 40
0.645818298
 40
1.0
 40
1.0
 40
1.0
 40
1.0
 10
-20.5184275435
 20
-1.4132234421
 30
0.0
 10
-20.5184275435
 20
-1.4044100141
 30
0.0
 10
-20.5050909618
 20
-1.3909853242
 30
0.0
 10
-20.48379004
 20
-1.3806150836
 30
0.0
 10
-20.4590129019
 20
-1.3720758599
 30
0.0
 10
-20.4292850676
 20
-1.365298147
 30
0.0
 10
-20.3825411837
 20
-1.3581918962
 30
0.0
 10
-20.3455499332
 20
-1.3561948023
 30
0.0
 10
-20.3201728506
 20
-1.3561315814
 30
0.0
  0
SPLINE
  5
541
100
AcDbEntity
  8
RACCORDO
100
AcDbSpline
 62
250
  6
CONTINUOUS
 70
0
 71
3
 72
9
 73
5
 74
0
 42
0.0000001
 43
0.0000001
 44
0.0000000001
 40
0.0
 40
0.0
 40
0.0
 40
0.0
 40
0.4973159453
 40
1.0
 40
1.0
 40
1.0
 40
1.0
 10
-20.5184275435
 20
25.0719453359
 30
0.0
 10
-20.5184260599
 20
25.1840387671
 30
0.0
 10
-20.5342245284
 20
25.409370995
 30
0.0
 10
-20.5647012853
 20
25.6327119158
 30
0.0
 10
-20.5819069803
 20
25.7447012962
 30
0.0
  0
SPLINE
  5
542
100
AcDbEntity
  8
RACCORDO
100
AcDbSpline
 62
250
  6
CONTINUOUS
 70
0
 71
3
 72
11
 73
7
 74
0
 42
0.0000001
 43
0.0000001
 44
0.0000000001
 40
0.0
 40
0.0
 40
0.0
 40
0.0
 40
0.2373711162
 40
0.4823013135
 40
0.7375793128
 40
1.0
 40
1.0
 40
1.0
 40
1.0
 10
-20.5184275435
 20
24.0094657022
 30
0.0
 10
-20.5184275435
 20
24.0327699139
 30
0.0
 10
-20.5291524125
 20
24.0807002426
 30
0.0
 10
-20.5739752277
 20
24.1400362712
 30
0.0
 10
-20.6396964658
 20
24.1792888823
 30
0.0
 10
-20.69091954
 20
24.1886002929
 30
0.0
 10
-20.7166822364
 20
24.1888018993
 30
0.0
  0
SPLINE
  5
543
100
AcDbEntity
  8
RACCORDO
100
AcDbSpline
 62
250
  6
CONTINUOUS
 70
0
 71
3
 72
11
 73
7
 74
0
 42
0.0000001
 43
0.0000001
 44
0.0000000001
 40
0.0
 40
0.0
 40
0.0
 40
0.0
 40
0.2378823708
 40
0.4830058737
 40
0.738061366
 40
1.0
 40
1.0
 40
1.0
 40
1.0
 10
-25.5184275435
 20
24.3948309897
 30
0.0
 10
-25.5184275435
 20
24.3714285888
 30
0.0
 10
-25.507722954
 20
24.3233318449
 30
0.0
 10
-25.4629323588
 20
24.2637256044
 30
0.0
 10
-25.3972022034
 20
24.22426584
 30
0.0
 10
-25.3459410635
 20
24.2149000014
 30
0.0
 10
-25.3201728506
 20
24.2146974547
 30
0.0
  0
LINE
  5
544
100
AcDbEntity
  8
RACCORDO
100
AcDbLine
 62
7
  6
CONTINUOUS
 10
-19.5184275435
 20
-24.8816558629
 11
-22.3653732561
 21
-24.9015121353
  0
SPLINE
  5
545
100
AcDbEntity
  8
RACCORDO
100
AcDbSpline
 62
250
  6
CONTINUOUS
 70
0
 71
3
 72
18
 73
14
 74
0
 42
0.0000001
 43
0.0000001
 44
0.0000000001
 40
0.0
 40
0.0
 40
0.0
 40
0.0
 40
0.1950185376
 40
0.3825381043
 40
0.5553878507
 40
0.7069128365
 40
0.8312907166
 40
0.8817592484
 40
0.9237324699
 40
0.9568112588
 40
0.9806805548
 40
0.9951036202
 40
1.0
 40
1.0
 40
1.0
 40
1.0
 10
-25.3201728506
 20
-21.2963960633
 30
0.0
 10
-25.3224272329
 20
-21.2836098526
 30
0.0
 10
-25.3268298457
 20
-21.2585254606
 30
0.0
 10
-25.333154986
 20
-21.2220961413
 30
0.0
 10
-25.3389238585
 20
-21.1885057295
 30
0.0
 10
-25.3439023383
 20
-21.1590556239
 30
0.0
 10
-25.3474781193
 20
-21.1376038111
 30
0.0
 10
-25.3497581182
 20
-21.1233813399
 30
0.0
 10
-25.3511206441
 20
-21.1150688809
 30
0.0
 10
-25.351964282
 20
-21.1087121745
 30
0.0
 10
-25.3529847289
 20
-21.1036565068
 30
0.0
 10
-25.3527329333
 20
-21.1014278296
 30
0.0
 10
-25.3534782049
 20
-21.0994911182
 30
0.0
 10
-25.3531571791
 20
-21.0994345127
 30
0.0
  0
SPLINE
  5
546
100
AcDbEntity
  8
RACCORDO
100
AcDbSpline
 62
250
  6
CONTINUOUS
 70
0
 71
3
 72
17
 73
13
 74
0
 42
0.0000001
 43
0.0000001
 44
0.0000000001
 40
0.0
 40
0.0
 40
0.0
 40
0.0
 40
0.3382187365
 40
0.4979810014
 40
0.6477709721
 40
0.7828359306
 40
0.8423657617
 40
0.894940739
 40
0.938802839
 40
0.9721196432
 40
0.9930988795
 40
1.0
 40
1.0
 40
1.0
 40
1.0
 10
-20.5184333789
 20
-20.3393793484
 30
0.0
 10
-20.5370792956
 20
-20.3322825892
 30
0.0
 10
-20.564522001
 20
-20.3218099534
 30
0.0
 10
-20.6002315247
 20
-20.3082004582
 30
0.0
 10
-20.6247249895
 20
-20.2988564253
 30
0.0
 10
-20.6437325236
 20
-20.2915966704
 30
0.0
 10
-20.6572814924
 20
-20.2863662918
 30
0.0
 10
-20.6659988097
 20
-20.2830211943
 30
0.0
 10
-20.6727372125
 20
-20.2803049401
 30
0.0
 10
-20.6791050302
 20
-20.2780688081
 30
0.0
 10
-20.6806788284
 20
-20.2770336438
 30
0.0
 10
-20.6840884099
 20
-20.2761516863
 30
0.0
 10
-20.6836875075
 20
-20.276081024
 30
0.0
  0
SPLINE
  5
547
100
AcDbEntity
  8
RACCORDO
100
AcDbSpline
 62
250
  6
CONTINUOUS
 70
0
 71
3
 72
18
 73
14
 74
0
 42
0.0000001
 43
0.0000001
 44
0.0000000001
 40
0.0
 40
0.0
 40
0.0
 40
0.0
 40
0.0048854894
 40
0.0192918878
 40
0.0431261897
 40
0.0761678314
 40
0.11810062
 40
0.1685295238
 40
0.2928507945
 40
0.4443722366
 40
0.6172561041
 40
0.8048909091
 40
1.0
 40
1.0
 40
1.0
 40
1.0
 10
-25.3201728506
 20
-22.2050370371
 30
0.0
 10
-25.3204985617
 20
-22.2050341946
 30
0.0
 10
-25.3200898257
 20
-22.203002249
 30
0.0
 10
-25.3207038317
 20
-22.2008450309
 30
0.0
 10
-25.3205370455
 20
-22.1956898183
 30
0.0
 10
-25.3207559384
 20
-22.1892789318
 30
0.0
 10
-25.320787146
 20
-22.1808513806
 30
0.0
 10
-25.320888918
 20
-22.1664359042
 30
0.0
 10
-25.3209059591
 20
-22.1446633454
 30
0.0
 10
-25.3208586318
 20
-22.1147539791
 30
0.0
 10
-25.3207142716
 20
-22.0806130886
 30
0.0
 10
-25.3204875756
 20
-22.0435699695
 30
0.0
 10
-25.3202863588
 20
-22.0180523978
 30
0.0
 10
-25.3201728506
 20
-22.0050446525
 30
0.0
  0
SPLINE
  5
548
100
AcDbEntity
  8
RACCORDO
100
AcDbSpline
 62
250
  6
CONTINUOUS
 70
0
 71
3
 72
18
 73
14
 74
0
 42
0.0000001
 43
0.0000001
 44
0.0000000001
 40
0.0
 40
0.0
 40
0.0
 40
0.0
 40
0.0048854896
 40
0.0192918885
 40
0.0431261915
 40
0.076167834
 40
0.1181006241
 40
0.1685295287
 40
0.2928508011
 40
0.444372243
 40
0.6172561097
 40
0.804890911
 40
1.0
 40
1.0
 40
1.0
 40
1.0
 10
-20.3201728506
 20
-23.8812176405
 30
0.0
 10
-20.3204985618
 20
-23.881214798
 30
0.0
 10
-20.3200898257
 20
-23.8791828523
 30
0.0
 10
-20.3207038317
 20
-23.8770256341
 30
0.0
 10
-20.3205370455
 20
-23.8718704213
 30
0.0
 10
-20.3207559384
 20
-23.8654595346
 30
0.0
 10
-20.320787146
 20
-23.8570319832
 30
0.0
 10
-20.320888918
 20
-23.8426165066
 30
0.0
 10
-20.3209059591
 20
-23.8208439476
 30
0.0
 10
-20.3208586317
 20
-23.7909345813
 30
0.0
 10
-20.3207142715
 20
-23.756793691
 30
0.0
 10
-20.3204875756
 20
-23.7197505724
 30
0.0
 10
-20.3202863588
 20
-23.694233001
 30
0.0
 10
-20.3201728506
 20
-23.6812252558
 30
0.0
  0
SPLINE
  5
549
100
AcDbEntity
  8
RACCORDO
100
AcDbSpline
 62
250
  6
CONTINUOUS
 70
0
 71
3
 72
18
 73
14
 74
0
 42
0.0000001
 43
0.0000001
 44
0.0000000001
 40
0.0
 40
0.0
 40
0.0
 40
0.0
 40
0.0048854894
 40
0.0192918878
 40
0.0431261897
 40
0.0761678314
 40
0.11810062
 40
0.1685295238
 40
0.2928507945
 40
0.4443722366
 40
0.6172561041
 40
0.8048909091
 40
1.0
 40
1.0
 40
1.0
 40
1.0
 10
-25.3201728506
 20
-23.8375833015
 30
0.0
 10
-25.3204985617
 20
-23.8375804591
 30
0.0
 10
-25.3200898257
 20
-23.8355485135
 30
0.0
 10
-25.3207038317
 20
-23.8333912953
 30
0.0
 10
-25.3205370455
 20
-23.8282360827
 30
0.0
 10
-25.3207559384
 20
-23.8218251962
 30
0.0
 10
-25.320787146
 20
-23.813397645
 30
0.0
 10
-25.320888918
 20
-23.7989821686
 30
0.0
 10
-25.3209059591
 20
-23.7772096098
 30
0.0
 10
-25.3208586318
 20
-23.7473002436
 30
0.0
 10
-25.3207142716
 20
-23.713159353
 30
0.0
 10
-25.3204875756
 20
-23.6761162339
 30
0.0
 10
-25.3202863588
 20
-23.6505986622
 30
0.0
 10
-25.3201728506
 20
-23.6375909169
 30
0.0
  0
SPLINE
  5
54A
100
AcDbEntity
  8
RACCORDO
100
AcDbSpline
 62
250
  6
CONTINUOUS
 70
0
 71
3
 72
13
 73
9
 74
0
 42
0.0000001
 43
0.0000001
 44
0.0000000001
 40
0.0
 40
0.0
 40
0.0
 40
0.0
 40
0.2420905302
 40
0.4869602487
 40
0.6114942497
 40
0.7381645117
 40
0.8677329415
 40
1.0
 40
1.0
 40
1.0
 40
1.0
 10
-20.5184284362
 20
-23.8528744065
 30
0.0
 10
-20.5401876082
 20
-23.8463856995
 30
0.0
 10
-20.5832449471
 20
-23.8307934782
 30
0.0
 10
-20.6339304503
 20
-23.8031200884
 30
0.0
 10
-20.670315566
 20
-23.7738995817
 30
0.0
 10
-20.6943390418
 20
-23.7471860891
 30
0.0
 10
-20.7122108387
 20
-23.7149485729
 30
0.0
 10
-20.7167767592
 20
-23.690170155
 30
0.0
 10
-20.7166672703
 20
-23.6777651015
 30
0.0
  0
LINE
  5
54B
100
AcDbEntity
  8
RACCORDO
100
AcDbLine
 62
250
  6
CONTINUOUS
 10
-25.3201728506
 20
-23.941271771
 11
-22.3655746773
 21
-23.9750537542
  0
SPLINE
  5
54C
100
AcDbEntity
  8
RACCORDO
100
AcDbSpline
 62
250
  6
CONTINUOUS
 70
0
 71
3
 72
18
 73
14
 74
0
 42
0.0000001
 43
0.0000001
 44
0.0000000001
 40
0.0
 40
0.0
 40
0.0
 40
0.0
 40
0.0048814425
 40
0.0192816922
 40
0.0431068744
 40
0.0761367171
 40
0.1180556479
 40
0.1684694677
 40
0.2927611259
 40
0.444262089
 40
0.6171460474
 40
0.8048135891
 40
1.0
 40
1.0
 40
1.0
 40
1.0
 10
-25.3531571791
 20
21.1055520456
 30
0.0
 10
-25.3534772258
 20
21.1056084785
 30
0.0
 10
-25.3527345687
 20
21.1075412699
 30
0.0
 10
-25.3529854975
 20
21.1097655411
 30
0.0
 10
-25.3519681218
 20
21.1148131976
 30
0.0
 10
-25.3511267054
 20
21.1211605609
 30
0.0
 10
-25.34976701
 20
21.1294627556
 30
0.0
 10
-25.3474899462
 20
21.1436725631
 30
0.0
 10
-25.3439160255
 20
21.1651135625
 30
0.0
 10
-25.3389372441
 20
21.1945584948
 30
0.0
 10
-25.3331647759
 20
21.228158995
 30
0.0
 10
-25.3268319257
 20
21.2646106435
 30
0.0
 10
-25.3224291746
 20
21.2897163727
 30
0.0
 10
-25.3201728506
 20
21.3025135962
 30
0.0
  0
SPLINE
  5
54D
100
AcDbEntity
  8
RACCORDO
100
AcDbSpline
 62
250
  6
CONTINUOUS
 70
0
 71
3
 72
17
 73
13
 74
0
 42
0.0000001
 43
0.0000001
 44
0.0000000001
 40
0.0
 40
0.0
 40
0.0
 40
0.0
 40
0.0068787909
 40
0.0278540375
 40
0.0612185592
 40
0.1051750367
 40
0.1578393382
 40
0.2174343858
 40
0.3524021285
 40
0.5021142477
 40
0.6617769494
 40
1.0
 40
1.0
 40
1.0
 40
1.0
 10
-20.6836875075
 20
20.2821985569
 30
0.0
 10
-20.6840871095
 20
20.2822689823
 30
0.0
 10
-20.6806870306
 20
20.2831624639
 30
0.0
 10
-20.679111908
 20
20.2841953529
 30
0.0
 10
-20.6727341867
 20
20.2864342635
 30
0.0
 10
-20.6659796891
 20
20.2891431849
 30
0.0
 10
-20.6572439885
 20
20.2924822007
 30
0.0
 10
-20.6436879605
 20
20.2977029675
 30
0.0
 10
-20.6246885149
 20
20.3049650366
 30
0.0
 10
-20.6002164763
 20
20.3143189495
 30
0.0
 10
-20.5645218601
 20
20.3279376528
 30
0.0
 10
-20.5370795798
 20
20.3383946788
 30
0.0
 10
-20.518435437
 20
20.34549617
 30
0.0
  0
SPLINE
  5
54E
100
AcDbEntity
  8
RACCORDO
100
AcDbSpline
 62
250
  6
CONTINUOUS
 70
0
 71
3
 72
11
 73
7
 74
0
 42
0.0000001
 43
0.0000001
 44
0.0000000001
 40
0.0
 40
0.0
 40
0.0
 40
0.0
 40
0.2454550642
 40
0.493650407
 40
0.7455271618
 40
1.0
 40
1.0
 40
1.0
 40
1.0
 10
-25.5184275435
 20
-23.7490770972
 30
0.0
 10
-25.5184275435
 20
-23.7739806536
 30
0.0
 10
-25.5079839949
 20
-23.8246363174
 30
0.0
 10
-25.4636380776
 20
-23.8883001564
 30
0.0
 10
-25.3978067988
 20
-23.9308716647
 30
0.0
 10
-25.3459904309
 20
-23.9410552491
 30
0.0
 10
-25.3201728506
 20
-23.941271771
 30
0.0
  0
SPLINE
  5
54F
100
AcDbEntity
  8
RACCORDO
100
AcDbSpline
 62
250
  6
CONTINUOUS
 70
0
 71
3
 72
18
 73
14
 74
0
 42
0.0000001
 43
0.0000001
 44
0.0000000001
 40
0.0
 40
0.0
 40
0.0
 40
0.0
 40
0.1949665644
 40
0.3824690047
 40
0.555325624
 40
0.7068690553
 40
0.8312666834
 40
0.8817403232
 40
0.9237222727
 40
0.9568035405
 40
0.9806769032
 40
0.9951021417
 40
1.0
 40
1.0
 40
1.0
 40
1.0
 10
-25.3201728506
 20
22.0111621854
 30
0.0
 10
-25.3202862759
 20
22.0241604266
 30
0.0
 10
-25.3204874663
 20
22.0496596665
 30
0.0
 10
-25.3207138756
 20
22.0866826385
 30
0.0
 10
-25.3208583582
 20
22.1208143454
 30
0.0
 10
-25.3209059153
 20
22.1507284495
 30
0.0
 10
-25.3208891666
 20
22.1725105486
 30
0.0
 10
-25.3207874261
 20
22.1869373569
 30
0.0
 10
-25.3207564285
 20
22.1953738757
 30
0.0
 10
-25.3205371086
 20
22.2017930772
 30
0.0
 10
-25.3207046528
 20
22.2069553918
 30
0.0
 10
-25.3200889782
 20
22.209116204
 30
0.0
 10
-25.3204993863
 20
22.2111517204
 30
0.0
 10
-25.3201728506
 20
22.21115457
 30
0.0
  0
SPLINE
  5
550
100
AcDbEntity
  8
RACCORDO
100
AcDbSpline
 62
250
  6
CONTINUOUS
 70
0
 71
3
 72
9
 73
5
 74
0
 42
0.0000001
 43
0.0000001
 44
0.0000000001
 40
0.0
 40
0.0
 40
0.0
 40
0.0
 40
0.3072034233
 40
1.0
 40
1.0
 40
1.0
 40
1.0
 10
-25.3201728669
 20
24.0345695199
 30
0.0
 10
-25.3202737058
 20
24.0530150714
 30
0.0
 10
-25.3204953614
 20
24.1130582515
 30
0.0
 10
-25.3206973769
 20
24.1731066151
 30
0.0
 10
-25.3201728215
 20
24.2147018215
 30
0.0
  0
SPLINE
  5
551
100
AcDbEntity
  8
RACCORDO
100
AcDbSpline
 62
250
  6
CONTINUOUS
 70
0
 71
3
 72
9
 73
5
 74
0
 42
0.0000001
 43
0.0000001
 44
0.0000000001
 40
0.0
 40
0.0
 40
0.0
 40
0.0
 40
0.3060236724
 40
1.0
 40
1.0
 40
1.0
 40
1.0
 10
-20.7166822364
 20
24.0094657022
 30
0.0
 10
-20.7165830097
 20
24.0277592115
 30
0.0
 10
-20.7163637393
 20
24.0875370771
 30
0.0
 10
-20.7161739239
 20
24.147319827
 30
0.0
 10
-20.7166822364
 20
24.1888018995
 30
0.0
  0
SPLINE
  5
552
100
AcDbEntity
  8
RACCORDO
100
AcDbSpline
 62
250
  6
CONTINUOUS
 70
0
 71
3
 72
11
 73
7
 74
0
 42
0.0000001
 43
0.0000001
 44
0.0000000001
 40
0.0
 40
0.0
 40
0.0
 40
0.0
 40
0.0659372302
 40
0.2549114685
 40
0.5666403242
 40
1.0
 40
1.0
 40
1.0
 40
1.0
 10
-25.3207465188
 20
-23.9490486608
 30
0.0
 10
-25.3205754764
 20
-23.949034693
 30
0.0
 10
-25.3206913048
 20
-23.9480356159
 30
0.0
 10
-25.3203714455
 20
-23.9468873125
 30
0.0
 10
-25.3203450369
 20
-23.9442755002
 30
0.0
 10
-25.320220105
 20
-23.9423986652
 30
0.0
 10
-25.3201728506
 20
-23.9412717705
 30
0.0
  0
SPLINE
  5
553
100
AcDbEntity
  8
RACCORDO
100
AcDbSpline
 62
250
  6
CONTINUOUS
 70
0
 71
3
 72
19
 73
15
 74
0
 42
0.0000001
 43
0.0000001
 44
0.0000000001
 40
0.0
 40
0.0
 40
0.0
 40
0.0
 40
0.1899309382
 40
0.3738773289
 40
0.5452153743
 40
0.6976772548
 40
0.8248007768
 40
0.8769579687
 40
0.920581772
 40
0.955124632
 40
0.9800710723
 40
0.9888312448
 40
0.9950842805
 40
1.0
 40
1.0
 40
1.0
 40
1.0
 10
-25.3201717849
 20
20.8969517796
 30
0.0
 10
-25.3223575963
 20
20.9101437411
 30
0.0
 10
-25.3266432939
 20
20.9361147495
 30
0.0
 10
-25.3328530572
 20
20.9739945804
 30
0.0
 10
-25.3385803334
 20
21.0092789392
 30
0.0
 10
-25.3435905729
 20
21.0406310286
 30
0.0
 10
-25.3472082765
 20
21.0636969142
 30
0.0
 10
-25.3495952515
 20
21.0792207621
 30
0.0
 10
-25.3509379555
 20
21.0882685302
 30
0.0
 10
-25.3520292565
 20
21.0955216014
 30
0.0
 10
-25.3525828495
 20
21.1001370608
 30
0.0
 10
-25.3530676875
 20
21.1031246016
 30
0.0
 10
-25.3529757219
 20
21.1041780427
 30
0.0
 10
-25.3534970545
 20
21.1056137546
 30
0.0
 10
-25.3531565368
 20
21.1055519316
 30
0.0
  0
SPLINE
  5
554
100
AcDbEntity
  8
RACCORDO
100
AcDbSpline
 62
250
  6
CONTINUOUS
 70
0
 71
3
 72
18
 73
14
 74
0
 42
0.0000001
 43
0.0000001
 44
0.0000000001
 40
0.0
 40
0.0
 40
0.0
 40
0.0
 40
0.0048794417
 40
0.0192759246
 40
0.0430932167
 40
0.0761158872
 40
0.1180246021
 40
0.1684307169
 40
0.2927079755
 40
0.444206969
 40
0.617094415
 40
0.80479431
 40
1.0
 40
1.0
 40
1.0
 40
1.0
 10
-20.683697908
 20
20.2822003908
 30
0.0
 10
-20.6833779924
 20
20.2821439811
 30
0.0
 10
-20.6841199811
 20
20.2802117828
 30
0.0
 10
-20.6838692338
 20
20.2779882073
 30
0.0
 10
-20.6848862131
 20
20.2729418993
 30
0.0
 10
-20.685727654
 20
20.2665961924
 30
0.0
 10
-20.6870873132
 20
20.2582956995
 30
0.0
 10
-20.6893644825
 20
20.2440880829
 30
0.0
 10
-20.692938675
 20
20.2226487537
 30
0.0
 10
-20.6979172327
 20
20.1932046514
 30
0.0
 10
-20.7036901789
 20
20.1596019419
 30
0.0
 10
-20.7100233375
 20
20.1231466204
 30
0.0
 10
-20.7144256894
 20
20.0980373288
 30
0.0
 10
-20.7166822364
 20
20.0852388402
 30
0.0
  0
SPLINE
  5
555
100
AcDbEntity
  8
RACCORDO
100
AcDbSpline
 62
250
  6
CONTINUOUS
 70
0
 71
3
 72
19
 73
15
 74
0
 42
0.0000001
 43
0.0000001
 44
0.0000000001
 40
0.0
 40
0.0
 40
0.0
 40
0.0
 40
0.0049155025
 40
0.0111679488
 40
0.0199273673
 40
0.0448723366
 40
0.0794143157
 40
0.1230373621
 40
0.1751935848
 40
0.302316303
 40
0.4547795893
 40
0.6261172823
 40
0.8100649896
 40
1.0
 40
1.0
 40
1.0
 40
1.0
 10
-25.3531566255
 20
-21.0994344145
 30
0.0
 10
-25.3534971605
 20
-21.0994959943
 30
0.0
 10
-25.3529756484
 20
-21.0980608053
 30
0.0
 10
-25.3530676602
 20
-21.0970072802
 30
0.0
 10
-25.3525827927
 20
-21.0940201652
 30
0.0
 10
-25.352029351
 20
-21.0894049684
 30
0.0
 10
-25.3509382829
 20
-21.0821523596
 30
0.0
 10
-25.3495958553
 20
-21.0731050161
 30
0.0
 10
-25.3472091634
 20
-21.0575818178
 30
0.0
 10
-25.3435913498
 20
-21.0345167242
 30
0.0
 10
-25.3385802237
 20
-21.0031657854
 30
0.0
 10
-25.3328532601
 20
-20.9678823618
 30
0.0
 10
-25.3266448853
 20
-20.9300031843
 30
0.0
 10
-25.3223594628
 20
-20.9040325953
 30
0.0
 10
-25.3201728506
 20
-20.890840908
 30
0.0
  0
SPLINE
  5
556
100
AcDbEntity
  8
RACCORDO
100
AcDbSpline
 62
250
  6
CONTINUOUS
 70
0
 71
3
 72
18
 73
14
 74
0
 42
0.0000001
 43
0.0000001
 44
0.0000000001
 40
0.0
 40
0.0
 40
0.0
 40
0.0
 40
0.195018559
 40
0.382538003
 40
0.5553887389
 40
0.7069162457
 40
0.8312963032
 40
0.8817643722
 40
0.9237372247
 40
0.9568140357
 40
0.9806822696
 40
0.995104171
 40
1.0
 40
1.0
 40
1.0
 40
1.0
 10
-20.7166822364
 20
-20.0791213073
 30
0.0
 10
-20.7144278528
 20
-20.0919075256
 30
0.0
 10
-20.7100250798
 20
-20.1169918955
 30
0.0
 10
-20.7037007497
 20
-20.1534214339
 30
0.0
 10
-20.6979319098
 20
-20.187012096
 30
0.0
 10
-20.6929531276
 20
-20.2164625499
 30
0.0
 10
-20.6893767953
 20
-20.2379145647
 30
0.0
 10
-20.6870961974
 20
-20.2521370408
 30
0.0
 10
-20.6857332855
 20
-20.2604492427
 30
0.0
 10
-20.6848892247
 20
-20.2668056927
 30
0.0
 10
-20.6838691399
 20
-20.2718610539
 30
0.0
 10
-20.684121132
 20
-20.2740897293
 30
0.0
 10
-20.683376918
 20
-20.2760262587
 30
0.0
 10
-20.683697908
 20
-20.2760828579
 30
0.0
  0
SPLINE
  5
557
100
AcDbEntity
  8
RACCORDO
100
AcDbSpline
 62
7
  6
CONTINUOUS
 70
0
 71
3
 72
12
 73
8
 74
0
 42
0.0000001
 43
0.0000001
 44
0.0000000001
 40
0.0
 40
0.0
 40
0.0
 40
0.0
 40
0.2499061709
 40
0.4996944973
 40
0.6251227823
 40
0.7505658555
 40
1.0
 40
1.0
 40
1.0
 40
1.0
 10
-22.0184275435
 20
-24.5261504716
 30
0.0
 10
-22.0184275435
 20
-24.57309464
 30
0.0
 10
-22.0354075849
 20
-24.6677556005
 30
0.0
 10
-22.0970977101
 20
-24.7709499483
 30
0.0
 10
-22.1665364622
 20
-24.8352305827
 30
0.0
 10
-22.2471208026
 20
-24.8844676452
 30
0.0
 10
-22.318518898
 20
-24.9011850807
 30
0.0
 10
-22.3653732561
 20
-24.9015121353
 30
0.0
  0
SPLINE
  5
558
100
AcDbEntity
  8
RACCORDO
100
AcDbSpline
 62
7
  6
CONTINUOUS
 70
0
 71
3
 72
10
 73
6
 74
0
 42
0.0000001
 43
0.0000001
 44
0.0000000001
 40
0.0
 40
0.0
 40
0.0
 40
0.0
 40
0.5144578502
 40
0.7629272581
 40
1.0
 40
1.0
 40
1.0
 40
1.0
 10
-19.3201728506
 20
-26.4969412335
 30
0.0
 10
-19.3660763566
 20
-26.3604523765
 30
0.0
 10
-19.4346774074
 20
-26.1579278566
 30
0.0
 10
-19.5013038759
 20
-25.8859860929
 30
0.0
 10
-19.5184275435
 20
-25.750242356
 30
0.0
 10
-19.5184275435
 20
-25.6838836549
 30
0.0
  0
SPLINE
  5
559
100
AcDbEntity
  8
RACCORDO
100
AcDbSpline
 62
250
  6
CONTINUOUS
 70
0
 71
3
 72
18
 73
14
 74
0
 42
0.0000001
 43
0.0000001
 44
0.0000000001
 40
0.0
 40
0.0
 40
0.0
 40
0.0
 40
0.0048890048
 40
0.0192904198
 40
0.0430995283
 40
0.0761539309
 40
0.1181082527
 40
0.1685348433
 40
0.2929161953
 40
0.4444025002
 40
0.6172571904
 40
0.805068155
 40
1.0
 40
1.0
 40
1.0
 40
1.0
 10
-19.3201727126
 20
-23.8899445109
 30
0.0
 10
-19.320498661
 20
-23.8899416726
 30
0.0
 10
-19.3200880171
 20
-23.8919875987
 30
0.0
 10
-19.3207032608
 20
-23.8941302467
 30
0.0
 10
-19.3205365181
 20
-23.8992914789
 30
0.0
 10
-19.3207558523
 20
-23.9056997116
 30
0.0
 10
-19.3207869891
 20
-23.9141307527
 30
0.0
 10
-19.3208890719
 20
-23.9285510606
 30
0.0
 10
-19.3209057634
 20
-23.9503256914
 30
0.0
 10
-19.3208586106
 20
-23.9802348968
 30
0.0
 10
-19.3207140766
 20
-24.0143835982
 30
0.0
 10
-19.3204865628
 20
-24.0514250105
 30
0.0
 10
-19.3202855631
 20
-24.0769427422
 30
0.0
 10
-19.3201728398
 20
-24.0899387929
 30
0.0
  0
LINE
  5
55A
100
AcDbEntity
  8
RACCORDO
100
AcDbLine
 62
250
  6
CONTINUOUS
 10
-20.7166822364
 20
24.1888018995
 11
-25.3201728506
 21
24.2147018219
  0
SPLINE
  5
55B
100
AcDbEntity
  8
RACCORDO
100
AcDbSpline
 62
7
  6
CONTINUOUS
 70
0
 71
3
 72
18
 73
14
 74
0
 42
0.0000001
 43
0.0000001
 44
0.0000000001
 40
0.0
 40
0.0
 40
0.0
 40
0.0
 40
0.2130691112
 40
0.4124062967
 40
0.5865772201
 40
0.727886693
 40
0.8318523354
 40
0.8694022895
 40
0.8979795157
 40
0.9195454772
 40
0.939263184
 40
0.9643441917
 40
1.0
 40
1.0
 40
1.0
 40
1.0
 10
-25.3399983199
 20
-25.4374877606
 30
0.0
 10
-25.3535153402
 20
-25.4392018432
 30
0.0
 10
-25.3796330093
 20
-25.4428940145
 30
0.0
 10
-25.4165878295
 20
-25.4493692927
 30
0.0
 10
-25.4488004948
 20
-25.456194043
 30
0.0
 10
-25.4748804416
 20
-25.4624662097
 30
0.0
 10
-25.4924218254
 20
-25.4668751578
 30
0.0
 10
-25.5031570788
 20
-25.4687447845
 30
0.0
 10
-25.5087580118
 20
-25.4690619749
 30
0.0
 10
-25.5132839756
 20
-25.4680653086
 30
0.0
 10
-25.5163563871
 20
-25.4648133421
 30
0.0
 10
-25.5176999519
 20
-25.4597387987
 30
0.0
 10
-25.5180292814
 20
-25.4558781965
 30
0.0
 10
-25.5181565746
 20
-25.4536016476
 30
0.0
  0
SPLINE
  5
55C
100
AcDbEntity
  8
RACCORDO
100
AcDbSpline
 62
250
  6
CONTINUOUS
 70
0
 71
3
 72
15
 73
11
 74
0
 42
0.0000001
 43
0.0000001
 44
0.0000000001
 40
0.0
 40
0.0
 40
0.0
 40
0.0
 40
0.0288811747
 40
0.0703626519
 40
0.1348438067
 40
0.2282992441
 40
0.3566399939
 40
0.5267176464
 40
0.7443628367
 40
1.0
 40
1.0
 40
1.0
 40
1.0
 10
-25.5184275435
 20
-28.8574175889
 30
0.0
 10
-25.5184275429
 20
-28.8591821447
 30
0.0
 10
-25.5163139417
 20
-28.8634585071
 30
0.0
 10
-25.5086695563
 20
-28.867161318
 30
0.0
 10
-25.4969733947
 20
-28.8703995044
 30
0.0
 10
-25.479612857
 20
-28.8730022391
 30
0.0
 10
-25.4557803431
 20
-28.8751494306
 30
0.0
 10
-25.4242819492
 20
-28.876871229
 30
0.0
 10
-25.3849787015
 20
-28.8775186338
 30
0.0
 10
-25.3560613213
 20
-28.877769704
 30
0.0
 10
-25.340443155
 20
-28.8776421405
 30
0.0
  0
SPLINE
  5
55D
100
AcDbEntity
  8
RACCORDO
100
AcDbSpline
 62
7
  6
CONTINUOUS
 70
0
 71
3
 72
11
 73
7
 74
0
 42
0.0000001
 43
0.0000001
 44
0.0000000001
 40
0.0
 40
0.0
 40
0.0
 40
0.0
 40
0.2171792714
 40
0.4458951887
 40
0.7046366756
 40
1.0
 40
1.0
 40
1.0
 40
1.0
 10
-25.5184275435
 20
-28.0113839123
 30
0.0
 10
-25.5184275435
 20
-28.0316027255
 30
0.0
 10
-25.5114791729
 20
-28.0735173976
 30
0.0
 10
-25.4773948632
 20
-28.1313429898
 30
0.0
 10
-25.4182427783
 20
-28.176797544
 30
0.0
 10
-25.3673359095
 20
-28.1915151361
 30
0.0
 10
-25.3399983199
 20
-28.1944767149
 30
0.0
  0
SPLINE
  5
55E
100
AcDbEntity
  8
RACCORDO
100
AcDbSpline
 62
7
  6
CONTINUOUS
 70
0
 71
3
 72
13
 73
9
 74
0
 42
0.0000001
 43
0.0000001
 44
0.0000000001
 40
0.0
 40
0.0
 40
0.0
 40
0.0
 40
0.3388382596
 40
0.6263921444
 40
0.7430861025
 40
0.8417702476
 40
0.9254166703
 40
1.0
 40
1.0
 40
1.0
 40
1.0
 10
-25.3399983199
 20
-28.4012950423
 30
0.0
 10
-25.3639553112
 20
-28.401392533
 30
0.0
 10
-25.4083032162
 20
-28.4056006863
 30
0.0
 10
-25.4591762719
 20
-28.4210348898
 30
0.0
 10
-25.4900311906
 20
-28.4390424994
 30
0.0
 10
-25.5059805474
 20
-28.4532030727
 30
0.0
 10
-25.5160180078
 20
-28.4686853269
 30
0.0
 10
-25.5184275435
 20
-28.4799538917
 30
0.0
 10
-25.5184275435
 20
-28.4852272247
 30
0.0
  0
SPLINE
  5
55F
100
AcDbEntity
  8
RACCORDO
100
AcDbSpline
 62
250
  6
CONTINUOUS
 70
0
 71
3
 72
20
 73
16
 74
0
 42
0.0000001
 43
0.0000001
 44
0.0000000001
 40
0.0
 40
0.0
 40
0.0
 40
0.0
 40
0.0016738961
 40
0.0066550386
 40
0.0148813556
 40
0.0262907559
 40
0.0584105735
 40
0.1024448142
 40
0.1572804757
 40
0.2215607933
 40
0.2939071351
 40
0.3726325501
 40
0.5415174454
 40
0.7127220866
 40
1.0
 40
1.0
 40
1.0
 40
1.0
 10
-25.3399946979
 20
-29.0374103189
 30
0.0
 10
-25.3399055542
 20
-29.0374110968
 30
0.0
 10
-25.3401270549
 20
-29.0368387838
 30
0.0
 10
-25.3399333121
 20
-29.0362551763
 30
0.0
 10
-25.3400704467
 20
-29.0348273308
 30
0.0
 10
-25.3400422697
 20
-29.032141216
 30
0.0
 10
-25.3401510801
 20
-29.0274270645
 30
0.0
 10
-25.3401897723
 20
-29.0204751767
 30
0.0
 10
-25.3402595032
 20
-29.011777507
 30
0.0
 10
-25.3403162976
 20
-29.0015839828
 30
0.0
 10
-25.3403770873
 20
-28.9901141104
 30
0.0
 10
-25.340455271
 20
-28.9730746602
 30
0.0
 10
-25.3405338468
 20
-28.9507696466
 30
0.0
 10
-25.3405788334
 20
-28.9173579754
 30
0.0
 10
-25.3405608505
 20
-28.8929400636
 30
0.0
 10
-25.3404431563
 20
-28.8776408915
 30
0.0
  0
ELLIPSE
  5
560
100
AcDbEntity
  8
RACCORDO
100
AcDbEllipse
 62
7
  6
CONTINUOUS
 10
-2.3999923843
 20
-23.6969336179
 30
0.0
 11
0.1414321262
 21
0.1414321262
 31
0.0
 40
0.9999238505
 41
-3.9269527408
 42
-2.3562325664
  0
ELLIPSE
  5
561
100
AcDbEntity
  8
RACCORDO
100
AcDbEllipse
 62
7
  6
CONTINUOUS
 10
2.3999923843
 20
-23.6969336179
 30
0.0
 11
0.1414321262
 21
-0.1414321262
 31
0.0
 40
0.9999238505
 41
0.6508286678
 42
0.7853600872
  0
ELLIPSE
  5
562
100
AcDbEntity
  8
RACCORDO
100
AcDbEllipse
 62
7
  6
CONTINUOUS
 10
2.3999923843
 20
-23.6969336179
 30
0.0
 11
-0.1414321262
 21
0.1414321262
 31
0.0
 40
0.9999238505
 41
-3.9269527408
 42
-2.4907639857
  0
ELLIPSE
  5
563
100
AcDbEntity
  8
RACCORDO
100
AcDbEllipse
 62
7
  6
CONTINUOUS
 10
-1.9750076157
 20
-24.0969488492
 30
0.0
 11
0.1414321262
 21
0.1414321262
 31
0.0
 40
0.9999238505
 41
5.49782522
 42
7.0685453944
  0
ELLIPSE
  5
564
100
AcDbEntity
  8
RACCORDO
100
AcDbEllipse
 62
7
  6
CONTINUOUS
 10
1.9750076157
 20
-24.0969488492
 30
0.0
 11
-0.1414321262
 21
0.1414321262
 31
0.0
 40
0.9999238505
 41
5.49782522
 42
7.0685453944
  0
ELLIPSE
  5
565
100
AcDbEntity
  8
RACCORDO
100
AcDbEllipse
 62
7
  6
CONTINUOUS
 10
2.5895277587
 20
25.5396743732
 30
0.0
 11
-0.0
 21
0.2
 31
0.0
 40
0.0087268678
 41
-0.9179831373
 42
-0.0058177642
  0
ELLIPSE
  5
566
100
AcDbEntity
  8
RACCORDO
100
AcDbEllipse
 62
7
  6
CONTINUOUS
 10
2.5982546264
 20
24.4857771074
 30
0.0
 11
-0.0
 21
0.2
 31
0.0
 40
0.0087268678
 41
-1.5707963268
 42
-0.0052359878
  0
ELLIPSE
  5
567
100
AcDbEntity
  8
RACCORDO
100
AcDbEllipse
 62
7
  6
CONTINUOUS
 10
0.6979637596
 20
-24.21335612
 30
0.0
 11
-0.0
 21
0.35
 31
0.0
 40
0.0058178298
 41
-1.5707963268
 42
-0.0087266463
  0
ELLIPSE
  5
568
100
AcDbEntity
  8
RACCORDO
100
AcDbEllipse
 62
7
  6
CONTINUOUS
 10
-1.2308085065
 20
22.2513133929
 30
0.0
 11
0.2
 21
0.0
 31
0.0
 40
0.0087268678
 41
0.7897720886
 42
1.5707963268
  0
ELLIPSE
  5
569
100
AcDbEntity
  8
RACCORDO
100
AcDbEllipse
 62
7
  6
CONTINUOUS
 10
1.2308085065
 20
22.2513133929
 30
0.0
 11
0.2
 21
-0.0
 31
0.0
 40
0.0087268678
 41
2.351820565
 42
3.1328660073
  0
ELLIPSE
  5
56A
100
AcDbEntity
  8
RACCORDO
100
AcDbEllipse
 62
7
  6
CONTINUOUS
 10
-1.2308085065
 20
-22.24519586
 30
0.0
 11
0.2
 21
0.0
 31
0.0
 40
0.0087268678
 41
-0.7897720886
 42
-0.0087266463
  0
ELLIPSE
  5
56B
100
AcDbEntity
  8
RACCORDO
100
AcDbEllipse
 62
7
  6
CONTINUOUS
 10
1.2308085065
 20
-22.24519586
 30
0.0
 11
0.2
 21
-0.0
 31
0.0
 40
0.0087268678
 41
-2.351820565
 42
-1.5707963268
  0
ENDSEC
  0
SECTION
  2
OBJECTS
  0
DICTIONARY
  5
C
100
AcDbDictionary
280
0
281
1
  3
ACAD_GROUP
350
D
  3
ACAD_MLINESTYLE
350
17
  3
ACAD_LAYOUT
350
1A
  3
ACAD_PLOTSETTINGS
350
19
  3
ACAD_PLOTSTYLENAME
350
E
  0
DICTIONARY
  5
D
102
{ACAD_REACTORS
330
C
102
}
100
AcDbDictionary
280
0
281
1
  0
ACDBDICTIONARYWDFLT
  5
E
102
{ACAD_REACTORS
330
C
102
}
100
AcDbDictionary
281
1
  3
Normal
350
F
100
AcDbDictionaryWithDefault
340
F
  0
DICTIONARY
  5
17
102
{ACAD_REACTORS
330
C
102
}
100
AcDbDictionary
280
0
281
1
  3
Standard
350
18
  0
DICTIONARY
  5
19
102
{ACAD_REACTORS
330
C
102
}
100
AcDbDictionary
281
1
  0
DICTIONARY
  5
1A
102
{ACAD_REACTORS
330
C
102
}
100
AcDbDictionary
281
1
  3
Model
350
56C
  3
Layout1
350
56D
  0
ACDBPLACEHOLDER
  5
F
102
{ACAD_REACTORS
330
E
102
}
  0
MLINESTYLE
  5
18
102
{ACAD_REACTORS
330
17
102
}
100
AcDbMlineStyle
  2
STANDARD
 70
0
  3

 62
256
 51
90.0
 52
90.0
 71
2
 49
0.5
 62
256
  6
BYLAYER
 49
-0.5
 62
256
  6
BYLAYER
  0
LAYOUT
  5
56C
102
{ACAD_REACTORS
330
1A
102
}
100
AcDbPlotSettings
  1

  2
none_device
  4
ISO_A4_(297.00_x_210.00_MM)
  6

 40
0.0
 41
0.0
 42
0.0
 43
0.0
 44
297.0
 45
210.0
 46
0.0
 47
0.0
 48
0.0
 49
0.0
140
0.0
141
0.0
142
1.0
143
1.0
 70
1024
 72
1
 73
0
 74
0
  7

 75
0
147
1.0
148
0.0
149
0.0
100
AcDbLayout
  1
Model
 70
0
 71
0
 10
0.0
 20
0.0
 11
297.0
 21
210.0
 12
0.0
 22
0.0
 32
0.0
 14
0.0
 24
0.0
 34
0.0
 15
0.0
 25
0.0
 35
0.0
146
0.0
 13
0.0
 23
0.0
 33
0.0
 16
1.0
 26
0.0
 36
0.0
 17
0.0
 27
1.0
 37
0.0
 76
0
330
20F
345
0
346
0
  0
LAYOUT
  5
56D
102
{ACAD_REACTORS
330
1A
102
}
100
AcDbPlotSettings
  1

  2
none_device
  4
ISO_A4_(297.00_x_210.00_MM)
  6

 40
0.0
 41
0.0
 42
0.0
 43
0.0
 44
297.0
 45
210.0
 46
0.0
 47
0.0
 48
0.0
 49
0.0
140
0.0
141
0.0
142
1.0
143
1.0
 70
0
 72
1
 73
0
 74
0
  7

 75
0
147
1.0
148
0.0
149
0.0
100
AcDbLayout
  1
Layout1
 70
0
 71
1
 10
0.0
 20
0.0
 11
297.0
 21
210.0
 12
0.0
 22
0.0
 32
0.0
 14
0.0
 24
0.0
 34
0.0
 15
0.0
 25
0.0
 35
0.0
146
0.0
 13
0.0
 23
0.0
 33
0.0
 16
1.0
 26
0.0
 36
0.0
 17
0.0
 27
1.0
 37
0.0
 76
0
330
210
345
0
346
0
  0
ENDSEC
  0
EOF
