  0
SECTION
  2
HEADER
  9
$ACADVER
  1
AC1015
  9
$DWGCODEPAGE
  3
ANSI_1252
  9
$EXTMAX
 10
297.0
 20
210.0
 30
0.0
  9
$EXTMIN
 10
0.0
 20
0.0
 30
0.0
  9
$LIMMIN
 10
0.0
 20
0.0
  9
$LIMMAX
 10
297.0
 20
210.0
  9
$VIEWCTR
 10
148.5
 20
105.0
  9
$VIEWSIZE
 40
210.0
  9
$CLAYER
  8
0
  9
$LTSCALE
 40
16.335
  9
$CELTYPE
  6
BYLAYER
  9
$DIMSCALE
 40
1.0
  9
$DIMASZ
 40
3.0
  9
$DIMEXO
 40
0.5
  9
$DIMDLI
 40
11.286
  9
$DIMEXE
 40
1.5
  9
$DIMCEN
 40
2.673
  9
$DIMLFAC
 40
1.0
  9
$DIMBLK
  1
_FILLED
  9
$DIMTXT
 40
3.0
  9
$DIMTOL
 70
1
  9
$DIMLIM
 70
0
  9
$DIMTFAC
 40
1.0
  9
$DIMTP
 40
0.01
  9
$DIMTM
 40
0.01
  9
$DIMGAP
 40
0.625
  9
$DIMDSEP
 70
44
  9
$PDMODE
 70
3
  9
$PDSIZE
 40
3.0
  9
$HANDSEED
  5
380
  9
$TILEMODE
 70
1
  9
$MEASUREMENT
 70
1
  9
$INSUNITS
 70
4
  0
ENDSEC
  0
SECTION
  2
CLASSES
  0
CLASS
  1
ACDBDICTIONARYWDFLT
  2
AcDbDictionaryWithDefault
  3
AutoCAD 2000
 90
0
280
0
281
0
  0
CLASS
  1
ACDBPLACEHOLDER
  2
AcDbPlaceHolder
  3
AutoCAD 2000
 90
0
280
0
281
0
  0
CLASS
  1
LAYOUT
  2
AcDbLayout
  3
AutoCAD 2000
 90
0
280
0
281
0
  0
ENDSEC
  0
SECTION
  2
TABLES
  0
TABLE
  2
VPORT
  5
8
100
AcDbSymbolTable
 70
2
  0
VPORT
  5
1F4
100
AcDbSymbolTableRecord
100
AcDbViewportTableRecord
  2
*ACTIVE
 70
0
 10
0.0
 20
0.0
 11
1.0
 21
1.0
 12
148.5
 22
105.0
 13
0.0
 23
0.0
 14
1.0
 24
1.0
 15
0.0
 25
0.0
 16
0.0
 26
0.0
 36
1.0
 17
0.0
 27
0.0
 37
0.0
 40
210.0
 41
1.4142857143
 42
50.0
 43
0.0
 44
0.0
 50
0.0
 51
0.0
 71
0
 72
100
 73
1
 74
1
 75
0
 76
0
 77
0
 78
0
  0
ENDTAB
  0
TABLE
  2
LTYPE
  5
5
100
AcDbSymbolTable
 70
6
  0
LTYPE
  5
14
100
AcDbSymbolTableRecord
100
AcDbLinetypeTableRecord
  2
BYBLOCK
 70
0
  3

 72
65
 73
0
 40
0.0
  0
LTYPE
  5
15
100
AcDbSymbolTableRecord
100
AcDbLinetypeTableRecord
  2
BYLAYER
 70
0
  3

 72
65
 73
0
 40
0.0
  0
LTYPE
  5
16
100
AcDbSymbolTableRecord
100
AcDbLinetypeTableRecord
  2
CONTINUOUS
 70
64
  3
Solid line
 72
65
 73
0
 40
0.0
  0
LTYPE
  5
1F5
100
AcDbSymbolTableRecord
100
AcDbLinetypeTableRecord
  2
CENTER
 70
64
  3
____ _ ____ _ ____ _ ____ _ ____ _ ____ _ ____
 72
65
 73
4
 40
0.6
 49
0.375
 74
0
 49
-0.075
 74
0
 49
0.075
 74
0
 49
-0.075
 74
0
  0
LTYPE
  5
1F6
100
AcDbSymbolTableRecord
100
AcDbLinetypeTableRecord
  2
HIDDEN
 70
64
  3
- - - - - - - - - - - - - - - - - - - -
 72
65
 73
2
 40
0.2
 49
0.1
 74
0
 49
-0.1
 74
0
  0
LTYPE
  5
1F7
100
AcDbSymbolTableRecord
100
AcDbLinetypeTableRecord
  2
PHANTOM
 70
64
  3
_____ _ _ _____ _ _ _____ _ _ _____
 72
65
 73
6
 40
0.8
 49
0.45
 74
0
 49
-0.05
 74
0
 49
0.1
 74
0
 49
-0.05
 74
0
 49
0.1
 74
0
 49
-0.05
 74
0
  0
LTYPE
  5
1F8
100
AcDbSymbolTableRecord
100
AcDbLinetypeTableRecord
  2
DOT
 70
64
  3
. . . . . . . . . . . . . . . . . . . .
 72
65
 73
2
 40
0.2
 49
0.1
 74
0
 49
-0.1
 74
0
  0
LTYPE
  5
1F9
100
AcDbSymbolTableRecord
100
AcDbLinetypeTableRecord
  2
DASHED
 70
64
  3
- - - - - - - - - - - - - - - - - - - -
 72
65
 73
2
 40
0.2
 49
0.1
 74
0
 49
-0.1
 74
0
  0
ENDTAB
  0
TABLE
  2
LAYER
  5
2
100
AcDbSymbolTable
 70
36
  0
LAYER
  5
10
100
AcDbSymbolTableRecord
100
AcDbLayerTableRecord
  2
0
 70
0
 62
7
  6
CONTINUOUS
370
-3
390
F
  0
LAYER
  5
1FA
100
AcDbSymbolTableRecord
100
AcDbLayerTableRecord
  2
DEFAULT_1
 70
0
 62
7
  6
CENTER
370
-3
390
F
  0
LAYER
  5
1FB
100
AcDbSymbolTableRecord
100
AcDbLayerTableRecord
  2
DEFAULT_2
 70
0
 62
7
  6
HIDDEN
370
-3
390
F
  0
LAYER
  5
1FC
100
AcDbSymbolTableRecord
100
AcDbLayerTableRecord
  2
DEFAULT_3
 70
0
 62
7
  6
PHANTOM
370
-3
390
F
  0
LAYER
  5
1FD
100
AcDbSymbolTableRecord
100
AcDbLayerTableRecord
  2
ASSI
 70
0
 62
7
  6
CONTINUOUS
370
-3
390
F
  0
LAYER
  5
1FE
100
AcDbSymbolTableRecord
100
AcDbLayerTableRecord
  2
COORDINATE
 70
0
 62
7
  6
CONTINUOUS
370
-3
390
F
  0
LAYER
  5
1FF
100
AcDbSymbolTableRecord
100
AcDbLayerTableRecord
  2
COPY_PUBLISH
 70
0
 62
7
  6
CONTINUOUS
370
-3
390
F
  0
LAYER
  5
200
100
AcDbSymbolTableRecord
100
AcDbLayerTableRecord
  2
COSMETICI
 70
0
 62
7
  6
CONTINUOUS
370
-3
390
F
  0
LAYER
  5
201
100
AcDbSymbolTableRecord
100
AcDbLayerTableRecord
  2
CURVE
 70
0
 62
7
  6
CONTINUOUS
370
-3
390
F
  0
LAYER
  5
202
100
AcDbSymbolTableRecord
100
AcDbLayerTableRecord
  2
DRAFT
 70
0
 62
7
  6
CONTINUOUS
370
-3
390
F
  0
LAYER
  5
203
100
AcDbSymbolTableRecord
100
AcDbLayerTableRecord
  2
IMPORT_IGES
 70
0
 62
7
  6
CONTINUOUS
370
-3
390
F
  0
LAYER
  5
204
100
AcDbSymbolTableRecord
100
AcDbLayerTableRecord
  2
NOTE
 70
0
 62
7
  6
CONTINUOUS
370
-3
390
F
  0
LAYER
  5
205
100
AcDbSymbolTableRecord
100
AcDbLayerTableRecord
  2
PIANI
 70
0
 62
7
  6
CONTINUOUS
370
-3
390
F
  0
LAYER
  5
206
100
AcDbSymbolTableRecord
100
AcDbLayerTableRecord
  2
PUNTI
 70
0
 62
7
  6
CONTINUOUS
370
-3
390
F
  0
LAYER
  5
207
100
AcDbSymbolTableRecord
100
AcDbLayerTableRecord
  2
RACCORDO
 70
0
 62
7
  6
CONTINUOUS
370
-3
390
F
  0
LAYER
  5
208
100
AcDbSymbolTableRecord
100
AcDbLayerTableRecord
  2
SIMBOLI
 70
0
 62
7
  6
CONTINUOUS
370
-3
390
F
  0
LAYER
  5
209
100
AcDbSymbolTableRecord
100
AcDbLayerTableRecord
  2
SMUSSO
 70
0
 62
7
  6
CONTINUOUS
370
-3
390
F
  0
LAYER
  5
20A
100
AcDbSymbolTableRecord
100
AcDbLayerTableRecord
  2
SNAPLINE
 70
0
 62
7
  6
CONTINUOUS
370
-3
390
F
  0
LAYER
  5
20B
100
AcDbSymbolTableRecord
100
AcDbLayerTableRecord
  2
SUPERFICI
 70
0
 62
7
  6
CONTINUOUS
370
-3
390
F
  0
LAYER
  5
20C
100
AcDbSymbolTableRecord
100
AcDbLayerTableRecord
  2
TRASH
 70
0
 62
7
  6
CONTINUOUS
370
-3
390
F
  0
ENDTAB
  0
TABLE
  2
STYLE
  5
3
100
AcDbSymbolTable
 70
1
  0
STYLE
  5
11
100
AcDbSymbolTableRecord
100
AcDbTextStyleTableRecord
  2
STANDARD
 70
0
 40
0.0
 41
0.8
 50
0.0
 71
0
 42
0.2
  3
txt
  4

  0
STYLE
  5
20D
100
AcDbSymbolTableRecord
100
AcDbTextStyleTableRecord
  2
TEXTSTYLE_1
 70
0
 40
0.0
 41
0.8
 50
0.0
 71
0
 42
0.2
  3
gdt
  4

  0
ENDTAB
  0
TABLE
  2
VIEW
  5
6
100
AcDbSymbolTable
 70
0
  0
ENDTAB
  0
TABLE
  2
UCS
  5
7
100
AcDbSymbolTable
 70
0
  0
ENDTAB
  0
TABLE
  2
APPID
  5
9
100
AcDbSymbolTable
 70
1
  0
APPID
  5
20E
100
AcDbSymbolTableRecord
100
AcDbRegAppTableRecord
  2
ACAD
 70
0
  0
ENDTAB
  0
TABLE
  2
BLOCK_RECORD
  5
1
100
AcDbSymbolTable
 70
0
  0
BLOCK_RECORD
  5
20F
100
AcDbSymbolTableRecord
100
AcDbBlockTableRecord
  2
*Model_Space
  0
BLOCK_RECORD
  5
210
100
AcDbSymbolTableRecord
100
AcDbBlockTableRecord
  2
*Paper_Space
  0
BLOCK_RECORD
  5
211
100
AcDbSymbolTableRecord
100
AcDbBlockTableRecord
  2
_FILLED
  0
BLOCK_RECORD
  5
212
100
AcDbSymbolTableRecord
100
AcDbBlockTableRecord
  2
*D0
  0
BLOCK_RECORD
  5
213
100
AcDbSymbolTableRecord
100
AcDbBlockTableRecord
  2
*D1
  0
BLOCK_RECORD
  5
214
100
AcDbSymbolTableRecord
100
AcDbBlockTableRecord
  2
*D2
  0
ENDTAB
  0
TABLE
  2
DIMSTYLE
  5
A
100
AcDbSymbolTable
 70
1
100
AcDbDimStyleTable
 71
0
  0
DIMSTYLE
105
215
100
AcDbSymbolTableRecord
100
AcDbDimStyleTableRecord
  2
STANDARD
 70
0
  3

  4

 40
1.0
 41
3.0
 42
0.5
 43
0.38
 44
1.5
 45
0.0
 46
0.0
 47
0.01
 48
0.01
140
3.0
141
0.09
142
0.0
143
25.4
144
1.0
145
0.0
146
1.0
147
0.625
 71
1.0
 72
0.0
 73
0
 74
0
 75
0
 76
0
 77
1
 78
8
170
0
171
2
172
0
173
0
174
0
175
0
176
0
177
0
178
0
270
2
271
2
272
2
273
2
274
2
275
0
280
0
281
0
282
0
283
1
284
8
285
0
286
0
287
3
288
0
340
11
278
44
341
211
342
211
343
211
344
211
  0
DIMSTYLE
105
216
100
AcDbSymbolTableRecord
100
AcDbDimStyleTableRecord
  2
DIMSTYLE_1
 70
0
  3

  4

 40
1.0
 41
3.0
 42
0.5
 43
0.38
 44
1.5
 45
0.0
 46
0.0
 47
0.0
 48
0.0
140
3.0
141
0.09
142
0.0
143
25.4
144
1.0
145
0.0
146
1.0
147
0.75
 71
0.0
 72
0.0
 73
0
 74
0
 75
0
 76
0
 77
1
 78
8
170
0
171
2
172
0
173
0
174
0
175
0
176
0
177
0
178
0
270
2
271
2
272
2
273
2
274
2
275
0
280
0
281
0
282
0
283
1
284
8
285
0
286
0
287
3
288
0
340
11
278
44
341
211
342
211
343
211
344
211
  0
ENDTAB
  0
ENDSEC
  0
SECTION
  2
BLOCKS
  0
BLOCK
  5
20
100
AcDbEntity
  8
0
100
AcDbBlockBegin
  2
*Model_Space
 70
0
 10
0.0
 20
0.0
 30
0.0
  3
*Model_Space
  1

  0
ENDBLK
  5
21
100
AcDbEntity
  8
0
100
AcDbBlockEnd
  0
BLOCK
  5
1C
100
AcDbEntity
  8
0
100
AcDbBlockBegin
  2
*Paper_Space
 70
0
 10
0.0
 20
0.0
 30
0.0
  3
*Paper_Space
  1

  0
ENDBLK
  5
1D
100
AcDbEntity
  8
0
100
AcDbBlockEnd
  0
BLOCK
  5
217
100
AcDbEntity
  8
0
100
AcDbBlockBegin
  2
_FILLED
 70
64
 10
0.0
 20
0.0
  3
_FILLED
  1

  0
SOLID
  5
218
100
AcDbEntity
  8
0
  6
BYBLOCK
 62
0
100
AcDbTrace
 10
0.0
 20
0.0
 11
-1.0
 21
0.3166666667
 12
-1.0
 22
-0.3166666667
 13
-1.0
 23
-0.3166666667
  0
ENDBLK
  5
219
100
AcDbEntity
  8
0
  6
BYBLOCK
 62
0
100
AcDbBlockEnd
  0
BLOCK
  5
21A
100
AcDbEntity
  8
0
100
AcDbBlockBegin
 62
7
  6
CONTINUOUS
  2
*D0
 70
65
 10
0.0
 20
0.0
  3
*D0
  1

  0
MTEXT
  5
21B
100
AcDbEntity
  8
0
100
AcDbMText
 62
7
  6
CONTINUOUS
  7
STANDARD
 71
2
 72
1
 10
-19.7861088361
 20
53.3924183751
 30
0.0
 11
1.0
 21
0.0
 31
0.0
 44
0.9
  1
70,6
 40
3.0
 41
8.7857142857
  0
LINE
  5
21C
100
AcDbEntity
  8
0
100
AcDbLine
 62
7
  6
CONTINUOUS
 10
15.5138911639
 20
25.8924183751
 11
15.5138911639
 21
51.1424183751
  0
LINE
  5
21D
100
AcDbEntity
  8
0
100
AcDbLine
 62
7
  6
CONTINUOUS
 10
-55.0861088361
 20
26.1424183751
 11
-55.0861088361
 21
51.1424183751
  0
LINE
  5
21E
100
AcDbEntity
  8
0
100
AcDbLine
 62
7
  6
CONTINUOUS
 10
15.5138911639
 20
49.6424183751
 11
-19.7861088361
 21
49.6424183751
  0
LINE
  5
21F
100
AcDbEntity
  8
0
100
AcDbLine
 62
7
  6
CONTINUOUS
 10
-55.0861088361
 20
49.6424183751
 11
-19.7861088361
 21
49.6424183751
  0
INSERT
  5
220
100
AcDbEntity
  8
0
100
AcDbBlockReference
 62
7
  6
CONTINUOUS
  2
_FILLED
 10
15.5138911639
 20
49.6424183751
 41
3.0
 42
3.0
 43
3.0
  0
INSERT
  5
221
100
AcDbEntity
  8
0
100
AcDbBlockReference
 62
7
  6
CONTINUOUS
  2
_FILLED
 10
-55.0861088361
 20
49.6424183751
 41
3.0
 42
3.0
 43
3.0
 50
180.0
  0
ENDBLK
  5
222
100
AcDbEntity
  8
0
  6
BYBLOCK
 62
0
100
AcDbBlockEnd
  0
BLOCK
  5
223
100
AcDbEntity
  8
0
100
AcDbBlockBegin
 62
7
  6
CONTINUOUS
  2
*D1
 70
65
 10
0.0
 20
0.0
  3
*D1
  1

  0
MTEXT
  5
224
100
AcDbEntity
  8
0
100
AcDbMText
 62
7
  6
CONTINUOUS
  7
STANDARD
 71
2
 72
1
 10
29.4138911639
 20
1.6424183751
 30
0.0
 11
0.0
 21
1.0
 31
0.0
 44
0.9
  1
80
 40
3.0
 41
4.7142857143
  0
LINE
  5
225
100
AcDbEntity
  8
0
100
AcDbLine
 62
7
  6
CONTINUOUS
 10
11.0138911639
 20
41.6424183751
 11
34.6638911639
 21
41.6424183751
  0
LINE
  5
226
100
AcDbEntity
  8
0
100
AcDbLine
 62
7
  6
CONTINUOUS
 10
11.0138911639
 20
-38.3575816249
 11
34.6638911639
 21
-38.3575816249
  0
LINE
  5
227
100
AcDbEntity
  8
0
100
AcDbLine
 62
7
  6
CONTINUOUS
 10
33.1638911639
 20
41.6424183751
 11
33.1638911639
 21
1.6424183751
  0
LINE
  5
228
100
AcDbEntity
  8
0
100
AcDbLine
 62
7
  6
CONTINUOUS
 10
33.1638911639
 20
-38.3575816249
 11
33.1638911639
 21
1.6424183751
  0
INSERT
  5
229
100
AcDbEntity
  8
0
100
AcDbBlockReference
 62
7
  6
CONTINUOUS
  2
_FILLED
 10
33.1638911639
 20
41.6424183751
 41
3.0
 42
3.0
 43
3.0
 50
90.0
  0
INSERT
  5
22A
100
AcDbEntity
  8
0
100
AcDbBlockReference
 62
7
  6
CONTINUOUS
  2
_FILLED
 10
33.1638911639
 20
-38.3575816249
 41
3.0
 42
3.0
 43
3.0
 50
270.0
  0
ENDBLK
  5
22B
100
AcDbEntity
  8
0
  6
BYBLOCK
 62
0
100
AcDbBlockEnd
  0
BLOCK
  5
22C
100
AcDbEntity
  8
0
100
AcDbBlockBegin
 62
7
  6
CONTINUOUS
  2
*D2
 70
65
 10
0.0
 20
0.0
  3
*D2
  1

  0
MTEXT
  5
22D
100
AcDbEntity
  8
0
100
AcDbMText
 62
7
  6
CONTINUOUS
  7
STANDARD
 71
3
 72
1
 10
-81.1501046881
 20
53.3924183751
 30
0.0
 11
1.0
 21
0.0
 31
0.0
 44
0.9
  1
3
 40
3.0
 41
2.1428571429
  0
LINE
  5
22E
100
AcDbEntity
  8
0
100
AcDbLine
 62
7
  6
CONTINUOUS
 10
-77.106215339
 20
42.1424183751
 11
-77.106215339
 21
51.1424183751
  0
LINE
  5
22F
100
AcDbEntity
  8
0
100
AcDbLine
 62
7
  6
CONTINUOUS
 10
-74.106215339
 20
42.1424183751
 11
-74.106215339
 21
51.1424183751
  0
LINE
  5
230
100
AcDbEntity
  8
0
100
AcDbLine
 62
7
  6
CONTINUOUS
 10
-77.106215339
 20
49.6424183751
 11
-83.292961831
 21
49.6424183751
  0
LINE
  5
231
100
AcDbEntity
  8
0
100
AcDbLine
 62
7
  6
CONTINUOUS
 10
-83.292961831
 20
49.6424183751
 11
-75.606215339
 21
49.6424183751
  0
LINE
  5
232
100
AcDbEntity
  8
0
100
AcDbLine
 62
7
  6
CONTINUOUS
 10
-74.106215339
 20
49.6424183751
 11
-70.106215339
 21
49.6424183751
  0
LINE
  5
233
100
AcDbEntity
  8
0
100
AcDbLine
 62
7
  6
CONTINUOUS
 10
-70.106215339
 20
49.6424183751
 11
-75.606215339
 21
49.6424183751
  0
INSERT
  5
234
100
AcDbEntity
  8
0
100
AcDbBlockReference
 62
7
  6
CONTINUOUS
  2
_FILLED
 10
-77.106215339
 20
49.6424183751
 41
3.0
 42
3.0
 43
3.0
  0
INSERT
  5
235
100
AcDbEntity
  8
0
100
AcDbBlockReference
 62
7
  6
CONTINUOUS
  2
_FILLED
 10
-74.106215339
 20
49.6424183751
 41
3.0
 42
3.0
 43
3.0
 50
180.0
  0
ENDBLK
  5
236
100
AcDbEntity
  8
0
  6
BYBLOCK
 62
0
100
AcDbBlockEnd
  0
ENDSEC
  0
SECTION
  2
ENTITIES
  0
DIMENSION
  5
237
100
AcDbEntity
  8
0
100
AcDbDimension
 62
7
  6
CONTINUOUS
  2
*D0
 10
-55.0861088361
 20
49.6424183751
 11
-19.7861088361
 21
49.6424183751
 70
160
 71
2
 42
70.6
  3
DIMSTYLE_1
100
AcDbAlignedDimension
 13
15.5138911639
 23
25.3924183751
 14
-55.0861088361
 24
25.6424183751
 50
180.0
100
AcDbRotatedDimension
  0
DIMENSION
  5
238
100
AcDbEntity
  8
0
100
AcDbDimension
 62
7
  6
CONTINUOUS
  2
*D1
 10
33.1638911639
 20
-38.3575816249
 11
33.1638911639
 21
1.6424183751
 70
160
 71
2
 42
80.0
  3
DIMSTYLE_1
100
AcDbAlignedDimension
 13
10.5138911639
 23
41.6424183751
 14
10.5138911639
 24
-38.3575816249
 50
270.0
100
AcDbRotatedDimension
  0
DIMENSION
  5
239
100
AcDbEntity
  8
0
100
AcDbDimension
 62
7
  6
CONTINUOUS
  2
*D2
 10
-74.106215339
 20
49.6424183751
 11
-82.2215332595
 21
49.6424183751
 70
160
 71
3
 42
3.0
  3
DIMSTYLE_1
100
AcDbAlignedDimension
 13
-77.106215339
 23
41.6424183751
 14
-74.106215339
 24
41.6424183751
100
AcDbRotatedDimension
  0
LINE
  5
23A
100
AcDbEntity
  8
ASSI
100
AcDbLine
 62
7
  6
CONTINUOUS
 10
-60.4861088361
 20
31.8924183751
 11
-60.8861959758
 21
31.3710146633
  0
LINE
  5
23B
100
AcDbEntity
  8
ASSI
100
AcDbLine
 62
7
  6
CONTINUOUS
 10
-64.2147051243
 20
28.0425055147
 11
-64.7361088361
 21
27.6424183751
  0
LINE
  5
23C
100
AcDbEntity
  8
ASSI
100
AcDbLine
 62
7
  6
CONTINUOUS
 10
-60.4861088361
 20
23.3924183751
 11
-60.0860216964
 21
23.9138220868
  0
LINE
  5
23D
100
AcDbEntity
  8
RACCORDO
100
AcDbLine
 62
7
  6
CONTINUOUS
 10
-50.0861088361
 20
-38.3575816249
 11
10.5138911639
 21
-38.3575816249
  0
LINE
  5
23E
100
AcDbEntity
  8
0
100
AcDbLine
 62
7
  6
CONTINUOUS
 10
-43.7236088361
 20
34.87646096
 11
-44.7652754034
 21
32.6424183751
  0
LINE
  5
23F
100
AcDbEntity
  8
0
100
AcDbLine
 62
7
  6
CONTINUOUS
 10
-42.6819419707
 20
35.1424183751
 11
-42.9944422688
 21
34.7700779939
  0
LINE
  5
240
100
AcDbEntity
  8
0
100
AcDbLine
 62
7
  6
CONTINUOUS
 10
-42.9944422688
 20
34.3445459808
 11
-42.6819419707
 21
34.7168865109
  0
LINE
  5
241
100
AcDbEntity
  8
0
100
AcDbLine
 62
7
  6
CONTINUOUS
 10
-41.5881919707
 20
33.7594396675
 11
-41.3798588361
 21
33.9190141166
  0
LINE
  5
242
100
AcDbEntity
  8
0
100
AcDbLine
 62
7
  6
CONTINUOUS
 10
-40.4944419707
 20
33.0679502765
 11
-40.6506919707
 21
32.9615673105
  0
LINE
  5
243
100
AcDbEntity
  8
0
100
AcDbLine
 62
7
  6
CONTINUOUS
 10
-41.4319419707
 20
34.1849715317
 11
-41.6923588361
 21
34.0253970826
  0
LINE
  5
244
100
AcDbEntity
  8
0
100
AcDbLine
 62
7
  6
CONTINUOUS
 10
-40.5986088361
 20
32.6956098628
 11
-40.3381919707
 21
32.8551843258
  0
LINE
  5
245
100
AcDbEntity
  8
RACCORDO
100
AcDbLine
 62
7
  6
CONTINUOUS
 10
-55.0861088361
 20
36.6424183751
 11
-55.0861088361
 21
29.6424183751
  0
LINE
  5
246
100
AcDbEntity
  8
ASSI
100
AcDbLine
 62
7
  6
CONTINUOUS
 10
-55.0861088361
 20
25.6424183751
 11
-55.0861088361
 21
-22.1075816249
  0
LINE
  5
247
100
AcDbEntity
  8
RACCORDO
100
AcDbLine
 62
7
  6
CONTINUOUS
 10
-55.0861088361
 20
-26.6075816249
 11
-55.0861088361
 21
-33.3575816249
  0
LINE
  5
248
100
AcDbEntity
  8
0
100
AcDbLine
 62
7
  6
CONTINUOUS
 10
-46.5361088361
 20
32.6424183751
 11
-45.7027755524
 21
35.1424183751
  0
LINE
  5
249
100
AcDbEntity
  8
0
100
AcDbLine
 62
7
  6
CONTINUOUS
 10
-46.0152755524
 20
35.1424183751
 11
-46.7444421943
 21
32.9615673105
  0
LINE
  5
24A
100
AcDbEntity
  8
0
100
AcDbLine
 62
7
  6
CONTINUOUS
 10
-44.4527754034
 20
32.6424183751
 11
-43.4111088361
 21
34.87646096
  0
LINE
  5
24B
100
AcDbEntity
  8
0
100
AcDbLine
 62
7
  6
CONTINUOUS
 10
-40.3902757014
 20
33.2275247628
 11
-40.4944419707
 21
33.0679502765
  0
LINE
  5
24C
100
AcDbEntity
  8
0
100
AcDbLine
 62
7
  6
CONTINUOUS
 10
-40.3381919707
 20
32.8551843258
 11
-40.1819419707
 21
33.0679502765
  0
LINE
  5
24D
100
AcDbEntity
  8
0
100
AcDbLine
 62
7
  6
CONTINUOUS
 10
-37.0569425668
 20
35.1424183751
 11
-37.3694425668
 21
34.7700779939
  0
LINE
  5
24E
100
AcDbEntity
  8
0
100
AcDbLine
 62
7
  6
CONTINUOUS
 10
-37.3694425668
 20
34.3445459808
 11
-37.0569425668
 21
34.7168865109
  0
LINE
  5
24F
100
AcDbEntity
  8
0
100
AcDbLine
 62
7
  6
CONTINUOUS
 10
1.6129061639
 20
-32.9766606249
 11
1.8290561639
 21
-32.9766606249
  0
LINE
  5
250
100
AcDbEntity
  8
0
100
AcDbLine
 62
7
  6
CONTINUOUS
 10
2.6024711639
 20
-32.9766606249
 11
2.8186211639
 21
-32.9766606249
  0
LINE
  5
251
100
AcDbEntity
  8
0
100
AcDbLine
 62
7
  6
CONTINUOUS
 10
3.1555121639
 20
-32.9766606249
 11
3.3779961639
 21
-32.9766606249
  0
LINE
  5
252
100
AcDbEntity
  8
0
100
AcDbLine
 62
7
  6
CONTINUOUS
 10
4.3451861639
 20
-32.9766606249
 11
4.5811781639
 21
-32.9766606249
  0
LINE
  5
253
100
AcDbEntity
  8
0
100
AcDbLine
 62
7
  6
CONTINUOUS
 10
4.7795981639
 20
-32.9766606249
 11
5.8067361639
 21
-32.9766606249
  0
LINE
  5
254
100
AcDbEntity
  8
0
100
AcDbLine
 62
7
  6
CONTINUOUS
 10
6.1723351639
 20
-32.9766606249
 11
6.3884851639
 21
-32.9766606249
  0
LINE
  5
255
100
AcDbEntity
  8
0
100
AcDbLine
 62
7
  6
CONTINUOUS
 10
5.8067361639
 20
-32.7849956249
 11
4.9957491639
 21
-32.7849956249
  0
LINE
  5
256
100
AcDbEntity
  8
0
100
AcDbLine
 62
7
  6
CONTINUOUS
 10
3.5451751639
 20
-32.5110076249
 11
4.1868721639
 21
-32.5110076249
  0
LINE
  5
257
100
AcDbEntity
  8
0
100
AcDbLine
 62
7
  6
CONTINUOUS
 10
4.1091931639
 20
-32.3193426249
 11
3.6118771639
 21
-32.3193426249
  0
LINE
  5
258
100
AcDbEntity
  8
0
100
AcDbLine
 62
7
  6
CONTINUOUS
 10
2.0612491639
 20
-31.5687256249
 11
2.6024711639
 21
-31.5687256249
  0
LINE
  5
259
100
AcDbEntity
  8
0
100
AcDbLine
 62
7
  6
CONTINUOUS
 10
2.8186211639
 20
-31.5687256249
 11
3.3602651639
 21
-31.5687256249
  0
LINE
  5
25A
100
AcDbEntity
  8
0
100
AcDbLine
 62
7
  6
CONTINUOUS
 10
6.9921881639
 20
-31.3766386249
 11
6.7384641639
 21
-31.3766386249
  0
LINE
  5
25B
100
AcDbEntity
  8
0
100
AcDbLine
 62
7
  6
CONTINUOUS
 10
5.8202451639
 20
-31.3766386249
 11
5.5686321639
 21
-31.3766386249
  0
LINE
  5
25C
100
AcDbEntity
  8
0
100
AcDbLine
 62
7
  6
CONTINUOUS
 10
4.9957491639
 20
-31.3766386249
 11
4.7795981639
 21
-31.3766386249
  0
LINE
  5
25D
100
AcDbEntity
  8
0
100
AcDbLine
 62
7
  6
CONTINUOUS
 10
4.0019621639
 20
-31.3766386249
 11
3.7571041639
 21
-31.3766386249
  0
LINE
  5
25E
100
AcDbEntity
  8
0
100
AcDbLine
 62
7
  6
CONTINUOUS
 10
3.3602651639
 20
-31.3766386249
 11
2.0612491639
 21
-31.3766386249
  0
LINE
  5
25F
100
AcDbEntity
  8
0
100
AcDbLine
 62
7
  6
CONTINUOUS
 10
1.8290561639
 20
-31.3766386249
 11
1.6129061639
 21
-31.3766386249
  0
LINE
  5
260
100
AcDbEntity
  8
0
100
AcDbLine
 62
7
  6
CONTINUOUS
 10
-0.2345078361
 20
-30.3381026249
 11
-0.0255338361
 21
-30.3381026249
  0
LINE
  5
261
100
AcDbEntity
  8
0
100
AcDbLine
 62
7
  6
CONTINUOUS
 10
0.4249211639
 20
-30.3381026249
 11
0.6389611639
 21
-30.3381026249
  0
LINE
  5
262
100
AcDbEntity
  8
0
100
AcDbLine
 62
7
  6
CONTINUOUS
 10
1.0889931639
 20
-30.3381026249
 11
1.2979671639
 21
-30.3381026249
  0
LINE
  5
263
100
AcDbEntity
  8
0
100
AcDbLine
 62
7
  6
CONTINUOUS
 10
1.4896321639
 20
-30.3381026249
 11
1.7125381639
 21
-30.3381026249
  0
LINE
  5
264
100
AcDbEntity
  8
0
100
AcDbLine
 62
7
  6
CONTINUOUS
 10
2.6797281639
 20
-30.3381026249
 11
2.9157201639
 21
-30.3381026249
  0
LINE
  5
265
100
AcDbEntity
  8
0
100
AcDbLine
 62
7
  6
CONTINUOUS
 10
3.1251161639
 20
-30.3381026249
 11
3.7735644966
 21
-30.3381026249
  0
LINE
  5
266
100
AcDbEntity
  8
0
100
AcDbLine
 62
7
  6
CONTINUOUS
 10
4.7449801639
 20
-30.3381026249
 11
5.9257881639
 21
-30.3381026249
  0
LINE
  5
267
100
AcDbEntity
  8
0
100
AcDbLine
 62
7
  6
CONTINUOUS
 10
6.8060111639
 20
-30.3381026249
 11
7.0221621639
 21
-30.3381026249
  0
LINE
  5
268
100
AcDbEntity
  8
0
100
AcDbLine
 62
7
  6
CONTINUOUS
 10
7.3919821639
 20
-30.3381026249
 11
7.6013781639
 21
-30.3381026249
  0
LINE
  5
269
100
AcDbEntity
  8
0
100
AcDbLine
 62
7
  6
CONTINUOUS
 10
8.4191201639
 20
-30.3381026249
 11
8.6622901639
 21
-30.3381026249
  0
LINE
  5
26A
100
AcDbEntity
  8
0
100
AcDbLine
 62
7
  6
CONTINUOUS
 10
3.7444426403
 20
-30.1531916249
 11
3.3416891639
 21
-30.1531916249
  0
LINE
  5
26B
100
AcDbEntity
  8
0
100
AcDbLine
 62
7
  6
CONTINUOUS
 10
5.9257881639
 20
-30.1464376249
 11
4.9611311639
 21
-30.1464376249
  0
LINE
  5
26C
100
AcDbEntity
  8
0
100
AcDbLine
 62
7
  6
CONTINUOUS
 10
-40.3381919707
 20
33.3870992119
 11
-40.3902757014
 21
33.2275247628
  0
LINE
  5
26D
100
AcDbEntity
  8
0
100
AcDbLine
 62
7
  6
CONTINUOUS
 10
-40.1819419707
 20
33.0679502765
 11
-40.0777757014
 21
33.3339077289
  0
LINE
  5
26E
100
AcDbEntity
  8
0
100
AcDbLine
 62
7
  6
CONTINUOUS
 10
-38.0986088361
 20
34.87646096
 11
-39.1402757014
 21
32.6424183751
  0
LINE
  5
26F
100
AcDbEntity
  8
0
100
AcDbLine
 62
7
  6
CONTINUOUS
 10
-38.8277757014
 20
32.6424183751
 11
-37.7861088361
 21
34.87646096
  0
LINE
  5
270
100
AcDbEntity
  8
0
100
AcDbLine
 62
7
  6
CONTINUOUS
 10
1.8797171639
 20
-29.8724496249
 11
2.5214141639
 21
-29.8724496249
  0
LINE
  5
271
100
AcDbEntity
  8
0
100
AcDbLine
 62
7
  6
CONTINUOUS
 10
2.4433131639
 20
-29.6807846249
 11
1.9468421639
 21
-29.6807846249
  0
LINE
  5
272
100
AcDbEntity
  8
0
100
AcDbLine
 62
7
  6
CONTINUOUS
 10
4.9611311639
 20
-29.6119706249
 11
5.8367101639
 21
-29.6119706249
  0
LINE
  5
273
100
AcDbEntity
  8
0
100
AcDbLine
 62
7
  6
CONTINUOUS
 10
5.8367101639
 20
-29.4203056249
 11
4.9611311639
 21
-29.4203056249
  0
LINE
  5
274
100
AcDbEntity
  8
0
100
AcDbLine
 62
7
  6
CONTINUOUS
 10
4.9611311639
 20
-28.9301676249
 11
5.9105901639
 21
-28.9301676249
  0
LINE
  5
275
100
AcDbEntity
  8
0
100
AcDbLine
 62
7
  6
CONTINUOUS
 10
3.3416891639
 20
-28.9234126249
 11
3.7444381757
 21
-28.9234126249
  0
LINE
  5
276
100
AcDbEntity
  8
0
100
AcDbLine
 62
7
  6
CONTINUOUS
 10
8.6622901639
 20
-28.7385026249
 11
8.4524711639
 21
-28.7385026249
  0
LINE
  5
277
100
AcDbEntity
  8
0
100
AcDbLine
 62
7
  6
CONTINUOUS
 10
7.6482391639
 20
-28.7385026249
 11
7.3919821639
 21
-28.7385026249
  0
LINE
  5
278
100
AcDbEntity
  8
0
100
AcDbLine
 62
7
  6
CONTINUOUS
 10
7.0221621639
 20
-28.7385026249
 11
6.8060111639
 21
-28.7385026249
  0
LINE
  5
279
100
AcDbEntity
  8
0
100
AcDbLine
 62
7
  6
CONTINUOUS
 10
5.9105901639
 20
-28.7385026249
 11
4.7449801639
 21
-28.7385026249
  0
LINE
  5
27A
100
AcDbEntity
  8
0
100
AcDbLine
 62
7
  6
CONTINUOUS
 10
3.7735695833
 20
-28.7385026249
 11
3.1251161639
 21
-28.7385026249
  0
LINE
  5
27B
100
AcDbEntity
  8
0
100
AcDbLine
 62
7
  6
CONTINUOUS
 10
2.3365041639
 20
-28.7385026249
 11
2.0916461639
 21
-28.7385026249
  0
LINE
  5
27C
100
AcDbEntity
  8
0
100
AcDbLine
 62
7
  6
CONTINUOUS
 10
1.2979671639
 20
-28.7385026249
 11
0.9906281639
 21
-28.7385026249
  0
LINE
  5
27D
100
AcDbEntity
  8
0
100
AcDbLine
 62
7
  6
CONTINUOUS
 10
0.0749431639
 20
-28.7385026249
 11
-0.2345078361
 21
-28.7385026249
  0
LINE
  5
27E
100
AcDbEntity
  8
ASSI
100
AcDbLine
 62
7
  6
CONTINUOUS
 10
-55.0861088361
 20
-26.6075816249
 11
-53.3932979749
 21
-26.6075816249
  0
LINE
  5
27F
100
AcDbEntity
  8
ASSI
100
AcDbLine
 62
7
  6
CONTINUOUS
 10
15.5138911639
 20
-26.3575816249
 11
17.7417467788
 21
-26.3575816249
  0
LINE
  5
280
100
AcDbEntity
  8
0
100
AcDbLine
 62
7
  6
CONTINUOUS
 10
-45.2861088361
 20
35.1424183751
 11
-45.2861088361
 21
34.87646096
  0
LINE
  5
281
100
AcDbEntity
  8
0
100
AcDbLine
 62
7
  6
CONTINUOUS
 10
-43.4111088361
 20
34.87646096
 11
-43.4111088361
 21
35.1424183751
  0
LINE
  5
282
100
AcDbEntity
  8
ASSI
100
AcDbLine
 62
7
  6
CONTINUOUS
 10
17.7417467788
 20
-22.3575816249
 11
15.5138911639
 21
-22.3575816249
  0
LINE
  5
283
100
AcDbEntity
  8
ASSI
100
AcDbLine
 62
7
  6
CONTINUOUS
 10
-55.0861088361
 20
-22.1075816249
 11
-53.3932979749
 21
-22.1075816249
  0
LINE
  5
284
100
AcDbEntity
  8
0
100
AcDbLine
 62
7
  6
CONTINUOUS
 10
-42.9944422688
 20
34.7700779939
 11
-42.9944422688
 21
34.3445459808
  0
LINE
  5
285
100
AcDbEntity
  8
0
100
AcDbLine
 62
7
  6
CONTINUOUS
 10
-42.6819419707
 20
34.7168865109
 11
-42.6819419707
 21
32.6424183751
  0
LINE
  5
286
100
AcDbEntity
  8
0
100
AcDbLine
 62
7
  6
CONTINUOUS
 10
-42.3694419707
 20
32.6424183751
 11
-42.3694419707
 21
35.1424183751
  0
LINE
  5
287
100
AcDbEntity
  8
0
100
AcDbLine
 62
7
  6
CONTINUOUS
 10
-41.9527757014
 20
35.1424183751
 11
-41.9527757014
 21
33.7594396675
  0
LINE
  5
288
100
AcDbEntity
  8
0
100
AcDbLine
 62
7
  6
CONTINUOUS
 10
-41.6923588361
 20
34.0253970826
 11
-41.6923588361
 21
34.87646096
  0
LINE
  5
289
100
AcDbEntity
  8
0
100
AcDbLine
 62
7
  6
CONTINUOUS
 10
-40.3381919707
 20
33.4934821779
 11
-40.3381919707
 21
33.3870992119
  0
LINE
  5
28A
100
AcDbEntity
  8
0
100
AcDbLine
 62
7
  6
CONTINUOUS
 10
-40.1819419707
 20
34.87646096
 11
-40.1819419707
 21
35.1424183751
  0
LINE
  5
28B
100
AcDbEntity
  8
0
100
AcDbLine
 62
7
  6
CONTINUOUS
 10
-40.0777757014
 20
33.3339077289
 11
-40.0777757014
 21
33.5466736609
  0
LINE
  5
28C
100
AcDbEntity
  8
0
100
AcDbLine
 62
7
  6
CONTINUOUS
 10
-39.6611088361
 20
35.1424183751
 11
-39.6611088361
 21
34.87646096
  0
LINE
  5
28D
100
AcDbEntity
  8
0
100
AcDbLine
 62
7
  6
CONTINUOUS
 10
-37.7861088361
 20
34.87646096
 11
-37.7861088361
 21
35.1424183751
  0
LINE
  5
28E
100
AcDbEntity
  8
0
100
AcDbLine
 62
7
  6
CONTINUOUS
 10
-37.3694425668
 20
34.7700779939
 11
-37.3694425668
 21
34.3445459808
  0
LINE
  5
28F
100
AcDbEntity
  8
0
100
AcDbLine
 62
7
  6
CONTINUOUS
 10
-37.0569425668
 20
34.7168865109
 11
-37.0569425668
 21
32.6424183751
  0
LINE
  5
290
100
AcDbEntity
  8
0
100
AcDbLine
 62
7
  6
CONTINUOUS
 10
-36.7444425668
 20
32.6424183751
 11
-36.7444425668
 21
35.1424183751
  0
LINE
  5
291
100
AcDbEntity
  8
ASSI
100
AcDbLine
 62
7
  6
CONTINUOUS
 10
-60.8861959758
 20
23.9138220868
 11
-60.4861088361
 21
23.3924183751
  0
LINE
  5
292
100
AcDbEntity
  8
0
100
AcDbLine
 62
7
  6
CONTINUOUS
 10
-46.7444421943
 20
32.9615673105
 11
-47.4736088361
 21
35.1424183751
  0
LINE
  5
293
100
AcDbEntity
  8
0
100
AcDbLine
 62
7
  6
CONTINUOUS
 10
-47.7861088361
 20
35.1424183751
 11
-46.9527754779
 21
32.6424183751
  0
LINE
  5
294
100
AcDbEntity
  8
ASSI
100
AcDbLine
 62
7
  6
CONTINUOUS
 10
-60.0860216964
 20
31.3710146633
 11
-60.4861088361
 21
31.8924183751
  0
LINE
  5
295
100
AcDbEntity
  8
0
100
AcDbLine
 62
7
  6
CONTINUOUS
 10
-50.0319244426
 20
-14.9539860034
 11
-48.6658990389
 21
-13.5879605996
  0
LINE
  5
296
100
AcDbEntity
  8
0
100
AcDbLine
 62
7
  6
CONTINUOUS
 10
-47.4158990389
 20
-15.7530241091
 11
-49.2819244426
 21
-16.2530241091
  0
LINE
  5
297
100
AcDbEntity
  8
0
100
AcDbLine
 62
7
  6
CONTINUOUS
 10
-3.1897044576
 20
-28.6033972315
 11
-4.5557298614
 21
-27.2373718277
  0
LINE
  5
298
100
AcDbEntity
  8
0
100
AcDbLine
 62
7
  6
CONTINUOUS
 10
-40.3902757014
 20
33.6530567015
 11
-40.3381919707
 21
33.4934821779
  0
LINE
  5
299
100
AcDbEntity
  8
0
100
AcDbLine
 62
7
  6
CONTINUOUS
 10
-37.1815513203
 20
29.2722085778
 11
-37.6815513203
 21
31.1382339816
  0
LINE
  5
29A
100
AcDbEntity
  8
ASSI
100
AcDbLine
 62
7
  6
CONTINUOUS
 10
-64.7361088361
 20
27.6424183751
 11
-64.2147051243
 21
27.2423312354
  0
LINE
  5
29B
100
AcDbEntity
  8
0
100
AcDbLine
 62
7
  6
CONTINUOUS
 10
-41.9527757014
 20
33.2807162458
 11
-41.8486088361
 21
33.0679502765
  0
LINE
  5
29C
100
AcDbEntity
  8
0
100
AcDbLine
 62
7
  6
CONTINUOUS
 10
-41.5361088361
 20
33.0679502765
 11
-41.6402757014
 21
33.2807162458
  0
LINE
  5
29D
100
AcDbEntity
  8
0
100
AcDbLine
 62
7
  6
CONTINUOUS
 10
-40.0777757014
 20
33.5466736609
 11
-40.1819419707
 21
33.8126311505
  0
LINE
  5
29E
100
AcDbEntity
  8
0
100
AcDbLine
 62
7
  6
CONTINUOUS
 10
7.8436813667
 20
19.0378608593
 11
-16.5441817615
 21
4.9575215172
  0
LINE
  5
29F
100
AcDbEntity
  8
0
100
AcDbLine
 62
7
  6
CONTINUOUS
 10
-24.2780359107
 20
0.4923787424
 11
-48.6658990389
 21
-13.5879605996
  0
LINE
  5
2A0
100
AcDbEntity
  8
0
100
AcDbLine
 62
7
  6
CONTINUOUS
 10
-40.4944419707
 20
33.8126311505
 11
-40.3902757014
 21
33.6530567015
  0
LINE
  5
2A1
100
AcDbEntity
  8
0
100
AcDbLine
 62
7
  6
CONTINUOUS
 10
-37.1815513203
 20
29.2722085778
 11
-23.1012119783
 21
4.8843454496
  0
LINE
  5
2A2
100
AcDbEntity
  8
0
100
AcDbLine
 62
7
  6
CONTINUOUS
 10
-18.6360692034
 20
-2.8495086995
 11
-4.5557298614
 21
-27.2373718277
  0
LINE
  5
2A3
100
AcDbEntity
  8
0
100
AcDbLine
 62
7
  6
CONTINUOUS
 10
-47.4158990389
 20
-15.7530241091
 11
-23.0280359107
 21
-1.6726847671
  0
LINE
  5
2A4
100
AcDbEntity
  8
0
100
AcDbLine
 62
7
  6
CONTINUOUS
 10
-15.2941817615
 20
2.7924580078
 11
9.0936813667
 21
16.8727973498
  0
LINE
  5
2A5
100
AcDbEntity
  8
0
100
AcDbLine
 62
7
  6
CONTINUOUS
 10
-41.8486088361
 20
33.0679502765
 11
-41.6923588361
 21
32.8551843258
  0
LINE
  5
2A6
100
AcDbEntity
  8
0
100
AcDbLine
 62
7
  6
CONTINUOUS
 10
-40.1819419707
 20
33.8126311505
 11
-40.3381919707
 21
34.0253970826
  0
LINE
  5
2A7
100
AcDbEntity
  8
0
100
AcDbLine
 62
7
  6
CONTINUOUS
 10
5.5686321639
 20
-31.3766386249
 11
6.1723351639
 21
-32.3328526249
  0
LINE
  5
2A8
100
AcDbEntity
  8
0
100
AcDbLine
 62
7
  6
CONTINUOUS
 10
-2.3906663519
 20
-25.9873718277
 11
-16.4710056939
 21
-1.5995086995
  0
LINE
  5
2A9
100
AcDbEntity
  8
0
100
AcDbLine
 62
7
  6
CONTINUOUS
 10
-20.9361484688
 20
6.1343454496
 11
-35.0164878108
 21
30.5222085778
  0
LINE
  5
2AA
100
AcDbEntity
  8
0
100
AcDbLine
 62
7
  6
CONTINUOUS
 10
-1.3026318361
 20
32.6591263751
 11
-0.4991158361
 21
35.1588623751
  0
LINE
  5
2AB
100
AcDbEntity
  8
0
100
AcDbLine
 62
7
  6
CONTINUOUS
 10
25.1638911639
 20
-24.3575816249
 11
24.6424874521
 21
-23.9574944853
  0
LINE
  5
2AC
100
AcDbEntity
  8
0
100
AcDbLine
 62
7
  6
CONTINUOUS
 10
7.6013781639
 20
-29.0384616249
 11
8.4191201639
 21
-30.3381026249
  0
LINE
  5
2AD
100
AcDbEntity
  8
0
100
AcDbLine
 62
7
  6
CONTINUOUS
 10
8.4524711639
 20
-30.0375826249
 11
7.6482391639
 21
-28.7385026249
  0
LINE
  5
2AE
100
AcDbEntity
  8
0
100
AcDbLine
 62
7
  6
CONTINUOUS
 10
6.2791441639
 20
-32.1454096249
 11
5.8202451639
 21
-31.3766386249
  0
LINE
  5
2AF
100
AcDbEntity
  8
0
100
AcDbLine
 62
7
  6
CONTINUOUS
 10
-1.0205528361
 20
35.1588623751
 11
-1.5116038361
 21
33.4382163751
  0
LINE
  5
2B0
100
AcDbEntity
  8
0
100
AcDbLine
 62
7
  6
CONTINUOUS
 10
3.8983881639
 20
35.1588623751
 11
3.1143121639
 21
32.6591263751
  0
LINE
  5
2B1
100
AcDbEntity
  8
0
100
AcDbLine
 62
7
  6
CONTINUOUS
 10
2.2823601639
 20
35.1588623751
 11
1.7605671639
 21
33.7710013751
  0
LINE
  5
2B2
100
AcDbEntity
  8
0
100
AcDbLine
 62
7
  6
CONTINUOUS
 10
1.7943091639
 20
32.6591263751
 11
2.4147201639
 21
34.2846023751
  0
LINE
  5
2B3
100
AcDbEntity
  8
0
100
AcDbLine
 62
7
  6
CONTINUOUS
 10
10.4597067704
 20
18.2388227536
 11
9.0936813667
 21
16.8727973498
  0
LINE
  5
2B4
100
AcDbEntity
  8
0
100
AcDbLine
 62
7
  6
CONTINUOUS
 10
7.8436813667
 20
19.0378608593
 11
9.7097067704
 21
19.5378608593
  0
LINE
  5
2B5
100
AcDbEntity
  8
0
100
AcDbLine
 62
7
  6
CONTINUOUS
 10
-36.3825132146
 20
31.8882339816
 11
-35.0164878108
 21
30.5222085778
  0
LINE
  5
2B6
100
AcDbEntity
  8
0
100
AcDbLine
 62
7
  6
CONTINUOUS
 10
2.9157201639
 20
-30.3381026249
 11
2.3365041639
 21
-28.7385026249
  0
LINE
  5
2B7
100
AcDbEntity
  8
0
100
AcDbLine
 62
7
  6
CONTINUOUS
 10
4.5811781639
 20
-32.9766606249
 11
4.0019621639
 21
-31.3766386249
  0
LINE
  5
2B8
100
AcDbEntity
  8
0
100
AcDbLine
 62
7
  6
CONTINUOUS
 10
2.5214141639
 20
-29.8724496249
 11
2.6797281639
 21
-30.3381026249
  0
LINE
  5
2B9
100
AcDbEntity
  8
0
100
AcDbLine
 62
7
  6
CONTINUOUS
 10
4.1868721639
 20
-32.5110076249
 11
4.3451861639
 21
-32.9766606249
  0
LINE
  5
2BA
100
AcDbEntity
  8
0
100
AcDbLine
 62
7
  6
CONTINUOUS
 10
0.5340581639
 20
-30.0976036249
 11
0.0749431639
 21
-28.7385026249
  0
LINE
  5
2BB
100
AcDbEntity
  8
0
100
AcDbLine
 62
7
  6
CONTINUOUS
 10
-0.0255338361
 20
-28.9968706249
 11
0.4249211639
 21
-30.3381026249
  0
LINE
  5
2BC
100
AcDbEntity
  8
0
100
AcDbLine
 62
7
  6
CONTINUOUS
 10
3.8705501639
 20
-31.6085266249
 11
4.1091931639
 21
-32.3193426249
  0
LINE
  5
2BD
100
AcDbEntity
  8
0
100
AcDbLine
 62
7
  6
CONTINUOUS
 10
2.2050921639
 20
-28.9699566249
 11
2.4433131639
 21
-29.6807846249
  0
LINE
  5
2BE
100
AcDbEntity
  8
0
100
AcDbLine
 62
7
  6
CONTINUOUS
 10
-2.3906663519
 20
-25.9873718277
 11
-1.8906663519
 21
-27.8533972315
  0
LINE
  5
2BF
100
AcDbEntity
  8
0
100
AcDbLine
 62
7
  6
CONTINUOUS
 10
3.8811611639
 20
33.5443153751
 11
4.1409711639
 21
34.4719983751
  0
LINE
  5
2C0
100
AcDbEntity
  8
0
100
AcDbLine
 62
7
  6
CONTINUOUS
 10
3.6304441639
 20
32.6591263751
 11
3.7744261639
 21
33.1581623751
  0
LINE
  5
2C1
100
AcDbEntity
  8
0
100
AcDbLine
 62
7
  6
CONTINUOUS
 10
-41.6923588361
 20
32.8551843258
 11
-41.4319419707
 21
32.6956098628
  0
LINE
  5
2C2
100
AcDbEntity
  8
0
100
AcDbLine
 62
7
  6
CONTINUOUS
 10
-41.3798588361
 20
32.9615673105
 11
-41.5361088361
 21
33.0679502765
  0
LINE
  5
2C3
100
AcDbEntity
  8
0
100
AcDbLine
 62
7
  6
CONTINUOUS
 10
-40.6506919707
 20
33.9190141166
 11
-40.4944419707
 21
33.8126311505
  0
LINE
  5
2C4
100
AcDbEntity
  8
0
100
AcDbLine
 62
7
  6
CONTINUOUS
 10
20.5138040242
 20
-28.0861779132
 11
20.9138911639
 21
-28.6075816249
  0
LINE
  5
2C5
100
AcDbEntity
  8
0
100
AcDbLine
 62
7
  6
CONTINUOUS
 10
-0.3054778361
 20
35.1590123751
 11
-0.3054778361
 21
32.6591263751
  0
LINE
  5
2C6
100
AcDbEntity
  8
0
100
AcDbLine
 62
7
  6
CONTINUOUS
 10
-0.2345078361
 20
-28.7385026249
 11
-0.2345078361
 21
-30.3381026249
  0
LINE
  5
2C7
100
AcDbEntity
  8
0
100
AcDbLine
 62
7
  6
CONTINUOUS
 10
-0.0255338361
 20
-30.3381026249
 11
-0.0255338361
 21
-28.9968706249
  0
LINE
  5
2C8
100
AcDbEntity
  8
0
100
AcDbLine
 62
7
  6
CONTINUOUS
 10
0.2163151639
 20
32.6591263751
 11
0.2163151639
 21
35.1590123751
  0
LINE
  5
2C9
100
AcDbEntity
  8
0
100
AcDbLine
 62
7
  6
CONTINUOUS
 10
0.9963981639
 20
32.6591263751
 11
1.1090011639
 21
34.2914073751
  0
LINE
  5
2CA
100
AcDbEntity
  8
0
100
AcDbLine
 62
7
  6
CONTINUOUS
 10
0.7229241639
 20
35.1588623751
 11
0.4972121639
 21
32.6591263751
  0
LINE
  5
2CB
100
AcDbEntity
  8
0
100
AcDbLine
 62
7
  6
CONTINUOUS
 10
-40.3381919707
 20
34.0253970826
 11
-40.5986088361
 21
34.1849715317
  0
LINE
  5
2CC
100
AcDbEntity
  8
0
100
AcDbLine
 62
7
  6
CONTINUOUS
 10
21.3139783036
 20
-20.6289853367
 11
20.9138911639
 21
-20.1075816249
  0
LINE
  5
2CD
100
AcDbEntity
  8
0
100
AcDbLine
 62
7
  6
CONTINUOUS
 10
2.4147201639
 20
34.2846023751
 11
2.5219241639
 21
32.6591263751
  0
LINE
  5
2CE
100
AcDbEntity
  8
0
100
AcDbLine
 62
7
  6
CONTINUOUS
 10
1.0889931639
 20
-28.9943376249
 11
1.0889931639
 21
-30.3381026249
  0
LINE
  5
2CF
100
AcDbEntity
  8
0
100
AcDbLine
 62
7
  6
CONTINUOUS
 10
1.2979671639
 20
-30.3381026249
 11
1.2979671639
 21
-28.7385026249
  0
LINE
  5
2D0
100
AcDbEntity
  8
0
100
AcDbLine
 62
7
  6
CONTINUOUS
 10
1.6129061639
 20
-31.3766386249
 11
1.6129061639
 21
-32.9766606249
  0
LINE
  5
2D1
100
AcDbEntity
  8
0
100
AcDbLine
 62
7
  6
CONTINUOUS
 10
1.8290561639
 20
-32.9766606249
 11
1.8290561639
 21
-31.3766386249
  0
LINE
  5
2D2
100
AcDbEntity
  8
0
100
AcDbLine
 62
7
  6
CONTINUOUS
 10
2.0612491639
 20
-31.3766386249
 11
2.0612491639
 21
-31.5687256249
  0
LINE
  5
2D3
100
AcDbEntity
  8
0
100
AcDbLine
 62
7
  6
CONTINUOUS
 10
2.6024711639
 20
-31.5687256249
 11
2.6024711639
 21
-32.9766606249
  0
LINE
  5
2D4
100
AcDbEntity
  8
0
100
AcDbLine
 62
7
  6
CONTINUOUS
 10
2.8186211639
 20
-32.9766606249
 11
2.8186211639
 21
-31.5687256249
  0
LINE
  5
2D5
100
AcDbEntity
  8
0
100
AcDbLine
 62
7
  6
CONTINUOUS
 10
3.1251161639
 20
-28.7385026249
 11
3.1251161639
 21
-30.3381026249
  0
LINE
  5
2D6
100
AcDbEntity
  8
0
100
AcDbLine
 62
7
  6
CONTINUOUS
 10
3.3416891639
 20
-30.1531916249
 11
3.3416891639
 21
-28.9234126249
  0
LINE
  5
2D7
100
AcDbEntity
  8
0
100
AcDbLine
 62
7
  6
CONTINUOUS
 10
3.3602651639
 20
-31.5687256249
 11
3.3602651639
 21
-31.3766386249
  0
LINE
  5
2D8
100
AcDbEntity
  8
0
100
AcDbLine
 62
7
  6
CONTINUOUS
 10
4.7449801639
 20
-28.7385026249
 11
4.7449801639
 21
-30.3381026249
  0
LINE
  5
2D9
100
AcDbEntity
  8
0
100
AcDbLine
 62
7
  6
CONTINUOUS
 10
4.7795981639
 20
-31.3766386249
 11
4.7795981639
 21
-32.9766606249
  0
LINE
  5
2DA
100
AcDbEntity
  8
ASSI
100
AcDbLine
 62
7
  6
CONTINUOUS
 10
15.5138911639
 20
25.3924183751
 11
13.8210803027
 21
25.3924183751
  0
LINE
  5
2DB
100
AcDbEntity
  8
ASSI
100
AcDbLine
 62
7
  6
CONTINUOUS
 10
-57.313964451
 20
25.6424183751
 11
-55.0861088361
 21
25.6424183751
  0
LINE
  5
2DC
100
AcDbEntity
  8
0
100
AcDbLine
 62
7
  6
CONTINUOUS
 10
3.0323761639
 20
32.6591263751
 11
2.7986231639
 21
35.1588623751
  0
LINE
  5
2DD
100
AcDbEntity
  8
0
100
AcDbLine
 62
7
  6
CONTINUOUS
 10
4.9611311639
 20
-30.1464376249
 11
4.9611311639
 21
-29.6119706249
  0
LINE
  5
2DE
100
AcDbEntity
  8
0
100
AcDbLine
 62
7
  6
CONTINUOUS
 10
4.9611311639
 20
-29.4203056249
 11
4.9611311639
 21
-28.9301676249
  0
LINE
  5
2DF
100
AcDbEntity
  8
0
100
AcDbLine
 62
7
  6
CONTINUOUS
 10
4.9957491639
 20
-32.7849956249
 11
4.9957491639
 21
-31.3766386249
  0
LINE
  5
2E0
100
AcDbEntity
  8
0
100
AcDbLine
 62
7
  6
CONTINUOUS
 10
5.3233649578
 20
35.1296570716
 11
5.3233649578
 21
32.6591267026
  0
LINE
  5
2E1
100
AcDbEntity
  8
0
100
AcDbLine
 62
7
  6
CONTINUOUS
 10
5.8067361639
 20
-32.9766606249
 11
5.8067361639
 21
-32.7849956249
  0
LINE
  5
2E2
100
AcDbEntity
  8
0
100
AcDbLine
 62
7
  6
CONTINUOUS
 10
5.8257564326
 20
34.0467814059
 11
5.8257564326
 21
34.7330075583
  0
LINE
  5
2E3
100
AcDbEntity
  8
0
100
AcDbLine
 62
7
  6
CONTINUOUS
 10
5.8367101639
 20
-29.6119706249
 11
5.8367101639
 21
-29.4203056249
  0
LINE
  5
2E4
100
AcDbEntity
  8
0
100
AcDbLine
 62
7
  6
CONTINUOUS
 10
5.8430582994
 20
32.6591267026
 11
5.8430582994
 21
33.6373851219
  0
LINE
  5
2E5
100
AcDbEntity
  8
0
100
AcDbLine
 62
7
  6
CONTINUOUS
 10
5.9105901639
 20
-28.9301676249
 11
5.9105901639
 21
-28.7385026249
  0
LINE
  5
2E6
100
AcDbEntity
  8
0
100
AcDbLine
 62
7
  6
CONTINUOUS
 10
5.9257881639
 20
-30.3381026249
 11
5.9257881639
 21
-30.1464376249
  0
LINE
  5
2E7
100
AcDbEntity
  8
0
100
AcDbLine
 62
7
  6
CONTINUOUS
 10
6.1723351639
 20
-32.3328526249
 11
6.1723351639
 21
-32.9766606249
  0
LINE
  5
2E8
100
AcDbEntity
  8
0
100
AcDbLine
 62
7
  6
CONTINUOUS
 10
6.3884851639
 20
-32.9766606249
 11
6.3884851639
 21
-32.3328526249
  0
LINE
  5
2E9
100
AcDbEntity
  8
0
100
AcDbLine
 62
7
  6
CONTINUOUS
 10
6.664868853
 20
33.8259810932
 11
6.664868853
 21
33.8407523511
  0
LINE
  5
2EA
100
AcDbEntity
  8
0
100
AcDbLine
 62
7
  6
CONTINUOUS
 10
6.8060111639
 20
-28.7385026249
 11
6.8060111639
 21
-30.3381026249
  0
LINE
  5
2EB
100
AcDbEntity
  8
0
100
AcDbLine
 62
7
  6
CONTINUOUS
 10
7.0221621639
 20
-30.3381026249
 11
7.0221621639
 21
-28.7385026249
  0
LINE
  5
2EC
100
AcDbEntity
  8
0
100
AcDbLine
 62
7
  6
CONTINUOUS
 10
7.3919821639
 20
-28.7385026249
 11
7.3919821639
 21
-30.3381026249
  0
LINE
  5
2ED
100
AcDbEntity
  8
0
100
AcDbLine
 62
7
  6
CONTINUOUS
 10
7.6013781639
 20
-30.3381026249
 11
7.6013781639
 21
-29.0384616249
  0
LINE
  5
2EE
100
AcDbEntity
  8
0
100
AcDbLine
 62
7
  6
CONTINUOUS
 10
8.4524711639
 20
-28.7385026249
 11
8.4524711639
 21
-30.0375826249
  0
LINE
  5
2EF
100
AcDbEntity
  8
0
100
AcDbLine
 62
7
  6
CONTINUOUS
 10
8.6622901639
 20
-30.3381026249
 11
8.6622901639
 21
-28.7385026249
  0
LINE
  5
2F0
100
AcDbEntity
  8
ASSI
100
AcDbLine
 62
7
  6
CONTINUOUS
 10
-55.0861088361
 20
29.6424183751
 11
-57.313964451
 21
29.6424183751
  0
LINE
  5
2F1
100
AcDbEntity
  8
ASSI
100
AcDbLine
 62
7
  6
CONTINUOUS
 10
15.5138911639
 20
29.8924183751
 11
13.8210803027
 21
29.8924183751
  0
LINE
  5
2F2
100
AcDbEntity
  8
0
100
AcDbLine
 62
7
  6
CONTINUOUS
 10
-41.4319419707
 20
32.6956098628
 11
-41.1715257014
 21
32.6424183751
  0
LINE
  5
2F3
100
AcDbEntity
  8
0
100
AcDbLine
 62
7
  6
CONTINUOUS
 10
-40.5986088361
 20
34.1849715317
 11
-40.8590257014
 21
34.2381630147
  0
LINE
  5
2F4
100
AcDbEntity
  8
0
100
AcDbLine
 62
7
  6
CONTINUOUS
 10
-41.1715257014
 20
32.9083758274
 11
-41.3798588361
 21
32.9615673105
  0
LINE
  5
2F5
100
AcDbEntity
  8
0
100
AcDbLine
 62
7
  6
CONTINUOUS
 10
-40.8590257014
 20
33.9722055996
 11
-40.6506919707
 21
33.9190141166
  0
LINE
  5
2F6
100
AcDbEntity
  8
0
100
AcDbLine
 62
7
  6
CONTINUOUS
 10
-2.5549268361
 20
35.1588623751
 11
-1.7624618361
 21
32.6591263751
  0
LINE
  5
2F7
100
AcDbEntity
  8
0
100
AcDbLine
 62
7
  6
CONTINUOUS
 10
-1.5116038361
 20
33.4382163751
 11
-1.9880988361
 21
35.1588623751
  0
LINE
  5
2F8
100
AcDbEntity
  8
0
100
AcDbLine
 62
7
  6
CONTINUOUS
 10
0.6389611639
 20
-30.3381026249
 11
1.0889931639
 21
-28.9943376249
  0
LINE
  5
2F9
100
AcDbEntity
  8
0
100
AcDbLine
 62
7
  6
CONTINUOUS
 10
0.9906281639
 20
-28.7385026249
 11
0.5340581639
 21
-30.0976036249
  0
LINE
  5
2FA
100
AcDbEntity
  8
0
100
AcDbLine
 62
7
  6
CONTINUOUS
 10
1.7125381639
 20
-30.3381026249
 11
1.8797171639
 21
-29.8724496249
  0
LINE
  5
2FB
100
AcDbEntity
  8
0
100
AcDbLine
 62
7
  6
CONTINUOUS
 10
1.9468421639
 20
-29.6807846249
 11
2.2050921639
 21
-28.9699566249
  0
LINE
  5
2FC
100
AcDbEntity
  8
0
100
AcDbLine
 62
7
  6
CONTINUOUS
 10
2.0916461639
 20
-28.7385026249
 11
1.4896321639
 21
-30.3381026249
  0
LINE
  5
2FD
100
AcDbEntity
  8
0
100
AcDbLine
 62
7
  6
CONTINUOUS
 10
-46.9527754779
 20
32.6424183751
 11
-46.5361088361
 21
32.6424183751
  0
LINE
  5
2FE
100
AcDbEntity
  8
0
100
AcDbLine
 62
7
  6
CONTINUOUS
 10
-44.7652754034
 20
32.6424183751
 11
-44.4527754034
 21
32.6424183751
  0
LINE
  5
2FF
100
AcDbEntity
  8
0
100
AcDbLine
 62
7
  6
CONTINUOUS
 10
-42.6819419707
 20
32.6424183751
 11
-42.3694419707
 21
32.6424183751
  0
LINE
  5
300
100
AcDbEntity
  8
0
100
AcDbLine
 62
7
  6
CONTINUOUS
 10
-41.1715257014
 20
32.6424183751
 11
-40.8590257014
 21
32.6424183751
  0
LINE
  5
301
100
AcDbEntity
  8
0
100
AcDbLine
 62
7
  6
CONTINUOUS
 10
-39.1402757014
 20
32.6424183751
 11
-38.8277757014
 21
32.6424183751
  0
LINE
  5
302
100
AcDbEntity
  8
0
100
AcDbLine
 62
7
  6
CONTINUOUS
 10
-37.0569425668
 20
32.6424183751
 11
-36.7444425668
 21
32.6424183751
  0
LINE
  5
303
100
AcDbEntity
  8
0
100
AcDbLine
 62
7
  6
CONTINUOUS
 10
-1.7624618361
 20
32.6591263751
 11
-1.3026318361
 21
32.6591263751
  0
LINE
  5
304
100
AcDbEntity
  8
0
100
AcDbLine
 62
7
  6
CONTINUOUS
 10
-0.3054778361
 20
32.6591263751
 11
0.2163151639
 21
32.6591263751
  0
LINE
  5
305
100
AcDbEntity
  8
0
100
AcDbLine
 62
7
  6
CONTINUOUS
 10
0.4972121639
 20
32.6591263751
 11
0.9963981639
 21
32.6591263751
  0
LINE
  5
306
100
AcDbEntity
  8
0
100
AcDbLine
 62
7
  6
CONTINUOUS
 10
1.7211271639
 20
32.6591263751
 11
1.7943091639
 21
32.6591263751
  0
LINE
  5
307
100
AcDbEntity
  8
0
100
AcDbLine
 62
7
  6
CONTINUOUS
 10
2.5219241639
 20
32.6591263751
 11
3.0323761639
 21
32.6591263751
  0
LINE
  5
308
100
AcDbEntity
  8
0
100
AcDbLine
 62
7
  6
CONTINUOUS
 10
3.1143121639
 20
32.6591263751
 11
3.6304441639
 21
32.6591263751
  0
LINE
  5
309
100
AcDbEntity
  8
0
100
AcDbLine
 62
7
  6
CONTINUOUS
 10
4.6201931639
 20
32.6591263751
 11
5.1701411639
 21
32.6591263751
  0
LINE
  5
30A
100
AcDbEntity
  8
0
100
AcDbLine
 62
7
  6
CONTINUOUS
 10
5.3233649578
 20
32.6591267026
 11
5.8430582994
 21
32.6591267026
  0
LINE
  5
30B
100
AcDbEntity
  8
0
100
AcDbLine
 62
7
  6
CONTINUOUS
 10
6.6421121181
 20
32.6591267026
 11
7.1440162164
 21
32.6591267026
  0
LINE
  5
30C
100
AcDbEntity
  8
0
100
AcDbLine
 62
7
  6
CONTINUOUS
 10
-40.8590257014
 20
32.9083758274
 11
-41.1715257014
 21
32.9083758274
  0
LINE
  5
30D
100
AcDbEntity
  8
0
100
AcDbLine
 62
7
  6
CONTINUOUS
 10
3.7744261639
 20
33.1581623751
 11
4.4850211639
 21
33.1581623751
  0
LINE
  5
30E
100
AcDbEntity
  8
0
100
AcDbLine
 62
7
  6
CONTINUOUS
 10
-41.6402757014
 20
33.2807162458
 11
-41.9527757014
 21
33.2807162458
  0
LINE
  5
30F
100
AcDbEntity
  8
0
100
AcDbLine
 62
7
  6
CONTINUOUS
 10
4.3807411639
 20
33.5443153751
 11
3.8811611639
 21
33.5443153751
  0
LINE
  5
310
100
AcDbEntity
  8
0
100
AcDbLine
 62
7
  6
CONTINUOUS
 10
5.8430582994
 20
33.6373851219
 11
6.1228311721
 21
33.6373851219
  0
LINE
  5
311
100
AcDbEntity
  8
0
100
AcDbLine
 62
7
  6
CONTINUOUS
 10
-41.9527757014
 20
33.7594396675
 11
-41.5881919707
 21
33.7594396675
  0
LINE
  5
312
100
AcDbEntity
  8
0
100
AcDbLine
 62
7
  6
CONTINUOUS
 10
-41.1715257014
 20
33.9722055996
 11
-40.8590257014
 21
33.9722055996
  0
LINE
  5
313
100
AcDbEntity
  8
0
100
AcDbLine
 62
7
  6
CONTINUOUS
 10
6.1239558872
 20
34.0467814059
 11
5.8257564326
 21
34.0467814059
  0
LINE
  5
314
100
AcDbEntity
  8
0
100
AcDbLine
 62
7
  6
CONTINUOUS
 10
-40.8590257014
 20
34.2381630147
 11
-41.1715257014
 21
34.2381630147
  0
LINE
  5
315
100
AcDbEntity
  8
0
100
AcDbLine
 62
7
  6
CONTINUOUS
 10
1.1090011639
 20
34.2914073751
 11
1.7211271639
 21
32.6591263751
  0
LINE
  5
316
100
AcDbEntity
  8
0
100
AcDbLine
 62
7
  6
CONTINUOUS
 10
1.7605671639
 20
33.7710013751
 11
1.2442861639
 21
35.1588623751
  0
LINE
  5
317
100
AcDbEntity
  8
0
100
AcDbLine
 62
7
  6
CONTINUOUS
 10
4.4850211639
 20
33.1581623751
 11
4.6201931639
 21
32.6591263751
  0
LINE
  5
318
100
AcDbEntity
  8
0
100
AcDbLine
 62
7
  6
CONTINUOUS
 10
4.1409711639
 20
34.4719983751
 11
4.3807411639
 21
33.5443153751
  0
LINE
  5
319
100
AcDbEntity
  8
RACCORDO
100
AcDbLine
 62
7
  6
CONTINUOUS
 10
15.5138911639
 20
-33.3575816249
 11
15.5138911639
 21
-26.3575816249
  0
LINE
  5
31A
100
AcDbEntity
  8
ASSI
100
AcDbLine
 62
7
  6
CONTINUOUS
 10
15.5138911639
 20
-22.3575816249
 11
15.5138911639
 21
25.3924183751
  0
LINE
  5
31B
100
AcDbEntity
  8
RACCORDO
100
AcDbLine
 62
7
  6
CONTINUOUS
 10
15.5138911639
 20
29.8924183751
 11
15.5138911639
 21
36.6424183751
  0
LINE
  5
31C
100
AcDbEntity
  8
0
100
AcDbLine
 62
7
  6
CONTINUOUS
 10
3.3779961639
 20
-32.9766606249
 11
3.5451751639
 21
-32.5110076249
  0
LINE
  5
31D
100
AcDbEntity
  8
0
100
AcDbLine
 62
7
  6
CONTINUOUS
 10
3.6118771639
 20
-32.3193426249
 11
3.8705501639
 21
-31.6085266249
  0
LINE
  5
31E
100
AcDbEntity
  8
0
100
AcDbLine
 62
7
  6
CONTINUOUS
 10
3.7571041639
 20
-31.3766386249
 11
3.1555121639
 21
-32.9766606249
  0
LINE
  5
31F
100
AcDbEntity
  8
0
100
AcDbLine
 62
7
  6
CONTINUOUS
 10
-40.6506919707
 20
32.9615673105
 11
-40.8590257014
 21
32.9083758274
  0
LINE
  5
320
100
AcDbEntity
  8
0
100
AcDbLine
 62
7
  6
CONTINUOUS
 10
-41.3798588361
 20
33.9190141166
 11
-41.1715257014
 21
33.9722055996
  0
LINE
  5
321
100
AcDbEntity
  8
0
100
AcDbLine
 62
7
  6
CONTINUOUS
 10
-40.8590257014
 20
32.6424183751
 11
-40.5986088361
 21
32.6956098628
  0
LINE
  5
322
100
AcDbEntity
  8
0
100
AcDbLine
 62
7
  6
CONTINUOUS
 10
-41.1715257014
 20
34.2381630147
 11
-41.4319419707
 21
34.1849715317
  0
LINE
  5
323
100
AcDbEntity
  8
0
100
AcDbLine
 62
7
  6
CONTINUOUS
 10
-45.2861088361
 20
34.87646096
 11
-43.7236088361
 21
34.87646096
  0
LINE
  5
324
100
AcDbEntity
  8
0
100
AcDbLine
 62
7
  6
CONTINUOUS
 10
-41.6923588361
 20
34.87646096
 11
-40.1819419707
 21
34.87646096
  0
LINE
  5
325
100
AcDbEntity
  8
0
100
AcDbLine
 62
7
  6
CONTINUOUS
 10
-39.6611088361
 20
34.87646096
 11
-38.0986088361
 21
34.87646096
  0
LINE
  5
326
100
AcDbEntity
  8
0
100
AcDbLine
 62
7
  6
CONTINUOUS
 10
-36.7444425668
 20
35.1424183751
 11
-37.0569425668
 21
35.1424183751
  0
LINE
  5
327
100
AcDbEntity
  8
0
100
AcDbLine
 62
7
  6
CONTINUOUS
 10
-37.7861088361
 20
35.1424183751
 11
-39.6611088361
 21
35.1424183751
  0
LINE
  5
328
100
AcDbEntity
  8
0
100
AcDbLine
 62
7
  6
CONTINUOUS
 10
-40.1819419707
 20
35.1424183751
 11
-41.9527757014
 21
35.1424183751
  0
LINE
  5
329
100
AcDbEntity
  8
0
100
AcDbLine
 62
7
  6
CONTINUOUS
 10
-42.3694419707
 20
35.1424183751
 11
-42.6819419707
 21
35.1424183751
  0
LINE
  5
32A
100
AcDbEntity
  8
0
100
AcDbLine
 62
7
  6
CONTINUOUS
 10
-43.4111088361
 20
35.1424183751
 11
-45.2861088361
 21
35.1424183751
  0
LINE
  5
32B
100
AcDbEntity
  8
0
100
AcDbLine
 62
7
  6
CONTINUOUS
 10
-45.7027755524
 20
35.1424183751
 11
-46.0152755524
 21
35.1424183751
  0
LINE
  5
32C
100
AcDbEntity
  8
0
100
AcDbLine
 62
7
  6
CONTINUOUS
 10
-47.4736088361
 20
35.1424183751
 11
-47.7861088361
 21
35.1424183751
  0
LINE
  5
32D
100
AcDbEntity
  8
0
100
AcDbLine
 62
7
  6
CONTINUOUS
 10
4.4031601639
 20
35.1588623751
 11
3.8983881639
 21
35.1588623751
  0
LINE
  5
32E
100
AcDbEntity
  8
0
100
AcDbLine
 62
7
  6
CONTINUOUS
 10
2.7986231639
 20
35.1588623751
 11
2.2823601639
 21
35.1588623751
  0
LINE
  5
32F
100
AcDbEntity
  8
0
100
AcDbLine
 62
7
  6
CONTINUOUS
 10
1.2442861639
 20
35.1588623751
 11
0.7229241639
 21
35.1588623751
  0
LINE
  5
330
100
AcDbEntity
  8
0
100
AcDbLine
 62
7
  6
CONTINUOUS
 10
-0.4991158361
 20
35.1588623751
 11
-1.0205528361
 21
35.1588623751
  0
LINE
  5
331
100
AcDbEntity
  8
0
100
AcDbLine
 62
7
  6
CONTINUOUS
 10
-1.9880988361
 20
35.1588623751
 11
-2.5549268361
 21
35.1588623751
  0
LINE
  5
332
100
AcDbEntity
  8
0
100
AcDbLine
 62
7
  6
CONTINUOUS
 10
0.2163151639
 20
35.1590123751
 11
-0.3054778361
 21
35.1590123751
  0
LINE
  5
333
100
AcDbEntity
  8
0
100
AcDbLine
 62
7
  6
CONTINUOUS
 10
5.1701411639
 20
32.6591263751
 11
4.4031601639
 21
35.1588623751
  0
LINE
  5
334
100
AcDbEntity
  8
0
100
AcDbLine
 62
7
  6
CONTINUOUS
 10
6.7384641639
 20
-31.3766386249
 11
6.2791441639
 21
-32.1454096249
  0
LINE
  5
335
100
AcDbEntity
  8
0
100
AcDbLine
 62
7
  6
CONTINUOUS
 10
6.3884851639
 20
-32.3328526249
 11
6.9921881639
 21
-31.3766386249
  0
LINE
  5
336
100
AcDbEntity
  8
RACCORDO
100
AcDbLine
 62
7
  6
CONTINUOUS
 10
10.5138911639
 20
41.6424183751
 11
-50.0861088361
 21
41.6424183751
  0
LINE
  5
337
100
AcDbEntity
  8
0
100
AcDbLine
 62
7
  6
CONTINUOUS
 10
20.9138911639
 20
-20.1075816249
 11
20.5138040242
 21
-20.6289853367
  0
LINE
  5
338
100
AcDbEntity
  8
0
100
AcDbLine
 62
7
  6
CONTINUOUS
 10
24.6424874521
 20
-24.7576687646
 11
25.1638911639
 21
-24.3575816249
  0
LINE
  5
339
100
AcDbEntity
  8
0
100
AcDbLine
 62
7
  6
CONTINUOUS
 10
20.9138911639
 20
-28.6075816249
 11
21.3139783036
 21
-28.0861779132
  0
LINE
  5
33A
100
AcDbEntity
  8
RACCORDO
100
AcDbLine
 62
7
  6
CONTINUOUS
 10
-77.106215339
 20
-38.3575816249
 11
-74.106215339
 21
-38.3575816249
  0
LINE
  5
33B
100
AcDbEntity
  8
RACCORDO
100
AcDbLine
 62
253
  6
CONTINUOUS
 10
-77.106215339
 20
-33.3575816249
 11
-74.106215339
 21
-33.3575816249
  0
LINE
  5
33C
100
AcDbEntity
  8
0
100
AcDbLine
 62
7
  6
CONTINUOUS
 10
-74.106215339
 20
-28.6075816249
 11
-77.106215339
 21
-28.6075816249
  0
LINE
  5
33D
100
AcDbEntity
  8
0
100
AcDbLine
 62
7
  6
CONTINUOUS
 10
-74.106215339
 20
-28.0861779132
 11
-77.106215339
 21
-28.0861779132
  0
LINE
  5
33E
100
AcDbEntity
  8
0
100
AcDbLine
 62
7
  6
CONTINUOUS
 10
-74.106215339
 20
-24.7576687646
 11
-77.106215339
 21
-24.7576687646
  0
LINE
  5
33F
100
AcDbEntity
  8
0
100
AcDbLine
 62
7
  6
CONTINUOUS
 10
-74.106215339
 20
-24.3575816249
 11
-77.106215339
 21
-24.3575816249
  0
LINE
  5
340
100
AcDbEntity
  8
0
100
AcDbLine
 62
7
  6
CONTINUOUS
 10
-74.106215339
 20
-23.9574944853
 11
-77.106215339
 21
-23.9574944853
  0
LINE
  5
341
100
AcDbEntity
  8
0
100
AcDbLine
 62
7
  6
CONTINUOUS
 10
-74.106215339
 20
-20.6289853367
 11
-77.106215339
 21
-20.6289853367
  0
LINE
  5
342
100
AcDbEntity
  8
0
100
AcDbLine
 62
7
  6
CONTINUOUS
 10
-74.106215339
 20
-20.1075816249
 11
-77.106215339
 21
-20.1075816249
  0
LINE
  5
343
100
AcDbEntity
  8
RACCORDO
100
AcDbLine
 62
7
  6
CONTINUOUS
 10
-77.106215339
 20
-38.3575816249
 11
-77.106215339
 21
-28.6075816249
  0
LINE
  5
344
100
AcDbEntity
  8
0
100
AcDbLine
 62
7
  6
CONTINUOUS
 10
-77.106215339
 20
-28.6075816249
 11
-77.106215339
 21
-20.1075816249
  0
LINE
  5
345
100
AcDbEntity
  8
ASSI
100
AcDbLine
 62
7
  6
CONTINUOUS
 10
-77.106215339
 20
-20.1075816249
 11
-77.106215339
 21
29.8924183751
  0
LINE
  5
346
100
AcDbEntity
  8
RACCORDO
100
AcDbLine
 62
7
  6
CONTINUOUS
 10
-77.106215339
 20
29.8924183751
 11
-77.106215339
 21
41.6424183751
  0
LINE
  5
347
100
AcDbEntity
  8
0
100
AcDbLine
 62
7
  6
CONTINUOUS
 10
-74.106215339
 20
-28.6075816249
 11
-74.106215339
 21
-20.1075816249
  0
LINE
  5
348
100
AcDbEntity
  8
RACCORDO
100
AcDbLine
 62
7
  6
CONTINUOUS
 10
-74.106215339
 20
-28.6075816249
 11
-74.106215339
 21
-38.3575816249
  0
LINE
  5
349
100
AcDbEntity
  8
ASSI
100
AcDbLine
 62
7
  6
CONTINUOUS
 10
-74.106215339
 20
-20.1075816249
 11
-74.106215339
 21
29.8924183751
  0
LINE
  5
34A
100
AcDbEntity
  8
RACCORDO
100
AcDbLine
 62
7
  6
CONTINUOUS
 10
-74.106215339
 20
29.8924183751
 11
-74.106215339
 21
41.6424183751
  0
LINE
  5
34B
100
AcDbEntity
  8
ASSI
100
AcDbLine
 62
7
  6
CONTINUOUS
 10
-74.106215339
 20
25.3924183751
 11
-77.106215339
 21
25.3924183751
  0
LINE
  5
34C
100
AcDbEntity
  8
ASSI
100
AcDbLine
 62
7
  6
CONTINUOUS
 10
-74.106215339
 20
29.8924183751
 11
-77.106215339
 21
29.8924183751
  0
LINE
  5
34D
100
AcDbEntity
  8
RACCORDO
100
AcDbLine
 62
253
  6
CONTINUOUS
 10
-77.106215339
 20
36.6424183751
 11
-74.106215339
 21
36.6424183751
  0
LINE
  5
34E
100
AcDbEntity
  8
RACCORDO
100
AcDbLine
 62
7
  6
CONTINUOUS
 10
-77.106215339
 20
41.6424183751
 11
-74.106215339
 21
41.6424183751
  0
ARC
  5
34F
100
AcDbEntity
  8
RACCORDO
100
AcDbCircle
 62
7
  6
CONTINUOUS
 10
-50.0861088361
 20
-33.3575816249
 40
5.0
100
AcDbArc
 50
180.0
 51
270.0
  0
ARC
  5
350
100
AcDbEntity
  8
ASSI
100
AcDbCircle
 62
7
  6
CONTINUOUS
 10
-50.0861088361
 20
-24.3575816249
 40
4.0
100
AcDbArc
 50
214.2288663278
 51
145.7711336722
  0
CIRCLE
  5
351
100
AcDbEntity
  8
ASSI
100
AcDbCircle
 62
7
  6
CONTINUOUS
 10
-48.7861088361
 20
-34.3575816249
 40
1.5
  0
ARC
  5
352
100
AcDbEntity
  8
RACCORDO
100
AcDbCircle
 62
7
  6
CONTINUOUS
 10
-24.7780359107
 20
1.3584041462
 40
1.0
100
AcDbArc
 50
300.0
 51
3.2563160496
  0
ARC
  5
353
100
AcDbEntity
  8
RACCORDO
100
AcDbCircle
 62
7
  6
CONTINUOUS
 10
-22.5280359107
 20
-2.5387101709
 40
1.0
100
AcDbArc
 50
56.7436839504
 51
120.0
  0
ARC
  5
354
100
AcDbEntity
  8
RACCORDO
100
AcDbCircle
 62
7
  6
CONTINUOUS
 10
-50.0861088361
 20
36.6424183751
 40
5.0
100
AcDbArc
 50
90.0
 51
180.0
  0
ARC
  5
355
100
AcDbEntity
  8
ASSI
100
AcDbCircle
 62
7
  6
CONTINUOUS
 10
-60.4861088361
 20
27.6424183751
 40
3.75
100
AcDbArc
 50
276.1245379034
 51
327.7690473645
  0
ARC
  5
356
100
AcDbEntity
  8
ASSI
100
AcDbCircle
 62
7
  6
CONTINUOUS
 10
-60.4861088361
 20
27.6424183751
 40
3.75
100
AcDbArc
 50
186.1245379034
 51
263.8754620966
  0
ARC
  5
357
100
AcDbEntity
  8
ASSI
100
AcDbCircle
 62
7
  6
CONTINUOUS
 10
-60.4861088361
 20
27.6424183751
 40
3.75
100
AcDbArc
 50
96.1245379034
 51
173.8754620966
  0
ARC
  5
358
100
AcDbEntity
  8
ASSI
100
AcDbCircle
 62
7
  6
CONTINUOUS
 10
-60.4861088361
 20
27.6424183751
 40
3.75
100
AcDbArc
 50
32.2309526355
 51
83.8754620966
  0
CIRCLE
  5
359
100
AcDbEntity
  8
ASSI
100
AcDbCircle
 62
7
  6
CONTINUOUS
 10
-48.7861088361
 20
29.1424183751
 40
1.5
  0
ARC
  5
35A
100
AcDbEntity
  8
RACCORDO
100
AcDbCircle
 62
7
  6
CONTINUOUS
 10
-20.070123065
 20
6.6343454496
 40
1.0
100
AcDbArc
 50
210.0
 51
273.2563160496
  0
ARC
  5
35B
100
AcDbEntity
  8
RACCORDO
100
AcDbCircle
 62
7
  6
CONTINUOUS
 10
-23.967237382
 20
4.3843454496
 40
1.0
100
AcDbArc
 50
326.7436839504
 51
30.0
  0
ARC
  5
35C
100
AcDbEntity
  8
RACCORDO
100
AcDbCircle
 62
7
  6
CONTINUOUS
 10
10.5138911639
 20
-33.3575816249
 40
5.0
100
AcDbArc
 50
270.0
 51
360.0
  0
ARC
  5
35D
100
AcDbEntity
  8
0
100
AcDbCircle
 62
7
  6
CONTINUOUS
 10
20.9138911639
 20
-24.3575816249
 40
3.75
100
AcDbArc
 50
96.1245379034
 51
147.7690473645
  0
ARC
  5
35E
100
AcDbEntity
  8
0
100
AcDbCircle
 62
7
  6
CONTINUOUS
 10
20.9138911639
 20
-24.3575816249
 40
3.75
100
AcDbArc
 50
6.1245379034
 51
83.8754620966
  0
ARC
  5
35F
100
AcDbEntity
  8
0
100
AcDbCircle
 62
7
  6
CONTINUOUS
 10
20.9138911639
 20
-24.3575816249
 40
3.75
100
AcDbArc
 50
276.1245379034
 51
353.8754620966
  0
ARC
  5
360
100
AcDbEntity
  8
0
100
AcDbCircle
 62
7
  6
CONTINUOUS
 10
20.9138911639
 20
-24.3575816249
 40
3.75
100
AcDbArc
 50
212.2309526355
 51
263.8754620966
  0
CIRCLE
  5
361
100
AcDbEntity
  8
ASSI
100
AcDbCircle
 62
7
  6
CONTINUOUS
 10
9.2138911639
 20
-25.8575816249
 40
1.5
  0
ARC
  5
362
100
AcDbEntity
  8
RACCORDO
100
AcDbCircle
 62
7
  6
CONTINUOUS
 10
-19.5020946072
 20
-3.3495086995
 40
1.0
100
AcDbArc
 50
30.0
 51
93.2563160496
  0
ARC
  5
363
100
AcDbEntity
  8
RACCORDO
100
AcDbCircle
 62
7
  6
CONTINUOUS
 10
-15.6049802901
 20
-1.0995086995
 40
1.0
100
AcDbArc
 50
146.7436839504
 51
210.0
  0
ARC
  5
364
100
AcDbEntity
  8
0
100
AcDbCircle
 62
7
  6
CONTINUOUS
 10
-19.7861088361
 20
1.6424183751
 40
34.5
100
AcDbArc
 50
211.2456585516
 51
298.7543414484
  0
ARC
  5
365
100
AcDbEntity
  8
0
100
AcDbCircle
 62
7
  6
CONTINUOUS
 10
-19.7861088361
 20
1.6424183751
 40
34.5
100
AcDbArc
 50
121.2456585516
 51
208.7543414484
  0
ARC
  5
366
100
AcDbEntity
  8
0
100
AcDbCircle
 62
7
  6
CONTINUOUS
 10
-19.7861088361
 20
1.6424183751
 40
34.5
100
AcDbArc
 50
301.2456585516
 51
28.7543414484
  0
ARC
  5
367
100
AcDbEntity
  8
0
100
AcDbCircle
 62
7
  6
CONTINUOUS
 10
-19.7861088361
 20
1.6424183751
 40
34.5
100
AcDbArc
 50
31.2456585516
 51
118.7543414484
  0
ARC
  5
368
100
AcDbEntity
  8
RACCORDO
100
AcDbCircle
 62
7
  6
CONTINUOUS
 10
10.5138911639
 20
36.6424183751
 40
5.0
100
AcDbArc
 50
0.0
 51
90.0
  0
ARC
  5
369
100
AcDbEntity
  8
RACCORDO
100
AcDbCircle
 62
7
  6
CONTINUOUS
 10
-19.7861088361
 20
1.6424183751
 40
4.0
100
AcDbArc
 50
146.7436839504
 51
183.2563160496
  0
ARC
  5
36A
100
AcDbEntity
  8
RACCORDO
100
AcDbCircle
 62
7
  6
CONTINUOUS
 10
-19.7861088361
 20
1.6424183751
 40
4.0
100
AcDbArc
 50
236.7436839504
 51
273.2563160496
  0
ARC
  5
36B
100
AcDbEntity
  8
RACCORDO
100
AcDbCircle
 62
7
  6
CONTINUOUS
 10
-19.7861088361
 20
1.6424183751
 40
4.0
100
AcDbArc
 50
56.7436839504
 51
93.2563160496
  0
ARC
  5
36C
100
AcDbEntity
  8
RACCORDO
100
AcDbCircle
 62
7
  6
CONTINUOUS
 10
-19.7861088361
 20
1.6424183751
 40
4.0
100
AcDbArc
 50
326.7436839504
 51
3.2563160496
  0
ARC
  5
36D
100
AcDbEntity
  8
ASSI
100
AcDbCircle
 62
7
  6
CONTINUOUS
 10
10.5138911639
 20
27.6424183751
 40
4.0
100
AcDbArc
 50
34.2288663278
 51
325.7711336722
  0
CIRCLE
  5
36E
100
AcDbEntity
  8
0
100
AcDbCircle
 62
7
  6
CONTINUOUS
 10
-19.7861088361
 20
1.6424183751
 40
1.5
  0
CIRCLE
  5
36F
100
AcDbEntity
  8
ASSI
100
AcDbCircle
 62
7
  6
CONTINUOUS
 10
9.2138911639
 20
37.6424183751
 40
1.5
  0
ARC
  5
370
100
AcDbEntity
  8
RACCORDO
100
AcDbCircle
 62
7
  6
CONTINUOUS
 10
-14.7941817615
 20
1.926432604
 40
1.0
100
AcDbArc
 50
120.0
 51
183.2563160496
  0
ARC
  5
371
100
AcDbEntity
  8
RACCORDO
100
AcDbCircle
 62
7
  6
CONTINUOUS
 10
-17.0441817615
 20
5.823546921
 40
1.0
100
AcDbArc
 50
236.7436839504
 51
300.0
  0
SPLINE
  5
372
100
AcDbEntity
  8
0
100
AcDbSpline
 62
7
  6
CONTINUOUS
 70
0
 71
3
 72
9
 73
5
 74
0
 42
0.0000001
 43
0.0000001
 44
0.0000000001
 40
0.0
 40
0.0
 40
0.0
 40
0.0
 40
0.3559141631
 40
1.0
 40
1.0
 40
1.0
 40
1.0
 10
6.1228311721
 20
33.6373851219
 30
0.0
 10
6.1683016564
 20
33.6373851219
 30
0.0
 10
6.299108046
 20
33.6098513011
 30
0.0
 10
6.385032796
 20
33.4941682844
 30
0.0
 10
6.4139449217
 20
33.4171284214
 30
0.0
  0
SPLINE
  5
373
100
AcDbEntity
  8
0
100
AcDbSpline
 62
7
  6
CONTINUOUS
 70
0
 71
3
 72
9
 73
5
 74
0
 42
0.0000001
 43
0.0000001
 44
0.0000000001
 40
0.0
 40
0.0
 40
0.0
 40
0.0
 40
0.5586214172
 40
1.0
 40
1.0
 40
1.0
 40
1.0
 10
6.4139449217
 20
33.4171284214
 30
0.0
 10
6.4657855387
 20
33.2791392588
 30
0.0
 10
6.5339605588
 20
33.0236222803
 30
0.0
 10
6.6099306176
 20
32.7710607934
 30
0.0
 10
6.6421121181
 20
32.6591267026
 30
0.0
  0
SPLINE
  5
374
100
AcDbEntity
  8
0
100
AcDbSpline
 62
7
  6
CONTINUOUS
 70
0
 71
3
 72
9
 73
5
 74
0
 42
0.0000001
 43
0.0000001
 44
0.0000000001
 40
0.0
 40
0.0
 40
0.0
 40
0.0
 40
0.1980141723
 40
1.0
 40
1.0
 40
1.0
 40
1.0
 10
7.1440162164
 20
32.6591267026
 30
0.0
 10
7.1319115475
 20
32.7036951679
 30
0.0
 10
7.0726646168
 20
32.929278231
 30
0.0
 10
7.0148044871
 20
33.1552291117
 30
0.0
 10
6.9656364069
 20
33.3356990506
 30
0.0
  0
SPLINE
  5
375
100
AcDbEntity
  8
0
100
AcDbSpline
 62
7
  6
CONTINUOUS
 70
0
 71
3
 72
9
 73
5
 74
0
 42
0.0000001
 43
0.0000001
 44
0.0000000001
 40
0.0
 40
0.0
 40
0.0
 40
0.0
 40
0.2426586216
 40
1.0
 40
1.0
 40
1.0
 40
1.0
 10
6.9656364069
 20
33.3356990506
 30
0.0
 10
6.9532614325
 20
33.3811234499
 30
0.0
 10
6.9059909402
 20
33.5645582437
 30
0.0
 10
6.8013552558
 20
33.7715571401
 30
0.0
 10
6.664868853
 20
33.8259810932
 30
0.0
  0
SPLINE
  5
376
100
AcDbEntity
  8
0
100
AcDbSpline
 62
7
  6
CONTINUOUS
 70
0
 71
3
 72
17
 73
13
 74
0
 42
0.0000001
 43
0.0000001
 44
0.0000000001
 40
0.0
 40
0.0
 40
0.0
 40
0.0
 40
0.0559780952
 40
0.1687540387
 40
0.321006234
 40
0.4122750837
 40
0.516613223
 40
0.6013931059
 40
0.6776022439
 40
0.8103422694
 40
0.9200404832
 40
1.0
 40
1.0
 40
1.0
 40
1.0
 10
6.664868853
 20
33.8407523511
 30
0.0
 10
6.6936893548
 20
33.8444711255
 30
0.0
 10
6.7669473437
 20
33.9021676809
 30
0.0
 10
6.8884371888
 20
34.0121534112
 30
0.0
 10
6.9778924689
 20
34.1814593671
 30
0.0
 10
7.0177427462
 20
34.3580838012
 30
0.0
 10
7.0214865999
 20
34.5046783946
 30
0.0
 10
7.001756074
 20
34.6415965556
 30
0.0
 10
6.9539360539
 20
34.7870827828
 30
0.0
 10
6.86412027
 20
34.929662457
 30
0.0
 10
6.7373073719
 20
35.0411635077
 30
0.0
 10
6.6501156137
 20
35.0892528897
 30
0.0
 10
6.6110699823
 20
35.1033387391
 30
0.0
  0
SPLINE
  5
377
100
AcDbEntity
  8
0
100
AcDbSpline
 62
7
  6
CONTINUOUS
 70
0
 71
3
 72
9
 73
5
 74
0
 42
0.0000001
 43
0.0000001
 44
0.0000000001
 40
0.0
 40
0.0
 40
0.0
 40
0.0
 40
0.2957417834
 40
1.0
 40
1.0
 40
1.0
 40
1.0
 10
6.6110699823
 20
35.1033387391
 30
0.0
 10
6.490865833
 20
35.1467657493
 30
0.0
 10
6.0588046834
 20
35.2175543644
 30
0.0
 10
5.6244771719
 20
35.1739558057
 30
0.0
 10
5.3233649578
 20
35.1296570716
 30
0.0
  0
SPLINE
  5
378
100
AcDbEntity
  8
0
100
AcDbSpline
 62
7
  6
CONTINUOUS
 70
0
 71
3
 72
9
 73
5
 74
0
 42
0.0000001
 43
0.0000001
 44
0.0000000001
 40
0.0
 40
0.0
 40
0.0
 40
0.0
 40
0.2703953699
 40
1.0
 40
1.0
 40
1.0
 40
1.0
 10
5.8257564326
 20
34.7330075583
 30
0.0
 10
5.8621753249
 20
34.7392218756
 30
0.0
 10
5.9972842823
 20
34.7596602701
 30
0.0
 10
6.1355099578
 20
34.7592165757
 30
0.0
 10
6.2345341234
 20
34.7477225804
 30
0.0
  0
SPLINE
  5
379
100
AcDbEntity
  8
0
100
AcDbSpline
 62
7
  6
CONTINUOUS
 70
0
 71
3
 72
9
 73
5
 74
0
 42
0.0000001
 43
0.0000001
 44
0.0000000001
 40
0.0
 40
0.0
 40
0.0
 40
0.0
 40
0.5013510385
 40
1.0
 40
1.0
 40
1.0
 40
1.0
 10
6.2345341234
 20
34.7477225804
 30
0.0
 10
6.3110088495
 20
34.7388438821
 30
0.0
 10
6.4656879165
 20
34.6714967739
 30
0.0
 10
6.5280869517
 20
34.5118033527
 30
0.0
 10
6.5292844518
 20
34.4352392445
 30
0.0
  0
SPLINE
  5
37A
100
AcDbEntity
  8
0
100
AcDbSpline
 62
7
  6
CONTINUOUS
 70
0
 71
3
 72
9
 73
5
 74
0
 42
0.0000001
 43
0.0000001
 44
0.0000000001
 40
0.0
 40
0.0
 40
0.0
 40
0.0
 40
0.5206208722
 40
1.0
 40
1.0
 40
1.0
 40
1.0
 10
6.5292844518
 20
34.4352392445
 30
0.0
 10
6.5309519277
 20
34.3271742446
 30
0.0
 10
6.4546092507
 20
34.0911073155
 30
0.0
 10
6.2234473906
 20
34.0490036211
 30
0.0
 10
6.1239558872
 20
34.0467814059
 30
0.0
  0
SPLINE
  5
37B
100
AcDbEntity
  8
0
100
AcDbSpline
 62
7
  6
CONTINUOUS
 70
0
 71
3
 72
29
 73
25
 74
0
 42
0.0000001
 43
0.0000001
 44
0.0000000001
 40
0.0
 40
0.0
 40
0.0
 40
0.0
 40
0.0617883122
 40
0.1163887778
 40
0.1486359562
 40
0.1869646798
 40
0.245627213
 40
0.2937839534
 40
0.3356992059
 40
0.4068099191
 40
0.4473669314
 40
0.499899256
 40
0.5461412669
 40
0.5850608531
 40
0.6475875034
 40
0.6841398663
 40
0.7408813718
 40
0.7816270153
 40
0.8186448998
 40
0.8539843574
 40
0.9056607771
 40
0.9342461112
 40
0.960617615
 40
1.0
 40
1.0
 40
1.0
 40
1.0
 10
3.7444381757
 20
-28.9234126991
 30
0.0
 10
3.7808446933
 20
-28.9234126619
 30
0.0
 10
3.8496845417
 20
-28.9292188581
 30
0.0
 10
3.9341666881
 20
-28.9549973109
 30
0.0
 10
3.9996632049
 20
-28.9893650992
 30
0.0
 10
4.0613958493
 20
-29.0345889933
 30
0.0
 10
4.1175537692
 20
-29.1005535255
 30
0.0
 10
4.1589451681
 20
-29.1782009795
 30
0.0
 10
4.1924386813
 20
-29.2672527774
 30
0.0
 10
4.2117240778
 20
-29.3562006077
 30
0.0
 10
4.2209136633
 20
-29.4525143985
 30
0.0
 10
4.2255438584
 20
-29.5345977806
 30
0.0
 10
4.221272615
 20
-29.6157107019
 30
0.0
 10
4.213665941
 20
-29.7023910419
 30
0.0
 10
4.1989716222
 20
-29.7826912293
 30
0.0
 10
4.1710977226
 20
-29.8702892414
 30
0.0
 10
4.1374010579
 20
-29.9421783625
 30
0.0
 10
4.0921925525
 20
-30.0077325851
 30
0.0
 10
4.0444849913
 20
-30.0547856813
 30
0.0
 10
3.9847102947
 20
-30.0972681309
 30
0.0
 10
3.9221581069
 20
-30.1257938354
 30
0.0
 10
3.8613763401
 20
-30.142108359
 30
0.0
 10
3.8064499389
 20
-30.1511088401
 30
0.0
 10
3.7676472845
 20
-30.1531919103
 30
0.0
 10
3.7444426403
 20
-30.1531920467
 30
0.0
  0
SPLINE
  5
37C
100
AcDbEntity
  8
0
100
AcDbSpline
 62
7
  6
CONTINUOUS
 70
0
 71
3
 72
28
 73
24
 74
0
 42
0.0000001
 43
0.0000001
 44
0.0000000001
 40
0.0
 40
0.0
 40
0.0
 40
0.0
 40
0.0428567038
 40
0.1260485967
 40
0.1665835145
 40
0.2445869793
 40
0.2823772911
 40
0.3201676029
 40
0.3953267447
 40
0.4330381666
 40
0.4707495886
 40
0.509154349
 40
0.5475591093
 40
0.5871196827
 40
0.6266802562
 40
0.6679867854
 40
0.7092933147
 40
0.7523939781
 40
0.7954946415
 40
0.8407195378
 40
0.8859444341
 40
0.9334148691
 40
1.0
 40
1.0
 40
1.0
 40
1.0
 10
3.7735644873
 20
-30.3381023814
 30
0.0
 10
3.7904029453
 20
-30.3374563706
 30
0.0
 10
3.8398829707
 20
-30.3343231517
 30
0.0
 10
3.9049119447
 20
-30.3257258617
 30
0.0
 10
3.9828096723
 20
-30.3107941206
 30
0.0
 10
4.0414537816
 20
-30.2902520896
 30
0.0
 10
4.0937903608
 20
-30.2600265881
 30
0.0
 10
4.1467907566
 20
-30.2335238178
 30
0.0
 10
4.1950568237
 20
-30.1977484953
 30
0.0
 10
4.2346552246
 20
-30.1537627355
 30
0.0
 10
4.2679417388
 20
-30.1234393481
 30
0.0
 10
4.2922441666
 20
-30.0852672825
 30
0.0
 10
4.3218098953
 20
-30.0500468033
 30
0.0
 10
4.3413530272
 20
-30.0079022313
 30
0.0
 10
4.3667218875
 20
-29.9676743122
 30
0.0
 10
4.3814207786
 20
-29.921686604
 30
0.0
 10
4.4021209131
 20
-29.8766046107
 30
0.0
 10
4.4120296185
 20
-29.8272403307
 30
0.0
 10
4.427819349
 20
-29.7778718432
 30
0.0
 10
4.4327904079
 20
-29.7253932547
 30
0.0
 10
4.4430469769
 20
-29.6720589695
 30
0.0
 10
4.4445002931
 20
-29.6092806164
 30
0.0
 10
4.4435065141
 20
-29.5643931475
 30
0.0
 10
4.4456738158
 20
-29.5383023729
 30
0.0
  0
SPLINE
  5
37D
100
AcDbEntity
  8
0
100
AcDbSpline
 62
7
  6
CONTINUOUS
 70
0
 71
3
 72
28
 73
24
 74
0
 42
0.0000001
 43
0.0000001
 44
0.0000000001
 40
0.0
 40
0.0
 40
0.0
 40
0.0
 40
0.0665854189
 40
0.1140560592
 40
0.1592811512
 40
0.2045062431
 40
0.2476070929
 40
0.2907079428
 40
0.3320146507
 40
0.3733213586
 40
0.4128821032
 40
0.4524428477
 40
0.4908477742
 40
0.5292527007
 40
0.5669642858
 40
0.6046758709
 40
0.6798353377
 40
0.717625813
 40
0.7554162882
 40
0.8334200904
 40
0.8739551836
 40
0.9571474364
 40
1.0
 40
1.0
 40
1.0
 40
1.0
 10
4.4456738158
 20
-29.5383023729
 30
0.0
 10
4.4435065141
 20
-29.5122115984
 30
0.0
 10
4.4445002931
 20
-29.4673241295
 30
0.0
 10
4.4430469769
 20
-29.4045457763
 30
0.0
 10
4.4327904079
 20
-29.3512114912
 30
0.0
 10
4.427819349
 20
-29.2987329026
 30
0.0
 10
4.4120296185
 20
-29.2493644151
 30
0.0
 10
4.4021209131
 20
-29.2000001351
 30
0.0
 10
4.3814207786
 20
-29.1549181418
 30
0.0
 10
4.3667218875
 20
-29.1089304337
 30
0.0
 10
4.3413530272
 20
-29.0687025145
 30
0.0
 10
4.3218098953
 20
-29.0265579425
 30
0.0
 10
4.2922441666
 20
-28.9913374633
 30
0.0
 10
4.2679417388
 20
-28.9531653978
 30
0.0
 10
4.2346552246
 20
-28.9228420103
 30
0.0
 10
4.1950568237
 20
-28.8788562505
 30
0.0
 10
4.1467907566
 20
-28.843080928
 30
0.0
 10
4.0937903607
 20
-28.8165781577
 30
0.0
 10
4.0414537816
 20
-28.7863526562
 30
0.0
 10
3.9828096723
 20
-28.7658106252
 30
0.0
 10
3.9049119447
 20
-28.7508788842
 30
0.0
 10
3.8398846593
 20
-28.7422818174
 30
0.0
 10
3.7904063412
 20
-28.7391485903
 30
0.0
 10
3.7735695858
 20
-28.73850256
 30
0.0
  0
ENDSEC
  0
SECTION
  2
OBJECTS
  0
DICTIONARY
  5
C
100
AcDbDictionary
280
0
281
1
  3
ACAD_GROUP
350
D
  3
ACAD_MLINESTYLE
350
17
  3
ACAD_LAYOUT
350
1A
  3
ACAD_PLOTSETTINGS
350
19
  3
ACAD_PLOTSTYLENAME
350
E
  0
DICTIONARY
  5
D
102
{ACAD_REACTORS
330
C
102
}
100
AcDbDictionary
280
0
281
1
  0
ACDBDICTIONARYWDFLT
  5
E
102
{ACAD_REACTORS
330
C
102
}
100
AcDbDictionary
281
1
  3
Normal
350
F
100
AcDbDictionaryWithDefault
340
F
  0
DICTIONARY
  5
17
102
{ACAD_REACTORS
330
C
102
}
100
AcDbDictionary
280
0
281
1
  3
Standard
350
18
  0
DICTIONARY
  5
19
102
{ACAD_REACTORS
330
C
102
}
100
AcDbDictionary
281
1
  0
DICTIONARY
  5
1A
102
{ACAD_REACTORS
330
C
102
}
100
AcDbDictionary
281
1
  3
Model
350
37E
  3
Layout1
350
37F
  0
ACDBPLACEHOLDER
  5
F
102
{ACAD_REACTORS
330
E
102
}
  0
MLINESTYLE
  5
18
102
{ACAD_REACTORS
330
17
102
}
100
AcDbMlineStyle
  2
STANDARD
 70
0
  3

 62
256
 51
90.0
 52
90.0
 71
2
 49
0.5
 62
256
  6
BYLAYER
 49
-0.5
 62
256
  6
BYLAYER
  0
LAYOUT
  5
37E
102
{ACAD_REACTORS
330
1A
102
}
100
AcDbPlotSettings
  1

  2
none_device
  4
ISO_A4_(297.00_x_210.00_MM)
  6

 40
0.0
 41
0.0
 42
0.0
 43
0.0
 44
297.0
 45
210.0
 46
0.0
 47
0.0
 48
0.0
 49
0.0
140
0.0
141
0.0
142
1.0
143
1.0
 70
1024
 72
1
 73
0
 74
0
  7

 75
0
147
1.0
148
0.0
149
0.0
100
AcDbLayout
  1
Model
 70
0
 71
0
 10
0.0
 20
0.0
 11
297.0
 21
210.0
 12
0.0
 22
0.0
 32
0.0
 14
0.0
 24
0.0
 34
0.0
 15
0.0
 25
0.0
 35
0.0
146
0.0
 13
0.0
 23
0.0
 33
0.0
 16
1.0
 26
0.0
 36
0.0
 17
0.0
 27
1.0
 37
0.0
 76
0
330
20F
345
0
346
0
  0
LAYOUT
  5
37F
102
{ACAD_REACTORS
330
1A
102
}
100
AcDbPlotSettings
  1

  2
none_device
  4
ISO_A4_(297.00_x_210.00_MM)
  6

 40
0.0
 41
0.0
 42
0.0
 43
0.0
 44
297.0
 45
210.0
 46
0.0
 47
0.0
 48
0.0
 49
0.0
140
0.0
141
0.0
142
1.0
143
1.0
 70
0
 72
1
 73
0
 74
0
  7

 75
0
147
1.0
148
0.0
149
0.0
100
AcDbLayout
  1
Layout1
 70
0
 71
1
 10
0.0
 20
0.0
 11
297.0
 21
210.0
 12
0.0
 22
0.0
 32
0.0
 14
0.0
 24
0.0
 34
0.0
 15
0.0
 25
0.0
 35
0.0
146
0.0
 13
0.0
 23
0.0
 33
0.0
 16
1.0
 26
0.0
 36
0.0
 17
0.0
 27
1.0
 37
0.0
 76
0
330
210
345
0
346
0
  0
ENDSEC
  0
EOF
