  0
SECTION
  2
HEADER
  9
$ACADVER
  1
AC1015
  9
$DWGCODEPAGE
  3
ANSI_1252
  9
$EXTMAX
 10
297.0
 20
210.0
 30
0.0
  9
$EXTMIN
 10
0.0
 20
0.0
 30
0.0
  9
$LIMMIN
 10
0.0
 20
0.0
  9
$LIMMAX
 10
297.0
 20
210.0
  9
$VIEWCTR
 10
148.5
 20
105.0
  9
$VIEWSIZE
 40
210.0
  9
$CLAYER
  8
0
  9
$LTSCALE
 40
16.335
  9
$CELTYPE
  6
BYLAYER
  9
$DIMSCALE
 40
1.0
  9
$DIMASZ
 40
3.0
  9
$DIMEXO
 40
0.5
  9
$DIMDLI
 40
11.286
  9
$DIMEXE
 40
1.5
  9
$DIMCEN
 40
2.673
  9
$DIMLFAC
 40
1.0
  9
$DIMBLK
  1
_FILLED
  9
$DIMTXT
 40
3.0
  9
$DIMTOL
 70
1
  9
$DIMLIM
 70
0
  9
$DIMTFAC
 40
1.0
  9
$DIMTP
 40
0.01
  9
$DIMTM
 40
0.01
  9
$DIMGAP
 40
0.625
  9
$DIMDSEP
 70
44
  9
$PDMODE
 70
3
  9
$PDSIZE
 40
3.0
  9
$HANDSEED
  5
3F0
  9
$TILEMODE
 70
1
  9
$MEASUREMENT
 70
1
  9
$INSUNITS
 70
4
  0
ENDSEC
  0
SECTION
  2
CLASSES
  0
CLASS
  1
ACDBDICTIONARYWDFLT
  2
AcDbDictionaryWithDefault
  3
AutoCAD 2000
 90
0
280
0
281
0
  0
CLASS
  1
ACDBPLACEHOLDER
  2
AcDbPlaceHolder
  3
AutoCAD 2000
 90
0
280
0
281
0
  0
CLASS
  1
LAYOUT
  2
AcDbLayout
  3
AutoCAD 2000
 90
0
280
0
281
0
  0
ENDSEC
  0
SECTION
  2
TABLES
  0
TABLE
  2
VPORT
  5
8
100
AcDbSymbolTable
 70
2
  0
VPORT
  5
1F4
100
AcDbSymbolTableRecord
100
AcDbViewportTableRecord
  2
*ACTIVE
 70
0
 10
0.0
 20
0.0
 11
1.0
 21
1.0
 12
148.5
 22
105.0
 13
0.0
 23
0.0
 14
1.0
 24
1.0
 15
0.0
 25
0.0
 16
0.0
 26
0.0
 36
1.0
 17
0.0
 27
0.0
 37
0.0
 40
210.0
 41
1.4142857143
 42
50.0
 43
0.0
 44
0.0
 50
0.0
 51
0.0
 71
0
 72
100
 73
1
 74
1
 75
0
 76
0
 77
0
 78
0
  0
ENDTAB
  0
TABLE
  2
LTYPE
  5
5
100
AcDbSymbolTable
 70
6
  0
LTYPE
  5
14
100
AcDbSymbolTableRecord
100
AcDbLinetypeTableRecord
  2
BYBLOCK
 70
0
  3

 72
65
 73
0
 40
0.0
  0
LTYPE
  5
15
100
AcDbSymbolTableRecord
100
AcDbLinetypeTableRecord
  2
BYLAYER
 70
0
  3

 72
65
 73
0
 40
0.0
  0
LTYPE
  5
16
100
AcDbSymbolTableRecord
100
AcDbLinetypeTableRecord
  2
CONTINUOUS
 70
64
  3
Solid line
 72
65
 73
0
 40
0.0
  0
LTYPE
  5
1F5
100
AcDbSymbolTableRecord
100
AcDbLinetypeTableRecord
  2
CENTER
 70
64
  3
____ _ ____ _ ____ _ ____ _ ____ _ ____ _ ____
 72
65
 73
4
 40
0.6
 49
0.375
 74
0
 49
-0.075
 74
0
 49
0.075
 74
0
 49
-0.075
 74
0
  0
LTYPE
  5
1F6
100
AcDbSymbolTableRecord
100
AcDbLinetypeTableRecord
  2
HIDDEN
 70
64
  3
- - - - - - - - - - - - - - - - - - - -
 72
65
 73
2
 40
0.2
 49
0.1
 74
0
 49
-0.1
 74
0
  0
LTYPE
  5
1F7
100
AcDbSymbolTableRecord
100
AcDbLinetypeTableRecord
  2
PHANTOM
 70
64
  3
_____ _ _ _____ _ _ _____ _ _ _____
 72
65
 73
6
 40
0.8
 49
0.45
 74
0
 49
-0.05
 74
0
 49
0.1
 74
0
 49
-0.05
 74
0
 49
0.1
 74
0
 49
-0.05
 74
0
  0
LTYPE
  5
1F8
100
AcDbSymbolTableRecord
100
AcDbLinetypeTableRecord
  2
DOT
 70
64
  3
. . . . . . . . . . . . . . . . . . . .
 72
65
 73
2
 40
0.2
 49
0.1
 74
0
 49
-0.1
 74
0
  0
LTYPE
  5
1F9
100
AcDbSymbolTableRecord
100
AcDbLinetypeTableRecord
  2
DASHED
 70
64
  3
- - - - - - - - - - - - - - - - - - - -
 72
65
 73
2
 40
0.2
 49
0.1
 74
0
 49
-0.1
 74
0
  0
ENDTAB
  0
TABLE
  2
LAYER
  5
2
100
AcDbSymbolTable
 70
36
  0
LAYER
  5
10
100
AcDbSymbolTableRecord
100
AcDbLayerTableRecord
  2
0
 70
0
 62
7
  6
CONTINUOUS
370
-3
390
F
  0
LAYER
  5
1FA
100
AcDbSymbolTableRecord
100
AcDbLayerTableRecord
  2
DEFAULT_1
 70
0
 62
7
  6
CENTER
370
-3
390
F
  0
LAYER
  5
1FB
100
AcDbSymbolTableRecord
100
AcDbLayerTableRecord
  2
DEFAULT_2
 70
0
 62
7
  6
HIDDEN
370
-3
390
F
  0
LAYER
  5
1FC
100
AcDbSymbolTableRecord
100
AcDbLayerTableRecord
  2
DEFAULT_3
 70
0
 62
7
  6
PHANTOM
370
-3
390
F
  0
LAYER
  5
1FD
100
AcDbSymbolTableRecord
100
AcDbLayerTableRecord
  2
ASSI
 70
0
 62
7
  6
CONTINUOUS
370
-3
390
F
  0
LAYER
  5
1FE
100
AcDbSymbolTableRecord
100
AcDbLayerTableRecord
  2
COORDINATE
 70
0
 62
7
  6
CONTINUOUS
370
-3
390
F
  0
LAYER
  5
1FF
100
AcDbSymbolTableRecord
100
AcDbLayerTableRecord
  2
COPY_PUBLISH
 70
0
 62
7
  6
CONTINUOUS
370
-3
390
F
  0
LAYER
  5
200
100
AcDbSymbolTableRecord
100
AcDbLayerTableRecord
  2
COSMETICI
 70
0
 62
7
  6
CONTINUOUS
370
-3
390
F
  0
LAYER
  5
201
100
AcDbSymbolTableRecord
100
AcDbLayerTableRecord
  2
CURVE
 70
0
 62
7
  6
CONTINUOUS
370
-3
390
F
  0
LAYER
  5
202
100
AcDbSymbolTableRecord
100
AcDbLayerTableRecord
  2
DRAFT
 70
0
 62
7
  6
CONTINUOUS
370
-3
390
F
  0
LAYER
  5
203
100
AcDbSymbolTableRecord
100
AcDbLayerTableRecord
  2
IMPORT_IGES
 70
0
 62
7
  6
CONTINUOUS
370
-3
390
F
  0
LAYER
  5
204
100
AcDbSymbolTableRecord
100
AcDbLayerTableRecord
  2
NOTE
 70
0
 62
7
  6
CONTINUOUS
370
-3
390
F
  0
LAYER
  5
205
100
AcDbSymbolTableRecord
100
AcDbLayerTableRecord
  2
PIANI
 70
0
 62
7
  6
CONTINUOUS
370
-3
390
F
  0
LAYER
  5
206
100
AcDbSymbolTableRecord
100
AcDbLayerTableRecord
  2
PUNTI
 70
0
 62
7
  6
CONTINUOUS
370
-3
390
F
  0
LAYER
  5
207
100
AcDbSymbolTableRecord
100
AcDbLayerTableRecord
  2
RACCORDO
 70
0
 62
7
  6
CONTINUOUS
370
-3
390
F
  0
LAYER
  5
208
100
AcDbSymbolTableRecord
100
AcDbLayerTableRecord
  2
SIMBOLI
 70
0
 62
7
  6
CONTINUOUS
370
-3
390
F
  0
LAYER
  5
209
100
AcDbSymbolTableRecord
100
AcDbLayerTableRecord
  2
SMUSSO
 70
0
 62
7
  6
CONTINUOUS
370
-3
390
F
  0
LAYER
  5
20A
100
AcDbSymbolTableRecord
100
AcDbLayerTableRecord
  2
SNAPLINE
 70
0
 62
7
  6
CONTINUOUS
370
-3
390
F
  0
LAYER
  5
20B
100
AcDbSymbolTableRecord
100
AcDbLayerTableRecord
  2
SUPERFICI
 70
0
 62
7
  6
CONTINUOUS
370
-3
390
F
  0
LAYER
  5
20C
100
AcDbSymbolTableRecord
100
AcDbLayerTableRecord
  2
TRASH
 70
0
 62
7
  6
CONTINUOUS
370
-3
390
F
  0
ENDTAB
  0
TABLE
  2
STYLE
  5
3
100
AcDbSymbolTable
 70
1
  0
STYLE
  5
11
100
AcDbSymbolTableRecord
100
AcDbTextStyleTableRecord
  2
STANDARD
 70
0
 40
0.0
 41
0.8
 50
0.0
 71
0
 42
0.2
  3
txt
  4

  0
STYLE
  5
20D
100
AcDbSymbolTableRecord
100
AcDbTextStyleTableRecord
  2
TEXTSTYLE_1
 70
0
 40
0.0
 41
0.8
 50
0.0
 71
0
 42
0.2
  3
gdt
  4

  0
ENDTAB
  0
TABLE
  2
VIEW
  5
6
100
AcDbSymbolTable
 70
0
  0
ENDTAB
  0
TABLE
  2
UCS
  5
7
100
AcDbSymbolTable
 70
0
  0
ENDTAB
  0
TABLE
  2
APPID
  5
9
100
AcDbSymbolTable
 70
1
  0
APPID
  5
20E
100
AcDbSymbolTableRecord
100
AcDbRegAppTableRecord
  2
ACAD
 70
0
  0
ENDTAB
  0
TABLE
  2
BLOCK_RECORD
  5
1
100
AcDbSymbolTable
 70
0
  0
BLOCK_RECORD
  5
20F
100
AcDbSymbolTableRecord
100
AcDbBlockTableRecord
  2
*Model_Space
  0
BLOCK_RECORD
  5
210
100
AcDbSymbolTableRecord
100
AcDbBlockTableRecord
  2
*Paper_Space
  0
BLOCK_RECORD
  5
211
100
AcDbSymbolTableRecord
100
AcDbBlockTableRecord
  2
_FILLED
  0
BLOCK_RECORD
  5
212
100
AcDbSymbolTableRecord
100
AcDbBlockTableRecord
  2
*D0
  0
BLOCK_RECORD
  5
213
100
AcDbSymbolTableRecord
100
AcDbBlockTableRecord
  2
*D1
  0
BLOCK_RECORD
  5
214
100
AcDbSymbolTableRecord
100
AcDbBlockTableRecord
  2
*D2
  0
ENDTAB
  0
TABLE
  2
DIMSTYLE
  5
A
100
AcDbSymbolTable
 70
1
100
AcDbDimStyleTable
 71
0
  0
DIMSTYLE
105
215
100
AcDbSymbolTableRecord
100
AcDbDimStyleTableRecord
  2
STANDARD
 70
0
  3

  4

 40
1.0
 41
3.0
 42
0.5
 43
0.38
 44
1.5
 45
0.0
 46
0.0
 47
0.01
 48
0.01
140
3.0
141
0.09
142
0.0
143
25.4
144
1.0
145
0.0
146
1.0
147
0.625
 71
1.0
 72
0.0
 73
0
 74
0
 75
0
 76
0
 77
1
 78
8
170
0
171
2
172
0
173
0
174
0
175
0
176
0
177
0
178
0
270
2
271
2
272
2
273
2
274
2
275
0
280
0
281
0
282
0
283
1
284
8
285
0
286
0
287
3
288
0
340
11
278
44
341
211
342
211
343
211
344
211
  0
DIMSTYLE
105
216
100
AcDbSymbolTableRecord
100
AcDbDimStyleTableRecord
  2
DIMSTYLE_1
 70
0
  3

  4

 40
1.0
 41
3.0
 42
0.5
 43
0.38
 44
1.5
 45
0.0
 46
0.0
 47
0.0
 48
0.0
140
3.0
141
0.09
142
0.0
143
25.4
144
1.0
145
0.0
146
1.0
147
0.75
 71
0.0
 72
0.0
 73
0
 74
0
 75
0
 76
0
 77
1
 78
8
170
0
171
2
172
0
173
0
174
0
175
0
176
0
177
0
178
0
270
2
271
2
272
2
273
2
274
2
275
0
280
0
281
0
282
0
283
1
284
8
285
0
286
0
287
3
288
0
340
11
278
44
341
211
342
211
343
211
344
211
  0
ENDTAB
  0
ENDSEC
  0
SECTION
  2
BLOCKS
  0
BLOCK
  5
20
100
AcDbEntity
  8
0
100
AcDbBlockBegin
  2
*Model_Space
 70
0
 10
0.0
 20
0.0
 30
0.0
  3
*Model_Space
  1

  0
ENDBLK
  5
21
100
AcDbEntity
  8
0
100
AcDbBlockEnd
  0
BLOCK
  5
1C
100
AcDbEntity
  8
0
100
AcDbBlockBegin
  2
*Paper_Space
 70
0
 10
0.0
 20
0.0
 30
0.0
  3
*Paper_Space
  1

  0
ENDBLK
  5
1D
100
AcDbEntity
  8
0
100
AcDbBlockEnd
  0
BLOCK
  5
217
100
AcDbEntity
  8
0
100
AcDbBlockBegin
  2
_FILLED
 70
64
 10
0.0
 20
0.0
  3
_FILLED
  1

  0
SOLID
  5
218
100
AcDbEntity
  8
0
  6
BYBLOCK
 62
0
100
AcDbTrace
 10
0.0
 20
0.0
 11
-1.0
 21
0.3166666667
 12
-1.0
 22
-0.3166666667
 13
-1.0
 23
-0.3166666667
  0
ENDBLK
  5
219
100
AcDbEntity
  8
0
  6
BYBLOCK
 62
0
100
AcDbBlockEnd
  0
BLOCK
  5
21A
100
AcDbEntity
  8
0
100
AcDbBlockBegin
 62
7
  6
CONTINUOUS
  2
*D0
 70
65
 10
0.0
 20
0.0
  3
*D0
  1

  0
MTEXT
  5
21B
100
AcDbEntity
  8
0
100
AcDbMText
 62
7
  6
CONTINUOUS
  7
STANDARD
 71
3
 72
1
 10
-115.0381097151
 20
81.5
 30
0.0
 11
1.0
 21
0.0
 31
0.0
 44
0.9
  1
1,5
 40
3.0
 41
5.5714285714
  0
LINE
  5
21C
100
AcDbEntity
  8
0
100
AcDbLine
 62
7
  6
CONTINUOUS
 10
-104.6131097151
 20
69.7285962882
 11
-104.6131097151
 21
79.25
  0
LINE
  5
21D
100
AcDbEntity
  8
0
100
AcDbLine
 62
7
  6
CONTINUOUS
 10
-103.1131097151
 20
69.7285962882
 11
-103.1131097151
 21
79.25
  0
LINE
  5
21E
100
AcDbEntity
  8
0
100
AcDbLine
 62
7
  6
CONTINUOUS
 10
-104.6131097151
 20
77.75
 11
-120.6095382865
 21
77.75
  0
LINE
  5
21F
100
AcDbEntity
  8
0
100
AcDbLine
 62
7
  6
CONTINUOUS
 10
-120.6095382865
 20
77.75
 11
-103.8631097151
 21
77.75
  0
LINE
  5
220
100
AcDbEntity
  8
0
100
AcDbLine
 62
7
  6
CONTINUOUS
 10
-103.1131097151
 20
77.75
 11
-99.1131097151
 21
77.75
  0
LINE
  5
221
100
AcDbEntity
  8
0
100
AcDbLine
 62
7
  6
CONTINUOUS
 10
-99.1131097151
 20
77.75
 11
-103.8631097151
 21
77.75
  0
INSERT
  5
222
100
AcDbEntity
  8
0
100
AcDbBlockReference
 62
7
  6
CONTINUOUS
  2
_FILLED
 10
-104.6131097151
 20
77.75
 41
3.0
 42
3.0
 43
3.0
  0
INSERT
  5
223
100
AcDbEntity
  8
0
100
AcDbBlockReference
 62
7
  6
CONTINUOUS
  2
_FILLED
 10
-103.1131097151
 20
77.75
 41
3.0
 42
3.0
 43
3.0
 50
180.0
  0
ENDBLK
  5
224
100
AcDbEntity
  8
0
  6
BYBLOCK
 62
0
100
AcDbBlockEnd
  0
BLOCK
  5
225
100
AcDbEntity
  8
0
100
AcDbBlockBegin
 62
7
  6
CONTINUOUS
  2
*D1
 70
65
 10
0.0
 20
0.0
  3
*D1
  1

  0
MTEXT
  5
226
100
AcDbEntity
  8
0
100
AcDbMText
 62
7
  6
CONTINUOUS
  7
STANDARD
 71
2
 72
1
 10
0.0
 20
81.5
 30
0.0
 11
1.0
 21
0.0
 31
0.0
 44
0.9
  1
142,6
 40
3.0
 41
10.5
  0
LINE
  5
227
100
AcDbEntity
  8
0
100
AcDbLine
 62
7
  6
CONTINUOUS
 10
-71.3
 20
50.0
 11
-71.3
 21
79.25
  0
LINE
  5
228
100
AcDbEntity
  8
0
100
AcDbLine
 62
7
  6
CONTINUOUS
 10
71.3
 20
50.0
 11
71.3
 21
79.25
  0
LINE
  5
229
100
AcDbEntity
  8
0
100
AcDbLine
 62
7
  6
CONTINUOUS
 10
-71.3
 20
77.75
 11
0.0
 21
77.75
  0
LINE
  5
22A
100
AcDbEntity
  8
0
100
AcDbLine
 62
7
  6
CONTINUOUS
 10
71.3
 20
77.75
 11
0.0
 21
77.75
  0
INSERT
  5
22B
100
AcDbEntity
  8
0
100
AcDbBlockReference
 62
7
  6
CONTINUOUS
  2
_FILLED
 10
-71.3
 20
77.75
 41
3.0
 42
3.0
 43
3.0
 50
180.0
  0
INSERT
  5
22C
100
AcDbEntity
  8
0
100
AcDbBlockReference
 62
7
  6
CONTINUOUS
  2
_FILLED
 10
71.3
 20
77.75
 41
3.0
 42
3.0
 43
3.0
  0
ENDBLK
  5
22D
100
AcDbEntity
  8
0
  6
BYBLOCK
 62
0
100
AcDbBlockEnd
  0
BLOCK
  5
22E
100
AcDbEntity
  8
0
100
AcDbBlockBegin
 62
7
  6
CONTINUOUS
  2
*D2
 70
65
 10
0.0
 20
0.0
  3
*D2
  1

  0
MTEXT
  5
22F
100
AcDbEntity
  8
0
100
AcDbMText
 62
7
  6
CONTINUOUS
  7
STANDARD
 71
2
 72
1
 10
85.2
 20
0.0
 30
0.0
 11
0.0
 21
1.0
 31
0.0
 44
0.9
  1
119
 40
3.0
 41
5.7857142857
  0
LINE
  5
230
100
AcDbEntity
  8
0
100
AcDbLine
 62
7
  6
CONTINUOUS
 10
30.85
 20
59.5
 11
90.45
 21
59.5
  0
LINE
  5
231
100
AcDbEntity
  8
0
100
AcDbLine
 62
7
  6
CONTINUOUS
 10
31.0
 20
-59.5
 11
90.45
 21
-59.5
  0
LINE
  5
232
100
AcDbEntity
  8
0
100
AcDbLine
 62
7
  6
CONTINUOUS
 10
88.95
 20
59.5
 11
88.95
 21
0.0
  0
LINE
  5
233
100
AcDbEntity
  8
0
100
AcDbLine
 62
7
  6
CONTINUOUS
 10
88.95
 20
-59.5
 11
88.95
 21
0.0
  0
INSERT
  5
234
100
AcDbEntity
  8
0
100
AcDbBlockReference
 62
7
  6
CONTINUOUS
  2
_FILLED
 10
88.95
 20
59.5
 41
3.0
 42
3.0
 43
3.0
 50
90.0
  0
INSERT
  5
235
100
AcDbEntity
  8
0
100
AcDbBlockReference
 62
7
  6
CONTINUOUS
  2
_FILLED
 10
88.95
 20
-59.5
 41
3.0
 42
3.0
 43
3.0
 50
270.0
  0
ENDBLK
  5
236
100
AcDbEntity
  8
0
  6
BYBLOCK
 62
0
100
AcDbBlockEnd
  0
ENDSEC
  0
SECTION
  2
ENTITIES
  0
DIMENSION
  5
237
100
AcDbEntity
  8
0
100
AcDbDimension
 62
7
  6
CONTINUOUS
  2
*D0
 10
-103.1131097151
 20
77.75
 11
-117.8238240008
 21
77.75
 70
160
 71
3
 42
1.5
  3
DIMSTYLE_1
100
AcDbAlignedDimension
 13
-104.6131097151
 23
69.2285962882
 14
-103.1131097151
 24
69.2285962882
100
AcDbRotatedDimension
  0
DIMENSION
  5
238
100
AcDbEntity
  8
0
100
AcDbDimension
 62
7
  6
CONTINUOUS
  2
*D1
 10
71.3
 20
77.75
 11
0.0
 21
77.75
 70
160
 71
2
 42
142.6
  3
DIMSTYLE_1
100
AcDbAlignedDimension
 13
-71.3
 23
49.5
 14
71.3
 24
49.5
100
AcDbRotatedDimension
  0
DIMENSION
  5
239
100
AcDbEntity
  8
0
100
AcDbDimension
 62
7
  6
CONTINUOUS
  2
*D2
 10
88.95
 20
-59.5
 11
88.95
 21
0.0
 70
160
 71
2
 42
119.0
  3
DIMSTYLE_1
100
AcDbAlignedDimension
 13
30.35
 23
59.5
 14
30.5
 24
-59.5
 50
270.0
100
AcDbRotatedDimension
  0
LINE
  5
23A
100
AcDbEntity
  8
ASSI
100
AcDbLine
 62
7
  6
CONTINUOUS
 10
-77.1000871397
 20
28.7285962882
 11
-76.7
 21
29.25
  0
LINE
  5
23B
100
AcDbEntity
  8
RACCORDO
100
AcDbLine
 62
7
  6
CONTINUOUS
 10
-71.3
 20
49.5
 11
-71.3
 21
27.0
  0
LINE
  5
23C
100
AcDbEntity
  8
ASSI
100
AcDbLine
 62
7
  6
CONTINUOUS
 10
-71.3
 20
23.0
 11
-71.3
 21
-22.75
  0
LINE
  5
23D
100
AcDbEntity
  8
RACCORDO
100
AcDbLine
 62
7
  6
CONTINUOUS
 10
-71.3
 20
-27.25
 11
-71.3
 21
-49.5
  0
LINE
  5
23E
100
AcDbEntity
  8
ASSI
100
AcDbLine
 62
7
  6
CONTINUOUS
 10
-76.2999128603
 20
21.2714037118
 11
-76.7
 21
20.75
  0
LINE
  5
23F
100
AcDbEntity
  8
ASSI
100
AcDbLine
 62
7
  6
CONTINUOUS
 10
-36.75
 20
65.5
 11
-36.2285962882
 21
65.9000871397
  0
LINE
  5
240
100
AcDbEntity
  8
ASSI
100
AcDbLine
 62
7
  6
CONTINUOUS
 10
-32.9000871397
 20
69.2285962882
 11
-32.5
 21
69.75
  0
LINE
  5
241
100
AcDbEntity
  8
ASSI
100
AcDbLine
 62
7
  6
CONTINUOUS
 10
-28.25
 20
65.5
 11
-28.7714037118
 21
65.0999128603
  0
LINE
  5
242
100
AcDbEntity
  8
ASSI
100
AcDbLine
 62
7
  6
CONTINUOUS
 10
-80.95
 20
25.0
 11
-80.4285962882
 21
25.4000871397
  0
LINE
  5
243
100
AcDbEntity
  8
0
100
AcDbLine
 62
7
  6
CONTINUOUS
 10
-43.2291667163
 20
47.5
 11
-43.9583333582
 21
45.3191489354
  0
LINE
  5
244
100
AcDbEntity
  8
0
100
AcDbLine
 62
7
  6
CONTINUOUS
 10
-40.9375
 20
47.2340425849
 11
-41.9791665673
 21
45.0
  0
LINE
  5
245
100
AcDbEntity
  8
0
100
AcDbLine
 62
7
  6
CONTINUOUS
 10
-41.6666665673
 20
45.0
 11
-40.625
 21
47.2340425849
  0
LINE
  5
246
100
AcDbEntity
  8
0
100
AcDbLine
 62
7
  6
CONTINUOUS
 10
-37.6041668653
 20
45.5851063877
 11
-37.7083331347
 21
45.4255319014
  0
LINE
  5
247
100
AcDbEntity
  8
0
100
AcDbLine
 62
7
  6
CONTINUOUS
 10
-37.5520831347
 20
45.2127659507
 11
-37.3958331347
 21
45.4255319014
  0
LINE
  5
248
100
AcDbEntity
  8
0
100
AcDbLine
 62
7
  6
CONTINUOUS
 10
-39.8958331347
 20
47.5
 11
-40.2083334327
 21
47.1276596189
  0
LINE
  5
249
100
AcDbEntity
  8
0
100
AcDbLine
 62
7
  6
CONTINUOUS
 10
-40.2083334327
 20
46.7021276057
 11
-39.8958331347
 21
47.0744681358
  0
LINE
  5
24A
100
AcDbEntity
  8
0
100
AcDbLine
 62
7
  6
CONTINUOUS
 10
-34.2708337307
 20
47.3404255509
 11
-34.4791662693
 21
47.1276596189
  0
LINE
  5
24B
100
AcDbEntity
  8
0
100
AcDbLine
 62
7
  6
CONTINUOUS
 10
-33.125
 20
46.5957446396
 11
-33.2291662693
 21
46.4893616736
  0
LINE
  5
24C
100
AcDbEntity
  8
0
100
AcDbLine
 62
7
  6
CONTINUOUS
 10
-38.8020831347
 20
46.1170212924
 11
-38.59375
 21
46.2765957415
  0
LINE
  5
24D
100
AcDbEntity
  8
0
100
AcDbLine
 62
7
  6
CONTINUOUS
 10
-33.125
 20
46.2765957415
 11
-32.9166662693
 21
46.4361701906
  0
LINE
  5
24E
100
AcDbEntity
  8
0
100
AcDbLine
 62
7
  6
CONTINUOUS
 10
-37.7083331347
 20
45.4255319014
 11
-37.8645831347
 21
45.3191489354
  0
LINE
  5
24F
100
AcDbEntity
  8
0
100
AcDbLine
 62
7
  6
CONTINUOUS
 10
-34.1666662693
 20
47.0744681358
 11
-34.0104162693
 21
47.1808511019
  0
LINE
  5
250
100
AcDbEntity
  8
0
100
AcDbLine
 62
7
  6
CONTINUOUS
 10
-38.6458331347
 20
46.5425531566
 11
-38.90625
 21
46.3829787076
  0
LINE
  5
251
100
AcDbEntity
  8
0
100
AcDbLine
 62
7
  6
CONTINUOUS
 10
-37.8125
 20
45.0531914877
 11
-37.5520831347
 21
45.2127659507
  0
LINE
  5
252
100
AcDbEntity
  8
0
100
AcDbLine
 62
7
  6
CONTINUOUS
 10
-34.0625
 20
47.446808517
 11
-34.2708337307
 21
47.3404255509
  0
LINE
  5
253
100
AcDbEntity
  8
RACCORDO
100
AcDbLine
 62
7
  6
CONTINUOUS
 10
-61.3
 20
-59.5
 11
-34.65
 21
-59.5
  0
LINE
  5
254
100
AcDbEntity
  8
ASSI
100
AcDbLine
 62
7
  6
CONTINUOUS
 10
-30.35
 20
-59.5
 11
30.5
 21
-59.5
  0
LINE
  5
255
100
AcDbEntity
  8
RACCORDO
100
AcDbLine
 62
7
  6
CONTINUOUS
 10
34.5
 20
-59.5
 11
61.3
 21
-59.5
  0
LINE
  5
256
100
AcDbEntity
  8
0
100
AcDbLine
 62
7
  6
CONTINUOUS
 10
-37.5520831347
 20
45.7446808368
 11
-37.6041668653
 21
45.5851063877
  0
LINE
  5
257
100
AcDbEntity
  8
0
100
AcDbLine
 62
7
  6
CONTINUOUS
 10
-43.75
 20
45.0
 11
-42.9166667163
 21
47.5
  0
LINE
  5
258
100
AcDbEntity
  8
0
100
AcDbLine
 62
7
  6
CONTINUOUS
 10
-37.3958331347
 20
45.4255319014
 11
-37.2916668653
 21
45.6914893538
  0
LINE
  5
259
100
AcDbEntity
  8
0
100
AcDbLine
 62
7
  6
CONTINUOUS
 10
-35.3125
 20
47.2340425849
 11
-36.3541668653
 21
45.0
  0
LINE
  5
25A
100
AcDbEntity
  8
0
100
AcDbLine
 62
7
  6
CONTINUOUS
 10
-36.0416668653
 20
45.0
 11
-35.0
 21
47.2340425849
  0
LINE
  5
25B
100
AcDbEntity
  8
0
100
AcDbLine
 62
7
  6
CONTINUOUS
 10
-33.0208337307
 20
46.8085105717
 11
-33.125
 21
46.5957446396
  0
LINE
  5
25C
100
AcDbEntity
  8
0
100
AcDbLine
 62
7
  6
CONTINUOUS
 10
-32.96875
 20
45.5851063877
 11
-33.0208337307
 21
45.4787234217
  0
LINE
  5
25D
100
AcDbEntity
  8
0
100
AcDbLine
 62
7
  6
CONTINUOUS
 10
-34.2708337307
 20
46.9148936868
 11
-34.1666662693
 21
47.0744681358
  0
LINE
  5
25E
100
AcDbEntity
  8
0
100
AcDbLine
 62
7
  6
CONTINUOUS
 10
-32.9166662693
 20
46.4361701906
 11
-32.8125
 21
46.5957446396
  0
LINE
  5
25F
100
AcDbEntity
  8
0
100
AcDbLine
 62
7
  6
CONTINUOUS
 10
-32.8645837307
 20
45.2659574524
 11
-32.7604162693
 21
45.4255319014
  0
LINE
  5
260
100
AcDbEntity
  8
0
100
AcDbLine
 62
7
  6
CONTINUOUS
 10
-33.0208337307
 20
45.4787234217
 11
-33.125
 21
45.3723404184
  0
LINE
  5
261
100
AcDbEntity
  8
0
100
AcDbLine
 62
7
  6
CONTINUOUS
 10
-33.0208337307
 20
45.1595744677
 11
-32.8645837307
 21
45.2659574524
  0
LINE
  5
262
100
AcDbEntity
  8
0
100
AcDbLine
 62
7
  6
CONTINUOUS
 10
-33.125
 20
45.3723404184
 11
-33.2291662693
 21
45.3191489354
  0
LINE
  5
263
100
AcDbEntity
  8
0
100
AcDbLine
 62
7
  6
CONTINUOUS
 10
-33.2291662693
 20
45.0531914877
 11
-33.0208337307
 21
45.1595744677
  0
LINE
  5
264
100
AcDbEntity
  8
0
100
AcDbLine
 62
7
  6
CONTINUOUS
 10
-33.2291662693
 20
46.4893616736
 11
-33.5416662693
 21
46.3829787076
  0
LINE
  5
265
100
AcDbEntity
  8
0
100
AcDbLine
 62
7
  6
CONTINUOUS
 10
-42.5
 20
47.5
 11
-42.5
 21
47.2340425849
  0
LINE
  5
266
100
AcDbEntity
  8
0
100
AcDbLine
 62
7
  6
CONTINUOUS
 10
-34.4791662693
 20
47.1276596189
 11
-34.53125
 21
46.9148936868
  0
LINE
  5
267
100
AcDbEntity
  8
0
100
AcDbLine
 62
7
  6
CONTINUOUS
 10
-32.8125
 20
46.5957446396
 11
-32.7604162693
 21
46.8085105717
  0
LINE
  5
268
100
AcDbEntity
  8
0
100
AcDbLine
 62
7
  6
CONTINUOUS
 10
-32.7604162693
 20
45.4255319014
 11
-32.7083337307
 21
45.5851063877
  0
LINE
  5
269
100
AcDbEntity
  8
0
100
AcDbLine
 62
7
  6
CONTINUOUS
 10
43.855498
 20
-48.376615
 11
44.19992
 21
-48.376615
  0
LINE
  5
26A
100
AcDbEntity
  8
0
100
AcDbLine
 62
7
  6
CONTINUOUS
 10
45.432306
 20
-48.376615
 11
45.776728
 21
-48.376615
  0
LINE
  5
26B
100
AcDbEntity
  8
0
100
AcDbLine
 62
7
  6
CONTINUOUS
 10
46.313542
 20
-48.376615
 11
46.668055
 21
-48.376615
  0
LINE
  5
26C
100
AcDbEntity
  8
0
100
AcDbLine
 62
7
  6
CONTINUOUS
 10
48.20921
 20
-48.376615
 11
48.585249
 21
-48.376615
  0
LINE
  5
26D
100
AcDbEntity
  8
0
100
AcDbLine
 62
7
  6
CONTINUOUS
 10
48.901417
 20
-48.376615
 11
50.538095
 21
-48.376615
  0
LINE
  5
26E
100
AcDbEntity
  8
0
100
AcDbLine
 62
7
  6
CONTINUOUS
 10
51.120653
 20
-48.376615
 11
51.465075
 21
-48.376615
  0
LINE
  5
26F
100
AcDbEntity
  8
0
100
AcDbLine
 62
7
  6
CONTINUOUS
 10
50.538095
 20
-48.07121
 11
49.24584
 21
-48.07121
  0
LINE
  5
270
100
AcDbEntity
  8
0
100
AcDbLine
 62
7
  6
CONTINUOUS
 10
46.934444
 20
-47.634628
 11
47.956947
 21
-47.634628
  0
LINE
  5
271
100
AcDbEntity
  8
0
100
AcDbLine
 62
7
  6
CONTINUOUS
 10
47.833171
 20
-47.329222
 11
47.04073
 21
-47.329222
  0
LINE
  5
272
100
AcDbEntity
  8
0
100
AcDbLine
 62
7
  6
CONTINUOUS
 10
44.569905
 20
-46.133162
 11
45.432306
 21
-46.133162
  0
LINE
  5
273
100
AcDbEntity
  8
0
100
AcDbLine
 62
7
  6
CONTINUOUS
 10
45.776728
 20
-46.133162
 11
46.639802
 21
-46.133162
  0
LINE
  5
274
100
AcDbEntity
  8
0
100
AcDbLine
 62
7
  6
CONTINUOUS
 10
52.427036
 20
-45.827084
 11
52.022743
 21
-45.827084
  0
LINE
  5
275
100
AcDbEntity
  8
0
100
AcDbLine
 62
7
  6
CONTINUOUS
 10
50.559622
 20
-45.827084
 11
50.158693
 21
-45.827084
  0
LINE
  5
276
100
AcDbEntity
  8
0
100
AcDbLine
 62
7
  6
CONTINUOUS
 10
49.24584
 20
-45.827084
 11
48.901417
 21
-45.827084
  0
LINE
  5
277
100
AcDbEntity
  8
0
100
AcDbLine
 62
7
  6
CONTINUOUS
 10
47.662305
 20
-45.827084
 11
47.272139
 21
-45.827084
  0
LINE
  5
278
100
AcDbEntity
  8
0
100
AcDbLine
 62
7
  6
CONTINUOUS
 10
46.639802
 20
-45.827084
 11
44.569905
 21
-45.827084
  0
LINE
  5
279
100
AcDbEntity
  8
0
100
AcDbLine
 62
7
  6
CONTINUOUS
 10
44.19992
 20
-45.827084
 11
43.855498
 21
-45.827084
  0
LINE
  5
27A
100
AcDbEntity
  8
0
100
AcDbLine
 62
7
  6
CONTINUOUS
 10
40.911765
 20
-44.172243
 11
41.244751
 21
-44.172243
  0
LINE
  5
27B
100
AcDbEntity
  8
0
100
AcDbLine
 62
7
  6
CONTINUOUS
 10
41.962522
 20
-44.172243
 11
42.30358
 21
-44.172243
  0
LINE
  5
27C
100
AcDbEntity
  8
0
100
AcDbLine
 62
7
  6
CONTINUOUS
 10
43.020678
 20
-44.172243
 11
43.353664
 21
-44.172243
  0
LINE
  5
27D
100
AcDbEntity
  8
0
100
AcDbLine
 62
7
  6
CONTINUOUS
 10
43.65907
 20
-44.172243
 11
44.014255
 21
-44.172243
  0
LINE
  5
27E
100
AcDbEntity
  8
0
100
AcDbLine
 62
7
  6
CONTINUOUS
 10
45.55541
 20
-44.172243
 11
45.931449
 21
-44.172243
  0
LINE
  5
27F
100
AcDbEntity
  8
0
100
AcDbLine
 62
7
  6
CONTINUOUS
 10
46.265108
 20
-44.172243
 11
47.2983768252
 21
-44.172243
  0
LINE
  5
280
100
AcDbEntity
  8
0
100
AcDbLine
 62
7
  6
CONTINUOUS
 10
48.846256
 20
-44.172243
 11
50.727797
 21
-44.172243
  0
LINE
  5
281
100
AcDbEntity
  8
0
100
AcDbLine
 62
7
  6
CONTINUOUS
 10
52.130375
 20
-44.172243
 11
52.474797
 21
-44.172243
  0
LINE
  5
282
100
AcDbEntity
  8
0
100
AcDbLine
 62
7
  6
CONTINUOUS
 10
53.064082
 20
-44.172243
 11
53.397741
 21
-44.172243
  0
LINE
  5
283
100
AcDbEntity
  8
0
100
AcDbLine
 62
7
  6
CONTINUOUS
 10
54.70076
 20
-44.172243
 11
55.088235
 21
-44.172243
  0
LINE
  5
284
100
AcDbEntity
  8
0
100
AcDbLine
 62
7
  6
CONTINUOUS
 10
47.2519555315
 20
-43.877601
 11
46.610203
 21
-43.877601
  0
LINE
  5
285
100
AcDbEntity
  8
0
100
AcDbLine
 62
7
  6
CONTINUOUS
 10
50.727797
 20
-43.866838
 11
49.190678
 21
-43.866838
  0
LINE
  5
286
100
AcDbEntity
  8
0
100
AcDbLine
 62
7
  6
CONTINUOUS
 10
44.280644
 20
-43.430256
 11
45.303148
 21
-43.430256
  0
LINE
  5
287
100
AcDbEntity
  8
0
100
AcDbLine
 62
7
  6
CONTINUOUS
 10
45.178698
 20
-43.12485
 11
44.387603
 21
-43.12485
  0
LINE
  5
288
100
AcDbEntity
  8
0
100
AcDbLine
 62
7
  6
CONTINUOUS
 10
49.190678
 20
-43.0152
 11
50.585857
 21
-43.0152
  0
LINE
  5
289
100
AcDbEntity
  8
0
100
AcDbLine
 62
7
  6
CONTINUOUS
 10
50.585857
 20
-42.709794
 11
49.190678
 21
-42.709794
  0
LINE
  5
28A
100
AcDbEntity
  8
0
100
AcDbLine
 62
7
  6
CONTINUOUS
 10
49.190678
 20
-41.92879
 11
50.703579
 21
-41.92879
  0
LINE
  5
28B
100
AcDbEntity
  8
0
100
AcDbLine
 62
7
  6
CONTINUOUS
 10
46.610203
 20
-41.918027
 11
47.2519573478
 21
-41.918027
  0
LINE
  5
28C
100
AcDbEntity
  8
ASSI
100
AcDbLine
 62
7
  6
CONTINUOUS
 10
-76.7
 20
20.75
 11
-77.1000871397
 21
21.2714037118
  0
LINE
  5
28D
100
AcDbEntity
  8
ASSI
100
AcDbLine
 62
7
  6
CONTINUOUS
 10
-76.7
 20
29.25
 11
-76.2999128603
 21
28.7285962882
  0
LINE
  5
28E
100
AcDbEntity
  8
0
100
AcDbLine
 62
7
  6
CONTINUOUS
 10
-40.625
 20
47.2340425849
 11
-40.625
 21
47.5
  0
LINE
  5
28F
100
AcDbEntity
  8
0
100
AcDbLine
 62
7
  6
CONTINUOUS
 10
-40.2083334327
 20
47.1276596189
 11
-40.2083334327
 21
46.7021276057
  0
LINE
  5
290
100
AcDbEntity
  8
0
100
AcDbLine
 62
7
  6
CONTINUOUS
 10
-39.8958331347
 20
47.0744681358
 11
-39.8958331347
 21
45.0
  0
LINE
  5
291
100
AcDbEntity
  8
0
100
AcDbLine
 62
7
  6
CONTINUOUS
 10
-39.5833331347
 20
45.0
 11
-39.5833331347
 21
47.5
  0
LINE
  5
292
100
AcDbEntity
  8
0
100
AcDbLine
 62
7
  6
CONTINUOUS
 10
-39.1666668653
 20
47.5
 11
-39.1666668653
 21
46.1170212924
  0
LINE
  5
293
100
AcDbEntity
  8
0
100
AcDbLine
 62
7
  6
CONTINUOUS
 10
-38.90625
 20
46.3829787076
 11
-38.90625
 21
47.2340425849
  0
LINE
  5
294
100
AcDbEntity
  8
0
100
AcDbLine
 62
7
  6
CONTINUOUS
 10
-37.5520831347
 20
45.8510638028
 11
-37.5520831347
 21
45.7446808368
  0
LINE
  5
295
100
AcDbEntity
  8
0
100
AcDbLine
 62
7
  6
CONTINUOUS
 10
-37.3958331347
 20
47.2340425849
 11
-37.3958331347
 21
47.5
  0
LINE
  5
296
100
AcDbEntity
  8
0
100
AcDbLine
 62
7
  6
CONTINUOUS
 10
-37.2916668653
 20
45.6914893538
 11
-37.2916668653
 21
45.9042552859
  0
LINE
  5
297
100
AcDbEntity
  8
0
100
AcDbLine
 62
7
  6
CONTINUOUS
 10
-36.875
 20
47.5
 11
-36.875
 21
47.2340425849
  0
LINE
  5
298
100
AcDbEntity
  8
0
100
AcDbLine
 62
7
  6
CONTINUOUS
 10
-35.0
 20
47.2340425849
 11
-35.0
 21
47.5
  0
LINE
  5
299
100
AcDbEntity
  8
0
100
AcDbLine
 62
7
  6
CONTINUOUS
 10
55.088235
 20
-41.623385
 11
54.753903
 21
-41.623385
  0
LINE
  5
29A
100
AcDbEntity
  8
0
100
AcDbLine
 62
7
  6
CONTINUOUS
 10
53.472411
 20
-41.623385
 11
53.064082
 21
-41.623385
  0
LINE
  5
29B
100
AcDbEntity
  8
0
100
AcDbLine
 62
7
  6
CONTINUOUS
 10
52.474797
 20
-41.623385
 11
52.130375
 21
-41.623385
  0
LINE
  5
29C
100
AcDbEntity
  8
0
100
AcDbLine
 62
7
  6
CONTINUOUS
 10
50.703579
 20
-41.623385
 11
48.846256
 21
-41.623385
  0
LINE
  5
29D
100
AcDbEntity
  8
0
100
AcDbLine
 62
7
  6
CONTINUOUS
 10
47.2983782232
 20
-41.623385
 11
46.265108
 21
-41.623385
  0
LINE
  5
29E
100
AcDbEntity
  8
0
100
AcDbLine
 62
7
  6
CONTINUOUS
 10
45.008505
 20
-41.623385
 11
44.618339
 21
-41.623385
  0
LINE
  5
29F
100
AcDbEntity
  8
0
100
AcDbLine
 62
7
  6
CONTINUOUS
 10
43.353664
 20
-41.623385
 11
42.863939
 21
-41.623385
  0
LINE
  5
2A0
100
AcDbEntity
  8
0
100
AcDbLine
 62
7
  6
CONTINUOUS
 10
41.404854
 20
-41.623385
 11
40.911765
 21
-41.623385
  0
LINE
  5
2A1
100
AcDbEntity
  8
ASSI
100
AcDbLine
 62
7
  6
CONTINUOUS
 10
28.7714037118
 20
-65.9000871397
 11
28.25
 21
-65.5
  0
LINE
  5
2A2
100
AcDbEntity
  8
ASSI
100
AcDbLine
 62
7
  6
CONTINUOUS
 10
-34.65
 20
-59.5
 11
-34.65
 21
-57.8730549951
  0
LINE
  5
2A3
100
AcDbEntity
  8
ASSI
100
AcDbLine
 62
7
  6
CONTINUOUS
 10
-34.5
 20
59.5
 11
-34.5
 21
62.3278556149
  0
LINE
  5
2A4
100
AcDbEntity
  8
0
100
AcDbLine
 62
7
  6
CONTINUOUS
 10
-33.75
 20
46.3829787076
 11
-33.75
 21
46.1702127755
  0
LINE
  5
2A5
100
AcDbEntity
  8
0
100
AcDbLine
 62
7
  6
CONTINUOUS
 10
-33.0208337307
 20
46.9148936868
 11
-33.0208337307
 21
46.8085105717
  0
LINE
  5
2A6
100
AcDbEntity
  8
0
100
AcDbLine
 62
7
  6
CONTINUOUS
 10
-32.96875
 20
45.7978723198
 11
-32.96875
 21
45.5851063877
  0
LINE
  5
2A7
100
AcDbEntity
  8
0
100
AcDbLine
 62
7
  6
CONTINUOUS
 10
-32.7604162693
 20
46.8085105717
 11
-32.7604162693
 21
46.9148936868
  0
LINE
  5
2A8
100
AcDbEntity
  8
0
100
AcDbLine
 62
7
  6
CONTINUOUS
 10
-32.7083337307
 20
45.5851063877
 11
-32.7083337307
 21
45.7978723198
  0
LINE
  5
2A9
100
AcDbEntity
  8
ASSI
100
AcDbLine
 62
7
  6
CONTINUOUS
 10
-30.5
 20
62.3278556149
 11
-30.5
 21
59.5
  0
LINE
  5
2AA
100
AcDbEntity
  8
ASSI
100
AcDbLine
 62
7
  6
CONTINUOUS
 10
-30.35
 20
-59.5
 11
-30.35
 21
-57.8730549951
  0
LINE
  5
2AB
100
AcDbEntity
  8
0
100
AcDbLine
 62
7
  6
CONTINUOUS
 10
22.5
 20
-34.0
 11
1.0
 21
-34.0
  0
LINE
  5
2AC
100
AcDbEntity
  8
0
100
AcDbLine
 62
7
  6
CONTINUOUS
 10
-1.0
 20
-34.0
 11
-22.5
 21
-34.0
  0
LINE
  5
2AD
100
AcDbEntity
  8
ASSI
100
AcDbLine
 62
7
  6
CONTINUOUS
 10
36.2285962882
 20
-65.0999128603
 11
36.75
 21
-65.5
  0
LINE
  5
2AE
100
AcDbEntity
  8
ASSI
100
AcDbLine
 62
7
  6
CONTINUOUS
 10
-80.4285962882
 20
24.5999128603
 11
-80.95
 21
25.0
  0
LINE
  5
2AF
100
AcDbEntity
  8
0
100
AcDbLine
 62
7
  6
CONTINUOUS
 10
-45.0
 20
47.5
 11
-44.1666666418
 21
45.0
  0
LINE
  5
2B0
100
AcDbEntity
  8
ASSI
100
AcDbLine
 62
7
  6
CONTINUOUS
 10
-69.6071891388
 20
-27.25
 11
-71.3
 21
-27.25
  0
LINE
  5
2B1
100
AcDbEntity
  8
ASSI
100
AcDbLine
 62
7
  6
CONTINUOUS
 10
73.5278556149
 20
-27.0
 11
71.3
 21
-27.0
  0
LINE
  5
2B2
100
AcDbEntity
  8
ASSI
100
AcDbLine
 62
7
  6
CONTINUOUS
 10
71.3
 20
-23.0
 11
73.5278556149
 21
-23.0
  0
LINE
  5
2B3
100
AcDbEntity
  8
ASSI
100
AcDbLine
 62
7
  6
CONTINUOUS
 10
-71.3
 20
-22.75
 11
-69.6071891388
 21
-22.75
  0
LINE
  5
2B4
100
AcDbEntity
  8
0
100
AcDbLine
 62
7
  6
CONTINUOUS
 10
-43.9583333582
 20
45.3191489354
 11
-44.6875
 21
47.5
  0
LINE
  5
2B5
100
AcDbEntity
  8
0
100
AcDbLine
 62
7
  6
CONTINUOUS
 10
-37.6041668653
 20
46.0106383264
 11
-37.5520831347
 21
45.8510638028
  0
LINE
  5
2B6
100
AcDbEntity
  8
0
100
AcDbLine
 62
7
  6
CONTINUOUS
 10
-32.7083337307
 20
45.7978723198
 11
-32.7604162693
 21
46.0106383264
  0
LINE
  5
2B7
100
AcDbEntity
  8
0
100
AcDbLine
 62
7
  6
CONTINUOUS
 10
-32.7604162693
 20
46.9148936868
 11
-32.8125
 21
47.1276596189
  0
LINE
  5
2B8
100
AcDbEntity
  8
0
100
AcDbLine
 62
7
  6
CONTINUOUS
 10
53.6862528303
 20
-1.75
 11
56.4852909359
 21
-1.0
  0
LINE
  5
2B9
100
AcDbEntity
  8
0
100
AcDbLine
 62
7
  6
CONTINUOUS
 10
-56.4852909359
 20
-1.0
 11
-53.6862528303
 21
-1.75
  0
LINE
  5
2BA
100
AcDbEntity
  8
ASSI
100
AcDbLine
 62
7
  6
CONTINUOUS
 10
32.5
 20
-69.75
 11
32.0999128603
 21
-69.2285962882
  0
LINE
  5
2BB
100
AcDbEntity
  8
0
100
AcDbLine
 62
7
  6
CONTINUOUS
 10
-39.1666668653
 20
45.6382978708
 11
-39.0625
 21
45.4255319014
  0
LINE
  5
2BC
100
AcDbEntity
  8
0
100
AcDbLine
 62
7
  6
CONTINUOUS
 10
-38.75
 20
45.4255319014
 11
-38.8541668653
 21
45.6382978708
  0
LINE
  5
2BD
100
AcDbEntity
  8
0
100
AcDbLine
 62
7
  6
CONTINUOUS
 10
-37.2916668653
 20
45.9042552859
 11
-37.3958331347
 21
46.1702127755
  0
LINE
  5
2BE
100
AcDbEntity
  8
0
100
AcDbLine
 62
7
  6
CONTINUOUS
 10
-34.5833337307
 20
45.5851063877
 11
-34.53125
 21
45.4255319014
  0
LINE
  5
2BF
100
AcDbEntity
  8
0
100
AcDbLine
 62
7
  6
CONTINUOUS
 10
-1.0
 20
34.0
 11
-1.75
 21
31.2009618943
  0
LINE
  5
2C0
100
AcDbEntity
  8
0
100
AcDbLine
 62
7
  6
CONTINUOUS
 10
-37.7083331347
 20
46.1702127755
 11
-37.6041668653
 21
46.0106383264
  0
LINE
  5
2C1
100
AcDbEntity
  8
0
100
AcDbLine
 62
7
  6
CONTINUOUS
 10
-34.2708337307
 20
45.4787234217
 11
-34.3229162693
 21
45.5851063877
  0
LINE
  5
2C2
100
AcDbEntity
  8
0
100
AcDbLine
 62
7
  6
CONTINUOUS
 10
-33.0729162693
 20
46.0106383264
 11
-32.96875
 21
45.7978723198
  0
LINE
  5
2C3
100
AcDbEntity
  8
0
100
AcDbLine
 62
7
  6
CONTINUOUS
 10
-1.75
 20
-31.2009618943
 11
-1.0
 21
-34.0
  0
LINE
  5
2C4
100
AcDbEntity
  8
0
100
AcDbLine
 62
7
  6
CONTINUOUS
 10
-1.75
 20
-31.2009618943
 11
-1.75
 21
-4.6837484988
  0
LINE
  5
2C5
100
AcDbEntity
  8
0
100
AcDbLine
 62
7
  6
CONTINUOUS
 10
-1.75
 20
4.6837484988
 11
-1.75
 21
31.2009618943
  0
LINE
  5
2C6
100
AcDbEntity
  8
RACCORDO
100
AcDbLine
 62
7
  6
CONTINUOUS
 10
53.6862528303
 20
-1.75
 11
26.6837484988
 21
-1.75
  0
LINE
  5
2C7
100
AcDbEntity
  8
0
100
AcDbLine
 62
7
  6
CONTINUOUS
 10
17.3162515012
 20
-1.75
 11
4.6837484988
 21
-1.75
  0
LINE
  5
2C8
100
AcDbEntity
  8
0
100
AcDbLine
 62
7
  6
CONTINUOUS
 10
-4.6837484988
 20
-1.75
 11
-17.3162515012
 21
-1.75
  0
LINE
  5
2C9
100
AcDbEntity
  8
RACCORDO
100
AcDbLine
 62
7
  6
CONTINUOUS
 10
-26.6837484988
 20
-1.75
 11
-53.6862528303
 21
-1.75
  0
LINE
  5
2CA
100
AcDbEntity
  8
0
100
AcDbLine
 62
7
  6
CONTINUOUS
 10
-39.0625
 20
45.4255319014
 11
-38.90625
 21
45.2127659507
  0
LINE
  5
2CB
100
AcDbEntity
  8
0
100
AcDbLine
 62
7
  6
CONTINUOUS
 10
-37.3958331347
 20
46.1702127755
 11
-37.5520831347
 21
46.3829787076
  0
LINE
  5
2CC
100
AcDbEntity
  8
0
100
AcDbLine
 62
7
  6
CONTINUOUS
 10
-34.53125
 20
45.4255319014
 11
-34.4270837307
 21
45.2659574524
  0
LINE
  5
2CD
100
AcDbEntity
  8
0
100
AcDbLine
 62
7
  6
CONTINUOUS
 10
-32.7604162693
 20
46.0106383264
 11
-32.8645837307
 21
46.1702127755
  0
LINE
  5
2CE
100
AcDbEntity
  8
0
100
AcDbLine
 62
7
  6
CONTINUOUS
 10
-33.125
 20
47.0744681358
 11
-33.0208337307
 21
46.9148936868
  0
LINE
  5
2CF
100
AcDbEntity
  8
0
100
AcDbLine
 62
7
  6
CONTINUOUS
 10
1.75
 20
31.2009618943
 11
1.75
 21
4.6837484988
  0
LINE
  5
2D0
100
AcDbEntity
  8
0
100
AcDbLine
 62
7
  6
CONTINUOUS
 10
1.75
 20
-4.6837484988
 11
1.75
 21
-31.2009618943
  0
LINE
  5
2D1
100
AcDbEntity
  8
RACCORDO
100
AcDbLine
 62
7
  6
CONTINUOUS
 10
-53.6862528303
 20
1.75
 11
-26.6837484988
 21
1.75
  0
LINE
  5
2D2
100
AcDbEntity
  8
0
100
AcDbLine
 62
7
  6
CONTINUOUS
 10
-17.3162515012
 20
1.75
 11
-4.6837484988
 21
1.75
  0
LINE
  5
2D3
100
AcDbEntity
  8
0
100
AcDbLine
 62
7
  6
CONTINUOUS
 10
4.6837484988
 20
1.75
 11
17.3162515012
 21
1.75
  0
LINE
  5
2D4
100
AcDbEntity
  8
RACCORDO
100
AcDbLine
 62
7
  6
CONTINUOUS
 10
26.6837484988
 20
1.75
 11
53.6862528303
 21
1.75
  0
LINE
  5
2D5
100
AcDbEntity
  8
0
100
AcDbLine
 62
7
  6
CONTINUOUS
 10
-34.1666662693
 20
45.3723404184
 11
-34.2708337307
 21
45.4787234217
  0
LINE
  5
2D6
100
AcDbEntity
  8
0
100
AcDbLine
 62
7
  6
CONTINUOUS
 10
1.0
 20
-34.0
 11
1.75
 21
-31.2009618943
  0
LINE
  5
2D7
100
AcDbEntity
  8
0
100
AcDbLine
 62
7
  6
CONTINUOUS
 10
-32.8125
 20
47.1276596189
 11
-33.0208337307
 21
47.3404255509
  0
LINE
  5
2D8
100
AcDbEntity
  8
0
100
AcDbLine
 62
7
  6
CONTINUOUS
 10
1.75
 20
31.2009618943
 11
1.0
 21
34.0
  0
LINE
  5
2D9
100
AcDbEntity
  8
0
100
AcDbLine
 62
7
  6
CONTINUOUS
 10
-53.6862528303
 20
1.75
 11
-56.4852909359
 21
1.0
  0
LINE
  5
2DA
100
AcDbEntity
  8
0
100
AcDbLine
 62
7
  6
CONTINUOUS
 10
56.4852909359
 20
1.0
 11
53.6862528303
 21
1.75
  0
LINE
  5
2DB
100
AcDbEntity
  8
0
100
AcDbLine
 62
7
  6
CONTINUOUS
 10
-38.90625
 20
45.2127659507
 11
-38.6458331347
 21
45.0531914877
  0
LINE
  5
2DC
100
AcDbEntity
  8
0
100
AcDbLine
 62
7
  6
CONTINUOUS
 10
-37.5520831347
 20
46.3829787076
 11
-37.8125
 21
46.5425531566
  0
LINE
  5
2DD
100
AcDbEntity
  8
0
100
AcDbLine
 62
7
  6
CONTINUOUS
 10
-38.59375
 20
45.3191489354
 11
-38.75
 21
45.4255319014
  0
LINE
  5
2DE
100
AcDbEntity
  8
0
100
AcDbLine
 62
7
  6
CONTINUOUS
 10
-37.8645831347
 20
46.2765957415
 11
-37.7083331347
 21
46.1702127755
  0
LINE
  5
2DF
100
AcDbEntity
  8
0
100
AcDbLine
 62
7
  6
CONTINUOUS
 10
-34.4270837307
 20
45.2659574524
 11
-34.2708337307
 21
45.1595744677
  0
LINE
  5
2E0
100
AcDbEntity
  8
0
100
AcDbLine
 62
7
  6
CONTINUOUS
 10
-33.2291662693
 20
46.1170212924
 11
-33.0729162693
 21
46.0106383264
  0
LINE
  5
2E1
100
AcDbEntity
  8
0
100
AcDbLine
 62
7
  6
CONTINUOUS
 10
-33.28125
 20
47.1808511019
 11
-33.125
 21
47.0744681358
  0
LINE
  5
2E2
100
AcDbEntity
  8
ASSI
100
AcDbLine
 62
7
  6
CONTINUOUS
 10
-32.5
 20
69.75
 11
-32.0999128603
 21
69.2285962882
  0
LINE
  5
2E3
100
AcDbEntity
  8
0
100
AcDbLine
 62
7
  6
CONTINUOUS
 10
50.158693
 20
-45.827084
 11
51.120653
 21
-47.350749
  0
LINE
  5
2E4
100
AcDbEntity
  8
0
100
AcDbLine
 62
7
  6
CONTINUOUS
 10
51.290846
 20
-47.05207
 11
50.559622
 21
-45.827084
  0
LINE
  5
2E5
100
AcDbEntity
  8
0
100
AcDbLine
 62
7
  6
CONTINUOUS
 10
41.765556
 20
47.516444
 11
41.274505
 21
45.795798
  0
LINE
  5
2E6
100
AcDbEntity
  8
0
100
AcDbLine
 62
7
  6
CONTINUOUS
 10
41.483477
 20
45.016708
 11
42.286993
 21
47.516444
  0
LINE
  5
2E7
100
AcDbEntity
  8
0
100
AcDbLine
 62
7
  6
CONTINUOUS
 10
45.068469
 20
47.516444
 11
44.546676
 21
46.128583
  0
LINE
  5
2E8
100
AcDbEntity
  8
0
100
AcDbLine
 62
7
  6
CONTINUOUS
 10
44.580418
 20
45.016708
 11
45.200829
 21
46.642184
  0
LINE
  5
2E9
100
AcDbEntity
  8
ASSI
100
AcDbLine
 62
7
  6
CONTINUOUS
 10
71.3
 20
22.75
 11
69.6071891388
 21
22.75
  0
LINE
  5
2EA
100
AcDbEntity
  8
ASSI
100
AcDbLine
 62
7
  6
CONTINUOUS
 10
-71.3
 20
23.0
 11
-73.5278556149
 21
23.0
  0
LINE
  5
2EB
100
AcDbEntity
  8
ASSI
100
AcDbLine
 62
7
  6
CONTINUOUS
 10
-73.5278556149
 20
27.0
 11
-71.3
 21
27.0
  0
LINE
  5
2EC
100
AcDbEntity
  8
ASSI
100
AcDbLine
 62
7
  6
CONTINUOUS
 10
71.3
 20
27.25
 11
69.6071891388
 21
27.25
  0
LINE
  5
2ED
100
AcDbEntity
  8
0
100
AcDbLine
 62
7
  6
CONTINUOUS
 10
-34.2708337307
 20
45.1595744677
 11
-34.0625
 21
45.0531914877
  0
LINE
  5
2EE
100
AcDbEntity
  8
0
100
AcDbLine
 62
7
  6
CONTINUOUS
 10
-34.0625
 20
45.3191489354
 11
-34.1666662693
 21
45.3723404184
  0
LINE
  5
2EF
100
AcDbEntity
  8
0
100
AcDbLine
 62
7
  6
CONTINUOUS
 10
-33.0208337307
 20
47.3404255509
 11
-33.2291662693
 21
47.446808517
  0
LINE
  5
2F0
100
AcDbEntity
  8
ASSI
100
AcDbLine
 62
7
  6
CONTINUOUS
 10
80.4285962882
 20
-24.5999128603
 11
80.95
 21
-25.0
  0
LINE
  5
2F1
100
AcDbEntity
  8
0
100
AcDbLine
 62
7
  6
CONTINUOUS
 10
53.397741
 20
-42.10135
 11
54.70076
 21
-44.172243
  0
LINE
  5
2F2
100
AcDbEntity
  8
0
100
AcDbLine
 62
7
  6
CONTINUOUS
 10
54.753903
 20
-43.693384
 11
53.472411
 21
-41.623385
  0
LINE
  5
2F3
100
AcDbEntity
  8
0
100
AcDbLine
 62
7
  6
CONTINUOUS
 10
45.931449
 20
-44.172243
 11
45.008505
 21
-41.623385
  0
LINE
  5
2F4
100
AcDbEntity
  8
0
100
AcDbLine
 62
7
  6
CONTINUOUS
 10
48.585249
 20
-48.376615
 11
47.662305
 21
-45.827084
  0
LINE
  5
2F5
100
AcDbEntity
  8
0
100
AcDbLine
 62
7
  6
CONTINUOUS
 10
45.303148
 20
-43.430256
 11
45.55541
 21
-44.172243
  0
LINE
  5
2F6
100
AcDbEntity
  8
0
100
AcDbLine
 62
7
  6
CONTINUOUS
 10
42.136425
 20
-43.789024
 11
41.404854
 21
-41.623385
  0
LINE
  5
2F7
100
AcDbEntity
  8
0
100
AcDbLine
 62
7
  6
CONTINUOUS
 10
41.244751
 20
-42.035077
 11
41.962522
 21
-44.172243
  0
LINE
  5
2F8
100
AcDbEntity
  8
ASSI
100
AcDbLine
 62
7
  6
CONTINUOUS
 10
30.35
 20
59.5
 11
30.35
 21
57.8730549951
  0
LINE
  5
2F9
100
AcDbEntity
  8
ASSI
100
AcDbLine
 62
7
  6
CONTINUOUS
 10
30.5
 20
-62.3278556149
 11
30.5
 21
-59.5
  0
LINE
  5
2FA
100
AcDbEntity
  8
ASSI
100
AcDbLine
 62
7
  6
CONTINUOUS
 10
34.5
 20
-59.5
 11
34.5
 21
-62.3278556149
  0
LINE
  5
2FB
100
AcDbEntity
  8
ASSI
100
AcDbLine
 62
7
  6
CONTINUOUS
 10
34.65
 20
59.5
 11
34.65
 21
57.8730549951
  0
LINE
  5
2FC
100
AcDbEntity
  8
0
100
AcDbLine
 62
7
  6
CONTINUOUS
 10
46.66727
 20
45.901897
 11
46.92708
 21
46.82958
  0
LINE
  5
2FD
100
AcDbEntity
  8
0
100
AcDbLine
 62
7
  6
CONTINUOUS
 10
46.416553
 20
45.016708
 11
46.560535
 21
45.515744
  0
LINE
  5
2FE
100
AcDbEntity
  8
0
100
AcDbLine
 62
7
  6
CONTINUOUS
 10
46.684497
 20
47.516444
 11
45.900421
 21
45.016708
  0
LINE
  5
2FF
100
AcDbEntity
  8
0
100
AcDbLine
 62
7
  6
CONTINUOUS
 10
-22.5
 20
34.0
 11
-1.0
 21
34.0
  0
LINE
  5
300
100
AcDbEntity
  8
0
100
AcDbLine
 62
7
  6
CONTINUOUS
 10
1.0
 20
34.0
 11
22.5
 21
34.0
  0
LINE
  5
301
100
AcDbEntity
  8
0
100
AcDbLine
 62
7
  6
CONTINUOUS
 10
-38.6458331347
 20
45.0531914877
 11
-38.3854168653
 21
45.0
  0
LINE
  5
302
100
AcDbEntity
  8
0
100
AcDbLine
 62
7
  6
CONTINUOUS
 10
-38.3854168653
 20
45.2659574524
 11
-38.59375
 21
45.3191489354
  0
LINE
  5
303
100
AcDbEntity
  8
0
100
AcDbLine
 62
7
  6
CONTINUOUS
 10
-34.0625
 20
45.0531914877
 11
-33.8541662693
 21
45.0
  0
LINE
  5
304
100
AcDbEntity
  8
0
100
AcDbLine
 62
7
  6
CONTINUOUS
 10
-38.0729168653
 20
46.3297872245
 11
-37.8645831347
 21
46.2765957415
  0
LINE
  5
305
100
AcDbEntity
  8
0
100
AcDbLine
 62
7
  6
CONTINUOUS
 10
-32.8645837307
 20
46.1702127755
 11
-33.125
 21
46.2765957415
  0
LINE
  5
306
100
AcDbEntity
  8
ASSI
100
AcDbLine
 62
7
  6
CONTINUOUS
 10
-36.2285962882
 20
65.0999128603
 11
-36.75
 21
65.5
  0
LINE
  5
307
100
AcDbEntity
  8
ASSI
100
AcDbLine
 62
7
  6
CONTINUOUS
 10
-28.7714037118
 20
65.9000871397
 11
-28.25
 21
65.5
  0
LINE
  5
308
100
AcDbEntity
  8
0
100
AcDbLine
 62
7
  6
CONTINUOUS
 10
47.956947
 20
-47.634628
 11
48.20921
 21
-48.376615
  0
LINE
  5
309
100
AcDbEntity
  8
0
100
AcDbLine
 62
7
  6
CONTINUOUS
 10
47.452908
 20
-46.196583
 11
47.833171
 21
-47.329222
  0
LINE
  5
30A
100
AcDbEntity
  8
0
100
AcDbLine
 62
7
  6
CONTINUOUS
 10
44.8058214663
 20
-41.967452158
 11
45.178698
 21
-43.12485
  0
LINE
  5
30B
100
AcDbEntity
  8
0
100
AcDbLine
 62
7
  6
CONTINUOUS
 10
40.911765
 20
-41.623385
 11
40.911765
 21
-44.172243
  0
LINE
  5
30C
100
AcDbEntity
  8
0
100
AcDbLine
 62
7
  6
CONTINUOUS
 10
41.244751
 20
-44.172243
 11
41.244751
 21
-42.035077
  0
LINE
  5
30D
100
AcDbEntity
  8
0
100
AcDbLine
 62
7
  6
CONTINUOUS
 10
42.480631
 20
47.516594
 11
42.480631
 21
45.016708
  0
LINE
  5
30E
100
AcDbEntity
  8
0
100
AcDbLine
 62
7
  6
CONTINUOUS
 10
43.002424
 20
45.016708
 11
43.002424
 21
47.516594
  0
LINE
  5
30F
100
AcDbEntity
  8
0
100
AcDbLine
 62
7
  6
CONTINUOUS
 10
43.020678
 20
-42.031041
 11
43.020678
 21
-44.172243
  0
LINE
  5
310
100
AcDbEntity
  8
0
100
AcDbLine
 62
7
  6
CONTINUOUS
 10
43.353664
 20
-44.172243
 11
43.353664
 21
-41.623385
  0
LINE
  5
311
100
AcDbEntity
  8
0
100
AcDbLine
 62
7
  6
CONTINUOUS
 10
43.782507
 20
45.016708
 11
43.89511
 21
46.648989
  0
LINE
  5
312
100
AcDbEntity
  8
0
100
AcDbLine
 62
7
  6
CONTINUOUS
 10
43.509033
 20
47.516444
 11
43.283321
 21
45.016708
  0
LINE
  5
313
100
AcDbEntity
  8
0
100
AcDbLine
 62
7
  6
CONTINUOUS
 10
-33.2291662693
 20
47.446808517
 11
-33.59375
 21
47.5
  0
LINE
  5
314
100
AcDbEntity
  8
0
100
AcDbLine
 62
7
  6
CONTINUOUS
 10
-33.5416662693
 20
46.1702127755
 11
-33.2291662693
 21
46.1170212924
  0
LINE
  5
315
100
AcDbEntity
  8
0
100
AcDbLine
 62
7
  6
CONTINUOUS
 10
-33.8020837307
 20
45.2659574524
 11
-34.0625
 21
45.3191489354
  0
LINE
  5
316
100
AcDbEntity
  8
0
100
AcDbLine
 62
7
  6
CONTINUOUS
 10
-37.8125
 20
46.5425531566
 11
-38.0729168653
 21
46.5957446396
  0
LINE
  5
317
100
AcDbEntity
  8
0
100
AcDbLine
 62
7
  6
CONTINUOUS
 10
-33.5416662693
 20
47.2340425849
 11
-33.28125
 21
47.1808511019
  0
LINE
  5
318
100
AcDbEntity
  8
ASSI
100
AcDbLine
 62
7
  6
CONTINUOUS
 10
76.7
 20
-29.25
 11
76.2999128603
 21
-28.7285962882
  0
LINE
  5
319
100
AcDbEntity
  8
0
100
AcDbLine
 62
7
  6
CONTINUOUS
 10
45.818485
 20
45.016708
 11
45.584732
 21
47.516444
  0
LINE
  5
31A
100
AcDbEntity
  8
0
100
AcDbLine
 62
7
  6
CONTINUOUS
 10
45.200829
 20
46.642184
 11
45.308033
 21
45.016708
  0
LINE
  5
31B
100
AcDbEntity
  8
0
100
AcDbLine
 62
7
  6
CONTINUOUS
 10
43.855498
 20
-45.827084
 11
43.855498
 21
-48.376615
  0
LINE
  5
31C
100
AcDbEntity
  8
0
100
AcDbLine
 62
7
  6
CONTINUOUS
 10
44.19992
 20
-48.376615
 11
44.19992
 21
-45.827084
  0
LINE
  5
31D
100
AcDbEntity
  8
0
100
AcDbLine
 62
7
  6
CONTINUOUS
 10
44.569905
 20
-45.827084
 11
44.569905
 21
-46.133162
  0
LINE
  5
31E
100
AcDbEntity
  8
0
100
AcDbLine
 62
7
  6
CONTINUOUS
 10
45.432306
 20
-46.133162
 11
45.432306
 21
-48.376615
  0
LINE
  5
31F
100
AcDbEntity
  8
0
100
AcDbLine
 62
7
  6
CONTINUOUS
 10
45.776728
 20
-48.376615
 11
45.776728
 21
-46.133162
  0
LINE
  5
320
100
AcDbEntity
  8
0
100
AcDbLine
 62
7
  6
CONTINUOUS
 10
46.265108
 20
-41.623385
 11
46.265108
 21
-44.172243
  0
LINE
  5
321
100
AcDbEntity
  8
0
100
AcDbLine
 62
7
  6
CONTINUOUS
 10
46.610203
 20
-43.877601
 11
46.610203
 21
-41.918027
  0
LINE
  5
322
100
AcDbEntity
  8
0
100
AcDbLine
 62
7
  6
CONTINUOUS
 10
46.639802
 20
-46.133162
 11
46.639802
 21
-45.827084
  0
LINE
  5
323
100
AcDbEntity
  8
0
100
AcDbLine
 62
7
  6
CONTINUOUS
 10
48.1094737939
 20
47.4872386966
 11
48.1094737939
 21
45.0167083275
  0
LINE
  5
324
100
AcDbEntity
  8
0
100
AcDbLine
 62
7
  6
CONTINUOUS
 10
48.6118652687
 20
46.4043630309
 11
48.6118652687
 21
47.0905891832
  0
LINE
  5
325
100
AcDbEntity
  8
0
100
AcDbLine
 62
7
  6
CONTINUOUS
 10
48.6291671355
 20
45.0167083275
 11
48.6291671355
 21
45.9949667468
  0
LINE
  5
326
100
AcDbEntity
  8
0
100
AcDbLine
 62
7
  6
CONTINUOUS
 10
48.846256
 20
-41.623385
 11
48.846256
 21
-44.172243
  0
LINE
  5
327
100
AcDbEntity
  8
0
100
AcDbLine
 62
7
  6
CONTINUOUS
 10
48.901417
 20
-45.827084
 11
48.901417
 21
-48.376615
  0
LINE
  5
328
100
AcDbEntity
  8
0
100
AcDbLine
 62
7
  6
CONTINUOUS
 10
49.190678
 20
-43.866838
 11
49.190678
 21
-43.0152
  0
LINE
  5
329
100
AcDbEntity
  8
0
100
AcDbLine
 62
7
  6
CONTINUOUS
 10
49.190678
 20
-42.709794
 11
49.190678
 21
-41.92879
  0
LINE
  5
32A
100
AcDbEntity
  8
0
100
AcDbLine
 62
7
  6
CONTINUOUS
 10
49.24584
 20
-48.07121
 11
49.24584
 21
-45.827084
  0
LINE
  5
32B
100
AcDbEntity
  8
0
100
AcDbLine
 62
7
  6
CONTINUOUS
 10
49.4509776891
 20
46.1835627181
 11
49.4509776891
 21
46.198333976
  0
LINE
  5
32C
100
AcDbEntity
  8
0
100
AcDbLine
 62
7
  6
CONTINUOUS
 10
50.538095
 20
-48.376615
 11
50.538095
 21
-48.07121
  0
LINE
  5
32D
100
AcDbEntity
  8
0
100
AcDbLine
 62
7
  6
CONTINUOUS
 10
50.585857
 20
-43.0152
 11
50.585857
 21
-42.709794
  0
LINE
  5
32E
100
AcDbEntity
  8
0
100
AcDbLine
 62
7
  6
CONTINUOUS
 10
50.703579
 20
-41.92879
 11
50.703579
 21
-41.623385
  0
LINE
  5
32F
100
AcDbEntity
  8
0
100
AcDbLine
 62
7
  6
CONTINUOUS
 10
50.727797
 20
-44.172243
 11
50.727797
 21
-43.866838
  0
LINE
  5
330
100
AcDbEntity
  8
0
100
AcDbLine
 62
7
  6
CONTINUOUS
 10
-44.1666666418
 20
45.0
 11
-43.75
 21
45.0
  0
LINE
  5
331
100
AcDbEntity
  8
0
100
AcDbLine
 62
7
  6
CONTINUOUS
 10
-41.9791665673
 20
45.0
 11
-41.6666665673
 21
45.0
  0
LINE
  5
332
100
AcDbEntity
  8
0
100
AcDbLine
 62
7
  6
CONTINUOUS
 10
-39.8958331347
 20
45.0
 11
-39.5833331347
 21
45.0
  0
LINE
  5
333
100
AcDbEntity
  8
0
100
AcDbLine
 62
7
  6
CONTINUOUS
 10
-38.3854168653
 20
45.0
 11
-38.0729168653
 21
45.0
  0
LINE
  5
334
100
AcDbEntity
  8
0
100
AcDbLine
 62
7
  6
CONTINUOUS
 10
-36.3541668653
 20
45.0
 11
-36.0416668653
 21
45.0
  0
LINE
  5
335
100
AcDbEntity
  8
0
100
AcDbLine
 62
7
  6
CONTINUOUS
 10
-33.8541662693
 20
45.0
 11
-33.4375
 21
45.0
  0
LINE
  5
336
100
AcDbEntity
  8
0
100
AcDbLine
 62
7
  6
CONTINUOUS
 10
41.023647
 20
45.016708
 11
41.483477
 21
45.016708
  0
LINE
  5
337
100
AcDbEntity
  8
0
100
AcDbLine
 62
7
  6
CONTINUOUS
 10
42.480631
 20
45.016708
 11
43.002424
 21
45.016708
  0
LINE
  5
338
100
AcDbEntity
  8
0
100
AcDbLine
 62
7
  6
CONTINUOUS
 10
43.283321
 20
45.016708
 11
43.782507
 21
45.016708
  0
LINE
  5
339
100
AcDbEntity
  8
0
100
AcDbLine
 62
7
  6
CONTINUOUS
 10
44.507236
 20
45.016708
 11
44.580418
 21
45.016708
  0
LINE
  5
33A
100
AcDbEntity
  8
0
100
AcDbLine
 62
7
  6
CONTINUOUS
 10
45.308033
 20
45.016708
 11
45.818485
 21
45.016708
  0
LINE
  5
33B
100
AcDbEntity
  8
0
100
AcDbLine
 62
7
  6
CONTINUOUS
 10
45.900421
 20
45.016708
 11
46.416553
 21
45.016708
  0
LINE
  5
33C
100
AcDbEntity
  8
0
100
AcDbLine
 62
7
  6
CONTINUOUS
 10
47.406302
 20
45.016708
 11
47.95625
 21
45.016708
  0
LINE
  5
33D
100
AcDbEntity
  8
0
100
AcDbLine
 62
7
  6
CONTINUOUS
 10
48.1094737939
 20
45.0167083275
 11
48.6291671355
 21
45.0167083275
  0
LINE
  5
33E
100
AcDbEntity
  8
0
100
AcDbLine
 62
7
  6
CONTINUOUS
 10
49.4282209542
 20
45.0167083275
 11
49.9301250525
 21
45.0167083275
  0
LINE
  5
33F
100
AcDbEntity
  8
0
100
AcDbLine
 62
7
  6
CONTINUOUS
 10
-33.4895837307
 20
45.2659574524
 11
-33.8020837307
 21
45.2659574524
  0
LINE
  5
340
100
AcDbEntity
  8
0
100
AcDbLine
 62
7
  6
CONTINUOUS
 10
-38.0729168653
 20
45.2659574524
 11
-38.3854168653
 21
45.2659574524
  0
LINE
  5
341
100
AcDbEntity
  8
0
100
AcDbLine
 62
7
  6
CONTINUOUS
 10
46.560535
 20
45.515744
 11
47.27113
 21
45.515744
  0
LINE
  5
342
100
AcDbEntity
  8
0
100
AcDbLine
 62
7
  6
CONTINUOUS
 10
-34.3229162693
 20
45.5851063877
 11
-34.5833337307
 21
45.5851063877
  0
LINE
  5
343
100
AcDbEntity
  8
0
100
AcDbLine
 62
7
  6
CONTINUOUS
 10
-38.8541668653
 20
45.6382978708
 11
-39.1666668653
 21
45.6382978708
  0
LINE
  5
344
100
AcDbEntity
  8
0
100
AcDbLine
 62
7
  6
CONTINUOUS
 10
47.16685
 20
45.901897
 11
46.66727
 21
45.901897
  0
LINE
  5
345
100
AcDbEntity
  8
0
100
AcDbLine
 62
7
  6
CONTINUOUS
 10
48.6291671355
 20
45.9949667468
 11
48.9089400082
 21
45.9949667468
  0
LINE
  5
346
100
AcDbEntity
  8
0
100
AcDbLine
 62
7
  6
CONTINUOUS
 10
-39.1666668653
 20
46.1170212924
 11
-38.8020831347
 21
46.1170212924
  0
LINE
  5
347
100
AcDbEntity
  8
0
100
AcDbLine
 62
7
  6
CONTINUOUS
 10
-33.75
 20
46.1702127755
 11
-33.5416662693
 21
46.1702127755
  0
LINE
  5
348
100
AcDbEntity
  8
0
100
AcDbLine
 62
7
  6
CONTINUOUS
 10
-38.3854168653
 20
46.3297872245
 11
-38.0729168653
 21
46.3297872245
  0
LINE
  5
349
100
AcDbEntity
  8
0
100
AcDbLine
 62
7
  6
CONTINUOUS
 10
-33.5416662693
 20
46.3829787076
 11
-33.75
 21
46.3829787076
  0
LINE
  5
34A
100
AcDbEntity
  8
0
100
AcDbLine
 62
7
  6
CONTINUOUS
 10
48.9100647233
 20
46.4043630309
 11
48.6118652687
 21
46.4043630309
  0
LINE
  5
34B
100
AcDbEntity
  8
0
100
AcDbLine
 62
7
  6
CONTINUOUS
 10
-38.0729168653
 20
46.5957446396
 11
-38.3854168653
 21
46.5957446396
  0
LINE
  5
34C
100
AcDbEntity
  8
0
100
AcDbLine
 62
7
  6
CONTINUOUS
 10
-34.53125
 20
46.9148936868
 11
-34.2708337307
 21
46.9148936868
  0
LINE
  5
34D
100
AcDbEntity
  8
0
100
AcDbLine
 62
7
  6
CONTINUOUS
 10
-42.5
 20
47.2340425849
 11
-40.9375
 21
47.2340425849
  0
LINE
  5
34E
100
AcDbEntity
  8
0
100
AcDbLine
 62
7
  6
CONTINUOUS
 10
-38.90625
 20
47.2340425849
 11
-37.3958331347
 21
47.2340425849
  0
LINE
  5
34F
100
AcDbEntity
  8
0
100
AcDbLine
 62
7
  6
CONTINUOUS
 10
-36.875
 20
47.2340425849
 11
-35.3125
 21
47.2340425849
  0
LINE
  5
350
100
AcDbEntity
  8
0
100
AcDbLine
 62
7
  6
CONTINUOUS
 10
-33.75
 20
47.2340425849
 11
-33.5416662693
 21
47.2340425849
  0
LINE
  5
351
100
AcDbEntity
  8
0
100
AcDbLine
 62
7
  6
CONTINUOUS
 10
-33.59375
 20
47.5
 11
-33.6979162693
 21
47.5
  0
LINE
  5
352
100
AcDbEntity
  8
0
100
AcDbLine
 62
7
  6
CONTINUOUS
 10
-35.0
 20
47.5
 11
-36.875
 21
47.5
  0
LINE
  5
353
100
AcDbEntity
  8
0
100
AcDbLine
 62
7
  6
CONTINUOUS
 10
-37.3958331347
 20
47.5
 11
-39.1666668653
 21
47.5
  0
LINE
  5
354
100
AcDbEntity
  8
0
100
AcDbLine
 62
7
  6
CONTINUOUS
 10
-39.5833331347
 20
47.5
 11
-39.8958331347
 21
47.5
  0
LINE
  5
355
100
AcDbEntity
  8
0
100
AcDbLine
 62
7
  6
CONTINUOUS
 10
-40.625
 20
47.5
 11
-42.5
 21
47.5
  0
LINE
  5
356
100
AcDbEntity
  8
0
100
AcDbLine
 62
7
  6
CONTINUOUS
 10
-42.9166667163
 20
47.5
 11
-43.2291667163
 21
47.5
  0
LINE
  5
357
100
AcDbEntity
  8
0
100
AcDbLine
 62
7
  6
CONTINUOUS
 10
-44.6875
 20
47.5
 11
-45.0
 21
47.5
  0
LINE
  5
358
100
AcDbEntity
  8
0
100
AcDbLine
 62
7
  6
CONTINUOUS
 10
47.189269
 20
47.516444
 11
46.684497
 21
47.516444
  0
LINE
  5
359
100
AcDbEntity
  8
0
100
AcDbLine
 62
7
  6
CONTINUOUS
 10
45.584732
 20
47.516444
 11
45.068469
 21
47.516444
  0
LINE
  5
35A
100
AcDbEntity
  8
0
100
AcDbLine
 62
7
  6
CONTINUOUS
 10
44.030395
 20
47.516444
 11
43.509033
 21
47.516444
  0
LINE
  5
35B
100
AcDbEntity
  8
0
100
AcDbLine
 62
7
  6
CONTINUOUS
 10
42.286993
 20
47.516444
 11
41.765556
 21
47.516444
  0
LINE
  5
35C
100
AcDbEntity
  8
0
100
AcDbLine
 62
7
  6
CONTINUOUS
 10
40.79801
 20
47.516444
 11
40.231182
 21
47.516444
  0
LINE
  5
35D
100
AcDbEntity
  8
0
100
AcDbLine
 62
7
  6
CONTINUOUS
 10
43.002424
 20
47.516594
 11
42.480631
 21
47.516594
  0
LINE
  5
35E
100
AcDbEntity
  8
ASSI
100
AcDbLine
 62
7
  6
CONTINUOUS
 10
76.7
 20
-20.75
 11
77.1000871397
 21
-21.2714037118
  0
LINE
  5
35F
100
AcDbEntity
  8
0
100
AcDbLine
 62
7
  6
CONTINUOUS
 10
51.120653
 20
-47.350749
 11
51.120653
 21
-48.376615
  0
LINE
  5
360
100
AcDbEntity
  8
0
100
AcDbLine
 62
7
  6
CONTINUOUS
 10
51.465075
 20
-48.376615
 11
51.465075
 21
-47.350749
  0
LINE
  5
361
100
AcDbEntity
  8
0
100
AcDbLine
 62
7
  6
CONTINUOUS
 10
52.130375
 20
-41.623385
 11
52.130375
 21
-44.172243
  0
LINE
  5
362
100
AcDbEntity
  8
0
100
AcDbLine
 62
7
  6
CONTINUOUS
 10
52.474797
 20
-44.172243
 11
52.474797
 21
-41.623385
  0
LINE
  5
363
100
AcDbEntity
  8
0
100
AcDbLine
 62
7
  6
CONTINUOUS
 10
53.064082
 20
-41.623385
 11
53.064082
 21
-44.172243
  0
LINE
  5
364
100
AcDbEntity
  8
0
100
AcDbLine
 62
7
  6
CONTINUOUS
 10
53.397741
 20
-44.172243
 11
53.397741
 21
-42.10135
  0
LINE
  5
365
100
AcDbEntity
  8
0
100
AcDbLine
 62
7
  6
CONTINUOUS
 10
54.753903
 20
-41.623385
 11
54.753903
 21
-43.693384
  0
LINE
  5
366
100
AcDbEntity
  8
0
100
AcDbLine
 62
7
  6
CONTINUOUS
 10
55.088235
 20
-44.172243
 11
55.088235
 21
-41.623385
  0
LINE
  5
367
100
AcDbEntity
  8
0
100
AcDbLine
 62
7
  6
CONTINUOUS
 10
42.30358
 20
-44.172243
 11
43.020678
 21
-42.031041
  0
LINE
  5
368
100
AcDbEntity
  8
0
100
AcDbLine
 62
7
  6
CONTINUOUS
 10
42.863939
 20
-41.623385
 11
42.136425
 21
-43.789024
  0
LINE
  5
369
100
AcDbEntity
  8
0
100
AcDbLine
 62
7
  6
CONTINUOUS
 10
44.014255
 20
-44.172243
 11
44.280644
 21
-43.430256
  0
LINE
  5
36A
100
AcDbEntity
  8
0
100
AcDbLine
 62
7
  6
CONTINUOUS
 10
44.387603
 20
-43.12485
 11
44.8058214663
 21
-41.967452158
  0
LINE
  5
36B
100
AcDbEntity
  8
0
100
AcDbLine
 62
7
  6
CONTINUOUS
 10
44.618339
 20
-41.623385
 11
43.65907
 21
-44.172243
  0
LINE
  5
36C
100
AcDbEntity
  8
0
100
AcDbLine
 62
7
  6
CONTINUOUS
 10
-33.4375
 20
45.0
 11
-33.2291662693
 21
45.0531914877
  0
LINE
  5
36D
100
AcDbEntity
  8
0
100
AcDbLine
 62
7
  6
CONTINUOUS
 10
-37.8645831347
 20
45.3191489354
 11
-38.0729168653
 21
45.2659574524
  0
LINE
  5
36E
100
AcDbEntity
  8
0
100
AcDbLine
 62
7
  6
CONTINUOUS
 10
-38.59375
 20
46.2765957415
 11
-38.3854168653
 21
46.3297872245
  0
LINE
  5
36F
100
AcDbEntity
  8
0
100
AcDbLine
 62
7
  6
CONTINUOUS
 10
-33.2291662693
 20
45.3191489354
 11
-33.4895837307
 21
45.2659574524
  0
LINE
  5
370
100
AcDbEntity
  8
0
100
AcDbLine
 62
7
  6
CONTINUOUS
 10
-38.0729168653
 20
45.0
 11
-37.8125
 21
45.0531914877
  0
LINE
  5
371
100
AcDbEntity
  8
0
100
AcDbLine
 62
7
  6
CONTINUOUS
 10
-34.0104162693
 20
47.1808511019
 11
-33.75
 21
47.2340425849
  0
LINE
  5
372
100
AcDbEntity
  8
0
100
AcDbLine
 62
7
  6
CONTINUOUS
 10
-38.3854168653
 20
46.5957446396
 11
-38.6458331347
 21
46.5425531566
  0
LINE
  5
373
100
AcDbEntity
  8
0
100
AcDbLine
 62
7
  6
CONTINUOUS
 10
-33.6979162693
 20
47.5
 11
-34.0625
 21
47.446808517
  0
LINE
  5
374
100
AcDbEntity
  8
0
100
AcDbLine
 62
7
  6
CONTINUOUS
 10
43.89511
 20
46.648989
 11
44.507236
 21
45.016708
  0
LINE
  5
375
100
AcDbEntity
  8
0
100
AcDbLine
 62
7
  6
CONTINUOUS
 10
44.546676
 20
46.128583
 11
44.030395
 21
47.516444
  0
LINE
  5
376
100
AcDbEntity
  8
0
100
AcDbLine
 62
7
  6
CONTINUOUS
 10
40.231182
 20
47.516444
 11
41.023647
 21
45.016708
  0
LINE
  5
377
100
AcDbEntity
  8
0
100
AcDbLine
 62
7
  6
CONTINUOUS
 10
41.274505
 20
45.795798
 11
40.79801
 21
47.516444
  0
LINE
  5
378
100
AcDbEntity
  8
0
100
AcDbLine
 62
7
  6
CONTINUOUS
 10
47.27113
 20
45.515744
 11
47.406302
 21
45.016708
  0
LINE
  5
379
100
AcDbEntity
  8
0
100
AcDbLine
 62
7
  6
CONTINUOUS
 10
46.92708
 20
46.82958
 11
47.16685
 21
45.901897
  0
LINE
  5
37A
100
AcDbEntity
  8
0
100
AcDbLine
 62
7
  6
CONTINUOUS
 10
46.668055
 20
-48.376615
 11
46.934444
 21
-47.634628
  0
LINE
  5
37B
100
AcDbEntity
  8
0
100
AcDbLine
 62
7
  6
CONTINUOUS
 10
47.04073
 20
-47.329222
 11
47.452908
 21
-46.196583
  0
LINE
  5
37C
100
AcDbEntity
  8
0
100
AcDbLine
 62
7
  6
CONTINUOUS
 10
47.272139
 20
-45.827084
 11
46.313542
 21
-48.376615
  0
LINE
  5
37D
100
AcDbEntity
  8
RACCORDO
100
AcDbLine
 62
7
  6
CONTINUOUS
 10
61.3
 20
59.5
 11
34.65
 21
59.5
  0
LINE
  5
37E
100
AcDbEntity
  8
ASSI
100
AcDbLine
 62
7
  6
CONTINUOUS
 10
30.35
 20
59.5
 11
-30.5
 21
59.5
  0
LINE
  5
37F
100
AcDbEntity
  8
RACCORDO
100
AcDbLine
 62
7
  6
CONTINUOUS
 10
-34.5
 20
59.5
 11
-61.3
 21
59.5
  0
LINE
  5
380
100
AcDbEntity
  8
0
100
AcDbLine
 62
7
  6
CONTINUOUS
 10
47.95625
 20
45.016708
 11
47.189269
 21
47.516444
  0
LINE
  5
381
100
AcDbEntity
  8
RACCORDO
100
AcDbLine
 62
7
  6
CONTINUOUS
 10
71.3
 20
-49.5
 11
71.3
 21
-27.0
  0
LINE
  5
382
100
AcDbEntity
  8
ASSI
100
AcDbLine
 62
7
  6
CONTINUOUS
 10
71.3
 20
-23.0
 11
71.3
 21
22.75
  0
LINE
  5
383
100
AcDbEntity
  8
RACCORDO
100
AcDbLine
 62
7
  6
CONTINUOUS
 10
71.3
 20
27.25
 11
71.3
 21
49.5
  0
LINE
  5
384
100
AcDbEntity
  8
0
100
AcDbLine
 62
7
  6
CONTINUOUS
 10
52.022743
 20
-45.827084
 11
51.290846
 21
-47.05207
  0
LINE
  5
385
100
AcDbEntity
  8
0
100
AcDbLine
 62
7
  6
CONTINUOUS
 10
51.465075
 20
-47.350749
 11
52.427036
 21
-45.827084
  0
LINE
  5
386
100
AcDbEntity
  8
ASSI
100
AcDbLine
 62
7
  6
CONTINUOUS
 10
32.9000871397
 20
-69.2285962882
 11
32.5
 21
-69.75
  0
LINE
  5
387
100
AcDbEntity
  8
ASSI
100
AcDbLine
 62
7
  6
CONTINUOUS
 10
80.95
 20
-25.0
 11
80.4285962882
 21
-25.4000871397
  0
LINE
  5
388
100
AcDbEntity
  8
ASSI
100
AcDbLine
 62
7
  6
CONTINUOUS
 10
28.25
 20
-65.5
 11
28.7714037118
 21
-65.0999128603
  0
LINE
  5
389
100
AcDbEntity
  8
ASSI
100
AcDbLine
 62
7
  6
CONTINUOUS
 10
76.2999128603
 20
-21.2714037118
 11
76.7
 21
-20.75
  0
LINE
  5
38A
100
AcDbEntity
  8
ASSI
100
AcDbLine
 62
7
  6
CONTINUOUS
 10
77.1000871397
 20
-28.7285962882
 11
76.7
 21
-29.25
  0
LINE
  5
38B
100
AcDbEntity
  8
ASSI
100
AcDbLine
 62
7
  6
CONTINUOUS
 10
36.75
 20
-65.5
 11
36.2285962882
 21
-65.9000871397
  0
LINE
  5
38C
100
AcDbEntity
  8
ASSI
100
AcDbLine
 62
7
  6
CONTINUOUS
 10
-103.1131097151
 20
-69.75
 11
-104.6131097151
 21
-69.75
  0
LINE
  5
38D
100
AcDbEntity
  8
ASSI
100
AcDbLine
 62
7
  6
CONTINUOUS
 10
-104.6131097151
 20
-69.2285962882
 11
-103.1131097151
 21
-69.2285962882
  0
LINE
  5
38E
100
AcDbEntity
  8
ASSI
100
AcDbLine
 62
7
  6
CONTINUOUS
 10
-104.6131097151
 20
-65.9000871397
 11
-103.1131097151
 21
-65.9000871397
  0
LINE
  5
38F
100
AcDbEntity
  8
ASSI
100
AcDbLine
 62
7
  6
CONTINUOUS
 10
-103.1131097151
 20
-65.5
 11
-104.6131097151
 21
-65.5
  0
LINE
  5
390
100
AcDbEntity
  8
ASSI
100
AcDbLine
 62
7
  6
CONTINUOUS
 10
-104.6131097151
 20
-65.0999128603
 11
-103.1131097151
 21
-65.0999128603
  0
LINE
  5
391
100
AcDbEntity
  8
ASSI
100
AcDbLine
 62
7
  6
CONTINUOUS
 10
-103.1131097151
 20
-62.3278556149
 11
-104.6131097151
 21
-62.3278556149
  0
LINE
  5
392
100
AcDbEntity
  8
RACCORDO
100
AcDbLine
 62
7
  6
CONTINUOUS
 10
-104.6131097151
 20
-59.5
 11
-103.1131097151
 21
-59.5
  0
LINE
  5
393
100
AcDbEntity
  8
RACCORDO
100
AcDbLine
 62
253
  6
CONTINUOUS
 10
-104.6131097151
 20
-49.5
 11
-103.1131097151
 21
-49.5
  0
LINE
  5
394
100
AcDbEntity
  8
ASSI
100
AcDbLine
 62
7
  6
CONTINUOUS
 10
-103.1131097151
 20
-29.25
 11
-104.6131097151
 21
-29.25
  0
LINE
  5
395
100
AcDbEntity
  8
ASSI
100
AcDbLine
 62
7
  6
CONTINUOUS
 10
-104.6131097151
 20
-28.7285962882
 11
-103.1131097151
 21
-28.7285962882
  0
LINE
  5
396
100
AcDbEntity
  8
ASSI
100
AcDbLine
 62
7
  6
CONTINUOUS
 10
-104.6131097151
 20
-25.4000871397
 11
-103.1131097151
 21
-25.4000871397
  0
LINE
  5
397
100
AcDbEntity
  8
ASSI
100
AcDbLine
 62
7
  6
CONTINUOUS
 10
-103.1131097151
 20
-25.0
 11
-104.6131097151
 21
-25.0
  0
LINE
  5
398
100
AcDbEntity
  8
ASSI
100
AcDbLine
 62
7
  6
CONTINUOUS
 10
-104.6131097151
 20
-24.5999128603
 11
-103.1131097151
 21
-24.5999128603
  0
LINE
  5
399
100
AcDbEntity
  8
ASSI
100
AcDbLine
 62
7
  6
CONTINUOUS
 10
-104.6131097151
 20
-21.2714037118
 11
-103.1131097151
 21
-21.2714037118
  0
LINE
  5
39A
100
AcDbEntity
  8
ASSI
100
AcDbLine
 62
7
  6
CONTINUOUS
 10
-103.1131097151
 20
-20.75
 11
-104.6131097151
 21
-20.75
  0
LINE
  5
39B
100
AcDbEntity
  8
RACCORDO
100
AcDbLine
 62
7
  6
CONTINUOUS
 10
-104.6131097151
 20
-59.5
 11
-104.6131097151
 21
-29.25
  0
LINE
  5
39C
100
AcDbEntity
  8
ASSI
100
AcDbLine
 62
7
  6
CONTINUOUS
 10
-104.6131097151
 20
-29.25
 11
-104.6131097151
 21
27.25
  0
LINE
  5
39D
100
AcDbEntity
  8
ASSI
100
AcDbLine
 62
7
  6
CONTINUOUS
 10
-104.6131097151
 20
-59.5
 11
-104.6131097151
 21
-69.75
  0
LINE
  5
39E
100
AcDbEntity
  8
RACCORDO
100
AcDbLine
 62
7
  6
CONTINUOUS
 10
-104.6131097151
 20
27.25
 11
-104.6131097151
 21
59.5
  0
LINE
  5
39F
100
AcDbEntity
  8
ASSI
100
AcDbLine
 62
7
  6
CONTINUOUS
 10
-104.6131097151
 20
59.5
 11
-104.6131097151
 21
69.75
  0
LINE
  5
3A0
100
AcDbEntity
  8
ASSI
100
AcDbLine
 62
7
  6
CONTINUOUS
 10
-103.1131097151
 20
69.75
 11
-103.1131097151
 21
59.5
  0
LINE
  5
3A1
100
AcDbEntity
  8
RACCORDO
100
AcDbLine
 62
7
  6
CONTINUOUS
 10
-103.1131097151
 20
-29.25
 11
-103.1131097151
 21
-59.5
  0
LINE
  5
3A2
100
AcDbEntity
  8
ASSI
100
AcDbLine
 62
7
  6
CONTINUOUS
 10
-103.1131097151
 20
-29.25
 11
-103.1131097151
 21
27.25
  0
LINE
  5
3A3
100
AcDbEntity
  8
ASSI
100
AcDbLine
 62
7
  6
CONTINUOUS
 10
-103.1131097151
 20
-59.5
 11
-103.1131097151
 21
-69.75
  0
LINE
  5
3A4
100
AcDbEntity
  8
RACCORDO
100
AcDbLine
 62
7
  6
CONTINUOUS
 10
-103.1131097151
 20
27.25
 11
-103.1131097151
 21
59.5
  0
LINE
  5
3A5
100
AcDbEntity
  8
ASSI
100
AcDbLine
 62
7
  6
CONTINUOUS
 10
-103.1131097151
 20
22.75
 11
-104.6131097151
 21
22.75
  0
LINE
  5
3A6
100
AcDbEntity
  8
ASSI
100
AcDbLine
 62
7
  6
CONTINUOUS
 10
-103.1131097151
 20
27.25
 11
-104.6131097151
 21
27.25
  0
LINE
  5
3A7
100
AcDbEntity
  8
RACCORDO
100
AcDbLine
 62
253
  6
CONTINUOUS
 10
-104.6131097151
 20
49.5
 11
-103.1131097151
 21
49.5
  0
LINE
  5
3A8
100
AcDbEntity
  8
RACCORDO
100
AcDbLine
 62
7
  6
CONTINUOUS
 10
-104.6131097151
 20
59.5
 11
-103.1131097151
 21
59.5
  0
LINE
  5
3A9
100
AcDbEntity
  8
ASSI
100
AcDbLine
 62
7
  6
CONTINUOUS
 10
-104.6131097151
 20
62.3278556149
 11
-103.1131097151
 21
62.3278556149
  0
LINE
  5
3AA
100
AcDbEntity
  8
ASSI
100
AcDbLine
 62
7
  6
CONTINUOUS
 10
-104.6131097151
 20
65.0999128603
 11
-103.1131097151
 21
65.0999128603
  0
LINE
  5
3AB
100
AcDbEntity
  8
ASSI
100
AcDbLine
 62
7
  6
CONTINUOUS
 10
-103.1131097151
 20
65.5
 11
-104.6131097151
 21
65.5
  0
LINE
  5
3AC
100
AcDbEntity
  8
ASSI
100
AcDbLine
 62
7
  6
CONTINUOUS
 10
-104.6131097151
 20
65.9000871397
 11
-103.1131097151
 21
65.9000871397
  0
LINE
  5
3AD
100
AcDbEntity
  8
ASSI
100
AcDbLine
 62
7
  6
CONTINUOUS
 10
-104.6131097151
 20
69.2285962882
 11
-103.1131097151
 21
69.2285962882
  0
LINE
  5
3AE
100
AcDbEntity
  8
ASSI
100
AcDbLine
 62
7
  6
CONTINUOUS
 10
-104.6131097151
 20
69.75
 11
-103.1131097151
 21
69.75
  0
ARC
  5
3AF
100
AcDbEntity
  8
RACCORDO
100
AcDbCircle
 62
7
  6
CONTINUOUS
 10
-61.3
 20
-49.5
 40
10.0
100
AcDbArc
 50
180.0
 51
270.0
  0
ARC
  5
3B0
100
AcDbEntity
  8
ASSI
100
AcDbCircle
 62
7
  6
CONTINUOUS
 10
-32.5
 20
-54.5
 40
4.0
100
AcDbArc
 50
302.5136146332
 51
237.4863853668
  0
ARC
  5
3B1
100
AcDbEntity
  8
ASSI
100
AcDbCircle
 62
7
  6
CONTINUOUS
 10
-66.3
 20
-25.0
 40
4.0
100
AcDbArc
 50
214.2288663278
 51
145.7711336722
  0
ARC
  5
3B2
100
AcDbEntity
  8
RACCORDO
100
AcDbCircle
 62
7
  6
CONTINUOUS
 10
-17.3162515012
 20
-3.75
 40
2.0
100
AcDbArc
 50
90.0
 51
141.3178125465
  0
ARC
  5
3B3
100
AcDbEntity
  8
RACCORDO
100
AcDbCircle
 62
7
  6
CONTINUOUS
 10
-26.6837484988
 20
-3.75
 40
2.0
100
AcDbArc
 50
38.6821874535
 51
90.0
  0
CIRCLE
  5
3B4
100
AcDbEntity
  8
ASSI
100
AcDbCircle
 62
7
  6
CONTINUOUS
 10
-57.5
 20
-45.0
 40
1.5
  0
ARC
  5
3B5
100
AcDbEntity
  8
0
100
AcDbCircle
 62
7
  6
CONTINUOUS
 10
-22.5
 20
-0.0
 40
34.0
100
AcDbArc
 50
90.0
 51
178.3145869598
  0
ARC
  5
3B6
100
AcDbEntity
  8
0
100
AcDbCircle
 62
7
  6
CONTINUOUS
 10
-22.5
 20
-0.0
 40
34.0
100
AcDbArc
 50
181.6854130402
 51
270.0
  0
ARC
  5
3B7
100
AcDbEntity
  8
RACCORDO
100
AcDbCircle
 62
7
  6
CONTINUOUS
 10
-61.3
 20
49.5
 40
10.0
100
AcDbArc
 50
90.0
 51
180.0
  0
ARC
  5
3B8
100
AcDbEntity
  8
RACCORDO
100
AcDbCircle
 62
7
  6
CONTINUOUS
 10
-22.0
 20
-0.0
 40
4.0
100
AcDbArc
 50
218.6821874535
 51
321.3178125465
  0
ARC
  5
3B9
100
AcDbEntity
  8
RACCORDO
100
AcDbCircle
 62
7
  6
CONTINUOUS
 10
-22.0
 20
-0.0
 40
4.0
100
AcDbArc
 50
38.6821874535
 51
141.3178125465
  0
ARC
  5
3BA
100
AcDbEntity
  8
ASSI
100
AcDbCircle
 62
7
  6
CONTINUOUS
 10
-32.5
 20
65.5
 40
3.75
100
AcDbArc
 50
186.1245379034
 51
237.7690473645
  0
ARC
  5
3BB
100
AcDbEntity
  8
ASSI
100
AcDbCircle
 62
7
  6
CONTINUOUS
 10
-32.5
 20
65.5
 40
3.75
100
AcDbArc
 50
96.1245379034
 51
173.8754620966
  0
ARC
  5
3BC
100
AcDbEntity
  8
ASSI
100
AcDbCircle
 62
7
  6
CONTINUOUS
 10
-32.5
 20
65.5
 40
3.75
100
AcDbArc
 50
6.1245379034
 51
83.8754620966
  0
ARC
  5
3BD
100
AcDbEntity
  8
ASSI
100
AcDbCircle
 62
7
  6
CONTINUOUS
 10
-32.5
 20
65.5
 40
3.75
100
AcDbArc
 50
302.2309526355
 51
353.8754620966
  0
ARC
  5
3BE
100
AcDbEntity
  8
ASSI
100
AcDbCircle
 62
7
  6
CONTINUOUS
 10
-76.7
 20
25.0
 40
3.75
100
AcDbArc
 50
276.1245379034
 51
327.7690473645
  0
ARC
  5
3BF
100
AcDbEntity
  8
ASSI
100
AcDbCircle
 62
7
  6
CONTINUOUS
 10
-76.7
 20
25.0
 40
3.75
100
AcDbArc
 50
186.1245379034
 51
263.8754620966
  0
ARC
  5
3C0
100
AcDbEntity
  8
ASSI
100
AcDbCircle
 62
7
  6
CONTINUOUS
 10
-76.7
 20
25.0
 40
3.75
100
AcDbArc
 50
96.1245379034
 51
173.8754620966
  0
ARC
  5
3C1
100
AcDbEntity
  8
ASSI
100
AcDbCircle
 62
7
  6
CONTINUOUS
 10
-76.7
 20
25.0
 40
3.75
100
AcDbArc
 50
32.2309526355
 51
83.8754620966
  0
ARC
  5
3C2
100
AcDbEntity
  8
RACCORDO
100
AcDbCircle
 62
7
  6
CONTINUOUS
 10
-17.3162515012
 20
3.75
 40
2.0
100
AcDbArc
 50
218.6821874535
 51
270.0
  0
ARC
  5
3C3
100
AcDbEntity
  8
RACCORDO
100
AcDbCircle
 62
7
  6
CONTINUOUS
 10
-26.6837484988
 20
3.75
 40
2.0
100
AcDbArc
 50
270.0
 51
321.3178125465
  0
CIRCLE
  5
3C4
100
AcDbEntity
  8
ASSI
100
AcDbCircle
 62
7
  6
CONTINUOUS
 10
-57.5
 20
45.0
 40
1.5
  0
CIRCLE
  5
3C5
100
AcDbEntity
  8
0
100
AcDbCircle
 62
7
  6
CONTINUOUS
 10
-22.0
 20
-0.0
 40
1.5
  0
ARC
  5
3C6
100
AcDbEntity
  8
RACCORDO
100
AcDbCircle
 62
7
  6
CONTINUOUS
 10
61.3
 20
-49.5
 40
10.0
100
AcDbArc
 50
270.0
 51
360.0
  0
ARC
  5
3C7
100
AcDbEntity
  8
ASSI
100
AcDbCircle
 62
7
  6
CONTINUOUS
 10
76.7
 20
-25.0
 40
3.75
100
AcDbArc
 50
96.1245379034
 51
147.7690473645
  0
ARC
  5
3C8
100
AcDbEntity
  8
ASSI
100
AcDbCircle
 62
7
  6
CONTINUOUS
 10
76.7
 20
-25.0
 40
3.75
100
AcDbArc
 50
6.1245379034
 51
83.8754620966
  0
ARC
  5
3C9
100
AcDbEntity
  8
ASSI
100
AcDbCircle
 62
7
  6
CONTINUOUS
 10
76.7
 20
-25.0
 40
3.75
100
AcDbArc
 50
276.1245379034
 51
353.8754620966
  0
ARC
  5
3CA
100
AcDbEntity
  8
ASSI
100
AcDbCircle
 62
7
  6
CONTINUOUS
 10
76.7
 20
-25.0
 40
3.75
100
AcDbArc
 50
212.2309526355
 51
263.8754620966
  0
ARC
  5
3CB
100
AcDbEntity
  8
ASSI
100
AcDbCircle
 62
7
  6
CONTINUOUS
 10
32.5
 20
-65.5
 40
3.75
100
AcDbArc
 50
6.1245379034
 51
57.7690473645
  0
ARC
  5
3CC
100
AcDbEntity
  8
ASSI
100
AcDbCircle
 62
7
  6
CONTINUOUS
 10
32.5
 20
-65.5
 40
3.75
100
AcDbArc
 50
276.1245379034
 51
353.8754620966
  0
ARC
  5
3CD
100
AcDbEntity
  8
ASSI
100
AcDbCircle
 62
7
  6
CONTINUOUS
 10
32.5
 20
-65.5
 40
3.75
100
AcDbArc
 50
186.1245379034
 51
263.8754620966
  0
ARC
  5
3CE
100
AcDbEntity
  8
ASSI
100
AcDbCircle
 62
7
  6
CONTINUOUS
 10
32.5
 20
-65.5
 40
3.75
100
AcDbArc
 50
122.2309526355
 51
173.8754620966
  0
ARC
  5
3CF
100
AcDbEntity
  8
RACCORDO
100
AcDbCircle
 62
7
  6
CONTINUOUS
 10
26.6837484988
 20
-3.75
 40
2.0
100
AcDbArc
 50
90.0
 51
141.3178125465
  0
ARC
  5
3D0
100
AcDbEntity
  8
RACCORDO
100
AcDbCircle
 62
7
  6
CONTINUOUS
 10
17.3162515012
 20
-3.75
 40
2.0
100
AcDbArc
 50
38.6821874535
 51
90.0
  0
CIRCLE
  5
3D1
100
AcDbEntity
  8
ASSI
100
AcDbCircle
 62
7
  6
CONTINUOUS
 10
57.5
 20
-45.0
 40
1.5
  0
ARC
  5
3D2
100
AcDbEntity
  8
0
100
AcDbCircle
 62
7
  6
CONTINUOUS
 10
22.5
 20
0.0
 40
34.0
100
AcDbArc
 50
1.6854130402
 51
90.0
  0
ARC
  5
3D3
100
AcDbEntity
  8
0
100
AcDbCircle
 62
7
  6
CONTINUOUS
 10
22.5
 20
0.0
 40
34.0
100
AcDbArc
 50
270.0
 51
358.3145869598
  0
ARC
  5
3D4
100
AcDbEntity
  8
RACCORDO
100
AcDbCircle
 62
7
  6
CONTINUOUS
 10
61.3
 20
49.5
 40
10.0
100
AcDbArc
 50
0.0
 51
90.0
  0
ARC
  5
3D5
100
AcDbEntity
  8
0
100
AcDbCircle
 62
7
  6
CONTINUOUS
 10
0.0
 20
0.0
 40
5.0
100
AcDbArc
 50
290.4873151147
 51
339.5126848853
  0
ARC
  5
3D6
100
AcDbEntity
  8
0
100
AcDbCircle
 62
7
  6
CONTINUOUS
 10
0.0
 20
0.0
 40
5.0
100
AcDbArc
 50
20.4873151147
 51
69.5126848853
  0
ARC
  5
3D7
100
AcDbEntity
  8
0
100
AcDbCircle
 62
7
  6
CONTINUOUS
 10
0.0
 20
0.0
 40
5.0
100
AcDbArc
 50
200.4873151147
 51
249.5126848853
  0
ARC
  5
3D8
100
AcDbEntity
  8
0
100
AcDbCircle
 62
7
  6
CONTINUOUS
 10
0.0
 20
0.0
 40
5.0
100
AcDbArc
 50
110.4873151147
 51
159.5126848853
  0
ARC
  5
3D9
100
AcDbEntity
  8
RACCORDO
100
AcDbCircle
 62
7
  6
CONTINUOUS
 10
22.0
 20
0.0
 40
4.0
100
AcDbArc
 50
218.6821874535
 51
321.3178125465
  0
ARC
  5
3DA
100
AcDbEntity
  8
RACCORDO
100
AcDbCircle
 62
7
  6
CONTINUOUS
 10
22.0
 20
0.0
 40
4.0
100
AcDbArc
 50
38.6821874535
 51
141.3178125465
  0
ARC
  5
3DB
100
AcDbEntity
  8
ASSI
100
AcDbCircle
 62
7
  6
CONTINUOUS
 10
32.5
 20
54.5
 40
4.0
100
AcDbArc
 50
122.5136146332
 51
57.4863853668
  0
ARC
  5
3DC
100
AcDbEntity
  8
ASSI
100
AcDbCircle
 62
7
  6
CONTINUOUS
 10
66.3
 20
25.0
 40
4.0
100
AcDbArc
 50
34.2288663278
 51
325.7711336722
  0
ARC
  5
3DD
100
AcDbEntity
  8
RACCORDO
100
AcDbCircle
 62
7
  6
CONTINUOUS
 10
26.6837484988
 20
3.75
 40
2.0
100
AcDbArc
 50
218.6821874535
 51
270.0
  0
ARC
  5
3DE
100
AcDbEntity
  8
RACCORDO
100
AcDbCircle
 62
7
  6
CONTINUOUS
 10
17.3162515012
 20
3.75
 40
2.0
100
AcDbArc
 50
270.0
 51
321.3178125465
  0
CIRCLE
  5
3DF
100
AcDbEntity
  8
ASSI
100
AcDbCircle
 62
7
  6
CONTINUOUS
 10
57.5
 20
45.0
 40
1.5
  0
CIRCLE
  5
3E0
100
AcDbEntity
  8
0
100
AcDbCircle
 62
7
  6
CONTINUOUS
 10
22.0
 20
0.0
 40
1.5
  0
SPLINE
  5
3E1
100
AcDbEntity
  8
0
100
AcDbSpline
 62
7
  6
CONTINUOUS
 70
0
 71
3
 72
9
 73
5
 74
0
 42
0.0000001
 43
0.0000001
 44
0.0000000001
 40
0.0
 40
0.0
 40
0.0
 40
0.0
 40
0.2703953699
 40
1.0
 40
1.0
 40
1.0
 40
1.0
 10
48.6118652687
 20
47.0905891832
 30
0.0
 10
48.648284161
 20
47.0968035006
 30
0.0
 10
48.7833931184
 20
47.117241895
 30
0.0
 10
48.9216187939
 20
47.1167982006
 30
0.0
 10
49.0206429595
 20
47.1053042053
 30
0.0
  0
SPLINE
  5
3E2
100
AcDbEntity
  8
0
100
AcDbSpline
 62
7
  6
CONTINUOUS
 70
0
 71
3
 72
9
 73
5
 74
0
 42
0.0000001
 43
0.0000001
 44
0.0000000001
 40
0.0
 40
0.0
 40
0.0
 40
0.0
 40
0.5013510385
 40
1.0
 40
1.0
 40
1.0
 40
1.0
 10
49.0206429595
 20
47.1053042053
 30
0.0
 10
49.0971176856
 20
47.096425507
 30
0.0
 10
49.2517967526
 20
47.0290783988
 30
0.0
 10
49.3141957878
 20
46.8693849776
 30
0.0
 10
49.3153932879
 20
46.7928208695
 30
0.0
  0
SPLINE
  5
3E3
100
AcDbEntity
  8
0
100
AcDbSpline
 62
7
  6
CONTINUOUS
 70
0
 71
3
 72
9
 73
5
 74
0
 42
0.0000001
 43
0.0000001
 44
0.0000000001
 40
0.0
 40
0.0
 40
0.0
 40
0.0
 40
0.5206208722
 40
1.0
 40
1.0
 40
1.0
 40
1.0
 10
49.3153932879
 20
46.7928208695
 30
0.0
 10
49.3170607638
 20
46.6847558695
 30
0.0
 10
49.2407180868
 20
46.4486889404
 30
0.0
 10
49.0095562267
 20
46.4065852461
 30
0.0
 10
48.9100647233
 20
46.4043630309
 30
0.0
  0
SPLINE
  5
3E4
100
AcDbEntity
  8
0
100
AcDbSpline
 62
7
  6
CONTINUOUS
 70
0
 71
3
 72
9
 73
5
 74
0
 42
0.0000001
 43
0.0000001
 44
0.0000000001
 40
0.0
 40
0.0
 40
0.0
 40
0.0
 40
0.2957417834
 40
1.0
 40
1.0
 40
1.0
 40
1.0
 10
49.3971788184
 20
47.460920364
 30
0.0
 10
49.2769746691
 20
47.5043473742
 30
0.0
 10
48.8449135195
 20
47.5751359893
 30
0.0
 10
48.410586008
 20
47.5315374306
 30
0.0
 10
48.1094737939
 20
47.4872386966
 30
0.0
  0
SPLINE
  5
3E5
100
AcDbEntity
  8
0
100
AcDbSpline
 62
7
  6
CONTINUOUS
 70
0
 71
3
 72
9
 73
5
 74
0
 42
0.0000001
 43
0.0000001
 44
0.0000000001
 40
0.0
 40
0.0
 40
0.0
 40
0.0
 40
0.3559141631
 40
1.0
 40
1.0
 40
1.0
 40
1.0
 10
48.9089400082
 20
45.9949667468
 30
0.0
 10
48.9544104925
 20
45.9949667468
 30
0.0
 10
49.0852168821
 20
45.967432926
 30
0.0
 10
49.1711416321
 20
45.8517499094
 30
0.0
 10
49.2000537578
 20
45.7747100463
 30
0.0
  0
SPLINE
  5
3E6
100
AcDbEntity
  8
0
100
AcDbSpline
 62
7
  6
CONTINUOUS
 70
0
 71
3
 72
9
 73
5
 74
0
 42
0.0000001
 43
0.0000001
 44
0.0000000001
 40
0.0
 40
0.0
 40
0.0
 40
0.0
 40
0.5586214172
 40
1.0
 40
1.0
 40
1.0
 40
1.0
 10
49.2000537578
 20
45.7747100463
 30
0.0
 10
49.2518943748
 20
45.6367208837
 30
0.0
 10
49.3200693949
 20
45.3812039053
 30
0.0
 10
49.3960394537
 20
45.1286424183
 30
0.0
 10
49.4282209542
 20
45.0167083275
 30
0.0
  0
SPLINE
  5
3E7
100
AcDbEntity
  8
0
100
AcDbSpline
 62
7
  6
CONTINUOUS
 70
0
 71
3
 72
9
 73
5
 74
0
 42
0.0000001
 43
0.0000001
 44
0.0000000001
 40
0.0
 40
0.0
 40
0.0
 40
0.0
 40
0.1980141723
 40
1.0
 40
1.0
 40
1.0
 40
1.0
 10
49.9301250525
 20
45.0167083275
 30
0.0
 10
49.9180203836
 20
45.0612767929
 30
0.0
 10
49.8587734529
 20
45.2868598559
 30
0.0
 10
49.8009133232
 20
45.5128107367
 30
0.0
 10
49.751745243
 20
45.6932806755
 30
0.0
  0
SPLINE
  5
3E8
100
AcDbEntity
  8
0
100
AcDbSpline
 62
7
  6
CONTINUOUS
 70
0
 71
3
 72
9
 73
5
 74
0
 42
0.0000001
 43
0.0000001
 44
0.0000000001
 40
0.0
 40
0.0
 40
0.0
 40
0.0
 40
0.2426586216
 40
1.0
 40
1.0
 40
1.0
 40
1.0
 10
49.751745243
 20
45.6932806755
 30
0.0
 10
49.7393702686
 20
45.7387050748
 30
0.0
 10
49.6920997763
 20
45.9221398686
 30
0.0
 10
49.5874640919
 20
46.129138765
 30
0.0
 10
49.4509776891
 20
46.1835627181
 30
0.0
  0
SPLINE
  5
3E9
100
AcDbEntity
  8
0
100
AcDbSpline
 62
7
  6
CONTINUOUS
 70
0
 71
3
 72
17
 73
13
 74
0
 42
0.0000001
 43
0.0000001
 44
0.0000000001
 40
0.0
 40
0.0
 40
0.0
 40
0.0
 40
0.0559780952
 40
0.1687540387
 40
0.321006234
 40
0.4122750837
 40
0.516613223
 40
0.6013931059
 40
0.6776022439
 40
0.8103422694
 40
0.9200404832
 40
1.0
 40
1.0
 40
1.0
 40
1.0
 10
49.4509776891
 20
46.198333976
 30
0.0
 10
49.4797981909
 20
46.2020527504
 30
0.0
 10
49.5530561798
 20
46.2597493058
 30
0.0
 10
49.6745460249
 20
46.3697350361
 30
0.0
 10
49.764001305
 20
46.539040992
 30
0.0
 10
49.8038515823
 20
46.7156654261
 30
0.0
 10
49.8075954359
 20
46.8622600195
 30
0.0
 10
49.7878649101
 20
46.9991781806
 30
0.0
 10
49.74004489
 20
47.1446644077
 30
0.0
 10
49.6502291061
 20
47.2872440819
 30
0.0
 10
49.523416208
 20
47.3987451326
 30
0.0
 10
49.4362244498
 20
47.4468345146
 30
0.0
 10
49.3971788184
 20
47.460920364
 30
0.0
  0
SPLINE
  5
3EA
100
AcDbEntity
  8
0
100
AcDbSpline
 62
7
  6
CONTINUOUS
 70
0
 71
3
 72
28
 73
24
 74
0
 42
0.0000001
 43
0.0000001
 44
0.0000000001
 40
0.0
 40
0.0
 40
0.0
 40
0.0
 40
0.0428521799
 40
0.126044466
 40
0.1665795754
 40
0.2445834089
 40
0.2823738993
 40
0.3201643897
 40
0.3953238867
 40
0.4330354869
 40
0.4707470871
 40
0.509152029
 40
0.5475569709
 40
0.5871177313
 40
0.6266784917
 40
0.6679852162
 40
0.7092919407
 40
0.7523928078
 40
0.7954936749
 40
0.840718785
 40
0.8859438951
 40
0.9334145544
 40
1.0
 40
1.0
 40
1.0
 40
1.0
 10
47.2983768298
 20
-44.172243122
 30
0.0
 10
47.325204858
 20
-44.1712137118
 30
0.0
 10
47.4040451018
 20
-44.166221116
 30
0.0
 10
47.507661621
 20
-44.1525222798
 30
0.0
 10
47.6317866061
 20
-44.1287295172
 30
0.0
 10
47.7252321969
 20
-44.095997121
 30
0.0
 10
47.8086271469
 20
-44.0478347415
 30
0.0
 10
47.8930798458
 20
-44.0056042932
 30
0.0
 10
47.9699886985
 20
-43.9485986332
 30
0.0
 10
48.0330861862
 20
-43.8785101731
 30
0.0
 10
48.0861260913
 20
-43.8301918187
 30
0.0
 10
48.1248504363
 20
-43.7693671039
 30
0.0
 10
48.1719615105
 20
-43.713245551
 30
0.0
 10
48.2031022258
 20
-43.6460909044
 30
0.0
 10
48.2435258621
 20
-43.5819903201
 30
0.0
 10
48.2669475932
 20
-43.5087118849
 30
0.0
 10
48.2999319172
 20
-43.4368766477
 30
0.0
 10
48.3157207976
 20
-43.3582178639
 30
0.0
 10
48.3408807107
 20
-43.2795523758
 30
0.0
 10
48.3488017711
 20
-43.195931143
 30
0.0
 10
48.3651449498
 20
-43.1109464131
 30
0.0
 10
48.3674607151
 20
-43.0109131724
 30
0.0
 10
48.3658771926
 20
-42.9393878972
 30
0.0
 10
48.3693306475
 20
-42.8978139374
 30
0.0
  0
SPLINE
  5
3EB
100
AcDbEntity
  8
0
100
AcDbSpline
 62
7
  6
CONTINUOUS
 70
0
 71
3
 72
28
 73
24
 74
0
 42
0.0000001
 43
0.0000001
 44
0.0000000001
 40
0.0
 40
0.0
 40
0.0
 40
0.0
 40
0.0665854952
 40
0.11405619
 40
0.1592813338
 40
0.2045064777
 40
0.2476073769
 40
0.2907082761
 40
0.3320150315
 40
0.3733217868
 40
0.4128825767
 40
0.4524433666
 40
0.4908483371
 40
0.5292533076
 40
0.566964936
 40
0.6046765643
 40
0.6798361174
 40
0.717626636
 40
0.7554171546
 40
0.8334210462
 40
0.8739561859
 40
0.957148534
 40
1.0
 40
1.0
 40
1.0
 40
1.0
 10
48.3693306475
 20
-42.8978139374
 30
0.0
 10
48.3658771926
 20
-42.8562399776
 30
0.0
 10
48.3674607151
 20
-42.7847147024
 30
0.0
 10
48.3651449498
 20
-42.6846814617
 30
0.0
 10
48.3488017711
 20
-42.5996967318
 30
0.0
 10
48.3408807107
 20
-42.5160754991
 30
0.0
 10
48.3157207976
 20
-42.4374100109
 30
0.0
 10
48.2999319172
 20
-42.3587512271
 30
0.0
 10
48.2669475932
 20
-42.2869159899
 30
0.0
 10
48.2435258621
 20
-42.2136375548
 30
0.0
 10
48.2031022258
 20
-42.1495369704
 30
0.0
 10
48.1719615105
 20
-42.0823823239
 30
0.0
 10
48.1248504363
 20
-42.0262607709
 30
0.0
 10
48.0861260913
 20
-41.9654360561
 30
0.0
 10
48.0330861862
 20
-41.9171177017
 30
0.0
 10
47.9699886985
 20
-41.8470292416
 30
0.0
 10
47.8930798458
 20
-41.7900235816
 30
0.0
 10
47.8086271469
 20
-41.7477931333
 30
0.0
 10
47.7252321969
 20
-41.6996307539
 30
0.0
 10
47.6317866061
 20
-41.6668983576
 30
0.0
 10
47.507661621
 20
-41.6431055951
 30
0.0
 10
47.4040455657
 20
-41.6294068202
 30
0.0
 10
47.325205791
 20
-41.6244142221
 30
0.0
 10
47.2983782307
 20
-41.6233848066
 30
0.0
  0
SPLINE
  5
3EC
100
AcDbEntity
  8
0
100
AcDbSpline
 62
7
  6
CONTINUOUS
 70
0
 71
3
 72
18
 73
14
 74
0
 42
0.0000001
 43
0.0000001
 44
0.0000000001
 40
0.0
 40
0.0
 40
0.0
 40
0.0
 40
0.0808846796
 40
0.157251488
 40
0.2305309891
 40
0.3728908277
 40
0.4458753711
 40
0.561393923
 40
0.6442344541
 40
0.7334538399
 40
0.8299891294
 40
0.934973296
 40
1.0
 40
1.0
 40
1.0
 40
1.0
 10
47.2519573478
 20
-41.9180270574
 30
0.0
 10
47.2899192923
 20
-41.9180270293
 30
0.0
 10
47.3638187795
 20
-41.9221010923
 30
0.0
 10
47.4705065863
 20
-41.942125273
 30
0.0
 10
47.6005703677
 20
-41.9865331487
 30
0.0
 10
47.717521251
 20
-42.0598950984
 30
0.0
 10
47.8258797131
 20
-42.1721201329
 30
0.0
 10
47.8924326672
 20
-42.2817591171
 30
0.0
 10
47.9456832961
 20
-42.407064173
 30
0.0
 10
47.979564325
 20
-42.5247986348
 30
0.0
 10
48.0036896572
 20
-42.6763014613
 30
0.0
 10
48.0105203102
 20
-42.7408824188
 30
0.0
 10
48.0172390273
 20
-42.9283096499
 30
0.0
 10
48.0160405058
 20
-42.8978139374
 30
0.0
  0
SPLINE
  5
3ED
100
AcDbEntity
  8
0
100
AcDbSpline
 62
7
  6
CONTINUOUS
 70
0
 71
3
 72
18
 73
14
 74
0
 42
0.0000001
 43
0.0000001
 44
0.0000000001
 40
0.0
 40
0.0
 40
0.0
 40
0.0
 40
0.0650266201
 40
0.1700106513
 40
0.2665458163
 40
0.3557650869
 40
0.4386055112
 40
0.5541239141
 40
0.6271083634
 40
0.7694680183
 40
0.8427474249
 40
0.9191141348
 40
1.0
 40
1.0
 40
1.0
 40
1.0
 10
48.0160405058
 20
-42.8978139374
 30
0.0
 10
48.0172390273
 20
-42.8673182249
 30
0.0
 10
48.0105203102
 20
-43.054745456
 30
0.0
 10
48.0036896572
 20
-43.1193264135
 30
0.0
 10
47.979564325
 20
-43.2708292401
 30
0.0
 10
47.9456832961
 20
-43.3885637019
 30
0.0
 10
47.8924326672
 20
-43.5138687578
 30
0.0
 10
47.8258797131
 20
-43.6235077419
 30
0.0
 10
47.717521251
 20
-43.7357327764
 30
0.0
 10
47.6005703677
 20
-43.8090947261
 30
0.0
 10
47.4705065863
 20
-43.8535026018
 30
0.0
 10
47.3638181825
 20
-43.8735268946
 30
0.0
 10
47.2899180799
 20
-43.8776009124
 30
0.0
 10
47.2519555315
 20
-43.8776008175
 30
0.0
  0
ENDSEC
  0
SECTION
  2
OBJECTS
  0
DICTIONARY
  5
C
100
AcDbDictionary
280
0
281
1
  3
ACAD_GROUP
350
D
  3
ACAD_MLINESTYLE
350
17
  3
ACAD_LAYOUT
350
1A
  3
ACAD_PLOTSETTINGS
350
19
  3
ACAD_PLOTSTYLENAME
350
E
  0
DICTIONARY
  5
D
102
{ACAD_REACTORS
330
C
102
}
100
AcDbDictionary
280
0
281
1
  0
ACDBDICTIONARYWDFLT
  5
E
102
{ACAD_REACTORS
330
C
102
}
100
AcDbDictionary
281
1
  3
Normal
350
F
100
AcDbDictionaryWithDefault
340
F
  0
DICTIONARY
  5
17
102
{ACAD_REACTORS
330
C
102
}
100
AcDbDictionary
280
0
281
1
  3
Standard
350
18
  0
DICTIONARY
  5
19
102
{ACAD_REACTORS
330
C
102
}
100
AcDbDictionary
281
1
  0
DICTIONARY
  5
1A
102
{ACAD_REACTORS
330
C
102
}
100
AcDbDictionary
281
1
  3
Model
350
3EE
  3
Layout1
350
3EF
  0
ACDBPLACEHOLDER
  5
F
102
{ACAD_REACTORS
330
E
102
}
  0
MLINESTYLE
  5
18
102
{ACAD_REACTORS
330
17
102
}
100
AcDbMlineStyle
  2
STANDARD
 70
0
  3

 62
256
 51
90.0
 52
90.0
 71
2
 49
0.5
 62
256
  6
BYLAYER
 49
-0.5
 62
256
  6
BYLAYER
  0
LAYOUT
  5
3EE
102
{ACAD_REACTORS
330
1A
102
}
100
AcDbPlotSettings
  1

  2
none_device
  4
ISO_A4_(297.00_x_210.00_MM)
  6

 40
0.0
 41
0.0
 42
0.0
 43
0.0
 44
297.0
 45
210.0
 46
0.0
 47
0.0
 48
0.0
 49
0.0
140
0.0
141
0.0
142
1.0
143
1.0
 70
1024
 72
1
 73
0
 74
0
  7

 75
0
147
1.0
148
0.0
149
0.0
100
AcDbLayout
  1
Model
 70
0
 71
0
 10
0.0
 20
0.0
 11
297.0
 21
210.0
 12
0.0
 22
0.0
 32
0.0
 14
0.0
 24
0.0
 34
0.0
 15
0.0
 25
0.0
 35
0.0
146
0.0
 13
0.0
 23
0.0
 33
0.0
 16
1.0
 26
0.0
 36
0.0
 17
0.0
 27
1.0
 37
0.0
 76
0
330
20F
345
0
346
0
  0
LAYOUT
  5
3EF
102
{ACAD_REACTORS
330
1A
102
}
100
AcDbPlotSettings
  1

  2
none_device
  4
ISO_A4_(297.00_x_210.00_MM)
  6

 40
0.0
 41
0.0
 42
0.0
 43
0.0
 44
297.0
 45
210.0
 46
0.0
 47
0.0
 48
0.0
 49
0.0
140
0.0
141
0.0
142
1.0
143
1.0
 70
0
 72
1
 73
0
 74
0
  7

 75
0
147
1.0
148
0.0
149
0.0
100
AcDbLayout
  1
Layout1
 70
0
 71
1
 10
0.0
 20
0.0
 11
297.0
 21
210.0
 12
0.0
 22
0.0
 32
0.0
 14
0.0
 24
0.0
 34
0.0
 15
0.0
 25
0.0
 35
0.0
146
0.0
 13
0.0
 23
0.0
 33
0.0
 16
1.0
 26
0.0
 36
0.0
 17
0.0
 27
1.0
 37
0.0
 76
0
330
210
345
0
346
0
  0
ENDSEC
  0
EOF
