  0
SECTION
  2
HEADER
  9
$ACADVER
  1
AC1015
  9
$DWGCODEPAGE
  3
ANSI_1252
  9
$EXTMAX
 10
297.0
 20
210.0
 30
0.0
  9
$EXTMIN
 10
0.0
 20
0.0
 30
0.0
  9
$LIMMIN
 10
0.0
 20
0.0
  9
$LIMMAX
 10
297.0
 20
210.0
  9
$VIEWCTR
 10
148.5
 20
105.0
  9
$VIEWSIZE
 40
210.0
  9
$CLAYER
  8
0
  9
$LTSCALE
 40
16.335
  9
$CELTYPE
  6
BYLAYER
  9
$DIMSCALE
 40
1.0
  9
$DIMASZ
 40
3.0
  9
$DIMEXO
 40
0.5
  9
$DIMDLI
 40
11.286
  9
$DIMEXE
 40
1.5
  9
$DIMCEN
 40
2.673
  9
$DIMLFAC
 40
1.0
  9
$DIMBLK
  1
_FILLED
  9
$DIMTXT
 40
3.0
  9
$DIMTOL
 70
1
  9
$DIMLIM
 70
0
  9
$DIMTFAC
 40
1.0
  9
$DIMTP
 40
0.01
  9
$DIMTM
 40
0.01
  9
$DIMGAP
 40
0.625
  9
$DIMDSEP
 70
44
  9
$PDMODE
 70
3
  9
$PDSIZE
 40
3.0
  9
$HANDSEED
  5
3C7
  9
$TILEMODE
 70
1
  9
$MEASUREMENT
 70
1
  9
$INSUNITS
 70
4
  0
ENDSEC
  0
SECTION
  2
CLASSES
  0
CLASS
  1
ACDBDICTIONARYWDFLT
  2
AcDbDictionaryWithDefault
  3
AutoCAD 2000
 90
0
280
0
281
0
  0
CLASS
  1
ACDBPLACEHOLDER
  2
AcDbPlaceHolder
  3
AutoCAD 2000
 90
0
280
0
281
0
  0
CLASS
  1
LAYOUT
  2
AcDbLayout
  3
AutoCAD 2000
 90
0
280
0
281
0
  0
ENDSEC
  0
SECTION
  2
TABLES
  0
TABLE
  2
VPORT
  5
8
100
AcDbSymbolTable
 70
2
  0
VPORT
  5
1F4
100
AcDbSymbolTableRecord
100
AcDbViewportTableRecord
  2
*ACTIVE
 70
0
 10
0.0
 20
0.0
 11
1.0
 21
1.0
 12
148.5
 22
105.0
 13
0.0
 23
0.0
 14
1.0
 24
1.0
 15
0.0
 25
0.0
 16
0.0
 26
0.0
 36
1.0
 17
0.0
 27
0.0
 37
0.0
 40
210.0
 41
1.4142857143
 42
50.0
 43
0.0
 44
0.0
 50
0.0
 51
0.0
 71
0
 72
100
 73
1
 74
1
 75
0
 76
0
 77
0
 78
0
  0
ENDTAB
  0
TABLE
  2
LTYPE
  5
5
100
AcDbSymbolTable
 70
6
  0
LTYPE
  5
14
100
AcDbSymbolTableRecord
100
AcDbLinetypeTableRecord
  2
BYBLOCK
 70
0
  3

 72
65
 73
0
 40
0.0
  0
LTYPE
  5
15
100
AcDbSymbolTableRecord
100
AcDbLinetypeTableRecord
  2
BYLAYER
 70
0
  3

 72
65
 73
0
 40
0.0
  0
LTYPE
  5
16
100
AcDbSymbolTableRecord
100
AcDbLinetypeTableRecord
  2
CONTINUOUS
 70
64
  3
Solid line
 72
65
 73
0
 40
0.0
  0
LTYPE
  5
1F5
100
AcDbSymbolTableRecord
100
AcDbLinetypeTableRecord
  2
CENTER
 70
64
  3
____ _ ____ _ ____ _ ____ _ ____ _ ____ _ ____
 72
65
 73
4
 40
0.6
 49
0.375
 74
0
 49
-0.075
 74
0
 49
0.075
 74
0
 49
-0.075
 74
0
  0
LTYPE
  5
1F6
100
AcDbSymbolTableRecord
100
AcDbLinetypeTableRecord
  2
HIDDEN
 70
64
  3
- - - - - - - - - - - - - - - - - - - -
 72
65
 73
2
 40
0.2
 49
0.1
 74
0
 49
-0.1
 74
0
  0
LTYPE
  5
1F7
100
AcDbSymbolTableRecord
100
AcDbLinetypeTableRecord
  2
PHANTOM
 70
64
  3
_____ _ _ _____ _ _ _____ _ _ _____
 72
65
 73
6
 40
0.8
 49
0.45
 74
0
 49
-0.05
 74
0
 49
0.1
 74
0
 49
-0.05
 74
0
 49
0.1
 74
0
 49
-0.05
 74
0
  0
LTYPE
  5
1F8
100
AcDbSymbolTableRecord
100
AcDbLinetypeTableRecord
  2
DOT
 70
64
  3
. . . . . . . . . . . . . . . . . . . .
 72
65
 73
2
 40
0.2
 49
0.1
 74
0
 49
-0.1
 74
0
  0
LTYPE
  5
1F9
100
AcDbSymbolTableRecord
100
AcDbLinetypeTableRecord
  2
DASHED
 70
64
  3
- - - - - - - - - - - - - - - - - - - -
 72
65
 73
2
 40
0.2
 49
0.1
 74
0
 49
-0.1
 74
0
  0
ENDTAB
  0
TABLE
  2
LAYER
  5
2
100
AcDbSymbolTable
 70
36
  0
LAYER
  5
10
100
AcDbSymbolTableRecord
100
AcDbLayerTableRecord
  2
0
 70
0
 62
7
  6
CONTINUOUS
370
-3
390
F
  0
LAYER
  5
1FA
100
AcDbSymbolTableRecord
100
AcDbLayerTableRecord
  2
DEFAULT_1
 70
0
 62
7
  6
CENTER
370
-3
390
F
  0
LAYER
  5
1FB
100
AcDbSymbolTableRecord
100
AcDbLayerTableRecord
  2
DEFAULT_2
 70
0
 62
7
  6
HIDDEN
370
-3
390
F
  0
LAYER
  5
1FC
100
AcDbSymbolTableRecord
100
AcDbLayerTableRecord
  2
DEFAULT_3
 70
0
 62
7
  6
PHANTOM
370
-3
390
F
  0
LAYER
  5
1FD
100
AcDbSymbolTableRecord
100
AcDbLayerTableRecord
  2
ASSI
 70
0
 62
7
  6
CONTINUOUS
370
-3
390
F
  0
LAYER
  5
1FE
100
AcDbSymbolTableRecord
100
AcDbLayerTableRecord
  2
COORDINATE
 70
0
 62
7
  6
CONTINUOUS
370
-3
390
F
  0
LAYER
  5
1FF
100
AcDbSymbolTableRecord
100
AcDbLayerTableRecord
  2
COPY_PUBLISH
 70
0
 62
7
  6
CONTINUOUS
370
-3
390
F
  0
LAYER
  5
200
100
AcDbSymbolTableRecord
100
AcDbLayerTableRecord
  2
COSMETICI
 70
0
 62
7
  6
CONTINUOUS
370
-3
390
F
  0
LAYER
  5
201
100
AcDbSymbolTableRecord
100
AcDbLayerTableRecord
  2
CURVE
 70
0
 62
7
  6
CONTINUOUS
370
-3
390
F
  0
LAYER
  5
202
100
AcDbSymbolTableRecord
100
AcDbLayerTableRecord
  2
DRAFT
 70
0
 62
7
  6
CONTINUOUS
370
-3
390
F
  0
LAYER
  5
203
100
AcDbSymbolTableRecord
100
AcDbLayerTableRecord
  2
IMPORT_IGES
 70
0
 62
7
  6
CONTINUOUS
370
-3
390
F
  0
LAYER
  5
204
100
AcDbSymbolTableRecord
100
AcDbLayerTableRecord
  2
NOTE
 70
0
 62
7
  6
CONTINUOUS
370
-3
390
F
  0
LAYER
  5
205
100
AcDbSymbolTableRecord
100
AcDbLayerTableRecord
  2
PIANI
 70
0
 62
7
  6
CONTINUOUS
370
-3
390
F
  0
LAYER
  5
206
100
AcDbSymbolTableRecord
100
AcDbLayerTableRecord
  2
PUNTI
 70
0
 62
7
  6
CONTINUOUS
370
-3
390
F
  0
LAYER
  5
207
100
AcDbSymbolTableRecord
100
AcDbLayerTableRecord
  2
RACCORDO
 70
0
 62
7
  6
CONTINUOUS
370
-3
390
F
  0
LAYER
  5
208
100
AcDbSymbolTableRecord
100
AcDbLayerTableRecord
  2
SIMBOLI
 70
0
 62
7
  6
CONTINUOUS
370
-3
390
F
  0
LAYER
  5
209
100
AcDbSymbolTableRecord
100
AcDbLayerTableRecord
  2
SMUSSO
 70
0
 62
7
  6
CONTINUOUS
370
-3
390
F
  0
LAYER
  5
20A
100
AcDbSymbolTableRecord
100
AcDbLayerTableRecord
  2
SNAPLINE
 70
0
 62
7
  6
CONTINUOUS
370
-3
390
F
  0
LAYER
  5
20B
100
AcDbSymbolTableRecord
100
AcDbLayerTableRecord
  2
SUPERFICI
 70
0
 62
7
  6
CONTINUOUS
370
-3
390
F
  0
LAYER
  5
20C
100
AcDbSymbolTableRecord
100
AcDbLayerTableRecord
  2
TRASH
 70
0
 62
7
  6
CONTINUOUS
370
-3
390
F
  0
ENDTAB
  0
TABLE
  2
STYLE
  5
3
100
AcDbSymbolTable
 70
1
  0
STYLE
  5
11
100
AcDbSymbolTableRecord
100
AcDbTextStyleTableRecord
  2
STANDARD
 70
0
 40
0.0
 41
0.8
 50
0.0
 71
0
 42
0.2
  3
txt
  4

  0
STYLE
  5
20D
100
AcDbSymbolTableRecord
100
AcDbTextStyleTableRecord
  2
TEXTSTYLE_1
 70
0
 40
0.0
 41
0.8
 50
0.0
 71
0
 42
0.2
  3
gdt
  4

  0
ENDTAB
  0
TABLE
  2
VIEW
  5
6
100
AcDbSymbolTable
 70
0
  0
ENDTAB
  0
TABLE
  2
UCS
  5
7
100
AcDbSymbolTable
 70
0
  0
ENDTAB
  0
TABLE
  2
APPID
  5
9
100
AcDbSymbolTable
 70
1
  0
APPID
  5
20E
100
AcDbSymbolTableRecord
100
AcDbRegAppTableRecord
  2
ACAD
 70
0
  0
ENDTAB
  0
TABLE
  2
BLOCK_RECORD
  5
1
100
AcDbSymbolTable
 70
0
  0
BLOCK_RECORD
  5
20F
100
AcDbSymbolTableRecord
100
AcDbBlockTableRecord
  2
*Model_Space
  0
BLOCK_RECORD
  5
210
100
AcDbSymbolTableRecord
100
AcDbBlockTableRecord
  2
*Paper_Space
  0
BLOCK_RECORD
  5
211
100
AcDbSymbolTableRecord
100
AcDbBlockTableRecord
  2
_FILLED
  0
BLOCK_RECORD
  5
212
100
AcDbSymbolTableRecord
100
AcDbBlockTableRecord
  2
*D0
  0
BLOCK_RECORD
  5
213
100
AcDbSymbolTableRecord
100
AcDbBlockTableRecord
  2
*D1
  0
BLOCK_RECORD
  5
214
100
AcDbSymbolTableRecord
100
AcDbBlockTableRecord
  2
*D2
  0
ENDTAB
  0
TABLE
  2
DIMSTYLE
  5
A
100
AcDbSymbolTable
 70
1
100
AcDbDimStyleTable
 71
0
  0
DIMSTYLE
105
215
100
AcDbSymbolTableRecord
100
AcDbDimStyleTableRecord
  2
STANDARD
 70
0
  3

  4

 40
1.0
 41
3.0
 42
0.5
 43
0.38
 44
1.5
 45
0.0
 46
0.0
 47
0.01
 48
0.01
140
3.0
141
0.09
142
0.0
143
25.4
144
1.0
145
0.0
146
1.0
147
0.625
 71
1.0
 72
0.0
 73
0
 74
0
 75
0
 76
0
 77
1
 78
8
170
0
171
2
172
0
173
0
174
0
175
0
176
0
177
0
178
0
270
2
271
2
272
2
273
2
274
2
275
0
280
0
281
0
282
0
283
1
284
8
285
0
286
0
287
3
288
0
340
11
278
44
341
211
342
211
343
211
344
211
  0
DIMSTYLE
105
216
100
AcDbSymbolTableRecord
100
AcDbDimStyleTableRecord
  2
DIMSTYLE_1
 70
0
  3

  4

 40
1.0
 41
3.0
 42
0.5
 43
0.38
 44
1.5
 45
0.0
 46
0.0
 47
0.0
 48
0.0
140
3.0
141
0.09
142
0.0
143
25.4
144
1.0
145
0.0
146
1.0
147
0.75
 71
0.0
 72
0.0
 73
0
 74
0
 75
0
 76
0
 77
1
 78
8
170
0
171
2
172
0
173
0
174
0
175
0
176
0
177
0
178
0
270
2
271
2
272
2
273
2
274
2
275
0
280
0
281
0
282
0
283
1
284
8
285
0
286
0
287
3
288
0
340
11
278
44
341
211
342
211
343
211
344
211
  0
ENDTAB
  0
ENDSEC
  0
SECTION
  2
BLOCKS
  0
BLOCK
  5
20
100
AcDbEntity
  8
0
100
AcDbBlockBegin
  2
*Model_Space
 70
0
 10
0.0
 20
0.0
 30
0.0
  3
*Model_Space
  1

  0
ENDBLK
  5
21
100
AcDbEntity
  8
0
100
AcDbBlockEnd
  0
BLOCK
  5
1C
100
AcDbEntity
  8
0
100
AcDbBlockBegin
  2
*Paper_Space
 70
0
 10
0.0
 20
0.0
 30
0.0
  3
*Paper_Space
  1

  0
ENDBLK
  5
1D
100
AcDbEntity
  8
0
100
AcDbBlockEnd
  0
BLOCK
  5
217
100
AcDbEntity
  8
0
100
AcDbBlockBegin
  2
_FILLED
 70
64
 10
0.0
 20
0.0
  3
_FILLED
  1

  0
SOLID
  5
218
100
AcDbEntity
  8
0
  6
BYBLOCK
 62
0
100
AcDbTrace
 10
0.0
 20
0.0
 11
-1.0
 21
0.3166666667
 12
-1.0
 22
-0.3166666667
 13
-1.0
 23
-0.3166666667
  0
ENDBLK
  5
219
100
AcDbEntity
  8
0
  6
BYBLOCK
 62
0
100
AcDbBlockEnd
  0
BLOCK
  5
21A
100
AcDbEntity
  8
0
100
AcDbBlockBegin
 62
7
  6
CONTINUOUS
  2
*D0
 70
65
 10
0.0
 20
0.0
  3
*D0
  1

  0
MTEXT
  5
21B
100
AcDbEntity
  8
0
100
AcDbMText
 62
7
  6
CONTINUOUS
  7
STANDARD
 71
1
 72
1
 10
-203.9583428471
 20
97.0259517336
 30
0.0
 11
1.0
 21
0.0
 31
0.0
 44
0.9
  1
1,5
 40
3.0
 41
5.5714285714
  0
LINE
  5
21C
100
AcDbEntity
  8
0
100
AcDbLine
 62
7
  6
CONTINUOUS
 10
-209.5077260708
 20
85.2545480219
 11
-209.5077260708
 21
94.7759517336
  0
LINE
  5
21D
100
AcDbEntity
  8
0
100
AcDbLine
 62
7
  6
CONTINUOUS
 10
-208.0077260708
 20
81.9260388733
 11
-208.0077260708
 21
94.7759517336
  0
LINE
  5
21E
100
AcDbEntity
  8
0
100
AcDbLine
 62
7
  6
CONTINUOUS
 10
-209.5077260708
 20
93.2759517336
 11
-213.5077260708
 21
93.2759517336
  0
LINE
  5
21F
100
AcDbEntity
  8
0
100
AcDbLine
 62
7
  6
CONTINUOUS
 10
-213.5077260708
 20
93.2759517336
 11
-208.7577260708
 21
93.2759517336
  0
LINE
  5
220
100
AcDbEntity
  8
0
100
AcDbLine
 62
7
  6
CONTINUOUS
 10
-208.0077260708
 20
93.2759517336
 11
-198.3869142756
 21
93.2759517336
  0
LINE
  5
221
100
AcDbEntity
  8
0
100
AcDbLine
 62
7
  6
CONTINUOUS
 10
-198.3869142756
 20
93.2759517336
 11
-208.7577260708
 21
93.2759517336
  0
INSERT
  5
222
100
AcDbEntity
  8
0
100
AcDbBlockReference
 62
7
  6
CONTINUOUS
  2
_FILLED
 10
-209.5077260708
 20
93.2759517336
 41
3.0
 42
3.0
 43
3.0
  0
INSERT
  5
223
100
AcDbEntity
  8
0
100
AcDbBlockReference
 62
7
  6
CONTINUOUS
  2
_FILLED
 10
-208.0077260708
 20
93.2759517336
 41
3.0
 42
3.0
 43
3.0
 50
180.0
  0
ENDBLK
  5
224
100
AcDbEntity
  8
0
  6
BYBLOCK
 62
0
100
AcDbBlockEnd
  0
BLOCK
  5
225
100
AcDbEntity
  8
0
100
AcDbBlockBegin
 62
7
  6
CONTINUOUS
  2
*D1
 70
65
 10
0.0
 20
0.0
  3
*D1
  1

  0
MTEXT
  5
226
100
AcDbEntity
  8
0
100
AcDbMText
 62
7
  6
CONTINUOUS
  7
STANDARD
 71
2
 72
1
 10
-91.6962713919
 20
97.0259517336
 30
0.0
 11
1.0
 21
0.0
 31
0.0
 44
0.9
  1
167,6
 40
3.0
 41
10.5
  0
LINE
  5
227
100
AcDbEntity
  8
0
100
AcDbLine
 62
7
  6
CONTINUOUS
 10
-7.8962713919
 20
65.5259517336
 11
-7.8962713919
 21
94.7759517336
  0
LINE
  5
228
100
AcDbEntity
  8
0
100
AcDbLine
 62
7
  6
CONTINUOUS
 10
-175.4962713919
 20
65.5259517336
 11
-175.4962713919
 21
94.7759517336
  0
LINE
  5
229
100
AcDbEntity
  8
0
100
AcDbLine
 62
7
  6
CONTINUOUS
 10
-7.8962713919
 20
93.2759517336
 11
-91.6962713919
 21
93.2759517336
  0
LINE
  5
22A
100
AcDbEntity
  8
0
100
AcDbLine
 62
7
  6
CONTINUOUS
 10
-175.4962713919
 20
93.2759517336
 11
-91.6962713919
 21
93.2759517336
  0
INSERT
  5
22B
100
AcDbEntity
  8
0
100
AcDbBlockReference
 62
7
  6
CONTINUOUS
  2
_FILLED
 10
-7.8962713919
 20
93.2759517336
 41
3.0
 42
3.0
 43
3.0
 50
360.0
  0
INSERT
  5
22C
100
AcDbEntity
  8
0
100
AcDbBlockReference
 62
7
  6
CONTINUOUS
  2
_FILLED
 10
-175.4962713919
 20
93.2759517336
 41
3.0
 42
3.0
 43
3.0
 50
180.0
  0
ENDBLK
  5
22D
100
AcDbEntity
  8
0
  6
BYBLOCK
 62
0
100
AcDbBlockEnd
  0
BLOCK
  5
22E
100
AcDbEntity
  8
0
100
AcDbBlockBegin
 62
7
  6
CONTINUOUS
  2
*D2
 70
65
 10
0.0
 20
0.0
  3
*D2
  1

  0
MTEXT
  5
22F
100
AcDbEntity
  8
0
100
AcDbMText
 62
7
  6
CONTINUOUS
  7
STANDARD
 71
2
 72
1
 10
6.0037286081
 20
15.5259517336
 30
0.0
 11
0.0
 21
1.0
 31
0.0
 44
0.9
  1
119
 40
3.0
 41
5.7857142857
  0
LINE
  5
230
100
AcDbEntity
  8
0
100
AcDbLine
 62
7
  6
CONTINUOUS
 10
-60.6962713919
 20
75.0259517336
 11
11.2537286081
 21
75.0259517336
  0
LINE
  5
231
100
AcDbEntity
  8
0
100
AcDbLine
 62
7
  6
CONTINUOUS
 10
-60.8462713919
 20
-43.9740482664
 11
11.2537286081
 21
-43.9740482664
  0
LINE
  5
232
100
AcDbEntity
  8
0
100
AcDbLine
 62
7
  6
CONTINUOUS
 10
9.7537286081
 20
75.0259517336
 11
9.7537286081
 21
15.5259517336
  0
LINE
  5
233
100
AcDbEntity
  8
0
100
AcDbLine
 62
7
  6
CONTINUOUS
 10
9.7537286081
 20
-43.9740482664
 11
9.7537286081
 21
15.5259517336
  0
INSERT
  5
234
100
AcDbEntity
  8
0
100
AcDbBlockReference
 62
7
  6
CONTINUOUS
  2
_FILLED
 10
9.7537286081
 20
75.0259517336
 41
3.0
 42
3.0
 43
3.0
 50
90.0
  0
INSERT
  5
235
100
AcDbEntity
  8
0
100
AcDbBlockReference
 62
7
  6
CONTINUOUS
  2
_FILLED
 10
9.7537286081
 20
-43.9740482664
 41
3.0
 42
3.0
 43
3.0
 50
270.0
  0
ENDBLK
  5
236
100
AcDbEntity
  8
0
  6
BYBLOCK
 62
0
100
AcDbBlockEnd
  0
ENDSEC
  0
SECTION
  2
ENTITIES
  0
DIMENSION
  5
237
100
AcDbEntity
  8
0
100
AcDbDimension
 62
7
  6
CONTINUOUS
  2
*D0
 10
-208.0077260708
 20
93.2759517336
 11
-201.1726285614
 21
93.2759517336
 70
160
 71
1
 42
1.5
  3
DIMSTYLE_1
100
AcDbAlignedDimension
 13
-209.5077260708
 23
84.7545480219
 14
-208.0077260708
 24
81.4260388733
100
AcDbRotatedDimension
  0
DIMENSION
  5
238
100
AcDbEntity
  8
0
100
AcDbDimension
 62
7
  6
CONTINUOUS
  2
*D1
 10
-175.4962713919
 20
93.2759517336
 11
-91.6962713919
 21
93.2759517336
 70
160
 71
2
 42
167.6
  3
DIMSTYLE_1
100
AcDbAlignedDimension
 13
-7.8962713919
 23
65.0259517336
 14
-175.4962713919
 24
65.0259517336
 50
180.0
100
AcDbRotatedDimension
  0
DIMENSION
  5
239
100
AcDbEntity
  8
0
100
AcDbDimension
 62
7
  6
CONTINUOUS
  2
*D2
 10
9.7537286081
 20
-43.9740482664
 11
9.7537286081
 21
15.5259517336
 70
160
 71
2
 42
119.0
  3
DIMSTYLE_1
100
AcDbAlignedDimension
 13
-61.1962713919
 23
75.0259517336
 14
-61.3462713919
 24
-43.9740482664
 50
270.0
100
AcDbRotatedDimension
  0
LINE
  5
23A
100
AcDbEntity
  8
ASSI
100
AcDbLine
 62
7
  6
CONTINUOUS
 10
-181.2963585316
 20
-13.2026445546
 11
-180.8962713919
 21
-13.7240482664
  0
LINE
  5
23B
100
AcDbEntity
  8
RACCORDO
100
AcDbLine
 62
7
  6
CONTINUOUS
 10
-175.4962713919
 20
-33.9740482664
 11
-175.4962713919
 21
-11.4740482664
  0
LINE
  5
23C
100
AcDbEntity
  8
ASSI
100
AcDbLine
 62
7
  6
CONTINUOUS
 10
-175.4962713919
 20
-7.4740482664
 11
-175.4962713919
 21
38.2759517336
  0
LINE
  5
23D
100
AcDbEntity
  8
RACCORDO
100
AcDbLine
 62
7
  6
CONTINUOUS
 10
-175.4962713919
 20
42.7759517336
 11
-175.4962713919
 21
65.0259517336
  0
LINE
  5
23E
100
AcDbEntity
  8
ASSI
100
AcDbLine
 62
7
  6
CONTINUOUS
 10
-185.1462713919
 20
-9.4740482664
 11
-184.6248676801
 21
-9.874135406
  0
LINE
  5
23F
100
AcDbEntity
  8
ASSI
100
AcDbLine
 62
7
  6
CONTINUOUS
 10
-180.4961842522
 20
-5.7454519781
 11
-180.8962713919
 21
-5.2240482664
  0
LINE
  5
240
100
AcDbEntity
  8
ASSI
100
AcDbLine
 62
7
  6
CONTINUOUS
 10
-128.4462713919
 20
-49.9740482664
 11
-127.9248676801
 21
-50.374135406
  0
LINE
  5
241
100
AcDbEntity
  8
ASSI
100
AcDbLine
 62
7
  6
CONTINUOUS
 10
-119.9462713919
 20
-49.9740482664
 11
-120.4676751036
 21
-49.5739611267
  0
LINE
  5
242
100
AcDbEntity
  8
0
100
AcDbLine
 62
7
  6
CONTINUOUS
 10
-143.4462713919
 20
60.5259517336
 11
-142.6129381082
 21
63.0259517336
  0
LINE
  5
243
100
AcDbEntity
  8
0
100
AcDbLine
 62
7
  6
CONTINUOUS
 10
-142.9254381082
 20
63.0259517336
 11
-143.6546047501
 21
60.845100669
  0
LINE
  5
244
100
AcDbEntity
  8
0
100
AcDbLine
 62
7
  6
CONTINUOUS
 10
-140.6337713919
 20
62.7599943185
 11
-141.6754379592
 21
60.5259517336
  0
LINE
  5
245
100
AcDbEntity
  8
0
100
AcDbLine
 62
7
  6
CONTINUOUS
 10
-141.3629379592
 20
60.5259517336
 11
-140.3212713919
 21
62.7599943185
  0
LINE
  5
246
100
AcDbEntity
  8
0
100
AcDbLine
 62
7
  6
CONTINUOUS
 10
-137.3004382572
 20
61.1110581214
 11
-137.4046045265
 21
60.9514836351
  0
LINE
  5
247
100
AcDbEntity
  8
0
100
AcDbLine
 62
7
  6
CONTINUOUS
 10
-137.2483545265
 20
60.7387176844
 11
-137.0921045265
 21
60.9514836351
  0
LINE
  5
248
100
AcDbEntity
  8
0
100
AcDbLine
 62
7
  6
CONTINUOUS
 10
-139.5921045265
 20
63.0259517336
 11
-139.9046048246
 21
62.6536113525
  0
LINE
  5
249
100
AcDbEntity
  8
0
100
AcDbLine
 62
7
  6
CONTINUOUS
 10
-139.9046048246
 20
62.2280793393
 11
-139.5921045265
 21
62.6004198695
  0
LINE
  5
24A
100
AcDbEntity
  8
0
100
AcDbLine
 62
7
  6
CONTINUOUS
 10
-133.0296051226
 20
63.0259517336
 11
-134.2796051226
 21
61.5897815431
  0
LINE
  5
24B
100
AcDbEntity
  8
0
100
AcDbLine
 62
7
  6
CONTINUOUS
 10
-133.9150213919
 20
61.5897815431
 11
-133.0296051226
 21
62.6004198695
  0
LINE
  5
24C
100
AcDbEntity
  8
0
100
AcDbLine
 62
7
  6
CONTINUOUS
 10
-138.4983545265
 20
61.6429730261
 11
-138.2900213919
 21
61.8025474752
  0
LINE
  5
24D
100
AcDbEntity
  8
0
100
AcDbLine
 62
7
  6
CONTINUOUS
 10
-137.4046045265
 20
60.9514836351
 11
-137.5608545265
 21
60.845100669
  0
LINE
  5
24E
100
AcDbEntity
  8
0
100
AcDbLine
 62
7
  6
CONTINUOUS
 10
-138.3421045265
 20
62.0685048903
 11
-138.6025213919
 21
61.9089304412
  0
LINE
  5
24F
100
AcDbEntity
  8
0
100
AcDbLine
 62
7
  6
CONTINUOUS
 10
-137.5087713919
 20
60.5791432213
 11
-137.2483545265
 21
60.7387176844
  0
LINE
  5
250
100
AcDbEntity
  8
ASSI
100
AcDbLine
 62
7
  6
CONTINUOUS
 10
-124.5963585316
 20
-53.7026445546
 11
-124.1962713919
 21
-54.2240482664
  0
LINE
  5
251
100
AcDbEntity
  8
0
100
AcDbLine
 62
7
  6
CONTINUOUS
 10
-137.2483545265
 20
61.2706325704
 11
-137.3004382572
 21
61.1110581214
  0
LINE
  5
252
100
AcDbEntity
  8
0
100
AcDbLine
 62
7
  6
CONTINUOUS
 10
-137.0921045265
 20
60.9514836351
 11
-136.9879382572
 21
61.2174410874
  0
LINE
  5
253
100
AcDbEntity
  8
0
100
AcDbLine
 62
7
  6
CONTINUOUS
 10
-135.0087713919
 20
62.7599943185
 11
-136.0504382572
 21
60.5259517336
  0
LINE
  5
254
100
AcDbEntity
  8
0
100
AcDbLine
 62
7
  6
CONTINUOUS
 10
-135.7379382572
 20
60.5259517336
 11
-134.6962713919
 21
62.7599943185
  0
LINE
  5
255
100
AcDbEntity
  8
ASSI
100
AcDbLine
 62
7
  6
CONTINUOUS
 10
-180.8962713919
 20
-5.2240482664
 11
-181.2963585316
 21
-5.7454519781
  0
LINE
  5
256
100
AcDbEntity
  8
RACCORDO
100
AcDbLine
 62
7
  6
CONTINUOUS
 10
-17.8962713919
 20
-43.9740482664
 11
-57.0462713919
 21
-43.9740482664
  0
LINE
  5
257
100
AcDbEntity
  8
ASSI
100
AcDbLine
 62
7
  6
CONTINUOUS
 10
-61.3462713919
 20
-43.9740482664
 11
-122.1962713919
 21
-43.9740482664
  0
LINE
  5
258
100
AcDbEntity
  8
RACCORDO
100
AcDbLine
 62
7
  6
CONTINUOUS
 10
-126.1962713919
 20
-43.9740482664
 11
-165.4962713919
 21
-43.9740482664
  0
LINE
  5
259
100
AcDbEntity
  8
0
100
AcDbLine
 62
7
  6
CONTINUOUS
 10
-142.1962713919
 20
63.0259517336
 11
-142.1962713919
 21
62.7599943185
  0
LINE
  5
25A
100
AcDbEntity
  8
0
100
AcDbLine
 62
7
  6
CONTINUOUS
 10
-140.3212713919
 20
62.7599943185
 11
-140.3212713919
 21
63.0259517336
  0
LINE
  5
25B
100
AcDbEntity
  8
0
100
AcDbLine
 62
7
  6
CONTINUOUS
 10
-139.9046048246
 20
62.6536113525
 11
-139.9046048246
 21
62.2280793393
  0
LINE
  5
25C
100
AcDbEntity
  8
0
100
AcDbLine
 62
7
  6
CONTINUOUS
 10
-139.5921045265
 20
62.6004198695
 11
-139.5921045265
 21
60.5259517336
  0
LINE
  5
25D
100
AcDbEntity
  8
0
100
AcDbLine
 62
7
  6
CONTINUOUS
 10
-139.2796045265
 20
60.5259517336
 11
-139.2796045265
 21
63.0259517336
  0
LINE
  5
25E
100
AcDbEntity
  8
0
100
AcDbLine
 62
7
  6
CONTINUOUS
 10
-138.8629382572
 20
63.0259517336
 11
-138.8629382572
 21
61.6429730261
  0
LINE
  5
25F
100
AcDbEntity
  8
0
100
AcDbLine
 62
7
  6
CONTINUOUS
 10
-138.6025213919
 20
61.9089304412
 11
-138.6025213919
 21
62.7599943185
  0
LINE
  5
260
100
AcDbEntity
  8
ASSI
100
AcDbLine
 62
7
  6
CONTINUOUS
 10
-180.8962713919
 20
-13.7240482664
 11
-180.4961842522
 21
-13.2026445546
  0
LWPOLYLINE
  5
261
100
AcDbEntity
  8
0
100
AcDbPolyline
 62
7
  6
CONTINUOUS
 90
40
 70
0
 10
-42.1365983992
 20
-28.9545692664
 10
-42.0977012543
 20
-28.9521623184
 10
-42.0603369874
 20
-28.9487524772
 10
-42.0245055985
 20
-28.9443397428
 10
-41.9904512201
 20
-28.9392772104
 10
-41.9579297198
 20
-28.9332117849
 10
-41.9262086995
 20
-28.9250841808
 10
-41.8951251409
 20
-28.9142757581
 10
-41.8648420623
 20
-28.9014051569
 10
-41.8351161209
 20
-28.8872690118
 10
-41.8055697199
 20
-28.8723446833
 10
-41.7765804561
 20
-28.8561548109
 10
-41.7490377763
 20
-28.8380639479
 10
-41.7233758064
 20
-28.8175840866
 10
-41.6991604205
 20
-28.7952032347
 10
-41.6759786879
 20
-28.7717499684
 10
-41.6535627448
 20
-28.7473947645
 10
-41.632180455
 20
-28.7219671463
 10
-41.61222248
 20
-28.6957842593
 10
-41.5937033028
 20
-28.6685385492
 10
-41.5766084402
 20
-28.6405375702
 10
-41.5612851041
 20
-28.6130211308
 10
-41.5480501724
 20
-28.5863261196
 10
-41.5365867672
 20
-28.5601156479
 10
-41.5262914658
 20
-28.5346188581
 10
-41.5171082331
 20
-28.5100738641
 10
-41.5090931043
 20
-28.486242552
 10
-41.5018107623
 20
-28.4626397219
 10
-41.4951025983
 20
-28.4393072138
 10
-41.4891272211
 20
-28.4162031876
 10
-41.4839251399
 20
-28.3927169239
 10
-41.4796132116
 20
-28.3687133939
 10
-41.4760745793
 20
-28.3443276263
 10
-41.4729991823
 20
-28.3193539872
 10
-41.4702527737
 20
-28.2937975085
 10
-41.4679696004
 20
-28.2676531584
 10
-41.4662423423
 20
-28.2407002069
 10
-41.4651018929
 20
-28.2128650775
 10
-41.4645173588
 20
-28.1842213466
 10
-41.4644902604
 20
-28.1249395774
  0
LINE
  5
262
100
AcDbEntity
  8
0
100
AcDbLine
 62
7
  6
CONTINUOUS
 10
-44.2972563919
 20
-31.5931272664
 11
-44.0811063919
 21
-31.5931272664
  0
LINE
  5
263
100
AcDbEntity
  8
0
100
AcDbLine
 62
7
  6
CONTINUOUS
 10
-43.3076913919
 20
-31.5931272664
 11
-43.0915413919
 21
-31.5931272664
  0
LINE
  5
264
100
AcDbEntity
  8
0
100
AcDbLine
 62
7
  6
CONTINUOUS
 10
-42.7546503919
 20
-31.5931272664
 11
-42.5321663919
 21
-31.5931272664
  0
LINE
  5
265
100
AcDbEntity
  8
0
100
AcDbLine
 62
7
  6
CONTINUOUS
 10
-41.5649763919
 20
-31.5931272664
 11
-41.3289843919
 21
-31.5931272664
  0
LINE
  5
266
100
AcDbEntity
  8
0
100
AcDbLine
 62
7
  6
CONTINUOUS
 10
-41.1305643919
 20
-31.5931272664
 11
-40.1034263919
 21
-31.5931272664
  0
LINE
  5
267
100
AcDbEntity
  8
0
100
AcDbLine
 62
7
  6
CONTINUOUS
 10
-39.7378273919
 20
-31.5931272664
 11
-39.5216773919
 21
-31.5931272664
  0
LINE
  5
268
100
AcDbEntity
  8
0
100
AcDbLine
 62
7
  6
CONTINUOUS
 10
-40.1034263919
 20
-31.4014622664
 11
-40.9144133919
 21
-31.4014622664
  0
LINE
  5
269
100
AcDbEntity
  8
0
100
AcDbLine
 62
7
  6
CONTINUOUS
 10
-42.3649873919
 20
-31.1274742664
 11
-41.7232903919
 21
-31.1274742664
  0
LINE
  5
26A
100
AcDbEntity
  8
0
100
AcDbLine
 62
7
  6
CONTINUOUS
 10
-41.8009693919
 20
-30.9358092664
 11
-42.2982853919
 21
-30.9358092664
  0
LINE
  5
26B
100
AcDbEntity
  8
0
100
AcDbLine
 62
7
  6
CONTINUOUS
 10
-43.8489133919
 20
-30.1851922664
 11
-43.3076913919
 21
-30.1851922664
  0
LINE
  5
26C
100
AcDbEntity
  8
0
100
AcDbLine
 62
7
  6
CONTINUOUS
 10
-43.0915413919
 20
-30.1851922664
 11
-42.5498973919
 21
-30.1851922664
  0
LINE
  5
26D
100
AcDbEntity
  8
0
100
AcDbLine
 62
7
  6
CONTINUOUS
 10
-137.2483545265
 20
61.3770155365
 11
-137.2483545265
 21
61.2706325704
  0
LINE
  5
26E
100
AcDbEntity
  8
0
100
AcDbLine
 62
7
  6
CONTINUOUS
 10
-137.0921045265
 20
62.7599943185
 11
-137.0921045265
 21
63.0259517336
  0
LINE
  5
26F
100
AcDbEntity
  8
0
100
AcDbLine
 62
7
  6
CONTINUOUS
 10
-136.9879382572
 20
61.2174410874
 11
-136.9879382572
 21
61.4302070195
  0
LINE
  5
270
100
AcDbEntity
  8
0
100
AcDbLine
 62
7
  6
CONTINUOUS
 10
-136.5712713919
 20
63.0259517336
 11
-136.5712713919
 21
62.7599943185
  0
LINE
  5
271
100
AcDbEntity
  8
0
100
AcDbLine
 62
7
  6
CONTINUOUS
 10
-134.6962713919
 20
62.7599943185
 11
-134.6962713919
 21
63.0259517336
  0
LINE
  5
272
100
AcDbEntity
  8
0
100
AcDbLine
 62
7
  6
CONTINUOUS
 10
-134.2796051226
 20
61.5897815431
 11
-134.2796051226
 21
61.2706325704
  0
LINE
  5
273
100
AcDbEntity
  8
0
100
AcDbLine
 62
7
  6
CONTINUOUS
 10
-133.0296051226
 20
62.6004198695
 11
-133.0296051226
 21
61.5897815431
  0
LINE
  5
274
100
AcDbEntity
  8
0
100
AcDbLine
 62
7
  6
CONTINUOUS
 10
-133.0296051226
 20
61.2706325704
 11
-133.0296051226
 21
60.5259517336
  0
LINE
  5
275
100
AcDbEntity
  8
0
100
AcDbLine
 62
7
  6
CONTINUOUS
 10
-132.7171051226
 20
60.5259517336
 11
-132.7171051226
 21
61.2706325704
  0
LINE
  5
276
100
AcDbEntity
  8
0
100
AcDbLine
 62
7
  6
CONTINUOUS
 10
-132.7171051226
 20
61.5897815431
 11
-132.7171051226
 21
63.0259517336
  0
LINE
  5
277
100
AcDbEntity
  8
0
100
AcDbLine
 62
7
  6
CONTINUOUS
 10
-132.1962713919
 20
61.2706325704
 11
-132.1962713919
 21
61.5897815431
  0
LINE
  5
278
100
AcDbEntity
  8
0
100
AcDbLine
 62
7
  6
CONTINUOUS
 10
-38.9179743919
 20
-29.9931052664
 11
-39.1716983919
 21
-29.9931052664
  0
LINE
  5
279
100
AcDbEntity
  8
0
100
AcDbLine
 62
7
  6
CONTINUOUS
 10
-40.0899173919
 20
-29.9931052664
 11
-40.3415303919
 21
-29.9931052664
  0
LINE
  5
27A
100
AcDbEntity
  8
0
100
AcDbLine
 62
7
  6
CONTINUOUS
 10
-40.9144133919
 20
-29.9931052664
 11
-41.1305643919
 21
-29.9931052664
  0
LINE
  5
27B
100
AcDbEntity
  8
0
100
AcDbLine
 62
7
  6
CONTINUOUS
 10
-41.9082003919
 20
-29.9931052664
 11
-42.1530583919
 21
-29.9931052664
  0
LINE
  5
27C
100
AcDbEntity
  8
0
100
AcDbLine
 62
7
  6
CONTINUOUS
 10
-42.5498973919
 20
-29.9931052664
 11
-43.8489133919
 21
-29.9931052664
  0
LINE
  5
27D
100
AcDbEntity
  8
0
100
AcDbLine
 62
7
  6
CONTINUOUS
 10
-44.0811063919
 20
-29.9931052664
 11
-44.2972563919
 21
-29.9931052664
  0
LINE
  5
27E
100
AcDbEntity
  8
0
100
AcDbLine
 62
7
  6
CONTINUOUS
 10
-46.1446703919
 20
-28.9545692664
 11
-45.9356963919
 21
-28.9545692664
  0
LINE
  5
27F
100
AcDbEntity
  8
0
100
AcDbLine
 62
7
  6
CONTINUOUS
 10
-45.4852413919
 20
-28.9545692664
 11
-45.2712013919
 21
-28.9545692664
  0
LINE
  5
280
100
AcDbEntity
  8
0
100
AcDbLine
 62
7
  6
CONTINUOUS
 10
-44.8211693919
 20
-28.9545692664
 11
-44.6121953919
 21
-28.9545692664
  0
LINE
  5
281
100
AcDbEntity
  8
0
100
AcDbLine
 62
7
  6
CONTINUOUS
 10
-44.4205303919
 20
-28.9545692664
 11
-44.1976243919
 21
-28.9545692664
  0
LINE
  5
282
100
AcDbEntity
  8
0
100
AcDbLine
 62
7
  6
CONTINUOUS
 10
-43.2304343919
 20
-28.9545692664
 11
-42.9944423919
 21
-28.9545692664
  0
LINE
  5
283
100
AcDbEntity
  8
0
100
AcDbLine
 62
7
  6
CONTINUOUS
 10
-42.7850463919
 20
-28.9545692664
 11
-42.1365983992
 21
-28.9545692664
  0
LINE
  5
284
100
AcDbEntity
  8
0
100
AcDbLine
 62
7
  6
CONTINUOUS
 10
-41.1651823919
 20
-28.9545692664
 11
-39.9843743919
 21
-28.9545692664
  0
LINE
  5
285
100
AcDbEntity
  8
0
100
AcDbLine
 62
7
  6
CONTINUOUS
 10
-39.1041513919
 20
-28.9545692664
 11
-38.8880003919
 21
-28.9545692664
  0
LINE
  5
286
100
AcDbEntity
  8
0
100
AcDbLine
 62
7
  6
CONTINUOUS
 10
-38.5181803919
 20
-28.9545692664
 11
-38.3087843919
 21
-28.9545692664
  0
LINE
  5
287
100
AcDbEntity
  8
0
100
AcDbLine
 62
7
  6
CONTINUOUS
 10
-37.4910423919
 20
-28.9545692664
 11
-37.2478723919
 21
-28.9545692664
  0
LINE
  5
288
100
AcDbEntity
  8
0
100
AcDbLine
 62
7
  6
CONTINUOUS
 10
-42.1657193218
 20
-28.7696582664
 11
-42.5684733919
 21
-28.7696582664
  0
LINE
  5
289
100
AcDbEntity
  8
0
100
AcDbLine
 62
7
  6
CONTINUOUS
 10
-39.9843743919
 20
-28.7629042664
 11
-40.9490313919
 21
-28.7629042664
  0
LINE
  5
28A
100
AcDbEntity
  8
0
100
AcDbLine
 62
7
  6
CONTINUOUS
 10
-44.0304453919
 20
-28.4889162664
 11
-43.3887483919
 21
-28.4889162664
  0
LINE
  5
28B
100
AcDbEntity
  8
0
100
AcDbLine
 62
7
  6
CONTINUOUS
 10
-43.4668493919
 20
-28.2972512664
 11
-43.9633203919
 21
-28.2972512664
  0
LINE
  5
28C
100
AcDbEntity
  8
0
100
AcDbLine
 62
7
  6
CONTINUOUS
 10
-40.9490313919
 20
-28.2284372664
 11
-40.0734523919
 21
-28.2284372664
  0
LINE
  5
28D
100
AcDbEntity
  8
0
100
AcDbLine
 62
7
  6
CONTINUOUS
 10
-40.0734523919
 20
-28.0367722664
 11
-40.9490313919
 21
-28.0367722664
  0
LINE
  5
28E
100
AcDbEntity
  8
0
100
AcDbLine
 62
7
  6
CONTINUOUS
 10
-40.9490313919
 20
-27.5466342664
 11
-39.9995723919
 21
-27.5466342664
  0
LINE
  5
28F
100
AcDbEntity
  8
0
100
AcDbLine
 62
7
  6
CONTINUOUS
 10
-42.5684733919
 20
-27.5398792664
 11
-42.1657244837
 21
-27.5398792664
  0
LINE
  5
290
100
AcDbEntity
  8
0
100
AcDbLine
 62
7
  6
CONTINUOUS
 10
-37.2478723919
 20
-27.3549692664
 11
-37.4576913919
 21
-27.3549692664
  0
LINE
  5
291
100
AcDbEntity
  8
0
100
AcDbLine
 62
7
  6
CONTINUOUS
 10
-38.2619233919
 20
-27.3549692664
 11
-38.5181803919
 21
-27.3549692664
  0
LINE
  5
292
100
AcDbEntity
  8
0
100
AcDbLine
 62
7
  6
CONTINUOUS
 10
-38.8880003919
 20
-27.3549692664
 11
-39.1041513919
 21
-27.3549692664
  0
LINE
  5
293
100
AcDbEntity
  8
0
100
AcDbLine
 62
7
  6
CONTINUOUS
 10
-39.9995723919
 20
-27.3549692664
 11
-41.1651823919
 21
-27.3549692664
  0
LINE
  5
294
100
AcDbEntity
  8
0
100
AcDbLine
 62
7
  6
CONTINUOUS
 10
-42.1365928825
 20
-27.3549692664
 11
-42.7850463919
 21
-27.3549692664
  0
LINE
  5
295
100
AcDbEntity
  8
0
100
AcDbLine
 62
7
  6
CONTINUOUS
 10
-43.5736583919
 20
-27.3549692664
 11
-43.8185163919
 21
-27.3549692664
  0
LINE
  5
296
100
AcDbEntity
  8
0
100
AcDbLine
 62
7
  6
CONTINUOUS
 10
-44.6121953919
 20
-27.3549692664
 11
-44.9195343919
 21
-27.3549692664
  0
LINE
  5
297
100
AcDbEntity
  8
0
100
AcDbLine
 62
7
  6
CONTINUOUS
 10
-45.8352193919
 20
-27.3549692664
 11
-46.1446703919
 21
-27.3549692664
  0
LWPOLYLINE
  5
298
100
AcDbEntity
  8
0
100
AcDbPolyline
 62
7
  6
CONTINUOUS
 90
49
 70
0
 10
-42.1657244837
 20
-27.5398792664
 10
-42.126430676
 20
-27.541301359
 10
-42.0890407104
 20
-27.5449393546
 10
-42.053554587
 20
-27.5507932533
 10
-42.0200515596
 20
-27.5589507891
 10
-41.9884523744
 20
-27.5693242279
 10
-41.9585192702
 20
-27.5816503677
 10
-41.9302146722
 20
-27.5958435977
 10
-41.9035761552
 20
-27.6119895287
 10
-41.8784786818
 20
-27.6300817902
 10
-41.8548903054
 20
-27.6500762122
 10
-41.8328429725
 20
-27.6720169648
 10
-41.8123074851
 20
-27.6960301877
 10
-41.793307122
 20
-27.7221092838
 10
-41.7758186044
 20
-27.7502608504
 10
-41.7597428987
 20
-27.7806308189
 10
-41.7449633671
 20
-27.8131724551
 10
-41.7315966474
 20
-27.8479324933
 10
-41.7198936191
 20
-27.885197069
 10
-41.7098973268
 20
-27.9252536698
 10
-41.7015647257
 20
-27.9678148081
 10
-41.6950175615
 20
-28.0123041562
 10
-41.6902172899
 20
-28.0591849591
 10
-41.6872024551
 20
-28.1079939718
 10
-41.6862104346
 20
-28.1567651325
 10
-41.6874127796
 20
-28.2054788159
 10
-41.6906379389
 20
-28.2541546472
 10
-41.6956086362
 20
-28.3008854402
 10
-41.7022467848
 20
-28.3452157928
 10
-41.7106304714
 20
-28.3876011072
 10
-41.7207166805
 20
-28.4275004029
 10
-41.732593584
 20
-28.4646420941
 10
-41.74617301
 20
-28.4992977666
 10
-41.7611474275
 20
-28.5317411983
 10
-41.7773739384
 20
-28.5620389697
 10
-41.7949954408
 20
-28.5901245003
 10
-41.8141330988
 20
-28.6160718249
 10
-41.8348418862
 20
-28.6398365147
 10
-41.8570668292
 20
-28.6614629987
 10
-41.8807641706
 20
-28.6811585988
 10
-41.9058769495
 20
-28.698998444
 10
-41.9324621268
 20
-28.7149074054
 10
-41.960646829
 20
-28.7288674182
 10
-41.990394913
 20
-28.7409467269
 10
-42.0217425219
 20
-28.751077087
 10
-42.0549252116
 20
-28.7590357008
 10
-42.0900215008
 20
-28.7647483023
 10
-42.1269528709
 20
-28.7682891575
 10
-42.1657193218
 20
-28.7696582664
  0
LINE
  5
299
100
AcDbEntity
  8
ASSI
100
AcDbLine
 62
7
  6
CONTINUOUS
 10
-126.3462713919
 20
75.0259517336
 11
-126.3462713919
 21
73.3990067288
  0
LINE
  5
29A
100
AcDbEntity
  8
ASSI
100
AcDbLine
 62
7
  6
CONTINUOUS
 10
-126.1962713919
 20
-43.9740482664
 11
-126.1962713919
 21
-46.8019038812
  0
LINE
  5
29B
100
AcDbEntity
  8
ASSI
100
AcDbLine
 62
7
  6
CONTINUOUS
 10
-122.1962713919
 20
-46.8019038812
 11
-122.1962713919
 21
-43.9740482664
  0
LINE
  5
29C
100
AcDbEntity
  8
ASSI
100
AcDbLine
 62
7
  6
CONTINUOUS
 10
-122.0462713919
 20
75.0259517336
 11
-122.0462713919
 21
73.3990067288
  0
LINE
  5
29D
100
AcDbEntity
  8
ASSI
100
AcDbLine
 62
7
  6
CONTINUOUS
 10
-184.6248676801
 20
-9.0739611267
 11
-185.1462713919
 21
-9.4740482664
  0
LINE
  5
29E
100
AcDbEntity
  8
ASSI
100
AcDbLine
 62
7
  6
CONTINUOUS
 10
-62.9248676801
 20
81.4260388733
 11
-63.4462713919
 21
81.0259517336
  0
LINE
  5
29F
100
AcDbEntity
  8
0
100
AcDbLine
 62
7
  6
CONTINUOUS
 10
-58.1962713919
 20
-18.4740482664
 11
-90.6962713919
 21
-18.4740482664
  0
LINE
  5
2A0
100
AcDbEntity
  8
0
100
AcDbLine
 62
7
  6
CONTINUOUS
 10
-92.6962713919
 20
-18.4740482664
 11
-125.1962713919
 21
-18.4740482664
  0
LINE
  5
2A1
100
AcDbEntity
  8
0
100
AcDbLine
 62
7
  6
CONTINUOUS
 10
-143.6546047501
 20
60.845100669
 11
-144.3837713919
 21
63.0259517336
  0
LINE
  5
2A2
100
AcDbEntity
  8
0
100
AcDbLine
 62
7
  6
CONTINUOUS
 10
-144.6962713919
 20
63.0259517336
 11
-143.8629380337
 21
60.5259517336
  0
LINE
  5
2A3
100
AcDbEntity
  8
ASSI
100
AcDbLine
 62
7
  6
CONTINUOUS
 10
-55.4676751036
 20
80.625864594
 11
-54.9462713919
 21
81.0259517336
  0
LINE
  5
2A4
100
AcDbEntity
  8
ASSI
100
AcDbLine
 62
7
  6
CONTINUOUS
 10
-7.8962713919
 20
-11.7240482664
 11
-9.5890822531
 21
-11.7240482664
  0
LINE
  5
2A5
100
AcDbEntity
  8
ASSI
100
AcDbLine
 62
7
  6
CONTINUOUS
 10
-177.7241270068
 20
-11.4740482664
 11
-175.4962713919
 21
-11.4740482664
  0
LINE
  5
2A6
100
AcDbEntity
  8
ASSI
100
AcDbLine
 62
7
  6
CONTINUOUS
 10
-175.4962713919
 20
-7.4740482664
 11
-177.7241270068
 21
-7.4740482664
  0
LINE
  5
2A7
100
AcDbEntity
  8
ASSI
100
AcDbLine
 62
7
  6
CONTINUOUS
 10
-7.8962713919
 20
-7.2240482664
 11
-9.5890822531
 21
-7.2240482664
  0
LINE
  5
2A8
100
AcDbEntity
  8
0
100
AcDbLine
 62
7
  6
CONTINUOUS
 10
-138.8629382572
 20
61.1642496044
 11
-138.7587713919
 21
60.9514836351
  0
LINE
  5
2A9
100
AcDbEntity
  8
0
100
AcDbLine
 62
7
  6
CONTINUOUS
 10
-136.9879382572
 20
61.4302070195
 11
-137.0921045265
 21
61.6961645091
  0
LINE
  5
2AA
100
AcDbEntity
  8
0
100
AcDbLine
 62
7
  6
CONTINUOUS
 10
-137.3004382572
 20
61.5365900601
 11
-137.2483545265
 21
61.3770155365
  0
LINE
  5
2AB
100
AcDbEntity
  8
ASSI
100
AcDbLine
 62
7
  6
CONTINUOUS
 10
-59.1962713919
 20
85.2759517336
 11
-59.5963585316
 21
84.7545480219
  0
LINE
  5
2AC
100
AcDbEntity
  8
0
100
AcDbLine
 62
7
  6
CONTINUOUS
 10
-24.210980456
 20
14.5259517336
 11
-27.0100185616
 21
13.7759517336
  0
LINE
  5
2AD
100
AcDbEntity
  8
0
100
AcDbLine
 62
7
  6
CONTINUOUS
 10
-156.3825242221
 20
13.7759517336
 11
-159.1815623278
 21
14.5259517336
  0
LINE
  5
2AE
100
AcDbEntity
  8
0
100
AcDbLine
 62
7
  6
CONTINUOUS
 10
-138.4462713919
 20
60.9514836351
 11
-138.5504382572
 21
61.1642496044
  0
LINE
  5
2AF
100
AcDbEntity
  8
0
100
AcDbLine
 62
7
  6
CONTINUOUS
 10
-93.4462713919
 20
46.726913628
 11
-92.6962713919
 21
49.5259517336
  0
LINE
  5
2B0
100
AcDbEntity
  8
0
100
AcDbLine
 62
7
  6
CONTINUOUS
 10
-138.7587713919
 20
60.9514836351
 11
-138.6025213919
 21
60.7387176844
  0
LINE
  5
2B1
100
AcDbEntity
  8
0
100
AcDbLine
 62
7
  6
CONTINUOUS
 10
-137.0921045265
 20
61.6961645091
 11
-137.2483545265
 21
61.9089304412
  0
LINE
  5
2B2
100
AcDbEntity
  8
0
100
AcDbLine
 62
7
  6
CONTINUOUS
 10
-137.4046045265
 20
61.6961645091
 11
-137.3004382572
 21
61.5365900601
  0
LINE
  5
2B3
100
AcDbEntity
  8
0
100
AcDbLine
 62
7
  6
CONTINUOUS
 10
-92.6962713919
 20
-18.4740482664
 11
-93.4462713919
 21
-15.6750101607
  0
LINE
  5
2B4
100
AcDbEntity
  8
0
100
AcDbLine
 62
7
  6
CONTINUOUS
 10
-93.4462713919
 20
46.726913628
 11
-93.4462713919
 21
20.2097002324
  0
LINE
  5
2B5
100
AcDbEntity
  8
0
100
AcDbLine
 62
7
  6
CONTINUOUS
 10
-93.4462713919
 20
10.8422032348
 11
-93.4462713919
 21
-15.6750101607
  0
LWPOLYLINE
  5
2B6
100
AcDbEntity
  8
0
100
AcDbPolyline
 62
7
  6
CONTINUOUS
 90
54
 70
0
 10
-42.1544007245
 20
61.778318181
 10
-42.144893123
 20
61.7863818763
 10
-42.1352561873
 20
61.7947397288
 10
-42.1254817533
 20
61.8033648047
 10
-42.1155779852
 20
61.8122840378
 10
-42.1055806897
 20
61.8215880079
 10
-42.0954858451
 20
61.8312629285
 10
-42.0852974731
 20
61.8413225861
 10
-42.0750634468
 20
61.8518989201
 10
-42.064776452
 20
61.8629838046
 10
-42.0544438028
 20
61.8745853656
 10
-42.044135314
 20
61.886859921
 10
-42.0338456145
 20
61.8998326667
 10
-42.0235800753
 20
61.9134784069
 10
-42.0134246253
 20
61.9278778717
 10
-42.0033833673
 20
61.9430194269
 10
-41.9934521983
 20
61.9589147068
 10
-41.9837047381
 20
61.9756793451
 10
-41.9741202699
 20
61.9933205789
 10
-41.9647195103
 20
62.011831171
 10
-41.9556382288
 20
62.0313050434
 10
-41.9468548966
 20
62.0517505685
 10
-41.9383910423
 20
62.0731593739
 10
-41.9304470211
 20
62.0956002647
 10
-41.9230139539
 20
62.1190579123
 10
-41.9161007196
 20
62.1435476455
 10
-41.9099343104
 20
62.1691842551
 10
-41.9044990005
 20
62.1959800873
 10
-41.8998105157
 20
62.223922796
 10
-41.8961430254
 20
62.2530901344
 10
-41.8934801233
 20
62.28352664
 10
-41.8918382157
 20
62.3151877752
 10
-41.8915406912
 20
62.3480176803
 10
-41.8925125038
 20
62.3820569253
 10
-41.8948286995
 20
62.4172649401
 10
-41.8990378046
 20
62.4534641553
 10
-41.9051045155
 20
62.4908282328
 10
-41.9130641358
 20
62.5291835107
 10
-41.9235711018
 20
62.5678314339
 10
-41.9368544228
 20
62.606973179
 10
-41.9526850895
 20
62.6464075693
 10
-41.9710305096
 20
62.6848325205
 10
-41.9921402175
 20
62.7221785413
 10
-42.0157646788
 20
62.758515123
 10
-42.0411226982
 20
62.7927486542
 10
-42.0683700814
 20
62.8246878242
 10
-42.0973510227
 20
62.8545239438
 10
-42.12681691
 20
62.8817373341
 10
-42.1568036243
 20
62.9062299138
 10
-42.1872752845
 20
62.9280997642
 10
-42.2168756351
 20
62.9471214512
 10
-42.2451525909
 20
62.9632198301
 10
-42.272558237
 20
62.9764700456
 10
-42.2990925735
 20
62.9868720977
  0
LINE
  5
2B7
100
AcDbEntity
  8
RACCORDO
100
AcDbLine
 62
7
  6
CONTINUOUS
 10
-156.3825242221
 20
13.7759517336
 11
-129.3800198907
 21
13.7759517336
  0
LINE
  5
2B8
100
AcDbEntity
  8
0
100
AcDbLine
 62
7
  6
CONTINUOUS
 10
-120.0125228931
 20
13.7759517336
 11
-96.3800198907
 21
13.7759517336
  0
LINE
  5
2B9
100
AcDbEntity
  8
0
100
AcDbLine
 62
7
  6
CONTINUOUS
 10
-87.0125228931
 20
13.7759517336
 11
-63.3800198907
 21
13.7759517336
  0
LINE
  5
2BA
100
AcDbEntity
  8
RACCORDO
100
AcDbLine
 62
7
  6
CONTINUOUS
 10
-54.0125228931
 20
13.7759517336
 11
-27.0100185616
 21
13.7759517336
  0
LINE
  5
2BB
100
AcDbEntity
  8
0
100
AcDbLine
 62
7
  6
CONTINUOUS
 10
-89.9462713919
 20
-15.6750101607
 11
-89.9462713919
 21
10.8422032348
  0
LINE
  5
2BC
100
AcDbEntity
  8
0
100
AcDbLine
 62
7
  6
CONTINUOUS
 10
-89.9462713919
 20
20.2097002324
 11
-89.9462713919
 21
46.726913628
  0
LINE
  5
2BD
100
AcDbEntity
  8
RACCORDO
100
AcDbLine
 62
7
  6
CONTINUOUS
 10
-27.0100185616
 20
17.2759517336
 11
-54.0125228931
 21
17.2759517336
  0
LINE
  5
2BE
100
AcDbEntity
  8
0
100
AcDbLine
 62
7
  6
CONTINUOUS
 10
-63.3800198907
 20
17.2759517336
 11
-87.0125228931
 21
17.2759517336
  0
LINE
  5
2BF
100
AcDbEntity
  8
0
100
AcDbLine
 62
7
  6
CONTINUOUS
 10
-96.3800198907
 20
17.2759517336
 11
-120.0125228931
 21
17.2759517336
  0
LINE
  5
2C0
100
AcDbEntity
  8
RACCORDO
100
AcDbLine
 62
7
  6
CONTINUOUS
 10
-129.3800198907
 20
17.2759517336
 11
-156.3825242221
 21
17.2759517336
  0
LINE
  5
2C1
100
AcDbEntity
  8
0
100
AcDbLine
 62
7
  6
CONTINUOUS
 10
-89.9462713919
 20
-15.6750101607
 11
-90.6962713919
 21
-18.4740482664
  0
LINE
  5
2C2
100
AcDbEntity
  8
0
100
AcDbLine
 62
7
  6
CONTINUOUS
 10
-138.6025213919
 20
60.7387176844
 11
-138.3421045265
 21
60.5791432213
  0
LINE
  5
2C3
100
AcDbEntity
  8
0
100
AcDbLine
 62
7
  6
CONTINUOUS
 10
-137.2483545265
 20
61.9089304412
 11
-137.5087713919
 21
62.0685048903
  0
LINE
  5
2C4
100
AcDbEntity
  8
0
100
AcDbLine
 62
7
  6
CONTINUOUS
 10
-138.2900213919
 20
60.845100669
 11
-138.4462713919
 21
60.9514836351
  0
LINE
  5
2C5
100
AcDbEntity
  8
0
100
AcDbLine
 62
7
  6
CONTINUOUS
 10
-137.5608545265
 20
61.8025474752
 11
-137.4046045265
 21
61.6961645091
  0
LINE
  5
2C6
100
AcDbEntity
  8
0
100
AcDbLine
 62
7
  6
CONTINUOUS
 10
-90.6962713919
 20
49.5259517336
 11
-89.9462713919
 21
46.726913628
  0
LINE
  5
2C7
100
AcDbEntity
  8
ASSI
100
AcDbLine
 62
7
  6
CONTINUOUS
 10
-124.1962713919
 20
-54.2240482664
 11
-123.7961842522
 21
-53.7026445546
  0
LINE
  5
2C8
100
AcDbEntity
  8
0
100
AcDbLine
 62
7
  6
CONTINUOUS
 10
-159.1815623278
 20
16.5259517336
 11
-156.3825242221
 21
17.2759517336
  0
LINE
  5
2C9
100
AcDbEntity
  8
ASSI
100
AcDbLine
 62
7
  6
CONTINUOUS
 10
-175.4962713919
 20
38.2759517336
 11
-173.8034605307
 21
38.2759517336
  0
LINE
  5
2CA
100
AcDbEntity
  8
ASSI
100
AcDbLine
 62
7
  6
CONTINUOUS
 10
-7.8962713919
 20
38.5259517336
 11
-5.668415777
 21
38.5259517336
  0
LINE
  5
2CB
100
AcDbEntity
  8
0
100
AcDbLine
 62
7
  6
CONTINUOUS
 10
-27.0100185616
 20
17.2759517336
 11
-24.210980456
 21
16.5259517336
  0
LINE
  5
2CC
100
AcDbEntity
  8
0
100
AcDbLine
 62
7
  6
CONTINUOUS
 10
-40.3415303919
 20
-29.9931052664
 11
-39.7378273919
 21
-30.9493192664
  0
LINE
  5
2CD
100
AcDbEntity
  8
0
100
AcDbLine
 62
7
  6
CONTINUOUS
 10
-38.3087843919
 20
-27.6549282664
 11
-37.4910423919
 21
-28.9545692664
  0
LINE
  5
2CE
100
AcDbEntity
  8
0
100
AcDbLine
 62
7
  6
CONTINUOUS
 10
-37.4576913919
 20
-28.6540492664
 11
-38.2619233919
 21
-27.3549692664
  0
LINE
  5
2CF
100
AcDbEntity
  8
0
100
AcDbLine
 62
7
  6
CONTINUOUS
 10
-39.6310183919
 20
-30.7618762664
 11
-40.0899173919
 21
-29.9931052664
  0
LINE
  5
2D0
100
AcDbEntity
  8
ASSI
100
AcDbLine
 62
7
  6
CONTINUOUS
 10
-61.3462713919
 20
-43.9740482664
 11
-61.3462713919
 21
-42.3471032615
  0
LINE
  5
2D1
100
AcDbEntity
  8
ASSI
100
AcDbLine
 62
7
  6
CONTINUOUS
 10
-61.1962713919
 20
77.8538073485
 11
-61.1962713919
 21
75.0259517336
  0
LINE
  5
2D2
100
AcDbEntity
  8
0
100
AcDbLine
 62
7
  6
CONTINUOUS
 10
-49.9307153919
 20
63.0423957336
 11
-50.4217663919
 21
61.3217497336
  0
LINE
  5
2D3
100
AcDbEntity
  8
0
100
AcDbLine
 62
7
  6
CONTINUOUS
 10
-45.2797183919
 20
60.5426597336
 11
-45.1357363919
 21
61.0416957336
  0
LINE
  5
2D4
100
AcDbEntity
  8
0
100
AcDbLine
 62
7
  6
CONTINUOUS
 10
-45.0117743919
 20
63.0423957336
 11
-45.7958503919
 21
60.5426597336
  0
LINE
  5
2D5
100
AcDbEntity
  8
0
100
AcDbLine
 62
7
  6
CONTINUOUS
 10
-50.2127943919
 20
60.5426597336
 11
-49.4092783919
 21
63.0423957336
  0
LINE
  5
2D6
100
AcDbEntity
  8
0
100
AcDbLine
 62
7
  6
CONTINUOUS
 10
-46.6278023919
 20
63.0423957336
 11
-47.1495953919
 21
61.6545347336
  0
LINE
  5
2D7
100
AcDbEntity
  8
0
100
AcDbLine
 62
7
  6
CONTINUOUS
 10
-47.1158533919
 20
60.5426597336
 11
-46.4954423919
 21
62.1681357336
  0
LINE
  5
2D8
100
AcDbEntity
  8
ASSI
100
AcDbLine
 62
7
  6
CONTINUOUS
 10
-127.9248676801
 20
-49.5739611267
 11
-128.4462713919
 21
-49.9740482664
  0
LINE
  5
2D9
100
AcDbEntity
  8
ASSI
100
AcDbLine
 62
7
  6
CONTINUOUS
 10
-5.668415777
 20
42.5259517336
 11
-7.8962713919
 21
42.5259517336
  0
LINE
  5
2DA
100
AcDbEntity
  8
ASSI
100
AcDbLine
 62
7
  6
CONTINUOUS
 10
-173.8034605307
 20
42.7759517336
 11
-175.4962713919
 21
42.7759517336
  0
LINE
  5
2DB
100
AcDbEntity
  8
0
100
AcDbLine
 62
7
  6
CONTINUOUS
 10
-42.9944423919
 20
-28.9545692664
 11
-43.5736583919
 21
-27.3549692664
  0
LINE
  5
2DC
100
AcDbEntity
  8
0
100
AcDbLine
 62
7
  6
CONTINUOUS
 10
-41.3289843919
 20
-31.5931272664
 11
-41.9082003919
 21
-29.9931052664
  0
LINE
  5
2DD
100
AcDbEntity
  8
0
100
AcDbLine
 62
7
  6
CONTINUOUS
 10
-43.3887483919
 20
-28.4889162664
 11
-43.2304343919
 21
-28.9545692664
  0
LINE
  5
2DE
100
AcDbEntity
  8
0
100
AcDbLine
 62
7
  6
CONTINUOUS
 10
-45.3761043919
 20
-28.7140702664
 11
-45.8352193919
 21
-27.3549692664
  0
LINE
  5
2DF
100
AcDbEntity
  8
0
100
AcDbLine
 62
7
  6
CONTINUOUS
 10
-45.9356963919
 20
-27.6133372664
 11
-45.4852413919
 21
-28.9545692664
  0
LINE
  5
2E0
100
AcDbEntity
  8
0
100
AcDbLine
 62
7
  6
CONTINUOUS
 10
-43.7050703919
 20
-27.5864232664
 11
-43.4668493919
 21
-28.2972512664
  0
LINE
  5
2E1
100
AcDbEntity
  8
ASSI
100
AcDbLine
 62
7
  6
CONTINUOUS
 10
-57.1962713919
 20
75.0259517336
 11
-57.1962713919
 21
77.8538073485
  0
LINE
  5
2E2
100
AcDbEntity
  8
ASSI
100
AcDbLine
 62
7
  6
CONTINUOUS
 10
-57.0462713919
 20
-43.9740482664
 11
-57.0462713919
 21
-42.3471032615
  0
LINE
  5
2E3
100
AcDbEntity
  8
0
100
AcDbLine
 62
7
  6
CONTINUOUS
 10
-48.1872383919
 20
63.0423957336
 11
-48.4129503919
 21
60.5426597336
  0
LINE
  5
2E4
100
AcDbEntity
  8
0
100
AcDbLine
 62
7
  6
CONTINUOUS
 10
-45.0290013919
 20
61.4278487336
 11
-44.7691913919
 21
62.3555317336
  0
LINE
  5
2E5
100
AcDbEntity
  8
ASSI
100
AcDbLine
 62
7
  6
CONTINUOUS
 10
-120.4676751036
 20
-50.374135406
 11
-119.9462713919
 21
-49.9740482664
  0
LINE
  5
2E6
100
AcDbEntity
  8
ASSI
100
AcDbLine
 62
7
  6
CONTINUOUS
 10
1.2323248964
 20
40.125864594
 11
1.7537286081
 21
40.5259517336
  0
LWPOLYLINE
  5
2E7
100
AcDbEntity
  8
0
100
AcDbPolyline
 62
7
  6
CONTINUOUS
 90
10
 70
0
 10
-42.2452937028
 20
61.7242857096
 10
-42.2361167238
 20
61.7261378018
 10
-42.2269918448
 20
61.7288898372
 10
-42.2179190658
 20
61.7325418158
 10
-42.2089283429
 20
61.737197946
 10
-42.19998972
 20
61.7427540193
 10
-42.1910133288
 20
61.7488974104
 10
-42.1820035067
 20
61.7556248904
 10
-42.1729559164
 20
61.762939688
 10
-42.1544007245
 20
61.778318181
  0
LWPOLYLINE
  5
2E8
100
AcDbEntity
  8
0
100
AcDbPolyline
 62
7
  6
CONTINUOUS
 90
10
 70
0
 10
-43.0844061232
 20
62.6165409169
 10
-43.0371312891
 20
62.62432124
 10
-42.9904383706
 20
62.6305522217
 10
-42.9443273676
 20
62.6352338621
 10
-42.8989558041
 20
62.6383488129
 10
-42.8541661561
 20
62.6399144224
 10
-42.8094858521
 20
62.6399827352
 10
-42.7647573682
 20
62.6385710997
 10
-42.7201382283
 20
62.6356621677
 10
-42.6756284324
 20
62.631255939
  0
LINE
  5
2E9
100
AcDbEntity
  8
0
100
AcDbLine
 62
7
  6
CONTINUOUS
 10
-125.1962713919
 20
49.5259517336
 11
-92.6962713919
 21
49.5259517336
  0
LINE
  5
2EA
100
AcDbEntity
  8
0
100
AcDbLine
 62
7
  6
CONTINUOUS
 10
-90.6962713919
 20
49.5259517336
 11
-58.1962713919
 21
49.5259517336
  0
LINE
  5
2EB
100
AcDbEntity
  8
0
100
AcDbLine
 62
7
  6
CONTINUOUS
 10
-138.3421045265
 20
60.5791432213
 11
-138.0816882572
 21
60.5259517336
  0
LINE
  5
2EC
100
AcDbEntity
  8
0
100
AcDbLine
 62
7
  6
CONTINUOUS
 10
-137.5087713919
 20
62.0685048903
 11
-137.7691882572
 21
62.1216963733
  0
LINE
  5
2ED
100
AcDbEntity
  8
0
100
AcDbLine
 62
7
  6
CONTINUOUS
 10
-138.0816882572
 20
60.791909186
 11
-138.2900213919
 21
60.845100669
  0
LINE
  5
2EE
100
AcDbEntity
  8
0
100
AcDbLine
 62
7
  6
CONTINUOUS
 10
-137.7691882572
 20
61.8557389582
 11
-137.5608545265
 21
61.8025474752
  0
LINE
  5
2EF
100
AcDbEntity
  8
0
100
AcDbLine
 62
7
  6
CONTINUOUS
 10
-41.7232903919
 20
-31.1274742664
 11
-41.5649763919
 21
-31.5931272664
  0
LINE
  5
2F0
100
AcDbEntity
  8
0
100
AcDbLine
 62
7
  6
CONTINUOUS
 10
-42.0396123919
 20
-30.2249932664
 11
-41.8009693919
 21
-30.9358092664
  0
LINE
  5
2F1
100
AcDbEntity
  8
0
100
AcDbLine
 62
7
  6
CONTINUOUS
 10
-49.2156403919
 20
63.0425457336
 11
-49.2156403919
 21
60.5426597336
  0
LINE
  5
2F2
100
AcDbEntity
  8
0
100
AcDbLine
 62
7
  6
CONTINUOUS
 10
-48.6938473919
 20
60.5426597336
 11
-48.6938473919
 21
63.0425457336
  0
LINE
  5
2F3
100
AcDbEntity
  8
0
100
AcDbLine
 62
7
  6
CONTINUOUS
 10
-46.1446703919
 20
-27.3549692664
 11
-46.1446703919
 21
-28.9545692664
  0
LINE
  5
2F4
100
AcDbEntity
  8
0
100
AcDbLine
 62
7
  6
CONTINUOUS
 10
-45.9356963919
 20
-28.9545692664
 11
-45.9356963919
 21
-27.6133372664
  0
LINE
  5
2F5
100
AcDbEntity
  8
0
100
AcDbLine
 62
7
  6
CONTINUOUS
 10
-44.8211693919
 20
-27.6108042664
 11
-44.8211693919
 21
-28.9545692664
  0
LINE
  5
2F6
100
AcDbEntity
  8
0
100
AcDbLine
 62
7
  6
CONTINUOUS
 10
-44.6121953919
 20
-28.9545692664
 11
-44.6121953919
 21
-27.3549692664
  0
LINE
  5
2F7
100
AcDbEntity
  8
0
100
AcDbLine
 62
7
  6
CONTINUOUS
 10
-44.2972563919
 20
-29.9931052664
 11
-44.2972563919
 21
-31.5931272664
  0
LINE
  5
2F8
100
AcDbEntity
  8
0
100
AcDbLine
 62
7
  6
CONTINUOUS
 10
-44.0811063919
 20
-31.5931272664
 11
-44.0811063919
 21
-29.9931052664
  0
LINE
  5
2F9
100
AcDbEntity
  8
0
100
AcDbLine
 62
7
  6
CONTINUOUS
 10
-47.9137643919
 20
60.5426597336
 11
-47.8011613919
 21
62.1749407336
  0
LINE
  5
2FA
100
AcDbEntity
  8
0
100
AcDbLine
 62
7
  6
CONTINUOUS
 10
-143.8629380337
 20
60.5259517336
 11
-143.4462713919
 21
60.5259517336
  0
LINE
  5
2FB
100
AcDbEntity
  8
0
100
AcDbLine
 62
7
  6
CONTINUOUS
 10
-141.6754379592
 20
60.5259517336
 11
-141.3629379592
 21
60.5259517336
  0
LINE
  5
2FC
100
AcDbEntity
  8
0
100
AcDbLine
 62
7
  6
CONTINUOUS
 10
-139.5921045265
 20
60.5259517336
 11
-139.2796045265
 21
60.5259517336
  0
LINE
  5
2FD
100
AcDbEntity
  8
0
100
AcDbLine
 62
7
  6
CONTINUOUS
 10
-138.0816882572
 20
60.5259517336
 11
-137.7691882572
 21
60.5259517336
  0
LINE
  5
2FE
100
AcDbEntity
  8
0
100
AcDbLine
 62
7
  6
CONTINUOUS
 10
-136.0504382572
 20
60.5259517336
 11
-135.7379382572
 21
60.5259517336
  0
LINE
  5
2FF
100
AcDbEntity
  8
0
100
AcDbLine
 62
7
  6
CONTINUOUS
 10
-133.0296051226
 20
60.5259517336
 11
-132.7171051226
 21
60.5259517336
  0
LINE
  5
300
100
AcDbEntity
  8
0
100
AcDbLine
 62
7
  6
CONTINUOUS
 10
-50.6726243919
 20
60.5426597336
 11
-50.2127943919
 21
60.5426597336
  0
LINE
  5
301
100
AcDbEntity
  8
0
100
AcDbLine
 62
7
  6
CONTINUOUS
 10
-49.2156403919
 20
60.5426597336
 11
-48.6938473919
 21
60.5426597336
  0
LINE
  5
302
100
AcDbEntity
  8
0
100
AcDbLine
 62
7
  6
CONTINUOUS
 10
-48.4129503919
 20
60.5426597336
 11
-47.9137643919
 21
60.5426597336
  0
LINE
  5
303
100
AcDbEntity
  8
0
100
AcDbLine
 62
7
  6
CONTINUOUS
 10
-47.1890353919
 20
60.5426597336
 11
-47.1158533919
 21
60.5426597336
  0
LINE
  5
304
100
AcDbEntity
  8
0
100
AcDbLine
 62
7
  6
CONTINUOUS
 10
-46.3882383919
 20
60.5426597336
 11
-45.8777863919
 21
60.5426597336
  0
LINE
  5
305
100
AcDbEntity
  8
0
100
AcDbLine
 62
7
  6
CONTINUOUS
 10
-45.7958503919
 20
60.5426597336
 11
-45.2797183919
 21
60.5426597336
  0
LINE
  5
306
100
AcDbEntity
  8
0
100
AcDbLine
 62
7
  6
CONTINUOUS
 10
-44.2899693919
 20
60.5426597336
 11
-43.7400213919
 21
60.5426597336
  0
LINE
  5
307
100
AcDbEntity
  8
0
100
AcDbLine
 62
7
  6
CONTINUOUS
 10
-43.586797598
 20
60.5426600611
 11
-43.0671042564
 21
60.5426600611
  0
LINE
  5
308
100
AcDbEntity
  8
0
100
AcDbLine
 62
7
  6
CONTINUOUS
 10
-42.2680504377
 20
60.5426600611
 11
-41.7661463394
 21
60.5426600611
  0
LINE
  5
309
100
AcDbEntity
  8
0
100
AcDbLine
 62
7
  6
CONTINUOUS
 10
-137.7691882572
 20
60.791909186
 11
-138.0816882572
 21
60.791909186
  0
LINE
  5
30A
100
AcDbEntity
  8
0
100
AcDbLine
 62
7
  6
CONTINUOUS
 10
-45.1357363919
 20
61.0416957336
 11
-44.4251413919
 21
61.0416957336
  0
LINE
  5
30B
100
AcDbEntity
  8
0
100
AcDbLine
 62
7
  6
CONTINUOUS
 10
-138.5504382572
 20
61.1642496044
 11
-138.8629382572
 21
61.1642496044
  0
LINE
  5
30C
100
AcDbEntity
  8
0
100
AcDbLine
 62
7
  6
CONTINUOUS
 10
-134.2796051226
 20
61.2706325704
 11
-133.0296051226
 21
61.2706325704
  0
LINE
  5
30D
100
AcDbEntity
  8
0
100
AcDbLine
 62
7
  6
CONTINUOUS
 10
-132.7171051226
 20
61.2706325704
 11
-132.1962713919
 21
61.2706325704
  0
LINE
  5
30E
100
AcDbEntity
  8
0
100
AcDbLine
 62
7
  6
CONTINUOUS
 10
-44.5294213919
 20
61.4278487336
 11
-45.0290013919
 21
61.4278487336
  0
LINE
  5
30F
100
AcDbEntity
  8
0
100
AcDbLine
 62
7
  6
CONTINUOUS
 10
-43.0671042564
 20
61.5209184804
 11
-42.7873313837
 21
61.5209184804
  0
LINE
  5
310
100
AcDbEntity
  8
0
100
AcDbLine
 62
7
  6
CONTINUOUS
 10
-132.1962713919
 20
61.5897815431
 11
-132.7171051226
 21
61.5897815431
  0
LINE
  5
311
100
AcDbEntity
  8
0
100
AcDbLine
 62
7
  6
CONTINUOUS
 10
-133.0296051226
 20
61.5897815431
 11
-133.9150213919
 21
61.5897815431
  0
LINE
  5
312
100
AcDbEntity
  8
0
100
AcDbLine
 62
7
  6
CONTINUOUS
 10
-138.8629382572
 20
61.6429730261
 11
-138.4983545265
 21
61.6429730261
  0
LINE
  5
313
100
AcDbEntity
  8
0
100
AcDbLine
 62
7
  6
CONTINUOUS
 10
-138.0816882572
 20
61.8557389582
 11
-137.7691882572
 21
61.8557389582
  0
LINE
  5
314
100
AcDbEntity
  8
0
100
AcDbLine
 62
7
  6
CONTINUOUS
 10
-42.7862066686
 20
61.9303147645
 11
-43.0844061232
 21
61.9303147645
  0
LINE
  5
315
100
AcDbEntity
  8
0
100
AcDbLine
 62
7
  6
CONTINUOUS
 10
-137.7691882572
 20
62.1216963733
 11
-138.0816882572
 21
62.1216963733
  0
LINE
  5
316
100
AcDbEntity
  8
0
100
AcDbLine
 62
7
  6
CONTINUOUS
 10
-142.1962713919
 20
62.7599943185
 11
-140.6337713919
 21
62.7599943185
  0
LINE
  5
317
100
AcDbEntity
  8
0
100
AcDbLine
 62
7
  6
CONTINUOUS
 10
-138.6025213919
 20
62.7599943185
 11
-137.0921045265
 21
62.7599943185
  0
LINE
  5
318
100
AcDbEntity
  8
0
100
AcDbLine
 62
7
  6
CONTINUOUS
 10
-136.5712713919
 20
62.7599943185
 11
-135.0087713919
 21
62.7599943185
  0
LINE
  5
319
100
AcDbEntity
  8
0
100
AcDbLine
 62
7
  6
CONTINUOUS
 10
-132.7171051226
 20
63.0259517336
 11
-133.0296051226
 21
63.0259517336
  0
LINE
  5
31A
100
AcDbEntity
  8
0
100
AcDbLine
 62
7
  6
CONTINUOUS
 10
-134.6962713919
 20
63.0259517336
 11
-136.5712713919
 21
63.0259517336
  0
LINE
  5
31B
100
AcDbEntity
  8
0
100
AcDbLine
 62
7
  6
CONTINUOUS
 10
-137.0921045265
 20
63.0259517336
 11
-138.8629382572
 21
63.0259517336
  0
LINE
  5
31C
100
AcDbEntity
  8
0
100
AcDbLine
 62
7
  6
CONTINUOUS
 10
-139.2796045265
 20
63.0259517336
 11
-139.5921045265
 21
63.0259517336
  0
LINE
  5
31D
100
AcDbEntity
  8
0
100
AcDbLine
 62
7
  6
CONTINUOUS
 10
-140.3212713919
 20
63.0259517336
 11
-142.1962713919
 21
63.0259517336
  0
LINE
  5
31E
100
AcDbEntity
  8
0
100
AcDbLine
 62
7
  6
CONTINUOUS
 10
-142.6129381082
 20
63.0259517336
 11
-142.9254381082
 21
63.0259517336
  0
LINE
  5
31F
100
AcDbEntity
  8
0
100
AcDbLine
 62
7
  6
CONTINUOUS
 10
-144.3837713919
 20
63.0259517336
 11
-144.6962713919
 21
63.0259517336
  0
LINE
  5
320
100
AcDbEntity
  8
0
100
AcDbLine
 62
7
  6
CONTINUOUS
 10
-44.5070023919
 20
63.0423957336
 11
-45.0117743919
 21
63.0423957336
  0
LINE
  5
321
100
AcDbEntity
  8
0
100
AcDbLine
 62
7
  6
CONTINUOUS
 10
-46.1115393919
 20
63.0423957336
 11
-46.6278023919
 21
63.0423957336
  0
LINE
  5
322
100
AcDbEntity
  8
0
100
AcDbLine
 62
7
  6
CONTINUOUS
 10
-47.6658763919
 20
63.0423957336
 11
-48.1872383919
 21
63.0423957336
  0
LINE
  5
323
100
AcDbEntity
  8
0
100
AcDbLine
 62
7
  6
CONTINUOUS
 10
-49.4092783919
 20
63.0423957336
 11
-49.9307153919
 21
63.0423957336
  0
LINE
  5
324
100
AcDbEntity
  8
0
100
AcDbLine
 62
7
  6
CONTINUOUS
 10
-50.8982613919
 20
63.0423957336
 11
-51.4650893919
 21
63.0423957336
  0
LINE
  5
325
100
AcDbEntity
  8
0
100
AcDbLine
 62
7
  6
CONTINUOUS
 10
-48.6938473919
 20
63.0425457336
 11
-49.2156403919
 21
63.0425457336
  0
LINE
  5
326
100
AcDbEntity
  8
0
100
AcDbLine
 62
7
  6
CONTINUOUS
 10
-45.8777863919
 20
60.5426597336
 11
-46.1115393919
 21
63.0423957336
  0
LINE
  5
327
100
AcDbEntity
  8
0
100
AcDbLine
 62
7
  6
CONTINUOUS
 10
-46.4954423919
 20
62.1681357336
 11
-46.3882383919
 21
60.5426597336
  0
LWPOLYLINE
  5
328
100
AcDbEntity
  8
0
100
AcDbPolyline
 62
7
  6
CONTINUOUS
 90
39
 70
0
 10
-41.4644902604
 20
-28.1249395774
 10
-41.4650786469
 20
-28.0959446804
 10
-41.4662538997
 20
-28.0677843233
 10
-41.4680586016
 20
-28.040541468
 10
-41.4704501698
 20
-28.0141331525
 10
-41.4733008553
 20
-27.9883104913
 10
-41.4764595116
 20
-27.9630661149
 10
-41.4800772852
 20
-27.9384073927
 10
-41.4844798673
 20
-27.9141075471
 10
-41.4897755297
 20
-27.8902730771
 10
-41.4958560005
 20
-27.8667974837
 10
-41.5027221546
 20
-27.8431344924
 10
-41.5102766593
 20
-27.8192025098
 10
-41.5186168473
 20
-27.7950831292
 10
-41.5280355909
 20
-27.7704748557
 10
-41.5384911906
 20
-27.7451776382
 10
-41.5500253459
 20
-27.7193915278
 10
-41.5630560275
 20
-27.6934151836
 10
-41.5777444303
 20
-27.667099901
 10
-41.5939293594
 20
-27.6405943847
 10
-41.6115452017
 20
-27.6146434077
 10
-41.6306321028
 20
-27.5894240856
 10
-41.651149917
 20
-27.5647593028
 10
-41.6729125939
 20
-27.540862486
 10
-41.6957424352
 20
-27.5174442295
 10
-41.7198171391
 20
-27.494793939
 10
-41.7454837499
 20
-27.4739932581
 10
-41.7732093605
 20
-27.4555932745
 10
-41.8025268779
 20
-27.4390429005
 10
-41.8323820675
 20
-27.4237705174
 10
-41.8623225933
 20
-27.4093069971
 10
-41.8928007913
 20
-27.3961214676
 10
-41.9241194345
 20
-27.3850496938
 10
-41.956145866
 20
-27.3767299004
 10
-41.9890127426
 20
-27.3705238626
 10
-42.0234208082
 20
-27.3653526712
 10
-42.0596036441
 20
-27.3608566899
 10
-42.0973276688
 20
-27.3573955549
 10
-42.1365928825
 20
-27.3549692664
  0
LINE
  5
329
100
AcDbEntity
  8
0
100
AcDbLine
 62
7
  6
CONTINUOUS
 10
-43.8489133919
 20
-29.9931052664
 11
-43.8489133919
 21
-30.1851922664
  0
LINE
  5
32A
100
AcDbEntity
  8
0
100
AcDbLine
 62
7
  6
CONTINUOUS
 10
-43.586797598
 20
63.0131904302
 11
-43.586797598
 21
60.5426600611
  0
LINE
  5
32B
100
AcDbEntity
  8
0
100
AcDbLine
 62
7
  6
CONTINUOUS
 10
-43.3076913919
 20
-30.1851922664
 11
-43.3076913919
 21
-31.5931272664
  0
LINE
  5
32C
100
AcDbEntity
  8
0
100
AcDbLine
 62
7
  6
CONTINUOUS
 10
-43.0915413919
 20
-31.5931272664
 11
-43.0915413919
 21
-30.1851922664
  0
LINE
  5
32D
100
AcDbEntity
  8
0
100
AcDbLine
 62
7
  6
CONTINUOUS
 10
-43.0844061232
 20
61.9303147645
 11
-43.0844061232
 21
62.6165409169
  0
LINE
  5
32E
100
AcDbEntity
  8
0
100
AcDbLine
 62
7
  6
CONTINUOUS
 10
-43.0671042564
 20
60.5426600611
 11
-43.0671042564
 21
61.5209184804
  0
LINE
  5
32F
100
AcDbEntity
  8
0
100
AcDbLine
 62
7
  6
CONTINUOUS
 10
-42.7850463919
 20
-27.3549692664
 11
-42.7850463919
 21
-28.9545692664
  0
LINE
  5
330
100
AcDbEntity
  8
0
100
AcDbLine
 62
7
  6
CONTINUOUS
 10
-42.5684733919
 20
-28.7696582664
 11
-42.5684733919
 21
-27.5398792664
  0
LINE
  5
331
100
AcDbEntity
  8
0
100
AcDbLine
 62
7
  6
CONTINUOUS
 10
-42.5498973919
 20
-30.1851922664
 11
-42.5498973919
 21
-29.9931052664
  0
LINE
  5
332
100
AcDbEntity
  8
0
100
AcDbLine
 62
7
  6
CONTINUOUS
 10
-42.2452937028
 20
61.7095144518
 11
-42.2452937028
 21
61.7242857096
  0
LINE
  5
333
100
AcDbEntity
  8
0
100
AcDbLine
 62
7
  6
CONTINUOUS
 10
-41.1651823919
 20
-27.3549692664
 11
-41.1651823919
 21
-28.9545692664
  0
LINE
  5
334
100
AcDbEntity
  8
0
100
AcDbLine
 62
7
  6
CONTINUOUS
 10
-41.1305643919
 20
-29.9931052664
 11
-41.1305643919
 21
-31.5931272664
  0
LINE
  5
335
100
AcDbEntity
  8
0
100
AcDbLine
 62
7
  6
CONTINUOUS
 10
-40.9490313919
 20
-28.7629042664
 11
-40.9490313919
 21
-28.2284372664
  0
LINE
  5
336
100
AcDbEntity
  8
0
100
AcDbLine
 62
7
  6
CONTINUOUS
 10
-40.9490313919
 20
-28.0367722664
 11
-40.9490313919
 21
-27.5466342664
  0
LINE
  5
337
100
AcDbEntity
  8
0
100
AcDbLine
 62
7
  6
CONTINUOUS
 10
-40.9144133919
 20
-31.4014622664
 11
-40.9144133919
 21
-29.9931052664
  0
LINE
  5
338
100
AcDbEntity
  8
0
100
AcDbLine
 62
7
  6
CONTINUOUS
 10
-40.1034263919
 20
-31.5931272664
 11
-40.1034263919
 21
-31.4014622664
  0
LINE
  5
339
100
AcDbEntity
  8
0
100
AcDbLine
 62
7
  6
CONTINUOUS
 10
-40.0734523919
 20
-28.2284372664
 11
-40.0734523919
 21
-28.0367722664
  0
LINE
  5
33A
100
AcDbEntity
  8
0
100
AcDbLine
 62
7
  6
CONTINUOUS
 10
-39.9995723919
 20
-27.5466342664
 11
-39.9995723919
 21
-27.3549692664
  0
LINE
  5
33B
100
AcDbEntity
  8
0
100
AcDbLine
 62
7
  6
CONTINUOUS
 10
-39.9843743919
 20
-28.9545692664
 11
-39.9843743919
 21
-28.7629042664
  0
LINE
  5
33C
100
AcDbEntity
  8
0
100
AcDbLine
 62
7
  6
CONTINUOUS
 10
-39.7378273919
 20
-30.9493192664
 11
-39.7378273919
 21
-31.5931272664
  0
LINE
  5
33D
100
AcDbEntity
  8
0
100
AcDbLine
 62
7
  6
CONTINUOUS
 10
-39.5216773919
 20
-31.5931272664
 11
-39.5216773919
 21
-30.9493192664
  0
LINE
  5
33E
100
AcDbEntity
  8
0
100
AcDbLine
 62
7
  6
CONTINUOUS
 10
-39.1041513919
 20
-27.3549692664
 11
-39.1041513919
 21
-28.9545692664
  0
LINE
  5
33F
100
AcDbEntity
  8
0
100
AcDbLine
 62
7
  6
CONTINUOUS
 10
-38.8880003919
 20
-28.9545692664
 11
-38.8880003919
 21
-27.3549692664
  0
LINE
  5
340
100
AcDbEntity
  8
0
100
AcDbLine
 62
7
  6
CONTINUOUS
 10
-38.5181803919
 20
-27.3549692664
 11
-38.5181803919
 21
-28.9545692664
  0
LINE
  5
341
100
AcDbEntity
  8
0
100
AcDbLine
 62
7
  6
CONTINUOUS
 10
-38.3087843919
 20
-28.9545692664
 11
-38.3087843919
 21
-27.6549282664
  0
LINE
  5
342
100
AcDbEntity
  8
0
100
AcDbLine
 62
7
  6
CONTINUOUS
 10
-37.4576913919
 20
-27.3549692664
 11
-37.4576913919
 21
-28.6540492664
  0
LINE
  5
343
100
AcDbEntity
  8
0
100
AcDbLine
 62
7
  6
CONTINUOUS
 10
-37.2478723919
 20
-28.9545692664
 11
-37.2478723919
 21
-27.3549692664
  0
LWPOLYLINE
  5
344
100
AcDbEntity
  8
0
100
AcDbPolyline
 62
7
  6
CONTINUOUS
 90
22
 70
0
 10
-42.380878104
 20
62.3187726031
 10
-42.3819985299
 20
62.2838770588
 10
-42.3853711974
 20
62.2500642
 10
-42.3909961067
 20
62.2173340267
 10
-42.399057768
 20
62.1853773073
 10
-42.409371671
 20
62.1545032734
 10
-42.4213842845
 20
62.1256396202
 10
-42.4349882047
 20
62.0990332624
 10
-42.4502908353
 20
62.0744372853
 10
-42.4670608563
 20
62.0520386396
 10
-42.4852209706
 20
62.0319814925
 10
-42.5048484752
 20
62.0141216767
 10
-42.5259439412
 20
61.9982136418
 10
-42.5484418064
 20
61.9843172532
 10
-42.5724076329
 20
61.9723726455
 10
-42.5980386787
 20
61.9619546718
 10
-42.6254370819
 20
61.9529342492
 10
-42.6545007043
 20
61.9454404606
 10
-42.6851203898
 20
61.9394354076
 10
-42.717259753
 20
61.9349064576
 10
-42.7509551793
 20
61.9318662432
 10
-42.7862066686
 20
61.9303147645
  0
LINE
  5
345
100
AcDbEntity
  8
ASSI
100
AcDbLine
 62
7
  6
CONTINUOUS
 10
-2.4962713919
 20
44.7759517336
 11
-2.8963585316
 21
44.2545480219
  0
LINE
  5
346
100
AcDbEntity
  8
0
100
AcDbLine
 62
7
  6
CONTINUOUS
 10
-137.5608545265
 20
60.845100669
 11
-137.7691882572
 21
60.791909186
  0
LINE
  5
347
100
AcDbEntity
  8
0
100
AcDbLine
 62
7
  6
CONTINUOUS
 10
-137.7691882572
 20
60.5259517336
 11
-137.5087713919
 21
60.5791432213
  0
LINE
  5
348
100
AcDbEntity
  8
0
100
AcDbLine
 62
7
  6
CONTINUOUS
 10
-138.0816882572
 20
62.1216963733
 11
-138.3421045265
 21
62.0685048903
  0
LWPOLYLINE
  5
349
100
AcDbEntity
  8
0
100
AcDbPolyline
 62
7
  6
CONTINUOUS
 90
16
 70
0
 10
-42.7873313837
 20
61.5209184804
 10
-42.7613253504
 20
61.5197127909
 10
-42.7363650473
 20
61.5166729226
 10
-42.7124504743
 20
61.5117988755
 10
-42.6896349113
 20
61.5051037084
 10
-42.6678650783
 20
61.4965743625
 10
-42.6469811363
 20
61.4861716614
 10
-42.6270257455
 20
61.4739943455
 10
-42.6079562456
 20
61.4599436743
 10
-42.5894848162
 20
61.4436842499
 10
-42.5713089412
 20
61.4250454323
 10
-42.5537311368
 20
61.4041978615
 10
-42.5373711311
 20
61.3813180587
 10
-42.5224355001
 20
61.3564648644
 10
-42.5087176677
 20
61.3295794382
 10
-42.4962176341
 20
61.30066178
  0
LWPOLYLINE
  5
34A
100
AcDbEntity
  8
0
100
AcDbPolyline
 62
7
  6
CONTINUOUS
 90
19
 70
0
 10
-42.6756284324
 20
62.631255939
 10
-42.6469557779
 20
62.6265957383
 10
-42.6194399637
 20
62.6201199454
 10
-42.5930809897
 20
62.6118285602
 10
-42.5677349008
 20
62.6016013556
 10
-42.543545652
 20
62.5895585589
 10
-42.5209451093
 20
62.5760608511
 10
-42.5000749123
 20
62.5612159654
 10
-42.4807934213
 20
62.5449161687
 10
-42.4631075831
 20
62.5271989427
 10
-42.4469888678
 20
62.507983071
 10
-42.4324658053
 20
62.4873497701
 10
-42.419630933
 20
62.4655801712
 10
-42.4084180841
 20
62.4425046507
 10
-42.3988934253
 20
62.4182928323
 10
-42.3913479942
 20
62.3937347181
 10
-42.3858788032
 20
62.3690936422
 10
-42.3823888398
 20
62.3441062705
 10
-42.380878104
 20
62.3187726031
  0
LINE
  5
34B
100
AcDbEntity
  8
0
100
AcDbLine
 62
7
  6
CONTINUOUS
 10
-51.4650893919
 20
63.0423957336
 11
-50.6726243919
 21
60.5426597336
  0
LINE
  5
34C
100
AcDbEntity
  8
0
100
AcDbLine
 62
7
  6
CONTINUOUS
 10
-50.4217663919
 20
61.3217497336
 11
-50.8982613919
 21
63.0423957336
  0
LINE
  5
34D
100
AcDbEntity
  8
0
100
AcDbLine
 62
7
  6
CONTINUOUS
 10
-45.2712013919
 20
-28.9545692664
 11
-44.8211693919
 21
-27.6108042664
  0
LINE
  5
34E
100
AcDbEntity
  8
0
100
AcDbLine
 62
7
  6
CONTINUOUS
 10
-44.9195343919
 20
-27.3549692664
 11
-45.3761043919
 21
-28.7140702664
  0
LINE
  5
34F
100
AcDbEntity
  8
0
100
AcDbLine
 62
7
  6
CONTINUOUS
 10
-44.1976243919
 20
-28.9545692664
 11
-44.0304453919
 21
-28.4889162664
  0
LINE
  5
350
100
AcDbEntity
  8
0
100
AcDbLine
 62
7
  6
CONTINUOUS
 10
-42.5321663919
 20
-31.5931272664
 11
-42.3649873919
 21
-31.1274742664
  0
LINE
  5
351
100
AcDbEntity
  8
0
100
AcDbLine
 62
7
  6
CONTINUOUS
 10
-43.9633203919
 20
-28.2972512664
 11
-43.7050703919
 21
-27.5864232664
  0
LINE
  5
352
100
AcDbEntity
  8
0
100
AcDbLine
 62
7
  6
CONTINUOUS
 10
-42.2982853919
 20
-30.9358092664
 11
-42.0396123919
 21
-30.2249932664
  0
LINE
  5
353
100
AcDbEntity
  8
0
100
AcDbLine
 62
7
  6
CONTINUOUS
 10
-42.1530583919
 20
-29.9931052664
 11
-42.7546503919
 21
-31.5931272664
  0
LINE
  5
354
100
AcDbEntity
  8
0
100
AcDbLine
 62
7
  6
CONTINUOUS
 10
-43.8185163919
 20
-27.3549692664
 11
-44.4205303919
 21
-28.9545692664
  0
LINE
  5
355
100
AcDbEntity
  8
ASSI
100
AcDbLine
 62
7
  6
CONTINUOUS
 10
-2.4962713919
 20
36.2759517336
 11
-2.0961842522
 21
36.7973554454
  0
LINE
  5
356
100
AcDbEntity
  8
0
100
AcDbLine
 62
7
  6
CONTINUOUS
 10
-138.2900213919
 20
61.8025474752
 11
-138.0816882572
 21
61.8557389582
  0
LINE
  5
357
100
AcDbEntity
  8
RACCORDO
100
AcDbLine
 62
7
  6
CONTINUOUS
 10
-165.4962713919
 20
75.0259517336
 11
-126.3462713919
 21
75.0259517336
  0
LINE
  5
358
100
AcDbEntity
  8
ASSI
100
AcDbLine
 62
7
  6
CONTINUOUS
 10
-122.0462713919
 20
75.0259517336
 11
-61.1962713919
 21
75.0259517336
  0
LINE
  5
359
100
AcDbEntity
  8
RACCORDO
100
AcDbLine
 62
7
  6
CONTINUOUS
 10
-57.1962713919
 20
75.0259517336
 11
-17.8962713919
 21
75.0259517336
  0
LWPOLYLINE
  5
35A
100
AcDbEntity
  8
0
100
AcDbPolyline
 62
7
  6
CONTINUOUS
 90
16
 70
0
 10
-42.2990925735
 20
62.9868720977
 10
-42.3612904826
 20
63.0070278782
 10
-42.4270161153
 20
63.0243926773
 10
-42.4962694715
 20
63.038966495
 10
-42.5691533693
 20
63.0506379195
 10
-42.6455649906
 20
63.0595183625
 10
-42.7251958815
 20
63.0659420599
 10
-42.8079257194
 20
63.0700511606
 10
-42.8938748269
 20
63.0717035157
 10
-42.9830957173
 20
63.0708069143
 10
-43.0756220408
 20
63.0672759663
 10
-43.1714201471
 20
63.0611960619
 10
-43.2704415997
 20
63.0527311602
 10
-43.3726702529
 20
63.0419359142
 10
-43.4781222523
 20
63.0287556709
 10
-43.586797598
 20
63.0131904302
  0
LINE
  5
35B
100
AcDbEntity
  8
0
100
AcDbLine
 62
7
  6
CONTINUOUS
 10
-47.8011613919
 20
62.1749407336
 11
-47.1890353919
 21
60.5426597336
  0
LINE
  5
35C
100
AcDbEntity
  8
0
100
AcDbLine
 62
7
  6
CONTINUOUS
 10
-47.1495953919
 20
61.6545347336
 11
-47.6658763919
 21
63.0423957336
  0
LWPOLYLINE
  5
35D
100
AcDbEntity
  8
0
100
AcDbPolyline
 62
7
  6
CONTINUOUS
 90
6
 70
0
 10
-42.4962176341
 20
61.30066178
 10
-42.4701636613
 20
61.2246092906
 10
-42.4445598214
 20
61.1463846222
 10
-42.4194061144
 20
61.065987775
 10
-42.3950686968
 20
60.9832458181
 10
-42.3466457906
 20
60.8117641595
  0
LINE
  5
35E
100
AcDbEntity
  8
0
100
AcDbLine
 62
7
  6
CONTINUOUS
 10
-43.7400213919
 20
60.5426597336
 11
-44.5070023919
 21
63.0423957336
  0
LINE
  5
35F
100
AcDbEntity
  8
0
100
AcDbLine
 62
7
  6
CONTINUOUS
 10
-42.3466457906
 20
60.8117641595
 11
-42.2680504377
 21
60.5426600611
  0
LINE
  5
360
100
AcDbEntity
  8
0
100
AcDbLine
 62
7
  6
CONTINUOUS
 10
-44.4251413919
 20
61.0416957336
 11
-44.2899693919
 21
60.5426597336
  0
LINE
  5
361
100
AcDbEntity
  8
0
100
AcDbLine
 62
7
  6
CONTINUOUS
 10
-41.8829908265
 20
60.9885650655
 11
-41.9445261489
 21
61.2192324092
  0
LINE
  5
362
100
AcDbEntity
  8
0
100
AcDbLine
 62
7
  6
CONTINUOUS
 10
-41.7661463394
 20
60.5426600611
 11
-41.8829908265
 21
60.9885650655
  0
LINE
  5
363
100
AcDbEntity
  8
0
100
AcDbLine
 62
7
  6
CONTINUOUS
 10
-44.7691913919
 20
62.3555317336
 11
-44.5294213919
 21
61.4278487336
  0
LWPOLYLINE
  5
364
100
AcDbEntity
  8
0
100
AcDbPolyline
 62
7
  6
CONTINUOUS
 90
19
 70
0
 10
-41.9445261489
 20
61.2192324092
 10
-41.9553740863
 20
61.2614966091
 10
-41.9668455439
 20
61.3022817174
 10
-41.9789405218
 20
61.3415877341
 10
-41.9915959788
 20
61.3795261286
 10
-42.004874956
 20
61.4159854314
 10
-42.0189665765
 20
61.4506312341
 10
-42.0339243572
 20
61.4833848296
 10
-42.0496947813
 20
61.514324925
 10
-42.0663064213
 20
61.5433532325
 10
-42.0838439668
 20
61.570544272
 10
-42.1022227284
 20
61.5958235236
 10
-42.1212172104
 20
61.6188691402
 10
-42.1408400087
 20
61.6395767416
 10
-42.1610785275
 20
61.658050708
 10
-42.1816694846
 20
61.6742823328
 10
-42.2025251191
 20
61.688268714
 10
-42.2237331918
 20
61.7000127536
 10
-42.2452937028
 20
61.7095144518
  0
LINE
  5
365
100
AcDbEntity
  8
0
100
AcDbLine
 62
7
  6
CONTINUOUS
 10
-39.1716983919
 20
-29.9931052664
 11
-39.6310183919
 21
-30.7618762664
  0
LINE
  5
366
100
AcDbEntity
  8
0
100
AcDbLine
 62
7
  6
CONTINUOUS
 10
-39.5216773919
 20
-30.9493192664
 11
-38.9179743919
 21
-29.9931052664
  0
LINE
  5
367
100
AcDbEntity
  8
ASSI
100
AcDbLine
 62
7
  6
CONTINUOUS
 10
-63.4462713919
 20
81.0259517336
 11
-62.9248676801
 21
80.625864594
  0
LINE
  5
368
100
AcDbEntity
  8
ASSI
100
AcDbLine
 62
7
  6
CONTINUOUS
 10
-58.7961842522
 20
84.7545480219
 11
-59.1962713919
 21
85.2759517336
  0
LINE
  5
369
100
AcDbEntity
  8
ASSI
100
AcDbLine
 62
7
  6
CONTINUOUS
 10
-54.9462713919
 20
81.0259517336
 11
-55.4676751036
 21
81.4260388733
  0
LINE
  5
36A
100
AcDbEntity
  8
ASSI
100
AcDbLine
 62
7
  6
CONTINUOUS
 10
1.7537286081
 20
40.5259517336
 11
1.2323248964
 21
40.9260388733
  0
LINE
  5
36B
100
AcDbEntity
  8
RACCORDO
100
AcDbLine
 62
7
  6
CONTINUOUS
 10
-7.8962713919
 20
65.0259517336
 11
-7.8962713919
 21
42.5259517336
  0
LINE
  5
36C
100
AcDbEntity
  8
ASSI
100
AcDbLine
 62
7
  6
CONTINUOUS
 10
-7.8962713919
 20
38.5259517336
 11
-7.8962713919
 21
-7.2240482664
  0
LINE
  5
36D
100
AcDbEntity
  8
RACCORDO
100
AcDbLine
 62
7
  6
CONTINUOUS
 10
-7.8962713919
 20
-11.7240482664
 11
-7.8962713919
 21
-33.9740482664
  0
LINE
  5
36E
100
AcDbEntity
  8
ASSI
100
AcDbLine
 62
7
  6
CONTINUOUS
 10
-2.8963585316
 20
36.7973554454
 11
-2.4962713919
 21
36.2759517336
  0
LINE
  5
36F
100
AcDbEntity
  8
ASSI
100
AcDbLine
 62
7
  6
CONTINUOUS
 10
-2.0961842522
 20
44.2545480219
 11
-2.4962713919
 21
44.7759517336
  0
LINE
  5
370
100
AcDbEntity
  8
ASSI
100
AcDbLine
 62
7
  6
CONTINUOUS
 10
-208.0077260708
 20
-54.2240482664
 11
-209.5077260708
 21
-54.2240482664
  0
LINE
  5
371
100
AcDbEntity
  8
ASSI
100
AcDbLine
 62
7
  6
CONTINUOUS
 10
-208.0077260708
 20
-53.7026445546
 11
-209.5077260708
 21
-53.7026445546
  0
LINE
  5
372
100
AcDbEntity
  8
ASSI
100
AcDbLine
 62
7
  6
CONTINUOUS
 10
-208.0077260708
 20
-50.374135406
 11
-209.5077260708
 21
-50.374135406
  0
LINE
  5
373
100
AcDbEntity
  8
ASSI
100
AcDbLine
 62
7
  6
CONTINUOUS
 10
-209.5077260708
 20
-49.9740482664
 11
-208.0077260708
 21
-49.9740482664
  0
LINE
  5
374
100
AcDbEntity
  8
ASSI
100
AcDbLine
 62
7
  6
CONTINUOUS
 10
-208.0077260708
 20
-49.5739611267
 11
-209.5077260708
 21
-49.5739611267
  0
LINE
  5
375
100
AcDbEntity
  8
ASSI
100
AcDbLine
 62
7
  6
CONTINUOUS
 10
-208.0077260708
 20
-46.8019038812
 11
-209.5077260708
 21
-46.8019038812
  0
LINE
  5
376
100
AcDbEntity
  8
RACCORDO
100
AcDbLine
 62
7
  6
CONTINUOUS
 10
-208.0077260708
 20
-43.9740482664
 11
-209.5077260708
 21
-43.9740482664
  0
LINE
  5
377
100
AcDbEntity
  8
RACCORDO
100
AcDbLine
 62
253
  6
CONTINUOUS
 10
-208.0077260708
 20
-33.9740482664
 11
-209.5077260708
 21
-33.9740482664
  0
LINE
  5
378
100
AcDbEntity
  8
ASSI
100
AcDbLine
 62
7
  6
CONTINUOUS
 10
-209.5077260708
 20
-11.7240482664
 11
-208.0077260708
 21
-11.7240482664
  0
LINE
  5
379
100
AcDbEntity
  8
ASSI
100
AcDbLine
 62
7
  6
CONTINUOUS
 10
-209.5077260708
 20
-7.2240482664
 11
-208.0077260708
 21
-7.2240482664
  0
LINE
  5
37A
100
AcDbEntity
  8
ASSI
100
AcDbLine
 62
7
  6
CONTINUOUS
 10
-209.5077260708
 20
-54.2240482664
 11
-209.5077260708
 21
-43.9740482664
  0
LINE
  5
37B
100
AcDbEntity
  8
RACCORDO
100
AcDbLine
 62
7
  6
CONTINUOUS
 10
-209.5077260708
 20
-11.7240482664
 11
-209.5077260708
 21
-43.9740482664
  0
LINE
  5
37C
100
AcDbEntity
  8
ASSI
100
AcDbLine
 62
7
  6
CONTINUOUS
 10
-209.5077260708
 20
-11.7240482664
 11
-209.5077260708
 21
44.7759517336
  0
LINE
  5
37D
100
AcDbEntity
  8
RACCORDO
100
AcDbLine
 62
7
  6
CONTINUOUS
 10
-209.5077260708
 20
44.7759517336
 11
-209.5077260708
 21
75.0259517336
  0
LINE
  5
37E
100
AcDbEntity
  8
ASSI
100
AcDbLine
 62
7
  6
CONTINUOUS
 10
-209.5077260708
 20
75.0259517336
 11
-209.5077260708
 21
85.2759517336
  0
LINE
  5
37F
100
AcDbEntity
  8
RACCORDO
100
AcDbLine
 62
7
  6
CONTINUOUS
 10
-208.0077260708
 20
75.0259517336
 11
-208.0077260708
 21
44.7759517336
  0
LINE
  5
380
100
AcDbEntity
  8
RACCORDO
100
AcDbLine
 62
7
  6
CONTINUOUS
 10
-208.0077260708
 20
-11.7240482664
 11
-208.0077260708
 21
-43.9740482664
  0
LINE
  5
381
100
AcDbEntity
  8
ASSI
100
AcDbLine
 62
7
  6
CONTINUOUS
 10
-208.0077260708
 20
-43.9740482664
 11
-208.0077260708
 21
-54.2240482664
  0
LINE
  5
382
100
AcDbEntity
  8
ASSI
100
AcDbLine
 62
7
  6
CONTINUOUS
 10
-208.0077260708
 20
-11.7240482664
 11
-208.0077260708
 21
44.7759517336
  0
LINE
  5
383
100
AcDbEntity
  8
ASSI
100
AcDbLine
 62
7
  6
CONTINUOUS
 10
-208.0077260708
 20
75.0259517336
 11
-208.0077260708
 21
85.2759517336
  0
LINE
  5
384
100
AcDbEntity
  8
ASSI
100
AcDbLine
 62
7
  6
CONTINUOUS
 10
-209.5077260708
 20
36.2759517336
 11
-208.0077260708
 21
36.2759517336
  0
LINE
  5
385
100
AcDbEntity
  8
ASSI
100
AcDbLine
 62
7
  6
CONTINUOUS
 10
-208.0077260708
 20
36.7973554454
 11
-209.5077260708
 21
36.7973554454
  0
LINE
  5
386
100
AcDbEntity
  8
ASSI
100
AcDbLine
 62
7
  6
CONTINUOUS
 10
-208.0077260708
 20
40.125864594
 11
-209.5077260708
 21
40.125864594
  0
LINE
  5
387
100
AcDbEntity
  8
ASSI
100
AcDbLine
 62
7
  6
CONTINUOUS
 10
-209.5077260708
 20
40.5259517336
 11
-208.0077260708
 21
40.5259517336
  0
LINE
  5
388
100
AcDbEntity
  8
ASSI
100
AcDbLine
 62
7
  6
CONTINUOUS
 10
-208.0077260708
 20
40.9260388733
 11
-209.5077260708
 21
40.9260388733
  0
LINE
  5
389
100
AcDbEntity
  8
ASSI
100
AcDbLine
 62
7
  6
CONTINUOUS
 10
-208.0077260708
 20
44.2545480219
 11
-209.5077260708
 21
44.2545480219
  0
LINE
  5
38A
100
AcDbEntity
  8
ASSI
100
AcDbLine
 62
7
  6
CONTINUOUS
 10
-209.5077260708
 20
44.7759517336
 11
-208.0077260708
 21
44.7759517336
  0
LINE
  5
38B
100
AcDbEntity
  8
RACCORDO
100
AcDbLine
 62
253
  6
CONTINUOUS
 10
-208.0077260708
 20
65.0259517336
 11
-209.5077260708
 21
65.0259517336
  0
LINE
  5
38C
100
AcDbEntity
  8
RACCORDO
100
AcDbLine
 62
7
  6
CONTINUOUS
 10
-208.0077260708
 20
75.0259517336
 11
-209.5077260708
 21
75.0259517336
  0
LINE
  5
38D
100
AcDbEntity
  8
ASSI
100
AcDbLine
 62
7
  6
CONTINUOUS
 10
-209.5077260708
 20
77.8538073485
 11
-208.0077260708
 21
77.8538073485
  0
LINE
  5
38E
100
AcDbEntity
  8
ASSI
100
AcDbLine
 62
7
  6
CONTINUOUS
 10
-208.0077260708
 20
80.625864594
 11
-209.5077260708
 21
80.625864594
  0
LINE
  5
38F
100
AcDbEntity
  8
ASSI
100
AcDbLine
 62
7
  6
CONTINUOUS
 10
-209.5077260708
 20
81.0259517336
 11
-208.0077260708
 21
81.0259517336
  0
LINE
  5
390
100
AcDbEntity
  8
ASSI
100
AcDbLine
 62
7
  6
CONTINUOUS
 10
-208.0077260708
 20
81.4260388733
 11
-209.5077260708
 21
81.4260388733
  0
LINE
  5
391
100
AcDbEntity
  8
ASSI
100
AcDbLine
 62
7
  6
CONTINUOUS
 10
-208.0077260708
 20
84.7545480219
 11
-209.5077260708
 21
84.7545480219
  0
LINE
  5
392
100
AcDbEntity
  8
ASSI
100
AcDbLine
 62
7
  6
CONTINUOUS
 10
-209.5077260708
 20
85.2759517336
 11
-208.0077260708
 21
85.2759517336
  0
ARC
  5
393
100
AcDbEntity
  8
RACCORDO
100
AcDbCircle
 62
7
  6
CONTINUOUS
 10
-165.4962713919
 20
-33.9740482664
 40
10.0
100
AcDbArc
 50
180.0
 51
270.0
  0
ARC
  5
394
100
AcDbEntity
  8
ASSI
100
AcDbCircle
 62
7
  6
CONTINUOUS
 10
-180.8962713919
 20
-9.4740482664
 40
3.75
100
AcDbArc
 50
276.1245379034
 51
327.7690473645
  0
ARC
  5
395
100
AcDbEntity
  8
ASSI
100
AcDbCircle
 62
7
  6
CONTINUOUS
 10
-180.8962713919
 20
-9.4740482664
 40
3.75
100
AcDbArc
 50
186.1245379034
 51
263.8754620966
  0
ARC
  5
396
100
AcDbEntity
  8
ASSI
100
AcDbCircle
 62
7
  6
CONTINUOUS
 10
-180.8962713919
 20
-9.4740482664
 40
3.75
100
AcDbArc
 50
96.1245379034
 51
173.8754620966
  0
ARC
  5
397
100
AcDbEntity
  8
ASSI
100
AcDbCircle
 62
7
  6
CONTINUOUS
 10
-180.8962713919
 20
-9.4740482664
 40
3.75
100
AcDbArc
 50
32.2309526355
 51
83.8754620966
  0
ARC
  5
398
100
AcDbEntity
  8
ASSI
100
AcDbCircle
 62
7
  6
CONTINUOUS
 10
-124.1962713919
 20
-49.9740482664
 40
3.75
100
AcDbArc
 50
6.1245379034
 51
57.7690473645
  0
ARC
  5
399
100
AcDbEntity
  8
ASSI
100
AcDbCircle
 62
7
  6
CONTINUOUS
 10
-124.1962713919
 20
-49.9740482664
 40
3.75
100
AcDbArc
 50
276.1245379034
 51
353.8754620966
  0
ARC
  5
39A
100
AcDbEntity
  8
ASSI
100
AcDbCircle
 62
7
  6
CONTINUOUS
 10
-124.1962713919
 20
-49.9740482664
 40
3.75
100
AcDbArc
 50
186.1245379034
 51
263.8754620966
  0
ARC
  5
39B
100
AcDbEntity
  8
ASSI
100
AcDbCircle
 62
7
  6
CONTINUOUS
 10
-124.1962713919
 20
-49.9740482664
 40
3.75
100
AcDbArc
 50
122.2309526355
 51
173.8754620966
  0
ARC
  5
39C
100
AcDbEntity
  8
RACCORDO
100
AcDbCircle
 62
7
  6
CONTINUOUS
 10
-120.0125228931
 20
11.7759517336
 40
2.0
100
AcDbArc
 50
90.0
 51
141.3178125465
  0
ARC
  5
39D
100
AcDbEntity
  8
RACCORDO
100
AcDbCircle
 62
7
  6
CONTINUOUS
 10
-129.3800198907
 20
11.7759517336
 40
2.0
100
AcDbArc
 50
38.6821874535
 51
90.0
  0
CIRCLE
  5
39E
100
AcDbEntity
  8
ASSI
100
AcDbCircle
 62
7
  6
CONTINUOUS
 10
-151.6962713919
 20
-29.4740482664
 40
1.5
  0
ARC
  5
39F
100
AcDbEntity
  8
0
100
AcDbCircle
 62
7
  6
CONTINUOUS
 10
-125.1962713919
 20
15.5259517336
 40
34.0
100
AcDbArc
 50
90.0
 51
178.3145869598
  0
ARC
  5
3A0
100
AcDbEntity
  8
0
100
AcDbCircle
 62
7
  6
CONTINUOUS
 10
-125.1962713919
 20
15.5259517336
 40
34.0
100
AcDbArc
 50
181.6854130402
 51
270.0
  0
ARC
  5
3A1
100
AcDbEntity
  8
RACCORDO
100
AcDbCircle
 62
7
  6
CONTINUOUS
 10
-165.4962713919
 20
65.0259517336
 40
10.0
100
AcDbArc
 50
90.0
 51
180.0
  0
ARC
  5
3A2
100
AcDbEntity
  8
RACCORDO
100
AcDbCircle
 62
7
  6
CONTINUOUS
 10
-124.6962713919
 20
15.5259517336
 40
4.0
100
AcDbArc
 50
38.6821874535
 51
141.3178125465
  0
ARC
  5
3A3
100
AcDbEntity
  8
RACCORDO
100
AcDbCircle
 62
7
  6
CONTINUOUS
 10
-124.6962713919
 20
15.5259517336
 40
4.0
100
AcDbArc
 50
218.6821874535
 51
321.3178125465
  0
ARC
  5
3A4
100
AcDbEntity
  8
ASSI
100
AcDbCircle
 62
7
  6
CONTINUOUS
 10
-170.4962713919
 20
40.5259517336
 40
4.0
100
AcDbArc
 50
214.2288663278
 51
145.7711336722
  0
ARC
  5
3A5
100
AcDbEntity
  8
ASSI
100
AcDbCircle
 62
7
  6
CONTINUOUS
 10
-124.1962713919
 20
70.0259517336
 40
4.0
100
AcDbArc
 50
122.5136146332
 51
57.4863853668
  0
ARC
  5
3A6
100
AcDbEntity
  8
RACCORDO
100
AcDbCircle
 62
7
  6
CONTINUOUS
 10
-120.0125228931
 20
19.2759517336
 40
2.0
100
AcDbArc
 50
218.6821874535
 51
270.0
  0
ARC
  5
3A7
100
AcDbEntity
  8
RACCORDO
100
AcDbCircle
 62
7
  6
CONTINUOUS
 10
-129.3800198907
 20
19.2759517336
 40
2.0
100
AcDbArc
 50
270.0
 51
321.3178125465
  0
CIRCLE
  5
3A8
100
AcDbEntity
  8
ASSI
100
AcDbCircle
 62
7
  6
CONTINUOUS
 10
-151.6962713919
 20
60.5259517336
 40
1.5
  0
CIRCLE
  5
3A9
100
AcDbEntity
  8
0
100
AcDbCircle
 62
7
  6
CONTINUOUS
 10
-124.6962713919
 20
15.5259517336
 40
1.5
  0
ARC
  5
3AA
100
AcDbEntity
  8
RACCORDO
100
AcDbCircle
 62
7
  6
CONTINUOUS
 10
-17.8962713919
 20
-33.9740482664
 40
10.0
100
AcDbArc
 50
270.0
 51
360.0
  0
ARC
  5
3AB
100
AcDbEntity
  8
ASSI
100
AcDbCircle
 62
7
  6
CONTINUOUS
 10
-12.8962713919
 20
-9.4740482664
 40
4.0
100
AcDbArc
 50
34.2288663278
 51
325.7711336722
  0
ARC
  5
3AC
100
AcDbEntity
  8
ASSI
100
AcDbCircle
 62
7
  6
CONTINUOUS
 10
-59.1962713919
 20
-38.9740482664
 40
4.0
100
AcDbArc
 50
302.5136146332
 51
237.4863853668
  0
ARC
  5
3AD
100
AcDbEntity
  8
RACCORDO
100
AcDbCircle
 62
7
  6
CONTINUOUS
 10
-54.0125228931
 20
11.7759517336
 40
2.0
100
AcDbArc
 50
90.0
 51
141.3178125465
  0
ARC
  5
3AE
100
AcDbEntity
  8
RACCORDO
100
AcDbCircle
 62
7
  6
CONTINUOUS
 10
-63.3800198907
 20
11.7759517336
 40
2.0
100
AcDbArc
 50
38.6821874535
 51
90.0
  0
CIRCLE
  5
3AF
100
AcDbEntity
  8
ASSI
100
AcDbCircle
 62
7
  6
CONTINUOUS
 10
-31.6962713919
 20
-29.4740482664
 40
1.5
  0
ARC
  5
3B0
100
AcDbEntity
  8
0
100
AcDbCircle
 62
7
  6
CONTINUOUS
 10
-58.1962713919
 20
15.5259517336
 40
34.0
100
AcDbArc
 50
1.6854130402
 51
90.0
  0
ARC
  5
3B1
100
AcDbEntity
  8
0
100
AcDbCircle
 62
7
  6
CONTINUOUS
 10
-58.1962713919
 20
15.5259517336
 40
34.0
100
AcDbArc
 50
270.0
 51
358.3145869598
  0
ARC
  5
3B2
100
AcDbEntity
  8
RACCORDO
100
AcDbCircle
 62
7
  6
CONTINUOUS
 10
-17.8962713919
 20
65.0259517336
 40
10.0
100
AcDbArc
 50
0.0
 51
90.0
  0
ARC
  5
3B3
100
AcDbEntity
  8
0
100
AcDbCircle
 62
7
  6
CONTINUOUS
 10
-91.6962713919
 20
15.5259517336
 40
5.0
100
AcDbArc
 50
20.4873151147
 51
69.5126848853
  0
ARC
  5
3B4
100
AcDbEntity
  8
0
100
AcDbCircle
 62
7
  6
CONTINUOUS
 10
-91.6962713919
 20
15.5259517336
 40
5.0
100
AcDbArc
 50
290.4873151147
 51
339.5126848853
  0
ARC
  5
3B5
100
AcDbEntity
  8
0
100
AcDbCircle
 62
7
  6
CONTINUOUS
 10
-91.6962713919
 20
15.5259517336
 40
5.0
100
AcDbArc
 50
110.4873151147
 51
159.5126848853
  0
ARC
  5
3B6
100
AcDbEntity
  8
0
100
AcDbCircle
 62
7
  6
CONTINUOUS
 10
-91.6962713919
 20
15.5259517336
 40
5.0
100
AcDbArc
 50
200.4873151147
 51
249.5126848853
  0
ARC
  5
3B7
100
AcDbEntity
  8
RACCORDO
100
AcDbCircle
 62
7
  6
CONTINUOUS
 10
-58.6962713919
 20
15.5259517336
 40
4.0
100
AcDbArc
 50
38.6821874535
 51
141.3178125465
  0
ARC
  5
3B8
100
AcDbEntity
  8
RACCORDO
100
AcDbCircle
 62
7
  6
CONTINUOUS
 10
-58.6962713919
 20
15.5259517336
 40
4.0
100
AcDbArc
 50
218.6821874535
 51
321.3178125465
  0
ARC
  5
3B9
100
AcDbEntity
  8
ASSI
100
AcDbCircle
 62
7
  6
CONTINUOUS
 10
-59.1962713919
 20
81.0259517336
 40
3.75
100
AcDbArc
 50
186.1245379034
 51
237.7690473645
  0
ARC
  5
3BA
100
AcDbEntity
  8
ASSI
100
AcDbCircle
 62
7
  6
CONTINUOUS
 10
-59.1962713919
 20
81.0259517336
 40
3.75
100
AcDbArc
 50
96.1245379034
 51
173.8754620966
  0
ARC
  5
3BB
100
AcDbEntity
  8
ASSI
100
AcDbCircle
 62
7
  6
CONTINUOUS
 10
-59.1962713919
 20
81.0259517336
 40
3.75
100
AcDbArc
 50
6.1245379034
 51
83.8754620966
  0
ARC
  5
3BC
100
AcDbEntity
  8
ASSI
100
AcDbCircle
 62
7
  6
CONTINUOUS
 10
-59.1962713919
 20
81.0259517336
 40
3.75
100
AcDbArc
 50
302.2309526355
 51
353.8754620966
  0
ARC
  5
3BD
100
AcDbEntity
  8
ASSI
100
AcDbCircle
 62
7
  6
CONTINUOUS
 10
-2.4962713919
 20
40.5259517336
 40
3.75
100
AcDbArc
 50
96.1245379034
 51
147.7690473645
  0
ARC
  5
3BE
100
AcDbEntity
  8
ASSI
100
AcDbCircle
 62
7
  6
CONTINUOUS
 10
-2.4962713919
 20
40.5259517336
 40
3.75
100
AcDbArc
 50
6.1245379034
 51
83.8754620966
  0
ARC
  5
3BF
100
AcDbEntity
  8
ASSI
100
AcDbCircle
 62
7
  6
CONTINUOUS
 10
-2.4962713919
 20
40.5259517336
 40
3.75
100
AcDbArc
 50
276.1245379034
 51
353.8754620966
  0
ARC
  5
3C0
100
AcDbEntity
  8
ASSI
100
AcDbCircle
 62
7
  6
CONTINUOUS
 10
-2.4962713919
 20
40.5259517336
 40
3.75
100
AcDbArc
 50
212.2309526355
 51
263.8754620966
  0
ARC
  5
3C1
100
AcDbEntity
  8
RACCORDO
100
AcDbCircle
 62
7
  6
CONTINUOUS
 10
-54.0125228931
 20
19.2759517336
 40
2.0
100
AcDbArc
 50
218.6821874535
 51
270.0
  0
ARC
  5
3C2
100
AcDbEntity
  8
RACCORDO
100
AcDbCircle
 62
7
  6
CONTINUOUS
 10
-63.3800198907
 20
19.2759517336
 40
2.0
100
AcDbArc
 50
270.0
 51
321.3178125465
  0
CIRCLE
  5
3C3
100
AcDbEntity
  8
ASSI
100
AcDbCircle
 62
7
  6
CONTINUOUS
 10
-31.6962713919
 20
60.5259517336
 40
1.5
  0
CIRCLE
  5
3C4
100
AcDbEntity
  8
0
100
AcDbCircle
 62
7
  6
CONTINUOUS
 10
-58.6962713919
 20
15.5259517336
 40
1.5
  0
ENDSEC
  0
SECTION
  2
OBJECTS
  0
DICTIONARY
  5
C
100
AcDbDictionary
280
0
281
1
  3
ACAD_GROUP
350
D
  3
ACAD_MLINESTYLE
350
17
  3
ACAD_LAYOUT
350
1A
  3
ACAD_PLOTSETTINGS
350
19
  3
ACAD_PLOTSTYLENAME
350
E
  0
DICTIONARY
  5
D
102
{ACAD_REACTORS
330
C
102
}
100
AcDbDictionary
280
0
281
1
  0
ACDBDICTIONARYWDFLT
  5
E
102
{ACAD_REACTORS
330
C
102
}
100
AcDbDictionary
281
1
  3
Normal
350
F
100
AcDbDictionaryWithDefault
340
F
  0
DICTIONARY
  5
17
102
{ACAD_REACTORS
330
C
102
}
100
AcDbDictionary
280
0
281
1
  3
Standard
350
18
  0
DICTIONARY
  5
19
102
{ACAD_REACTORS
330
C
102
}
100
AcDbDictionary
281
1
  0
DICTIONARY
  5
1A
102
{ACAD_REACTORS
330
C
102
}
100
AcDbDictionary
281
1
  3
Model
350
3C5
  3
Layout1
350
3C6
  0
ACDBPLACEHOLDER
  5
F
102
{ACAD_REACTORS
330
E
102
}
  0
MLINESTYLE
  5
18
102
{ACAD_REACTORS
330
17
102
}
100
AcDbMlineStyle
  2
STANDARD
 70
0
  3

 62
256
 51
90.0
 52
90.0
 71
2
 49
0.5
 62
256
  6
BYLAYER
 49
-0.5
 62
256
  6
BYLAYER
  0
LAYOUT
  5
3C5
102
{ACAD_REACTORS
330
1A
102
}
100
AcDbPlotSettings
  1

  2
none_device
  4
ISO_A4_(297.00_x_210.00_MM)
  6

 40
0.0
 41
0.0
 42
0.0
 43
0.0
 44
297.0
 45
210.0
 46
0.0
 47
0.0
 48
0.0
 49
0.0
140
0.0
141
0.0
142
1.0
143
1.0
 70
1024
 72
1
 73
0
 74
0
  7

 75
0
147
1.0
148
0.0
149
0.0
100
AcDbLayout
  1
Model
 70
0
 71
0
 10
0.0
 20
0.0
 11
297.0
 21
210.0
 12
0.0
 22
0.0
 32
0.0
 14
0.0
 24
0.0
 34
0.0
 15
0.0
 25
0.0
 35
0.0
146
0.0
 13
0.0
 23
0.0
 33
0.0
 16
1.0
 26
0.0
 36
0.0
 17
0.0
 27
1.0
 37
0.0
 76
0
330
20F
345
0
346
0
  0
LAYOUT
  5
3C6
102
{ACAD_REACTORS
330
1A
102
}
100
AcDbPlotSettings
  1

  2
none_device
  4
ISO_A4_(297.00_x_210.00_MM)
  6

 40
0.0
 41
0.0
 42
0.0
 43
0.0
 44
297.0
 45
210.0
 46
0.0
 47
0.0
 48
0.0
 49
0.0
140
0.0
141
0.0
142
1.0
143
1.0
 70
0
 72
1
 73
0
 74
0
  7

 75
0
147
1.0
148
0.0
149
0.0
100
AcDbLayout
  1
Layout1
 70
0
 71
1
 10
0.0
 20
0.0
 11
297.0
 21
210.0
 12
0.0
 22
0.0
 32
0.0
 14
0.0
 24
0.0
 34
0.0
 15
0.0
 25
0.0
 35
0.0
146
0.0
 13
0.0
 23
0.0
 33
0.0
 16
1.0
 26
0.0
 36
0.0
 17
0.0
 27
1.0
 37
0.0
 76
0
330
210
345
0
346
0
  0
ENDSEC
  0
EOF
