  0
SECTION
  2
HEADER
  9
$ACADVER
  1
AC1024
  9
$DWGCODEPAGE
  3
ANSI_1252
  9
$EXTMAX
 10
297.0
 20
210.0
 30
0.0
  9
$EXTMIN
 10
0.0
 20
0.0
 30
0.0
  9
$LIMMIN
 10
0.0
 20
0.0
  9
$LIMMAX
 10
297.0
 20
210.0
  9
$VIEWCTR
 10
148.5
 20
105.0
  9
$VIEWSIZE
 40
210.0
  9
$CLAYER
  8
0
  9
$LTSCALE
 40
16.335
  9
$CELTYPE
  6
BYLAYER
  9
$DIMSCALE
 40
1.0
  9
$DIMASZ
 40
3.0
  9
$DIMEXO
 40
0.5
  9
$DIMDLI
 40
11.286
  9
$DIMEXE
 40
1.5
  9
$DIMCEN
 40
2.673
  9
$DIMLFAC
 40
1.0
  9
$DIMBLK
  1
_FILLED
  9
$DIMALT
 70
0
  9
$DIMALTF
 40
0.0393700787
  9
$DIMTXT
 40
3.0
  9
$DIMTOL
 70
1
  9
$DIMLIM
 70
0
  9
$DIMTFAC
 40
1.0
  9
$DIMTP
 40
0.01
  9
$DIMTM
 40
0.01
  9
$DIMGAP
 40
0.625
  9
$DIMDSEP
 70
44
  9
$AUNITS
 70
0
  9
$PDMODE
 70
3
  9
$PDSIZE
 40
3.0
  9
$HANDSEED
  5
41C
  9
$TILEMODE
 70
1
  9
$MEASUREMENT
 70
1
  9
$INSUNITS
 70
4
  0
ENDSEC
  0
SECTION
  2
CLASSES
  0
CLASS
  1
ACDBDICTIONARYWDFLT
  2
AcDbDictionaryWithDefault
  3
AutoCAD 2000
 90
0
 91
1
280
0
281
0
  0
CLASS
  1
ACDBPLACEHOLDER
  2
AcDbPlaceHolder
  3
AutoCAD 2000
 90
0
 91
1
280
0
281
0
  0
CLASS
  1
LAYOUT
  2
AcDbLayout
  3
AutoCAD 2000
 90
0
 91
0
280
0
281
0
  0
ENDSEC
  0
SECTION
  2
TABLES
  0
TABLE
  2
VPORT
  5
8
100
AcDbSymbolTable
 70
2
  0
VPORT
  5
1F4
100
AcDbSymbolTableRecord
100
AcDbViewportTableRecord
  2
*ACTIVE
 70
0
 10
0.0
 20
0.0
 11
1.0
 21
1.0
 12
148.5
 22
105.0
 13
0.0
 23
0.0
 14
1.0
 24
1.0
 15
0.0
 25
0.0
 16
0.0
 26
0.0
 36
1.0
 17
0.0
 27
0.0
 37
0.0
 40
210.0
 41
1.4142857143
 42
50.0
 43
0.0
 44
0.0
 50
0.0
 51
0.0
 71
0
 72
100
 73
1
 74
1
 75
0
 76
0
 77
0
 78
0
  0
ENDTAB
  0
TABLE
  2
LTYPE
  5
5
100
AcDbSymbolTable
 70
6
  0
LTYPE
  5
14
100
AcDbSymbolTableRecord
100
AcDbLinetypeTableRecord
  2
BYBLOCK
 70
0
  3

 72
65
 73
0
 40
0.0
  0
LTYPE
  5
15
100
AcDbSymbolTableRecord
100
AcDbLinetypeTableRecord
  2
BYLAYER
 70
0
  3

 72
65
 73
0
 40
0.0
  0
LTYPE
  5
16
100
AcDbSymbolTableRecord
100
AcDbLinetypeTableRecord
  2
CONTINUOUS
 70
64
  3
Solid line
 72
65
 73
0
 40
0.0
  0
LTYPE
  5
1F5
100
AcDbSymbolTableRecord
100
AcDbLinetypeTableRecord
  2
CENTER
 70
64
  3
____ _ ____ _ ____ _ ____ _ ____ _ ____ _ ____
 72
65
 73
4
 40
0.6
 49
0.375
 74
0
 49
-0.075
 74
0
 49
0.075
 74
0
 49
-0.075
 74
0
  0
LTYPE
  5
1F6
100
AcDbSymbolTableRecord
100
AcDbLinetypeTableRecord
  2
HIDDEN
 70
64
  3
- - - - - - - - - - - - - - - - - - - -
 72
65
 73
2
 40
0.2
 49
0.1
 74
0
 49
-0.1
 74
0
  0
LTYPE
  5
1F7
100
AcDbSymbolTableRecord
100
AcDbLinetypeTableRecord
  2
PHANTOM
 70
64
  3
_____ _ _ _____ _ _ _____ _ _ _____
 72
65
 73
6
 40
0.8
 49
0.45
 74
0
 49
-0.05
 74
0
 49
0.1
 74
0
 49
-0.05
 74
0
 49
0.1
 74
0
 49
-0.05
 74
0
  0
LTYPE
  5
1F8
100
AcDbSymbolTableRecord
100
AcDbLinetypeTableRecord
  2
DOT
 70
64
  3
. . . . . . . . . . . . . . . . . . . .
 72
65
 73
2
 40
0.2
 49
0.1
 74
0
 49
-0.1
 74
0
  0
LTYPE
  5
1F9
100
AcDbSymbolTableRecord
100
AcDbLinetypeTableRecord
  2
DASHED
 70
64
  3
- - - - - - - - - - - - - - - - - - - -
 72
65
 73
2
 40
0.2
 49
0.1
 74
0
 49
-0.1
 74
0
  0
ENDTAB
  0
TABLE
  2
LAYER
  5
2
100
AcDbSymbolTable
 70
36
  0
LAYER
  5
10
100
AcDbSymbolTableRecord
100
AcDbLayerTableRecord
  2
0
 70
0
 62
7
  6
CONTINUOUS
370
-3
390
F
  0
LAYER
  5
1FA
100
AcDbSymbolTableRecord
100
AcDbLayerTableRecord
  2
DEFAULT_1
 70
0
 62
7
  6
CENTER
370
-3
390
F
  0
LAYER
  5
1FB
100
AcDbSymbolTableRecord
100
AcDbLayerTableRecord
  2
DEFAULT_2
 70
0
 62
7
  6
HIDDEN
370
-3
390
F
  0
LAYER
  5
1FC
100
AcDbSymbolTableRecord
100
AcDbLayerTableRecord
  2
DEFAULT_3
 70
0
 62
7
  6
PHANTOM
370
-3
390
F
  0
LAYER
  5
1FD
100
AcDbSymbolTableRecord
100
AcDbLayerTableRecord
  2
ASSI
 70
0
 62
7
  6
CONTINUOUS
370
-3
390
F
  0
LAYER
  5
1FE
100
AcDbSymbolTableRecord
100
AcDbLayerTableRecord
  2
COLOR5
 70
0
 62
7
  6
CONTINUOUS
370
-3
390
F
  0
LAYER
  5
1FF
100
AcDbSymbolTableRecord
100
AcDbLayerTableRecord
  2
COORDINATE
 70
0
 62
7
  6
CONTINUOUS
370
-3
390
F
  0
LAYER
  5
200
100
AcDbSymbolTableRecord
100
AcDbLayerTableRecord
  2
COORD_ORIGINE
 70
0
 62
7
  6
CONTINUOUS
370
-3
390
F
  0
LAYER
  5
201
100
AcDbSymbolTableRecord
100
AcDbLayerTableRecord
  2
COPY_PUBLISH
 70
0
 62
7
  6
CONTINUOUS
370
-3
390
F
  0
LAYER
  5
202
100
AcDbSymbolTableRecord
100
AcDbLayerTableRecord
  2
COSMETICI
 70
0
 62
7
  6
CONTINUOUS
370
-3
390
F
  0
LAYER
  5
203
100
AcDbSymbolTableRecord
100
AcDbLayerTableRecord
  2
CURVE
 70
0
 62
7
  6
CONTINUOUS
370
-3
390
F
  0
LAYER
  5
204
100
AcDbSymbolTableRecord
100
AcDbLayerTableRecord
  2
DRAFT
 70
0
 62
7
  6
CONTINUOUS
370
-3
390
F
  0
LAYER
  5
205
100
AcDbSymbolTableRecord
100
AcDbLayerTableRecord
  2
IMPORT_IGES
 70
0
 62
7
  6
CONTINUOUS
370
-3
390
F
  0
LAYER
  5
206
100
AcDbSymbolTableRecord
100
AcDbLayerTableRecord
  2
INTF_1
 70
0
 62
7
  6
CONTINUOUS
370
-3
390
F
  0
LAYER
  5
207
100
AcDbSymbolTableRecord
100
AcDbLayerTableRecord
  2
NOTE
 70
0
 62
7
  6
CONTINUOUS
370
-3
390
F
  0
LAYER
  5
208
100
AcDbSymbolTableRecord
100
AcDbLayerTableRecord
  2
PIANI
 70
0
 62
7
  6
CONTINUOUS
370
-3
390
F
  0
LAYER
  5
209
100
AcDbSymbolTableRecord
100
AcDbLayerTableRecord
  2
PIANI_ORIGINE
 70
0
 62
7
  6
CONTINUOUS
370
-3
390
F
  0
LAYER
  5
20A
100
AcDbSymbolTableRecord
100
AcDbLayerTableRecord
  2
PUNTI
 70
0
 62
7
  6
CONTINUOUS
370
-3
390
F
  0
LAYER
  5
20B
100
AcDbSymbolTableRecord
100
AcDbLayerTableRecord
  2
RACCORDO
 70
0
 62
7
  6
CONTINUOUS
370
-3
390
F
  0
LAYER
  5
20C
100
AcDbSymbolTableRecord
100
AcDbLayerTableRecord
  2
SIMBOLI
 70
0
 62
7
  6
CONTINUOUS
370
-3
390
F
  0
LAYER
  5
20D
100
AcDbSymbolTableRecord
100
AcDbLayerTableRecord
  2
SMUSSO
 70
0
 62
7
  6
CONTINUOUS
370
-3
390
F
  0
LAYER
  5
20E
100
AcDbSymbolTableRecord
100
AcDbLayerTableRecord
  2
SUPERFICI
 70
0
 62
7
  6
CONTINUOUS
370
-3
390
F
  0
LAYER
  5
20F
100
AcDbSymbolTableRecord
100
AcDbLayerTableRecord
  2
TRASH
 70
0
 62
7
  6
CONTINUOUS
370
-3
390
F
  0
ENDTAB
  0
TABLE
  2
STYLE
  5
3
100
AcDbSymbolTable
 70
1
  0
STYLE
  5
11
100
AcDbSymbolTableRecord
100
AcDbTextStyleTableRecord
  2
STANDARD
 70
0
 40
0.0
 41
0.8
 50
0.0
 71
0
 42
0.2
  3
txt
  4

  0
STYLE
  5
210
100
AcDbSymbolTableRecord
100
AcDbTextStyleTableRecord
  2
TEXTSTYLE_1
 70
0
 40
0.0
 41
0.8
 50
0.0
 71
0
 42
0.2
  3
gdt
  4

  0
ENDTAB
  0
TABLE
  2
VIEW
  5
6
100
AcDbSymbolTable
 70
0
  0
ENDTAB
  0
TABLE
  2
UCS
  5
7
100
AcDbSymbolTable
 70
0
  0
ENDTAB
  0
TABLE
  2
APPID
  5
9
100
AcDbSymbolTable
 70
1
  0
APPID
  5
211
100
AcDbSymbolTableRecord
100
AcDbRegAppTableRecord
  2
ACAD
 70
0
  0
ENDTAB
  0
TABLE
  2
BLOCK_RECORD
  5
1
100
AcDbSymbolTable
 70
0
  0
BLOCK_RECORD
  5
212
100
AcDbSymbolTableRecord
100
AcDbBlockTableRecord
  2
*Model_Space
  0
BLOCK_RECORD
  5
213
100
AcDbSymbolTableRecord
100
AcDbBlockTableRecord
  2
*Paper_Space
  0
BLOCK_RECORD
  5
214
100
AcDbSymbolTableRecord
100
AcDbBlockTableRecord
  2
_FILLED
  0
BLOCK_RECORD
  5
215
100
AcDbSymbolTableRecord
100
AcDbBlockTableRecord
  2
*D0
  0
BLOCK_RECORD
  5
216
100
AcDbSymbolTableRecord
100
AcDbBlockTableRecord
  2
*D1
  0
BLOCK_RECORD
  5
217
100
AcDbSymbolTableRecord
100
AcDbBlockTableRecord
  2
*D2
  0
ENDTAB
  0
TABLE
  2
DIMSTYLE
  5
A
100
AcDbSymbolTable
 70
1
100
AcDbDimStyleTable
 71
0
  0
DIMSTYLE
105
218
100
AcDbSymbolTableRecord
100
AcDbDimStyleTableRecord
  2
STANDARD
 70
0
  3

  4

 40
1.0
 41
3.0
 42
0.5
 43
0.38
 44
1.5
 45
0.0
 46
0.0
 47
0.01
 48
0.01
140
3.0
141
0.09
142
0.0
143
25.4
144
1.0
145
0.0
146
1.0
147
0.625
 71
1.0
 72
0.0
 73
0
 74
0
 75
0
 76
0
 77
1
 78
8
 79
2
170
0
171
1
172
0
173
0
174
0
175
0
176
0
177
0
178
0
270
2
179
2
271
2
272
2
273
2
274
2
275
0
280
0
281
0
282
0
283
1
284
8
285
0
286
0
287
3
288
0
340
11
278
44
341
214
342
214
343
214
344
214
  0
DIMSTYLE
105
219
100
AcDbSymbolTableRecord
100
AcDbDimStyleTableRecord
  2
DIMSTYLE_1
 70
0
  3

  4

 40
1.0
 41
3.0
 42
0.5
 43
0.38
 44
1.5
 45
0.0
 46
0.0
 47
0.0
 48
0.0
140
3.0
141
0.09
142
0.0
143
25.4
144
1.0
145
0.0
146
1.0
147
0.75
 71
0.0
 72
0.0
 73
0
 74
0
 75
0
 76
0
 77
1
 78
8
 79
2
170
0
171
1
172
0
173
0
174
0
175
0
176
0
177
0
178
0
270
2
179
2
271
2
272
2
273
2
274
2
275
0
280
0
281
0
282
0
283
1
284
8
285
0
286
0
287
3
288
0
340
11
278
44
341
214
342
214
343
214
344
214
  0
DIMSTYLE
105
21A
100
AcDbSymbolTableRecord
100
AcDbDimStyleTableRecord
  2
DIMSTYLE_2
 70
0
  3

  4

 40
1.0
 41
3.0
 42
0.5
 43
0.38
 44
1.5
 45
0.0
 46
0.0
 47
0.0
 48
0.0
140
3.0
141
0.09
142
0.0
143
25.4
144
1.0
145
0.0
146
1.0
147
0.75
 71
0.0
 72
0.0
 73
0
 74
0
 75
0
 76
0
 77
1
 78
8
 79
2
170
0
171
1
172
0
173
0
174
0
175
0
176
0
177
0
178
0
270
2
179
2
271
1
272
1
273
2
274
2
275
0
280
0
281
0
282
0
283
1
284
8
285
0
286
0
287
3
288
0
340
11
278
44
341
214
342
214
343
214
344
214
  0
ENDTAB
  0
ENDSEC
  0
SECTION
  2
BLOCKS
  0
BLOCK
  5
20
100
AcDbEntity
  8
0
100
AcDbBlockBegin
  2
*Model_Space
 70
0
 10
0.0
 20
0.0
 30
0.0
  3
*Model_Space
  1

  0
ENDBLK
  5
21
100
AcDbEntity
  8
0
100
AcDbBlockEnd
  0
BLOCK
  5
1C
100
AcDbEntity
  8
0
100
AcDbBlockBegin
  2
*Paper_Space
 70
0
 10
0.0
 20
0.0
 30
0.0
  3
*Paper_Space
  1

  0
ENDBLK
  5
1D
100
AcDbEntity
  8
0
100
AcDbBlockEnd
  0
BLOCK
  5
21B
100
AcDbEntity
  8
0
100
AcDbBlockBegin
  2
_FILLED
 70
64
 10
0.0
 20
0.0
  3
_FILLED
  1

  0
SOLID
  5
21C
100
AcDbEntity
  8
0
  6
BYBLOCK
 62
0
100
AcDbTrace
 10
0.0
 20
0.0
 11
-1.0
 21
0.3166666667
 12
-1.0
 22
-0.3166666667
 13
-1.0
 23
-0.3166666667
  0
ENDBLK
  5
21D
100
AcDbEntity
  8
0
  6
BYBLOCK
 62
0
100
AcDbBlockEnd
  0
BLOCK
  5
21E
100
AcDbEntity
  8
0
100
AcDbBlockBegin
 62
7
  6
CONTINUOUS
  2
*D0
 70
65
 10
0.0
 20
0.0
  3
*D0
  1

  0
LINE
  5
21F
100
AcDbEntity
  8
0
100
AcDbLine
 62
7
  6
CONTINUOUS
 10
118.4334210526
 20
121.4220059551
 11
118.4334210526
 21
138.1994769448
  0
LINE
  5
220
100
AcDbEntity
  8
0
100
AcDbLine
 62
7
  6
CONTINUOUS
 10
233.4334210526
 20
121.4220059551
 11
233.4334210526
 21
138.1994769448
  0
LINE
  5
221
100
AcDbEntity
  8
0
100
AcDbLine
 62
7
  6
CONTINUOUS
 10
118.4334210526
 20
136.6994769448
 11
175.9334210526
 21
136.6994769448
  0
LINE
  5
222
100
AcDbEntity
  8
0
100
AcDbLine
 62
7
  6
CONTINUOUS
 10
233.4334210526
 20
136.6994769448
 11
175.9334210526
 21
136.6994769448
  0
INSERT
  5
223
100
AcDbEntity
  8
0
100
AcDbBlockReference
 62
7
  6
CONTINUOUS
  2
_FILLED
 10
118.4334210526
 20
136.6994769448
 41
3.0
 42
3.0
 43
3.0
 50
180.0
  0
INSERT
  5
224
100
AcDbEntity
  8
0
100
AcDbBlockReference
 62
7
  6
CONTINUOUS
  2
_FILLED
 10
233.4334210526
 20
136.6994769448
 41
3.0
 42
3.0
 43
3.0
  0
ENDBLK
  5
225
100
AcDbEntity
  8
0
  6
BYBLOCK
 62
0
100
AcDbBlockEnd
  0
BLOCK
  5
226
100
AcDbEntity
  8
0
100
AcDbBlockBegin
 62
7
  6
CONTINUOUS
  2
*D1
 70
65
 10
0.0
 20
0.0
  3
*D1
  1

  0
LINE
  5
227
100
AcDbEntity
  8
0
100
AcDbLine
 62
7
  6
CONTINUOUS
 10
230.9448369584
 20
123.9105900493
 11
249.6661894162
 21
123.9105900493
  0
LINE
  5
228
100
AcDbEntity
  8
0
100
AcDbLine
 62
7
  6
CONTINUOUS
 10
220.9834210526
 20
56.7105900493
 11
249.6661894162
 21
56.7105900493
  0
LINE
  5
229
100
AcDbEntity
  8
0
100
AcDbLine
 62
7
  6
CONTINUOUS
 10
248.1661894162
 20
123.9105900493
 11
248.1661894162
 21
90.3105900493
  0
LINE
  5
22A
100
AcDbEntity
  8
0
100
AcDbLine
 62
7
  6
CONTINUOUS
 10
248.1661894162
 20
56.7105900493
 11
248.1661894162
 21
90.3105900493
  0
INSERT
  5
22B
100
AcDbEntity
  8
0
100
AcDbBlockReference
 62
7
  6
CONTINUOUS
  2
_FILLED
 10
248.1661894162
 20
123.9105900493
 41
3.0
 42
3.0
 43
3.0
 50
90.0
  0
INSERT
  5
22C
100
AcDbEntity
  8
0
100
AcDbBlockReference
 62
7
  6
CONTINUOUS
  2
_FILLED
 10
248.1661894162
 20
56.7105900493
 41
3.0
 42
3.0
 43
3.0
 50
270.0
  0
ENDBLK
  5
22D
100
AcDbEntity
  8
0
  6
BYBLOCK
 62
0
100
AcDbBlockEnd
  0
BLOCK
  5
22E
100
AcDbEntity
  8
0
100
AcDbBlockBegin
 62
7
  6
CONTINUOUS
  2
*D2
 70
65
 10
0.0
 20
0.0
  3
*D2
  1

  0
LINE
  5
22F
100
AcDbEntity
  8
0
100
AcDbLine
 62
7
  6
CONTINUOUS
 10
76.3801653877
 20
98.4105900493
 11
76.3801653877
 21
139.6400498443
  0
LINE
  5
230
100
AcDbEntity
  8
0
100
AcDbLine
 62
7
  6
CONTINUOUS
 10
64.8524938992
 20
98.4105900493
 11
64.8524938992
 21
139.6400498443
  0
LINE
  5
231
100
AcDbEntity
  8
0
100
AcDbLine
 62
7
  6
CONTINUOUS
 10
76.3801653877
 20
138.1400498443
 11
70.6163296434
 21
138.1400498443
  0
LINE
  5
232
100
AcDbEntity
  8
0
100
AcDbLine
 62
7
  6
CONTINUOUS
 10
70.6163296434
 20
138.1400498443
 11
86.2463641102
 21
138.1400498443
  0
LINE
  5
233
100
AcDbEntity
  8
0
100
AcDbLine
 62
7
  6
CONTINUOUS
 10
64.8524938992
 20
138.1400498443
 11
70.6163296434
 21
138.1400498443
  0
INSERT
  5
234
100
AcDbEntity
  8
0
100
AcDbBlockReference
 62
7
  6
CONTINUOUS
  2
_FILLED
 10
76.3801653877
 20
138.1400498443
 41
3.0
 42
3.0
 43
3.0
  0
INSERT
  5
235
100
AcDbEntity
  8
0
100
AcDbBlockReference
 62
7
  6
CONTINUOUS
  2
_FILLED
 10
64.8524938992
 20
138.1400498443
 41
3.0
 42
3.0
 43
3.0
 50
180.0
  0
ENDBLK
  5
236
100
AcDbEntity
  8
0
  6
BYBLOCK
 62
0
100
AcDbBlockEnd
  0
ENDSEC
  0
SECTION
  2
ENTITIES
  0
DIMENSION
  5
237
100
AcDbEntity
  8
0
100
AcDbDimension
 62
7
  6
CONTINUOUS
  2
*D0
 10
233.4334210526
 20
136.6994769448
 11
173.1477067669
 21
136.6994769448
 70
160
 71
2
 72
2
 41
0.9
 42
115.0
  3
DIMSTYLE_1
100
AcDbAlignedDimension
 13
118.4334210526
 23
120.9220059551
 14
233.4334210526
 24
120.9220059551
100
AcDbRotatedDimension
  0
DIMENSION
  5
238
100
AcDbEntity
  8
0
100
AcDbDimension
 62
7
  6
CONTINUOUS
  2
*D1
 10
248.1661894162
 20
56.7105900493
 11
248.1661894162
 21
85.9177329065
 70
160
 71
2
 72
2
 41
0.9
 42
67.2
  3
DIMSTYLE_1
100
AcDbAlignedDimension
 13
230.4448369584
 23
123.9105900493
 14
220.4834210526
 24
56.7105900493
 50
270.0
100
AcDbRotatedDimension
  0
DIMENSION
  5
239
100
AcDbEntity
  8
0
100
AcDbDimension
 62
7
  6
CONTINUOUS
  2
*D2
 10
64.8524938992
 20
138.1400498443
 11
78.9606498245
 21
138.1400498443
 70
160
 71
1
 72
2
 41
0.9
 42
11.5276714885
  3
DIMSTYLE_2
100
AcDbAlignedDimension
 13
76.3801653877
 23
97.9105900493
 14
64.8524938992
 24
97.9105900493
 50
180.0
100
AcDbRotatedDimension
  0
LWPOLYLINE
  5
23A
100
AcDbEntity
  8
RACCORDO
100
AcDbPolyline
 62
250
  6
CONTINUOUS
 90
25
 70
0
 10
118.5061008263
 20
70.4775618701
 10
118.5100081781
 20
70.3802996357
 10
118.5202360313
 20
70.2834498762
 10
118.5367410109
 20
70.187423317
 10
118.5594531218
 20
70.0926271927
 10
118.5882760452
 20
69.9994635196
 10
118.6230875474
 20
69.9083273909
 10
118.663739998
 20
69.8196053015
 10
118.710060996
 20
69.7336735086
 10
118.7618541009
 20
69.650896436
 10
118.8188996663
 20
69.571625129
 10
118.88095577
 20
69.4961957657
 10
118.9477592412
 20
69.4249282311
 10
119.0190267761
 20
69.3581247604
 10
119.0944561397
 20
69.2960686573
 10
119.1737274467
 20
69.2390230927
 10
119.2565045187
 20
69.1872299887
 10
119.3424363107
 20
69.1409089917
 10
119.4311583993
 20
69.100256542
 10
119.5222945272
 20
69.0654450404
 10
119.6154581996
 20
69.0366221175
 10
119.7102543231
 20
69.013910007
 10
119.8062808814
 20
68.9974050277
 10
119.90313064
 20
68.9871771748
 10
120.0003928734
 20
68.983269823
  0
LINE
  5
23B
100
AcDbEntity
  8
RACCORDO
100
AcDbLine
 62
7
  6
CONTINUOUS
 10
118.4334210526
 20
70.4048820965
 11
118.4334210526
 21
120.9220059551
  0
LINE
  5
23C
100
AcDbEntity
  8
RACCORDO
100
AcDbLine
 62
250
  6
CONTINUOUS
 10
118.5061008263
 20
120.8493261814
 11
118.5061008263
 21
70.4775618701
  0
LINE
  5
23D
100
AcDbEntity
  8
RACCORDO
100
AcDbLine
 62
250
  6
CONTINUOUS
 10
120.0003928734
 20
120.8493261814
 11
120.0003928734
 21
68.983269823
  0
LINE
  5
23E
100
AcDbEntity
  8
RACCORDO
100
AcDbLine
 62
250
  6
CONTINUOUS
 10
121.4946849206
 20
122.3436182286
 11
121.4946849206
 21
123.8379102757
  0
LINE
  5
23F
100
AcDbEntity
  8
0
100
AcDbLine
 62
7
  6
CONTINUOUS
 10
130.3834210526
 20
68.9105900493
 11
130.3834210526
 21
57.7105900493
  0
LINE
  5
240
100
AcDbEntity
  8
0
100
AcDbLine
 62
7
  6
CONTINUOUS
 10
130.8834210526
 20
68.9105900493
 11
130.8834210526
 21
57.7105900493
  0
LINE
  5
241
100
AcDbEntity
  8
0
100
AcDbLine
 62
250
  6
CONTINUOUS
 10
131.3834210526
 20
57.2105900493
 11
131.3834210526
 21
56.7105900493
  0
LINE
  5
242
100
AcDbEntity
  8
RACCORDO
100
AcDbLine
 62
250
  6
CONTINUOUS
 10
131.6164492318
 20
68.983269823
 11
131.6164492318
 21
95.4775618701
  0
LINE
  5
243
100
AcDbEntity
  8
RACCORDO
100
AcDbLine
 62
250
  6
CONTINUOUS
 10
131.6164492318
 20
68.983269823
 11
131.6891290055
 21
68.9105900493
  0
LINE
  5
244
100
AcDbEntity
  8
RACCORDO
100
AcDbLine
 62
250
  6
CONTINUOUS
 10
133.110741279
 20
70.4775618701
 11
133.1834210526
 21
70.4048820965
  0
LINE
  5
245
100
AcDbEntity
  8
RACCORDO
100
AcDbLine
 62
250
  6
CONTINUOUS
 10
133.110741279
 20
70.4775618701
 11
133.110741279
 21
93.983269823
  0
LINE
  5
246
100
AcDbEntity
  8
RACCORDO
100
AcDbLine
 62
7
  6
CONTINUOUS
 10
133.1834210526
 20
70.4048820965
 11
133.1834210526
 21
93.9105900493
  0
LWPOLYLINE
  5
247
100
AcDbEntity
  8
0
100
AcDbPolyline
 62
7
  6
CONTINUOUS
 90
3
 70
0
 43
0.3500000006
 10
173.1477008057
 20
139.5923426514
 10
174.0048568726
 20
140.4494805908
 10
174.0048568726
 20
137.4494796753
  0
LWPOLYLINE
  5
248
100
AcDbEntity
  8
0
100
AcDbPolyline
 62
7
  6
CONTINUOUS
 90
3
 70
0
 43
0.3500000006
 10
174.861994812
 20
139.5923426514
 10
175.7191327515
 20
140.4494805908
 10
175.7191327515
 20
137.4494796753
  0
LINE
  5
249
100
AcDbEntity
  8
0
100
AcDbLine
 62
7
  6
CONTINUOUS
 10
131.3834210526
 20
56.7105900493
 11
220.4834210526
 21
56.7105900493
  0
LINE
  5
24A
100
AcDbEntity
  8
0
100
AcDbLine
 62
7
  6
CONTINUOUS
 10
131.3834210526
 20
57.2105900493
 11
220.4834210526
 21
57.2105900493
  0
LINE
  5
24B
100
AcDbEntity
  8
0
100
AcDbLine
 62
250
  6
CONTINUOUS
 10
130.8834210526
 20
57.7105900493
 11
130.3834210526
 21
57.7105900493
  0
LINE
  5
24C
100
AcDbEntity
  8
0
100
AcDbLine
 62
250
  6
CONTINUOUS
 10
220.9834210526
 20
57.7105900493
 11
221.4834210526
 21
57.7105900493
  0
LINE
  5
24D
100
AcDbEntity
  8
RACCORDO
100
AcDbLine
 62
250
  6
CONTINUOUS
 10
118.5061008263
 20
70.4775618701
 11
118.4334210526
 21
70.4048820965
  0
LINE
  5
24E
100
AcDbEntity
  8
RACCORDO
100
AcDbLine
 62
7
  6
CONTINUOUS
 10
133.110741279
 20
93.983269823
 11
133.1024001339
 21
93.9913888488
  0
LWPOLYLINE
  5
24F
100
AcDbEntity
  8
RACCORDO
100
AcDbPolyline
 62
7
  6
CONTINUOUS
 90
3
 70
0
 10
132.0549185019
 20
95.0393461188
 10
131.7298252589
 20
95.3633097951
 10
131.6164492318
 20
95.4775618701
  0
LINE
  5
250
100
AcDbEntity
  8
RACCORDO
100
AcDbLine
 62
7
  6
CONTINUOUS
 10
133.1834210526
 20
93.9105900493
 11
133.110741279
 21
93.983269823
  0
LINE
  5
251
100
AcDbEntity
  8
RACCORDO
100
AcDbLine
 62
7
  6
CONTINUOUS
 10
132.9996330113
 20
94.0943780906
 11
132.5143522392
 21
94.5796588628
  0
LINE
  5
252
100
AcDbEntity
  8
RACCORDO
100
AcDbLine
 62
7
  6
CONTINUOUS
 10
132.5143522392
 20
94.5796588628
 11
132.0549185019
 21
95.0393461188
  0
LWPOLYLINE
  5
253
100
AcDbEntity
  8
RACCORDO
100
AcDbPolyline
 62
7
  6
CONTINUOUS
 90
3
 70
0
 10
133.1024001339
 20
93.9913888488
 10
133.0739053789
 20
94.0201057231
 10
132.9996330113
 20
94.0943780906
  0
LINE
  5
254
100
AcDbEntity
  8
RACCORDO
100
AcDbLine
 62
250
  6
CONTINUOUS
 10
120.0003928734
 20
68.983269823
 11
119.9277130998
 21
68.9105900493
  0
LWPOLYLINE
  5
255
100
AcDbEntity
  8
RACCORDO
100
AcDbPolyline
 62
250
  6
CONTINUOUS
 90
25
 70
0
 10
231.8664492318
 20
68.983269823
 10
231.9637114663
 20
68.9871771748
 10
232.0605612258
 20
68.997405028
 10
232.156587785
 20
69.0139100076
 10
232.2513839092
 20
69.0366221185
 10
232.3445475824
 20
69.0654450419
 10
232.4356837111
 20
69.1002565441
 10
232.5244058005
 20
69.1409089947
 10
232.6103375934
 20
69.1872299927
 10
232.6931146659
 20
69.2390230977
 10
232.7723859729
 20
69.296068663
 10
232.8478153363
 20
69.3581247667
 10
232.9190828708
 20
69.4249282379
 10
232.9858863415
 20
69.4961957728
 10
233.0479424447
 20
69.5716251364
 10
233.1049880092
 20
69.6508964434
 10
233.1567811133
 20
69.7336735154
 10
233.2031021102
 20
69.8196053074
 10
233.24375456
 20
69.908327396
 10
233.2785660616
 20
69.999463524
 10
233.3073889845
 20
70.0926271963
 10
233.330101095
 20
70.1874233198
 10
233.3466060743
 20
70.2834498781
 10
233.3568339272
 20
70.3802996367
 10
233.360741279
 20
70.4775618701
  0
LWPOLYLINE
  5
256
100
AcDbEntity
  8
RACCORDO
100
AcDbPolyline
 62
250
  6
CONTINUOUS
 90
25
 70
0
 10
131.6164492318
 20
68.983269823
 10
131.7137114663
 20
68.9871771748
 10
131.8105612258
 20
68.997405028
 10
131.906587785
 20
69.0139100076
 10
132.0013839092
 20
69.0366221185
 10
132.0945475824
 20
69.0654450419
 10
132.1856837111
 20
69.1002565441
 10
132.2744058005
 20
69.1409089947
 10
132.3603375934
 20
69.1872299927
 10
132.4431146659
 20
69.2390230977
 10
132.5223859729
 20
69.296068663
 10
132.5978153363
 20
69.3581247667
 10
132.6690828708
 20
69.4249282379
 10
132.7358863415
 20
69.4961957728
 10
132.7979424447
 20
69.5716251364
 10
132.8549880092
 20
69.6508964434
 10
132.9067811133
 20
69.7336735154
 10
132.9531021102
 20
69.8196053074
 10
132.99375456
 20
69.908327396
 10
133.0285660616
 20
69.999463524
 10
133.0573889845
 20
70.0926271963
 10
133.080101095
 20
70.1874233198
 10
133.0966060743
 20
70.2834498781
 10
133.1068339272
 20
70.3802996367
 10
133.110741279
 20
70.4775618701
  0
LINE
  5
257
100
AcDbEntity
  8
RACCORDO
100
AcDbLine
 62
7
  6
CONTINUOUS
 10
119.9277130998
 20
68.9105900493
 11
131.6891290055
 21
68.9105900493
  0
LINE
  5
258
100
AcDbEntity
  8
RACCORDO
100
AcDbLine
 62
7
  6
CONTINUOUS
 10
220.1777130998
 20
68.9105900493
 11
231.9391290055
 21
68.9105900493
  0
LINE
  5
259
100
AcDbEntity
  8
RACCORDO
100
AcDbLine
 62
250
  6
CONTINUOUS
 10
120.0003928734
 20
68.983269823
 11
131.6164492318
 21
68.983269823
  0
LINE
  5
25A
100
AcDbEntity
  8
RACCORDO
100
AcDbLine
 62
250
  6
CONTINUOUS
 10
220.2503928734
 20
68.983269823
 11
231.8664492318
 21
68.983269823
  0
LINE
  5
25B
100
AcDbEntity
  8
RACCORDO
100
AcDbLine
 62
250
  6
CONTINUOUS
 10
118.5061008263
 20
70.4775618701
 11
133.110741279
 21
70.4775618701
  0
LINE
  5
25C
100
AcDbEntity
  8
RACCORDO
100
AcDbLine
 62
250
  6
CONTINUOUS
 10
218.7561008263
 20
70.4775618706
 11
233.360741279
 21
70.4775618701
  0
LINE
  5
25D
100
AcDbEntity
  8
RACCORDO
100
AcDbLine
 62
250
  6
CONTINUOUS
 10
118.5061008263
 20
120.8493261814
 11
118.4334210526
 21
120.9220059551
  0
LINE
  5
25E
100
AcDbEntity
  8
RACCORDO
100
AcDbLine
 62
250
  6
CONTINUOUS
 10
121.4946849206
 20
123.8379102757
 11
121.4220051469
 21
123.9105900493
  0
LINE
  5
25F
100
AcDbEntity
  8
RACCORDO
100
AcDbLine
 62
250
  6
CONTINUOUS
 10
170.7535599415
 20
98.9014978835
 11
170.7701982853
 21
98.9233700493
  0
LINE
  5
260
100
AcDbEntity
  8
RACCORDO
100
AcDbLine
 62
250
  6
CONTINUOUS
 10
170.9455722628
 20
98.7554324666
 11
170.9622106066
 21
98.7773046324
  0
LINE
  5
261
100
AcDbEntity
  8
RACCORDO
100
AcDbLine
 62
250
  6
CONTINUOUS
 10
172.405185725
 20
98.9014978835
 11
172.4351906658
 21
98.9233700493
  0
LINE
  5
262
100
AcDbEntity
  8
RACCORDO
100
AcDbLine
 62
250
  6
CONTINUOUS
 10
172.5948662538
 20
98.6412880322
 11
172.6248711946
 21
98.663160198
  0
LINE
  5
263
100
AcDbEntity
  8
DRAFT
100
AcDbLine
 62
7
  6
CONTINUOUS
 10
171.4935460526
 20
96.8586250493
 11
171.4932292803
 21
96.7778148504
  0
LINE
  5
264
100
AcDbEntity
  8
RACCORDO
100
AcDbLine
 62
7
  6
CONTINUOUS
 10
172.0415419752
 20
98.7788083344
 11
171.4935460526
 21
96.8586250493
  0
LINE
  5
265
100
AcDbEntity
  8
IMPORT_IGES
100
AcDbLine
 62
7
  6
CONTINUOUS
 10
171.4935460526
 20
96.8586250493
 11
172.0827980526
 21
98.9233700493
  0
LINE
  5
266
100
AcDbEntity
  8
RACCORDO
100
AcDbLine
 62
7
  6
CONTINUOUS
 10
172.058045369
 20
98.7569361685
 11
171.4932292803
 21
96.7778148504
  0
LINE
  5
267
100
AcDbEntity
  8
RACCORDO
100
AcDbLine
 62
7
  6
CONTINUOUS
 10
171.7728101672
 20
96.0838712432
 11
172.5948662538
 21
98.6412880322
  0
LINE
  5
268
100
AcDbEntity
  8
IMPORT_IGES
100
AcDbLine
 62
7
  6
CONTINUOUS
 10
172.7085130526
 20
98.9233700493
 11
171.7443090526
 21
95.9237310493
  0
LINE
  5
269
100
AcDbEntity
  8
RACCORDO
100
AcDbLine
 62
7
  6
CONTINUOUS
 10
171.7887539294
 20
96.0619990773
 11
172.6248711946
 21
98.663160198
  0
LINE
  5
26A
100
AcDbEntity
  8
RACCORDO
100
AcDbLine
 62
250
  6
CONTINUOUS
 10
174.6469034417
 20
98.9014978835
 11
174.6621035478
 21
98.9233700493
  0
LINE
  5
26B
100
AcDbEntity
  8
RACCORDO
100
AcDbLine
 62
250
  6
CONTINUOUS
 10
174.8336403218
 20
98.7717247102
 11
174.8488404278
 21
98.7935968761
  0
LINE
  5
26C
100
AcDbEntity
  8
RACCORDO
100
AcDbLine
 62
250
  6
CONTINUOUS
 10
171.1644570512
 20
96.084632674
 11
171.1484460057
 21
96.0627605081
  0
LINE
  5
26D
100
AcDbEntity
  8
RACCORDO
100
AcDbLine
 62
250
  6
CONTINUOUS
 10
171.3543806503
 20
95.9456032152
 11
171.3383696048
 21
95.9237310493
  0
LINE
  5
26E
100
AcDbEntity
  8
RACCORDO
100
AcDbLine
 62
250
  6
CONTINUOUS
 10
176.4643436908
 20
98.9014978835
 11
176.4842659839
 21
98.9233700493
  0
LINE
  5
26F
100
AcDbEntity
  8
RACCORDO
100
AcDbLine
 62
250
  6
CONTINUOUS
 10
176.6627171941
 20
98.7208090986
 11
176.6826394872
 21
98.7426812645
  0
LINE
  5
270
100
AcDbEntity
  8
RACCORDO
100
AcDbLine
 62
250
  6
CONTINUOUS
 10
173.3459069471
 20
98.9016778835
 11
173.367779113
 21
98.9235500493
  0
LINE
  5
271
100
AcDbEntity
  8
RACCORDO
100
AcDbLine
 62
250
  6
CONTINUOUS
 10
173.5451458868
 20
98.7024389438
 11
173.5670180526
 21
98.7243111097
  0
LINE
  5
272
100
AcDbEntity
  8
RACCORDO
100
AcDbLine
 62
250
  6
CONTINUOUS
 10
172.9627482185
 20
96.1448421548
 11
172.9408760526
 21
96.122969989
  0
LINE
  5
273
100
AcDbEntity
  8
RACCORDO
100
AcDbLine
 62
250
  6
CONTINUOUS
 10
173.1619871581
 20
95.9456032152
 11
173.1401149922
 21
95.9237310493
  0
LINE
  5
274
100
AcDbEntity
  8
RACCORDO
100
AcDbLine
 62
250
  6
CONTINUOUS
 10
173.9476349855
 20
96.1627593179
 11
173.9236989165
 21
96.1408871521
  0
LINE
  5
275
100
AcDbEntity
  8
RACCORDO
100
AcDbLine
 62
250
  6
CONTINUOUS
 10
174.1460666622
 20
95.9456032152
 11
174.1221305933
 21
95.9237310493
  0
LINE
  5
276
100
AcDbEntity
  8
DRAFT
100
AcDbLine
 62
7
  6
CONTINUOUS
 10
177.9647700526
 20
96.9859410493
 11
177.9359307248
 21
96.9640688835
  0
LINE
  5
277
100
AcDbEntity
  8
RACCORDO
100
AcDbLine
 62
250
  6
CONTINUOUS
 10
177.1555450805
 20
96.2044716673
 11
177.1257617006
 21
96.1825995014
  0
LINE
  5
278
100
AcDbEntity
  8
DRAFT
100
AcDbLine
 62
250
  6
CONTINUOUS
 10
181.0039952969
 20
96.8335082131
 11
181.0244697779
 21
96.8412015392
  0
LINE
  5
279
100
AcDbEntity
  8
IMPORT_IGES
100
AcDbLine
 62
7
  6
CONTINUOUS
 10
172.9408760526
 20
98.9235500493
 11
172.9408760526
 21
95.9237310493
  0
LINE
  5
27A
100
AcDbEntity
  8
RACCORDO
100
AcDbLine
 62
7
  6
CONTINUOUS
 10
172.9408760526
 20
98.7243111097
 11
172.9408760526
 21
96.122969989
  0
LINE
  5
27B
100
AcDbEntity
  8
RACCORDO
100
AcDbLine
 62
7
  6
CONTINUOUS
 10
172.9627482185
 20
98.7024389438
 11
172.9627482185
 21
96.1448421548
  0
LINE
  5
27C
100
AcDbEntity
  8
RACCORDO
100
AcDbLine
 62
7
  6
CONTINUOUS
 10
173.5451458868
 20
96.1448421548
 11
173.5451458868
 21
98.7024389438
  0
LINE
  5
27D
100
AcDbEntity
  8
RACCORDO
100
AcDbLine
 62
7
  6
CONTINUOUS
 10
173.5670180526
 20
96.122969989
 11
173.5670180526
 21
98.7243111097
  0
LINE
  5
27E
100
AcDbEntity
  8
IMPORT_IGES
100
AcDbLine
 62
7
  6
CONTINUOUS
 10
173.5670180526
 20
95.9237310493
 11
173.5670180526
 21
98.9235500493
  0
LINE
  5
27F
100
AcDbEntity
  8
DRAFT
100
AcDbLine
 62
7
  6
CONTINUOUS
 10
175.4200940526
 20
97.2579610493
 11
175.4199852782
 21
97.1955205816
  0
LINE
  5
280
100
AcDbEntity
  8
RACCORDO
100
AcDbLine
 62
250
  6
CONTINUOUS
 10
175.2315583364
 20
96.3625643933
 11
175.2313780992
 21
96.300754977
  0
LINE
  5
281
100
AcDbEntity
  8
RACCORDO
100
AcDbLine
 62
250
  6
CONTINUOUS
 10
175.6042520051
 20
96.3614776128
 11
175.6040717679
 21
96.2996681965
  0
LINE
  5
282
100
AcDbEntity
  8
RACCORDO
100
AcDbLine
 62
7
  6
CONTINUOUS
 10
174.4954882985
 20
96.1311302855
 11
174.6233377224
 21
97.9844288966
  0
LINE
  5
283
100
AcDbEntity
  8
IMPORT_IGES
100
AcDbLine
 62
7
  6
CONTINUOUS
 10
174.6382260526
 20
97.8824380493
 11
174.5031050526
 21
95.9237310493
  0
LINE
  5
284
100
AcDbEntity
  8
RACCORDO
100
AcDbLine
 62
7
  6
CONTINUOUS
 10
174.5159035995
 20
96.1092581196
 11
174.6382260526
 21
97.8824380493
  0
LINE
  5
285
100
AcDbEntity
  8
RACCORDO
100
AcDbLine
 62
7
  6
CONTINUOUS
 10
174.1585678086
 20
98.7420482728
 11
173.9236989165
 21
96.1408871521
  0
LINE
  5
286
100
AcDbEntity
  8
IMPORT_IGES
100
AcDbLine
 62
7
  6
CONTINUOUS
 10
173.9040910526
 20
95.9237310493
 11
174.1749400526
 21
98.9233700493
  0
LINE
  5
287
100
AcDbEntity
  8
RACCORDO
100
AcDbLine
 62
7
  6
CONTINUOUS
 10
174.1785540327
 20
98.7201761069
 11
173.9476349855
 21
96.1627593179
  0
LINE
  5
288
100
AcDbEntity
  8
DRAFT
100
AcDbLine
 62
7
  6
CONTINUOUS
 10
176.2050670526
 20
97.8742730493
 11
176.2203078615
 21
97.9755410933
  0
LINE
  5
289
100
AcDbEntity
  8
DRAFT
100
AcDbLine
 62
7
  6
CONTINUOUS
 10
177.9359307248
 20
96.9640688835
 11
178.2773842783
 21
98.1832725242
  0
LINE
  5
28A
100
AcDbEntity
  8
IMPORT_IGES
100
AcDbLine
 62
7
  6
CONTINUOUS
 10
178.2765370526
 20
98.0991450493
 11
177.9647700526
 21
96.9859410493
  0
LINE
  5
28B
100
AcDbEntity
  8
DRAFT
100
AcDbLine
 62
7
  6
CONTINUOUS
 10
177.9647700526
 20
96.9859410493
 11
178.2765370526
 21
98.0991450493
  0
LINE
  5
28C
100
AcDbEntity
  8
RACCORDO
100
AcDbLine
 62
7
  6
CONTINUOUS
 10
177.6890085548
 20
96.0896102117
 11
177.8202363161
 21
96.5444372152
  0
LINE
  5
28D
100
AcDbEntity
  8
IMPORT_IGES
100
AcDbLine
 62
7
  6
CONTINUOUS
 10
177.8366900526
 20
96.5225650493
 11
177.6639130526
 21
95.9237310493
  0
LINE
  5
28E
100
AcDbEntity
  8
RACCORDO
100
AcDbLine
 62
7
  6
CONTINUOUS
 10
177.7054622914
 20
96.0677380458
 11
177.8366900526
 21
96.5225650493
  0
LINE
  5
28F
100
AcDbEntity
  8
RACCORDO
100
AcDbLine
 62
7
  6
CONTINUOUS
 10
177.941651637
 20
98.7837606222
 11
177.1257617006
 21
96.1825995014
  0
LINE
  5
290
100
AcDbEntity
  8
IMPORT_IGES
100
AcDbLine
 62
7
  6
CONTINUOUS
 10
177.0445640526
 20
95.9237310493
 11
177.9854420526
 21
98.9233700493
  0
LINE
  5
291
100
AcDbEntity
  8
RACCORDO
100
AcDbLine
 62
7
  6
CONTINUOUS
 10
177.957714006
 20
98.7618884563
 11
177.1555450805
 21
96.2044716673
  0
LINE
  5
292
100
AcDbEntity
  8
RACCORDO
100
AcDbLine
 62
7
  6
CONTINUOUS
 10
175.9976907469
 20
98.7942470623
 11
175.4200940526
 21
97.2579610493
  0
LINE
  5
293
100
AcDbEntity
  8
IMPORT_IGES
100
AcDbLine
 62
7
  6
CONTINUOUS
 10
175.4200940526
 20
97.2579610493
 11
176.0462370526
 21
98.9233700493
  0
LINE
  5
294
100
AcDbEntity
  8
RACCORDO
100
AcDbLine
 62
7
  6
CONTINUOUS
 10
176.012834417
 20
98.7723748964
 11
175.4199852782
 21
97.1955205816
  0
LINE
  5
295
100
AcDbEntity
  8
RACCORDO
100
AcDbLine
 62
7
  6
CONTINUOUS
 10
175.6042520051
 20
96.3614776128
 11
176.2203078615
 21
97.9755410933
  0
LINE
  5
296
100
AcDbEntity
  8
IMPORT_IGES
100
AcDbLine
 62
7
  6
CONTINUOUS
 10
176.2050670526
 20
97.8742730493
 11
175.4605840526
 21
95.9237310493
  0
LINE
  5
297
100
AcDbEntity
  8
RACCORDO
100
AcDbLine
 62
7
  6
CONTINUOUS
 10
175.6040717679
 20
96.2996681965
 11
176.2050670526
 21
97.8742730493
  0
LINE
  5
298
100
AcDbEntity
  8
RACCORDO
100
AcDbLine
 62
250
  6
CONTINUOUS
 10
178.4277174831
 20
98.9014978835
 11
178.4438851152
 21
98.9233700493
  0
LINE
  5
299
100
AcDbEntity
  8
RACCORDO
100
AcDbLine
 62
250
  6
CONTINUOUS
 10
178.6181922762
 20
98.7607012937
 11
178.6343599083
 21
98.7825734596
  0
LINE
  5
29A
100
AcDbEntity
  8
DRAFT
100
AcDbLine
 62
7
  6
CONTINUOUS
 10
178.6893910526
 20
96.5225650493
 11
178.7061269483
 21
96.5444372152
  0
LINE
  5
29B
100
AcDbEntity
  8
RACCORDO
100
AcDbLine
 62
250
  6
CONTINUOUS
 10
178.8284732645
 20
96.0927520912
 11
178.8117373687
 21
96.0708799253
  0
LINE
  5
29C
100
AcDbEntity
  8
RACCORDO
100
AcDbLine
 62
250
  6
CONTINUOUS
 10
179.0207823395
 20
95.9456032152
 11
179.0040464437
 21
95.9237310493
  0
LINE
  5
29D
100
AcDbEntity
  8
RACCORDO
100
AcDbLine
 62
250
  6
CONTINUOUS
 10
176.3419116751
 20
96.1317303465
 11
176.3214345146
 21
96.1098581806
  0
LINE
  5
29E
100
AcDbEntity
  8
RACCORDO
100
AcDbLine
 62
250
  6
CONTINUOUS
 10
176.540718706
 20
95.9456032152
 11
176.5202415455
 21
95.9237310493
  0
LINE
  5
29F
100
AcDbEntity
  8
DRAFT
100
AcDbLine
 62
7
  6
CONTINUOUS
 10
180.2982502884
 20
97.5888920509
 11
180.2763781226
 21
97.567019885
  0
LINE
  5
2A0
100
AcDbEntity
  8
RACCORDO
100
AcDbLine
 62
250
  6
CONTINUOUS
 10
179.7172614421
 20
96.1448417015
 11
179.6953892762
 21
96.1229695356
  0
LINE
  5
2A1
100
AcDbEntity
  8
RACCORDO
100
AcDbLine
 62
250
  6
CONTINUOUS
 10
179.9165003817
 20
95.9456027619
 11
179.8946282158
 21
95.923730596
  0
LWPOLYLINE
  5
2A2
100
AcDbEntity
  8
DRAFT
100
AcDbPolyline
 62
7
  6
CONTINUOUS
 90
48
 70
0
 10
181.4282346446
 20
97.4184238437
 10
181.4411705376
 20
97.4296253272
 10
181.4543351808
 20
97.4413846638
 10
181.4677504331
 20
97.4536829091
 10
181.4813944356
 20
97.4665390075
 10
181.4951673403
 20
97.4801318744
 10
181.5090907919
 20
97.4944531394
 10
181.5231431457
 20
97.5095111728
 10
181.5371596198
 20
97.5255100005
 10
181.5511303511
 20
97.5424636064
 10
181.5650652027
 20
97.5603580066
 10
181.578828981
 20
97.5793552749
 10
181.5924293551
 20
97.5994774514
 10
181.6058586559
 20
97.6207024961
 10
181.6189586829
 20
97.643126362
 10
181.6317451761
 20
97.6667405283
 10
181.6442023955
 20
97.6915535158
 10
181.6561249199
 20
97.7176868409
 10
181.6675476769
 20
97.7451689495
 10
181.6784357389
 20
97.7739713956
 10
181.6884789021
 20
97.8041303579
 10
181.6976782942
 20
97.8355940758
 10
181.7060327875
 20
97.8684143099
 10
181.7132287951
 20
97.9027825211
 10
181.7192968945
 20
97.9387106644
 10
181.7242065082
 20
97.9761867847
 10
181.7275523169
 20
98.0153664776
 10
181.7293961395
 20
98.0563231182
 10
181.7296761571
 20
98.0989833313
 10
181.727801593
 20
98.1432825869
 10
181.7238831333
 20
98.1894830879
 10
181.717810092
 20
98.2373226312
 10
181.7086596339
 20
98.2859500781
 10
181.6963348063
 20
98.3354893867
 10
181.6809325619
 20
98.3858165988
 10
181.6618209229
 20
98.4357087011
 10
181.6385385438
 20
98.4854109607
 10
181.6115467701
 20
98.5346781104
 10
181.5815976602
 20
98.5815513364
 10
181.5484352224
 20
98.6257221373
 10
181.5123154484
 20
98.6674990144
 10
181.4747583717
 20
98.7058486572
 10
181.4355914021
 20
98.7406179451
 10
181.3949871298
 20
98.7719599986
 10
181.3549833589
 20
98.799300869
 10
181.3162593574
 20
98.8224492401
 10
181.2781358574
 20
98.8415964281
 10
181.2406128587
 20
98.8567424331
  0
LINE
  5
2A3
100
AcDbEntity
  8
RACCORDO
100
AcDbLine
 62
250
  6
CONTINUOUS
 10
177.3456515673
 20
95.9456032152
 11
177.3158681873
 21
95.9237310493
  0
LWPOLYLINE
  5
2A4
100
AcDbEntity
  8
DRAFT
100
AcDbPolyline
 62
7
  6
CONTINUOUS
 90
6
 70
0
 10
181.3548118913
 20
97.3607097304
 10
181.3669951379
 20
97.3689630324
 10
181.3791555663
 20
97.3778535432
 10
181.391218507
 20
97.387218343
 10
181.4032586293
 20
97.3972203516
 10
181.4282346446
 20
97.4184238437
  0
LWPOLYLINE
  5
2A5
100
AcDbEntity
  8
IMPORT_IGES
100
AcDbPolyline
 62
7
  6
CONTINUOUS
 90
67
 70
0
 10
181.3535019323
 20
97.3599213306
 10
181.3646813152
 20
97.3671984053
 10
181.3755973719
 20
97.3751269552
 10
181.3862991309
 20
97.3834903307
 10
181.3968356208
 20
97.3920718823
 10
181.4176889477
 20
97.4094528152
 10
181.4380434822
 20
97.426928621
 10
181.4578722273
 20
97.4445879773
 10
181.4771481862
 20
97.4625195618
 10
181.4958443618
 20
97.4808120521
 10
181.5139337572
 20
97.4995541259
 10
181.5313893756
 20
97.5188344609
 10
181.5481842199
 20
97.5387417346
 10
181.5655533055
 20
97.5610199127
 10
181.5821067937
 20
97.5840716809
 10
181.5978313524
 20
97.6078358831
 10
181.6127136497
 20
97.6322513633
 10
181.6267403532
 20
97.6572569653
 10
181.6398981311
 20
97.6827915331
 10
181.6521736512
 20
97.7087939105
 10
181.6635535814
 20
97.7352029415
 10
181.6740245897
 20
97.76195747
 10
181.6835733439
 20
97.7889963398
 10
181.6921833765
 20
97.8162412467
 10
181.6998714996
 20
97.8436932157
 10
181.7066497012
 20
97.8713365261
 10
181.7125299697
 20
97.8991554576
 10
181.7175242931
 20
97.9271342896
 10
181.7216446595
 20
97.9552573017
 10
181.7253000492
 20
97.9875609306
 10
181.727848379
 20
98.0199914251
 10
181.7293090927
 20
98.0525077674
 10
181.729701634
 20
98.0850689399
 10
181.7290454466
 20
98.1176339247
 10
181.7273599742
 20
98.1501617041
 10
181.7247351008
 20
98.1818031537
 10
181.721114716
 20
98.2133318039
 10
181.7164634054
 20
98.2447092253
 10
181.7107457546
 20
98.2758969885
 10
181.703926349
 20
98.306856664
 10
181.6968299715
 20
98.3344592019
 10
181.6888078804
 20
98.3618128411
 10
181.6798532311
 20
98.3888840374
 10
181.6699591788
 20
98.4156392464
 10
181.6591188789
 20
98.4420449239
 10
181.6462402114
 20
98.4703533141
 10
181.6322593031
 20
98.4981606332
 10
181.6172034092
 20
98.5254197876
 10
181.6010997848
 20
98.552083684
 10
181.5839756851
 20
98.5781052288
 10
181.5658583652
 20
98.6034373285
 10
181.5467750803
 20
98.6280328897
 10
181.5267530856
 20
98.6518448188
 10
181.5070062361
 20
98.6735763014
 10
181.4864740699
 20
98.6945496953
 10
181.4651843147
 20
98.7147479435
 10
181.4431646982
 20
98.7341539889
 10
181.420442948
 20
98.7527507746
 10
181.397046792
 20
98.7705212435
 10
181.3730039577
 20
98.7874483385
 10
181.355085491
 20
98.7992357194
 10
181.336837175
 20
98.8105013544
 10
181.3182580097
 20
98.8211806462
 10
181.2993469953
 20
98.8312089974
 10
181.280103132
 20
98.8405218105
 10
181.2605254197
 20
98.8490544882
 10
181.2406128587
 20
98.8567424331
  0
LWPOLYLINE
  5
2A6
100
AcDbEntity
  8
0
100
AcDbPolyline
 62
7
  6
CONTINUOUS
 90
4
 70
0
 43
0.3500000006
 10
245.059043335
 20
88.2748793335
 10
244.4161898804
 20
88.2748793335
 10
244.4161898804
 20
89.7748797913
 10
247.4161907959
 20
88.9177327881
  0
LINE
  5
2A7
100
AcDbEntity
  8
RACCORDO
100
AcDbLine
 62
250
  6
CONTINUOUS
 10
171.5831296384
 20
95.9456032152
 11
171.5990734006
 21
95.9237310493
  0
LINE
  5
2A8
100
AcDbEntity
  8
RACCORDO
100
AcDbLine
 62
250
  6
CONTINUOUS
 10
171.7728101672
 20
96.0838712432
 11
171.7887539294
 21
96.0619990773
  0
LINE
  5
2A9
100
AcDbEntity
  8
RACCORDO
100
AcDbLine
 62
7
  6
CONTINUOUS
 10
170.3238272563
 20
98.6639216289
 11
171.1484460057
 21
96.0627605081
  0
LINE
  5
2AA
100
AcDbEntity
  8
IMPORT_IGES
100
AcDbLine
 62
7
  6
CONTINUOUS
 10
171.1925210526
 20
95.9237310493
 11
170.2415770526
 21
98.9233700493
  0
LINE
  5
2AB
100
AcDbEntity
  8
RACCORDO
100
AcDbLine
 62
7
  6
CONTINUOUS
 10
170.3537061072
 20
98.642049463
 11
171.1644570512
 21
96.084632674
  0
LINE
  5
2AC
100
AcDbEntity
  8
RACCORDO
100
AcDbLine
 62
7
  6
CONTINUOUS
 10
171.4932292803
 20
96.7778148504
 11
170.9455722628
 21
98.7554324666
  0
LINE
  5
2AD
100
AcDbEntity
  8
IMPORT_IGES
100
AcDbLine
 62
7
  6
CONTINUOUS
 10
170.9217610526
 20
98.9233700493
 11
171.4935460526
 21
96.8586250493
  0
LINE
  5
2AE
100
AcDbEntity
  8
RACCORDO
100
AcDbLine
 62
7
  6
CONTINUOUS
 10
171.4935460526
 20
96.8586250493
 11
170.9622106066
 21
98.7773046324
  0
LINE
  5
2AF
100
AcDbEntity
  8
DRAFT
100
AcDbLine
 62
7
  6
CONTINUOUS
 10
174.6382260526
 20
97.8824380493
 11
174.6233377224
 21
97.9844288966
  0
LINE
  5
2B0
100
AcDbEntity
  8
RACCORDO
100
AcDbLine
 62
7
  6
CONTINUOUS
 10
176.9018644413
 20
96.1633923096
 11
176.6627171941
 21
98.7208090986
  0
LINE
  5
2B1
100
AcDbEntity
  8
IMPORT_IGES
100
AcDbLine
 62
7
  6
CONTINUOUS
 10
176.6657430526
 20
98.9233700493
 11
176.9462430526
 21
95.9237310493
  0
LINE
  5
2B2
100
AcDbEntity
  8
RACCORDO
100
AcDbLine
 62
7
  6
CONTINUOUS
 10
176.9258773216
 20
96.1415201437
 11
176.6826394872
 21
98.7426812645
  0
LINE
  5
2B3
100
AcDbEntity
  8
RACCORDO
100
AcDbLine
 62
7
  6
CONTINUOUS
 10
176.2050670526
 20
97.8742730493
 11
176.3214345146
 21
96.1098581806
  0
LINE
  5
2B4
100
AcDbEntity
  8
IMPORT_IGES
100
AcDbLine
 62
7
  6
CONTINUOUS
 10
176.3337100526
 20
95.9237310493
 11
176.2050670526
 21
97.8742730493
  0
LINE
  5
2B5
100
AcDbEntity
  8
RACCORDO
100
AcDbLine
 62
7
  6
CONTINUOUS
 10
176.2203078615
 20
97.9755410933
 11
176.3419116751
 21
96.1317303465
  0
LINE
  5
2B6
100
AcDbEntity
  8
IMPORT_IGES
100
AcDbLine
 62
7
  6
CONTINUOUS
 10
179.6953892762
 20
98.8883239733
 11
179.6953892762
 21
95.923730596
  0
LINE
  5
2B7
100
AcDbEntity
  8
RACCORDO
100
AcDbLine
 62
7
  6
CONTINUOUS
 10
179.6953892762
 20
98.7147603562
 11
179.6953892762
 21
96.1229695356
  0
LINE
  5
2B8
100
AcDbEntity
  8
RACCORDO
100
AcDbLine
 62
7
  6
CONTINUOUS
 10
179.7172614421
 20
98.6954826577
 11
179.7172614421
 21
96.1448417015
  0
LINE
  5
2B9
100
AcDbEntity
  8
DRAFT
100
AcDbLine
 62
7
  6
CONTINUOUS
 10
180.2763781226
 20
97.567019885
 11
180.2763781226
 21
98.408553179
  0
LINE
  5
2BA
100
AcDbEntity
  8
RACCORDO
100
AcDbLine
 62
7
  6
CONTINUOUS
 10
180.2971400611
 20
96.1448417015
 11
180.2971400611
 21
97.1194958123
  0
LINE
  5
2BB
100
AcDbEntity
  8
DRAFT
100
AcDbLine
 62
7
  6
CONTINUOUS
 10
180.2982502884
 20
97.5888920509
 11
180.2982502884
 21
98.4123514716
  0
LINE
  5
2BC
100
AcDbEntity
  8
IMPORT_IGES
100
AcDbLine
 62
7
  6
CONTINUOUS
 10
180.2982502884
 20
97.5888920509
 11
180.2982502884
 21
98.4123514716
  0
LINE
  5
2BD
100
AcDbEntity
  8
RACCORDO
100
AcDbLine
 62
7
  6
CONTINUOUS
 10
180.319012227
 20
96.1229695356
 11
180.319012227
 21
97.0976236465
  0
LINE
  5
2BE
100
AcDbEntity
  8
IMPORT_IGES
100
AcDbLine
 62
7
  6
CONTINUOUS
 10
180.319012227
 20
95.923730596
 11
180.319012227
 21
97.0976236465
  0
LINE
  5
2BF
100
AcDbEntity
  8
DRAFT
100
AcDbLine
 62
250
  6
CONTINUOUS
 10
180.6547347973
 20
97.0976236465
 11
180.6547347973
 21
97.1194958123
  0
LINE
  5
2C0
100
AcDbEntity
  8
DRAFT
100
AcDbLine
 62
7
  6
CONTINUOUS
 10
178.2765370526
 20
98.0991450493
 11
178.2773842783
 21
98.1832725242
  0
LWPOLYLINE
  5
2C1
100
AcDbEntity
  8
RACCORDO
100
AcDbPolyline
 62
7
  6
CONTINUOUS
 90
16
 70
0
 10
179.6953892762
 20
98.7147603562
 10
179.6963215105
 20
98.7340344075
 10
179.6990333374
 20
98.7528571804
 10
179.703524757
 20
98.7712286747
 10
179.7098975855
 20
98.7893612717
 10
179.7180500066
 20
98.8070425902
 10
179.7276765719
 20
98.8236354866
 10
179.7387354205
 20
98.8390015629
 10
179.7512684134
 20
98.8532792171
 10
179.7650956847
 20
98.8662464987
 10
179.7803657449
 20
98.8779669041
 10
179.7969300837
 20
98.888376937
 10
179.8141633039
 20
98.897064158
 10
179.8318569399
 20
98.9038910875
 10
179.8502194573
 20
98.9089952052
 10
179.8692508563
 20
98.9123765112
  0
LWPOLYLINE
  5
2C2
100
AcDbEntity
  8
DRAFT
100
AcDbPolyline
 62
7
  6
CONTINUOUS
 90
35
 70
0
 10
180.3528274517
 20
97.6418595777
 10
180.3529850226
 20
97.6431863394
 10
180.3537951158
 20
97.6442616803
 10
180.3550770773
 20
97.6451755158
 10
180.3564509254
 20
97.6459385436
 10
180.3578065407
 20
97.6465230189
 10
180.3592540427
 20
97.6469566866
 10
180.3607438075
 20
97.6473334784
 10
180.3622012197
 20
97.6476718176
 10
180.3637008948
 20
97.6479532809
 10
180.3654170554
 20
97.6482165309
 10
180.367442106
 20
97.6484805572
 10
180.3696836421
 20
97.64872637
 10
180.3720386734
 20
97.6489356626
 10
180.3745587371
 20
97.6491011415
 10
180.377192296
 20
97.6492301001
 10
180.3796817484
 20
97.6493261122
 10
180.3819254604
 20
97.649384397
 10
180.384025066
 20
97.6494097353
 10
180.3860278647
 20
97.6494200423
 10
180.3878766934
 20
97.6494209614
 10
180.3896287153
 20
97.6494068493
 10
180.3915027193
 20
97.6493786911
 10
180.3935725371
 20
97.64933801
 10
180.395764337
 20
97.6492832828
 10
180.3980754138
 20
97.6492109249
 10
180.4004981269
 20
97.6491211863
 10
180.4030401169
 20
97.6490138169
 10
180.4057215996
 20
97.6488844824
 10
180.4085415137
 20
97.6487334938
 10
180.4115009205
 20
97.6485605401
 10
180.4146232199
 20
97.6483603527
 10
180.4179055078
 20
97.6481334587
 10
180.4213506883
 20
97.6478793312
 10
180.4249908738
 20
97.6475911206
  0
LINE
  5
2C3
100
AcDbEntity
  8
DRAFT
100
AcDbLine
 62
250
  6
CONTINUOUS
 10
181.2406128587
 20
98.8567424331
 11
181.2331858779
 21
98.8361698391
  0
LINE
  5
2C4
100
AcDbEntity
  8
RACCORDO
100
AcDbLine
 62
250
  6
CONTINUOUS
 10
181.4437573985
 20
95.9456027619
 11
181.4273838563
 21
95.923730596
  0
LINE
  5
2C5
100
AcDbEntity
  8
RACCORDO
100
AcDbLine
 62
250
  6
CONTINUOUS
 10
181.252586675
 20
96.0887176468
 11
181.2362013831
 21
96.0668855182
  0
LINE
  5
2C6
100
AcDbEntity
  8
DRAFT
100
AcDbLine
 62
250
  6
CONTINUOUS
 10
181.6661038728
 20
96.7355414385
 11
181.6450003018
 21
96.7297941841
  0
LINE
  5
2C7
100
AcDbEntity
  8
DRAFT
100
AcDbLine
 62
7
  6
CONTINUOUS
 10
133.1834210526
 20
93.9105900493
 11
218.6834210526
 21
93.9105900493
  0
LINE
  5
2C8
100
AcDbEntity
  8
RACCORDO
100
AcDbLine
 62
250
  6
CONTINUOUS
 10
133.110741279
 20
93.983269823
 11
218.7561008263
 21
93.983269823
  0
LINE
  5
2C9
100
AcDbEntity
  8
RACCORDO
100
AcDbLine
 62
250
  6
CONTINUOUS
 10
170.3537061072
 20
98.642049463
 11
170.3238272563
 21
98.6639216289
  0
LINE
  5
2CA
100
AcDbEntity
  8
RACCORDO
100
AcDbLine
 62
250
  6
CONTINUOUS
 10
170.5436297062
 20
98.9014978835
 11
170.5137508554
 21
98.9233700493
  0
LINE
  5
2CB
100
AcDbEntity
  8
RACCORDO
100
AcDbLine
 62
250
  6
CONTINUOUS
 10
176.703490938
 20
95.9456032152
 11
176.7275038183
 21
95.9237310493
  0
LINE
  5
2CC
100
AcDbEntity
  8
RACCORDO
100
AcDbLine
 62
250
  6
CONTINUOUS
 10
176.9018644413
 20
96.1633923096
 11
176.9258773216
 21
96.1415201437
  0
LINE
  5
2CD
100
AcDbEntity
  8
RACCORDO
100
AcDbLine
 62
250
  6
CONTINUOUS
 10
173.3459069471
 20
95.9456032152
 11
173.367779113
 21
95.9237310493
  0
LINE
  5
2CE
100
AcDbEntity
  8
RACCORDO
100
AcDbLine
 62
250
  6
CONTINUOUS
 10
173.5451458868
 20
96.1448421548
 11
173.5670180526
 21
96.122969989
  0
LINE
  5
2CF
100
AcDbEntity
  8
RACCORDO
100
AcDbLine
 62
250
  6
CONTINUOUS
 10
172.9627482185
 20
98.7024389438
 11
172.9408760526
 21
98.7243111097
  0
LINE
  5
2D0
100
AcDbEntity
  8
RACCORDO
100
AcDbLine
 62
250
  6
CONTINUOUS
 10
173.1619871581
 20
98.9016778835
 11
173.1401149922
 21
98.9235500493
  0
LINE
  5
2D1
100
AcDbEntity
  8
RACCORDO
100
AcDbLine
 62
250
  6
CONTINUOUS
 10
174.2967217527
 20
95.9456032152
 11
174.3171370537
 21
95.9237310493
  0
LINE
  5
2D2
100
AcDbEntity
  8
RACCORDO
100
AcDbLine
 62
250
  6
CONTINUOUS
 10
174.4954882985
 20
96.1311302855
 11
174.5159035995
 21
96.1092581196
  0
LINE
  5
2D3
100
AcDbEntity
  8
RACCORDO
100
AcDbLine
 62
250
  6
CONTINUOUS
 10
174.1785540327
 20
98.7201761069
 11
174.1585678086
 21
98.7420482728
  0
LINE
  5
2D4
100
AcDbEntity
  8
RACCORDO
100
AcDbLine
 62
250
  6
CONTINUOUS
 10
174.3769857095
 20
98.9014978835
 11
174.3569994853
 21
98.9233700493
  0
LINE
  5
2D5
100
AcDbEntity
  8
RACCORDO
100
AcDbLine
 62
250
  6
CONTINUOUS
 10
172.058045369
 20
98.7569361685
 11
172.0415419752
 21
98.7788083344
  0
LINE
  5
2D6
100
AcDbEntity
  8
RACCORDO
100
AcDbLine
 62
250
  6
CONTINUOUS
 10
172.2496349202
 20
98.9014978835
 11
172.2331315265
 21
98.9233700493
  0
LINE
  5
2D7
100
AcDbEntity
  8
RACCORDO
100
AcDbLine
 62
250
  6
CONTINUOUS
 10
177.4975781823
 20
95.9456032152
 11
177.5140319189
 21
95.9237310493
  0
LINE
  5
2D8
100
AcDbEntity
  8
RACCORDO
100
AcDbLine
 62
250
  6
CONTINUOUS
 10
177.6890085548
 20
96.0896102117
 11
177.7054622914
 21
96.0677380458
  0
LINE
  5
2D9
100
AcDbEntity
  8
RACCORDO
100
AcDbLine
 62
250
  6
CONTINUOUS
 10
176.012834417
 20
98.7723748964
 11
175.9976907469
 21
98.7942470623
  0
LINE
  5
2DA
100
AcDbEntity
  8
RACCORDO
100
AcDbLine
 62
7
  6
CONTINUOUS
 10
174.6382260526
 20
97.8824380493
 11
175.2313780992
 21
96.300754977
  0
LINE
  5
2DB
100
AcDbEntity
  8
IMPORT_IGES
100
AcDbLine
 62
7
  6
CONTINUOUS
 10
175.3727670526
 20
95.9237310493
 11
174.6382260526
 21
97.8824380493
  0
LINE
  5
2DC
100
AcDbEntity
  8
RACCORDO
100
AcDbLine
 62
7
  6
CONTINUOUS
 10
174.6233377224
 20
97.9844288966
 11
175.2315583364
 21
96.3625643933
  0
LINE
  5
2DD
100
AcDbEntity
  8
RACCORDO
100
AcDbLine
 62
7
  6
CONTINUOUS
 10
175.4199852782
 20
97.1955205816
 11
174.8336403218
 21
98.7717247102
  0
LINE
  5
2DE
100
AcDbEntity
  8
IMPORT_IGES
100
AcDbLine
 62
7
  6
CONTINUOUS
 10
174.8005650526
 20
98.9233700493
 11
175.4200940526
 21
97.2579610493
  0
LINE
  5
2DF
100
AcDbEntity
  8
RACCORDO
100
AcDbLine
 62
7
  6
CONTINUOUS
 10
175.4200940526
 20
97.2579610493
 11
174.8488404278
 21
98.7935968761
  0
LINE
  5
2E0
100
AcDbEntity
  8
RACCORDO
100
AcDbLine
 62
7
  6
CONTINUOUS
 10
178.6893910526
 20
96.5225650493
 11
178.8117373687
 21
96.0708799253
  0
LINE
  5
2E1
100
AcDbEntity
  8
IMPORT_IGES
100
AcDbLine
 62
7
  6
CONTINUOUS
 10
178.8515950526
 20
95.9237310493
 11
178.6893910526
 21
96.5225650493
  0
LINE
  5
2E2
100
AcDbEntity
  8
RACCORDO
100
AcDbLine
 62
7
  6
CONTINUOUS
 10
178.7061269483
 20
96.5444372152
 11
178.8284732645
 21
96.0927520912
  0
LINE
  5
2E3
100
AcDbEntity
  8
DRAFT
100
AcDbLine
 62
7
  6
CONTINUOUS
 10
178.2765370526
 20
98.0991450493
 11
178.5642570526
 21
96.9859410493
  0
LINE
  5
2E4
100
AcDbEntity
  8
IMPORT_IGES
100
AcDbLine
 62
7
  6
CONTINUOUS
 10
178.5642570526
 20
96.9859410493
 11
178.2765370526
 21
98.0991450493
  0
LINE
  5
2E5
100
AcDbEntity
  8
DRAFT
100
AcDbLine
 62
7
  6
CONTINUOUS
 10
178.2773842783
 20
98.1832725242
 11
178.5925010686
 21
96.9640688835
  0
LINE
  5
2E6
100
AcDbEntity
  8
DRAFT
100
AcDbLine
 62
7
  6
CONTINUOUS
 10
181.3051705657
 20
97.3002531362
 11
181.3051705657
 21
97.3637753407
  0
LWPOLYLINE
  5
2E7
100
AcDbEntity
  8
DRAFT
100
AcDbPolyline
 62
7
  6
CONTINUOUS
 90
65
 70
0
 10
181.1424716477
 20
98.0550346857
 10
181.1420895384
 20
98.017459089
 10
181.1399359029
 20
97.9817171557
 10
181.1360107412
 20
97.9478088859
 10
181.130244881
 20
97.9157451086
 10
181.1227074945
 20
97.8855149948
 10
181.1136060984
 20
97.8570860572
 10
181.1028083543
 20
97.8304409824
 10
181.0904466005
 20
97.8055970837
 10
181.0771253684
 20
97.7825738148
 10
181.0628630737
 20
97.7614219506
 10
181.0476413007
 20
97.7420907161
 10
181.032009334
 20
97.7244472396
 10
181.0160350621
 20
97.7085477094
 10
180.9996505965
 20
97.6943359372
 10
180.9832015565
 20
97.6815104866
 10
180.9667213699
 20
97.6700966265
 10
180.950176609
 20
97.660069088
 10
180.9338126096
 20
97.6510506277
 10
180.9176631588
 20
97.6430097455
 10
180.9016944695
 20
97.6359779415
 10
180.8860505167
 20
97.6296724727
 10
180.8707563964
 20
97.6240674875
 10
180.8557870125
 20
97.6191888375
 10
180.8412110519
 20
97.6148313348
 10
180.827046365
 20
97.6109762569
 10
180.8132751012
 20
97.6076423262
 10
180.799912396
 20
97.6046805219
 10
180.7869698435
 20
97.6020768502
 10
180.7744358494
 20
97.5998453049
 10
180.7622907663
 20
97.597878846
 10
180.750530506
 20
97.5961663018
 10
180.7391591565
 20
97.5947188441
 10
180.7281693342
 20
97.5934629487
 10
180.7177164892
 20
97.592397714
 10
180.7076451713
 20
97.5915240416
 10
180.6974816467
 20
97.5907711129
 10
180.6869945784
 20
97.5901148768
 10
180.6764153033
 20
97.5895793845
 10
180.6659640983
 20
97.5891659703
 10
180.6556534691
 20
97.5888828997
 10
180.64547091
 20
97.5887219072
 10
180.6355991798
 20
97.588659532
 10
180.6261025412
 20
97.5886976038
 10
180.6169167315
 20
97.5888342928
 10
180.6080317221
 20
97.5890406483
 10
180.5994510142
 20
97.5893144397
 10
180.5911711065
 20
97.5896578975
 10
180.5831714664
 20
97.5900487634
 10
180.5754522561
 20
97.5904852559
 10
180.5680133133
 20
97.5909691564
 10
180.5608336189
 20
97.5914835508
 10
180.553913611
 20
97.5920270141
 10
180.5472528514
 20
97.5926009713
 10
180.5408290057
 20
97.593192783
 10
180.5346422062
 20
97.5938013166
 10
180.5286923205
 20
97.5944277048
 10
180.5229566175
 20
97.5950627059
 10
180.5174350054
 20
97.5957054258
 10
180.512127576
 20
97.5963567585
 10
180.5070118729
 20
97.5970101453
 10
180.5020876468
 20
97.5976648849
 10
180.4973551471
 20
97.5983216784
 10
180.4927926657
 20
97.5989760708
 10
180.4883998477
 20
97.5996275159
  0
LWPOLYLINE
  5
2E8
100
AcDbEntity
  8
DRAFT
100
AcDbPolyline
 62
7
  6
CONTINUOUS
 90
67
 70
0
 10
181.3051705657
 20
97.3637753407
 10
181.3144824476
 20
97.3662771636
 10
181.3237420121
 20
97.3696103844
 10
181.3329492593
 20
97.3737750031
 10
181.342079836
 20
97.3788946165
 10
181.3511580953
 20
97.3848456278
 10
181.360257097
 20
97.3912572467
 10
181.3693652087
 20
97.3980684043
 10
181.3784940629
 20
97.4053401696
 10
181.3877516167
 20
97.4128849594
 10
181.3971522153
 20
97.4206203042
 10
181.4066815136
 20
97.4286286736
 10
181.416404433
 20
97.4369698929
 10
181.4263484979
 20
97.4456430302
 10
181.4364861841
 20
97.4546490174
 10
181.4467998406
 20
97.4640504753
 10
181.4572985572
 20
97.4738330475
 10
181.4679732441
 20
97.4840110904
 10
181.4787789814
 20
97.4946902943
 10
181.4897290904
 20
97.5058588269
 10
181.5008102497
 20
97.5175285204
 10
181.5119375752
 20
97.5298405619
 10
181.52311721
 20
97.5428099818
 10
181.534343011
 20
97.5564217496
 10
181.5455116648
 20
97.5707719604
 10
181.556612126
 20
97.585864681
 10
181.56765544
 20
97.6016958445
 10
181.5785714295
 20
97.6183493459
 10
181.5893695943
 20
97.6358252407
 10
181.6000404347
 20
97.6541234734
 10
181.6104852737
 20
97.673327772
 10
181.6207209729
 20
97.6934450471
 10
181.6307306707
 20
97.7144683882
 10
181.6403651056
 20
97.7364607915
 10
181.6496344195
 20
97.7594003339
 10
181.6585284704
 20
97.7833089385
 10
181.6668675702
 20
97.8083153707
 10
181.6746697894
 20
97.8344417551
 10
181.6819170575
 20
97.8616659672
 10
181.6883754739
 20
97.8900503985
 10
181.6940511029
 20
97.9196024776
 10
181.6989378803
 20
97.9503147759
 10
181.7027837126
 20
97.9822273992
 10
181.7056061768
 20
98.0153180957
 10
181.707387696
 20
98.0496091171
 10
181.7078234462
 20
98.0852073241
 10
181.7069943693
 20
98.1221886729
 10
181.7048195234
 20
98.1604772074
 10
181.7007512581
 20
98.1999519191
 10
181.6948910604
 20
98.2406943703
 10
181.6871374434
 20
98.2826229987
 10
181.676638296
 20
98.3253721097
 10
181.6632129393
 20
98.3692742825
 10
181.6470420524
 20
98.4139969379
 10
181.627815561
 20
98.4581766438
 10
181.6052065182
 20
98.5018606672
 10
181.5795418711
 20
98.5450017411
 10
181.551492387
 20
98.5860946325
 10
181.5209562088
 20
98.6248519649
 10
181.4880351935
 20
98.6615611147
 10
181.4537056798
 20
98.6955789783
 10
181.4178085556
 20
98.7269027844
 10
181.3805029329
 20
98.7555353044
 10
181.3432424863
 20
98.7808417488
 10
181.306511774
 20
98.8026105211
 10
181.2698262379
 20
98.8210532179
 10
181.2331858779
 20
98.8361698391
  0
LWPOLYLINE
  5
2E9
100
AcDbEntity
  8
DRAFT
100
AcDbPolyline
 62
7
  6
CONTINUOUS
 90
5
 70
0
 10
181.3051705657
 20
97.3416607765
 10
181.3177130258
 20
97.34437439
 10
181.3301708352
 20
97.3484154092
 10
181.3425439939
 20
97.3537838341
 10
181.3548118913
 20
97.3607097304
  0
LWPOLYLINE
  5
2EA
100
AcDbEntity
  8
DRAFT
100
AcDbPolyline
 62
7
  6
CONTINUOUS
 90
10
 70
0
 10
180.2763781226
 20
98.408553179
 10
180.3343505598
 20
98.4187063676
 10
180.3920096924
 20
98.4269339035
 10
180.4493555203
 20
98.4332357868
 10
180.5063167361
 20
98.4376342078
 10
180.5629646471
 20
98.4401069762
 10
180.619513176
 20
98.4405875209
 10
180.6760336301
 20
98.4390536515
 10
180.732454702
 20
98.4355275584
 10
180.7887763917
 20
98.4300092416
  0
LWPOLYLINE
  5
2EB
100
AcDbEntity
  8
RACCORDO
100
AcDbPolyline
 62
7
  6
CONTINUOUS
 90
16
 70
0
 10
179.891635463
 20
98.893163944
 10
179.8725609852
 20
98.8898248164
 10
179.8541533162
 20
98.8847544145
 10
179.836412456
 20
98.8779527382
 10
179.8191278991
 20
98.8692814802
 10
179.802510151
 20
98.8588789478
 10
179.7871907279
 20
98.8471600632
 10
179.7733200292
 20
98.8341885622
 10
179.7607476554
 20
98.8199007092
 10
179.7496539244
 20
98.8045202194
 10
179.7399968022
 20
98.7879089495
 10
179.7318183227
 20
98.770205043
 10
179.725424905
 20
98.7520466459
 10
179.7209186889
 20
98.7336464737
 10
179.7181975346
 20
98.714791811
 10
179.7172614421
 20
98.6954826577
  0
LWPOLYLINE
  5
2EC
100
AcDbEntity
  8
IMPORT_IGES
100
AcDbPolyline
 62
7
  6
CONTINUOUS
 90
28
 70
0
 10
181.3051705657
 20
97.3416607765
 10
181.3070863512
 20
97.3419276105
 10
181.3089911364
 20
97.3422318136
 10
181.3108850805
 20
97.3425726813
 10
181.3127683431
 20
97.3429495091
 10
181.3146410835
 20
97.3433615926
 10
181.3165034612
 20
97.3438082274
 10
181.3183556356
 20
97.3442887091
 10
181.3201977661
 20
97.3448023331
 10
181.3220300121
 20
97.345348395
 10
181.3238525331
 20
97.3459261905
 10
181.3256654884
 20
97.346535015
 10
181.3274690375
 20
97.3471741641
 10
181.3292633399
 20
97.3478429333
 10
181.3310485548
 20
97.3485406183
 10
181.3328248417
 20
97.3492665145
 10
181.3345923602
 20
97.3500199175
 10
181.3363512694
 20
97.350800123
 10
181.338101729
 20
97.3516064263
 10
181.3398438983
 20
97.3524381232
 10
181.3415779367
 20
97.3532945091
 10
181.3433040037
 20
97.3541748796
 10
181.3450222586
 20
97.3550785303
 10
181.3467328609
 20
97.3560047567
 10
181.34843597
 20
97.3569528544
 10
181.3501317454
 20
97.3579221189
 10
181.3518203463
 20
97.3589118458
 10
181.3535019323
 20
97.3599213306
  0
LWPOLYLINE
  5
2ED
100
AcDbEntity
  8
RACCORDO
100
AcDbPolyline
 62
7
  6
CONTINUOUS
 90
19
 70
0
 10
181.5932814187
 20
95.9456027619
 10
181.6136835423
 20
95.9466902007
 10
181.633472903
 20
95.9496768495
 10
181.652649501
 20
95.9545627083
 10
181.6713499347
 20
95.9613833113
 10
181.6894376056
 20
95.9701031243
 10
181.7065027177
 20
95.9806155449
 10
181.7226254195
 20
95.9930494179
 10
181.7377255624
 20
96.0072758985
 10
181.751152905
 20
96.0228018502
 10
181.7627982155
 20
96.0397154779
 10
181.7727707256
 20
96.0579285768
 10
181.7807478893
 20
96.0766833953
 10
181.7866207497
 20
96.0958780662
 10
181.7904982637
 20
96.1156144567
 10
181.7923847562
 20
96.1354404169
 10
181.7922816689
 20
96.1552052302
 10
181.7901875602
 20
96.1750596132
 10
181.7861024301
 20
96.1950035658
  0
LINE
  5
2EE
100
AcDbEntity
  8
RACCORDO
100
AcDbLine
 62
250
  6
CONTINUOUS
 10
131.6164492318
 20
95.4775618701
 11
220.2503928734
 21
95.4775618701
  0
LINE
  5
2EF
100
AcDbEntity
  8
RACCORDO
100
AcDbLine
 62
7
  6
CONTINUOUS
 10
179.8946282158
 20
95.923730596
 11
180.1197732873
 21
95.923730596
  0
LINE
  5
2F0
100
AcDbEntity
  8
IMPORT_IGES
100
AcDbLine
 62
7
  6
CONTINUOUS
 10
179.6953892762
 20
95.923730596
 11
180.319012227
 21
95.923730596
  0
LINE
  5
2F1
100
AcDbEntity
  8
RACCORDO
100
AcDbLine
 62
7
  6
CONTINUOUS
 10
181.4273838563
 20
95.923730596
 11
181.6215735844
 21
95.923730596
  0
LINE
  5
2F2
100
AcDbEntity
  8
IMPORT_IGES
100
AcDbLine
 62
7
  6
CONTINUOUS
 10
181.2778628806
 20
95.923730596
 11
181.8801390495
 21
95.923730596
  0
LINE
  5
2F3
100
AcDbEntity
  8
IMPORT_IGES
100
AcDbLine
 62
7
  6
CONTINUOUS
 10
179.5115230526
 20
95.9237310493
 11
178.8515950526
 21
95.9237310493
  0
LINE
  5
2F4
100
AcDbEntity
  8
IMPORT_IGES
100
AcDbLine
 62
7
  6
CONTINUOUS
 10
177.6639130526
 20
95.9237310493
 11
177.0445640526
 21
95.9237310493
  0
LINE
  5
2F5
100
AcDbEntity
  8
IMPORT_IGES
100
AcDbLine
 62
7
  6
CONTINUOUS
 10
176.9462430526
 20
95.9237310493
 11
176.3337100526
 21
95.9237310493
  0
LINE
  5
2F6
100
AcDbEntity
  8
IMPORT_IGES
100
AcDbLine
 62
7
  6
CONTINUOUS
 10
175.4605840526
 20
95.9237310493
 11
175.3727670526
 21
95.9237310493
  0
LINE
  5
2F7
100
AcDbEntity
  8
IMPORT_IGES
100
AcDbLine
 62
7
  6
CONTINUOUS
 10
174.5031050526
 20
95.9237310493
 11
173.9040910526
 21
95.9237310493
  0
LINE
  5
2F8
100
AcDbEntity
  8
IMPORT_IGES
100
AcDbLine
 62
7
  6
CONTINUOUS
 10
171.7443090526
 20
95.9237310493
 11
171.1925210526
 21
95.9237310493
  0
LINE
  5
2F9
100
AcDbEntity
  8
RACCORDO
100
AcDbLine
 62
7
  6
CONTINUOUS
 10
171.3383696048
 20
95.9237310493
 11
171.5990734006
 21
95.9237310493
  0
LINE
  5
2FA
100
AcDbEntity
  8
RACCORDO
100
AcDbLine
 62
7
  6
CONTINUOUS
 10
173.1401149922
 20
95.9237310493
 11
173.367779113
 21
95.9237310493
  0
LINE
  5
2FB
100
AcDbEntity
  8
IMPORT_IGES
100
AcDbLine
 62
7
  6
CONTINUOUS
 10
172.9408760526
 20
95.9237310493
 11
173.5670180526
 21
95.9237310493
  0
LINE
  5
2FC
100
AcDbEntity
  8
RACCORDO
100
AcDbLine
 62
7
  6
CONTINUOUS
 10
174.1221305933
 20
95.9237310493
 11
174.3171370537
 21
95.9237310493
  0
LINE
  5
2FD
100
AcDbEntity
  8
RACCORDO
100
AcDbLine
 62
7
  6
CONTINUOUS
 10
176.5202415455
 20
95.9237310493
 11
176.7275038183
 21
95.9237310493
  0
LINE
  5
2FE
100
AcDbEntity
  8
RACCORDO
100
AcDbLine
 62
7
  6
CONTINUOUS
 10
177.3158681873
 20
95.9237310493
 11
177.5140319189
 21
95.9237310493
  0
LINE
  5
2FF
100
AcDbEntity
  8
RACCORDO
100
AcDbLine
 62
7
  6
CONTINUOUS
 10
179.0040464437
 20
95.9237310493
 11
179.2419853041
 21
95.9237310493
  0
LINE
  5
300
100
AcDbEntity
  8
RACCORDO
100
AcDbLine
 62
7
  6
CONTINUOUS
 10
179.9165003817
 20
95.9456027619
 11
180.0979011215
 21
95.9456027619
  0
LINE
  5
301
100
AcDbEntity
  8
RACCORDO
100
AcDbLine
 62
7
  6
CONTINUOUS
 10
181.4437573985
 20
95.9456027619
 11
181.5932814187
 21
95.9456027619
  0
LINE
  5
302
100
AcDbEntity
  8
RACCORDO
100
AcDbLine
 62
7
  6
CONTINUOUS
 10
171.3543806503
 20
95.9456032152
 11
171.5831296384
 21
95.9456032152
  0
LINE
  5
303
100
AcDbEntity
  8
RACCORDO
100
AcDbLine
 62
7
  6
CONTINUOUS
 10
173.1619871581
 20
95.9456032152
 11
173.3459069471
 21
95.9456032152
  0
LINE
  5
304
100
AcDbEntity
  8
RACCORDO
100
AcDbLine
 62
7
  6
CONTINUOUS
 10
174.1460666622
 20
95.9456032152
 11
174.2967217527
 21
95.9456032152
  0
LINE
  5
305
100
AcDbEntity
  8
RACCORDO
100
AcDbLine
 62
7
  6
CONTINUOUS
 10
176.540718706
 20
95.9456032152
 11
176.703490938
 21
95.9456032152
  0
LINE
  5
306
100
AcDbEntity
  8
RACCORDO
100
AcDbLine
 62
7
  6
CONTINUOUS
 10
177.3456515673
 20
95.9456032152
 11
177.4975781823
 21
95.9456032152
  0
LINE
  5
307
100
AcDbEntity
  8
RACCORDO
100
AcDbLine
 62
7
  6
CONTINUOUS
 10
179.0207823395
 20
95.9456032152
 11
179.2123958355
 21
95.9456032152
  0
LINE
  5
308
100
AcDbEntity
  8
IMPORT_IGES
100
AcDbLine
 62
7
  6
CONTINUOUS
 10
178.6893910526
 20
96.5225650493
 11
177.8366900526
 21
96.5225650493
  0
LINE
  5
309
100
AcDbEntity
  8
DRAFT
100
AcDbLine
 62
7
  6
CONTINUOUS
 10
177.8366900526
 20
96.5225650493
 11
178.6893910526
 21
96.5225650493
  0
LINE
  5
30A
100
AcDbEntity
  8
DRAFT
100
AcDbLine
 62
7
  6
CONTINUOUS
 10
177.8202363161
 20
96.5444372152
 11
178.7061269483
 21
96.5444372152
  0
LINE
  5
30B
100
AcDbEntity
  8
DRAFT
100
AcDbLine
 62
7
  6
CONTINUOUS
 10
178.5925010686
 20
96.9640688835
 11
177.9359307248
 21
96.9640688835
  0
LINE
  5
30C
100
AcDbEntity
  8
DRAFT
100
AcDbLine
 62
7
  6
CONTINUOUS
 10
178.5642570526
 20
96.9859410493
 11
177.9647700526
 21
96.9859410493
  0
LINE
  5
30D
100
AcDbEntity
  8
IMPORT_IGES
100
AcDbLine
 62
7
  6
CONTINUOUS
 10
177.9647700526
 20
96.9859410493
 11
178.5642570526
 21
96.9859410493
  0
LINE
  5
30E
100
AcDbEntity
  8
DRAFT
100
AcDbLine
 62
7
  6
CONTINUOUS
 10
180.319012227
 20
97.0976236465
 11
180.6547347973
 21
97.0976236465
  0
LINE
  5
30F
100
AcDbEntity
  8
IMPORT_IGES
100
AcDbLine
 62
7
  6
CONTINUOUS
 10
180.319012227
 20
97.0976236465
 11
180.6547347973
 21
97.0976236465
  0
LINE
  5
310
100
AcDbEntity
  8
DRAFT
100
AcDbLine
 62
7
  6
CONTINUOUS
 10
180.2971400611
 20
97.1194958123
 11
180.6547347973
 21
97.1194958123
  0
LINE
  5
311
100
AcDbEntity
  8
DRAFT
100
AcDbLine
 62
7
  6
CONTINUOUS
 10
180.8688303407
 20
97.567019885
 11
180.2763781226
 21
97.567019885
  0
LINE
  5
312
100
AcDbEntity
  8
DRAFT
100
AcDbLine
 62
7
  6
CONTINUOUS
 10
180.613927403
 20
97.5888920509
 11
180.2982502884
 21
97.5888920509
  0
LINE
  5
313
100
AcDbEntity
  8
IMPORT_IGES
100
AcDbLine
 62
7
  6
CONTINUOUS
 10
180.6144298541
 20
97.5888920509
 11
180.2982502884
 21
97.5888920509
  0
LINE
  5
314
100
AcDbEntity
  8
RACCORDO
100
AcDbLine
 62
7
  6
CONTINUOUS
 10
178.4277174831
 20
98.9014978835
 11
178.1478204928
 21
98.9014978835
  0
LINE
  5
315
100
AcDbEntity
  8
RACCORDO
100
AcDbLine
 62
7
  6
CONTINUOUS
 10
176.4643436908
 20
98.9014978835
 11
176.1993281387
 21
98.9014978835
  0
LINE
  5
316
100
AcDbEntity
  8
RACCORDO
100
AcDbLine
 62
7
  6
CONTINUOUS
 10
174.6469034417
 20
98.9014978835
 11
174.3769857095
 21
98.9014978835
  0
LINE
  5
317
100
AcDbEntity
  8
RACCORDO
100
AcDbLine
 62
7
  6
CONTINUOUS
 10
172.405185725
 20
98.9014978835
 11
172.2496349202
 21
98.9014978835
  0
LINE
  5
318
100
AcDbEntity
  8
RACCORDO
100
AcDbLine
 62
7
  6
CONTINUOUS
 10
170.7535599415
 20
98.9014978835
 11
170.5436297062
 21
98.9014978835
  0
LINE
  5
319
100
AcDbEntity
  8
RACCORDO
100
AcDbLine
 62
7
  6
CONTINUOUS
 10
173.3459069471
 20
98.9016778835
 11
173.1619871581
 21
98.9016778835
  0
LINE
  5
31A
100
AcDbEntity
  8
RACCORDO
100
AcDbLine
 62
7
  6
CONTINUOUS
 10
178.4438851152
 20
98.9233700493
 11
178.1317581237
 21
98.9233700493
  0
LINE
  5
31B
100
AcDbEntity
  8
RACCORDO
100
AcDbLine
 62
7
  6
CONTINUOUS
 10
176.4842659839
 20
98.9233700493
 11
176.1841844687
 21
98.9233700493
  0
LINE
  5
31C
100
AcDbEntity
  8
RACCORDO
100
AcDbLine
 62
7
  6
CONTINUOUS
 10
174.6621035478
 20
98.9233700493
 11
174.3569994853
 21
98.9233700493
  0
LINE
  5
31D
100
AcDbEntity
  8
RACCORDO
100
AcDbLine
 62
7
  6
CONTINUOUS
 10
172.4351906658
 20
98.9233700493
 11
172.2331315265
 21
98.9233700493
  0
LINE
  5
31E
100
AcDbEntity
  8
RACCORDO
100
AcDbLine
 62
7
  6
CONTINUOUS
 10
170.7701982853
 20
98.9233700493
 11
170.5137508554
 21
98.9233700493
  0
LINE
  5
31F
100
AcDbEntity
  8
IMPORT_IGES
100
AcDbLine
 62
7
  6
CONTINUOUS
 10
170.2415770526
 20
98.9233700493
 11
170.9217610526
 21
98.9233700493
  0
LINE
  5
320
100
AcDbEntity
  8
IMPORT_IGES
100
AcDbLine
 62
7
  6
CONTINUOUS
 10
172.0827980526
 20
98.9233700493
 11
172.7085130526
 21
98.9233700493
  0
LINE
  5
321
100
AcDbEntity
  8
IMPORT_IGES
100
AcDbLine
 62
7
  6
CONTINUOUS
 10
174.1749400526
 20
98.9233700493
 11
174.8005650526
 21
98.9233700493
  0
LINE
  5
322
100
AcDbEntity
  8
IMPORT_IGES
100
AcDbLine
 62
7
  6
CONTINUOUS
 10
176.0462370526
 20
98.9233700493
 11
176.6657430526
 21
98.9233700493
  0
LINE
  5
323
100
AcDbEntity
  8
IMPORT_IGES
100
AcDbLine
 62
7
  6
CONTINUOUS
 10
177.9854420526
 20
98.9233700493
 11
178.5911600526
 21
98.9233700493
  0
LINE
  5
324
100
AcDbEntity
  8
RACCORDO
100
AcDbLine
 62
7
  6
CONTINUOUS
 10
173.367779113
 20
98.9235500493
 11
173.1401149922
 21
98.9235500493
  0
LINE
  5
325
100
AcDbEntity
  8
IMPORT_IGES
100
AcDbLine
 62
7
  6
CONTINUOUS
 10
173.5670180526
 20
98.9235500493
 11
172.9408760526
 21
98.9235500493
  0
LWPOLYLINE
  5
326
100
AcDbEntity
  8
IMPORT_IGES
100
AcDbPolyline
 62
7
  6
CONTINUOUS
 90
48
 70
0
 10
180.6547347973
 20
97.0976236465
 10
180.6643755673
 20
97.0975012423
 10
180.6740334547
 20
97.0971326948
 10
180.6836985372
 20
97.0965160012
 10
180.6933608923
 20
97.0956491587
 10
180.7030105977
 20
97.0945301645
 10
180.712637731
 20
97.0931570161
 10
180.7222323699
 20
97.0915277105
 10
180.7317845919
 20
97.089640245
 10
180.7412844748
 20
97.087492617
 10
180.7507220961
 20
97.0850828236
 10
180.7600875334
 20
97.0824088622
 10
180.7693708644
 20
97.07946873
 10
180.7785621667
 20
97.0762604242
 10
180.787651518
 20
97.0727819421
 10
180.7966289958
 20
97.069031281
 10
180.8054846778
 20
97.0650064381
 10
180.8142086417
 20
97.0607054107
 10
180.8230091197
 20
97.05600775
 10
180.8316585648
 20
97.0510266232
 10
180.8401548939
 20
97.045771107
 10
180.8484960239
 20
97.0402502782
 10
180.8566798716
 20
97.0344732136
 10
180.8647043539
 20
97.0284489898
 10
180.8725673878
 20
97.0221866837
 10
180.8802668901
 20
97.0156953719
 10
180.8878007776
 20
97.0089841313
 10
180.8951669674
 20
97.0020620387
 10
180.9023633762
 20
96.9949381706
 10
180.9093879209
 20
96.987621604
 10
180.9162385185
 20
96.9801214156
 10
180.9229130858
 20
96.972446682
 10
180.9294095397
 20
96.9646064802
 10
180.9357257971
 20
96.9566098867
 10
180.9418597749
 20
96.9484659785
 10
180.9478093899
 20
96.9401838321
 10
180.953572559
 20
96.9317725245
 10
180.9591471992
 20
96.9232411323
 10
180.9645312273
 20
96.9145987323
 10
180.9697225602
 20
96.9058544013
 10
180.9747191148
 20
96.8970172159
 10
180.9795188079
 20
96.888096253
 10
180.9841195565
 20
96.8791005893
 10
180.9885192774
 20
96.8700393016
 10
180.9927158876
 20
96.8609214666
 10
180.9967073038
 20
96.851756161
 10
181.0004914431
 20
96.8425524617
 10
181.0040662222
 20
96.8333194454
  0
LWPOLYLINE
  5
327
100
AcDbEntity
  8
DRAFT
100
AcDbPolyline
 62
7
  6
CONTINUOUS
 90
25
 70
0
 10
180.6547347973
 20
97.0976236465
 10
180.6738632636
 20
97.0971683256
 10
180.6928524072
 20
97.0957277263
 10
180.7117022281
 20
97.0933018485
 10
180.7304760422
 20
97.089908838
 10
180.7491105336
 20
97.085530549
 10
180.7674157546
 20
97.0801125441
 10
180.7854103717
 20
97.0736213634
 10
180.8030757184
 20
97.0660904668
 10
180.820165847
 20
97.0575657964
 10
180.8366168129
 20
97.0479995908
 10
180.8524925608
 20
97.0374396114
 10
180.8677389764
 20
97.0260750848
 10
180.8823231647
 20
97.0139335572
 10
180.8962780208
 20
97.0009874825
 10
180.9096481155
 20
96.987343449
 10
180.9224412689
 20
96.9730303091
 10
180.9346496609
 20
96.9580192104
 10
180.9462944026
 20
96.9423301839
 10
180.9573963497
 20
96.9259881062
 10
180.9679346465
 20
96.9089681009
 10
180.9778678368
 20
96.8912155693
 10
180.987182102
 20
96.8727123121
 10
180.9958912608
 20
96.8534765287
 10
181.0039953132
 20
96.8335082192
  0
LWPOLYLINE
  5
328
100
AcDbEntity
  8
DRAFT
100
AcDbPolyline
 62
7
  6
CONTINUOUS
 90
25
 70
0
 10
180.6547347973
 20
97.1194958123
 10
180.6748697694
 20
97.1190004535
 10
180.6948597602
 20
97.1174783974
 10
180.7147047697
 20
97.114929644
 10
180.734468452
 20
97.1113700446
 10
180.7540871529
 20
97.106783748
 10
180.7733699104
 20
97.1011232006
 10
180.7923392563
 20
97.0943599083
 10
180.8109726587
 20
97.0865223652
 10
180.8290115603
 20
97.0776485004
 10
180.8463878813
 20
97.0676919642
 10
180.8631697015
 20
97.0566991062
 10
180.879302703
 20
97.0448469048
 10
180.8947543661
 20
97.032161164
 10
180.9095572104
 20
97.0186160798
 10
180.9237544774
 20
97.0043112173
 10
180.937354033
 20
96.9892775317
 10
180.9503480113
 20
96.9734840679
 10
180.9627560563
 20
96.9569375255
 10
180.9746020949
 20
96.9396644144
 10
180.9858622003
 20
96.9216382247
 10
180.9964842365
 20
96.902786126
 10
181.0064508249
 20
96.8830838415
 10
181.0157793442
 20
96.8625556479
 10
181.0244697942
 20
96.8412015454
  0
LWPOLYLINE
  5
329
100
AcDbEntity
  8
RACCORDO
100
AcDbPolyline
 62
7
  6
CONTINUOUS
 90
16
 70
0
 10
181.4273838563
 20
95.923730596
 10
181.4102376207
 20
95.9244697882
 10
181.3934131423
 20
95.926629794
 10
181.3769104211
 20
95.9302106134
 10
181.3605784781
 20
95.9352751561
 10
181.3445682924
 20
95.9417605124
 10
181.3293328011
 20
95.9494779529
 10
181.3149649848
 20
95.9584037092
 10
181.3013718629
 20
95.9685615498
 10
181.2887274313
 20
95.9798340507
 10
181.2769759827
 20
95.9923212024
 10
181.2661732243
 20
96.0059230144
 10
181.2566602734
 20
96.0202220915
 10
181.2485508358
 20
96.0350793019
 10
181.2417312057
 20
96.0506337775
 10
181.2362013831
 20
96.0668855182
  0
LWPOLYLINE
  5
32A
100
AcDbEntity
  8
DRAFT
100
AcDbPolyline
 62
7
  6
CONTINUOUS
 90
3
 70
0
 10
180.4249908738
 20
97.6475911206
 10
180.4328715899
 20
97.6469115146
 10
180.4371135732
 20
97.6465151409
  0
LWPOLYLINE
  5
32B
100
AcDbEntity
  8
DRAFT
100
AcDbPolyline
 62
7
  6
CONTINUOUS
 90
3
 70
0
 10
180.4371135732
 20
97.6465151409
 10
180.4464063839
 20
97.6455799536
 10
180.4510733775
 20
97.6450833986
  0
LINE
  5
32C
100
AcDbEntity
  8
DRAFT
100
AcDbLine
 62
7
  6
CONTINUOUS
 10
180.4510733775
 20
97.6450833986
 11
180.4601457148
 21
97.6440573617
  0
LINE
  5
32D
100
AcDbEntity
  8
DRAFT
100
AcDbLine
 62
7
  6
CONTINUOUS
 10
180.4601457148
 20
97.6440573617
 11
180.4678455831
 21
97.643143549
  0
LINE
  5
32E
100
AcDbEntity
  8
DRAFT
100
AcDbLine
 62
7
  6
CONTINUOUS
 10
180.4678455831
 20
97.643143549
 11
180.4744554598
 21
97.6423166429
  0
LINE
  5
32F
100
AcDbEntity
  8
DRAFT
100
AcDbLine
 62
7
  6
CONTINUOUS
 10
180.4744554598
 20
97.6423166429
 11
180.4822412308
 21
97.6413099923
  0
LINE
  5
330
100
AcDbEntity
  8
DRAFT
100
AcDbLine
 62
7
  6
CONTINUOUS
 10
180.4822412308
 20
97.6413099923
 11
180.4907679832
 21
97.6401641346
  0
LINE
  5
331
100
AcDbEntity
  8
DRAFT
100
AcDbLine
 62
7
  6
CONTINUOUS
 10
180.4907679832
 20
97.6401641346
 11
180.5000533246
 21
97.6388701609
  0
LINE
  5
332
100
AcDbEntity
  8
DRAFT
100
AcDbLine
 62
7
  6
CONTINUOUS
 10
180.5000533246
 20
97.6388701609
 11
180.5102096421
 21
97.6374035781
  0
LINE
  5
333
100
AcDbEntity
  8
DRAFT
100
AcDbLine
 62
7
  6
CONTINUOUS
 10
180.5102096421
 20
97.6374035781
 11
180.5213521763
 21
97.6357359494
  0
LINE
  5
334
100
AcDbEntity
  8
DRAFT
100
AcDbLine
 62
7
  6
CONTINUOUS
 10
180.5213521763
 20
97.6357359494
 11
180.5335680531
 21
97.6338458145
  0
LWPOLYLINE
  5
335
100
AcDbEntity
  8
DRAFT
100
AcDbPolyline
 62
7
  6
CONTINUOUS
 90
3
 70
0
 10
180.4883998477
 20
97.5996275159
 10
180.4801036232
 20
97.6009203858
 10
180.476179153
 20
97.6015585717
  0
LINE
  5
336
100
AcDbEntity
  8
DRAFT
100
AcDbLine
 62
7
  6
CONTINUOUS
 10
180.5335680531
 20
97.6338458145
 11
180.5470182392
 21
97.63169499
  0
LWPOLYLINE
  5
337
100
AcDbEntity
  8
0
100
AcDbPolyline
 62
7
  6
CONTINUOUS
 90
19
 70
0
 10
180.7887763917
 20
98.4300092416
 10
180.8233690783
 20
98.4244062714
 10
180.8566139018
 20
98.4165535442
 10
180.8885108622
 20
98.4064510599
 10
180.919346026
 20
98.3938588488
 10
180.9488333267
 20
98.3790168808
 10
180.9761145651
 20
98.3626450647
 10
181.0007720943
 20
98.3450317828
 10
181.0232235612
 20
98.3258886528
 10
181.0438637073
 20
98.305070437
 10
181.06284443
 20
98.282517804
 10
181.0800138317
 20
98.2582900851
 10
181.0953109611
 20
98.2324200366
 10
181.1089074442
 20
98.2044645645
 10
181.1206316549
 20
98.1748667627
 10
181.1299077636
 20
98.1449886701
 10
181.136543827
 20
98.1152842995
 10
181.1407317884
 20
98.0852996381
 10
181.1424716477
 20
98.0550346857
  0
LINE
  5
338
100
AcDbEntity
  8
DRAFT
100
AcDbLine
 62
7
  6
CONTINUOUS
 10
180.5470182392
 20
97.63169499
 11
180.5618914942
 21
97.6292349175
  0
LINE
  5
339
100
AcDbEntity
  8
DRAFT
100
AcDbLine
 62
7
  6
CONTINUOUS
 10
180.5618914942
 20
97.6292349175
 11
180.5779359657
 21
97.6265012574
  0
LWPOLYLINE
  5
33A
100
AcDbEntity
  8
DRAFT
100
AcDbPolyline
 62
7
  6
CONTINUOUS
 90
3
 70
0
 10
180.476179153
 20
97.6015585717
 10
180.4687589545
 20
97.6028177404
 10
180.4652433873
 20
97.6034368495
  0
LINE
  5
33B
100
AcDbEntity
  8
DRAFT
100
AcDbLine
 62
7
  6
CONTINUOUS
 10
180.5779359657
 20
97.6265012574
 11
180.6021232754
 21
97.6222275684
  0
LWPOLYLINE
  5
33C
100
AcDbEntity
  8
DRAFT
100
AcDbPolyline
 62
7
  6
CONTINUOUS
 90
3
 70
0
 10
180.4652433873
 20
97.6034368495
 10
180.4585842134
 20
97.6046541896
 10
180.4554221203
 20
97.605251597
  0
LINE
  5
33D
100
AcDbEntity
  8
DRAFT
100
AcDbLine
 62
7
  6
CONTINUOUS
 10
180.6021232754
 20
97.6222275684
 11
180.6225152568
 21
97.6184979877
  0
LINE
  5
33E
100
AcDbEntity
  8
DRAFT
100
AcDbLine
 62
7
  6
CONTINUOUS
 10
180.6225152568
 20
97.6184979877
 11
180.6460462731
 21
97.6140647185
  0
LINE
  5
33F
100
AcDbEntity
  8
DRAFT
100
AcDbLine
 62
7
  6
CONTINUOUS
 10
180.6460462731
 20
97.6140647185
 11
180.6724732634
 21
97.6089357511
  0
LINE
  5
340
100
AcDbEntity
  8
DRAFT
100
AcDbLine
 62
7
  6
CONTINUOUS
 10
180.4554221203
 20
97.605251597
 11
180.4494172595
 21
97.6064245461
  0
LINE
  5
341
100
AcDbEntity
  8
DRAFT
100
AcDbLine
 62
7
  6
CONTINUOUS
 10
180.6724732634
 20
97.6089357511
 11
180.7020745677
 21
97.6030202924
  0
LINE
  5
342
100
AcDbEntity
  8
DRAFT
100
AcDbLine
 62
7
  6
CONTINUOUS
 10
180.4494172595
 20
97.6064245461
 11
180.4437929441
 21
97.6075684075
  0
LINE
  5
343
100
AcDbEntity
  8
DRAFT
100
AcDbLine
 62
7
  6
CONTINUOUS
 10
180.7020745677
 20
97.6030202924
 11
180.735255842
 21
97.5961963692
  0
LINE
  5
344
100
AcDbEntity
  8
DRAFT
100
AcDbLine
 62
7
  6
CONTINUOUS
 10
180.735255842
 20
97.5961963692
 11
180.7714662088
 21
97.5885397045
  0
LINE
  5
345
100
AcDbEntity
  8
DRAFT
100
AcDbLine
 62
7
  6
CONTINUOUS
 10
180.4437929441
 20
97.6075684075
 11
180.4385040905
 21
97.6086855905
  0
LINE
  5
346
100
AcDbEntity
  8
DRAFT
100
AcDbLine
 62
7
  6
CONTINUOUS
 10
180.7714662088
 20
97.5885397045
 11
180.8105152681
 21
97.5800662204
  0
LINE
  5
347
100
AcDbEntity
  8
DRAFT
100
AcDbLine
 62
7
  6
CONTINUOUS
 10
180.4385040905
 20
97.6086855905
 11
180.4335217265
 21
97.6097779638
  0
LINE
  5
348
100
AcDbEntity
  8
DRAFT
100
AcDbLine
 62
7
  6
CONTINUOUS
 10
180.8105152681
 20
97.5800662204
 11
180.8527482597
 21
97.5706586175
  0
LINE
  5
349
100
AcDbEntity
  8
DRAFT
100
AcDbLine
 62
7
  6
CONTINUOUS
 10
180.8527482597
 20
97.5706586175
 11
180.8688303407
 21
97.567019885
  0
LINE
  5
34A
100
AcDbEntity
  8
DRAFT
100
AcDbLine
 62
7
  6
CONTINUOUS
 10
180.4335217265
 20
97.6097779638
 11
180.4287925737
 21
97.6108517193
  0
LWPOLYLINE
  5
34B
100
AcDbEntity
  8
DRAFT
100
AcDbPolyline
 62
7
  6
CONTINUOUS
 90
3
 70
0
 10
180.4287925737
 20
97.6108517193
 10
180.4244017226
 20
97.6118808292
 10
180.4223422476
 20
97.6123757163
  0
LWPOLYLINE
  5
34C
100
AcDbEntity
  8
DRAFT
100
AcDbPolyline
 62
7
  6
CONTINUOUS
 90
33
 70
0
 10
180.4223422476
 20
97.6123757163
 10
180.4179127721
 20
97.6134683157
 10
180.4155427716
 20
97.6140660279
 10
180.4129454337
 20
97.6147397373
 10
180.4100081475
 20
97.6155187185
 10
180.406843524
 20
97.6163736969
 10
180.403660942
 20
97.6172586291
 10
180.400478543
 20
97.618173083
 10
180.3972781854
 20
97.6191174907
 10
180.3942148234
 20
97.6200471056
 10
180.3913445225
 20
97.6209470716
 10
180.388611217
 20
97.6218322447
 10
180.3860016645
 20
97.6227024459
 10
180.3835103181
 20
97.6235596151
 10
180.3811427247
 20
97.6244018125
 10
180.3789022818
 20
97.6252230386
 10
180.3767999095
 20
97.626018898
 10
180.3748246877
 20
97.6267937862
 10
180.3729472547
 20
97.6275548908
 10
180.3712070373
 20
97.6282794882
 10
180.3695646087
 20
97.628990302
 10
180.367872326
 20
97.6297626898
 10
180.3660454406
 20
97.6306287359
 10
180.3641687012
 20
97.6315563562
 10
180.3623487113
 20
97.632524655
 10
180.3605864789
 20
97.6335328276
 10
180.3588809961
 20
97.6345816788
 10
180.3573358423
 20
97.6356527285
 10
180.355935691
 20
97.6367147012
 10
180.3546958687
 20
97.6377988724
 10
180.3537659349
 20
97.6389805873
 10
180.3531417491
 20
97.6403713106
 10
180.3528274517
 20
97.6418595777
  0
LINE
  5
34D
100
AcDbEntity
  8
DRAFT
100
AcDbLine
 62
7
  6
CONTINUOUS
 10
181.3280262656
 20
97.3136550498
 11
181.3051705657
 21
97.3239355245
  0
LINE
  5
34E
100
AcDbEntity
  8
RACCORDO
100
AcDbLine
 62
250
  6
CONTINUOUS
 10
179.2123958355
 20
95.9456032152
 11
179.2419853041
 21
95.9237310493
  0
LINE
  5
34F
100
AcDbEntity
  8
RACCORDO
100
AcDbLine
 62
250
  6
CONTINUOUS
 10
179.4028706286
 20
96.2032845047
 11
179.4324600972
 21
96.1814123389
  0
LINE
  5
350
100
AcDbEntity
  8
RACCORDO
100
AcDbLine
 62
250
  6
CONTINUOUS
 10
181.7861024301
 20
96.1950035658
 11
181.8143872718
 21
96.1731595449
  0
LINE
  5
351
100
AcDbEntity
  8
RACCORDO
100
AcDbLine
 62
250
  6
CONTINUOUS
 10
181.5932814187
 20
95.9456027619
 11
181.6215735844
 21
95.923730596
  0
LINE
  5
352
100
AcDbEntity
  8
DRAFT
100
AcDbLine
 62
7
  6
CONTINUOUS
 10
178.5642570526
 20
96.9859410493
 11
178.5925010686
 21
96.9640688835
  0
LINE
  5
353
100
AcDbEntity
  8
RACCORDO
100
AcDbLine
 62
250
  6
CONTINUOUS
 10
179.891635463
 20
98.893163944
 11
179.8692508563
 21
98.9123765112
  0
LINE
  5
354
100
AcDbEntity
  8
RACCORDO
100
AcDbLine
 62
250
  6
CONTINUOUS
 10
179.7172614421
 20
98.6954826577
 11
179.6953892762
 21
98.7147603562
  0
LINE
  5
355
100
AcDbEntity
  8
RACCORDO
100
AcDbLine
 62
250
  6
CONTINUOUS
 10
180.0979011215
 20
95.9456027619
 11
180.1197732873
 21
95.923730596
  0
LINE
  5
356
100
AcDbEntity
  8
RACCORDO
100
AcDbLine
 62
250
  6
CONTINUOUS
 10
180.2971400611
 20
96.1448417015
 11
180.319012227
 21
96.1229695356
  0
LINE
  5
357
100
AcDbEntity
  8
DRAFT
100
AcDbLine
 62
7
  6
CONTINUOUS
 10
180.319012227
 20
97.0976236465
 11
180.2971400611
 21
97.1194958123
  0
LINE
  5
358
100
AcDbEntity
  8
DRAFT
100
AcDbLine
 62
7
  6
CONTINUOUS
 10
177.8366900526
 20
96.5225650493
 11
177.8202363161
 21
96.5444372152
  0
LINE
  5
359
100
AcDbEntity
  8
RACCORDO
100
AcDbLine
 62
250
  6
CONTINUOUS
 10
177.957714006
 20
98.7618884563
 11
177.941651637
 21
98.7837606222
  0
LINE
  5
35A
100
AcDbEntity
  8
RACCORDO
100
AcDbLine
 62
250
  6
CONTINUOUS
 10
178.1478204928
 20
98.9014978835
 11
178.1317581237
 21
98.9233700493
  0
LINE
  5
35B
100
AcDbEntity
  8
RACCORDO
100
AcDbLine
 62
250
  6
CONTINUOUS
 10
176.1993281387
 20
98.9014978835
 11
176.1841844687
 21
98.9233700493
  0
LWPOLYLINE
  5
35C
100
AcDbEntity
  8
IMPORT_IGES
100
AcDbPolyline
 62
7
  6
CONTINUOUS
 90
8
 70
0
 10
181.0040662222
 20
96.8333194454
 10
181.0192855139
 20
96.791808535
 10
181.0338844396
 20
96.7500838496
 10
181.0479304529
 20
96.7081690155
 10
181.0614910074
 20
96.6660876588
 10
181.0746335567
 20
96.6238634057
 10
181.0874255543
 20
96.5815198826
 10
181.0999344539
 20
96.5390807157
  0
LWPOLYLINE
  5
35D
100
AcDbEntity
  8
RACCORDO
100
AcDbPolyline
 62
7
  6
CONTINUOUS
 90
6
 70
0
 10
181.0244697942
 20
96.8412015454
 10
181.0514192902
 20
96.7642368973
 10
181.077671519
 20
96.6855146459
 10
181.1032264806
 20
96.6050347912
 10
181.1276888775
 20
96.5226687533
 10
181.1757077626
 20
96.353049607
  0
LWPOLYLINE
  5
35E
100
AcDbEntity
  8
RACCORDO
100
AcDbPolyline
 62
7
  6
CONTINUOUS
 90
6
 70
0
 10
181.0039953132
 20
96.8335082192
 10
181.0313472805
 20
96.7551648969
 10
181.0580059465
 20
96.6750177252
 10
181.0839713114
 20
96.593066704
 10
181.1088360712
 20
96.5091856934
 10
181.1577075991
 20
96.3363905439
  0
LWPOLYLINE
  5
35F
100
AcDbEntity
  8
RACCORDO
100
AcDbPolyline
 62
7
  6
CONTINUOUS
 90
16
 70
0
 10
181.252586675
 20
96.0887176468
 10
181.258118851
 20
96.0724697004
 10
181.2649403471
 20
96.0569189756
 10
181.2730511633
 20
96.0420654726
 10
181.2825650027
 20
96.0277701053
 10
181.2933681622
 20
96.0141719597
 10
181.3051195325
 20
96.0016882933
 10
181.3177634069
 20
95.9904190883
 10
181.3313554921
 20
95.9802643624
 10
181.3457217998
 20
95.9713414268
 10
181.3609551836
 20
95.9636265433
 10
181.3769627898
 20
95.9571434502
 10
181.3932920693
 20
95.9520806729
 10
181.4097921724
 20
95.9485010534
 10
181.4266139488
 20
95.9463417497
 10
181.4437573985
 20
95.9456027619
  0
LINE
  5
360
100
AcDbEntity
  8
RACCORDO
100
AcDbLine
 62
7
  6
CONTINUOUS
 10
179.4028706286
 20
96.2032845047
 11
178.6181922762
 21
98.7607012937
  0
LINE
  5
361
100
AcDbEntity
  8
IMPORT_IGES
100
AcDbLine
 62
7
  6
CONTINUOUS
 10
178.5911600526
 20
98.9233700493
 11
179.5115230526
 21
95.9237310493
  0
LINE
  5
362
100
AcDbEntity
  8
RACCORDO
100
AcDbLine
 62
7
  6
CONTINUOUS
 10
179.4324600972
 20
96.1814123389
 11
178.6343599083
 21
98.7825734596
  0
LINE
  5
363
100
AcDbEntity
  8
RACCORDO
100
AcDbLine
 62
7
  6
CONTINUOUS
 10
181.1577075991
 20
96.3363905439
 11
181.2362013831
 21
96.0668855182
  0
LINE
  5
364
100
AcDbEntity
  8
RACCORDO
100
AcDbLine
 62
7
  6
CONTINUOUS
 10
181.1757077626
 20
96.353049607
 11
181.252586675
 21
96.0887176468
  0
LINE
  5
365
100
AcDbEntity
  8
IMPORT_IGES
100
AcDbLine
 62
7
  6
CONTINUOUS
 10
181.1605933559
 20
96.3262771413
 11
181.2778628806
 21
95.923730596
  0
LINE
  5
366
100
AcDbEntity
  8
IMPORT_IGES
100
AcDbLine
 62
7
  6
CONTINUOUS
 10
181.0999344539
 20
96.5390807157
 11
181.1243727732
 21
96.4540099551
  0
LINE
  5
367
100
AcDbEntity
  8
IMPORT_IGES
100
AcDbLine
 62
7
  6
CONTINUOUS
 10
181.1243727732
 20
96.4540099551
 11
181.1605933559
 21
96.3262771413
  0
LWPOLYLINE
  5
368
100
AcDbEntity
  8
IMPORT_IGES
100
AcDbPolyline
 62
7
  6
CONTINUOUS
 90
44
 70
0
 10
181.6471873418
 20
96.8053019377
 10
181.6407339561
 20
96.8284912165
 10
181.6340539051
 20
96.8517395434
 10
181.6270573007
 20
96.8750951953
 10
181.6196542549
 20
96.8986064492
 10
181.6153755265
 20
96.9116276859
 10
181.6109436307
 20
96.9246973489
 10
181.6063557652
 20
96.9378020986
 10
181.6016091277
 20
96.9509285953
 10
181.5967009161
 20
96.9640634994
 10
181.5916283281
 20
96.9771934711
 10
181.5863885614
 20
96.9903051708
 10
181.5809788137
 20
97.0033852589
 10
181.5753962828
 20
97.0164203956
 10
181.5696381664
 20
97.0293972413
 10
181.5637016623
 20
97.0423024562
 10
181.5575839682
 20
97.0551227009
 10
181.5512822818
 20
97.0678446355
 10
181.544793801
 20
97.0804549203
 10
181.5381157234
 20
97.0929402158
 10
181.5312452468
 20
97.1052871823
 10
181.5241795688
 20
97.11748248
 10
181.5169158874
 20
97.1295127694
 10
181.5094514002
 20
97.1413647107
 10
181.5017833049
 20
97.1530249642
 10
181.4939087992
 20
97.1644801904
 10
181.4858250811
 20
97.1757170495
 10
181.4775293481
 20
97.1867222018
 10
181.469018798
 20
97.1974823077
 10
181.4602906285
 20
97.2079840275
 10
181.4513420375
 20
97.2182140216
 10
181.4421702226
 20
97.2281589502
 10
181.4327723815
 20
97.2378054737
 10
181.4231457121
 20
97.2471402525
 10
181.4132874121
 20
97.2561499468
 10
181.4031946791
 20
97.264821217
 10
181.392864711
 20
97.2731407234
 10
181.3822947055
 20
97.2810951263
 10
181.3714818603
 20
97.2886710861
 10
181.3604233732
 20
97.2958552631
 10
181.3491164419
 20
97.3026343177
 10
181.3375582641
 20
97.3089949101
 10
181.3257460377
 20
97.3149237006
 10
181.3136769603
 20
97.3204073497
  0
LINE
  5
369
100
AcDbEntity
  8
IMPORT_IGES
100
AcDbLine
 62
7
  6
CONTINUOUS
 10
181.6953306201
 20
96.6272567064
 11
181.6471873418
 21
96.8053019377
  0
LINE
  5
36A
100
AcDbEntity
  8
RACCORDO
100
AcDbLine
 62
7
  6
CONTINUOUS
 10
181.6934729256
 20
96.5492205662
 11
181.645000302
 21
96.7297941841
  0
LINE
  5
36B
100
AcDbEntity
  8
RACCORDO
100
AcDbLine
 62
7
  6
CONTINUOUS
 10
181.717136801
 20
96.5453033315
 11
181.6661038731
 21
96.7355414386
  0
LINE
  5
36C
100
AcDbEntity
  8
IMPORT_IGES
100
AcDbLine
 62
7
  6
CONTINUOUS
 10
181.8801390495
 20
95.923730596
 11
181.851571692
 21
96.0308231512
  0
LWPOLYLINE
  5
36D
100
AcDbEntity
  8
DRAFT
100
AcDbPolyline
 62
7
  6
CONTINUOUS
 90
28
 70
0
 10
181.645000302
 20
96.7297941841
 10
181.6366819636
 20
96.7613589942
 10
181.6283808483
 20
96.7918118622
 10
181.6200969562
 20
96.8211527881
 10
181.6119113315
 20
96.8493157105
 10
181.60374293
 20
96.8763666909
 10
181.5953486184
 20
96.9025039133
 10
181.586675044
 20
96.9277158348
 10
181.5777755596
 20
96.9520139984
 10
181.5685670905
 20
96.9756312169
 10
181.559061833
 20
96.9985836159
 10
181.5492475909
 20
97.0208550699
 10
181.5390047007
 20
97.0426300153
 10
181.5283591501
 20
97.0639300903
 10
181.5172849515
 20
97.0847336568
 10
181.5055844785
 20
97.1051602363
 10
181.4932347061
 20
97.1253089538
 10
181.4802586592
 20
97.1450806844
 10
181.466527786
 20
97.1642975751
 10
181.4520448374
 20
97.1829926143
 10
181.4368070624
 20
97.2011328136
 10
181.4206776564
 20
97.2184413548
 10
181.4036011212
 20
97.2349748914
 10
181.385632955
 20
97.2506767699
 10
181.3668028474
 20
97.2651002115
 10
181.3471206949
 20
97.27809629
 10
181.326576601
 20
97.2898139315
 10
181.3051705657
 20
97.3002531362
  0
LWPOLYLINE
  5
36E
100
AcDbEntity
  8
DRAFT
100
AcDbPolyline
 62
7
  6
CONTINUOUS
 90
27
 70
0
 10
181.6661038731
 20
96.7355414386
 10
181.6576364856
 20
96.7676671786
 10
181.6491538826
 20
96.7987424027
 10
181.6406560641
 20
96.8287671109
 10
181.6322249575
 20
96.8576819135
 10
181.6237786353
 20
96.8855462003
 10
181.6150713156
 20
96.9125381404
 10
181.6060538458
 20
96.9386467507
 10
181.5967753784
 20
96.9638830143
 10
181.587137589
 20
96.9884580502
 10
181.5771520361
 20
97.0123901039
 10
181.5668071612
 20
97.0356609299
 10
181.5559699646
 20
97.0584269102
 10
181.5446662289
 20
97.0807107622
 10
181.5328701715
 20
97.1024897686
 10
181.5203714455
 20
97.1238521587
 10
181.5071414257
 20
97.1449016402
 10
181.4932087372
 20
97.1655345053
 10
181.4784489091
 20
97.1855278606
 10
181.4628640779
 20
97.2049066428
 10
181.4464521071
 20
97.2236459152
 10
181.4290821155
 20
97.2414479736
 10
181.4106849726
 20
97.2583635051
 10
181.3913298091
 20
97.2743418226
 10
181.3710931355
 20
97.2889331599
 10
181.3500004555
 20
97.301987595
 10
181.3280262656
 20
97.3136550498
  0
LINE
  5
36F
100
AcDbEntity
  8
IMPORT_IGES
100
AcDbLine
 62
7
  6
CONTINUOUS
 10
181.7526476619
 20
96.4102453434
 11
181.6953306201
 21
96.6272567064
  0
LINE
  5
370
100
AcDbEntity
  8
IMPORT_IGES
100
AcDbLine
 62
7
  6
CONTINUOUS
 10
181.851571692
 20
96.0308231512
 11
181.7526476619
 21
96.4102453434
  0
LWPOLYLINE
  5
371
100
AcDbEntity
  8
RACCORDO
100
AcDbPolyline
 62
7
  6
CONTINUOUS
 90
3
 70
0
 10
181.7861024301
 20
96.1950035658
 10
181.7709520129
 20
96.2533936003
 10
181.6934729256
 20
96.5492205662
  0
LINE
  5
372
100
AcDbEntity
  8
RACCORDO
100
AcDbLine
 62
7
  6
CONTINUOUS
 10
181.8143872718
 20
96.1731595449
 11
181.717136801
 21
96.5453033315
  0
LWPOLYLINE
  5
373
100
AcDbEntity
  8
RACCORDO
100
AcDbPolyline
 62
7
  6
CONTINUOUS
 90
19
 70
0
 10
181.8143872718
 20
96.1731595449
 10
181.8184755675
 20
96.1532145189
 10
181.8205725118
 20
96.1333588256
 10
181.8206781044
 20
96.113592465
 10
181.8187937967
 20
96.0937646656
 10
181.8149181374
 20
96.0740261988
 10
181.8090467731
 20
96.0548293794
 10
181.8010707244
 20
96.0360723351
 10
181.7910989707
 20
96.0178569381
 10
181.7794540964
 20
96.0009411198
 10
181.7660268704
 20
95.9854131188
 10
181.7509265239
 20
95.9711846964
 10
181.7348033347
 20
95.9587490677
 10
181.7177374504
 20
95.9482350746
 10
181.6996487234
 20
95.9395138752
 10
181.6809469898
 20
95.9326921587
 10
181.6617688614
 20
95.9278054882
 10
181.6419777263
 20
95.9248183007
 10
181.6215735844
 20
95.923730596
  0
LWPOLYLINE
  5
374
100
AcDbEntity
  8
RACCORDO
100
AcDbPolyline
 62
7
  6
CONTINUOUS
 90
28
 70
0
 10
181.2331858779
 20
98.8361698391
 10
181.1868234957
 20
98.8516742279
 10
181.1399736532
 20
98.8656662118
 10
181.0926363505
 20
98.878145791
 10
181.0447121754
 20
98.889007219
 10
180.9963005401
 20
98.8983562421
 10
180.9476996811
 20
98.9065100993
 10
180.8989497906
 20
98.9134719684
 10
180.8500106764
 20
98.9192386716
 10
180.8010599985
 20
98.9241179141
 10
180.7521210608
 20
98.9281639263
 10
180.7031705593
 20
98.9313224779
 10
180.654316242
 20
98.9337385827
 10
180.6056365974
 20
98.9354299412
 10
180.5570531369
 20
98.9363788529
 10
180.508438143
 20
98.9366772293
 10
180.4598560503
 20
98.9363370855
 10
180.4112424243
 20
98.9353464064
 10
180.3622762436
 20
98.9337610586
 10
180.312971119
 20
98.9315949239
 10
180.2633134398
 20
98.9288341204
 10
180.2129413529
 20
98.9254928689
 10
180.1618582073
 20
98.9215803708
 10
180.1100606541
 20
98.9170874246
 10
180.0571767931
 20
98.9120006472
 10
180.0030826575
 20
98.9063155775
 10
179.9479022141
 20
98.9000366764
 10
179.891635463
 20
98.893163944
  0
LWPOLYLINE
  5
375
100
AcDbEntity
  8
RACCORDO
100
AcDbPolyline
 62
7
  6
CONTINUOUS
 90
28
 70
0
 10
181.2406128587
 20
98.8567424331
 10
181.193210005
 20
98.8725973713
 10
181.1453061943
 20
98.8868945361
 10
181.0969014267
 20
98.8996339273
 10
181.0478929081
 20
98.9107070394
 10
180.9983834326
 20
98.920222378
 10
180.9486813823
 20
98.9285054603
 10
180.8988290794
 20
98.9355579937
 10
180.8487842018
 20
98.9413782709
 10
180.7987281653
 20
98.9462866868
 10
180.748684125
 20
98.950341206
 10
180.6986289257
 20
98.9534838638
 10
180.6486745174
 20
98.955861161
 10
180.5989019752
 20
98.9574904554
 10
180.549230224
 20
98.9583543891
 10
180.4995279874
 20
98.9585473892
 10
180.4498601835
 20
98.958081637
 10
180.4001618942
 20
98.9569449511
 10
180.3501070896
 20
98.9551952143
 10
180.2997096703
 20
98.9528463176
 10
180.2489557356
 20
98.94988437
 10
180.1974775541
 20
98.9463255815
 10
180.1452789543
 20
98.9421788777
 10
180.0923561076
 20
98.9374353331
 10
180.0383297962
 20
98.9320843809
 10
179.9830736142
 20
98.9261224986
 10
179.9267139676
 20
98.9195532088
 10
179.8692508563
 20
98.9123765112
  0
LWPOLYLINE
  5
376
100
AcDbEntity
  8
IMPORT_IGES
100
AcDbPolyline
 62
7
  6
CONTINUOUS
 90
32
 70
0
 10
181.2406128587
 20
98.8567424331
 10
181.2043679031
 20
98.8692167301
 10
181.1677749673
 20
98.8806184797
 10
181.1308647849
 20
98.8909997112
 10
181.0936680893
 20
98.9004124536
 10
181.0562156143
 20
98.9089087362
 10
181.0185380932
 20
98.9165405883
 10
180.9806662598
 20
98.923360039
 10
180.9426308475
 20
98.9294191174
 10
180.90446259
 20
98.9347698529
 10
180.8661922208
 20
98.9394642747
 10
180.8278504734
 20
98.9435544118
 10
180.7894680814
 20
98.9470922936
 10
180.7317157552
 20
98.9514658349
 10
180.6739471935
 20
98.9547531453
 10
180.6161685797
 20
98.9569995084
 10
180.5583860972
 20
98.958250208
 10
180.5006059292
 20
98.9585505276
 10
180.4428342591
 20
98.9579457511
 10
180.3850772703
 20
98.956481162
 10
180.327341146
 20
98.9542020441
 10
180.2696320697
 20
98.9511536809
 10
180.2119562246
 20
98.9473813563
 10
180.1543197941
 20
98.9429303538
 10
180.0967289615
 20
98.9378459572
 10
180.0391899103
 20
98.9321734501
 10
179.9817088236
 20
98.9259581162
 10
179.9242918849
 20
98.9192452392
 10
179.8669452774
 20
98.9120801027
 10
179.8096751846
 20
98.9045079904
 10
179.7524877898
 20
98.8965741861
 10
179.6953892762
 20
98.8883239733
  0
LINE
  5
377
100
AcDbEntity
  8
RACCORDO
100
AcDbLine
 62
250
  6
CONTINUOUS
 10
230.3721571847
 20
123.8379102757
 11
230.4448369584
 21
123.9105900493
  0
LINE
  5
378
100
AcDbEntity
  8
RACCORDO
100
AcDbLine
 62
250
  6
CONTINUOUS
 10
233.360741279
 20
120.8493261814
 11
233.4334210526
 21
120.9220059551
  0
LWPOLYLINE
  5
379
100
AcDbEntity
  8
0
100
AcDbPolyline
 62
7
  6
CONTINUOUS
 90
3
 70
0
 43
0.3500000006
 10
247.1304841919
 20
91.3463023682
 10
247.3447686768
 20
91.274880249
 10
247.6304752808
 20
91.1320178833
  0
LINE
  5
37A
100
AcDbEntity
  8
RACCORDO
100
AcDbLine
 62
250
  6
CONTINUOUS
 10
231.8664492318
 20
68.983269823
 11
231.9391290055
 21
68.9105900493
  0
LINE
  5
37B
100
AcDbEntity
  8
RACCORDO
100
AcDbLine
 62
250
  6
CONTINUOUS
 10
233.360741279
 20
70.4775618701
 11
233.4334210526
 21
70.4048820965
  0
LINE
  5
37C
100
AcDbEntity
  8
RACCORDO
100
AcDbLine
 62
7
  6
CONTINUOUS
 10
218.7561008263
 20
93.983269823
 11
218.7642198521
 21
93.9916109681
  0
LWPOLYLINE
  5
37D
100
AcDbEntity
  8
RACCORDO
100
AcDbPolyline
 62
7
  6
CONTINUOUS
 90
3
 70
0
 10
219.8121771221
 20
95.0390926
 10
220.1361407984
 20
95.364185843
 10
220.2503928734
 20
95.4775618701
  0
LINE
  5
37E
100
AcDbEntity
  8
RACCORDO
100
AcDbLine
 62
7
  6
CONTINUOUS
 10
218.6834210526
 20
93.9105900493
 11
218.7561008263
 21
93.983269823
  0
LINE
  5
37F
100
AcDbEntity
  8
RACCORDO
100
AcDbLine
 62
7
  6
CONTINUOUS
 10
218.8672090939
 20
94.0943780906
 11
219.3524898661
 21
94.5796588628
  0
LINE
  5
380
100
AcDbEntity
  8
RACCORDO
100
AcDbLine
 62
7
  6
CONTINUOUS
 10
219.3524898661
 20
94.5796588628
 11
219.8121771221
 21
95.0390926
  0
LWPOLYLINE
  5
381
100
AcDbEntity
  8
RACCORDO
100
AcDbPolyline
 62
7
  6
CONTINUOUS
 90
3
 70
0
 10
218.7642198521
 20
93.9916109681
 10
218.7929367264
 20
94.0201057231
 10
218.8672090939
 20
94.0943780906
  0
LWPOLYLINE
  5
382
100
AcDbEntity
  8
0
100
AcDbPolyline
 62
7
  6
CONTINUOUS
 90
10
 70
0
 43
0.3500000006
 10
246.9161815796
 20
91.274880249
 10
247.0590439453
 20
91.3463023682
 10
247.1304841919
 20
91.3463023682
 10
247.2733284302
 20
91.2034490662
 10
247.2733284302
 20
91.1320178833
 10
247.201906311
 20
91.0605867004
 10
247.1304841919
 20
91.0605867004
 10
246.9876218262
 20
91.1320178833
 10
246.9161815796
 20
91.2034490662
 10
246.9161815796
 20
91.274880249
  0
LINE
  5
383
100
AcDbEntity
  8
RACCORDO
100
AcDbLine
 62
250
  6
CONTINUOUS
 10
120.0003928734
 20
120.8493261814
 11
118.5061008263
 21
120.8493261814
  0
LINE
  5
384
100
AcDbEntity
  8
RACCORDO
100
AcDbLine
 62
250
  6
CONTINUOUS
 10
231.8664492318
 20
120.8493261814
 11
233.360741279
 21
120.8493261814
  0
LWPOLYLINE
  5
385
100
AcDbEntity
  8
RACCORDO
100
AcDbPolyline
 62
250
  6
CONTINUOUS
 90
31
 70
0
 10
121.4946849206
 20
123.8379102757
 10
121.3363763227
 20
123.8331318631
 10
121.1795900665
 20
123.8201190174
 10
121.0247428256
 20
123.7990734629
 10
120.8726012623
 20
123.7702968748
 10
120.7231644142
 20
123.7339844277
 10
120.5757081762
 20
123.6900352401
 10
120.4302367881
 20
123.6384060491
 10
120.28753773
 20
123.579330353
 10
120.1480884403
 20
123.5129982952
 10
120.0122951335
 20
123.4396111178
 10
119.8804741248
 20
123.3593490032
 10
119.7529497179
 20
123.2724090944
 10
119.6300542853
 20
123.1790160964
 10
119.5121193839
 20
123.0794208972
 10
119.3994530761
 20
122.9738806788
 10
119.2923411116
 20
122.8626571679
 10
119.1910845661
 20
122.746058002
 10
119.095986952
 20
122.6244365676
 10
119.0075007217
 20
122.4984279805
 10
118.9256182764
 20
122.3680806422
 10
118.8500578785
 20
122.2328055505
 10
118.7810120912
 20
122.0925708145
 10
118.718988395
 20
121.9479869113
 10
118.6643001574
 20
121.7993778725
 10
118.6172070482
 20
121.646936822
 10
118.5780613651
 20
121.4912052341
 10
118.5472161455
 20
121.3330831658
 10
118.5248626761
 20
121.1731753965
 10
118.5111154465
 20
121.0117690419
 10
118.5061008263
 20
120.8493261814
  0
LWPOLYLINE
  5
386
100
AcDbEntity
  8
RACCORDO
100
AcDbPolyline
 62
250
  6
CONTINUOUS
 90
31
 70
0
 10
121.4946849206
 20
122.3436182286
 10
121.4149076254
 20
122.3413375689
 10
121.3363110654
 20
122.335137631
 10
121.2588952406
 20
122.3250184148
 10
121.182650864
 20
122.3109390254
 10
121.1075872226
 20
122.2929403576
 10
121.0337321771
 20
122.2711450967
 10
120.9608896265
 20
122.2455122523
 10
120.8892556718
 20
122.2160828147
 10
120.8194464768
 20
122.1831024395
 10
120.7514975284
 20
122.146549319
 10
120.6853733397
 20
122.106445261
 10
120.621583613
 20
122.0631013444
 10
120.5601428122
 20
122.0164912922
 10
120.5010364733
 20
121.9666413814
 10
120.4447309072
 20
121.9139415212
 10
120.3912426262
 20
121.8583599519
 10
120.3405551179
 20
121.7999284332
 10
120.2930851564
 20
121.7391321541
 10
120.2489227279
 20
121.6761257731
 10
120.2079778461
 20
121.6107546316
 10
120.170397326
 20
121.5430399425
 10
120.1360726761
 20
121.4728233885
 10
120.105112388
 20
121.4002632869
 10
120.0779887507
 20
121.3258558022
 10
120.0547246864
 20
121.2494804705
 10
120.035297273
 20
121.1712577556
 10
120.0201100328
 20
121.0920452137
 10
120.0092974732
 20
121.0121286967
 10
120.0027250867
 20
120.9312223526
 10
120.0003928734
 20
120.8493261814
  0
LINE
  5
387
100
AcDbEntity
  8
RACCORDO
100
AcDbLine
 62
250
  6
CONTINUOUS
 10
230.3721571847
 20
122.3436182286
 11
121.4946849206
 21
122.3436182286
  0
LINE
  5
388
100
AcDbEntity
  8
RACCORDO
100
AcDbLine
 62
250
  6
CONTINUOUS
 10
230.3721571847
 20
123.8379102757
 11
121.4946849206
 21
123.8379102757
  0
LINE
  5
389
100
AcDbEntity
  8
RACCORDO
100
AcDbLine
 62
7
  6
CONTINUOUS
 10
230.4448369584
 20
123.9105900493
 11
121.4220051469
 21
123.9105900493
  0
LWPOLYLINE
  5
38A
100
AcDbEntity
  8
RACCORDO
100
AcDbPolyline
 62
250
  6
CONTINUOUS
 90
25
 70
0
 10
218.7561008263
 20
70.4775618701
 10
218.7600081781
 20
70.3802996357
 10
218.7702360313
 20
70.2834498762
 10
218.7867410109
 20
70.187423317
 10
218.8094531218
 20
70.0926271927
 10
218.8382760452
 20
69.9994635196
 10
218.8730875474
 20
69.9083273909
 10
218.913739998
 20
69.8196053015
 10
218.960060996
 20
69.7336735086
 10
219.0118541009
 20
69.650896436
 10
219.0688996663
 20
69.571625129
 10
219.13095577
 20
69.4961957657
 10
219.1977592412
 20
69.4249282311
 10
219.2690267761
 20
69.3581247604
 10
219.3444561397
 20
69.2960686573
 10
219.4237274467
 20
69.2390230927
 10
219.5065045187
 20
69.1872299887
 10
219.5924363107
 20
69.1409089917
 10
219.6811583993
 20
69.100256542
 10
219.7722945272
 20
69.0654450404
 10
219.8654581996
 20
69.0366221175
 10
219.9602543231
 20
69.013910007
 10
220.0562808814
 20
68.9974050277
 10
220.15313064
 20
68.9871771748
 10
220.2503928734
 20
68.983269823
  0
LINE
  5
38B
100
AcDbEntity
  8
RACCORDO
100
AcDbLine
 62
7
  6
CONTINUOUS
 10
218.6834210526
 20
93.9105900493
 11
218.6834210526
 21
70.4048820965
  0
LINE
  5
38C
100
AcDbEntity
  8
RACCORDO
100
AcDbLine
 62
250
  6
CONTINUOUS
 10
218.7561008263
 20
93.983269823
 11
218.7561008263
 21
70.4775618701
  0
LINE
  5
38D
100
AcDbEntity
  8
RACCORDO
100
AcDbLine
 62
250
  6
CONTINUOUS
 10
220.2503928734
 20
95.4775618701
 11
220.2503928734
 21
68.983269823
  0
LINE
  5
38E
100
AcDbEntity
  8
0
100
AcDbLine
 62
250
  6
CONTINUOUS
 10
220.4834210526
 20
57.2105900493
 11
220.4834210526
 21
56.7105900493
  0
LINE
  5
38F
100
AcDbEntity
  8
RACCORDO
100
AcDbLine
 62
250
  6
CONTINUOUS
 10
218.7561008263
 20
70.4775618701
 11
218.6834210526
 21
70.4048820965
  0
LINE
  5
390
100
AcDbEntity
  8
0
100
AcDbLine
 62
7
  6
CONTINUOUS
 10
220.9834210526
 20
57.7105900493
 11
220.9834210526
 21
68.9105900493
  0
LINE
  5
391
100
AcDbEntity
  8
0
100
AcDbLine
 62
7
  6
CONTINUOUS
 10
221.4834210526
 20
57.7105900493
 11
221.4834210526
 21
68.9105900493
  0
LINE
  5
392
100
AcDbEntity
  8
RACCORDO
100
AcDbLine
 62
250
  6
CONTINUOUS
 10
220.2503928734
 20
68.983269823
 11
220.1777130998
 21
68.9105900493
  0
LWPOLYLINE
  5
393
100
AcDbEntity
  8
0
100
AcDbPolyline
 62
7
  6
CONTINUOUS
 90
8
 70
0
 43
0.3500000006
 10
176.5762706909
 20
137.4494796753
 10
177.4334267578
 20
137.4494796753
 10
177.8619957275
 20
137.878048645
 10
177.8619957275
 20
138.7351865845
 10
177.4334267578
 20
139.1637555542
 10
176.5762706909
 20
139.1637555542
 10
176.5762706909
 20
140.4494805908
 10
177.8619957275
 20
140.4494805908
  0
LWPOLYLINE
  5
394
100
AcDbEntity
  8
0
100
AcDbPolyline
 62
7
  6
CONTINUOUS
 90
10
 70
0
 43
0.3500000006
 10
244.4161898804
 20
86.9891633606
 10
245.059043335
 20
86.3463008423
 10
245.9161812744
 20
85.9177318726
 10
246.9876218262
 20
85.9177318726
 10
247.4161907959
 20
86.3463008423
 10
247.4161907959
 20
86.9891633606
 10
246.9876218262
 20
87.4177323303
 10
246.1304838867
 20
87.4177323303
 10
245.7018967896
 20
86.9891633606
 10
245.7018967896
 20
86.0605942383
  0
LWPOLYLINE
  5
395
100
AcDbEntity
  8
RACCORDO
100
AcDbPolyline
 62
250
  6
CONTINUOUS
 90
31
 70
0
 10
231.8664492318
 20
120.8493261814
 10
231.8641685722
 20
120.9291034766
 10
231.8579686343
 20
121.0077000366
 10
231.8478494181
 20
121.0851158614
 10
231.8337700286
 20
121.161360238
 10
231.8157713609
 20
121.2364238793
 10
231.7939761
 20
121.3102789248
 10
231.7683432556
 20
121.3831214754
 10
231.738913818
 20
121.4547554301
 10
231.7059334428
 20
121.5245646252
 10
231.6693803223
 20
121.5925135735
 10
231.6292762643
 20
121.6586377623
 10
231.5859323476
 20
121.722427489
 10
231.5393222955
 20
121.7838682898
 10
231.4894723847
 20
121.8429746287
 10
231.4367725245
 20
121.8992801948
 10
231.3811909552
 20
121.9527684758
 10
231.3227594365
 20
122.0034559841
 10
231.2619631574
 20
122.0509259456
 10
231.1989567764
 20
122.0950883741
 10
231.1335856349
 20
122.1360332559
 10
231.0658709457
 20
122.173613776
 10
230.9956543918
 20
122.2079384258
 10
230.9230942902
 20
122.238898714
 10
230.8486868055
 20
122.2660223513
 10
230.7723114738
 20
122.2892864155
 10
230.6940887589
 20
122.3087138289
 10
230.614876217
 20
122.3239010692
 10
230.5349597
 20
122.3347136288
 10
230.4540533559
 20
122.3412860153
 10
230.3721571847
 20
122.3436182286
  0
LINE
  5
396
100
AcDbEntity
  8
RACCORDO
100
AcDbLine
 62
250
  6
CONTINUOUS
 10
230.3721571847
 20
122.3436182286
 11
230.3721571847
 21
123.8379102757
  0
LINE
  5
397
100
AcDbEntity
  8
RACCORDO
100
AcDbLine
 62
250
  6
CONTINUOUS
 10
231.8664492318
 20
68.983269823
 11
231.8664492318
 21
120.8493261814
  0
LINE
  5
398
100
AcDbEntity
  8
RACCORDO
100
AcDbLine
 62
250
  6
CONTINUOUS
 10
233.360741279
 20
70.4775618701
 11
233.360741279
 21
120.8493261814
  0
LINE
  5
399
100
AcDbEntity
  8
RACCORDO
100
AcDbLine
 62
7
  6
CONTINUOUS
 10
233.4334210526
 20
120.9220059551
 11
233.4334210526
 21
70.4048820965
  0
LWPOLYLINE
  5
39A
100
AcDbEntity
  8
RACCORDO
100
AcDbPolyline
 62
250
  6
CONTINUOUS
 90
31
 70
0
 10
233.360741279
 20
120.8493261814
 10
233.3559628664
 20
121.0076347793
 10
233.3429500207
 20
121.1644210354
 10
233.3219044662
 20
121.3192682764
 10
233.2931278781
 20
121.4714098397
 10
233.256815431
 20
121.6208466878
 10
233.2128662434
 20
121.7683029257
 10
233.1612370524
 20
121.9137743138
 10
233.1021613563
 20
122.0564733719
 10
233.0358292985
 20
122.1959226617
 10
232.9624421211
 20
122.3317159684
 10
232.8821800065
 20
122.4635369772
 10
232.7952400976
 20
122.5910613841
 10
232.7018470997
 20
122.7139568167
 10
232.6022519005
 20
122.831891718
 10
232.4967116821
 20
122.9445580259
 10
232.3854881712
 20
123.0516699904
 10
232.2688890053
 20
123.1529265359
 10
232.1472675709
 20
123.24802415
 10
232.0212589838
 20
123.3365103803
 10
231.8909116455
 20
123.4183928256
 10
231.7556365538
 20
123.4939532235
 10
231.6154018178
 20
123.5629990108
 10
231.4708179146
 20
123.625022707
 10
231.3222088758
 20
123.6797109446
 10
231.1697678253
 20
123.7268040537
 10
231.0140362374
 20
123.7659497369
 10
230.8559141691
 20
123.7967949564
 10
230.6960063998
 20
123.8191484259
 10
230.5346000452
 20
123.8328956555
 10
230.3721571847
 20
123.8379102757
  0
LWPOLYLINE
  5
39B
100
AcDbEntity
  8
0
100
AcDbPolyline
 62
7
  6
CONTINUOUS
 90
7
 70
0
 43
0.3500000006
 10
247.4161907959
 20
93.8463031311
 10
247.4161907959
 20
92.3463026733
 10
245.2733278198
 20
93.8463031311
 10
244.8447588501
 20
93.8463031311
 10
244.4161898804
 20
93.4177341614
 10
244.4161898804
 20
92.7748716431
 10
245.059043335
 20
92.3463026733
  0
LINE
  5
39C
100
AcDbEntity
  8
0
100
AcDbLine
 62
250
  6
CONTINUOUS
 10
71.4024938992
 20
57.7105900493
 11
71.9024938992
 21
57.7105900493
  0
LWPOLYLINE
  5
39D
100
AcDbEntity
  8
0
100
AcDbPolyline
 62
7
  6
CONTINUOUS
 90
3
 70
0
 43
0.3500000006
 10
78.9606513062
 20
141.0329122925
 10
79.8177892456
 20
141.8900502319
 10
79.8177892456
 20
138.8900493164
  0
LWPOLYLINE
  5
39E
100
AcDbEntity
  8
0
100
AcDbPolyline
 62
7
  6
CONTINUOUS
 90
3
 70
0
 43
0.3500000006
 10
80.6749362488
 20
141.0329122925
 10
81.5320741882
 20
141.8900502319
 10
81.5320741882
 20
138.8900493164
  0
LINE
  5
39F
100
AcDbEntity
  8
RACCORDO
100
AcDbLine
 62
7
  6
CONTINUOUS
 10
67.8524938992
 20
68.9105900493
 11
74.4832275133
 21
69.4907040714
  0
LINE
  5
3A0
100
AcDbEntity
  8
RACCORDO
100
AcDbLine
 62
250
  6
CONTINUOUS
 10
68.3524938992
 20
69.2545643393
 11
67.8524938992
 21
69.2108200075
  0
LINE
  5
3A1
100
AcDbEntity
  8
RACCORDO
100
AcDbLine
 62
7
  6
CONTINUOUS
 10
68.3524938992
 20
69.4105900493
 11
67.8524938992
 21
69.4280504341
  0
LINE
  5
3A2
100
AcDbEntity
  8
RACCORDO
100
AcDbLine
 62
7
  6
CONTINUOUS
 10
67.0217602851
 20
68.983269823
 11
67.8524938992
 21
68.9105900493
  0
LWPOLYLINE
  5
3A3
100
AcDbEntity
  8
RACCORDO
100
AcDbPolyline
 62
250
  6
CONTINUOUS
 90
25
 70
0
 10
67.0217602851
 20
68.983269823
 10
67.0135927912
 20
68.9871771748
 10
67.0060143563
 20
68.997405028
 10
66.9990571196
 20
69.0139100076
 10
66.9927505856
 20
69.0366221185
 10
66.9871214994
 20
69.0654450419
 10
66.9821937331
 20
69.1002565441
 10
66.9779881847
 20
69.1409089947
 10
66.9745226892
 20
69.1872299927
 10
66.9718119433
 20
69.2390230977
 10
66.9698674428
 20
69.296068663
 10
66.9686974342
 20
69.3581247667
 10
66.9683068793
 20
69.4249282379
 10
66.9686974343
 20
69.4961957728
 10
66.969867443
 20
69.5716251364
 10
66.9718119435
 20
69.6508964434
 10
66.9745226894
 20
69.7336735154
 10
66.9779881849
 20
69.8196053074
 10
66.9821937334
 20
69.908327396
 10
66.9871214997
 20
69.999463524
 10
66.9927505859
 20
70.0926271963
 10
66.9990571198
 20
70.1874233198
 10
67.0060143565
 20
70.2834498781
 10
67.0135927912
 20
70.3802996367
 10
67.0217602851
 20
70.4775618701
  0
LINE
  5
3A4
100
AcDbEntity
  8
RACCORDO
100
AcDbLine
 62
250
  6
CONTINUOUS
 10
68.3524938992
 20
70.4486264282
 11
74.4832275133
 21
70.9849961186
  0
LINE
  5
3A5
100
AcDbEntity
  8
RACCORDO
100
AcDbLine
 62
250
  6
CONTINUOUS
 10
65.6524938992
 20
70.4775618701
 11
67.0217602851
 21
70.4775618701
  0
LINE
  5
3A6
100
AcDbEntity
  8
RACCORDO
100
AcDbLine
 62
250
  6
CONTINUOUS
 10
75.8524938992
 20
70.9849961186
 11
74.4832275133
 21
70.9849961186
  0
LINE
  5
3A7
100
AcDbEntity
  8
RACCORDO
100
AcDbLine
 62
250
  6
CONTINUOUS
 10
68.3524938992
 20
70.4099808764
 11
67.8524938992
 21
70.4274412611
  0
LINE
  5
3A8
100
AcDbEntity
  8
RACCORDO
100
AcDbLine
 62
250
  6
CONTINUOUS
 10
67.0217602851
 20
70.4775618701
 11
67.8524938992
 21
70.4048820965
  0
LINE
  5
3A9
100
AcDbEntity
  8
RACCORDO
100
AcDbLine
 62
250
  6
CONTINUOUS
 10
65.5797666265
 20
94.1667245435
 11
65.5797666265
 21
101.6544555552
  0
LINE
  5
3AA
100
AcDbEntity
  8
RACCORDO
100
AcDbLine
 62
7
  6
CONTINUOUS
 10
65.6524938992
 20
70.4775618701
 11
65.6524938992
 21
122.3436182286
  0
LINE
  5
3AB
100
AcDbEntity
  8
RACCORDO
100
AcDbLine
 62
250
  6
CONTINUOUS
 10
67.0217602851
 20
120.8493261814
 11
67.0088653649
 21
121.1644210354
  0
LINE
  5
3AC
100
AcDbEntity
  8
RACCORDO
100
AcDbLine
 62
250
  6
CONTINUOUS
 10
67.0088653649
 20
121.1644210354
 11
66.9976920249
 21
121.4714098397
  0
LINE
  5
3AD
100
AcDbEntity
  8
RACCORDO
100
AcDbLine
 62
250
  6
CONTINUOUS
 10
66.9976920249
 20
121.4714098397
 11
66.9882843515
 21
121.7683029257
  0
LINE
  5
3AE
100
AcDbEntity
  8
RACCORDO
100
AcDbLine
 62
250
  6
CONTINUOUS
 10
66.9882843515
 20
121.7683029257
 11
66.9805814977
 21
122.0564733719
  0
LINE
  5
3AF
100
AcDbEntity
  8
RACCORDO
100
AcDbLine
 62
250
  6
CONTINUOUS
 10
66.9805814977
 20
122.0564733719
 11
66.9746940208
 21
122.3317159684
  0
LINE
  5
3B0
100
AcDbEntity
  8
RACCORDO
100
AcDbLine
 62
250
  6
CONTINUOUS
 10
66.9746940208
 20
122.3317159684
 11
66.9706975239
 21
122.5910613841
  0
LWPOLYLINE
  5
3B1
100
AcDbEntity
  8
RACCORDO
100
AcDbPolyline
 62
250
  6
CONTINUOUS
 90
18
 70
0
 10
66.9706975239
 20
122.5910613841
 10
66.9686192559
 20
122.831891718
 10
66.9683112781
 20
122.9445580259
 10
66.9684878291
 20
123.0516699904
 10
66.9691525876
 20
123.1529265359
 10
66.9703072242
 20
123.24802415
 10
66.9719414926
 20
123.3365103803
 10
66.9740447586
 20
123.4183928256
 10
66.9766327339
 20
123.4939532235
 10
66.9797204513
 20
123.5629990108
 10
66.983303504
 20
123.625022707
 10
66.9873836022
 20
123.6797109446
 10
66.9919545164
 20
123.7268040537
 10
66.9970117471
 20
123.7659497369
 10
67.0025462332
 20
123.7967949564
 10
67.0085347308
 20
123.8191484259
 10
67.0149492051
 20
123.8328956555
 10
67.0217602851
 20
123.8379102757
  0
LINE
  5
3B2
100
AcDbEntity
  8
RACCORDO
100
AcDbLine
 62
250
  6
CONTINUOUS
 10
67.0217602851
 20
70.4775618701
 11
67.0217602851
 21
120.8493261814
  0
LINE
  5
3B3
100
AcDbEntity
  8
RACCORDO
100
AcDbLine
 62
7
  6
CONTINUOUS
 10
67.8524938992
 20
123.9105900493
 11
67.8524938992
 21
68.9105900493
  0
LINE
  5
3B4
100
AcDbEntity
  8
RACCORDO
100
AcDbLine
 62
7
  6
CONTINUOUS
 10
68.3524938992
 20
68.9543343811
 11
68.3524938992
 21
123.8668457176
  0
LWPOLYLINE
  5
3B5
100
AcDbEntity
  8
0
100
AcDbPolyline
 62
7
  6
CONTINUOUS
 90
3
 70
0
 43
0.3500000006
 10
83.1035058289
 20
139.1757559204
 10
83.032074646
 20
138.9614714355
 10
82.889221344
 20
138.6757648315
  0
LINE
  5
3B6
100
AcDbEntity
  8
0
100
AcDbLine
 62
7
  6
CONTINUOUS
 10
71.4024938992
 20
56.9605900493
 11
71.4024938992
 21
69.2168003717
  0
LWPOLYLINE
  5
3B7
100
AcDbEntity
  8
RACCORDO
100
AcDbPolyline
 62
250
  6
CONTINUOUS
 90
25
 70
0
 10
74.4832275133
 20
70.9849961186
 10
74.4913950071
 20
70.8877338852
 10
74.4989734419
 20
70.7908841266
 10
74.5059306786
 20
70.6948575683
 10
74.5122372125
 20
70.6000614448
 10
74.5178662987
 20
70.5068977724
 10
74.522794065
 20
70.4157616444
 10
74.5269996134
 20
70.3270395559
 10
74.530465109
 20
70.2411077639
 10
74.5331758549
 20
70.1583306918
 10
74.5351203554
 20
70.0790593848
 10
74.5362903641
 20
70.0036300213
 10
74.5366809191
 20
69.9323624863
 10
74.5362903642
 20
69.8655590152
 10
74.5351203556
 20
69.8035029114
 10
74.5331758551
 20
69.7464573461
 10
74.5304651092
 20
69.6946642411
 10
74.5269996137
 20
69.6483432431
 10
74.5227940653
 20
69.6076907925
 10
74.517866299
 20
69.5728792903
 10
74.5122372128
 20
69.5440563669
 10
74.5059306788
 20
69.5213442561
 10
74.498973442
 20
69.5048392764
 10
74.4913950072
 20
69.4946114233
 10
74.4832275133
 20
69.4907040714
  0
LINE
  5
3B8
100
AcDbEntity
  8
0
100
AcDbLine
 62
7
  6
CONTINUOUS
 10
71.9024938992
 20
56.9605900493
 11
71.9024938992
 21
69.2605447034
  0
LINE
  5
3B9
100
AcDbEntity
  8
RACCORDO
100
AcDbLine
 62
250
  6
CONTINUOUS
 10
74.5252537943
 20
121.5845874217
 11
74.5176009045
 21
121.2918292488
  0
LINE
  5
3BA
100
AcDbEntity
  8
RACCORDO
100
AcDbLine
 62
250
  6
CONTINUOUS
 10
74.5176009045
 20
121.2918292488
 11
74.5079798686
 21
120.983888733
  0
LINE
  5
3BB
100
AcDbEntity
  8
RACCORDO
100
AcDbLine
 62
250
  6
CONTINUOUS
 10
74.5079798686
 20
120.983888733
 11
74.4964598441
 21
120.6659030028
  0
LINE
  5
3BC
100
AcDbEntity
  8
RACCORDO
100
AcDbLine
 62
250
  6
CONTINUOUS
 10
74.4964598441
 20
120.6659030028
 11
74.4832275133
 21
120.341891933
  0
LINE
  5
3BD
100
AcDbEntity
  8
RACCORDO
100
AcDbLine
 62
250
  6
CONTINUOUS
 10
74.4832275133
 20
120.341891933
 11
74.4832275133
 21
70.9849961186
  0
LINE
  5
3BE
100
AcDbEntity
  8
RACCORDO
100
AcDbLine
 62
7
  6
CONTINUOUS
 10
75.8524938992
 20
121.8361839801
 11
75.8524938992
 21
70.9849961186
  0
LINE
  5
3BF
100
AcDbEntity
  8
RACCORDO
100
AcDbLine
 62
250
  6
CONTINUOUS
 10
74.5366768885
 20
122.4658237327
 11
74.5358298026
 21
122.2378747854
  0
LINE
  5
3C0
100
AcDbEntity
  8
RACCORDO
100
AcDbLine
 62
250
  6
CONTINUOUS
 10
74.5358298026
 20
122.2378747854
 11
74.5330345868
 21
121.9901873182
  0
LWPOLYLINE
  5
3C1
100
AcDbEntity
  8
RACCORDO
100
AcDbPolyline
 62
250
  6
CONTINUOUS
 90
3
 70
0
 10
74.5330345868
 20
121.9901873182
 10
74.5283402515
 20
121.7246527265
 10
74.5252537943
 20
121.5845874217
  0
LWPOLYLINE
  5
3C2
100
AcDbEntity
  8
RACCORDO
100
AcDbPolyline
 62
250
  6
CONTINUOUS
 90
16
 70
0
 10
74.4832275133
 20
123.3304760272
 10
74.489889364
 20
123.3256831096
 10
74.4961407595
 20
123.3126339447
 10
74.5019634413
 20
123.2915376495
 10
74.507320535
 20
123.2627043349
 10
74.5122267184
 20
123.2263357374
 10
74.5167274566
 20
123.1823330543
 10
74.5208045326
 20
123.1306605073
 10
74.5244246384
 20
123.0715539004
 10
74.5275964959
 20
123.005189501
 10
74.5303073769
 20
122.9317577548
 10
74.5325395914
 20
122.8514452629
 10
74.5342989892
 20
122.7644577058
 10
74.5355797268
 20
122.6710277904
 10
74.5363715676
 20
122.571401156
 10
74.5366768885
 20
122.4658237327
  0
LINE
  5
3C3
100
AcDbEntity
  8
RACCORDO
100
AcDbLine
 62
250
  6
CONTINUOUS
 10
67.0217602851
 20
120.8493261814
 11
67.8524938992
 21
120.9220059551
  0
LINE
  5
3C4
100
AcDbEntity
  8
RACCORDO
100
AcDbLine
 62
7
  6
CONTINUOUS
 10
67.0217602851
 20
123.8379102757
 11
67.8524938992
 21
123.9105900493
  0
LINE
  5
3C5
100
AcDbEntity
  8
RACCORDO
100
AcDbLine
 62
250
  6
CONTINUOUS
 10
68.3524938992
 20
120.9121129818
 11
67.8524938992
 21
120.894652597
  0
LINE
  5
3C6
100
AcDbEntity
  8
RACCORDO
100
AcDbLine
 62
7
  6
CONTINUOUS
 10
68.3524938992
 20
123.4105900493
 11
67.8524938992
 21
123.3931296646
  0
LINE
  5
3C7
100
AcDbEntity
  8
RACCORDO
100
AcDbLine
 62
250
  6
CONTINUOUS
 10
75.8524938992
 20
120.341891933
 11
74.4832275133
 21
120.341891933
  0
LINE
  5
3C8
100
AcDbEntity
  8
RACCORDO
100
AcDbLine
 62
250
  6
CONTINUOUS
 10
65.6524938992
 20
120.8493261814
 11
67.0217602851
 21
120.8493261814
  0
LWPOLYLINE
  5
3C9
100
AcDbEntity
  8
0
100
AcDbPolyline
 62
7
  6
CONTINUOUS
 90
8
 70
0
 43
0.3500000006
 10
84.103506134
 20
138.8900493164
 10
84.9606531372
 20
138.8900493164
 10
85.3892221069
 20
139.3186182861
 10
85.3892221069
 20
140.1757562256
 10
84.9606531372
 20
140.6043433228
 10
84.103506134
 20
140.6043433228
 10
84.103506134
 20
141.8900502319
 10
85.3892221069
 20
141.8900502319
  0
LINE
  5
3CA
100
AcDbEntity
  8
RACCORDO
100
AcDbLine
 62
250
  6
CONTINUOUS
 10
68.3524938992
 20
120.8782616233
 11
74.4832275133
 21
120.341891933
  0
LINE
  5
3CB
100
AcDbEntity
  8
RACCORDO
100
AcDbLine
 62
7
  6
CONTINUOUS
 10
68.3524938992
 20
123.8668457176
 11
74.4832275133
 21
123.3304760272
  0
LWPOLYLINE
  5
3CC
100
AcDbEntity
  8
0
100
AcDbPolyline
 62
7
  6
CONTINUOUS
 90
10
 70
0
 43
0.3500000006
 10
83.032074646
 20
139.3900585327
 10
83.1035058289
 20
139.247196167
 10
83.1035058289
 20
139.1757559204
 10
82.9606525269
 20
139.0329116821
 10
82.889221344
 20
139.0329116821
 10
82.8177901611
 20
139.1043338013
 10
82.8177901611
 20
139.1757559204
 10
82.889221344
 20
139.3186182861
 10
82.9606525269
 20
139.3900585327
 10
83.032074646
 20
139.3900585327
  0
CIRCLE
  5
3CD
100
AcDbEntity
  8
RACCORDO
100
AcDbCircle
 62
250
  6
CONTINUOUS
 10
225.4334210526
 20
97.9105900493
 40
4.1182520564
  0
CIRCLE
  5
3CE
100
AcDbEntity
  8
RACCORDO
100
AcDbCircle
 62
250
  6
CONTINUOUS
 10
126.4334210526
 20
97.9105900493
 40
4.1182520564
  0
CIRCLE
  5
3CF
100
AcDbEntity
  8
RACCORDO
100
AcDbCircle
 62
250
  6
CONTINUOUS
 10
126.4334210526
 20
97.9105900493
 40
3.7438655058
  0
CIRCLE
  5
3D0
100
AcDbEntity
  8
RACCORDO
100
AcDbCircle
 62
250
  6
CONTINUOUS
 10
225.4334210526
 20
97.9105900493
 40
3.7438655058
  0
ARC
  5
3D1
100
AcDbEntity
  8
0
100
AcDbCircle
 62
7
  6
CONTINUOUS
 10
131.3834210526
 20
57.7105900493
 40
1.0
100
AcDbArc
 50
180.0
 51
270.0
  0
ARC
  5
3D2
100
AcDbEntity
  8
0
100
AcDbCircle
 62
7
  6
CONTINUOUS
 10
220.4834210526
 20
57.7105900493
 40
1.0
100
AcDbArc
 50
270.0
 51
360.0
  0
ARC
  5
3D3
100
AcDbEntity
  8
0
100
AcDbCircle
 62
7
  6
CONTINUOUS
 10
131.3834210526
 20
57.7105900493
 40
0.5
100
AcDbArc
 50
180.0
 51
270.0
  0
ARC
  5
3D4
100
AcDbEntity
  8
0
100
AcDbCircle
 62
7
  6
CONTINUOUS
 10
220.4834210526
 20
57.7105900493
 40
0.5
100
AcDbArc
 50
270.0
 51
360.0
  0
ARC
  5
3D5
100
AcDbEntity
  8
ASSI
100
AcDbCircle
 62
7
  6
CONTINUOUS
 10
74.8524938992
 20
97.9105900493
 40
10.0
100
AcDbArc
 50
158.0135970028
 51
201.9864029972
  0
ARC
  5
3D6
100
AcDbEntity
  8
0
100
AcDbCircle
 62
7
  6
CONTINUOUS
 10
71.2544946998
 20
97.9105900493
 40
5.1256706878
100
AcDbArc
 50
333.7860758155
 51
26.2139239413
  0
ARC
  5
3D7
100
AcDbEntity
  8
RACCORDO
100
AcDbCircle
 62
7
  6
CONTINUOUS
 10
74.3524938992
 20
70.9849961186
 40
1.5
100
AcDbArc
 50
275.0
 51
360.0
  0
ARC
  5
3D8
100
AcDbEntity
  8
RACCORDO
100
AcDbCircle
 62
7
  6
CONTINUOUS
 10
74.3524938992
 20
121.8361839801
 40
1.5
100
AcDbArc
 50
0.0
 51
85.0
  0
ARC
  5
3D9
100
AcDbEntity
  8
RACCORDO
100
AcDbCircle
 62
7
  6
CONTINUOUS
 10
67.1524938992
 20
122.3436182286
 40
1.5
100
AcDbArc
 50
95.0
 51
180.0
  0
ARC
  5
3DA
100
AcDbEntity
  8
RACCORDO
100
AcDbCircle
 62
7
  6
CONTINUOUS
 10
67.1524938992
 20
70.4775618701
 40
1.5
100
AcDbArc
 50
180.0
 51
265.0
  0
ARC
  5
3DB
100
AcDbEntity
  8
RACCORDO
100
AcDbCircle
 62
7
  6
CONTINUOUS
 10
64.6524938992
 20
102.0288421057
 40
1.0
100
AcDbArc
 50
338.0135970028
 51
360.0
  0
ARC
  5
3DC
100
AcDbEntity
  8
RACCORDO
100
AcDbCircle
 62
7
  6
CONTINUOUS
 10
64.6524938992
 20
93.7923379929
 40
1.0
100
AcDbArc
 50
0.0
 51
21.9864029972
  0
ARC
  5
3DD
100
AcDbEntity
  8
0
100
AcDbCircle
 62
7
  6
CONTINUOUS
 10
71.6524938992
 20
56.9605900493
 40
0.25
100
AcDbArc
 50
180.0
 51
360.0
  0
ELLIPSE
  5
3DE
100
AcDbEntity
  8
RACCORDO
100
AcDbEllipse
 62
7
  6
CONTINUOUS
 10
231.9276912963
 20
70.4163198057
 30
0.0
 11
1.0687479118
 21
-1.0687479118
 31
0.0
 40
0.9924325091
 41
-0.7816000651
 42
0.7816000651
  0
ELLIPSE
  5
3DF
100
AcDbEntity
  8
RACCORDO
100
AcDbEllipse
 62
7
  6
CONTINUOUS
 10
230.42196154
 20
120.8991305367
 30
0.0
 11
2.1374958237
 21
2.1374958237
 31
0.0
 40
0.9924325091
 41
-0.7816000651
 42
0.7816000651
  0
ELLIPSE
  5
3E0
100
AcDbEntity
  8
RACCORDO
100
AcDbEllipse
 62
7
  6
CONTINUOUS
 10
121.4448805653
 20
120.8991305367
 30
0.0
 11
2.1374958237
 21
-2.1374958237
 31
0.0
 40
0.9924325091
 41
2.3599925885
 42
3.9231927187
  0
ELLIPSE
  5
3E1
100
AcDbEntity
  8
RACCORDO
100
AcDbEllipse
 62
7
  6
CONTINUOUS
 10
119.9391508089
 20
70.4163198057
 30
0.0
 11
1.0687479118
 21
1.0687479118
 31
0.0
 40
0.9924325091
 41
2.3599925885
 42
3.9231927187
  0
ELLIPSE
  5
3E2
100
AcDbEntity
  8
RACCORDO
100
AcDbEllipse
 62
7
  6
CONTINUOUS
 10
131.6776912963
 20
70.4163198057
 30
0.0
 11
1.0687479118
 21
-1.0687479118
 31
0.0
 40
0.9924325091
 41
-0.7816000651
 42
0.7816000651
  0
ELLIPSE
  5
3E3
100
AcDbEntity
  8
RACCORDO
100
AcDbEllipse
 62
7
  6
CONTINUOUS
 10
220.1891508089
 20
70.4163198057
 30
0.0
 11
1.0687479118
 21
1.0687479118
 31
0.0
 40
0.9924325091
 41
2.3599925885
 42
3.9231927187
  0
ELLIPSE
  5
3E4
100
AcDbEntity
  8
RACCORDO
100
AcDbEllipse
 62
7
  6
CONTINUOUS
 10
176.72582953
 20
96.1244950169
 30
0.0
 11
0.149101097
 21
-0.1358089442
 31
0.0
 40
0.9916652907
 41
-0.8278500011
 42
0.8278500011
  0
ELLIPSE
  5
3E5
100
AcDbEntity
  8
RACCORDO
100
AcDbEllipse
 62
7
  6
CONTINUOUS
 10
176.4828769101
 20
98.7226060818
 30
0.0
 11
0.1356167882
 21
0.1488901339
 31
0.0
 40
0.9930703854
 41
-0.7353174917
 42
0.7353174917
  0
ELLIPSE
  5
3E6
100
AcDbEntity
  8
RACCORDO
100
AcDbEllipse
 62
7
  6
CONTINUOUS
 10
176.1852403549
 20
98.7226060818
 30
0.0
 11
-0.1144918917
 21
0.1653618731
 31
0.0
 40
0.9943858553
 41
-0.6029556867
 42
0.6029556867
  0
ELLIPSE
  5
3E7
100
AcDbEntity
  8
RACCORDO
100
AcDbEllipse
 62
7
  6
CONTINUOUS
 10
174.6610437265
 20
98.7226060818
 30
0.0
 11
0.1147813409
 21
0.1651644093
 31
0.0
 40
0.9943723851
 41
-0.6046879425
 42
0.6046879425
  0
ELLIPSE
  5
3E8
100
AcDbEntity
  8
RACCORDO
100
AcDbEllipse
 62
7
  6
CONTINUOUS
 10
174.3583930166
 20
98.7226060818
 30
0.0
 11
-0.1358568625
 21
0.1486765988
 31
0.0
 40
0.9930503963
 41
-0.7369016405
 42
0.7369016405
  0
ELLIPSE
  5
3E9
100
AcDbEntity
  8
RACCORDO
100
AcDbEllipse
 62
7
  6
CONTINUOUS
 10
173.1416400201
 20
98.7227860818
 30
0.0
 11
0.1424997216
 21
-0.1424997216
 31
0.0
 40
0.9924325091
 41
2.3599925885
 42
3.9231927187
  0
ELLIPSE
  5
3EA
100
AcDbEntity
  8
RACCORDO
100
AcDbEllipse
 62
7
  6
CONTINUOUS
 10
173.3662540851
 20
98.7227860818
 30
0.0
 11
0.1424997216
 21
0.1424997216
 31
0.0
 40
0.9924325091
 41
-0.7816000651
 42
0.7816000651
  0
ELLIPSE
  5
3EB
100
AcDbEntity
  8
RACCORDO
100
AcDbEllipse
 62
7
  6
CONTINUOUS
 10
173.3662540851
 20
96.1244950169
 30
0.0
 11
0.1424997216
 21
-0.1424997216
 31
0.0
 40
0.9924325091
 41
-0.7816000651
 42
0.7816000651
  0
ELLIPSE
  5
3EC
100
AcDbEntity
  8
RACCORDO
100
AcDbEllipse
 62
7
  6
CONTINUOUS
 10
173.1416400201
 20
96.1244950169
 30
0.0
 11
0.1424997216
 21
0.1424997216
 31
0.0
 40
0.9924325091
 41
-3.9231927187
 42
-2.3599925885
  0
ELLIPSE
  5
3ED
100
AcDbEntity
  8
RACCORDO
100
AcDbEllipse
 62
7
  6
CONTINUOUS
 10
170.5158341461
 20
98.7226060818
 30
0.0
 11
0.1631419762
 21
-0.1194245516
 31
0.0
 40
0.9892081453
 41
2.2078760113
 42
4.0753092959
  0
ELLIPSE
  5
3EE
100
AcDbEntity
  8
RACCORDO
100
AcDbEllipse
 62
7
  6
CONTINUOUS
 10
170.7690381835
 20
98.7226060818
 30
0.0
 11
0.121817529
 21
0.1601369237
 31
0.0
 40
0.9940124006
 41
-0.6474278859
 42
0.6474278859
  0
ELLIPSE
  5
3EF
100
AcDbEntity
  8
RACCORDO
100
AcDbEllipse
 62
7
  6
CONTINUOUS
 10
172.2342822189
 20
98.7226060818
 30
0.0
 11
-0.121184584
 21
0.1606075307
 31
0.0
 40
0.9940475434
 41
-0.6435313532
 42
0.6435313532
  0
ELLIPSE
  5
3F0
100
AcDbEntity
  8
RACCORDO
100
AcDbEllipse
 62
7
  6
CONTINUOUS
 10
172.4330985835
 20
98.7226060818
 30
0.0
 11
0.1633908529
 21
0.1191041124
 31
0.0
 40
0.9891496792
 41
-0.9357007891
 42
0.9357007891
  0
ELLIPSE
  5
3F1
100
AcDbEntity
  8
RACCORDO
100
AcDbEllipse
 62
7
  6
CONTINUOUS
 10
171.5979617283
 20
96.1244950169
 30
0.0
 11
-0.1185002498
 21
0.1625624548
 31
0.0
 40
0.9941902631
 41
-3.7687154037
 42
-2.5144699034
  0
ELLIPSE
  5
3F2
100
AcDbEntity
  8
RACCORDO
100
AcDbEllipse
 62
7
  6
CONTINUOUS
 10
171.3394859684
 20
96.1244950169
 30
0.0
 11
0.1188281076
 21
0.1623271936
 31
0.0
 40
0.9941733614
 41
-3.7707095856
 42
-2.5124757216
  0
ELLIPSE
  5
3F3
100
AcDbEntity
  8
RACCORDO
100
AcDbEllipse
 62
7
  6
CONTINUOUS
 10
175.4179430884
 20
96.3750242362
 30
0.0
 11
0.0006007609
 21
0.2060211601
 31
0.0
 40
0.9707699423
 41
-4.3407629981
 42
-1.9424223091
  0
ELLIPSE
  5
3F4
100
AcDbEntity
  8
RACCORDO
100
AcDbEllipse
 62
7
  6
CONTINUOUS
 10
180.1182482594
 20
96.1244945635
 30
0.0
 11
0.1424997216
 21
-0.1424997216
 31
0.0
 40
0.9924325091
 41
-0.7816000651
 42
0.7816000651
  0
ELLIPSE
  5
3F5
100
AcDbEntity
  8
RACCORDO
100
AcDbEllipse
 62
7
  6
CONTINUOUS
 10
179.8961532437
 20
96.1244945635
 30
0.0
 11
0.1424997216
 21
0.1424997216
 31
0.0
 40
0.9924325091
 41
-3.9231927187
 42
-2.3599925885
  0
ELLIPSE
  5
3F6
100
AcDbEntity
  8
RACCORDO
100
AcDbEllipse
 62
7
  6
CONTINUOUS
 10
178.1328780659
 20
98.7226060818
 30
0.0
 11
-0.1190772483
 21
0.1621477703
 31
0.0
 40
0.9941604215
 41
-0.6306341408
 42
0.6306341408
  0
ELLIPSE
  5
3F7
100
AcDbEntity
  8
RACCORDO
100
AcDbEllipse
 62
7
  6
CONTINUOUS
 10
178.4427578336
 20
98.7226060818
 30
0.0
 11
0.1195856683
 21
0.1617798803
 31
0.0
 40
0.9941337543
 41
-0.6337352139
 42
0.6337352139
  0
ELLIPSE
  5
3F8
100
AcDbEntity
  8
RACCORDO
100
AcDbEllipse
 62
7
  6
CONTINUOUS
 10
179.2399221904
 20
96.1244950169
 30
0.0
 11
0.1625635337
 21
-0.1201649351
 31
0.0
 40
0.9893414356
 41
-0.9291210235
 42
0.9291210235
  0
ELLIPSE
  5
3F9
100
AcDbEntity
  8
RACCORDO
100
AcDbEllipse
 62
7
  6
CONTINUOUS
 10
179.0052133473
 20
96.1244950169
 30
0.0
 11
0.1222716394
 21
0.1597969792
 31
0.0
 40
0.9939868209
 41
-3.7918227645
 42
-2.4913625427
  0
ELLIPSE
  5
3FA
100
AcDbEntity
  8
RACCORDO
100
AcDbEllipse
 62
7
  6
CONTINUOUS
 10
177.5128846888
 20
96.1244950169
 30
0.0
 11
-0.1209502884
 21
0.1607807907
 31
0.0
 40
0.9940604037
 41
-3.7836843435
 42
-2.4995009637
  0
ELLIPSE
  5
3FB
100
AcDbEntity
  8
RACCORDO
100
AcDbEllipse
 62
7
  6
CONTINUOUS
 10
177.3179448214
 20
96.1244950169
 30
0.0
 11
0.1629522647
 21
0.1196680488
 31
0.0
 40
0.9892522569
 41
2.2093856862
 42
4.073799621
  0
ELLIPSE
  5
3FC
100
AcDbEntity
  8
RACCORDO
100
AcDbEllipse
 62
7
  6
CONTINUOUS
 10
174.3157136052
 20
96.1244950169
 30
0.0
 11
-0.1374420512
 21
0.1472501114
 31
0.0
 40
0.9929146126
 41
-3.8890070024
 42
-2.3941783048
  0
ELLIPSE
  5
3FD
100
AcDbEntity
  8
RACCORDO
100
AcDbEllipse
 62
7
  6
CONTINUOUS
 10
174.123799526
 20
96.1244950169
 30
0.0
 11
0.1488799484
 21
0.1360426781
 31
0.0
 40
0.9916940256
 41
2.3153245986
 42
3.9678607086
  0
ELLIPSE
  5
3FE
100
AcDbEntity
  8
RACCORDO
100
AcDbEllipse
 62
7
  6
CONTINUOUS
 10
176.5216693072
 20
96.1244950169
 30
0.0
 11
0.1376668867
 21
0.1470454351
 31
0.0
 40
0.9928948036
 41
-3.8905056003
 42
-2.3926797069
  0
ELLIPSE
  5
3FF
100
AcDbEntity
  8
RACCORDO
100
AcDbEllipse
 62
7
  6
CONTINUOUS
 10
173.3443819192
 20
96.1463671827
 30
0.0
 11
0.1424997216
 21
-0.1424997216
 31
0.0
 40
0.9924325091
 41
-0.7816000651
 42
0.7816000651
  0
ELLIPSE
  5
400
100
AcDbEntity
  8
RACCORDO
100
AcDbEllipse
 62
7
  6
CONTINUOUS
 10
173.3443819192
 20
98.700913916
 30
0.0
 11
0.1424997216
 21
0.1424997216
 31
0.0
 40
0.9924325091
 41
-0.7816000651
 42
0.7816000651
  0
ELLIPSE
  5
401
100
AcDbEntity
  8
RACCORDO
100
AcDbEllipse
 62
7
  6
CONTINUOUS
 10
173.163512186
 20
98.700913916
 30
0.0
 11
-0.1424997216
 21
0.1424997216
 31
0.0
 40
0.9924325091
 41
-0.7816000651
 42
0.7816000651
  0
ELLIPSE
  5
402
100
AcDbEntity
  8
RACCORDO
100
AcDbEllipse
 62
7
  6
CONTINUOUS
 10
173.163512186
 20
96.1463671827
 30
0.0
 11
-0.1424997216
 21
-0.1424997216
 31
0.0
 40
0.9924325091
 41
-0.7816000651
 42
0.7816000651
  0
ELLIPSE
  5
403
100
AcDbEntity
  8
RACCORDO
100
AcDbEllipse
 62
7
  6
CONTINUOUS
 10
171.5820179661
 20
96.1463671827
 30
0.0
 11
0.1185002498
 21
-0.1625624548
 31
0.0
 40
0.9941902631
 41
-0.6271227502
 42
0.6271227502
  0
ELLIPSE
  5
404
100
AcDbEntity
  8
RACCORDO
100
AcDbEllipse
 62
7
  6
CONTINUOUS
 10
172.4030936427
 20
98.700733916
 30
0.0
 11
0.1633908529
 21
0.1191041124
 31
0.0
 40
0.9891496792
 41
-0.9357007891
 42
0.9357007891
  0
ELLIPSE
  5
405
100
AcDbEntity
  8
RACCORDO
100
AcDbEllipse
 62
7
  6
CONTINUOUS
 10
172.2507856127
 20
98.700733916
 30
0.0
 11
-0.121184584
 21
0.1606075307
 31
0.0
 40
0.9940475434
 41
-0.6435313532
 42
0.6435313532
  0
ELLIPSE
  5
406
100
AcDbEntity
  8
RACCORDO
100
AcDbEllipse
 62
7
  6
CONTINUOUS
 10
170.7523998397
 20
98.700733916
 30
0.0
 11
0.121817529
 21
0.1601369237
 31
0.0
 40
0.9940124006
 41
-0.6474278859
 42
0.6474278859
  0
ELLIPSE
  5
407
100
AcDbEntity
  8
RACCORDO
100
AcDbEllipse
 62
7
  6
CONTINUOUS
 10
170.545712997
 20
98.700733916
 30
0.0
 11
-0.1631419762
 21
0.1194245516
 31
0.0
 40
0.9892081453
 41
-0.9337166423
 42
0.9337166423
  0
ELLIPSE
  5
408
100
AcDbEntity
  8
RACCORDO
100
AcDbEllipse
 62
7
  6
CONTINUOUS
 10
171.3554970139
 20
96.1463671827
 30
0.0
 11
-0.1188281076
 21
-0.1623271936
 31
0.0
 40
0.9941733614
 41
-0.629116932
 42
0.629116932
  0
ELLIPSE
  5
409
100
AcDbEntity
  8
RACCORDO
100
AcDbEllipse
 62
7
  6
CONTINUOUS
 10
180.0963760936
 20
96.1463667294
 30
0.0
 11
0.1424997216
 21
-0.1424997216
 31
0.0
 40
0.9924325091
 41
-0.7816000651
 42
0.7816000651
  0
ELLIPSE
  5
40A
100
AcDbEntity
  8
RACCORDO
100
AcDbEllipse
 62
7
  6
CONTINUOUS
 10
179.9180254096
 20
96.1463667294
 30
0.0
 11
-0.1424997216
 21
-0.1424997216
 31
0.0
 40
0.9924325091
 41
-0.7816000651
 42
0.7816000651
  0
ELLIPSE
  5
40B
100
AcDbEntity
  8
RACCORDO
100
AcDbEllipse
 62
7
  6
CONTINUOUS
 10
177.4964309522
 20
96.1463671827
 30
0.0
 11
0.1209502884
 21
-0.1607807907
 31
0.0
 40
0.9940604037
 41
-0.6420916899
 42
0.6420916899
  0
ELLIPSE
  5
40C
100
AcDbEntity
  8
RACCORDO
100
AcDbEllipse
 62
7
  6
CONTINUOUS
 10
179.021949243
 20
96.1463671827
 30
0.0
 11
-0.1222716394
 21
-0.1597969792
 31
0.0
 40
0.9939868209
 41
-0.6502301109
 42
0.6502301109
  0
ELLIPSE
  5
40D
100
AcDbEntity
  8
RACCORDO
100
AcDbEllipse
 62
7
  6
CONTINUOUS
 10
179.2103327218
 20
96.1463671827
 30
0.0
 11
0.1625635337
 21
-0.1201649351
 31
0.0
 40
0.9893414356
 41
-0.9291210235
 42
0.9291210235
  0
ELLIPSE
  5
40E
100
AcDbEntity
  8
RACCORDO
100
AcDbEllipse
 62
7
  6
CONTINUOUS
 10
178.4265902016
 20
98.700733916
 30
0.0
 11
0.1195856683
 21
0.1617798803
 31
0.0
 40
0.9941337543
 41
-0.6337352139
 42
0.6337352139
  0
ELLIPSE
  5
40F
100
AcDbEntity
  8
RACCORDO
100
AcDbEllipse
 62
7
  6
CONTINUOUS
 10
178.148940435
 20
98.700733916
 30
0.0
 11
-0.1190772483
 21
0.1621477703
 31
0.0
 40
0.9941604215
 41
-0.6306341408
 42
0.6306341408
  0
ELLIPSE
  5
410
100
AcDbEntity
  8
RACCORDO
100
AcDbEllipse
 62
7
  6
CONTINUOUS
 10
177.3477282013
 20
96.1463671827
 30
0.0
 11
-0.1629522647
 21
-0.1196680488
 31
0.0
 40
0.9892522569
 41
-0.9322069674
 42
0.9322069674
  0
ELLIPSE
  5
411
100
AcDbEntity
  8
RACCORDO
100
AcDbEllipse
 62
7
  6
CONTINUOUS
 10
176.7018166496
 20
96.1463671827
 30
0.0
 11
0.149101097
 21
-0.1358089442
 31
0.0
 40
0.9916652907
 41
-0.8278500011
 42
0.8278500011
  0
ELLIPSE
  5
412
100
AcDbEntity
  8
RACCORDO
100
AcDbEllipse
 62
7
  6
CONTINUOUS
 10
176.462954617
 20
98.700733916
 30
0.0
 11
0.1356167882
 21
0.1488901339
 31
0.0
 40
0.9930703854
 41
-0.7353174917
 42
0.7353174917
  0
ELLIPSE
  5
413
100
AcDbEntity
  8
RACCORDO
100
AcDbEllipse
 62
7
  6
CONTINUOUS
 10
176.200384025
 20
98.700733916
 30
0.0
 11
-0.1144918917
 21
0.1653618731
 31
0.0
 40
0.9943858553
 41
-0.6029556867
 42
0.6029556867
  0
ELLIPSE
  5
414
100
AcDbEntity
  8
RACCORDO
100
AcDbEllipse
 62
7
  6
CONTINUOUS
 10
174.6458436205
 20
98.700733916
 30
0.0
 11
0.1147813409
 21
0.1651644093
 31
0.0
 40
0.9943723851
 41
-0.6046879425
 42
0.6046879425
  0
ELLIPSE
  5
415
100
AcDbEntity
  8
RACCORDO
100
AcDbEllipse
 62
7
  6
CONTINUOUS
 10
174.3783792408
 20
98.700733916
 30
0.0
 11
-0.1358568625
 21
0.1486765988
 31
0.0
 40
0.9930503963
 41
-0.7369016405
 42
0.7369016405
  0
ELLIPSE
  5
416
100
AcDbEntity
  8
RACCORDO
100
AcDbEllipse
 62
7
  6
CONTINUOUS
 10
174.1477355949
 20
96.1463671827
 30
0.0
 11
-0.1488799484
 21
-0.1360426781
 31
0.0
 40
0.9916940256
 41
-0.826268055
 42
0.826268055
  0
ELLIPSE
  5
417
100
AcDbEntity
  8
RACCORDO
100
AcDbEllipse
 62
7
  6
CONTINUOUS
 10
174.2952983042
 20
96.1463671827
 30
0.0
 11
0.1374420512
 21
-0.1472501114
 31
0.0
 40
0.9929146126
 41
-0.7474143488
 42
0.7474143488
  0
ELLIPSE
  5
418
100
AcDbEntity
  8
RACCORDO
100
AcDbEllipse
 62
7
  6
CONTINUOUS
 10
175.4181233256
 20
96.4368336525
 30
0.0
 11
-0.0006007609
 21
-0.2060211601
 31
0.0
 40
0.9707699423
 41
-1.1991703445
 42
1.1991703445
  0
ELLIPSE
  5
419
100
AcDbEntity
  8
RACCORDO
100
AcDbEllipse
 62
7
  6
CONTINUOUS
 10
176.5421464678
 20
96.1463671827
 30
0.0
 11
-0.1376668867
 21
-0.1470454351
 31
0.0
 40
0.9928948036
 41
-0.7489129467
 42
0.7489129467
  0
ENDSEC
  0
SECTION
  2
OBJECTS
  0
DICTIONARY
  5
C
100
AcDbDictionary
280
0
281
1
  3
ACAD_GROUP
350
D
  3
ACAD_MLINESTYLE
350
17
  3
ACAD_LAYOUT
350
1A
  3
ACAD_PLOTSETTINGS
350
19
  3
ACAD_PLOTSTYLENAME
350
E
  0
DICTIONARY
  5
D
102
{ACAD_REACTORS
330
C
102
}
100
AcDbDictionary
280
0
281
1
  0
ACDBDICTIONARYWDFLT
  5
E
102
{ACAD_REACTORS
330
C
102
}
100
AcDbDictionary
281
1
  3
Normal
350
F
100
AcDbDictionaryWithDefault
340
F
  0
DICTIONARY
  5
17
102
{ACAD_REACTORS
330
C
102
}
100
AcDbDictionary
280
0
281
1
  3
Standard
350
18
  0
DICTIONARY
  5
19
102
{ACAD_REACTORS
330
C
102
}
100
AcDbDictionary
281
1
  0
DICTIONARY
  5
1A
102
{ACAD_REACTORS
330
C
102
}
100
AcDbDictionary
281
1
  3
Model
350
41A
  3
Layout1
350
41B
  0
ACDBPLACEHOLDER
  5
F
102
{ACAD_REACTORS
330
E
102
}
  0
MLINESTYLE
  5
18
102
{ACAD_REACTORS
330
17
102
}
100
AcDbMlineStyle
  2
STANDARD
 70
0
  3

 62
256
 51
90.0
 52
90.0
 71
2
 49
0.5
 62
256
  6
BYLAYER
 49
-0.5
 62
256
  6
BYLAYER
  0
LAYOUT
  5
41A
102
{ACAD_REACTORS
330
1A
102
}
100
AcDbPlotSettings
  1

  2
none_device
  4
ISO_A4_(297.00_x_210.00_MM)
  6

 40
0.0
 41
0.0
 42
0.0
 43
0.0
 44
297.0
 45
210.0
 46
0.0
 47
0.0
 48
0.0
 49
0.0
140
0.0
141
0.0
142
1.0
143
1.0
 70
1024
 72
1
 73
0
 74
0
  7

 75
0
147
1.0
148
0.0
149
0.0
100
AcDbLayout
  1
Model
 70
0
 71
0
 10
0.0
 20
0.0
 11
297.0
 21
210.0
 12
0.0
 22
0.0
 32
0.0
 14
0.0
 24
0.0
 34
0.0
 15
0.0
 25
0.0
 35
0.0
146
0.0
 13
0.0
 23
0.0
 33
0.0
 16
1.0
 26
0.0
 36
0.0
 17
0.0
 27
1.0
 37
0.0
 76
0
330
212
345
0
346
0
  0
LAYOUT
  5
41B
102
{ACAD_REACTORS
330
1A
102
}
100
AcDbPlotSettings
  1

  2
none_device
  4
ISO_A4_(297.00_x_210.00_MM)
  6

 40
0.0
 41
0.0
 42
0.0
 43
0.0
 44
297.0
 45
210.0
 46
0.0
 47
0.0
 48
0.0
 49
0.0
140
0.0
141
0.0
142
1.0
143
1.0
 70
0
 72
1
 73
0
 74
0
  7

 75
0
147
1.0
148
0.0
149
0.0
100
AcDbLayout
  1
Layout1
 70
0
 71
1
 10
0.0
 20
0.0
 11
297.0
 21
210.0
 12
0.0
 22
0.0
 32
0.0
 14
0.0
 24
0.0
 34
0.0
 15
0.0
 25
0.0
 35
0.0
146
0.0
 13
0.0
 23
0.0
 33
0.0
 16
1.0
 26
0.0
 36
0.0
 17
0.0
 27
1.0
 37
0.0
 76
0
330
213
345
0
346
0
  0
ENDSEC
  0
EOF
