  0
SECTION
  2
HEADER
  9
$ACADVER
  1
AC1015
  9
$DWGCODEPAGE
  3
ANSI_1252
  9
$EXTMAX
 10
297.0
 20
210.0
 30
0.0
  9
$EXTMIN
 10
0.0
 20
0.0
 30
0.0
  9
$LIMMIN
 10
0.0
 20
0.0
  9
$LIMMAX
 10
297.0
 20
210.0
  9
$VIEWCTR
 10
148.5
 20
105.0
  9
$VIEWSIZE
 40
210.0
  9
$CLAYER
  8
0
  9
$LTSCALE
 40
16.335
  9
$CELTYPE
  6
BYLAYER
  9
$DIMSCALE
 40
1.0
  9
$DIMASZ
 40
3.0
  9
$DIMEXO
 40
1.85625
  9
$DIMDLI
 40
11.286
  9
$DIMEXE
 40
5.346
  9
$DIMCEN
 40
2.673
  9
$DIMLFAC
 40
1.0
  9
$DIMBLK
  1
_FILLED
  9
$DIMTXT
 40
3.0
  9
$DIMTOL
 70
1
  9
$DIMLIM
 70
0
  9
$DIMTFAC
 40
1.0
  9
$DIMTP
 40
0.01
  9
$DIMTM
 40
0.01
  9
$PDMODE
 70
3
  9
$PDSIZE
 40
3.0
  9
$HANDSEED
  5
39B
  9
$TILEMODE
 70
1
  9
$MEASUREMENT
 70
1
  9
$INSUNITS
 70
4
  0
ENDSEC
  0
SECTION
  2
CLASSES
  0
CLASS
  1
ACDBDICTIONARYWDFLT
  2
AcDbDictionaryWithDefault
  3
AutoCAD 2000
 90
0
280
0
281
0
  0
CLASS
  1
ACDBPLACEHOLDER
  2
AcDbPlaceHolder
  3
AutoCAD 2000
 90
0
280
0
281
0
  0
CLASS
  1
LAYOUT
  2
AcDbLayout
  3
AutoCAD 2000
 90
0
280
0
281
0
  0
ENDSEC
  0
SECTION
  2
TABLES
  0
TABLE
  2
VPORT
  5
8
100
AcDbSymbolTable
 70
2
  0
VPORT
  5
1F4
100
AcDbSymbolTableRecord
100
AcDbViewportTableRecord
  2
*ACTIVE
 70
0
 10
0.0
 20
0.0
 11
1.0
 21
1.0
 12
148.5
 22
105.0
 13
0.0
 23
0.0
 14
1.0
 24
1.0
 15
0.0
 25
0.0
 16
0.0
 26
0.0
 36
1.0
 17
0.0
 27
0.0
 37
0.0
 40
210.0
 41
1.4142857143
 42
50.0
 43
0.0
 44
0.0
 50
0.0
 51
0.0
 71
0
 72
100
 73
1
 74
1
 75
0
 76
0
 77
0
 78
0
  0
ENDTAB
  0
TABLE
  2
LTYPE
  5
5
100
AcDbSymbolTable
 70
6
  0
LTYPE
  5
14
100
AcDbSymbolTableRecord
100
AcDbLinetypeTableRecord
  2
BYBLOCK
 70
0
  3

 72
65
 73
0
 40
0.0
  0
LTYPE
  5
15
100
AcDbSymbolTableRecord
100
AcDbLinetypeTableRecord
  2
BYLAYER
 70
0
  3

 72
65
 73
0
 40
0.0
  0
LTYPE
  5
16
100
AcDbSymbolTableRecord
100
AcDbLinetypeTableRecord
  2
CONTINUOUS
 70
64
  3
Solid line
 72
65
 73
0
 40
0.0
  0
LTYPE
  5
1F5
100
AcDbSymbolTableRecord
100
AcDbLinetypeTableRecord
  2
CENTER
 70
64
  3
____ _ ____ _ ____ _ ____ _ ____ _ ____ _ ____
 72
65
 73
4
 40
0.6
 49
0.375
 74
0
 49
-0.075
 74
0
 49
0.075
 74
0
 49
-0.075
 74
0
  0
LTYPE
  5
1F6
100
AcDbSymbolTableRecord
100
AcDbLinetypeTableRecord
  2
HIDDEN
 70
64
  3
- - - - - - - - - - - - - - - - - - - -
 72
65
 73
2
 40
0.2
 49
0.1
 74
0
 49
-0.1
 74
0
  0
LTYPE
  5
1F7
100
AcDbSymbolTableRecord
100
AcDbLinetypeTableRecord
  2
PHANTOM
 70
64
  3
_____ _ _ _____ _ _ _____ _ _ _____
 72
65
 73
6
 40
0.8
 49
0.45
 74
0
 49
-0.05
 74
0
 49
0.1
 74
0
 49
-0.05
 74
0
 49
0.1
 74
0
 49
-0.05
 74
0
  0
LTYPE
  5
1F8
100
AcDbSymbolTableRecord
100
AcDbLinetypeTableRecord
  2
DOT
 70
64
  3
. . . . . . . . . . . . . . . . . . . .
 72
65
 73
2
 40
0.2
 49
0.1
 74
0
 49
-0.1
 74
0
  0
LTYPE
  5
1F9
100
AcDbSymbolTableRecord
100
AcDbLinetypeTableRecord
  2
DASHED
 70
64
  3
- - - - - - - - - - - - - - - - - - - -
 72
65
 73
2
 40
0.2
 49
0.1
 74
0
 49
-0.1
 74
0
  0
ENDTAB
  0
TABLE
  2
LAYER
  5
2
100
AcDbSymbolTable
 70
36
  0
LAYER
  5
10
100
AcDbSymbolTableRecord
100
AcDbLayerTableRecord
  2
0
 70
0
 62
7
  6
CONTINUOUS
370
-3
390
F
  0
LAYER
  5
1FA
100
AcDbSymbolTableRecord
100
AcDbLayerTableRecord
  2
DEFAULT_1
 70
0
 62
7
  6
CENTER
370
-3
390
F
  0
LAYER
  5
1FB
100
AcDbSymbolTableRecord
100
AcDbLayerTableRecord
  2
DEFAULT_2
 70
0
 62
7
  6
HIDDEN
370
-3
390
F
  0
LAYER
  5
1FC
100
AcDbSymbolTableRecord
100
AcDbLayerTableRecord
  2
DEFAULT_3
 70
0
 62
7
  6
PHANTOM
370
-3
390
F
  0
LAYER
  5
1FD
100
AcDbSymbolTableRecord
100
AcDbLayerTableRecord
  2
ASSI
 70
0
 62
7
  6
CONTINUOUS
370
-3
390
F
  0
LAYER
  5
1FE
100
AcDbSymbolTableRecord
100
AcDbLayerTableRecord
  2
COORDINATE
 70
0
 62
7
  6
CONTINUOUS
370
-3
390
F
  0
LAYER
  5
1FF
100
AcDbSymbolTableRecord
100
AcDbLayerTableRecord
  2
COPY_PUBLISH
 70
0
 62
7
  6
CONTINUOUS
370
-3
390
F
  0
LAYER
  5
200
100
AcDbSymbolTableRecord
100
AcDbLayerTableRecord
  2
COSMETIC
 70
0
 62
7
  6
CONTINUOUS
370
-3
390
F
  0
LAYER
  5
201
100
AcDbSymbolTableRecord
100
AcDbLayerTableRecord
  2
CURVE
 70
0
 62
7
  6
CONTINUOUS
370
-3
390
F
  0
LAYER
  5
202
100
AcDbSymbolTableRecord
100
AcDbLayerTableRecord
  2
DRAFT
 70
0
 62
7
  6
CONTINUOUS
370
-3
390
F
  0
LAYER
  5
203
100
AcDbSymbolTableRecord
100
AcDbLayerTableRecord
  2
IMPORT_IGES
 70
0
 62
7
  6
CONTINUOUS
370
-3
390
F
  0
LAYER
  5
204
100
AcDbSymbolTableRecord
100
AcDbLayerTableRecord
  2
PIANI
 70
0
 62
7
  6
CONTINUOUS
370
-3
390
F
  0
LAYER
  5
205
100
AcDbSymbolTableRecord
100
AcDbLayerTableRecord
  2
RACCORDO
 70
0
 62
7
  6
CONTINUOUS
370
-3
390
F
  0
LAYER
  5
206
100
AcDbSymbolTableRecord
100
AcDbLayerTableRecord
  2
SNAPLINE
 70
0
 62
7
  6
CONTINUOUS
370
-3
390
F
  0
LAYER
  5
207
100
AcDbSymbolTableRecord
100
AcDbLayerTableRecord
  2
TRASH
 70
0
 62
7
  6
CONTINUOUS
370
-3
390
F
  0
ENDTAB
  0
TABLE
  2
STYLE
  5
3
100
AcDbSymbolTable
 70
1
  0
STYLE
  5
11
100
AcDbSymbolTableRecord
100
AcDbTextStyleTableRecord
  2
STANDARD
 70
0
 40
0.0
 41
0.8
 50
0.0
 71
0
 42
0.2
  3
txt
  4

  0
STYLE
  5
208
100
AcDbSymbolTableRecord
100
AcDbTextStyleTableRecord
  2
TEXTSTYLE_1
 70
0
 40
0.0
 41
0.8
 50
0.0
 71
0
 42
0.2
  3
gdt
  4

  0
ENDTAB
  0
TABLE
  2
VIEW
  5
6
100
AcDbSymbolTable
 70
0
  0
ENDTAB
  0
TABLE
  2
UCS
  5
7
100
AcDbSymbolTable
 70
0
  0
ENDTAB
  0
TABLE
  2
APPID
  5
9
100
AcDbSymbolTable
 70
1
  0
APPID
  5
209
100
AcDbSymbolTableRecord
100
AcDbRegAppTableRecord
  2
ACAD
 70
0
  0
ENDTAB
  0
TABLE
  2
BLOCK_RECORD
  5
1
100
AcDbSymbolTable
 70
0
  0
BLOCK_RECORD
  5
20A
100
AcDbSymbolTableRecord
100
AcDbBlockTableRecord
  2
*Model_Space
  0
BLOCK_RECORD
  5
20B
100
AcDbSymbolTableRecord
100
AcDbBlockTableRecord
  2
*Paper_Space
  0
BLOCK_RECORD
  5
20C
100
AcDbSymbolTableRecord
100
AcDbBlockTableRecord
  2
_FILLED
  0
BLOCK_RECORD
  5
20D
100
AcDbSymbolTableRecord
100
AcDbBlockTableRecord
  2
*D0
  0
BLOCK_RECORD
  5
20E
100
AcDbSymbolTableRecord
100
AcDbBlockTableRecord
  2
*D1
  0
BLOCK_RECORD
  5
20F
100
AcDbSymbolTableRecord
100
AcDbBlockTableRecord
  2
*D2
  0
ENDTAB
  0
TABLE
  2
DIMSTYLE
  5
A
100
AcDbSymbolTable
 70
1
100
AcDbDimStyleTable
 71
0
  0
DIMSTYLE
105
210
100
AcDbSymbolTableRecord
100
AcDbDimStyleTableRecord
  2
STANDARD
 70
0
  3

  4

 40
1.0
 41
3.0
 42
0.0625
 43
0.38
 44
0.18
 45
0.0
 46
0.0
 47
0.01
 48
0.01
140
3.0
141
0.09
142
0.0
143
25.4
144
1.0
145
0.0
146
1.0
147
0.09
 71
1.0
 72
0.0
 73
0
 74
0
 75
0
 76
0
 77
1
 78
8
170
0
171
2
172
0
173
0
174
0
175
0
176
0
177
0
178
0
270
2
271
2
272
2
273
2
274
2
275
0
280
0
281
0
282
0
283
1
284
8
285
0
286
0
287
3
288
0
340
11
341
20C
342
20C
343
20C
344
20C
  0
DIMSTYLE
105
211
100
AcDbSymbolTableRecord
100
AcDbDimStyleTableRecord
  2
DIMSTYLE_1
 70
0
  3

  4

 40
1.0
 41
3.0
 42
0.0625
 43
0.38
 44
0.18
 45
0.0
 46
0.0
 47
0.0
 48
0.0
140
3.0
141
0.09
142
0.0
143
25.4
144
1.0
145
0.0
146
1.0
147
0.09
 71
0.0
 72
0.0
 73
0
 74
0
 75
0
 76
0
 77
1
 78
8
170
0
171
2
172
0
173
0
174
0
175
0
176
0
177
0
178
0
270
2
271
0
272
0
273
2
274
2
275
0
280
0
281
0
282
0
283
1
284
8
285
0
286
0
287
3
288
0
340
11
341
20C
342
20C
343
20C
344
20C
  0
DIMSTYLE
105
212
100
AcDbSymbolTableRecord
100
AcDbDimStyleTableRecord
  2
DIMSTYLE_2
 70
0
  3

  4

 40
1.0
 41
3.0
 42
0.0625
 43
0.38
 44
0.18
 45
0.0
 46
0.0
 47
0.0
 48
0.0
140
3.0
141
0.09
142
0.0
143
25.4
144
1.0
145
0.0
146
1.0
147
0.09
 71
0.0
 72
0.0
 73
0
 74
0
 75
0
 76
0
 77
1
 78
8
170
0
171
2
172
0
173
0
174
0
175
0
176
0
177
0
178
0
270
2
271
2
272
2
273
2
274
2
275
0
280
0
281
0
282
0
283
1
284
8
285
0
286
0
287
3
288
0
340
11
341
20C
342
20C
343
20C
344
20C
  0
ENDTAB
  0
ENDSEC
  0
SECTION
  2
BLOCKS
  0
BLOCK
  5
20
100
AcDbEntity
  8
0
100
AcDbBlockBegin
  2
*Model_Space
 70
0
 10
0.0
 20
0.0
 30
0.0
  3
*Model_Space
  1

  0
ENDBLK
  5
21
100
AcDbEntity
  8
0
100
AcDbBlockEnd
  0
BLOCK
  5
1C
100
AcDbEntity
  8
0
100
AcDbBlockBegin
  2
*Paper_Space
 70
0
 10
0.0
 20
0.0
 30
0.0
  3
*Paper_Space
  1

  0
ENDBLK
  5
1D
100
AcDbEntity
  8
0
100
AcDbBlockEnd
  0
BLOCK
  5
213
100
AcDbEntity
  8
0
100
AcDbBlockBegin
  2
_FILLED
 70
64
 10
0.0
 20
0.0
  3
_FILLED
  1

  0
SOLID
  5
214
100
AcDbEntity
  8
0
  6
BYBLOCK
 62
0
100
AcDbTrace
 10
0.0
 20
0.0
 11
-1.0
 21
0.3166666667
 12
-1.0
 22
-0.3166666667
 13
-1.0
 23
-0.3166666667
  0
ENDBLK
  5
215
100
AcDbEntity
  8
0
  6
BYBLOCK
 62
0
100
AcDbBlockEnd
  0
BLOCK
  5
216
100
AcDbEntity
  8
0
100
AcDbBlockBegin
 62
7
  6
CONTINUOUS
  2
*D0
 70
65
 10
0.0
 20
0.0
  3
*D0
  1

  0
LINE
  5
217
100
AcDbEntity
  8
0
100
AcDbLine
 62
7
  6
CONTINUOUS
 10
-118.8042716799
 20
31.6182068819
 11
-118.8042716799
 21
50.6356672666
  0
LINE
  5
218
100
AcDbEntity
  8
0
100
AcDbLine
 62
7
  6
CONTINUOUS
 10
21.2306490896
 20
31.6182068819
 11
21.2306490896
 21
50.6356672666
  0
LINE
  5
219
100
AcDbEntity
  8
0
100
AcDbLine
 62
7
  6
CONTINUOUS
 10
-118.8042716799
 20
49.1356672666
 11
-48.7868112952
 21
49.1356672666
  0
LINE
  5
21A
100
AcDbEntity
  8
0
100
AcDbLine
 62
7
  6
CONTINUOUS
 10
21.2306490896
 20
49.1356672666
 11
-48.7868112952
 21
49.1356672666
  0
INSERT
  5
21B
100
AcDbEntity
  8
0
100
AcDbBlockReference
 62
7
  6
CONTINUOUS
  2
_FILLED
 10
-118.8042716799
 20
49.1356672666
 41
3.0
 42
3.0
 43
3.0
 50
180.0
  0
INSERT
  5
21C
100
AcDbEntity
  8
0
100
AcDbBlockReference
 62
7
  6
CONTINUOUS
  2
_FILLED
 10
21.2306490896
 20
49.1356672666
 41
3.0
 42
3.0
 43
3.0
  0
ENDBLK
  5
21D
100
AcDbEntity
  8
0
  6
BYBLOCK
 62
0
100
AcDbBlockEnd
  0
BLOCK
  5
21E
100
AcDbEntity
  8
0
100
AcDbBlockBegin
 62
7
  6
CONTINUOUS
  2
*D1
 70
65
 10
0.0
 20
0.0
  3
*D1
  1

  0
LINE
  5
21F
100
AcDbEntity
  8
0
100
AcDbLine
 62
7
  6
CONTINUOUS
 10
11.7131887048
 20
41.1356672666
 11
30.7306490896
 21
41.1356672666
  0
LINE
  5
220
100
AcDbEntity
  8
0
100
AcDbLine
 62
7
  6
CONTINUOUS
 10
11.7131887048
 20
-98.8992535029
 11
30.7306490896
 21
-98.8992535029
  0
LINE
  5
221
100
AcDbEntity
  8
0
100
AcDbLine
 62
7
  6
CONTINUOUS
 10
29.2306490896
 20
41.1356672666
 11
29.2306490896
 21
-28.8817931181
  0
LINE
  5
222
100
AcDbEntity
  8
0
100
AcDbLine
 62
7
  6
CONTINUOUS
 10
29.2306490896
 20
-98.8992535029
 11
29.2306490896
 21
-28.8817931181
  0
INSERT
  5
223
100
AcDbEntity
  8
0
100
AcDbBlockReference
 62
7
  6
CONTINUOUS
  2
_FILLED
 10
29.2306490896
 20
41.1356672666
 41
3.0
 42
3.0
 43
3.0
 50
90.0
  0
INSERT
  5
224
100
AcDbEntity
  8
0
100
AcDbBlockReference
 62
7
  6
CONTINUOUS
  2
_FILLED
 10
29.2306490896
 20
-98.8992535029
 41
3.0
 42
3.0
 43
3.0
 50
270.0
  0
ENDBLK
  5
225
100
AcDbEntity
  8
0
  6
BYBLOCK
 62
0
100
AcDbBlockEnd
  0
BLOCK
  5
226
100
AcDbEntity
  8
0
100
AcDbBlockBegin
 62
7
  6
CONTINUOUS
  2
*D2
 70
65
 10
0.0
 20
0.0
  3
*D2
  1

  0
LINE
  5
227
100
AcDbEntity
  8
0
100
AcDbLine
 62
7
  6
CONTINUOUS
 10
111.8106881822
 20
31.6182068819
 11
111.8106881822
 21
50.6356672666
  0
LINE
  5
228
100
AcDbEntity
  8
0
100
AcDbLine
 62
7
  6
CONTINUOUS
 10
100.0106881822
 20
4.6182068819
 11
100.0106881822
 21
50.6356672666
  0
LINE
  5
229
100
AcDbEntity
  8
0
100
AcDbLine
 62
7
  6
CONTINUOUS
 10
111.8106881822
 20
49.1356672666
 11
115.8106881822
 21
49.1356672666
  0
LINE
  5
22A
100
AcDbEntity
  8
0
100
AcDbLine
 62
7
  6
CONTINUOUS
 10
115.8106881822
 20
49.1356672666
 11
105.9106881822
 21
49.1356672666
  0
LINE
  5
22B
100
AcDbEntity
  8
0
100
AcDbLine
 62
7
  6
CONTINUOUS
 10
100.0106881822
 20
49.1356672666
 11
96.0106881822
 21
49.1356672666
  0
LINE
  5
22C
100
AcDbEntity
  8
0
100
AcDbLine
 62
7
  6
CONTINUOUS
 10
96.0106881822
 20
49.1356672666
 11
105.9106881822
 21
49.1356672666
  0
INSERT
  5
22D
100
AcDbEntity
  8
0
100
AcDbBlockReference
 62
7
  6
CONTINUOUS
  2
_FILLED
 10
111.8106881822
 20
49.1356672666
 41
3.0
 42
3.0
 43
3.0
 50
180.0
  0
INSERT
  5
22E
100
AcDbEntity
  8
0
100
AcDbBlockReference
 62
7
  6
CONTINUOUS
  2
_FILLED
 10
100.0106881822
 20
49.1356672666
 41
3.0
 42
3.0
 43
3.0
  0
ENDBLK
  5
22F
100
AcDbEntity
  8
0
  6
BYBLOCK
 62
0
100
AcDbBlockEnd
  0
ENDSEC
  0
SECTION
  2
ENTITIES
  0
DIMENSION
  5
230
100
AcDbEntity
  8
0
100
AcDbDimension
 62
7
  6
CONTINUOUS
  2
*D0
 10
21.2306490896
 20
49.1356672666
 11
-52.0010970095
 21
49.8856672666
 70
160
 71
2
 42
140.0349207695
  3
DIMSTYLE_1
100
AcDbAlignedDimension
 13
-118.8042716799
 23
31.6182068819
 14
21.2306490896
 24
31.6182068819
100
AcDbRotatedDimension
  0
DIMENSION
  5
231
100
AcDbEntity
  8
0
100
AcDbDimension
 62
7
  6
CONTINUOUS
  2
*D1
 10
29.2306490896
 20
-98.8992535029
 11
28.4806490896
 21
-32.0960788324
 70
160
 71
2
 42
140.0349207695
  3
DIMSTYLE_1
100
AcDbAlignedDimension
 13
11.7131887048
 23
41.1356672666
 14
11.7131887048
 24
-98.8992535029
 50
270.0
100
AcDbRotatedDimension
  0
DIMENSION
  5
232
100
AcDbEntity
  8
0
100
AcDbDimension
 62
7
  6
CONTINUOUS
  2
*D2
 10
100.0106881822
 20
49.1356672666
 11
102.1606881822
 21
49.8856672666
 70
160
 71
2
 42
11.8
  3
DIMSTYLE_2
100
AcDbAlignedDimension
 13
111.8106881822
 23
31.6182068819
 14
100.0106881822
 24
4.6182068819
 50
180.0
100
AcDbRotatedDimension
  0
LINE
  5
233
100
AcDbEntity
  8
DRAFT
100
AcDbLine
 62
7
  6
CONTINUOUS
 10
-118.8042716799
 20
-88.8817931181
 11
-118.8042716799
 21
31.1182068819
  0
LINE
  5
234
100
AcDbEntity
  8
RACCORDO
100
AcDbLine
 62
253
  6
CONTINUOUS
 10
-118.7687415518
 20
31.1182068819
 11
-118.7687415518
 21
-88.8817931181
  0
LINE
  5
235
100
AcDbEntity
  8
RACCORDO
100
AcDbLine
 62
253
  6
CONTINUOUS
 10
-118.2690461383
 20
31.1182068819
 11
-118.2690461383
 21
-88.8817931181
  0
LINE
  5
236
100
AcDbEntity
  8
DRAFT
100
AcDbLine
 62
7
  6
CONTINUOUS
 10
11.2131887048
 20
-98.8992535029
 11
-108.7868112952
 21
-98.8992535029
  0
LINE
  5
237
100
AcDbEntity
  8
RACCORDO
100
AcDbLine
 62
253
  6
CONTINUOUS
 10
-108.7868112952
 20
-98.8637233747
 11
11.2131887048
 21
-98.8637233747
  0
LINE
  5
238
100
AcDbEntity
  8
RACCORDO
100
AcDbLine
 62
253
  6
CONTINUOUS
 10
-108.7868112952
 20
-98.3640279612
 11
11.2131887048
 21
-98.3640279612
  0
LINE
  5
239
100
AcDbEntity
  8
RACCORDO
100
AcDbLine
 62
253
  6
CONTINUOUS
 10
-108.7868112952
 20
40.600441725
 11
-108.7868112952
 21
41.1356672666
  0
LINE
  5
23A
100
AcDbEntity
  8
RACCORDO
100
AcDbLine
 62
253
  6
CONTINUOUS
 10
-108.7868112952
 20
-98.3640279612
 11
-108.7868112952
 21
-98.8992535029
  0
LWPOLYLINE
  5
23B
100
AcDbEntity
  8
0
100
AcDbPolyline
 62
7
  6
CONTINUOUS
 90
3
 70
0
 43
0.3500000006
 10
-52.0010989838
 20
52.0285254822
 10
-51.1439519806
 20
52.8856679535
 10
-51.1439519806
 20
49.885667038
  0
LINE
  5
23C
100
AcDbEntity
  8
RACCORDO
100
AcDbLine
 62
253
  6
CONTINUOUS
 10
20.6954235479
 20
-88.8817931181
 11
21.2306490896
 21
-88.8817931181
  0
LINE
  5
23D
100
AcDbEntity
  8
RACCORDO
100
AcDbLine
 62
253
  6
CONTINUOUS
 10
-118.2690461383
 20
-88.8817931181
 11
-118.8042716799
 21
-88.8817931181
  0
LWPOLYLINE
  5
23E
100
AcDbEntity
  8
0
100
AcDbPolyline
 62
7
  6
CONTINUOUS
 90
2
 70
0
 43
0.3500000006
 10
-49.2868092041
 20
49.885667038
 10
-49.2868092041
 20
51.3856674957
  0
LWPOLYLINE
  5
23F
100
AcDbEntity
  8
0
100
AcDbPolyline
 62
7
  6
CONTINUOUS
 90
13
 70
0
 43
0.3500000006
 10
-47.9296665802
 20
50.7428095093
 10
-47.9296665802
 20
52.0285254822
 10
-47.7153820953
 20
52.4570944519
 10
-47.2868131256
 20
52.8856679535
 10
-47.0725241089
 20
52.8856679535
 10
-46.6439551392
 20
52.4570944519
 10
-46.4296706543
 20
52.0285254822
 10
-46.4296706543
 20
50.7428095093
 10
-46.6439551392
 20
50.3142405396
 10
-47.0725241089
 20
49.885667038
 10
-47.2868131256
 20
49.885667038
 10
-47.7153820953
 20
50.3142405396
 10
-47.9296665802
 20
50.7428095093
  0
LWPOLYLINE
  5
240
100
AcDbEntity
  8
0
100
AcDbPolyline
 62
7
  6
CONTINUOUS
 90
2
 70
0
 43
0.3500000006
 10
28.4806485901
 20
-29.3817929134
 10
26.9806481323
 20
-29.3817929134
  0
LWPOLYLINE
  5
241
100
AcDbEntity
  8
0
100
AcDbPolyline
 62
7
  6
CONTINUOUS
 90
13
 70
0
 43
0.3500000006
 10
27.6235061188
 20
-28.0246502895
 10
26.3377924118
 20
-28.0246502895
 10
25.9092211761
 20
-27.8103646717
 10
25.4806499405
 20
-27.3817928696
 10
25.4806499405
 20
-27.1675072517
 10
25.9092211761
 20
-26.7389360161
 10
26.3377924118
 20
-26.5246503983
 10
27.6235061188
 20
-26.5246503983
 10
28.0520773544
 20
-26.7389360161
 10
28.4806485901
 20
-27.1675072517
 10
28.4806485901
 20
-27.3817928696
 10
28.0520773544
 20
-27.8103646717
 10
27.6235061188
 20
-28.0246502895
  0
LWPOLYLINE
  5
242
100
AcDbEntity
  8
0
100
AcDbPolyline
 62
7
  6
CONTINUOUS
 90
3
 70
0
 43
0.3500000006
 10
26.3377924118
 20
-32.0960787277
 10
25.4806499405
 20
-31.2389362564
 10
28.4806485901
 20
-31.2389362564
  0
LINE
  5
243
100
AcDbEntity
  8
RACCORDO
100
AcDbLine
 62
253
  6
CONTINUOUS
 10
11.2131887048
 20
40.600441725
 11
11.2131887048
 21
41.1356672666
  0
LINE
  5
244
100
AcDbEntity
  8
RACCORDO
100
AcDbLine
 62
253
  6
CONTINUOUS
 10
11.2131887048
 20
-98.3640279612
 11
11.2131887048
 21
-98.8992535029
  0
LINE
  5
245
100
AcDbEntity
  8
RACCORDO
100
AcDbLine
 62
253
  6
CONTINUOUS
 10
20.6954235479
 20
31.1182068819
 11
21.2306490896
 21
31.1182068819
  0
LINE
  5
246
100
AcDbEntity
  8
RACCORDO
100
AcDbLine
 62
253
  6
CONTINUOUS
 10
-118.2690461383
 20
31.1182068819
 11
-118.8042716799
 21
31.1182068819
  0
LINE
  5
247
100
AcDbEntity
  8
RACCORDO
100
AcDbLine
 62
253
  6
CONTINUOUS
 10
20.6954235479
 20
-88.8817931181
 11
20.6954235479
 21
31.1182068819
  0
LINE
  5
248
100
AcDbEntity
  8
RACCORDO
100
AcDbLine
 62
253
  6
CONTINUOUS
 10
21.1951189614
 20
-88.8817931181
 11
21.1951189614
 21
31.1182068819
  0
LINE
  5
249
100
AcDbEntity
  8
DRAFT
100
AcDbLine
 62
7
  6
CONTINUOUS
 10
21.2306490896
 20
31.1182068819
 11
21.2306490896
 21
-88.8817931181
  0
LINE
  5
24A
100
AcDbEntity
  8
RACCORDO
100
AcDbLine
 62
253
  6
CONTINUOUS
 10
11.2131887048
 20
40.600441725
 11
-108.7868112952
 21
40.600441725
  0
LINE
  5
24B
100
AcDbEntity
  8
RACCORDO
100
AcDbLine
 62
253
  6
CONTINUOUS
 10
11.2131887048
 20
41.1001371385
 11
-108.7868112952
 21
41.1001371385
  0
LINE
  5
24C
100
AcDbEntity
  8
DRAFT
100
AcDbLine
 62
7
  6
CONTINUOUS
 10
-108.7868112952
 20
41.1356672666
 11
11.2131887048
 21
41.1356672666
  0
LWPOLYLINE
  5
24D
100
AcDbEntity
  8
0
100
AcDbPolyline
 62
7
  6
CONTINUOUS
 90
3
 70
0
 43
0.3500000006
 10
27.8377928696
 20
-28.8817933273
 10
27.8377928696
 20
-30.3817926521
 10
25.4806499405
 20
-29.7389357986
  0
LWPOLYLINE
  5
24E
100
AcDbEntity
  8
0
100
AcDbPolyline
 62
7
  6
CONTINUOUS
 90
3
 70
0
 43
0.3500000006
 10
-48.7868090515
 20
50.5285250244
 10
-50.2868095093
 20
50.5285250244
 10
-49.6439560547
 20
52.8856679535
  0
LINE
  5
24F
100
AcDbEntity
  8
RACCORDO
100
AcDbLine
 62
7
  6
CONTINUOUS
 10
111.3281379305
 20
-98.8637233747
 11
110.3106881822
 21
-98.8992535029
  0
LWPOLYLINE
  5
250
100
AcDbEntity
  8
0
100
AcDbPolyline
 62
7
  6
CONTINUOUS
 90
3
 70
0
 43
0.3500000006
 10
102.1606855774
 20
52.0285254822
 10
103.0178325806
 20
52.8856679535
 10
103.0178325806
 20
49.885667038
  0
LWPOLYLINE
  5
251
100
AcDbEntity
  8
0
100
AcDbPolyline
 62
7
  6
CONTINUOUS
 90
3
 70
0
 43
0.3500000006
 10
103.87497052
 20
52.0285254822
 10
104.7321175232
 20
52.8856679535
 10
104.7321175232
 20
49.885667038
  0
LINE
  5
252
100
AcDbEntity
  8
RACCORDO
100
AcDbLine
 62
253
  6
CONTINUOUS
 10
110.3106881822
 20
-88.8817931181
 11
111.8106881822
 21
-88.8817931181
  0
LINE
  5
253
100
AcDbEntity
  8
0
100
AcDbLine
 62
7
  6
CONTINUOUS
 10
109.8106881822
 20
-86.8817931181
 11
109.5106881822
 21
-86.8817931181
  0
LINE
  5
254
100
AcDbEntity
  8
0
100
AcDbLine
 62
7
  6
CONTINUOUS
 10
109.8106881822
 20
-80.8817931181
 11
109.5106881822
 21
-80.8817931181
  0
LINE
  5
255
100
AcDbEntity
  8
0
100
AcDbLine
 62
253
  6
CONTINUOUS
 10
110.0106881822
 20
-72.8817931181
 11
110.303581401
 21
-72.8817931181
  0
LINE
  5
256
100
AcDbEntity
  8
0
100
AcDbLine
 62
253
  6
CONTINUOUS
 10
100.0106881822
 20
-62.5817931181
 11
109.8321986693
 21
-62.5817931181
  0
LINE
  5
257
100
AcDbEntity
  8
0
100
AcDbLine
 62
7
  6
CONTINUOUS
 10
107.376713586
 20
-61.3817931181
 11
110.0106881822
 21
-61.3817931181
  0
LINE
  5
258
100
AcDbEntity
  8
0
100
AcDbLine
 62
7
  6
CONTINUOUS
 10
101.226713586
 20
-61.2317931181
 11
101.026713586
 21
-61.2317931181
  0
LINE
  5
259
100
AcDbEntity
  8
0
100
AcDbLine
 62
7
  6
CONTINUOUS
 10
101.526713586
 20
-61.2317931181
 11
101.726713586
 21
-61.2317931181
  0
LINE
  5
25A
100
AcDbEntity
  8
0
100
AcDbLine
 62
7
  6
CONTINUOUS
 10
102.026713586
 20
-61.2317931181
 11
102.226713586
 21
-61.2317931181
  0
LINE
  5
25B
100
AcDbEntity
  8
0
100
AcDbLine
 62
7
  6
CONTINUOUS
 10
102.526713586
 20
-61.2317931181
 11
102.726713586
 21
-61.2317931181
  0
LINE
  5
25C
100
AcDbEntity
  8
0
100
AcDbLine
 62
7
  6
CONTINUOUS
 10
103.026713586
 20
-61.2317931181
 11
103.226713586
 21
-61.2317931181
  0
LINE
  5
25D
100
AcDbEntity
  8
0
100
AcDbLine
 62
7
  6
CONTINUOUS
 10
103.526713586
 20
-61.2317931181
 11
103.726713586
 21
-61.2317931181
  0
LINE
  5
25E
100
AcDbEntity
  8
0
100
AcDbLine
 62
7
  6
CONTINUOUS
 10
104.026713586
 20
-61.2317931181
 11
104.226713586
 21
-61.2317931181
  0
LINE
  5
25F
100
AcDbEntity
  8
0
100
AcDbLine
 62
7
  6
CONTINUOUS
 10
104.526713586
 20
-61.2317931181
 11
104.726713586
 21
-61.2317931181
  0
LINE
  5
260
100
AcDbEntity
  8
0
100
AcDbLine
 62
7
  6
CONTINUOUS
 10
105.026713586
 20
-61.2317931181
 11
105.226713586
 21
-61.2317931181
  0
LINE
  5
261
100
AcDbEntity
  8
0
100
AcDbLine
 62
7
  6
CONTINUOUS
 10
105.526713586
 20
-61.2317931181
 11
105.726713586
 21
-61.2317931181
  0
LINE
  5
262
100
AcDbEntity
  8
0
100
AcDbLine
 62
7
  6
CONTINUOUS
 10
106.026713586
 20
-61.2317931181
 11
106.226713586
 21
-61.2317931181
  0
LINE
  5
263
100
AcDbEntity
  8
0
100
AcDbLine
 62
7
  6
CONTINUOUS
 10
106.526713586
 20
-61.2317931181
 11
106.726713586
 21
-61.2317931181
  0
LINE
  5
264
100
AcDbEntity
  8
0
100
AcDbLine
 62
7
  6
CONTINUOUS
 10
107.026713586
 20
-61.2317931181
 11
107.226713586
 21
-61.2317931181
  0
LINE
  5
265
100
AcDbEntity
  8
0
100
AcDbLine
 62
7
  6
CONTINUOUS
 10
109.5150514499
 20
-63.0647364398
 11
100.0106881822
 21
-62.9817931181
  0
LINE
  5
266
100
AcDbEntity
  8
0
100
AcDbLine
 62
7
  6
CONTINUOUS
 10
109.5150514499
 20
-62.4647364398
 11
100.0106881822
 21
-62.3817931181
  0
LINE
  5
267
100
AcDbEntity
  8
0
100
AcDbLine
 62
7
  6
CONTINUOUS
 10
110.0106881822
 20
-62.469061796
 11
110.0108980846
 21
-62.4690636278
  0
LINE
  5
268
100
AcDbEntity
  8
0
100
AcDbLine
 62
253
  6
CONTINUOUS
 10
110.0115248072
 20
-62.9647284053
 11
110.0106881822
 21
-62.9647174013
  0
LWPOLYLINE
  5
269
100
AcDbEntity
  8
0
100
AcDbPolyline
 62
7
  6
CONTINUOUS
 90
3
 70
0
 43
0.3500000006
 10
106.3035491638
 20
50.1713827057
 10
106.232117981
 20
49.957093689
 10
106.0892556152
 20
49.6713825531
  0
LINE
  5
26A
100
AcDbEntity
  8
0
100
AcDbLine
 62
7
  6
CONTINUOUS
 10
101.376713586
 20
3.6182068819
 11
101.226713586
 21
3.4682068819
  0
LINE
  5
26B
100
AcDbEntity
  8
0
100
AcDbLine
 62
7
  6
CONTINUOUS
 10
101.876713586
 20
3.6182068819
 11
101.726713586
 21
3.4682068819
  0
LINE
  5
26C
100
AcDbEntity
  8
0
100
AcDbLine
 62
7
  6
CONTINUOUS
 10
102.376713586
 20
3.6182068819
 11
102.226713586
 21
3.4682068819
  0
LINE
  5
26D
100
AcDbEntity
  8
0
100
AcDbLine
 62
7
  6
CONTINUOUS
 10
102.876713586
 20
3.6182068819
 11
102.726713586
 21
3.4682068819
  0
LINE
  5
26E
100
AcDbEntity
  8
0
100
AcDbLine
 62
7
  6
CONTINUOUS
 10
103.376713586
 20
3.6182068819
 11
103.226713586
 21
3.4682068819
  0
LINE
  5
26F
100
AcDbEntity
  8
0
100
AcDbLine
 62
7
  6
CONTINUOUS
 10
103.876713586
 20
3.6182068819
 11
103.726713586
 21
3.4682068819
  0
LINE
  5
270
100
AcDbEntity
  8
0
100
AcDbLine
 62
7
  6
CONTINUOUS
 10
104.376713586
 20
3.6182068819
 11
104.226713586
 21
3.4682068819
  0
LINE
  5
271
100
AcDbEntity
  8
0
100
AcDbLine
 62
7
  6
CONTINUOUS
 10
104.876713586
 20
3.6182068819
 11
104.726713586
 21
3.4682068819
  0
LINE
  5
272
100
AcDbEntity
  8
0
100
AcDbLine
 62
7
  6
CONTINUOUS
 10
105.376713586
 20
3.6182068819
 11
105.226713586
 21
3.4682068819
  0
LINE
  5
273
100
AcDbEntity
  8
0
100
AcDbLine
 62
7
  6
CONTINUOUS
 10
105.876713586
 20
3.6182068819
 11
105.726713586
 21
3.4682068819
  0
LINE
  5
274
100
AcDbEntity
  8
0
100
AcDbLine
 62
7
  6
CONTINUOUS
 10
100.0106881822
 20
-4.8817931181
 11
100.876713586
 21
-4.3817931181
  0
LINE
  5
275
100
AcDbEntity
  8
0
100
AcDbLine
 62
253
  6
CONTINUOUS
 10
110.0106881822
 20
-51.7988688349
 11
110.0115248072
 21
-51.7988578308
  0
LINE
  5
276
100
AcDbEntity
  8
0
100
AcDbLine
 62
7
  6
CONTINUOUS
 10
110.0115248072
 20
-52.2945171391
 11
110.0108980846
 21
-52.2945226084
  0
LINE
  5
277
100
AcDbEntity
  8
0
100
AcDbLine
 62
7
  6
CONTINUOUS
 10
100.0106881822
 20
-52.3817931181
 11
109.5150514499
 21
-52.2988497965
  0
LINE
  5
278
100
AcDbEntity
  8
0
100
AcDbLine
 62
7
  6
CONTINUOUS
 10
109.5150514499
 20
-51.6988497965
 11
100.0106881822
 21
-51.7817931181
  0
LINE
  5
279
100
AcDbEntity
  8
0
100
AcDbLine
 62
7
  6
CONTINUOUS
 10
107.226713586
 20
-53.5317931181
 11
107.026713586
 21
-53.5317931181
  0
LINE
  5
27A
100
AcDbEntity
  8
0
100
AcDbLine
 62
7
  6
CONTINUOUS
 10
106.726713586
 20
-53.5317931181
 11
106.526713586
 21
-53.5317931181
  0
LINE
  5
27B
100
AcDbEntity
  8
0
100
AcDbLine
 62
7
  6
CONTINUOUS
 10
106.226713586
 20
-53.5317931181
 11
106.026713586
 21
-53.5317931181
  0
LINE
  5
27C
100
AcDbEntity
  8
0
100
AcDbLine
 62
7
  6
CONTINUOUS
 10
105.726713586
 20
-53.5317931181
 11
105.526713586
 21
-53.5317931181
  0
LINE
  5
27D
100
AcDbEntity
  8
0
100
AcDbLine
 62
7
  6
CONTINUOUS
 10
105.226713586
 20
-53.5317931181
 11
105.026713586
 21
-53.5317931181
  0
LINE
  5
27E
100
AcDbEntity
  8
0
100
AcDbLine
 62
7
  6
CONTINUOUS
 10
104.726713586
 20
-53.5317931181
 11
104.526713586
 21
-53.5317931181
  0
LINE
  5
27F
100
AcDbEntity
  8
0
100
AcDbLine
 62
7
  6
CONTINUOUS
 10
104.226713586
 20
-53.5317931181
 11
104.026713586
 21
-53.5317931181
  0
LINE
  5
280
100
AcDbEntity
  8
0
100
AcDbLine
 62
7
  6
CONTINUOUS
 10
103.726713586
 20
-53.5317931181
 11
103.526713586
 21
-53.5317931181
  0
LINE
  5
281
100
AcDbEntity
  8
0
100
AcDbLine
 62
7
  6
CONTINUOUS
 10
103.226713586
 20
-53.5317931181
 11
103.026713586
 21
-53.5317931181
  0
LINE
  5
282
100
AcDbEntity
  8
0
100
AcDbLine
 62
7
  6
CONTINUOUS
 10
102.726713586
 20
-53.5317931181
 11
102.526713586
 21
-53.5317931181
  0
LINE
  5
283
100
AcDbEntity
  8
0
100
AcDbLine
 62
7
  6
CONTINUOUS
 10
102.226713586
 20
-53.5317931181
 11
102.026713586
 21
-53.5317931181
  0
LINE
  5
284
100
AcDbEntity
  8
0
100
AcDbLine
 62
7
  6
CONTINUOUS
 10
101.726713586
 20
-53.5317931181
 11
101.526713586
 21
-53.5317931181
  0
LINE
  5
285
100
AcDbEntity
  8
0
100
AcDbLine
 62
7
  6
CONTINUOUS
 10
101.026713586
 20
-53.5317931181
 11
101.226713586
 21
-53.5317931181
  0
LINE
  5
286
100
AcDbEntity
  8
0
100
AcDbLine
 62
7
  6
CONTINUOUS
 10
107.376713586
 20
-53.3817931181
 11
110.0115248072
 21
-53.3817931181
  0
LINE
  5
287
100
AcDbEntity
  8
0
100
AcDbLine
 62
253
  6
CONTINUOUS
 10
100.0106881822
 20
-52.1817931181
 11
109.8321986694
 21
-52.181793118
  0
LINE
  5
288
100
AcDbEntity
  8
0
100
AcDbLine
 62
7
  6
CONTINUOUS
 10
100.876713586
 20
-53.3817931181
 11
100.0106881822
 21
-52.8817931181
  0
LINE
  5
289
100
AcDbEntity
  8
0
100
AcDbLine
 62
7
  6
CONTINUOUS
 10
101.226713586
 20
-61.2317931181
 11
101.376713586
 21
-61.3817931181
  0
LINE
  5
28A
100
AcDbEntity
  8
0
100
AcDbLine
 62
7
  6
CONTINUOUS
 10
101.726713586
 20
-61.2317931181
 11
101.876713586
 21
-61.3817931181
  0
LINE
  5
28B
100
AcDbEntity
  8
0
100
AcDbLine
 62
7
  6
CONTINUOUS
 10
102.226713586
 20
-61.2317931181
 11
102.376713586
 21
-61.3817931181
  0
LINE
  5
28C
100
AcDbEntity
  8
0
100
AcDbLine
 62
7
  6
CONTINUOUS
 10
102.726713586
 20
-61.2317931181
 11
102.876713586
 21
-61.3817931181
  0
LINE
  5
28D
100
AcDbEntity
  8
0
100
AcDbLine
 62
7
  6
CONTINUOUS
 10
103.226713586
 20
-61.2317931181
 11
103.376713586
 21
-61.3817931181
  0
LINE
  5
28E
100
AcDbEntity
  8
0
100
AcDbLine
 62
7
  6
CONTINUOUS
 10
103.726713586
 20
-61.2317931181
 11
103.876713586
 21
-61.3817931181
  0
LINE
  5
28F
100
AcDbEntity
  8
0
100
AcDbLine
 62
7
  6
CONTINUOUS
 10
104.226713586
 20
-61.2317931181
 11
104.376713586
 21
-61.3817931181
  0
LINE
  5
290
100
AcDbEntity
  8
0
100
AcDbLine
 62
7
  6
CONTINUOUS
 10
104.726713586
 20
-61.2317931181
 11
104.876713586
 21
-61.3817931181
  0
LINE
  5
291
100
AcDbEntity
  8
0
100
AcDbLine
 62
7
  6
CONTINUOUS
 10
105.226713586
 20
-61.2317931181
 11
105.376713586
 21
-61.3817931181
  0
LINE
  5
292
100
AcDbEntity
  8
0
100
AcDbLine
 62
7
  6
CONTINUOUS
 10
105.726713586
 20
-61.2317931181
 11
105.876713586
 21
-61.3817931181
  0
LINE
  5
293
100
AcDbEntity
  8
0
100
AcDbLine
 62
7
  6
CONTINUOUS
 10
106.376713586
 20
3.6182068819
 11
106.226713586
 21
3.4682068819
  0
LINE
  5
294
100
AcDbEntity
  8
0
100
AcDbLine
 62
7
  6
CONTINUOUS
 10
106.876713586
 20
3.6182068819
 11
106.726713586
 21
3.4682068819
  0
LINE
  5
295
100
AcDbEntity
  8
0
100
AcDbLine
 62
7
  6
CONTINUOUS
 10
107.376713586
 20
3.6182068819
 11
107.226713586
 21
3.4682068819
  0
LINE
  5
296
100
AcDbEntity
  8
0
100
AcDbLine
 62
7
  6
CONTINUOUS
 10
101.026713586
 20
-4.2317931181
 11
100.876713586
 21
-4.3817931181
  0
LINE
  5
297
100
AcDbEntity
  8
0
100
AcDbLine
 62
7
  6
CONTINUOUS
 10
101.376713586
 20
-4.3817931181
 11
101.526713586
 21
-4.2317931181
  0
LINE
  5
298
100
AcDbEntity
  8
0
100
AcDbLine
 62
7
  6
CONTINUOUS
 10
101.876713586
 20
-4.3817931181
 11
102.026713586
 21
-4.2317931181
  0
LINE
  5
299
100
AcDbEntity
  8
0
100
AcDbLine
 62
7
  6
CONTINUOUS
 10
102.376713586
 20
-4.3817931181
 11
102.526713586
 21
-4.2317931181
  0
LINE
  5
29A
100
AcDbEntity
  8
0
100
AcDbLine
 62
7
  6
CONTINUOUS
 10
102.876713586
 20
-4.3817931181
 11
103.026713586
 21
-4.2317931181
  0
LINE
  5
29B
100
AcDbEntity
  8
0
100
AcDbLine
 62
7
  6
CONTINUOUS
 10
103.376713586
 20
-4.3817931181
 11
103.526713586
 21
-4.2317931181
  0
LINE
  5
29C
100
AcDbEntity
  8
0
100
AcDbLine
 62
7
  6
CONTINUOUS
 10
103.876713586
 20
-4.3817931181
 11
104.026713586
 21
-4.2317931181
  0
LINE
  5
29D
100
AcDbEntity
  8
0
100
AcDbLine
 62
7
  6
CONTINUOUS
 10
104.376713586
 20
-4.3817931181
 11
104.526713586
 21
-4.2317931181
  0
LINE
  5
29E
100
AcDbEntity
  8
0
100
AcDbLine
 62
7
  6
CONTINUOUS
 10
106.226713586
 20
-61.2317931181
 11
106.376713586
 21
-61.3817931181
  0
LINE
  5
29F
100
AcDbEntity
  8
0
100
AcDbLine
 62
7
  6
CONTINUOUS
 10
106.726713586
 20
-61.2317931181
 11
106.876713586
 21
-61.3817931181
  0
LINE
  5
2A0
100
AcDbEntity
  8
0
100
AcDbLine
 62
7
  6
CONTINUOUS
 10
107.226713586
 20
-61.2317931181
 11
107.376713586
 21
-61.3817931181
  0
LINE
  5
2A1
100
AcDbEntity
  8
0
100
AcDbLine
 62
7
  6
CONTINUOUS
 10
100.876713586
 20
-53.3817931181
 11
101.026713586
 21
-53.5317931181
  0
LINE
  5
2A2
100
AcDbEntity
  8
0
100
AcDbLine
 62
7
  6
CONTINUOUS
 10
101.526713586
 20
-53.5317931181
 11
101.376713586
 21
-53.3817931181
  0
LINE
  5
2A3
100
AcDbEntity
  8
0
100
AcDbLine
 62
7
  6
CONTINUOUS
 10
102.026713586
 20
-53.5317931181
 11
101.876713586
 21
-53.3817931181
  0
LINE
  5
2A4
100
AcDbEntity
  8
0
100
AcDbLine
 62
7
  6
CONTINUOUS
 10
102.526713586
 20
-53.5317931181
 11
102.376713586
 21
-53.3817931181
  0
LINE
  5
2A5
100
AcDbEntity
  8
0
100
AcDbLine
 62
7
  6
CONTINUOUS
 10
103.026713586
 20
-53.5317931181
 11
102.876713586
 21
-53.3817931181
  0
LINE
  5
2A6
100
AcDbEntity
  8
0
100
AcDbLine
 62
7
  6
CONTINUOUS
 10
103.526713586
 20
-53.5317931181
 11
103.376713586
 21
-53.3817931181
  0
LINE
  5
2A7
100
AcDbEntity
  8
0
100
AcDbLine
 62
7
  6
CONTINUOUS
 10
104.026713586
 20
-53.5317931181
 11
103.876713586
 21
-53.3817931181
  0
LINE
  5
2A8
100
AcDbEntity
  8
0
100
AcDbLine
 62
7
  6
CONTINUOUS
 10
104.526713586
 20
-53.5317931181
 11
104.376713586
 21
-53.3817931181
  0
LINE
  5
2A9
100
AcDbEntity
  8
0
100
AcDbLine
 62
7
  6
CONTINUOUS
 10
104.876713586
 20
-4.3817931181
 11
105.026713586
 21
-4.2317931181
  0
LINE
  5
2AA
100
AcDbEntity
  8
0
100
AcDbLine
 62
7
  6
CONTINUOUS
 10
105.376713586
 20
-4.3817931181
 11
105.526713586
 21
-4.2317931181
  0
LINE
  5
2AB
100
AcDbEntity
  8
0
100
AcDbLine
 62
7
  6
CONTINUOUS
 10
105.876713586
 20
-4.3817931181
 11
106.026713586
 21
-4.2317931181
  0
LINE
  5
2AC
100
AcDbEntity
  8
0
100
AcDbLine
 62
7
  6
CONTINUOUS
 10
106.376713586
 20
-4.3817931181
 11
106.526713586
 21
-4.2317931181
  0
LINE
  5
2AD
100
AcDbEntity
  8
0
100
AcDbLine
 62
7
  6
CONTINUOUS
 10
106.876713586
 20
-4.3817931181
 11
107.026713586
 21
-4.2317931181
  0
LINE
  5
2AE
100
AcDbEntity
  8
0
100
AcDbLine
 62
7
  6
CONTINUOUS
 10
105.026713586
 20
-53.5317931181
 11
104.876713586
 21
-53.3817931181
  0
LINE
  5
2AF
100
AcDbEntity
  8
0
100
AcDbLine
 62
7
  6
CONTINUOUS
 10
105.526713586
 20
-53.5317931181
 11
105.376713586
 21
-53.3817931181
  0
LINE
  5
2B0
100
AcDbEntity
  8
0
100
AcDbLine
 62
7
  6
CONTINUOUS
 10
106.026713586
 20
-53.5317931181
 11
105.876713586
 21
-53.3817931181
  0
LINE
  5
2B1
100
AcDbEntity
  8
0
100
AcDbLine
 62
7
  6
CONTINUOUS
 10
106.526713586
 20
-53.5317931181
 11
106.376713586
 21
-53.3817931181
  0
LINE
  5
2B2
100
AcDbEntity
  8
0
100
AcDbLine
 62
7
  6
CONTINUOUS
 10
107.026713586
 20
-53.5317931181
 11
106.876713586
 21
-53.3817931181
  0
LINE
  5
2B3
100
AcDbEntity
  8
0
100
AcDbLine
 62
7
  6
CONTINUOUS
 10
110.0106881822
 20
-41.5558671181
 11
109.8106881822
 21
-41.5558671181
  0
LINE
  5
2B4
100
AcDbEntity
  8
0
100
AcDbLine
 62
7
  6
CONTINUOUS
 10
110.0106881822
 20
-41.2220371181
 11
109.8106881822
 21
-41.2220371181
  0
LINE
  5
2B5
100
AcDbEntity
  8
0
100
AcDbLine
 62
7
  6
CONTINUOUS
 10
110.0106881822
 20
-40.5045661181
 11
109.8106881822
 21
-40.5045661181
  0
LINE
  5
2B6
100
AcDbEntity
  8
0
100
AcDbLine
 62
7
  6
CONTINUOUS
 10
110.0106881822
 20
-40.1636051181
 11
109.8106881822
 21
-40.1636051181
  0
LINE
  5
2B7
100
AcDbEntity
  8
0
100
AcDbLine
 62
7
  6
CONTINUOUS
 10
110.0106881822
 20
-39.4462721181
 11
109.8106881822
 21
-39.4462721181
  0
LINE
  5
2B8
100
AcDbEntity
  8
0
100
AcDbLine
 62
7
  6
CONTINUOUS
 10
110.0106881822
 20
-39.1123081181
 11
109.8106881822
 21
-39.1123081181
  0
LINE
  5
2B9
100
AcDbEntity
  8
0
100
AcDbLine
 62
7
  6
CONTINUOUS
 10
110.0106881822
 20
-38.9731181181
 11
109.8106881822
 21
-38.9731181181
  0
LINE
  5
2BA
100
AcDbEntity
  8
0
100
AcDbLine
 62
7
  6
CONTINUOUS
 10
110.0106881822
 20
-38.8068651181
 11
109.8106881822
 21
-38.8068651181
  0
LINE
  5
2BB
100
AcDbEntity
  8
0
100
AcDbLine
 62
7
  6
CONTINUOUS
 10
110.0106881822
 20
-38.4517411181
 11
109.8106881822
 21
-38.4517411181
  0
LINE
  5
2BC
100
AcDbEntity
  8
0
100
AcDbLine
 62
7
  6
CONTINUOUS
 10
110.0106881822
 20
-38.1853371181
 11
109.8106881822
 21
-38.1853371181
  0
LINE
  5
2BD
100
AcDbEntity
  8
0
100
AcDbLine
 62
7
  6
CONTINUOUS
 10
100.0106881822
 20
-62.9818016737
 11
100.0106881822
 21
-61.8817931181
  0
LINE
  5
2BE
100
AcDbEntity
  8
0
100
AcDbLine
 62
7
  6
CONTINUOUS
 10
100.0106881822
 20
-52.8817931181
 11
100.0106881822
 21
-51.7817845625
  0
LINE
  5
2BF
100
AcDbEntity
  8
0
100
AcDbLine
 62
7
  6
CONTINUOUS
 10
100.0106881822
 20
-5.9818016737
 11
100.0106881822
 21
-4.8817931181
  0
LINE
  5
2C0
100
AcDbEntity
  8
0
100
AcDbLine
 62
7
  6
CONTINUOUS
 10
100.0106881822
 20
4.1182068819
 11
100.0106881822
 21
5.2182154375
  0
LINE
  5
2C1
100
AcDbEntity
  8
0
100
AcDbLine
 62
7
  6
CONTINUOUS
 10
110.0106881822
 20
-37.1625321181
 11
109.8106881822
 21
-37.1625321181
  0
LINE
  5
2C2
100
AcDbEntity
  8
0
100
AcDbLine
 62
7
  6
CONTINUOUS
 10
110.0106881822
 20
-36.9103991181
 11
109.8106881822
 21
-36.9103991181
  0
LINE
  5
2C3
100
AcDbEntity
  8
0
100
AcDbLine
 62
7
  6
CONTINUOUS
 10
110.0106881822
 20
-36.5338901181
 11
109.8106881822
 21
-36.5338901181
  0
LINE
  5
2C4
100
AcDbEntity
  8
0
100
AcDbLine
 62
7
  6
CONTINUOUS
 10
110.0106881822
 20
-36.3183041181
 11
109.8106881822
 21
-36.3183041181
  0
LINE
  5
2C5
100
AcDbEntity
  8
0
100
AcDbLine
 62
7
  6
CONTINUOUS
 10
110.0106881822
 20
-36.2000701181
 11
109.8106881822
 21
-36.2000701181
  0
LINE
  5
2C6
100
AcDbEntity
  8
0
100
AcDbLine
 62
7
  6
CONTINUOUS
 10
110.0106881822
 20
-35.8817931181
 11
109.8106881822
 21
-35.8817931181
  0
LINE
  5
2C7
100
AcDbEntity
  8
0
100
AcDbLine
 62
7
  6
CONTINUOUS
 10
110.0106881822
 20
-34.7551264179
 11
109.8106881822
 21
-34.7551264179
  0
LINE
  5
2C8
100
AcDbEntity
  8
0
100
AcDbLine
 62
7
  6
CONTINUOUS
 10
110.0106881822
 20
-34.1917931181
 11
109.8106881822
 21
-34.1917931181
  0
LINE
  5
2C9
100
AcDbEntity
  8
0
100
AcDbLine
 62
7
  6
CONTINUOUS
 10
110.0106881822
 20
-33.0651265186
 11
109.8106881822
 21
-33.0651265186
  0
LINE
  5
2CA
100
AcDbEntity
  8
0
100
AcDbLine
 62
7
  6
CONTINUOUS
 10
110.0106881822
 20
-32.5017931181
 11
109.8106881822
 21
-32.5017931181
  0
LINE
  5
2CB
100
AcDbEntity
  8
0
100
AcDbLine
 62
7
  6
CONTINUOUS
 10
110.0106881822
 20
-32.399345658
 11
109.8106881822
 21
-32.399345658
  0
LINE
  5
2CC
100
AcDbEntity
  8
0
100
AcDbLine
 62
7
  6
CONTINUOUS
 10
109.8106881822
 20
-31.8817931181
 11
109.5106881822
 21
-31.8817931181
  0
LWPOLYLINE
  5
2CD
100
AcDbEntity
  8
0
100
AcDbPolyline
 62
7
  6
CONTINUOUS
 90
4
 70
0
 43
0.3500000006
 10
107.303549469
 20
50.3142405396
 10
107.303549469
 20
51.1713830109
 10
107.7321184387
 20
51.5999519806
 10
108.3749718933
 20
51.5999519806
  0
LINE
  5
2CE
100
AcDbEntity
  8
0
100
AcDbLine
 62
7
  6
CONTINUOUS
 10
109.5106881822
 20
-86.8817931181
 11
109.5106881822
 21
-80.8817931181
  0
LINE
  5
2CF
100
AcDbEntity
  8
0
100
AcDbLine
 62
7
  6
CONTINUOUS
 10
109.5106881822
 20
-31.8817931181
 11
109.5106881822
 21
-25.8817931181
  0
LINE
  5
2D0
100
AcDbEntity
  8
0
100
AcDbLine
 62
7
  6
CONTINUOUS
 10
109.5106881822
 20
23.1182068819
 11
109.5106881822
 21
29.1182068819
  0
LINE
  5
2D1
100
AcDbEntity
  8
0
100
AcDbLine
 62
253
  6
CONTINUOUS
 10
109.5150514499
 20
-63.0647364398
 11
109.5150514499
 21
-62.4647364398
  0
LINE
  5
2D2
100
AcDbEntity
  8
0
100
AcDbLine
 62
253
  6
CONTINUOUS
 10
109.5150514499
 20
-52.2988497965
 11
109.5150514499
 21
-51.6988497965
  0
LINE
  5
2D3
100
AcDbEntity
  8
0
100
AcDbLine
 62
253
  6
CONTINUOUS
 10
109.5150514499
 20
-6.0647364398
 11
109.5150514499
 21
-5.4647364398
  0
LINE
  5
2D4
100
AcDbEntity
  8
0
100
AcDbLine
 62
253
  6
CONTINUOUS
 10
109.5150514499
 20
4.7011502035
 11
109.5150514499
 21
5.3011502035
  0
LINE
  5
2D5
100
AcDbEntity
  8
0
100
AcDbLine
 62
253
  6
CONTINUOUS
 10
109.7222456437
 20
-62.5116793892
 11
109.7222456437
 21
-61.3817931181
  0
LINE
  5
2D6
100
AcDbEntity
  8
0
100
AcDbLine
 62
253
  6
CONTINUOUS
 10
109.7222456437
 20
-5.5116793892
 11
109.7222456437
 21
-4.3817931181
  0
LINE
  5
2D7
100
AcDbEntity
  8
0
100
AcDbLine
 62
253
  6
CONTINUOUS
 10
109.7222456437
 20
3.6182068819
 11
109.7222456437
 21
4.7480931529
  0
LINE
  5
2D8
100
AcDbEntity
  8
0
100
AcDbLine
 62
253
  6
CONTINUOUS
 10
109.7222456437
 20
-52.2519068471
 11
109.7222456437
 21
-53.3817931181
  0
LINE
  5
2D9
100
AcDbEntity
  8
0
100
AcDbLine
 62
253
  6
CONTINUOUS
 10
109.8106881822
 20
-86.8817931181
 11
109.8106881822
 21
-80.8817931181
  0
LINE
  5
2DA
100
AcDbEntity
  8
0
100
AcDbLine
 62
7
  6
CONTINUOUS
 10
109.8106881822
 20
-41.5558671181
 11
109.8106881822
 21
-39.1123081181
  0
LINE
  5
2DB
100
AcDbEntity
  8
0
100
AcDbLine
 62
7
  6
CONTINUOUS
 10
109.8106881822
 20
-38.9731181181
 11
109.8106881822
 21
-31.8817931181
  0
LINE
  5
2DC
100
AcDbEntity
  8
0
100
AcDbLine
 62
253
  6
CONTINUOUS
 10
109.8106881822
 20
-31.8817931181
 11
109.8106881822
 21
-25.8817931181
  0
LINE
  5
2DD
100
AcDbEntity
  8
0
100
AcDbLine
 62
7
  6
CONTINUOUS
 10
109.8106881822
 20
-25.8817931181
 11
109.8106881822
 21
-16.2077191181
  0
LINE
  5
2DE
100
AcDbEntity
  8
0
100
AcDbLine
 62
253
  6
CONTINUOUS
 10
109.8106881822
 20
23.1182068819
 11
109.8106881822
 21
29.1182068819
  0
LINE
  5
2DF
100
AcDbEntity
  8
0
100
AcDbLine
 62
7
  6
CONTINUOUS
 10
110.0106881822
 20
-87.4675795558
 11
110.0106881822
 21
-62.9647174013
  0
LINE
  5
2E0
100
AcDbEntity
  8
0
100
AcDbLine
 62
7
  6
CONTINUOUS
 10
110.0106881822
 20
-61.3817931181
 11
110.0106881822
 21
-53.3817931181
  0
LINE
  5
2E1
100
AcDbEntity
  8
0
100
AcDbLine
 62
7
  6
CONTINUOUS
 10
110.0106881822
 20
-51.7988688349
 11
110.0106881822
 21
-5.9647174013
  0
LINE
  5
2E2
100
AcDbEntity
  8
0
100
AcDbLine
 62
7
  6
CONTINUOUS
 10
110.0106881822
 20
-4.3817931181
 11
110.0106881822
 21
3.6182068819
  0
LINE
  5
2E3
100
AcDbEntity
  8
0
100
AcDbLine
 62
7
  6
CONTINUOUS
 10
110.0106881822
 20
5.2011311651
 11
110.0106881822
 21
29.7039933195
  0
LINE
  5
2E4
100
AcDbEntity
  8
0
100
AcDbLine
 62
253
  6
CONTINUOUS
 10
110.0115248072
 20
-62.4690690972
 11
110.0115248072
 21
-61.3817931181
  0
LINE
  5
2E5
100
AcDbEntity
  8
0
100
AcDbLine
 62
253
  6
CONTINUOUS
 10
110.0115248072
 20
-53.3817931181
 11
110.0115248072
 21
-52.2945171391
  0
LINE
  5
2E6
100
AcDbEntity
  8
0
100
AcDbLine
 62
253
  6
CONTINUOUS
 10
110.0115248072
 20
-5.4690690972
 11
110.0115248072
 21
-4.3817931181
  0
LINE
  5
2E7
100
AcDbEntity
  8
0
100
AcDbLine
 62
253
  6
CONTINUOUS
 10
110.0115248072
 20
3.6182068819
 11
110.0115248072
 21
4.7054828609
  0
LINE
  5
2E8
100
AcDbEntity
  8
0
100
AcDbLine
 62
253
  6
CONTINUOUS
 10
110.303581401
 20
-88.1746863369
 11
110.303581401
 21
30.4111001007
  0
LINE
  5
2E9
100
AcDbEntity
  8
DRAFT
100
AcDbLine
 62
7
  6
CONTINUOUS
 10
110.3106881822
 20
-98.8992535029
 11
110.3106881822
 21
41.1356672666
  0
LINE
  5
2EA
100
AcDbEntity
  8
0
100
AcDbLine
 62
7
  6
CONTINUOUS
 10
109.8106881822
 20
-25.8817931181
 11
109.5106881822
 21
-25.8817931181
  0
LINE
  5
2EB
100
AcDbEntity
  8
0
100
AcDbLine
 62
7
  6
CONTINUOUS
 10
110.0106881822
 20
-25.3642371181
 11
109.8106881822
 21
-25.3642371181
  0
LINE
  5
2EC
100
AcDbEntity
  8
0
100
AcDbLine
 62
7
  6
CONTINUOUS
 10
110.0106881822
 20
-24.9909581181
 11
109.8106881822
 21
-24.9909581181
  0
LINE
  5
2ED
100
AcDbEntity
  8
0
100
AcDbLine
 62
7
  6
CONTINUOUS
 10
110.0106881822
 20
-24.8967931181
 11
109.8106881822
 21
-24.8967931181
  0
LINE
  5
2EE
100
AcDbEntity
  8
0
100
AcDbLine
 62
7
  6
CONTINUOUS
 10
110.0106881822
 20
-24.8263767201
 11
109.8106881822
 21
-24.8263767201
  0
LINE
  5
2EF
100
AcDbEntity
  8
0
100
AcDbLine
 62
7
  6
CONTINUOUS
 10
110.0106881822
 20
-24.6855431181
 11
109.8106881822
 21
-24.6855431181
  0
LINE
  5
2F0
100
AcDbEntity
  8
0
100
AcDbLine
 62
7
  6
CONTINUOUS
 10
110.0106881822
 20
-24.4742931181
 11
109.8106881822
 21
-24.4742931181
  0
LINE
  5
2F1
100
AcDbEntity
  8
0
100
AcDbLine
 62
7
  6
CONTINUOUS
 10
110.0106881822
 20
-24.1926267201
 11
109.8106881822
 21
-24.1926267201
  0
LINE
  5
2F2
100
AcDbEntity
  8
0
100
AcDbLine
 62
7
  6
CONTINUOUS
 10
110.0106881822
 20
-23.9109595162
 11
109.8106881822
 21
-23.9109595162
  0
LINE
  5
2F3
100
AcDbEntity
  8
RACCORDO
100
AcDbLine
 62
253
  6
CONTINUOUS
 10
111.3281379305
 20
41.1001371385
 11
111.3281379305
 21
-98.8637233747
  0
LINE
  5
2F4
100
AcDbEntity
  8
RACCORDO
100
AcDbLine
 62
7
  6
CONTINUOUS
 10
111.8106881822
 20
40.600441725
 11
111.8106881822
 21
-98.3640279612
  0
LINE
  5
2F5
100
AcDbEntity
  8
0
100
AcDbLine
 62
7
  6
CONTINUOUS
 10
110.0106881822
 20
-23.3476267201
 11
109.8106881822
 21
-23.3476267201
  0
LINE
  5
2F6
100
AcDbEntity
  8
0
100
AcDbLine
 62
7
  6
CONTINUOUS
 10
110.0106881822
 20
-23.0659595162
 11
109.8106881822
 21
-23.0659595162
  0
LINE
  5
2F7
100
AcDbEntity
  8
0
100
AcDbLine
 62
7
  6
CONTINUOUS
 10
110.0106881822
 20
-22.7842931181
 11
109.8106881822
 21
-22.7842931181
  0
LINE
  5
2F8
100
AcDbEntity
  8
0
100
AcDbLine
 62
7
  6
CONTINUOUS
 10
110.0106881822
 20
-22.5730431181
 11
109.8106881822
 21
-22.5730431181
  0
LINE
  5
2F9
100
AcDbEntity
  8
0
100
AcDbLine
 62
7
  6
CONTINUOUS
 10
110.0106881822
 20
-22.4322095162
 11
109.8106881822
 21
-22.4322095162
  0
LINE
  5
2FA
100
AcDbEntity
  8
0
100
AcDbLine
 62
7
  6
CONTINUOUS
 10
110.0106881822
 20
-22.3617931181
 11
109.8106881822
 21
-22.3617931181
  0
LINE
  5
2FB
100
AcDbEntity
  8
0
100
AcDbLine
 62
7
  6
CONTINUOUS
 10
110.0106881822
 20
-22.1994041181
 11
109.8106881822
 21
-22.1994041181
  0
LINE
  5
2FC
100
AcDbEntity
  8
0
100
AcDbLine
 62
7
  6
CONTINUOUS
 10
110.0106881822
 20
-21.798460322
 11
109.8106881822
 21
-21.798460322
  0
LINE
  5
2FD
100
AcDbEntity
  8
0
100
AcDbLine
 62
7
  6
CONTINUOUS
 10
110.0106881822
 20
-21.375960322
 11
109.8106881822
 21
-21.375960322
  0
LINE
  5
2FE
100
AcDbEntity
  8
0
100
AcDbLine
 62
7
  6
CONTINUOUS
 10
110.0106881822
 20
-20.953460322
 11
109.8106881822
 21
-20.953460322
  0
LINE
  5
2FF
100
AcDbEntity
  8
0
100
AcDbLine
 62
7
  6
CONTINUOUS
 10
110.0106881822
 20
-20.9243421181
 11
109.8106881822
 21
-20.9243421181
  0
LINE
  5
300
100
AcDbEntity
  8
0
100
AcDbLine
 62
7
  6
CONTINUOUS
 10
110.0106881822
 20
-20.5477721181
 11
109.8106881822
 21
-20.5477721181
  0
LINE
  5
301
100
AcDbEntity
  8
0
100
AcDbLine
 62
7
  6
CONTINUOUS
 10
110.0106881822
 20
-20.2318311181
 11
109.8106881822
 21
-20.2318311181
  0
LINE
  5
302
100
AcDbEntity
  8
0
100
AcDbLine
 62
7
  6
CONTINUOUS
 10
101.376713586
 20
-53.3817931181
 11
101.226713586
 21
-53.5317931181
  0
LINE
  5
303
100
AcDbEntity
  8
0
100
AcDbLine
 62
7
  6
CONTINUOUS
 10
101.876713586
 20
-53.3817931181
 11
101.726713586
 21
-53.5317931181
  0
LINE
  5
304
100
AcDbEntity
  8
0
100
AcDbLine
 62
7
  6
CONTINUOUS
 10
110.0106881822
 20
-18.5943871181
 11
109.8106881822
 21
-18.5943871181
  0
LINE
  5
305
100
AcDbEntity
  8
0
100
AcDbLine
 62
7
  6
CONTINUOUS
 10
110.0106881822
 20
-18.4772501181
 11
109.8106881822
 21
-18.4772501181
  0
LINE
  5
306
100
AcDbEntity
  8
0
100
AcDbLine
 62
7
  6
CONTINUOUS
 10
110.0106881822
 20
-17.5147871181
 11
109.8106881822
 21
-17.5147871181
  0
LINE
  5
307
100
AcDbEntity
  8
0
100
AcDbLine
 62
7
  6
CONTINUOUS
 10
110.0106881822
 20
-17.1703881181
 11
109.8106881822
 21
-17.1703881181
  0
LINE
  5
308
100
AcDbEntity
  8
0
100
AcDbLine
 62
7
  6
CONTINUOUS
 10
110.0106881822
 20
-16.2077191181
 11
109.8106881822
 21
-16.2077191181
  0
LINE
  5
309
100
AcDbEntity
  8
0
100
AcDbLine
 62
7
  6
CONTINUOUS
 10
101.226713586
 20
-4.2317931181
 11
101.376713586
 21
-4.3817931181
  0
LINE
  5
30A
100
AcDbEntity
  8
0
100
AcDbLine
 62
7
  6
CONTINUOUS
 10
101.726713586
 20
-4.2317931181
 11
101.876713586
 21
-4.3817931181
  0
LINE
  5
30B
100
AcDbEntity
  8
0
100
AcDbLine
 62
7
  6
CONTINUOUS
 10
102.376713586
 20
-53.3817931181
 11
102.226713586
 21
-53.5317931181
  0
LINE
  5
30C
100
AcDbEntity
  8
0
100
AcDbLine
 62
7
  6
CONTINUOUS
 10
102.876713586
 20
-53.3817931181
 11
102.726713586
 21
-53.5317931181
  0
LINE
  5
30D
100
AcDbEntity
  8
0
100
AcDbLine
 62
7
  6
CONTINUOUS
 10
103.376713586
 20
-53.3817931181
 11
103.226713586
 21
-53.5317931181
  0
LINE
  5
30E
100
AcDbEntity
  8
0
100
AcDbLine
 62
7
  6
CONTINUOUS
 10
103.876713586
 20
-53.3817931181
 11
103.726713586
 21
-53.5317931181
  0
LINE
  5
30F
100
AcDbEntity
  8
0
100
AcDbLine
 62
7
  6
CONTINUOUS
 10
104.376713586
 20
-53.3817931181
 11
104.226713586
 21
-53.5317931181
  0
LINE
  5
310
100
AcDbEntity
  8
0
100
AcDbLine
 62
7
  6
CONTINUOUS
 10
104.876713586
 20
-53.3817931181
 11
104.726713586
 21
-53.5317931181
  0
LINE
  5
311
100
AcDbEntity
  8
0
100
AcDbLine
 62
7
  6
CONTINUOUS
 10
105.376713586
 20
-53.3817931181
 11
105.226713586
 21
-53.5317931181
  0
LINE
  5
312
100
AcDbEntity
  8
0
100
AcDbLine
 62
7
  6
CONTINUOUS
 10
105.876713586
 20
-53.3817931181
 11
105.726713586
 21
-53.5317931181
  0
LINE
  5
313
100
AcDbEntity
  8
0
100
AcDbLine
 62
7
  6
CONTINUOUS
 10
106.376713586
 20
-53.3817931181
 11
106.226713586
 21
-53.5317931181
  0
LINE
  5
314
100
AcDbEntity
  8
0
100
AcDbLine
 62
7
  6
CONTINUOUS
 10
106.876713586
 20
-53.3817931181
 11
106.726713586
 21
-53.5317931181
  0
LINE
  5
315
100
AcDbEntity
  8
0
100
AcDbLine
 62
7
  6
CONTINUOUS
 10
107.376713586
 20
-53.3817931181
 11
107.226713586
 21
-53.5317931181
  0
LINE
  5
316
100
AcDbEntity
  8
0
100
AcDbLine
 62
7
  6
CONTINUOUS
 10
102.226713586
 20
-4.2317931181
 11
102.376713586
 21
-4.3817931181
  0
LINE
  5
317
100
AcDbEntity
  8
0
100
AcDbLine
 62
7
  6
CONTINUOUS
 10
102.726713586
 20
-4.2317931181
 11
102.876713586
 21
-4.3817931181
  0
LINE
  5
318
100
AcDbEntity
  8
0
100
AcDbLine
 62
7
  6
CONTINUOUS
 10
103.226713586
 20
-4.2317931181
 11
103.376713586
 21
-4.3817931181
  0
LINE
  5
319
100
AcDbEntity
  8
0
100
AcDbLine
 62
7
  6
CONTINUOUS
 10
103.726713586
 20
-4.2317931181
 11
103.876713586
 21
-4.3817931181
  0
LINE
  5
31A
100
AcDbEntity
  8
0
100
AcDbLine
 62
7
  6
CONTINUOUS
 10
104.226713586
 20
-4.2317931181
 11
104.376713586
 21
-4.3817931181
  0
LINE
  5
31B
100
AcDbEntity
  8
0
100
AcDbLine
 62
7
  6
CONTINUOUS
 10
104.726713586
 20
-4.2317931181
 11
104.876713586
 21
-4.3817931181
  0
LINE
  5
31C
100
AcDbEntity
  8
0
100
AcDbLine
 62
7
  6
CONTINUOUS
 10
105.226713586
 20
-4.2317931181
 11
105.376713586
 21
-4.3817931181
  0
LINE
  5
31D
100
AcDbEntity
  8
0
100
AcDbLine
 62
7
  6
CONTINUOUS
 10
105.726713586
 20
-4.2317931181
 11
105.876713586
 21
-4.3817931181
  0
LINE
  5
31E
100
AcDbEntity
  8
0
100
AcDbLine
 62
7
  6
CONTINUOUS
 10
106.226713586
 20
-4.2317931181
 11
106.376713586
 21
-4.3817931181
  0
LINE
  5
31F
100
AcDbEntity
  8
0
100
AcDbLine
 62
7
  6
CONTINUOUS
 10
106.726713586
 20
-4.2317931181
 11
106.876713586
 21
-4.3817931181
  0
LINE
  5
320
100
AcDbEntity
  8
0
100
AcDbLine
 62
7
  6
CONTINUOUS
 10
107.226713586
 20
-4.2317931181
 11
107.376713586
 21
-4.3817931181
  0
LINE
  5
321
100
AcDbEntity
  8
0
100
AcDbLine
 62
7
  6
CONTINUOUS
 10
101.026713586
 20
-61.2317931181
 11
100.876713586
 21
-61.3817931181
  0
LINE
  5
322
100
AcDbEntity
  8
0
100
AcDbLine
 62
7
  6
CONTINUOUS
 10
101.376713586
 20
-61.3817931181
 11
101.526713586
 21
-61.2317931181
  0
LINE
  5
323
100
AcDbEntity
  8
0
100
AcDbLine
 62
7
  6
CONTINUOUS
 10
101.876713586
 20
-61.3817931181
 11
102.026713586
 21
-61.2317931181
  0
LINE
  5
324
100
AcDbEntity
  8
0
100
AcDbLine
 62
7
  6
CONTINUOUS
 10
102.376713586
 20
-61.3817931181
 11
102.526713586
 21
-61.2317931181
  0
LINE
  5
325
100
AcDbEntity
  8
0
100
AcDbLine
 62
7
  6
CONTINUOUS
 10
102.876713586
 20
-61.3817931181
 11
103.026713586
 21
-61.2317931181
  0
LINE
  5
326
100
AcDbEntity
  8
0
100
AcDbLine
 62
7
  6
CONTINUOUS
 10
103.376713586
 20
-61.3817931181
 11
103.526713586
 21
-61.2317931181
  0
LINE
  5
327
100
AcDbEntity
  8
0
100
AcDbLine
 62
7
  6
CONTINUOUS
 10
103.876713586
 20
-61.3817931181
 11
104.026713586
 21
-61.2317931181
  0
LINE
  5
328
100
AcDbEntity
  8
0
100
AcDbLine
 62
7
  6
CONTINUOUS
 10
104.376713586
 20
-61.3817931181
 11
104.526713586
 21
-61.2317931181
  0
LINE
  5
329
100
AcDbEntity
  8
0
100
AcDbLine
 62
7
  6
CONTINUOUS
 10
104.876713586
 20
-61.3817931181
 11
105.026713586
 21
-61.2317931181
  0
LINE
  5
32A
100
AcDbEntity
  8
0
100
AcDbLine
 62
7
  6
CONTINUOUS
 10
105.376713586
 20
-61.3817931181
 11
105.526713586
 21
-61.2317931181
  0
LINE
  5
32B
100
AcDbEntity
  8
0
100
AcDbLine
 62
7
  6
CONTINUOUS
 10
105.876713586
 20
-61.3817931181
 11
106.026713586
 21
-61.2317931181
  0
LINE
  5
32C
100
AcDbEntity
  8
0
100
AcDbLine
 62
7
  6
CONTINUOUS
 10
106.376713586
 20
-61.3817931181
 11
106.526713586
 21
-61.2317931181
  0
LINE
  5
32D
100
AcDbEntity
  8
0
100
AcDbLine
 62
7
  6
CONTINUOUS
 10
106.876713586
 20
-61.3817931181
 11
107.026713586
 21
-61.2317931181
  0
LINE
  5
32E
100
AcDbEntity
  8
0
100
AcDbLine
 62
253
  6
CONTINUOUS
 10
100.0106881822
 20
-5.5817931181
 11
109.8321986693
 21
-5.5817931181
  0
LINE
  5
32F
100
AcDbEntity
  8
0
100
AcDbLine
 62
7
  6
CONTINUOUS
 10
109.5150514499
 20
-6.0647364398
 11
100.0106881822
 21
-5.9817931181
  0
LINE
  5
330
100
AcDbEntity
  8
0
100
AcDbLine
 62
7
  6
CONTINUOUS
 10
109.5150514499
 20
-5.4647364398
 11
100.0106881822
 21
-5.3817931181
  0
LINE
  5
331
100
AcDbEntity
  8
0
100
AcDbLine
 62
7
  6
CONTINUOUS
 10
110.0106881822
 20
-5.469061796
 11
110.0108980846
 21
-5.4690636278
  0
LINE
  5
332
100
AcDbEntity
  8
0
100
AcDbLine
 62
253
  6
CONTINUOUS
 10
110.0115248072
 20
-5.9647284053
 11
110.0106881822
 21
-5.9647174013
  0
LINE
  5
333
100
AcDbEntity
  8
0
100
AcDbLine
 62
7
  6
CONTINUOUS
 10
100.876713586
 20
3.6182068819
 11
101.026713586
 21
3.4682068819
  0
LINE
  5
334
100
AcDbEntity
  8
0
100
AcDbLine
 62
7
  6
CONTINUOUS
 10
101.526713586
 20
3.4682068819
 11
101.376713586
 21
3.6182068819
  0
LINE
  5
335
100
AcDbEntity
  8
0
100
AcDbLine
 62
7
  6
CONTINUOUS
 10
102.026713586
 20
3.4682068819
 11
101.876713586
 21
3.6182068819
  0
LINE
  5
336
100
AcDbEntity
  8
0
100
AcDbLine
 62
7
  6
CONTINUOUS
 10
102.526713586
 20
3.4682068819
 11
102.376713586
 21
3.6182068819
  0
LINE
  5
337
100
AcDbEntity
  8
0
100
AcDbLine
 62
7
  6
CONTINUOUS
 10
103.026713586
 20
3.4682068819
 11
102.876713586
 21
3.6182068819
  0
LINE
  5
338
100
AcDbEntity
  8
0
100
AcDbLine
 62
7
  6
CONTINUOUS
 10
103.526713586
 20
3.4682068819
 11
103.376713586
 21
3.6182068819
  0
LINE
  5
339
100
AcDbEntity
  8
0
100
AcDbLine
 62
7
  6
CONTINUOUS
 10
104.026713586
 20
3.4682068819
 11
103.876713586
 21
3.6182068819
  0
LINE
  5
33A
100
AcDbEntity
  8
0
100
AcDbLine
 62
7
  6
CONTINUOUS
 10
104.526713586
 20
3.4682068819
 11
104.376713586
 21
3.6182068819
  0
LINE
  5
33B
100
AcDbEntity
  8
0
100
AcDbLine
 62
7
  6
CONTINUOUS
 10
105.026713586
 20
3.4682068819
 11
104.876713586
 21
3.6182068819
  0
LINE
  5
33C
100
AcDbEntity
  8
0
100
AcDbLine
 62
7
  6
CONTINUOUS
 10
105.526713586
 20
3.4682068819
 11
105.376713586
 21
3.6182068819
  0
LINE
  5
33D
100
AcDbEntity
  8
0
100
AcDbLine
 62
7
  6
CONTINUOUS
 10
106.026713586
 20
3.4682068819
 11
105.876713586
 21
3.6182068819
  0
LINE
  5
33E
100
AcDbEntity
  8
0
100
AcDbLine
 62
7
  6
CONTINUOUS
 10
106.526713586
 20
3.4682068819
 11
106.376713586
 21
3.6182068819
  0
LINE
  5
33F
100
AcDbEntity
  8
0
100
AcDbLine
 62
7
  6
CONTINUOUS
 10
107.026713586
 20
3.4682068819
 11
106.876713586
 21
3.6182068819
  0
LINE
  5
340
100
AcDbEntity
  8
0
100
AcDbLine
 62
7
  6
CONTINUOUS
 10
100.0106881822
 20
-61.8817931181
 11
100.876713586
 21
-61.3817931181
  0
LINE
  5
341
100
AcDbEntity
  8
0
100
AcDbLine
 62
7
  6
CONTINUOUS
 10
107.376713586
 20
-4.3817931181
 11
110.0106881822
 21
-4.3817931181
  0
LINE
  5
342
100
AcDbEntity
  8
0
100
AcDbLine
 62
7
  6
CONTINUOUS
 10
101.226713586
 20
-4.2317931181
 11
101.026713586
 21
-4.2317931181
  0
LINE
  5
343
100
AcDbEntity
  8
0
100
AcDbLine
 62
7
  6
CONTINUOUS
 10
101.526713586
 20
-4.2317931181
 11
101.726713586
 21
-4.2317931181
  0
LINE
  5
344
100
AcDbEntity
  8
0
100
AcDbLine
 62
7
  6
CONTINUOUS
 10
102.026713586
 20
-4.2317931181
 11
102.226713586
 21
-4.2317931181
  0
LINE
  5
345
100
AcDbEntity
  8
0
100
AcDbLine
 62
7
  6
CONTINUOUS
 10
102.526713586
 20
-4.2317931181
 11
102.726713586
 21
-4.2317931181
  0
LINE
  5
346
100
AcDbEntity
  8
0
100
AcDbLine
 62
7
  6
CONTINUOUS
 10
103.026713586
 20
-4.2317931181
 11
103.226713586
 21
-4.2317931181
  0
LINE
  5
347
100
AcDbEntity
  8
0
100
AcDbLine
 62
7
  6
CONTINUOUS
 10
103.526713586
 20
-4.2317931181
 11
103.726713586
 21
-4.2317931181
  0
LINE
  5
348
100
AcDbEntity
  8
0
100
AcDbLine
 62
7
  6
CONTINUOUS
 10
104.026713586
 20
-4.2317931181
 11
104.226713586
 21
-4.2317931181
  0
LINE
  5
349
100
AcDbEntity
  8
0
100
AcDbLine
 62
7
  6
CONTINUOUS
 10
104.526713586
 20
-4.2317931181
 11
104.726713586
 21
-4.2317931181
  0
LINE
  5
34A
100
AcDbEntity
  8
0
100
AcDbLine
 62
7
  6
CONTINUOUS
 10
105.026713586
 20
-4.2317931181
 11
105.226713586
 21
-4.2317931181
  0
LINE
  5
34B
100
AcDbEntity
  8
0
100
AcDbLine
 62
7
  6
CONTINUOUS
 10
105.526713586
 20
-4.2317931181
 11
105.726713586
 21
-4.2317931181
  0
LINE
  5
34C
100
AcDbEntity
  8
0
100
AcDbLine
 62
7
  6
CONTINUOUS
 10
106.026713586
 20
-4.2317931181
 11
106.226713586
 21
-4.2317931181
  0
LINE
  5
34D
100
AcDbEntity
  8
0
100
AcDbLine
 62
7
  6
CONTINUOUS
 10
106.526713586
 20
-4.2317931181
 11
106.726713586
 21
-4.2317931181
  0
LINE
  5
34E
100
AcDbEntity
  8
0
100
AcDbLine
 62
7
  6
CONTINUOUS
 10
107.026713586
 20
-4.2317931181
 11
107.226713586
 21
-4.2317931181
  0
LINE
  5
34F
100
AcDbEntity
  8
0
100
AcDbLine
 62
7
  6
CONTINUOUS
 10
100.876713586
 20
3.6182068819
 11
100.0106881822
 21
4.1182068819
  0
LINE
  5
350
100
AcDbEntity
  8
0
100
AcDbLine
 62
7
  6
CONTINUOUS
 10
107.226713586
 20
3.4682068819
 11
107.026713586
 21
3.4682068819
  0
LINE
  5
351
100
AcDbEntity
  8
0
100
AcDbLine
 62
7
  6
CONTINUOUS
 10
106.726713586
 20
3.4682068819
 11
106.526713586
 21
3.4682068819
  0
LINE
  5
352
100
AcDbEntity
  8
0
100
AcDbLine
 62
7
  6
CONTINUOUS
 10
106.226713586
 20
3.4682068819
 11
106.026713586
 21
3.4682068819
  0
LINE
  5
353
100
AcDbEntity
  8
0
100
AcDbLine
 62
7
  6
CONTINUOUS
 10
105.726713586
 20
3.4682068819
 11
105.526713586
 21
3.4682068819
  0
LINE
  5
354
100
AcDbEntity
  8
0
100
AcDbLine
 62
7
  6
CONTINUOUS
 10
105.226713586
 20
3.4682068819
 11
105.026713586
 21
3.4682068819
  0
LINE
  5
355
100
AcDbEntity
  8
0
100
AcDbLine
 62
7
  6
CONTINUOUS
 10
104.726713586
 20
3.4682068819
 11
104.526713586
 21
3.4682068819
  0
LINE
  5
356
100
AcDbEntity
  8
0
100
AcDbLine
 62
7
  6
CONTINUOUS
 10
104.226713586
 20
3.4682068819
 11
104.026713586
 21
3.4682068819
  0
LINE
  5
357
100
AcDbEntity
  8
0
100
AcDbLine
 62
7
  6
CONTINUOUS
 10
103.726713586
 20
3.4682068819
 11
103.526713586
 21
3.4682068819
  0
LINE
  5
358
100
AcDbEntity
  8
0
100
AcDbLine
 62
7
  6
CONTINUOUS
 10
103.226713586
 20
3.4682068819
 11
103.026713586
 21
3.4682068819
  0
LINE
  5
359
100
AcDbEntity
  8
0
100
AcDbLine
 62
7
  6
CONTINUOUS
 10
102.726713586
 20
3.4682068819
 11
102.526713586
 21
3.4682068819
  0
LINE
  5
35A
100
AcDbEntity
  8
0
100
AcDbLine
 62
7
  6
CONTINUOUS
 10
102.226713586
 20
3.4682068819
 11
102.026713586
 21
3.4682068819
  0
LINE
  5
35B
100
AcDbEntity
  8
0
100
AcDbLine
 62
7
  6
CONTINUOUS
 10
101.726713586
 20
3.4682068819
 11
101.526713586
 21
3.4682068819
  0
LINE
  5
35C
100
AcDbEntity
  8
0
100
AcDbLine
 62
7
  6
CONTINUOUS
 10
101.026713586
 20
3.4682068819
 11
101.226713586
 21
3.4682068819
  0
LINE
  5
35D
100
AcDbEntity
  8
0
100
AcDbLine
 62
7
  6
CONTINUOUS
 10
107.376713586
 20
3.6182068819
 11
110.0115248072
 21
3.6182068819
  0
LINE
  5
35E
100
AcDbEntity
  8
0
100
AcDbLine
 62
253
  6
CONTINUOUS
 10
110.0106881822
 20
5.2011311651
 11
110.0115248072
 21
5.2011421692
  0
LINE
  5
35F
100
AcDbEntity
  8
0
100
AcDbLine
 62
7
  6
CONTINUOUS
 10
110.0115248072
 20
4.7054828609
 11
110.0108980846
 21
4.7054773916
  0
LINE
  5
360
100
AcDbEntity
  8
0
100
AcDbLine
 62
7
  6
CONTINUOUS
 10
100.0106881822
 20
4.6182068819
 11
109.5150514499
 21
4.7011502035
  0
LINE
  5
361
100
AcDbEntity
  8
0
100
AcDbLine
 62
7
  6
CONTINUOUS
 10
109.5150514499
 20
5.3011502035
 11
100.0106881822
 21
5.2182068819
  0
LINE
  5
362
100
AcDbEntity
  8
0
100
AcDbLine
 62
253
  6
CONTINUOUS
 10
100.0106881822
 20
4.8182068819
 11
109.8321986694
 21
4.818206882
  0
LWPOLYLINE
  5
363
100
AcDbEntity
  8
0
100
AcDbPolyline
 62
7
  6
CONTINUOUS
 90
10
 70
0
 43
0.3500000006
 10
106.232117981
 20
50.3856671906
 10
106.3035491638
 20
50.2428093567
 10
106.3035491638
 20
50.1713827057
 10
106.1606867981
 20
50.0285248718
 10
106.0892556152
 20
50.0285248718
 10
106.0178334961
 20
50.0999515228
 10
106.0178334961
 20
50.1713827057
 10
106.0892556152
 20
50.3142405396
 10
106.1606867981
 20
50.3856671906
 10
106.232117981
 20
50.3856671906
  0
LINE
  5
364
100
AcDbEntity
  8
0
100
AcDbLine
 62
253
  6
CONTINUOUS
 10
110.0106881822
 20
15.1182068819
 11
110.303581401
 21
15.1182068819
  0
LINE
  5
365
100
AcDbEntity
  8
0
100
AcDbLine
 62
7
  6
CONTINUOUS
 10
109.8106881822
 20
23.1182068819
 11
109.5106881822
 21
23.1182068819
  0
LINE
  5
366
100
AcDbEntity
  8
0
100
AcDbLine
 62
7
  6
CONTINUOUS
 10
109.8106881822
 20
29.1182068819
 11
109.5106881822
 21
29.1182068819
  0
LINE
  5
367
100
AcDbEntity
  8
RACCORDO
100
AcDbLine
 62
253
  6
CONTINUOUS
 10
111.8106881822
 20
31.1182068819
 11
110.3106881822
 21
31.1182068819
  0
LINE
  5
368
100
AcDbEntity
  8
RACCORDO
100
AcDbLine
 62
7
  6
CONTINUOUS
 10
111.3281379305
 20
41.1001371385
 11
110.3106881822
 21
41.1356672666
  0
LINE
  5
369
100
AcDbEntity
  8
DRAFT
100
AcDbLine
 62
7
  6
CONTINUOUS
 10
110.3106881822
 20
41.1356672666
 11
111.3281379305
 21
41.1001371385
  0
LWPOLYLINE
  5
36A
100
AcDbEntity
  8
0
100
AcDbPolyline
 62
7
  6
CONTINUOUS
 90
13
 70
0
 43
0.3500000006
 10
107.7321184387
 20
51.5999519806
 10
107.446402771
 20
51.8142364655
 10
107.446402771
 20
52.4570944519
 10
107.7321184387
 20
52.8856679535
 10
108.3749718933
 20
52.8856679535
 10
108.660687561
 20
52.4570944519
 10
108.660687561
 20
51.8142364655
 10
108.3749718933
 20
51.5999519806
 10
108.803540863
 20
51.1713830109
 10
108.803540863
 20
50.3142405396
 10
108.3749718933
 20
49.885667038
 10
107.7321184387
 20
49.885667038
 10
107.303549469
 20
50.3142405396
  0
ARC
  5
36B
100
AcDbEntity
  8
DRAFT
100
AcDbCircle
 62
7
  6
CONTINUOUS
 10
-108.7868112952
 20
-88.8817931181
 40
10.0174603847
100
AcDbArc
 50
180.0
 51
270.0
  0
ARC
  5
36C
100
AcDbEntity
  8
DRAFT
100
AcDbCircle
 62
7
  6
CONTINUOUS
 10
11.2131887048
 20
-88.8817931181
 40
10.0174603847
100
AcDbArc
 50
270.0
 51
360.0
  0
ARC
  5
36D
100
AcDbEntity
  8
DRAFT
100
AcDbCircle
 62
7
  6
CONTINUOUS
 10
11.2131887048
 20
31.1182068819
 40
10.0174603847
100
AcDbArc
 50
0.0
 51
90.0
  0
ARC
  5
36E
100
AcDbEntity
  8
DRAFT
100
AcDbCircle
 62
7
  6
CONTINUOUS
 10
-108.7868112952
 20
31.1182068819
 40
10.0174603847
100
AcDbArc
 50
90.0
 51
180.0
  0
ARC
  5
36F
100
AcDbEntity
  8
RACCORDO
100
AcDbCircle
 62
253
  6
CONTINUOUS
 10
11.2131887048
 20
31.1182068819
 40
9.9819302566
100
AcDbArc
 50
0.0
 51
90.0
  0
ARC
  5
370
100
AcDbEntity
  8
RACCORDO
100
AcDbCircle
 62
253
  6
CONTINUOUS
 10
-108.7868112952
 20
31.1182068819
 40
9.9819302566
100
AcDbArc
 50
90.0
 51
180.0
  0
ARC
  5
371
100
AcDbEntity
  8
RACCORDO
100
AcDbCircle
 62
253
  6
CONTINUOUS
 10
-108.7868112952
 20
-88.8817931181
 40
9.9819302566
100
AcDbArc
 50
180.0
 51
270.0
  0
ARC
  5
372
100
AcDbEntity
  8
RACCORDO
100
AcDbCircle
 62
253
  6
CONTINUOUS
 10
11.2131887048
 20
-88.8817931181
 40
9.9819302566
100
AcDbArc
 50
270.0
 51
360.0
  0
ARC
  5
373
100
AcDbEntity
  8
RACCORDO
100
AcDbCircle
 62
253
  6
CONTINUOUS
 10
11.2131887048
 20
-88.8817931181
 40
9.4822348431
100
AcDbArc
 50
270.0
 51
360.0
  0
ARC
  5
374
100
AcDbEntity
  8
RACCORDO
100
AcDbCircle
 62
253
  6
CONTINUOUS
 10
-108.7868112952
 20
-88.8817931181
 40
9.4822348431
100
AcDbArc
 50
180.0
 51
270.0
  0
ARC
  5
375
100
AcDbEntity
  8
RACCORDO
100
AcDbCircle
 62
253
  6
CONTINUOUS
 10
-108.7868112952
 20
31.1182068819
 40
9.4822348431
100
AcDbArc
 50
90.0
 51
180.0
  0
ARC
  5
376
100
AcDbEntity
  8
RACCORDO
100
AcDbCircle
 62
253
  6
CONTINUOUS
 10
11.2131887048
 20
31.1182068819
 40
9.4822348431
100
AcDbArc
 50
0.0
 51
90.0
  0
ARC
  5
377
100
AcDbEntity
  8
0
100
AcDbCircle
 62
7
  6
CONTINUOUS
 10
111.0106881822
 20
29.7039933195
 40
1.0
100
AcDbArc
 50
135.0
 51
180.0
  0
ARC
  5
378
100
AcDbEntity
  8
0
100
AcDbCircle
 62
7
  6
CONTINUOUS
 10
111.0106881822
 20
-87.4675795558
 40
1.0
100
AcDbArc
 50
180.0
 51
225.0
  0
ARC
  5
379
100
AcDbEntity
  8
0
100
AcDbCircle
 62
7
  6
CONTINUOUS
 10
109.3623041794
 20
-5.9826962771
 40
0.6494692202
100
AcDbArc
 50
1.5853169917
 51
6.9310069792
  0
ARC
  5
37A
100
AcDbEntity
  8
0
100
AcDbCircle
 62
7
  6
CONTINUOUS
 10
109.3623041794
 20
-62.9826962771
 40
0.6494692202
100
AcDbArc
 50
1.5853169917
 51
6.9310069792
  0
ARC
  5
37B
100
AcDbEntity
  8
0
100
AcDbCircle
 62
7
  6
CONTINUOUS
 10
109.3623061572
 20
5.2191098935
 40
0.6494672391
100
AcDbArc
 50
353.0689848682
 51
358.4146911957
  0
ARC
  5
37C
100
AcDbEntity
  8
0
100
AcDbCircle
 62
7
  6
CONTINUOUS
 10
109.3623061572
 20
-51.7808901065
 40
0.6494672391
100
AcDbArc
 50
353.0689848682
 51
358.4146911957
  0
ARC
  5
37D
100
AcDbEntity
  8
0
100
AcDbCircle
 62
7
  6
CONTINUOUS
 10
109.5106881822
 20
-6.5647174013
 40
0.5
100
AcDbArc
 50
0.0
 51
89.5
  0
ARC
  5
37E
100
AcDbEntity
  8
0
100
AcDbCircle
 62
7
  6
CONTINUOUS
 10
109.5106881822
 20
5.8011311651
 40
0.5
100
AcDbArc
 50
270.5
 51
360.0
  0
ARC
  5
37F
100
AcDbEntity
  8
0
100
AcDbCircle
 62
7
  6
CONTINUOUS
 10
109.5106881822
 20
-51.1988688349
 40
0.5
100
AcDbArc
 50
270.5
 51
360.0
  0
ARC
  5
380
100
AcDbEntity
  8
0
100
AcDbCircle
 62
7
  6
CONTINUOUS
 10
109.5106881822
 20
-63.5647174013
 40
0.5
100
AcDbArc
 50
0.0
 51
89.5
  0
ARC
  5
381
100
AcDbEntity
  8
RACCORDO
100
AcDbCircle
 62
7
  6
CONTINUOUS
 10
111.3106881822
 20
40.600441725
 40
0.5
100
AcDbArc
 50
0.0
 51
88.0
  0
ARC
  5
382
100
AcDbEntity
  8
RACCORDO
100
AcDbCircle
 62
7
  6
CONTINUOUS
 10
111.3106881822
 20
-98.3640279612
 40
0.5
100
AcDbArc
 50
272.0
 51
360.0
  0
ARC
  5
383
100
AcDbEntity
  8
0
100
AcDbCircle
 62
7
  6
CONTINUOUS
 10
109.5106881822
 20
-5.9647174013
 40
0.5
100
AcDbArc
 50
6.9377235332
 51
89.5
  0
ARC
  5
384
100
AcDbEntity
  8
0
100
AcDbCircle
 62
7
  6
CONTINUOUS
 10
109.5106881822
 20
5.2011311651
 40
0.5
100
AcDbArc
 50
270.5
 51
353.0622764664
  0
ARC
  5
385
100
AcDbEntity
  8
0
100
AcDbCircle
 62
7
  6
CONTINUOUS
 10
109.5106881822
 20
-51.7988688349
 40
0.5
100
AcDbArc
 50
270.5
 51
353.0622764664
  0
ARC
  5
386
100
AcDbEntity
  8
0
100
AcDbCircle
 62
7
  6
CONTINUOUS
 10
109.5106881822
 20
-62.9647174013
 40
0.5
100
AcDbArc
 50
6.9377235332
 51
89.5
  0
ARC
  5
387
100
AcDbEntity
  8
0
100
AcDbCircle
 62
7
  6
CONTINUOUS
 10
109.8106881822
 20
22.9182068819
 40
0.2
100
AcDbArc
 50
0.0
 51
90.0
  0
ARC
  5
388
100
AcDbEntity
  8
0
100
AcDbCircle
 62
7
  6
CONTINUOUS
 10
109.8106881822
 20
29.3182068819
 40
0.2
100
AcDbArc
 50
270.0
 51
360.0
  0
ARC
  5
389
100
AcDbEntity
  8
0
100
AcDbCircle
 62
7
  6
CONTINUOUS
 10
109.8106881822
 20
-32.0817931181
 40
0.2
100
AcDbArc
 50
0.0
 51
90.0
  0
ARC
  5
38A
100
AcDbEntity
  8
0
100
AcDbCircle
 62
7
  6
CONTINUOUS
 10
109.8106881822
 20
-25.6817931181
 40
0.2
100
AcDbArc
 50
270.0
 51
360.0
  0
ARC
  5
38B
100
AcDbEntity
  8
0
100
AcDbCircle
 62
7
  6
CONTINUOUS
 10
109.8106881822
 20
-87.0817931181
 40
0.2
100
AcDbArc
 50
0.0
 51
90.0
  0
ARC
  5
38C
100
AcDbEntity
  8
0
100
AcDbCircle
 62
7
  6
CONTINUOUS
 10
109.8106881822
 20
-80.6817931181
 40
0.2
100
AcDbArc
 50
270.0
 51
360.0
  0
LINE
  5
38D
100
AcDbEntity
  8
0
100
AcDbLine
 62
253
  6
CONTINUOUS
 10
110.0115248072
 20
-62.9647284053
 11
110.0115234812
 21
-62.8543615185
  0
LINE
  5
38E
100
AcDbEntity
  8
0
100
AcDbLine
 62
253
  6
CONTINUOUS
 10
110.0115234812
 20
-62.8543615185
 11
110.0115228125
 21
-62.8264928967
  0
SPLINE
  5
38F
100
AcDbEntity
  8
0
100
AcDbSpline
 62
253
  6
CONTINUOUS
 70
0
 71
3
 72
10
 73
6
 74
4
 42
0.0000001
 43
0.0000001
 44
0.0000000001
 12
0.0000042501
 22
0.357435709
 32
0.0
 13
-0.0
 23
0.357435709
 33
0.0
 40
0.0
 40
0.0
 40
0.0
 40
0.0
 40
0.5139879634
 40
0.7715952345
 40
1.0
 40
1.0
 40
1.0
 40
1.0
 10
110.0115228125
 20
-62.8264928967
 30
0.0
 10
110.0115235407
 20
-62.7652536793
 30
0.0
 10
110.0111847679
 20
-62.6733232604
 30
0.0
 10
110.0120171347
 20
-62.5541741912
 30
0.0
 10
110.0106881822
 20
-62.4962751358
 30
0.0
 10
110.0106881822
 20
-62.469061796
 30
0.0
 11
110.0115228125
 21
-62.8264928967
 31
0.0
 11
110.0115075201
 21
-62.6427752452
 31
0.0
 11
110.0115544248
 21
-62.5506972196
 31
0.0
 11
110.0106881822
 21
-62.469061796
 31
0.0
  0
LINE
  5
390
100
AcDbEntity
  8
0
100
AcDbLine
 62
253
  6
CONTINUOUS
 10
110.0115248072
 20
-51.7988578308
 11
110.0115234814
 21
-51.9092246699
  0
LINE
  5
391
100
AcDbEntity
  8
0
100
AcDbLine
 62
253
  6
CONTINUOUS
 10
110.0115234814
 20
-51.9092246699
 11
110.0115228128
 21
-51.9370927078
  0
SPLINE
  5
392
100
AcDbEntity
  8
0
100
AcDbSpline
 62
253
  6
CONTINUOUS
 70
0
 71
3
 72
10
 73
6
 74
4
 42
0.0000001
 43
0.0000001
 44
0.0000000001
 12
0.0000042498
 22
-0.3574363401
 32
0.0
 13
0.0
 23
-0.3574363401
 33
0.0
 40
0.0
 40
0.0
 40
0.0
 40
0.0
 40
0.5139867033
 40
0.7715926477
 40
1.0
 40
1.0
 40
1.0
 40
1.0
 10
110.0115228128
 20
-51.9370927078
 30
0.0
 10
110.0115235409
 20
-51.9983318832
 30
0.0
 10
110.0111848507
 20
-52.0902621564
 30
0.0
 10
110.0120170314
 20
-52.2094114355
 30
0.0
 10
110.0106881822
 20
-52.2673107442
 30
0.0
 10
110.0106881822
 20
-52.2945244402
 30
0.0
 11
110.0115228128
 21
-51.9370927078
 31
0.0
 11
110.0115075294
 21
-52.1208102333
 31
0.0
 11
110.0115543745
 21
-52.2128879473
 31
0.0
 11
110.0106881822
 21
-52.2945244402
 31
0.0
  0
LINE
  5
393
100
AcDbEntity
  8
0
100
AcDbLine
 62
253
  6
CONTINUOUS
 10
110.0115248072
 20
-5.9647284053
 11
110.0115234812
 21
-5.8543615185
  0
LINE
  5
394
100
AcDbEntity
  8
0
100
AcDbLine
 62
253
  6
CONTINUOUS
 10
110.0115234812
 20
-5.8543615185
 11
110.0115228125
 21
-5.8264928967
  0
SPLINE
  5
395
100
AcDbEntity
  8
0
100
AcDbSpline
 62
253
  6
CONTINUOUS
 70
0
 71
3
 72
10
 73
6
 74
4
 42
0.0000001
 43
0.0000001
 44
0.0000000001
 12
0.0000042501
 22
0.357435709
 32
0.0
 13
0.0
 23
0.357435709
 33
0.0
 40
0.0
 40
0.0
 40
0.0
 40
0.0
 40
0.5139879634
 40
0.7715952345
 40
1.0
 40
1.0
 40
1.0
 40
1.0
 10
110.0115228125
 20
-5.8264928967
 30
0.0
 10
110.0115235407
 20
-5.7652536793
 30
0.0
 10
110.0111847679
 20
-5.6733232604
 30
0.0
 10
110.0120171347
 20
-5.5541741912
 30
0.0
 10
110.0106881822
 20
-5.4962751358
 30
0.0
 10
110.0106881822
 20
-5.469061796
 30
0.0
 11
110.0115228125
 21
-5.8264928967
 31
0.0
 11
110.0115075201
 21
-5.6427752452
 31
0.0
 11
110.0115544248
 21
-5.5506972196
 31
0.0
 11
110.0106881822
 21
-5.469061796
 31
0.0
  0
LINE
  5
396
100
AcDbEntity
  8
0
100
AcDbLine
 62
253
  6
CONTINUOUS
 10
110.0115248072
 20
5.2011421692
 11
110.0115234814
 21
5.0907753301
  0
LINE
  5
397
100
AcDbEntity
  8
0
100
AcDbLine
 62
253
  6
CONTINUOUS
 10
110.0115234814
 20
5.0907753301
 11
110.0115228128
 21
5.0629072922
  0
SPLINE
  5
398
100
AcDbEntity
  8
0
100
AcDbSpline
 62
253
  6
CONTINUOUS
 70
0
 71
3
 72
10
 73
6
 74
4
 42
0.0000001
 43
0.0000001
 44
0.0000000001
 12
0.0000042498
 22
-0.3574363401
 32
0.0
 13
0.0
 23
-0.3574363401
 33
0.0
 40
0.0
 40
0.0
 40
0.0
 40
0.0
 40
0.5139867033
 40
0.7715926477
 40
1.0
 40
1.0
 40
1.0
 40
1.0
 10
110.0115228128
 20
5.0629072922
 30
0.0
 10
110.0115235409
 20
5.0016681168
 30
0.0
 10
110.0111848507
 20
4.9097378436
 30
0.0
 10
110.0120170314
 20
4.7905885645
 30
0.0
 10
110.0106881822
 20
4.7326892558
 30
0.0
 10
110.0106881822
 20
4.7054755598
 30
0.0
 11
110.0115228128
 21
5.0629072922
 31
0.0
 11
110.0115075294
 21
4.8791897667
 31
0.0
 11
110.0115543745
 21
4.7871120527
 31
0.0
 11
110.0106881822
 21
4.7054755598
 31
0.0
  0
ENDSEC
  0
SECTION
  2
OBJECTS
  0
DICTIONARY
  5
C
100
AcDbDictionary
280
0
281
1
  3
ACAD_GROUP
350
D
  3
ACAD_MLINESTYLE
350
17
  3
ACAD_LAYOUT
350
1A
  3
ACAD_PLOTSETTINGS
350
19
  3
ACAD_PLOTSTYLENAME
350
E
  0
DICTIONARY
  5
D
102
{ACAD_REACTORS
330
C
102
}
100
AcDbDictionary
280
0
281
1
  0
ACDBDICTIONARYWDFLT
  5
E
102
{ACAD_REACTORS
330
C
102
}
100
AcDbDictionary
281
1
  3
Normal
350
F
100
AcDbDictionaryWithDefault
340
F
  0
DICTIONARY
  5
17
102
{ACAD_REACTORS
330
C
102
}
100
AcDbDictionary
280
0
281
1
  3
Standard
350
18
  0
DICTIONARY
  5
19
102
{ACAD_REACTORS
330
C
102
}
100
AcDbDictionary
281
1
  0
DICTIONARY
  5
1A
102
{ACAD_REACTORS
330
C
102
}
100
AcDbDictionary
281
1
  3
Model
350
399
  3
Layout1
350
39A
  0
ACDBPLACEHOLDER
  5
F
102
{ACAD_REACTORS
330
E
102
}
  0
MLINESTYLE
  5
18
102
{ACAD_REACTORS
330
17
102
}
100
AcDbMlineStyle
  2
STANDARD
 70
0
  3

 62
256
 51
90.0
 52
90.0
 71
2
 49
0.5
 62
256
  6
BYLAYER
 49
-0.5
 62
256
  6
BYLAYER
  0
LAYOUT
  5
399
102
{ACAD_REACTORS
330
1A
102
}
100
AcDbPlotSettings
  1

  2
none_device
  4
ISO_A4_(297.00_x_210.00_MM)
  6

 40
0.0
 41
0.0
 42
0.0
 43
0.0
 44
297.0
 45
210.0
 46
0.0
 47
0.0
 48
0.0
 49
0.0
140
0.0
141
0.0
142
1.0
143
1.0
 70
1024
 72
1
 73
0
 74
0
  7

 75
0
147
1.0
148
0.0
149
0.0
100
AcDbLayout
  1
Model
 70
0
 71
0
 10
0.0
 20
0.0
 11
297.0
 21
210.0
 12
0.0
 22
0.0
 32
0.0
 14
0.0
 24
0.0
 34
0.0
 15
0.0
 25
0.0
 35
0.0
146
0.0
 13
0.0
 23
0.0
 33
0.0
 16
1.0
 26
0.0
 36
0.0
 17
0.0
 27
1.0
 37
0.0
 76
0
330
20A
345
0
346
0
  0
LAYOUT
  5
39A
102
{ACAD_REACTORS
330
1A
102
}
100
AcDbPlotSettings
  1

  2
none_device
  4
ISO_A4_(297.00_x_210.00_MM)
  6

 40
0.0
 41
0.0
 42
0.0
 43
0.0
 44
297.0
 45
210.0
 46
0.0
 47
0.0
 48
0.0
 49
0.0
140
0.0
141
0.0
142
1.0
143
1.0
 70
0
 72
1
 73
0
 74
0
  7

 75
0
147
1.0
148
0.0
149
0.0
100
AcDbLayout
  1
Layout1
 70
0
 71
1
 10
0.0
 20
0.0
 11
297.0
 21
210.0
 12
0.0
 22
0.0
 32
0.0
 14
0.0
 24
0.0
 34
0.0
 15
0.0
 25
0.0
 35
0.0
146
0.0
 13
0.0
 23
0.0
 33
0.0
 16
1.0
 26
0.0
 36
0.0
 17
0.0
 27
1.0
 37
0.0
 76
0
330
20B
345
0
346
0
  0
ENDSEC
  0
EOF
