  0
SECTION
  2
HEADER
  9
$ACADVER
  1
AC1021
  9
$DWGCODEPAGE
  3
ANSI_1252
  9
$EXTMAX
 10
558.8
 20
431.8
 30
0.0
  9
$EXTMIN
 10
0.0
 20
0.0
 30
0.0
  9
$LIMMIN
 10
0.0
 20
0.0
  9
$LIMMAX
 10
558.8
 20
431.8
  9
$VIEWCTR
 10
279.4
 20
215.9
  9
$VIEWSIZE
 40
431.8
  9
$CLAYER
  8
0
  9
$LTSCALE
 40
30.734
  9
$CELTYPE
  6
BYLAYER
  9
$DIMSCALE
 40
1.0
  9
$DIMASZ
 40
3.0
  9
$DIMEXO
 40
0.5
  9
$DIMDLI
 40
21.2344
  9
$DIMEXE
 40
1.5
  9
$DIMCEN
 40
5.0292
  9
$DIMLFAC
 40
1.0
  9
$DIMBLK
  1
_FILLED
  9
$DIMALT
 70
0
  9
$DIMALTF
 40
25.4
  9
$DIMTXT
 40
3.0
  9
$DIMTOL
 70
1
  9
$DIMLIM
 70
0
  9
$DIMTFAC
 40
1.0
  9
$DIMTP
 40
0.01
  9
$DIMTM
 40
0.01
  9
$DIMGAP
 40
0.625
  9
$DIMDSEP
 70
44
  9
$AUNITS
 70
0
  9
$PDMODE
 70
3
  9
$PDSIZE
 40
3.0
  9
$HANDSEED
  5
326
  9
$TILEMODE
 70
1
  9
$MEASUREMENT
 70
1
  9
$INSUNITS
 70
4
  0
ENDSEC
  0
SECTION
  2
CLASSES
  0
CLASS
  1
ACDBDICTIONARYWDFLT
  2
AcDbDictionaryWithDefault
  3
AutoCAD 2000
 90
0
 91
1
280
0
281
0
  0
CLASS
  1
ACDBPLACEHOLDER
  2
AcDbPlaceHolder
  3
AutoCAD 2000
 90
0
 91
1
280
0
281
0
  0
CLASS
  1
LAYOUT
  2
AcDbLayout
  3
AutoCAD 2000
 90
0
 91
0
280
0
281
0
  0
ENDSEC
  0
SECTION
  2
TABLES
  0
TABLE
  2
VPORT
  5
8
100
AcDbSymbolTable
 70
2
  0
VPORT
  5
1F4
100
AcDbSymbolTableRecord
100
AcDbViewportTableRecord
  2
*ACTIVE
 70
0
 10
0.0
 20
0.0
 11
1.0
 21
1.0
 12
279.4
 22
215.9
 13
0.0
 23
0.0
 14
1.0
 24
1.0
 15
0.0
 25
0.0
 16
0.0
 26
0.0
 36
1.0
 17
0.0
 27
0.0
 37
0.0
 40
431.8
 41
1.2941176471
 42
50.0
 43
0.0
 44
0.0
 50
0.0
 51
0.0
 71
0
 72
100
 73
1
 74
1
 75
0
 76
0
 77
0
 78
0
  0
ENDTAB
  0
TABLE
  2
LTYPE
  5
5
100
AcDbSymbolTable
 70
6
  0
LTYPE
  5
14
100
AcDbSymbolTableRecord
100
AcDbLinetypeTableRecord
  2
BYBLOCK
 70
0
  3

 72
65
 73
0
 40
0.0
  0
LTYPE
  5
15
100
AcDbSymbolTableRecord
100
AcDbLinetypeTableRecord
  2
BYLAYER
 70
0
  3

 72
65
 73
0
 40
0.0
  0
LTYPE
  5
16
100
AcDbSymbolTableRecord
100
AcDbLinetypeTableRecord
  2
CONTINUOUS
 70
64
  3
Solid line
 72
65
 73
0
 40
0.0
  0
LTYPE
  5
1F5
100
AcDbSymbolTableRecord
100
AcDbLinetypeTableRecord
  2
CENTER
 70
64
  3
____ _ ____ _ ____ _ ____ _ ____ _ ____ _ ____
 72
65
 73
4
 40
0.6
 49
0.375
 74
0
 49
-0.075
 74
0
 49
0.075
 74
0
 49
-0.075
 74
0
  0
LTYPE
  5
1F6
100
AcDbSymbolTableRecord
100
AcDbLinetypeTableRecord
  2
HIDDEN
 70
64
  3
- - - - - - - - - - - - - - - - - - - -
 72
65
 73
2
 40
0.2
 49
0.1
 74
0
 49
-0.1
 74
0
  0
LTYPE
  5
1F7
100
AcDbSymbolTableRecord
100
AcDbLinetypeTableRecord
  2
PHANTOM
 70
64
  3
_____ _ _ _____ _ _ _____ _ _ _____
 72
65
 73
6
 40
0.8
 49
0.45
 74
0
 49
-0.05
 74
0
 49
0.1
 74
0
 49
-0.05
 74
0
 49
0.1
 74
0
 49
-0.05
 74
0
  0
LTYPE
  5
1F8
100
AcDbSymbolTableRecord
100
AcDbLinetypeTableRecord
  2
DOT
 70
64
  3
. . . . . . . . . . . . . . . . . . . .
 72
65
 73
2
 40
0.2
 49
0.1
 74
0
 49
-0.1
 74
0
  0
LTYPE
  5
1F9
100
AcDbSymbolTableRecord
100
AcDbLinetypeTableRecord
  2
DASHED
 70
64
  3
- - - - - - - - - - - - - - - - - - - -
 72
65
 73
2
 40
0.2
 49
0.1
 74
0
 49
-0.1
 74
0
  0
ENDTAB
  0
TABLE
  2
LAYER
  5
2
100
AcDbSymbolTable
 70
36
  0
LAYER
  5
10
100
AcDbSymbolTableRecord
100
AcDbLayerTableRecord
  2
0
 70
0
 62
7
  6
CONTINUOUS
370
-3
390
F
  0
LAYER
  5
1FA
100
AcDbSymbolTableRecord
100
AcDbLayerTableRecord
  2
DEFAULT_1
 70
0
 62
7
  6
CENTER
370
-3
390
F
  0
LAYER
  5
1FB
100
AcDbSymbolTableRecord
100
AcDbLayerTableRecord
  2
DEFAULT_2
 70
0
 62
7
  6
HIDDEN
370
-3
390
F
  0
LAYER
  5
1FC
100
AcDbSymbolTableRecord
100
AcDbLayerTableRecord
  2
DEFAULT_3
 70
0
 62
7
  6
PHANTOM
370
-3
390
F
  0
LAYER
  5
1FD
100
AcDbSymbolTableRecord
100
AcDbLayerTableRecord
  2
ASSI
 70
0
 62
7
  6
CONTINUOUS
370
-3
390
F
  0
LAYER
  5
1FE
100
AcDbSymbolTableRecord
100
AcDbLayerTableRecord
  2
COORDINATE
 70
0
 62
7
  6
CONTINUOUS
370
-3
390
F
  0
LAYER
  5
1FF
100
AcDbSymbolTableRecord
100
AcDbLayerTableRecord
  2
COORD_ORIGINE
 70
0
 62
7
  6
CONTINUOUS
370
-3
390
F
  0
LAYER
  5
200
100
AcDbSymbolTableRecord
100
AcDbLayerTableRecord
  2
COPY_PUBLISH
 70
0
 62
7
  6
CONTINUOUS
370
-3
390
F
  0
LAYER
  5
201
100
AcDbSymbolTableRecord
100
AcDbLayerTableRecord
  2
COSMETICHE
 70
0
 62
7
  6
CONTINUOUS
370
-3
390
F
  0
LAYER
  5
202
100
AcDbSymbolTableRecord
100
AcDbLayerTableRecord
  2
COSMETICI
 70
0
 62
7
  6
CONTINUOUS
370
-3
390
F
  0
LAYER
  5
203
100
AcDbSymbolTableRecord
100
AcDbLayerTableRecord
  2
CURVE
 70
0
 62
7
  6
CONTINUOUS
370
-3
390
F
  0
LAYER
  5
204
100
AcDbSymbolTableRecord
100
AcDbLayerTableRecord
  2
DRAFT
 70
0
 62
7
  6
CONTINUOUS
370
-3
390
F
  0
LAYER
  5
205
100
AcDbSymbolTableRecord
100
AcDbLayerTableRecord
  2
IMPORT_IGES
 70
0
 62
7
  6
CONTINUOUS
370
-3
390
F
  0
LAYER
  5
206
100
AcDbSymbolTableRecord
100
AcDbLayerTableRecord
  2
INTF_1
 70
0
 62
7
  6
CONTINUOUS
370
-3
390
F
  0
LAYER
  5
207
100
AcDbSymbolTableRecord
100
AcDbLayerTableRecord
  2
INTF_11
 70
0
 62
7
  6
CONTINUOUS
370
-3
390
F
  0
LAYER
  5
208
100
AcDbSymbolTableRecord
100
AcDbLayerTableRecord
  2
NOTE
 70
0
 62
7
  6
CONTINUOUS
370
-3
390
F
  0
LAYER
  5
209
100
AcDbSymbolTableRecord
100
AcDbLayerTableRecord
  2
PIANI
 70
0
 62
7
  6
CONTINUOUS
370
-3
390
F
  0
LAYER
  5
20A
100
AcDbSymbolTableRecord
100
AcDbLayerTableRecord
  2
PIANI_ORIGINE
 70
0
 62
7
  6
CONTINUOUS
370
-3
390
F
  0
LAYER
  5
20B
100
AcDbSymbolTableRecord
100
AcDbLayerTableRecord
  2
PUNTI
 70
0
 62
7
  6
CONTINUOUS
370
-3
390
F
  0
LAYER
  5
20C
100
AcDbSymbolTableRecord
100
AcDbLayerTableRecord
  2
RACCORDO
 70
0
 62
7
  6
CONTINUOUS
370
-3
390
F
  0
LAYER
  5
20D
100
AcDbSymbolTableRecord
100
AcDbLayerTableRecord
  2
RGB____0____0____0__
 70
0
 62
7
  6
CONTINUOUS
370
-3
390
F
  0
LAYER
  5
20E
100
AcDbSymbolTableRecord
100
AcDbLayerTableRecord
  2
SIMBOLI
 70
0
 62
7
  6
CONTINUOUS
370
-3
390
F
  0
LAYER
  5
20F
100
AcDbSymbolTableRecord
100
AcDbLayerTableRecord
  2
SMUSSO
 70
0
 62
7
  6
CONTINUOUS
370
-3
390
F
  0
LAYER
  5
210
100
AcDbSymbolTableRecord
100
AcDbLayerTableRecord
  2
SUPERFICI
 70
0
 62
7
  6
CONTINUOUS
370
-3
390
F
  0
LAYER
  5
211
100
AcDbSymbolTableRecord
100
AcDbLayerTableRecord
  2
TRASH
 70
0
 62
7
  6
CONTINUOUS
370
-3
390
F
  0
ENDTAB
  0
TABLE
  2
STYLE
  5
3
100
AcDbSymbolTable
 70
1
  0
STYLE
  5
11
100
AcDbSymbolTableRecord
100
AcDbTextStyleTableRecord
  2
STANDARD
 70
0
 40
0.0
 41
0.8
 50
0.0
 71
0
 42
0.2
  3
txt
  4

  0
STYLE
  5
212
100
AcDbSymbolTableRecord
100
AcDbTextStyleTableRecord
  2
TEXTSTYLE_1
 70
0
 40
0.0
 41
0.8
 50
0.0
 71
0
 42
0.2
  3
gdt
  4

  0
ENDTAB
  0
TABLE
  2
VIEW
  5
6
100
AcDbSymbolTable
 70
0
  0
ENDTAB
  0
TABLE
  2
UCS
  5
7
100
AcDbSymbolTable
 70
0
  0
ENDTAB
  0
TABLE
  2
APPID
  5
9
100
AcDbSymbolTable
 70
1
  0
APPID
  5
213
100
AcDbSymbolTableRecord
100
AcDbRegAppTableRecord
  2
ACAD
 70
0
  0
ENDTAB
  0
TABLE
  2
BLOCK_RECORD
  5
1
100
AcDbSymbolTable
 70
0
  0
BLOCK_RECORD
  5
214
100
AcDbSymbolTableRecord
100
AcDbBlockTableRecord
  2
*Model_Space
  0
BLOCK_RECORD
  5
215
100
AcDbSymbolTableRecord
100
AcDbBlockTableRecord
  2
*Paper_Space
  0
BLOCK_RECORD
  5
216
100
AcDbSymbolTableRecord
100
AcDbBlockTableRecord
  2
_FILLED
  0
BLOCK_RECORD
  5
217
100
AcDbSymbolTableRecord
100
AcDbBlockTableRecord
  2
*D0
  0
BLOCK_RECORD
  5
218
100
AcDbSymbolTableRecord
100
AcDbBlockTableRecord
  2
*D1
  0
ENDTAB
  0
TABLE
  2
DIMSTYLE
  5
A
100
AcDbSymbolTable
 70
1
100
AcDbDimStyleTable
 71
0
  0
DIMSTYLE
105
219
100
AcDbSymbolTableRecord
100
AcDbDimStyleTableRecord
  2
STANDARD
 70
0
  3

  4

 40
1.0
 41
3.0
 42
0.5
 43
0.38
 44
1.5
 45
0.0
 46
0.0
 47
0.01
 48
0.01
140
3.0
141
0.09
142
0.0
143
25.4
144
1.0
145
0.0
146
1.0
147
0.625
 71
1.0
 72
0.0
 73
0
 74
0
 75
0
 76
0
 77
1
 78
8
 79
2
170
0
171
1
172
0
173
0
174
0
175
0
176
0
177
0
178
0
270
2
179
2
271
2
272
2
273
2
274
2
275
0
280
0
281
0
282
0
283
1
284
8
285
0
286
0
287
3
288
0
340
11
278
44
341
216
342
216
343
216
344
216
  0
DIMSTYLE
105
21A
100
AcDbSymbolTableRecord
100
AcDbDimStyleTableRecord
  2
DIMSTYLE_1
 70
0
  3

  4

 40
1.0
 41
3.0
 42
0.5
 43
0.38
 44
1.5
 45
0.0
 46
0.0
 47
0.0
 48
0.0
140
3.0
141
0.09
142
0.0
143
25.4
144
1.0
145
0.0
146
1.0
147
0.75
 71
0.0
 72
0.0
 73
0
 74
0
 75
0
 76
0
 77
1
 78
8
 79
2
170
0
171
1
172
0
173
0
174
0
175
0
176
0
177
0
178
0
270
2
179
2
271
1
272
1
273
2
274
2
275
0
280
0
281
0
282
0
283
1
284
8
285
0
286
0
287
3
288
0
340
11
278
44
341
216
342
216
343
216
344
216
  0
DIMSTYLE
105
21B
100
AcDbSymbolTableRecord
100
AcDbDimStyleTableRecord
  2
DIMSTYLE_2
 70
0
  3

  4

 40
1.0
 41
3.0
 42
0.5
 43
0.38
 44
1.5
 45
0.0
 46
0.0
 47
0.0
 48
0.0
140
3.0
141
0.09
142
0.0
143
25.4
144
1.0
145
0.0
146
1.0
147
0.75
 71
0.0
 72
0.0
 73
0
 74
0
 75
0
 76
0
 77
1
 78
8
 79
2
170
0
171
1
172
0
173
0
174
0
175
0
176
0
177
0
178
0
270
2
179
2
271
2
272
2
273
2
274
2
275
0
280
0
281
0
282
0
283
1
284
8
285
0
286
0
287
3
288
0
340
11
278
44
341
216
342
216
343
216
344
216
  0
ENDTAB
  0
ENDSEC
  0
SECTION
  2
BLOCKS
  0
BLOCK
  5
20
100
AcDbEntity
  8
0
100
AcDbBlockBegin
  2
*Model_Space
 70
0
 10
0.0
 20
0.0
 30
0.0
  3
*Model_Space
  1

  0
ENDBLK
  5
21
100
AcDbEntity
  8
0
100
AcDbBlockEnd
  0
BLOCK
  5
1C
100
AcDbEntity
  8
0
100
AcDbBlockBegin
  2
*Paper_Space
 70
0
 10
0.0
 20
0.0
 30
0.0
  3
*Paper_Space
  1

  0
ENDBLK
  5
1D
100
AcDbEntity
  8
0
100
AcDbBlockEnd
  0
BLOCK
  5
21C
100
AcDbEntity
  8
0
100
AcDbBlockBegin
  2
_FILLED
 70
64
 10
0.0
 20
0.0
  3
_FILLED
  1

  0
SOLID
  5
21D
100
AcDbEntity
  8
0
  6
BYBLOCK
 62
0
100
AcDbTrace
 10
0.0
 20
0.0
 11
-1.0
 21
0.3166666667
 12
-1.0
 22
-0.3166666667
 13
-1.0
 23
-0.3166666667
  0
ENDBLK
  5
21E
100
AcDbEntity
  8
0
  6
BYBLOCK
 62
0
100
AcDbBlockEnd
  0
BLOCK
  5
21F
100
AcDbEntity
  8
0
100
AcDbBlockBegin
 62
7
  6
CONTINUOUS
  2
*D0
 70
65
 10
0.0
 20
0.0
  3
*D0
  1

  0
LINE
  5
220
100
AcDbEntity
  8
0
100
AcDbLine
 62
7
  6
CONTINUOUS
 10
-44.9773341103
 20
0.5
 11
-44.9773341103
 21
60.1520506297
  0
LINE
  5
221
100
AcDbEntity
  8
0
100
AcDbLine
 62
7
  6
CONTINUOUS
 10
44.9773341103
 20
0.5
 11
44.9773341103
 21
60.1520506297
  0
LINE
  5
222
100
AcDbEntity
  8
0
100
AcDbLine
 62
7
  6
CONTINUOUS
 10
-44.9773341103
 20
58.6520506297
 11
-0.0
 21
58.6520506297
  0
LINE
  5
223
100
AcDbEntity
  8
0
100
AcDbLine
 62
7
  6
CONTINUOUS
 10
44.9773341103
 20
58.6520506297
 11
-0.0
 21
58.6520506297
  0
INSERT
  5
224
100
AcDbEntity
  8
0
100
AcDbBlockReference
 62
7
  6
CONTINUOUS
  2
_FILLED
 10
-44.9773341103
 20
58.6520506297
 41
3.0
 42
3.0
 43
3.0
 50
180.0
  0
INSERT
  5
225
100
AcDbEntity
  8
0
100
AcDbBlockReference
 62
7
  6
CONTINUOUS
  2
_FILLED
 10
44.9773341103
 20
58.6520506297
 41
3.0
 42
3.0
 43
3.0
  0
ENDBLK
  5
226
100
AcDbEntity
  8
0
  6
BYBLOCK
 62
0
100
AcDbBlockEnd
  0
BLOCK
  5
227
100
AcDbEntity
  8
0
100
AcDbBlockBegin
 62
7
  6
CONTINUOUS
  2
*D1
 70
65
 10
0.0
 20
0.0
  3
*D1
  1

  0
LINE
  5
228
100
AcDbEntity
  8
0
100
AcDbLine
 62
7
  6
CONTINUOUS
 10
-84.3195083551
 20
45.5
 11
-84.3195083551
 21
61.2169162021
  0
LINE
  5
229
100
AcDbEntity
  8
0
100
AcDbLine
 62
7
  6
CONTINUOUS
 10
-87.8195083551
 20
0.5
 11
-87.8195083551
 21
61.2169162021
  0
LINE
  5
22A
100
AcDbEntity
  8
0
100
AcDbLine
 62
7
  6
CONTINUOUS
 10
-84.3195083551
 20
59.7169162021
 11
-70.3745678218
 21
59.7169162021
  0
LINE
  5
22B
100
AcDbEntity
  8
0
100
AcDbLine
 62
7
  6
CONTINUOUS
 10
-70.3745678218
 20
59.7169162021
 11
-86.0695083551
 21
59.7169162021
  0
LINE
  5
22C
100
AcDbEntity
  8
0
100
AcDbLine
 62
7
  6
CONTINUOUS
 10
-87.8195083551
 20
59.7169162021
 11
-91.8195083551
 21
59.7169162021
  0
LINE
  5
22D
100
AcDbEntity
  8
0
100
AcDbLine
 62
7
  6
CONTINUOUS
 10
-91.8195083551
 20
59.7169162021
 11
-86.0695083551
 21
59.7169162021
  0
INSERT
  5
22E
100
AcDbEntity
  8
0
100
AcDbBlockReference
 62
7
  6
CONTINUOUS
  2
_FILLED
 10
-84.3195083551
 20
59.7169162021
 41
3.0
 42
3.0
 43
3.0
 50
180.0
  0
INSERT
  5
22F
100
AcDbEntity
  8
0
100
AcDbBlockReference
 62
7
  6
CONTINUOUS
  2
_FILLED
 10
-87.8195083551
 20
59.7169162021
 41
3.0
 42
3.0
 43
3.0
  0
ENDBLK
  5
230
100
AcDbEntity
  8
0
  6
BYBLOCK
 62
0
100
AcDbBlockEnd
  0
ENDSEC
  0
SECTION
  2
ENTITIES
  0
DIMENSION
  5
231
100
AcDbEntity
  8
0
100
AcDbDimension
 62
7
  6
CONTINUOUS
  2
*D0
 10
44.9773341103
 20
58.6520506297
 11
-2.3571428571
 21
58.6520506297
 70
160
 71
2
 72
2
 41
0.9
 42
89.9546682205
  3
DIMSTYLE_1
100
AcDbAlignedDimension
 13
-44.9773341103
 23
-0.0
 14
44.9773341103
 24
0.0
100
AcDbRotatedDimension
  0
DIMENSION
  5
232
100
AcDbEntity
  8
0
100
AcDbDimension
 62
7
  6
CONTINUOUS
  2
*D1
 10
-87.8195083551
 20
59.7169162021
 11
-76.3745678218
 21
59.7169162021
 70
160
 71
1
 72
2
 41
0.9
 42
3.5
  3
DIMSTYLE_2
100
AcDbAlignedDimension
 13
-84.3195083551
 23
45.0
 14
-87.8195083551
 24
0.0
 50
180.0
100
AcDbRotatedDimension
  0
LWPOLYLINE
  5
233
100
AcDbEntity
  8
0
100
AcDbPolyline
 62
7
  6
CONTINUOUS
 90
5
 70
0
 43
0.3500000087
 10
-75.5174253845
 20
62.1812022034
 10
-75.1602797424
 20
62.3954844727
 10
-75.1602797424
 20
63.0383483337
 10
-75.5174253845
 20
63.4669128723
 10
-76.3745715149
 20
63.4669128723
  0
LINE
  5
234
100
AcDbEntity
  8
DRAFT
100
AcDbLine
 62
7
  6
CONTINUOUS
 10
-84.3195083551
 20
-45.0
 11
-84.9685745143
 21
-44.9773341103
  0
LINE
  5
235
100
AcDbEntity
  8
0
100
AcDbLine
 62
7
  6
CONTINUOUS
 10
-82.9195083551
 20
-29.5651666667
 11
-84.3195083551
 21
-29.5651666667
  0
LINE
  5
236
100
AcDbEntity
  8
0
100
AcDbLine
 62
7
  6
CONTINUOUS
 10
-77.0195083551
 20
26.7048210003
 11
-65.6581221194
 21
30.2860148011
  0
LWPOLYLINE
  5
237
100
AcDbEntity
  8
0
100
AcDbPolyline
 62
7
  6
CONTINUOUS
 90
28
 70
0
 10
-73.5207472531
 20
-25.3402910927
 10
-73.4330792266
 20
-25.3371816503
 10
-73.3470704034
 20
-25.3284689094
 10
-73.2627207838
 20
-25.3141528699
 10
-73.1796405504
 20
-25.2941184795
 10
-73.0982195205
 20
-25.2684807906
 10
-73.0196271456
 20
-25.2375849597
 10
-72.943728768
 20
-25.2012573361
 10
-72.8706590454
 20
-25.1596715705
 10
-72.8019914026
 20
-25.1136937716
 10
-72.7379430737
 20
-25.0633289017
 10
-72.6782968246
 20
-25.0085719984
 10
-72.6239743775
 20
-24.9502742826
 10
-72.5750027178
 20
-24.8883444422
 10
-72.5313548601
 20
-24.8228737893
 10
-72.4938715696
 20
-24.7549874814
 10
-72.4626590019
 20
-24.6845574674
 10
-72.4376110014
 20
-24.6117117984
 10
-72.4192498669
 20
-24.5379597854
 10
-72.4077317792
 20
-24.4633959676
 10
-72.4029005574
 20
-24.3879258059
 10
-72.4048099574
 20
-24.3127749941
 10
-72.4135435918
 20
-24.2379277387
 10
-72.4290178479
 20
-24.1633998331
 10
-72.4510356443
 20
-24.0904643522
 10
-72.479531287
 20
-24.019545654
 10
-72.5145704698
 20
-23.9502193804
 10
-72.5561531928
 20
-23.8824855314
  0
LINE
  5
238
100
AcDbEntity
  8
RACCORDO
100
AcDbLine
 62
250
  6
CONTINUOUS
 10
-84.3195083551
 20
-26.1994152381
 11
-78.8213185325
 21
-26.1439819898
  0
LINE
  5
239
100
AcDbEntity
  8
RACCORDO
100
AcDbLine
 62
7
  6
CONTINUOUS
 10
-84.3195083551
 20
-26.2143670632
 11
-78.7624388087
 21
-26.1585064919
  0
LINE
  5
23A
100
AcDbEntity
  8
DRAFT
100
AcDbLine
 62
7
  6
CONTINUOUS
 10
-77.0195083551
 20
-26.8198149423
 11
-82.9195083551
 21
-26.8713034623
  0
LINE
  5
23B
100
AcDbEntity
  8
DRAFT
100
AcDbLine
 62
7
  6
CONTINUOUS
 10
-84.3195083551
 20
-24.618130768
 11
-80.5195083551
 21
-24.5849686704
  0
LINE
  5
23C
100
AcDbEntity
  8
DRAFT
100
AcDbLine
 62
7
  6
CONTINUOUS
 10
-80.3272573798
 20
-25.7736631161
 11
-84.3195083551
 21
-25.7941229575
  0
LINE
  5
23D
100
AcDbEntity
  8
DRAFT
100
AcDbLine
 62
7
  6
CONTINUOUS
 10
-84.3195083551
 20
-25.6845173232
 11
-80.5195083551
 21
-25.6650906241
  0
LINE
  5
23E
100
AcDbEntity
  8
0
100
AcDbLine
 62
7
  6
CONTINUOUS
 10
-80.5195083551
 20
-25.4784421617
 11
-79.5195083551
 21
-25.4784421617
  0
LINE
  5
23F
100
AcDbEntity
  8
0
100
AcDbLine
 62
7
  6
CONTINUOUS
 10
-77.5195083551
 20
-24.8434554176
 11
-79.3195083551
 21
-24.8434554176
  0
LINE
  5
240
100
AcDbEntity
  8
0
100
AcDbLine
 62
250
  6
CONTINUOUS
 10
-77.5195083551
 20
-24.7764681195
 11
-79.3195083551
 21
-24.7764681195
  0
LINE
  5
241
100
AcDbEntity
  8
0
100
AcDbLine
 62
7
  6
CONTINUOUS
 10
-77.5195083551
 20
-24.6441035418
 11
-79.3195083551
 21
-24.6441035418
  0
LINE
  5
242
100
AcDbEntity
  8
0
100
AcDbLine
 62
250
  6
CONTINUOUS
 10
-77.5195083551
 20
-24.6014923731
 11
-79.3195083551
 21
-24.6014923731
  0
LINE
  5
243
100
AcDbEntity
  8
DRAFT
100
AcDbLine
 62
7
  6
CONTINUOUS
 10
-69.3607978078
 20
-25.1168048251
 11
-69.0195083551
 21
-25.119783213
  0
LWPOLYLINE
  5
244
100
AcDbEntity
  8
0
100
AcDbPolyline
 62
7
  6
CONTINUOUS
 90
10
 70
0
 10
-79.2195083551
 20
-26.087637432
 10
-79.247702907
 20
-26.0868216696
 10
-79.2758837112
 20
-26.0857782834
 10
-79.3040375121
 20
-26.0845075051
 10
-79.3321510143
 20
-26.0830097637
 10
-79.3602110499
 20
-26.081285525
 10
-79.3882045836
 20
-26.0793352858
 10
-79.4161185043
 20
-26.0771597899
 10
-79.4439396322
 20
-26.0747600338
 10
-79.4716548856
 20
-26.0721371017
  0
LWPOLYLINE
  5
245
100
AcDbEntity
  8
0
100
AcDbPolyline
 62
7
  6
CONTINUOUS
 90
10
 70
0
 10
-79.2195083551
 20
-25.587637432
 10
-79.1554376172
 20
-25.591892162
 10
-79.0916875776
 20
-25.5979057714
 10
-79.0282582364
 20
-25.6056782601
 10
-78.9650850429
 20
-25.6152212355
 10
-78.9022325478
 20
-25.6265230903
 10
-78.8398944026
 20
-25.6395490029
 10
-78.7781351579
 20
-25.6542873662
 10
-78.7168902632
 20
-25.6707497873
 10
-78.6561597184
 20
-25.6889362663
  0
LINE
  5
246
100
AcDbEntity
  8
0
100
AcDbLine
 62
7
  6
CONTINUOUS
 10
-79.277696016
 20
-25.5816322707
 11
-79.245534245
 21
-25.5848869374
  0
LINE
  5
247
100
AcDbEntity
  8
0
100
AcDbLine
 62
7
  6
CONTINUOUS
 10
-79.245534245
 20
-25.5848869374
 11
-79.2195083551
 21
-25.587637432
  0
LWPOLYLINE
  5
248
100
AcDbEntity
  8
0
100
AcDbPolyline
 62
7
  6
CONTINUOUS
 90
10
 70
0
 10
-78.6561597184
 20
-26.1889362663
 10
-78.7168902632
 20
-26.1707497873
 10
-78.7781351579
 20
-26.1542873662
 10
-78.8398944026
 20
-26.1395490029
 10
-78.9022325478
 20
-26.1265230903
 10
-78.9650850429
 20
-26.1152212355
 10
-79.0282582364
 20
-26.1056782601
 10
-79.0916875776
 20
-26.0979057714
 10
-79.1554376172
 20
-26.091892162
 10
-79.2195083551
 20
-26.087637432
  0
LINE
  5
249
100
AcDbEntity
  8
0
100
AcDbLine
 62
7
  6
CONTINUOUS
 10
-78.6561597184
 20
-26.1889362663
 11
-65.8436789192
 21
-30.2275259119
  0
LINE
  5
24A
100
AcDbEntity
  8
0
100
AcDbLine
 62
7
  6
CONTINUOUS
 10
-78.6561597184
 20
-25.6889362663
 11
-65.6581221194
 21
-29.7860148011
  0
LWPOLYLINE
  5
24B
100
AcDbEntity
  8
0
100
AcDbPolyline
 62
7
  6
CONTINUOUS
 90
17
 70
0
 10
-63.5609332384
 20
27.4449654571
 10
-63.4416758612
 20
27.48749699
 10
-63.3280375968
 20
27.5375083033
 10
-63.2200184452
 20
27.5949993969
 10
-63.1168914179
 20
27.6605336438
 10
-63.0193835034
 20
27.7335476711
 10
-62.9296756674
 20
27.8123513597
 10
-62.8481360842
 20
27.8968036442
 10
-62.7743965794
 20
27.9870455901
 10
-62.709533596
 20
28.0818102749
 10
-62.6535104797
 20
28.1815650648
 10
-62.6063638849
 20
28.2858425936
 10
-62.569280218
 20
28.39197384
 10
-62.5425845769
 20
28.4995320395
 10
-62.5259518637
 20
28.6089439565
 10
-62.5195931918
 20
28.7188208635
 10
-62.5195329766
 20
28.7330126863
  0
LINE
  5
24C
100
AcDbEntity
  8
0
100
AcDbLine
 62
7
  6
CONTINUOUS
 10
-69.0195083551
 20
25.7243818097
 11
-63.5609332384
 21
27.4449654571
  0
LINE
  5
24D
100
AcDbEntity
  8
0
100
AcDbLine
 62
7
  6
CONTINUOUS
 10
-69.0165799935
 20
25.2253048511
 11
-63.5609332384
 21
26.9449654571
  0
LINE
  5
24E
100
AcDbEntity
  8
0
100
AcDbLine
 62
7
  6
CONTINUOUS
 10
-80.3957154967
 20
-25.7113096313
 11
-79.4909407724
 21
-25.4983643929
  0
LWPOLYLINE
  5
24F
100
AcDbEntity
  8
0
100
AcDbPolyline
 62
7
  6
CONTINUOUS
 90
37
 70
0
 10
-73.7077353637
 20
-23.4174371769
 10
-73.7981021888
 20
-23.4340947557
 10
-73.885647792
 20
-23.456798234
 10
-73.9703721735
 20
-23.4855476119
 10
-74.0528913688
 20
-23.5206349803
 10
-74.1325893424
 20
-23.5617682482
 10
-74.2076179871
 20
-23.6080711426
 10
-74.2777904081
 20
-23.659618703
 10
-74.3432935004
 20
-23.71633589
 10
-74.402839841
 20
-23.7771213115
 10
-74.4563249093
 20
-23.8420369684
 10
-74.503853226
 20
-23.91102086
 10
-74.5444509301
 20
-23.9827855917
 10
-74.5780035545
 20
-24.0575041688
 10
-74.6046255663
 20
-24.1350035861
 10
-74.6236865055
 20
-24.2134774339
 10
-74.6349907087
 20
-24.2928148031
 10
-74.6387338393
 20
-24.3731266027
 10
-74.6348724274
 20
-24.4529391495
 10
-74.6232754867
 20
-24.5323005581
 10
-74.6040740034
 20
-24.6111627138
 10
-74.5776174666
 20
-24.6879075899
 10
-74.5436742234
 20
-24.7625586812
 10
-74.5024759267
 20
-24.8350924928
 10
-74.4550670242
 20
-24.9038205133
 10
-74.4014805301
 20
-24.9684881877
 10
-74.3416834302
 20
-25.0293500711
 10
-74.2766211294
 20
-25.0854813166
 10
-74.2059830372
 20
-25.1369532552
 10
-74.1300797441
 20
-25.183694556
 10
-74.0507884269
 20
-25.2245663794
 10
-73.9682495934
 20
-25.2593361316
 10
-73.8823227359
 20
-25.2882364065
 10
-73.7944635077
 20
-25.3108261459
 10
-73.7051571268
 20
-25.3269583304
 10
-73.6139183752
 20
-25.3367799793
 10
-73.5207472531
 20
-25.3402910927
  0
LINE
  5
250
100
AcDbEntity
  8
DRAFT
100
AcDbLine
 62
7
  6
CONTINUOUS
 10
-80.5195083551
 20
-21.8113910596
 11
-84.3195083551
 21
-21.8315654976
  0
LINE
  5
251
100
AcDbEntity
  8
ASSI
100
AcDbLine
 62
7
  6
CONTINUOUS
 10
-74.7706407956
 20
-22.9881995293
 11
-72.1548440329
 21
-22.9881995293
  0
LINE
  5
252
100
AcDbEntity
  8
0
100
AcDbLine
 62
7
  6
CONTINUOUS
 10
-77.5195083551
 20
-22.5346096908
 11
-73.5938639895
 21
-22.5346096908
  0
LINE
  5
253
100
AcDbEntity
  8
0
100
AcDbLine
 62
7
  6
CONTINUOUS
 10
-77.5195083551
 20
-22.1665486908
 11
-74.761542538
 21
-22.1665486908
  0
LINE
  5
254
100
AcDbEntity
  8
0
100
AcDbLine
 62
250
  6
CONTINUOUS
 10
-79.3195083551
 20
-21.9127124694
 11
-77.5195083551
 21
-21.9127124694
  0
LINE
  5
255
100
AcDbEntity
  8
0
100
AcDbLine
 62
250
  6
CONTINUOUS
 10
-79.3195083551
 20
-21.6385087588
 11
-77.5195083551
 21
-21.6385087588
  0
LWPOLYLINE
  5
256
100
AcDbEntity
  8
0
100
AcDbPolyline
 62
7
  6
CONTINUOUS
 90
16
 70
0
 10
-75.5207472531
 20
-24.2854427157
 10
-75.5739305468
 20
-24.2828574074
 10
-75.6254333353
 20
-24.2757930363
 10
-75.6752556188
 20
-24.2642496026
 10
-75.723902697
 20
-24.2480041447
 10
-75.7708692701
 20
-24.227279624
 10
-75.814639439
 20
-24.2027449255
 10
-75.8551089692
 20
-24.174275685
 10
-75.8923820952
 20
-24.1419962666
 10
-75.9252556222
 20
-24.1069486468
 10
-75.9535859504
 20
-24.0690425454
 10
-75.9775166797
 20
-24.0283682426
 10
-75.9962754142
 20
-23.9862385563
 10
-76.0096934192
 20
-23.9426059645
 10
-76.0179394294
 20
-23.8975179892
 10
-76.0207472531
 20
-23.8524300139
  0
LWPOLYLINE
  5
257
100
AcDbEntity
  8
0
100
AcDbPolyline
 62
7
  6
CONTINUOUS
 90
16
 70
0
 10
-75.5207472531
 20
-23.419417312
 10
-75.4675639595
 20
-23.4220026203
 10
-75.4160611709
 20
-23.4290669914
 10
-75.3662388874
 20
-23.4406104251
 10
-75.3175918093
 20
-23.456855883
 10
-75.2706252362
 20
-23.4775804037
 10
-75.2268550672
 20
-23.5021151022
 10
-75.1863855371
 20
-23.5305843427
 10
-75.1491124111
 20
-23.5628637611
 10
-75.1162388841
 20
-23.5979113809
 10
-75.0879085558
 20
-23.6358174823
 10
-75.0639778266
 20
-23.6764917851
 10
-75.0452190921
 20
-23.7186214715
 10
-75.0318010871
 20
-23.7622540632
 10
-75.0235550769
 20
-23.8073420385
 10
-75.0207472531
 20
-23.8524300139
  0
LWPOLYLINE
  5
258
100
AcDbEntity
  8
0
100
AcDbPolyline
 62
7
  6
CONTINUOUS
 90
10
 70
0
 10
-73.5207472531
 20
-23.4407747603
 10
-73.5416393946
 20
-23.4369436843
 10
-73.5624888829
 20
-23.4334166355
 10
-73.5832957182
 20
-23.4301936139
 10
-73.6040415911
 20
-23.4272673186
 10
-73.6247448109
 20
-23.4246450505
 10
-73.6454603054
 20
-23.4223487121
 10
-73.6662063836
 20
-23.4203856041
 10
-73.6869647364
 20
-23.4187484257
 10
-73.7077353637
 20
-23.4174371769
  0
LINE
  5
259
100
AcDbEntity
  8
0
100
AcDbLine
 62
7
  6
CONTINUOUS
 10
-69.9935041158
 20
-24.917371071
 11
-66.2581221194
 21
-26.0947913762
  0
LINE
  5
25A
100
AcDbEntity
  8
0
100
AcDbLine
 62
7
  6
CONTINUOUS
 10
-65.8578914612
 20
-26.220947069
 11
-63.5609332384
 21
-26.9449654571
  0
LWPOLYLINE
  5
25B
100
AcDbEntity
  8
0
100
AcDbPolyline
 62
7
  6
CONTINUOUS
 90
9
 70
0
 10
-79.4758565246
 20
-25.5123170214
 10
-79.4584230316
 20
-25.5251713521
 10
-79.4386402933
 20
-25.5369273851
 10
-79.4162458542
 20
-25.5476876042
 10
-79.3915021699
 20
-25.5573495257
 10
-79.3651966072
 20
-25.5656056982
 10
-79.3375916218
 20
-25.572353638
 10
-79.3084247581
 20
-25.5776958288
 10
-79.277696016
 20
-25.5816322707
  0
LINE
  5
25C
100
AcDbEntity
  8
0
100
AcDbLine
 62
7
  6
CONTINUOUS
 10
-79.4909407724
 20
-25.4983643929
 11
-79.4758565246
 21
-25.5123170214
  0
LWPOLYLINE
  5
25D
100
AcDbEntity
  8
0
100
AcDbPolyline
 62
7
  6
CONTINUOUS
 90
13
 70
0
 10
-80.3957154967
 20
-25.7113096313
 10
-80.3483553694
 20
-25.7567230866
 10
-80.2948690249
 20
-25.7996684228
 10
-80.2352564634
 20
-25.8401456401
 10
-80.1690881058
 20
-25.8783644105
 10
-80.0967935312
 20
-25.9141150618
 10
-80.0196614758
 20
-25.9467685783
 10
-79.937610579
 20
-25.9762728698
 10
-79.8507222015
 20
-26.0026800263
 10
-79.7605291615
 20
-26.0255173023
 10
-79.6675423986
 20
-26.044627116
 10
-79.5712509733
 20
-26.0601670491
 10
-79.4716548856
 20
-26.0721371017
  0
LINE
  5
25E
100
AcDbEntity
  8
0
100
AcDbLine
 62
7
  6
CONTINUOUS
 10
-65.6581221194
 20
25.0360148011
 11
-69.0195083551
 21
23.9764807531
  0
LWPOLYLINE
  5
25F
100
AcDbEntity
  8
0
100
AcDbPolyline
 62
7
  6
CONTINUOUS
 90
10
 70
0
 10
-79.4716548856
 20
-20.3468245411
 10
-79.4439396322
 20
-20.3442794202
 10
-79.4161185043
 20
-20.3421133124
 10
-79.3882045836
 20
-20.3403273019
 10
-79.3602110499
 20
-20.3389222821
 10
-79.3321510143
 20
-20.3378991
 10
-79.3040375121
 20
-20.3372585616
 10
-79.2758837112
 20
-20.3370012359
 10
-79.247702907
 20
-20.3371274489
 10
-79.2195083551
 20
-20.337637432
  0
LINE
  5
260
100
AcDbEntity
  8
DRAFT
100
AcDbLine
 62
7
  6
CONTINUOUS
 10
-69.0195083551
 20
-19.6153531827
 11
-84.3195083551
 21
-19.8272850552
  0
LINE
  5
261
100
AcDbEntity
  8
RACCORDO
100
AcDbLine
 62
250
  6
CONTINUOUS
 10
-84.3195083551
 20
-18.7764764158
 11
-69.0195083551
 21
-18.7564478791
  0
LINE
  5
262
100
AcDbEntity
  8
RACCORDO
100
AcDbLine
 62
7
  6
CONTINUOUS
 10
-84.3195083551
 20
-18.4511078801
 11
-69.0195083551
 21
-18.4315932652
  0
LINE
  5
263
100
AcDbEntity
  8
0
100
AcDbLine
 62
250
  6
CONTINUOUS
 10
-77.5851773494
 20
-21.2765179083
 11
-79.3195083551
 21
-21.2765179083
  0
LINE
  5
264
100
AcDbEntity
  8
0
100
AcDbLine
 62
7
  6
CONTINUOUS
 10
-80.5195083551
 20
-21.0284421617
 11
-79.5195083551
 21
-21.0284421617
  0
LINE
  5
265
100
AcDbEntity
  8
0
100
AcDbLine
 62
250
  6
CONTINUOUS
 10
-78.5483625817
 20
-20.9729147289
 11
-79.3195083551
 21
-20.9729147289
  0
LINE
  5
266
100
AcDbEntity
  8
0
100
AcDbLine
 62
7
  6
CONTINUOUS
 10
-65.0195083551
 20
-19.4846096908
 11
-63.2195083551
 21
-19.4846096908
  0
LINE
  5
267
100
AcDbEntity
  8
0
100
AcDbLine
 62
7
  6
CONTINUOUS
 10
-69.0195083551
 20
-19.4026706908
 11
-65.0195083551
 21
-19.4026706908
  0
LINE
  5
268
100
AcDbEntity
  8
0
100
AcDbLine
 62
7
  6
CONTINUOUS
 10
-69.0195083551
 20
-19.0346096908
 11
-65.3875693551
 21
-19.0346096908
  0
LWPOLYLINE
  5
269
100
AcDbEntity
  8
0
100
AcDbPolyline
 62
7
  6
CONTINUOUS
 90
10
 70
0
 10
-79.2195083551
 20
-20.337637432
 10
-79.1554376172
 20
-20.341892162
 10
-79.0916875776
 20
-20.3479057714
 10
-79.0282582364
 20
-20.3556782601
 10
-78.9650850429
 20
-20.3652212355
 10
-78.9022325478
 20
-20.3765230903
 10
-78.8398944026
 20
-20.3895490029
 10
-78.7781351579
 20
-20.4042873662
 10
-78.7168902632
 20
-20.4207497873
 10
-78.6561597184
 20
-20.4389362663
  0
LWPOLYLINE
  5
26A
100
AcDbEntity
  8
0
100
AcDbPolyline
 62
7
  6
CONTINUOUS
 90
10
 70
0
 10
-79.2195083551
 20
-20.837637432
 10
-79.2260287633
 20
-20.8370088913
 10
-79.2325420262
 20
-20.8365295687
 10
-79.2390450792
 20
-20.8361992817
 10
-79.245534245
 20
-20.836017981
 10
-79.2520071186
 20
-20.8359852385
 10
-79.258462555
 20
-20.8361003145
 10
-79.264898161
 20
-20.8363628108
 10
-79.2713103098
 20
-20.8367726022
 10
-79.277696016
 20
-20.8373293721
  0
LINE
  5
26B
100
AcDbEntity
  8
0
100
AcDbLine
 62
7
  6
CONTINUOUS
 10
-80.3957154967
 20
-20.7076520115
 11
-79.4909407724
 21
-20.9205972499
  0
LWPOLYLINE
  5
26C
100
AcDbEntity
  8
0
100
AcDbPolyline
 62
7
  6
CONTINUOUS
 90
10
 70
0
 10
-78.6561597184
 20
-20.9389362663
 10
-78.7168902632
 20
-20.9207497873
 10
-78.7781351579
 20
-20.9042873662
 10
-78.8398944026
 20
-20.8895490029
 10
-78.9022325478
 20
-20.8765230903
 10
-78.9650850429
 20
-20.8652212355
 10
-79.0282582364
 20
-20.8556782601
 10
-79.0916875776
 20
-20.8479057714
 10
-79.1554376172
 20
-20.841892162
 10
-79.2195083551
 20
-20.837637432
  0
LINE
  5
26D
100
AcDbEntity
  8
0
100
AcDbLine
 62
7
  6
CONTINUOUS
 10
-65.8436789192
 20
-24.9775259119
 11
-78.6561597184
 21
-20.9389362663
  0
LINE
  5
26E
100
AcDbEntity
  8
0
100
AcDbLine
 62
7
  6
CONTINUOUS
 10
-65.6581221194
 20
-24.5360148011
 11
-78.6561597184
 21
-20.4389362663
  0
LINE
  5
26F
100
AcDbEntity
  8
0
100
AcDbLine
 62
7
  6
CONTINUOUS
 10
-75.893848664
 20
-22.5346096908
 11
-73.7077353637
 21
-23.4174371769
  0
LINE
  5
270
100
AcDbEntity
  8
0
100
AcDbLine
 62
7
  6
CONTINUOUS
 10
-72.5561531928
 20
-23.8824855314
 11
-69.9935041158
 21
-24.917371071
  0
LWPOLYLINE
  5
271
100
AcDbEntity
  8
0
100
AcDbPolyline
 62
250
  6
CONTINUOUS
 90
8
 70
0
 10
-79.4533344764
 20
-20.9284261077
 10
-79.4370654056
 20
-20.939835502
 10
-79.4195083551
 20
-20.9497096482
 10
-79.4008556837
 20
-20.9579403629
 10
-79.381311754
 20
-20.9644374689
 10
-79.3610906933
 20
-20.9691297824
 10
-79.3404140478
 20
-20.9719658934
 10
-79.3195083551
 20
-20.9729147289
  0
LINE
  5
272
100
AcDbEntity
  8
0
100
AcDbLine
 62
250
  6
CONTINUOUS
 10
-79.4968596762
 20
-25.4916565257
 11
-79.4909407724
 21
-25.4983643929
  0
LWPOLYLINE
  5
273
100
AcDbEntity
  8
0
100
AcDbPolyline
 62
7
  6
CONTINUOUS
 90
3
 70
0
 43
0.3500000087
 10
-73.5174234314
 20
60.7526281616
 10
-73.5888508545
 20
60.5383458923
 10
-73.7317142273
 20
60.2526276733
  0
LWPOLYLINE
  5
274
100
AcDbEntity
  8
0
100
AcDbPolyline
 62
7
  6
CONTINUOUS
 90
16
 70
0
 10
-63.5609332384
 20
22.1949654571
 10
-63.4416758612
 20
22.23749699
 10
-63.3280375968
 20
22.2875083033
 10
-63.2200184452
 20
22.3449993969
 10
-63.1168914179
 20
22.4105336438
 10
-63.0193835034
 20
22.4835476711
 10
-62.9296756674
 20
22.5623513597
 10
-62.8481360842
 20
22.6468036442
 10
-62.7743965794
 20
22.7370455901
 10
-62.709533596
 20
22.8318102749
 10
-62.6535104797
 20
22.9315650648
 10
-62.6063638849
 20
23.0358425936
 10
-62.569280218
 20
23.14197384
 10
-62.5425845769
 20
23.2495320395
 10
-62.5259518637
 20
23.3589439565
 10
-62.5195931918
 20
23.4688208635
  0
LINE
  5
275
100
AcDbEntity
  8
0
100
AcDbLine
 62
7
  6
CONTINUOUS
 10
-63.5609332384
 20
22.1949654571
 11
-63.9110384138
 21
22.0846096908
  0
LINE
  5
276
100
AcDbEntity
  8
DRAFT
100
AcDbLine
 62
7
  6
CONTINUOUS
 10
-69.0552215903
 20
-17.073088866
 11
-69.0195083551
 21
-17.0736125016
  0
LINE
  5
277
100
AcDbEntity
  8
0
100
AcDbLine
 62
7
  6
CONTINUOUS
 10
-63.5609332384
 20
-21.6949654571
 11
-69.9935041158
 21
-19.667371071
  0
LINE
  5
278
100
AcDbEntity
  8
0
100
AcDbLine
 62
7
  6
CONTINUOUS
 10
-69.9935041158
 20
-19.667371071
 11
-70.0857416655
 21
-19.6301223868
  0
LWPOLYLINE
  5
279
100
AcDbEntity
  8
0
100
AcDbPolyline
 62
7
  6
CONTINUOUS
 90
16
 70
0
 10
-72.5561531928
 20
-23.8824855314
 10
-72.6205536155
 20
-23.8360109228
 10
-72.6848485525
 20
-23.7922373096
 10
-72.7490380038
 20
-23.751164692
 10
-72.8130196199
 20
-23.7129775942
 10
-72.8768957502
 20
-23.6774914919
 10
-72.9409734436
 20
-23.6441528119
 10
-73.0053706995
 20
-23.6127880695
 10
-73.0699695185
 20
-23.5835707494
 10
-73.1347229508
 20
-23.5564677333
 10
-73.199824579
 20
-23.5313720195
 10
-73.2650808205
 20
-23.5083906096
 10
-73.3298639784
 20
-23.4878113901
 10
-73.3939648203
 20
-23.4697303231
 10
-73.4575925785
 20
-23.4540514465
 10
-73.5207472531
 20
-23.4407747603
  0
LWPOLYLINE
  5
27A
100
AcDbEntity
  8
0
100
AcDbPolyline
 62
250
  6
CONTINUOUS
 90
3
 70
0
 10
-79.476210774
 20
-20.9069722951
 10
-79.4681373202
 20
-20.9156064689
 10
-79.4533344764
 20
-20.9284261077
  0
LWPOLYLINE
  5
27B
100
AcDbEntity
  8
0
100
AcDbPolyline
 62
7
  6
CONTINUOUS
 90
6
 70
0
 10
-80.4947364875
 20
-25.5855231478
 10
-80.480879968
 20
-25.6116300858
 10
-80.4640089537
 20
-25.6373341605
 10
-80.4441587354
 20
-25.6625652569
 10
-80.4213767719
 20
-25.6872475171
 10
-80.3957154967
 20
-25.7113096313
  0
LINE
  5
27C
100
AcDbEntity
  8
DRAFT
100
AcDbLine
 62
7
  6
CONTINUOUS
 10
-69.0195083551
 20
16.6257651653
 11
-77.0195083551
 21
12.5908576941
  0
LINE
  5
27D
100
AcDbEntity
  8
DRAFT
100
AcDbLine
 62
7
  6
CONTINUOUS
 10
-69.0195083551
 20
17.1492255823
 11
-77.0195083551
 21
13.1841330535
  0
LINE
  5
27E
100
AcDbEntity
  8
DRAFT
100
AcDbLine
 62
7
  6
CONTINUOUS
 10
-84.1481840124
 20
-12.7145706768
 11
-84.3195083551
 21
-12.715277836
  0
LINE
  5
27F
100
AcDbEntity
  8
RACCORDO
100
AcDbLine
 62
250
  6
CONTINUOUS
 10
-69.0195083551
 20
-14.0763440869
 11
-77.0195083551
 21
-13.9809751021
  0
LINE
  5
280
100
AcDbEntity
  8
RACCORDO
100
AcDbLine
 62
7
  6
CONTINUOUS
 10
-69.0195083551
 20
-13.5763580245
 11
-77.0195083551
 21
-13.4809890397
  0
LINE
  5
281
100
AcDbEntity
  8
DRAFT
100
AcDbLine
 62
7
  6
CONTINUOUS
 10
-69.0195083551
 20
-17.0824640693
 11
-69.0552215903
 21
-17.073088866
  0
LINE
  5
282
100
AcDbEntity
  8
DRAFT
100
AcDbLine
 62
7
  6
CONTINUOUS
 10
-77.0195083551
 20
-12.5908576941
 11
-75.2119233323
 21
-13.5025374833
  0
LINE
  5
283
100
AcDbEntity
  8
RACCORDO
100
AcDbLine
 62
250
  6
CONTINUOUS
 10
-86.4131033937
 20
43.5749736715
 11
-86.4131033937
 21
-43.5749736715
  0
LINE
  5
284
100
AcDbEntity
  8
RACCORDO
100
AcDbLine
 62
250
  6
CONTINUOUS
 10
-84.9685745143
 20
44.9773341103
 11
-84.9685745143
 21
-44.9773341103
  0
LINE
  5
285
100
AcDbEntity
  8
DRAFT
100
AcDbLine
 62
7
  6
CONTINUOUS
 10
-84.3195083551
 20
-45.0000046679
 11
-84.3195083551
 21
45.0000046679
  0
LINE
  5
286
100
AcDbEntity
  8
DRAFT
100
AcDbLine
 62
7
  6
CONTINUOUS
 10
-84.1481840124
 20
-13.8491574825
 11
-84.1481840124
 21
-12.7145706768
  0
LINE
  5
287
100
AcDbEntity
  8
DRAFT
100
AcDbLine
 62
7
  6
CONTINUOUS
 10
-84.1481840124
 20
13.0286946053
 11
-84.1481840124
 21
14.154595581
  0
LINE
  5
288
100
AcDbEntity
  8
DRAFT
100
AcDbLine
 62
7
  6
CONTINUOUS
 10
-84.1481840124
 20
20.2851443033
 11
-84.1481840124
 21
21.1173883286
  0
LINE
  5
289
100
AcDbEntity
  8
DRAFT
100
AcDbLine
 62
7
  6
CONTINUOUS
 10
-84.1481840124
 20
25.0949062214
 11
-84.1481840124
 21
25.5331123843
  0
LINE
  5
28A
100
AcDbEntity
  8
DRAFT
100
AcDbLine
 62
7
  6
CONTINUOUS
 10
-84.3195083551
 20
-12.761354763
 11
-84.1481840124
 21
-12.7145706768
  0
LINE
  5
28B
100
AcDbEntity
  8
0
100
AcDbLine
 62
250
  6
CONTINUOUS
 10
-79.4716548856
 20
-20.3468245411
 11
-79.277696016
 21
-20.8373293721
  0
LINE
  5
28C
100
AcDbEntity
  8
0
100
AcDbLine
 62
250
  6
CONTINUOUS
 10
-79.5195083551
 20
-24.6032630388
 11
-79.5184127342
 21
-24.6213678997
  0
LWPOLYLINE
  5
28D
100
AcDbEntity
  8
0
100
AcDbPolyline
 62
7
  6
CONTINUOUS
 90
5
 70
0
 10
-80.5195083551
 20
-25.4784421617
 10
-80.5179545597
 20
-25.5054594195
 10
-80.5132979736
 20
-25.5323629476
 10
-80.5055513492
 20
-25.5590770811
 10
-80.4947364875
 20
-25.5855231478
  0
LINE
  5
28E
100
AcDbEntity
  8
DRAFT
100
AcDbLine
 62
7
  6
CONTINUOUS
 10
-84.0195083551
 20
4.9668353766
 11
-84.0195083551
 21
-4.9668353766
  0
LINE
  5
28F
100
AcDbEntity
  8
DRAFT
100
AcDbLine
 62
7
  6
CONTINUOUS
 10
-82.9195083551
 20
-29.5651666667
 11
-82.9195083551
 21
-26.6492169493
  0
LINE
  5
290
100
AcDbEntity
  8
DRAFT
100
AcDbLine
 62
7
  6
CONTINUOUS
 10
-82.9195083551
 20
26.6492169493
 11
-82.9195083551
 21
29.5651666667
  0
LINE
  5
291
100
AcDbEntity
  8
0
100
AcDbLine
 62
7
  6
CONTINUOUS
 10
-65.0195083551
 20
19.4026706908
 11
-65.3875693551
 21
19.0346096908
  0
LINE
  5
292
100
AcDbEntity
  8
DRAFT
100
AcDbLine
 62
7
  6
CONTINUOUS
 10
-77.0195083551
 20
-8.0924061537
 11
-84.3195083551
 21
-8.1022392893
  0
LINE
  5
293
100
AcDbEntity
  8
0
100
AcDbLine
 62
7
  6
CONTINUOUS
 10
-65.0195083551
 20
-19.4026706908
 11
-65.3875693551
 21
-19.0346096908
  0
LWPOLYLINE
  5
294
100
AcDbEntity
  8
0
100
AcDbPolyline
 62
250
  6
CONTINUOUS
 90
16
 70
0
 10
-79.5195083551
 20
-21.5867449497
 10
-79.5184127342
 20
-21.5921557411
 10
-79.5151378752
 20
-21.5975072508
 10
-79.5097196584
 20
-21.6027408464
 10
-79.5022174466
 20
-21.6077991876
 10
-79.4927134359
 20
-21.6126268542
 10
-79.481311754
 20
-21.6171709533
 10
-79.4681373202
 20
-21.6213816987
 10
-79.4533344764
 20
-21.6252129566
 10
-79.4370654056
 20
-21.6286227509
 10
-79.4195083551
 20
-21.6315737233
 10
-79.4008556837
 20
-21.6340335423
 10
-79.381311754
 20
-21.6359752576
 10
-79.3610906933
 20
-21.6373775953
 10
-79.3404140478
 20
-21.6382251912
 10
-79.3195083551
 20
-21.6385087588
  0
LWPOLYLINE
  5
295
100
AcDbEntity
  8
0
100
AcDbPolyline
 62
250
  6
CONTINUOUS
 90
16
 70
0
 10
-79.5195083551
 20
-21.2247540993
 10
-79.5184127153
 20
-21.2301649371
 10
-79.5151378065
 20
-21.2355164841
 10
-79.5097195189
 20
-21.2407501071
 10
-79.5022172266
 20
-21.2458084651
 10
-79.4927131356
 20
-21.2506361384
 10
-79.4813113815
 20
-21.2551802356
 10
-79.468136892
 20
-21.2593909713
 10
-79.4533340158
 20
-21.2632222135
 10
-79.4370649368
 20
-21.2666319887
 10
-79.4195079062
 20
-21.26958294
 10
-79.4008552844
 20
-21.272042738
 10
-79.381311427
 20
-21.2739844347
 10
-79.3610904573
 20
-21.275386758
 10
-79.3404139218
 20
-21.2762343443
 10
-79.3195083551
 20
-21.2765179084
  0
LWPOLYLINE
  5
296
100
AcDbEntity
  8
0
100
AcDbPolyline
 62
250
  6
CONTINUOUS
 90
15
 70
0
 10
-79.5184127342
 20
-24.6213678997
 10
-79.5151378752
 20
-24.6392744
 10
-79.5097196584
 20
-24.6567863522
 10
-79.5022174466
 20
-24.6737118919
 10
-79.4927134359
 20
-24.6898655792
 10
-79.481311754
 20
-24.7050704309
 10
-79.4681373202
 20
-24.7191598595
 10
-79.4533344764
 20
-24.7319794983
 10
-79.4370654056
 20
-24.7433888926
 10
-79.4195083551
 20
-24.7532630388
 10
-79.4008556837
 20
-24.7614937535
 10
-79.381311754
 20
-24.7679908595
 10
-79.3610906933
 20
-24.772683173
 10
-79.3404140478
 20
-24.775519284
 10
-79.3195083551
 20
-24.7764681195
  0
LWPOLYLINE
  5
297
100
AcDbEntity
  8
0
100
AcDbPolyline
 62
250
  6
CONTINUOUS
 90
15
 70
0
 10
-79.5184127343
 20
-24.4376608997
 10
-79.5151378759
 20
-24.456575432
 10
-79.5097196596
 20
-24.4750732058
 10
-79.5022174486
 20
-24.4929515556
 10
-79.4927134386
 20
-24.5100146025
 10
-79.4813117573
 20
-24.5260754002
 10
-79.468137324
 20
-24.5409579831
 10
-79.4533344805
 20
-24.5544992945
 10
-79.4370654097
 20
-24.5665509728
 10
-79.419508359
 20
-24.5769809774
 10
-79.4008556872
 20
-24.5856750348
 10
-79.3813117568
 20
-24.5925378911
 10
-79.3610906953
 20
-24.5974943554
 10
-79.3404140488
 20
-24.6004901234
 10
-79.3195083551
 20
-24.6014923731
  0
LWPOLYLINE
  5
298
100
AcDbEntity
  8
0
100
AcDbPolyline
 62
7
  6
CONTINUOUS
 90
10
 70
0
 10
-79.5195083551
 20
-25.4784421617
 10
-79.5191510434
 20
-25.4810161809
 10
-79.5180795552
 20
-25.4835404066
 10
-79.5162958392
 20
-25.4859974094
 10
-79.5138038616
 20
-25.4883697258
 10
-79.5106088109
 20
-25.4906401802
 10
-79.5067163161
 20
-25.4927918408
 10
-79.5021338634
 20
-25.4948076924
 10
-79.4968715569
 20
-25.4966707644
 10
-79.4909407724
 20
-25.4983643929
  0
LWPOLYLINE
  5
299
100
AcDbEntity
  8
0
100
AcDbPolyline
 62
250
  6
CONTINUOUS
 90
16
 70
0
 10
-79.5195083551
 20
-21.7512671761
 10
-79.5184127529
 20
-21.7681426607
 10
-79.5151379444
 20
-21.7848332777
 10
-79.5097198005
 20
-21.8011561629
 10
-79.5022176752
 20
-21.8169324792
 10
-79.4927137547
 20
-21.8319893778
 10
-79.4813121564
 20
-21.8461618924
 10
-79.4681377888
 20
-21.859294744
 10
-79.453334987
 20
-21.8712440403
 10
-79.4370659306
 20
-21.8818788551
 10
-79.4195088607
 20
-21.8910826667
 10
-79.4008561347
 20
-21.8987546292
 10
-79.3813121242
 20
-21.9048106779
 10
-79.3610909612
 20
-21.909184457
 10
-79.3404141911
 20
-21.9118280434
 10
-79.3195083551
 20
-21.9127124696
  0
LINE
  5
29A
100
AcDbEntity
  8
0
100
AcDbLine
 62
250
  6
CONTINUOUS
 10
-79.5195083551
 20
-24.4185368406
 11
-79.5184127343
 21
-24.4376608997
  0
LWPOLYLINE
  5
29B
100
AcDbEntity
  8
0
100
AcDbPolyline
 62
250
  6
CONTINUOUS
 90
9
 70
0
 10
-79.5195083551
 20
-25.4344808214
 10
-79.5191499962
 20
-25.4418103325
 10
-79.5180757756
 20
-25.449122333
 10
-79.5162882596
 20
-25.456399354
 10
-79.5137917188
 20
-25.4636240103
 10
-79.5105921176
 20
-25.4707790418
 10
-79.5066970999
 20
-25.4778473547
 10
-79.5021159713
 20
-25.4848120624
 10
-79.4968596762
 20
-25.4916565257
  0
LINE
  5
29C
100
AcDbEntity
  8
DRAFT
100
AcDbLine
 62
7
  6
CONTINUOUS
 10
-80.5195083551
 20
-25.6650906241
 11
-80.5195083551
 21
-25.5518057287
  0
LINE
  5
29D
100
AcDbEntity
  8
DRAFT
100
AcDbLine
 62
7
  6
CONTINUOUS
 10
-80.5195083551
 20
-20.7061519691
 11
-80.5195083551
 21
-19.774648381
  0
LINE
  5
29E
100
AcDbEntity
  8
0
100
AcDbLine
 62
7
  6
CONTINUOUS
 10
-80.5195083551
 20
-20.7061519691
 11
-80.5195083551
 21
-20.9844808214
  0
LINE
  5
29F
100
AcDbEntity
  8
0
100
AcDbLine
 62
7
  6
CONTINUOUS
 10
-80.5195083551
 20
-21.0284421617
 11
-80.5195083551
 21
-22.4655385471
  0
LINE
  5
2A0
100
AcDbEntity
  8
DRAFT
100
AcDbLine
 62
7
  6
CONTINUOUS
 10
-80.5195083551
 20
-22.4655385471
 11
-80.5195083551
 21
-24.5849235405
  0
LINE
  5
2A1
100
AcDbEntity
  8
0
100
AcDbLine
 62
7
  6
CONTINUOUS
 10
-80.5195083551
 20
-24.5849686704
 11
-80.5195083551
 21
-25.4784421617
  0
LINE
  5
2A2
100
AcDbEntity
  8
0
100
AcDbLine
 62
7
  6
CONTINUOUS
 10
-79.5195083551
 20
-21.0284421617
 11
-79.5195083551
 21
-25.4784421617
  0
LINE
  5
2A3
100
AcDbEntity
  8
0
100
AcDbLine
 62
250
  6
CONTINUOUS
 10
-79.3195083551
 20
-24.8434554176
 11
-79.3195083551
 21
-20.8432958811
  0
LINE
  5
2A4
100
AcDbEntity
  8
0
100
AcDbLine
 62
7
  6
CONTINUOUS
 10
-79.2195083551
 20
-26.087637432
 11
-79.2195083551
 21
-25.587637432
  0
LINE
  5
2A5
100
AcDbEntity
  8
0
100
AcDbLine
 62
7
  6
CONTINUOUS
 10
-79.2195083551
 20
-20.337637432
 11
-79.2195083551
 21
-20.837637432
  0
LINE
  5
2A6
100
AcDbEntity
  8
0
100
AcDbLine
 62
250
  6
CONTINUOUS
 10
-79.2195083551
 20
-19.7566410977
 11
-79.2195083551
 21
-20.337637432
  0
LINE
  5
2A7
100
AcDbEntity
  8
0
100
AcDbLine
 62
250
  6
CONTINUOUS
 10
-79.2195083551
 20
-24.8434554176
 11
-79.2195083551
 21
-25.587637432
  0
LINE
  5
2A8
100
AcDbEntity
  8
0
100
AcDbLine
 62
250
  6
CONTINUOUS
 10
-78.6561597184
 20
-26.1889362663
 11
-78.6561597184
 21
-25.6889362663
  0
LINE
  5
2A9
100
AcDbEntity
  8
0
100
AcDbLine
 62
250
  6
CONTINUOUS
 10
-78.6561597184
 20
-20.4389362663
 11
-78.6561597184
 21
-20.9389362663
  0
LINE
  5
2AA
100
AcDbEntity
  8
0
100
AcDbLine
 62
7
  6
CONTINUOUS
 10
-79.5191510434
 20
-21.0163785799
 11
-79.5195083551
 21
-21.0284421617
  0
LWPOLYLINE
  5
2AB
100
AcDbEntity
  8
0
100
AcDbPolyline
 62
250
  6
CONTINUOUS
 90
10
 70
0
 10
-80.5195083551
 20
-20.9844808214
 10
-80.5179554664
 20
-20.9527196067
 10
-80.5133005104
 20
-20.9210342715
 10
-80.505554608
 20
-20.8895005138
 10
-80.4947362646
 20
-20.8581936697
 10
-80.4808713259
 20
-20.8271885331
 10
-80.4639929161
 20
-20.7965591772
 10
-80.4441413586
 20
-20.7663787772
 10
-80.4213640801
 20
-20.736719436
 10
-80.3957154967
 20
-20.7076520115
  0
LINE
  5
2AC
100
AcDbEntity
  8
DRAFT
100
AcDbLine
 62
7
  6
CONTINUOUS
 10
-84.0195083551
 20
-4.9668353766
 11
-84.3195083551
 21
-4.9720718961
  0
LINE
  5
2AD
100
AcDbEntity
  8
0
100
AcDbLine
 62
7
  6
CONTINUOUS
 10
-77.5195083551
 20
-21.2972172658
 11
-77.5195083551
 21
-24.8434544462
  0
LINE
  5
2AE
100
AcDbEntity
  8
DRAFT
100
AcDbLine
 62
7
  6
CONTINUOUS
 10
-77.0195083551
 20
-26.7048210003
 11
-77.0195083551
 21
-26.8197502629
  0
LINE
  5
2AF
100
AcDbEntity
  8
DRAFT
100
AcDbLine
 62
7
  6
CONTINUOUS
 10
-77.0195083551
 20
-16.3813140928
 11
-77.0195083551
 21
26.819750263
  0
LWPOLYLINE
  5
2B0
100
AcDbEntity
  8
0
100
AcDbPolyline
 62
7
  6
CONTINUOUS
 90
3
 70
0
 10
-80.513297974
 20
-20.9554439875
 10
-80.5179545599
 20
-20.9919184604
 10
-80.5195083551
 20
-21.0284421617
  0
LWPOLYLINE
  5
2B1
100
AcDbEntity
  8
0
100
AcDbPolyline
 62
7
  6
CONTINUOUS
 90
16
 70
0
 10
-76.0207472531
 20
-23.8524300139
 10
-76.0179394294
 20
-23.8073420385
 10
-76.0096934192
 20
-23.7622540632
 10
-75.9962754142
 20
-23.7186214715
 10
-75.9775166797
 20
-23.6764917851
 10
-75.9535859504
 20
-23.6358174823
 10
-75.9252556222
 20
-23.5979113809
 10
-75.8923820952
 20
-23.5628637611
 10
-75.8551089692
 20
-23.5305843427
 10
-75.814639439
 20
-23.5021151022
 10
-75.7708692701
 20
-23.4775804037
 10
-75.723902697
 20
-23.456855883
 10
-75.6752556188
 20
-23.4406104251
 10
-75.6254333353
 20
-23.4290669914
 10
-75.5739305468
 20
-23.4220026203
 10
-75.5207472531
 20
-23.419417312
  0
LWPOLYLINE
  5
2B2
100
AcDbEntity
  8
0
100
AcDbPolyline
 62
7
  6
CONTINUOUS
 90
16
 70
0
 10
-75.0207472531
 20
-23.8524300139
 10
-75.0235550769
 20
-23.8975179892
 10
-75.0318010871
 20
-23.9426059645
 10
-75.0452190921
 20
-23.9862385563
 10
-75.0639778266
 20
-24.0283682426
 10
-75.0879085558
 20
-24.0690425454
 10
-75.1162388841
 20
-24.1069486468
 10
-75.1491124111
 20
-24.1419962666
 10
-75.1863855371
 20
-24.174275685
 10
-75.2268550672
 20
-24.2027449255
 10
-75.2706252362
 20
-24.227279624
 10
-75.3175918093
 20
-24.2480041447
 10
-75.3662388874
 20
-24.2642496026
 10
-75.4160611709
 20
-24.2757930363
 10
-75.4675639595
 20
-24.2828574074
 10
-75.5207472531
 20
-24.2854427157
  0
LINE
  5
2B3
100
AcDbEntity
  8
RACCORDO
100
AcDbLine
 62
7
  6
CONTINUOUS
 10
-69.0195083551
 20
24.6470729186
 11
-69.0195083551
 21
17.2588120757
  0
LINE
  5
2B4
100
AcDbEntity
  8
RACCORDO
100
AcDbLine
 62
7
  6
CONTINUOUS
 10
-69.0195083551
 20
16.6257651653
 11
-69.0195083551
 21
13.5763854812
  0
LINE
  5
2B5
100
AcDbEntity
  8
RACCORDO
100
AcDbLine
 62
7
  6
CONTINUOUS
 10
-69.0195083551
 20
-13.5763854812
 11
-69.0195083551
 21
-17.0736125016
  0
LINE
  5
2B6
100
AcDbEntity
  8
RACCORDO
100
AcDbLine
 62
7
  6
CONTINUOUS
 10
-69.0195083551
 20
-18.4315932652
 11
-69.0195083551
 21
-19.6153531827
  0
LINE
  5
2B7
100
AcDbEntity
  8
DRAFT
100
AcDbLine
 62
7
  6
CONTINUOUS
 10
-69.0195083551
 20
-18.4402542156
 11
-69.0195083551
 21
-17.0736125016
  0
LINE
  5
2B8
100
AcDbEntity
  8
DRAFT
100
AcDbLine
 62
7
  6
CONTINUOUS
 10
-69.0195083551
 20
-23.9764807531
 11
-69.0195083551
 21
-25.2243818097
  0
LINE
  5
2B9
100
AcDbEntity
  8
DRAFT
100
AcDbLine
 62
7
  6
CONTINUOUS
 10
-69.0195083551
 20
16.6257651653
 11
-69.0195083551
 21
17.2588120757
  0
LINE
  5
2BA
100
AcDbEntity
  8
DRAFT
100
AcDbLine
 62
7
  6
CONTINUOUS
 10
-69.0195083551
 20
24.6444596922
 11
-69.0195083551
 21
26.0022498385
  0
LINE
  5
2BB
100
AcDbEntity
  8
RACCORDO
100
AcDbLine
 62
7
  6
CONTINUOUS
 10
-69.0195083551
 20
26.0022498385
 11
-69.0195083551
 21
26.0604752122
  0
LINE
  5
2BC
100
AcDbEntity
  8
0
100
AcDbLine
 62
250
  6
CONTINUOUS
 10
-79.4716548856
 20
-26.0721371017
 11
-79.277696016
 21
-25.5816322707
  0
LWPOLYLINE
  5
2BD
100
AcDbEntity
  8
0
100
AcDbPolyline
 62
7
  6
CONTINUOUS
 90
8
 70
0
 10
-79.4968715571
 20
-20.932348176
 10
-79.5021338637
 20
-20.9441954569
 10
-79.5067163165
 20
-20.9561224289
 10
-79.5106088112
 20
-20.968110707
 10
-79.5138038618
 20
-20.9801446904
 10
-79.5162958394
 20
-20.9922116905
 10
-79.5180795552
 20
-21.0042959464
 10
-79.5191510434
 20
-21.0163785799
  0
LINE
  5
2BE
100
AcDbEntity
  8
0
100
AcDbLine
 62
7
  6
CONTINUOUS
 10
-79.4909407724
 20
-20.9205972499
 11
-79.4968715571
 21
-20.932348176
  0
LINE
  5
2BF
100
AcDbEntity
  8
DRAFT
100
AcDbLine
 62
7
  6
CONTINUOUS
 10
-84.0195083551
 20
4.9668353766
 11
-84.3195083551
 21
4.9720718961
  0
LINE
  5
2C0
100
AcDbEntity
  8
0
100
AcDbLine
 62
7
  6
CONTINUOUS
 10
-66.2581221194
 20
26.0947913762
 11
-66.2581221194
 21
25.963645946
  0
LINE
  5
2C1
100
AcDbEntity
  8
0
100
AcDbLine
 62
7
  6
CONTINUOUS
 10
-66.2581221194
 20
-26.463645946
 11
-66.2581221194
 21
-25.963645946
  0
LINE
  5
2C2
100
AcDbEntity
  8
0
100
AcDbLine
 62
7
  6
CONTINUOUS
 10
-66.2581221194
 20
-31.213645946
 11
-66.2581221194
 21
-31.713645946
  0
LINE
  5
2C3
100
AcDbEntity
  8
0
100
AcDbLine
 62
7
  6
CONTINUOUS
 10
-66.2581221194
 20
31.213645946
 11
-66.2581221194
 21
31.713645946
  0
LWPOLYLINE
  5
2C4
100
AcDbEntity
  8
0
100
AcDbPolyline
 62
7
  6
CONTINUOUS
 90
8
 70
0
 10
-80.3957154967
 20
-20.7076520115
 10
-80.4213767728
 20
-20.7417555319
 10
-80.4441587368
 20
-20.7764099588
 10
-80.4640089553
 20
-20.8115439826
 10
-80.4808799694
 20
-20.847080166
 10
-80.4947364887
 20
-20.8829499732
 10
-80.50555135
 20
-20.9190944078
 10
-80.513297974
 20
-20.9554439875
  0
LINE
  5
2C5
100
AcDbEntity
  8
DRAFT
100
AcDbLine
 62
7
  6
CONTINUOUS
 10
-84.3195083551
 20
8.1022392893
 11
-77.0195083551
 21
8.0924061537
  0
LWPOLYLINE
  5
2C6
100
AcDbEntity
  8
0
100
AcDbPolyline
 62
7
  6
CONTINUOUS
 90
16
 70
0
 10
-62.5195931918
 20
-28.2188208635
 10
-62.5259518637
 20
-28.1089439565
 10
-62.5425845769
 20
-27.9995320395
 10
-62.569280218
 20
-27.89197384
 10
-62.6063638849
 20
-27.7858425936
 10
-62.6535104797
 20
-27.6815650648
 10
-62.709533596
 20
-27.5818102749
 10
-62.7743965794
 20
-27.4870455901
 10
-62.8481360842
 20
-27.3968036442
 10
-62.9296756674
 20
-27.3123513597
 10
-63.0193835034
 20
-27.2335476711
 10
-63.1168914179
 20
-27.1605336438
 10
-63.2200184452
 20
-27.0949993969
 10
-63.3280375968
 20
-27.0375083033
 10
-63.4416758612
 20
-26.98749699
 10
-63.5609332384
 20
-26.9449654571
  0
LWPOLYLINE
  5
2C7
100
AcDbEntity
  8
0
100
AcDbPolyline
 62
7
  6
CONTINUOUS
 90
17
 70
0
 10
-62.5195329766
 20
-22.9830126863
 10
-62.5195931918
 20
-22.9688208635
 10
-62.5259518637
 20
-22.8589439565
 10
-62.5425845769
 20
-22.7495320395
 10
-62.569280218
 20
-22.64197384
 10
-62.6063638849
 20
-22.5358425936
 10
-62.6535104797
 20
-22.4315650648
 10
-62.709533596
 20
-22.3318102749
 10
-62.7743965794
 20
-22.2370455901
 10
-62.8481360842
 20
-22.1468036442
 10
-62.9296756674
 20
-22.0623513597
 10
-63.0193835034
 20
-21.9835476711
 10
-63.1168914179
 20
-21.9105336438
 10
-63.2200184452
 20
-21.8449993969
 10
-63.3280375968
 20
-21.7875083033
 10
-63.4416758612
 20
-21.73749699
 10
-63.5609332384
 20
-21.6949654571
  0
LINE
  5
2C8
100
AcDbEntity
  8
0
100
AcDbLine
 62
7
  6
CONTINUOUS
 10
-65.3875693551
 20
22.5346096908
 11
-65.3875693551
 21
19.0346096908
  0
LINE
  5
2C9
100
AcDbEntity
  8
0
100
AcDbLine
 62
7
  6
CONTINUOUS
 10
-65.3875693551
 20
-19.0346096908
 11
-65.3875693551
 21
-21.1191961098
  0
LINE
  5
2CA
100
AcDbEntity
  8
0
100
AcDbLine
 62
7
  6
CONTINUOUS
 10
-65.0195083551
 20
22.1665486908
 11
-65.0195083551
 21
19.4026706908
  0
LINE
  5
2CB
100
AcDbEntity
  8
0
100
AcDbLine
 62
7
  6
CONTINUOUS
 10
-65.0195083551
 20
-19.4026706908
 11
-65.0195083551
 21
-21.2352116861
  0
LINE
  5
2CC
100
AcDbEntity
  8
0
100
AcDbLine
 62
250
  6
CONTINUOUS
 10
-63.5609332384
 20
27.4449654571
 11
-63.5609332384
 21
26.9449654571
  0
LINE
  5
2CD
100
AcDbEntity
  8
0
100
AcDbLine
 62
250
  6
CONTINUOUS
 10
-63.5609332384
 20
22.1949654571
 11
-63.5609332384
 21
22.0846096908
  0
LINE
  5
2CE
100
AcDbEntity
  8
0
100
AcDbLine
 62
250
  6
CONTINUOUS
 10
-63.2195083551
 20
-19.4846096908
 11
-63.2195083551
 21
-21.8453235445
  0
LINE
  5
2CF
100
AcDbEntity
  8
0
100
AcDbLine
 62
250
  6
CONTINUOUS
 10
-63.2195083551
 20
19.4846096908
 11
-63.2195083551
 21
22.0846096908
  0
LINE
  5
2D0
100
AcDbEntity
  8
0
100
AcDbLine
 62
250
  6
CONTINUOUS
 10
-63.1944349589
 20
-29.855833662
 11
-63.1944349589
 21
-29.355833662
  0
LINE
  5
2D1
100
AcDbEntity
  8
0
100
AcDbLine
 62
250
  6
CONTINUOUS
 10
-63.1944349589
 20
-24.605833662
 11
-63.1944349589
 21
-24.105833662
  0
LINE
  5
2D2
100
AcDbEntity
  8
0
100
AcDbLine
 62
7
  6
CONTINUOUS
 10
-63.0195083551
 20
21.8846096908
 11
-63.0195083551
 21
19.6846096908
  0
LINE
  5
2D3
100
AcDbEntity
  8
0
100
AcDbLine
 62
7
  6
CONTINUOUS
 10
-63.0195083551
 20
-19.6846096908
 11
-63.0195083551
 21
-21.8846096908
  0
LINE
  5
2D4
100
AcDbEntity
  8
0
100
AcDbLine
 62
7
  6
CONTINUOUS
 10
-62.5195083551
 20
23.4830127229
 11
-62.5195083551
 21
22.9830127229
  0
LINE
  5
2D5
100
AcDbEntity
  8
0
100
AcDbLine
 62
7
  6
CONTINUOUS
 10
-62.5195083551
 20
-28.7330127229
 11
-62.5195931918
 21
-28.2188208635
  0
LINE
  5
2D6
100
AcDbEntity
  8
0
100
AcDbLine
 62
7
  6
CONTINUOUS
 10
-62.5195083551
 20
-23.4830127229
 11
-62.5195083551
 21
-22.9830127229
  0
LWPOLYLINE
  5
2D7
100
AcDbEntity
  8
0
100
AcDbPolyline
 62
7
  6
CONTINUOUS
 90
17
 70
0
 10
-62.5195931918
 20
28.7188208635
 10
-62.5195931918
 20
28.2188208635
 10
-62.5259518637
 20
28.1089439565
 10
-62.5425845769
 20
27.9995320395
 10
-62.569280218
 20
27.89197384
 10
-62.6063638849
 20
27.7858425936
 10
-62.6535104797
 20
27.6815650648
 10
-62.709533596
 20
27.5818102749
 10
-62.7743965794
 20
27.4870455901
 10
-62.8481360842
 20
27.3968036442
 10
-62.9296756674
 20
27.3123513597
 10
-63.0193835034
 20
27.2335476711
 10
-63.1168914179
 20
27.1605336438
 10
-63.2200184452
 20
27.0949993969
 10
-63.3280375968
 20
27.0375083033
 10
-63.4416758612
 20
26.98749699
 10
-63.5609332384
 20
26.9449654571
  0
LWPOLYLINE
  5
2D8
100
AcDbEntity
  8
0
100
AcDbPolyline
 62
7
  6
CONTINUOUS
 90
13
 70
0
 10
-62.5195329766
 20
22.9830126863
 10
-62.5195931918
 20
22.9688208635
 10
-62.5259518637
 20
22.8589439565
 10
-62.5425845769
 20
22.7495320395
 10
-62.569280218
 20
22.64197384
 10
-62.6063638849
 20
22.5358425936
 10
-62.6535104797
 20
22.4315650648
 10
-62.709533596
 20
22.3318102749
 10
-62.7743965794
 20
22.2370455901
 10
-62.8481360842
 20
22.1468036442
 10
-62.9296756674
 20
22.0623513597
 10
-63.0193835034
 20
21.9835476711
 10
-63.0384772502
 20
21.9692502537
  0
LWPOLYLINE
  5
2D9
100
AcDbEntity
  8
0
100
AcDbPolyline
 62
7
  6
CONTINUOUS
 90
13
 70
0
 10
-80.3957154967
 20
-20.7076520115
 10
-80.3483553694
 20
-20.6622385563
 10
-80.2948690249
 20
-20.61929322
 10
-80.2352564634
 20
-20.5788160027
 10
-80.1690881058
 20
-20.5405972324
 10
-80.0967935312
 20
-20.504846581
 10
-80.0196614758
 20
-20.4721930645
 10
-79.937610579
 20
-20.4426887731
 10
-79.8507222015
 20
-20.4162816165
 10
-79.7605291615
 20
-20.3934443405
 10
-79.6675423986
 20
-20.3743345269
 10
-79.5712509733
 20
-20.3587945938
 10
-79.4716548856
 20
-20.3468245411
  0
LWPOLYLINE
  5
2DA
100
AcDbEntity
  8
0
100
AcDbPolyline
 62
7
  6
CONTINUOUS
 90
10
 70
0
 10
-79.4909407724
 20
-20.9205972499
 10
-79.4758565246
 20
-20.9066446215
 10
-79.4584230316
 20
-20.8937902908
 10
-79.4386402933
 20
-20.8820342577
 10
-79.4162458542
 20
-20.8712740386
 10
-79.3915021699
 20
-20.8616121172
 10
-79.3651966072
 20
-20.8533559447
 10
-79.3375916218
 20
-20.8466080049
 10
-79.3084247581
 20
-20.841265814
 10
-79.277696016
 20
-20.8373293721
  0
LINE
  5
2DB
100
AcDbEntity
  8
DRAFT
100
AcDbLine
 62
7
  6
CONTINUOUS
 10
-84.3195083551
 20
-13.9001163544
 11
-84.1481840124
 21
-13.8491574825
  0
LINE
  5
2DC
100
AcDbEntity
  8
DRAFT
100
AcDbLine
 62
7
  6
CONTINUOUS
 10
-84.3195083551
 20
13.0766345308
 11
-84.1481840124
 21
13.0286946053
  0
LINE
  5
2DD
100
AcDbEntity
  8
DRAFT
100
AcDbLine
 62
7
  6
CONTINUOUS
 10
-84.3195083551
 20
14.2066783321
 11
-84.1481840124
 21
14.154595581
  0
LWPOLYLINE
  5
2DE
100
AcDbEntity
  8
0
100
AcDbPolyline
 62
7
  6
CONTINUOUS
 90
13
 70
0
 10
-62.5195329766
 20
23.4830126863
 10
-62.5236950392
 20
23.5796478519
 10
-62.5380709279
 20
23.6909398302
 10
-62.5623725369
 20
23.799852796
 10
-62.596704137
 20
23.9059270925
 10
-62.6409614573
 20
24.0096223765
 10
-62.6944833644
 20
24.1094736168
 10
-62.7575833285
 20
24.2056995962
 10
-62.8299478794
 20
24.2980815319
 10
-62.9099754724
 20
24.3844980443
 10
-62.9971322591
 20
24.4642420068
 10
-63.091952088
 20
24.5380205461
 10
-63.1944349589
 20
24.605833662
  0
LWPOLYLINE
  5
2DF
100
AcDbEntity
  8
0
100
AcDbPolyline
 62
7
  6
CONTINUOUS
 90
13
 70
0
 10
-62.5195329766
 20
28.7330126863
 10
-62.5236950392
 20
28.8296478519
 10
-62.5380709279
 20
28.9409398302
 10
-62.5623725369
 20
29.049852796
 10
-62.596704137
 20
29.1559270925
 10
-62.6409614573
 20
29.2596223765
 10
-62.6944833644
 20
29.3594736168
 10
-62.7575833285
 20
29.4556995962
 10
-62.8299478794
 20
29.5480815319
 10
-62.9099754724
 20
29.6344980443
 10
-62.9971322591
 20
29.7142420068
 10
-63.091952088
 20
29.7880205461
 10
-63.1944349589
 20
29.855833662
  0
LWPOLYLINE
  5
2E0
100
AcDbEntity
  8
0
100
AcDbPolyline
 62
7
  6
CONTINUOUS
 90
13
 70
0
 10
-62.5195329766
 20
-23.4830126863
 10
-62.5236950392
 20
-23.5796478519
 10
-62.5380709279
 20
-23.6909398302
 10
-62.5623725369
 20
-23.799852796
 10
-62.596704137
 20
-23.9059270925
 10
-62.6409614573
 20
-24.0096223765
 10
-62.6944833644
 20
-24.1094736168
 10
-62.7575833285
 20
-24.2056995962
 10
-62.8299478794
 20
-24.2980815319
 10
-62.9099754724
 20
-24.3844980443
 10
-62.9971322591
 20
-24.4642420068
 10
-63.091952088
 20
-24.5380205461
 10
-63.1944349589
 20
-24.605833662
  0
LWPOLYLINE
  5
2E1
100
AcDbEntity
  8
0
100
AcDbPolyline
 62
7
  6
CONTINUOUS
 90
13
 70
0
 10
-62.5195329766
 20
-28.7330126863
 10
-62.5236950392
 20
-28.8296478519
 10
-62.5380709279
 20
-28.9409398302
 10
-62.5623725369
 20
-29.049852796
 10
-62.596704137
 20
-29.1559270925
 10
-62.6409614573
 20
-29.2596223765
 10
-62.6944833644
 20
-29.3594736168
 10
-62.7575833285
 20
-29.4556995962
 10
-62.8299478794
 20
-29.5480815319
 10
-62.9099754724
 20
-29.6344980443
 10
-62.9971322591
 20
-29.7142420068
 10
-63.091952088
 20
-29.7880205461
 10
-63.1944349589
 20
-29.855833662
  0
LINE
  5
2E2
100
AcDbEntity
  8
RACCORDO
100
AcDbLine
 62
7
  6
CONTINUOUS
 10
-69.0195083551
 20
13.5763580245
 11
-75.2119233323
 21
13.5025374833
  0
LINE
  5
2E3
100
AcDbEntity
  8
RACCORDO
100
AcDbLine
 62
250
  6
CONTINUOUS
 10
-69.0195083551
 20
13.7103326202
 11
-74.9398618282
 21
13.6397553577
  0
LINE
  5
2E4
100
AcDbEntity
  8
DRAFT
100
AcDbLine
 62
7
  6
CONTINUOUS
 10
-84.1481840124
 20
13.0286946053
 11
-84.3195083551
 21
13.0294192354
  0
LINE
  5
2E5
100
AcDbEntity
  8
DRAFT
100
AcDbLine
 62
7
  6
CONTINUOUS
 10
-84.3195083551
 20
20.3597848054
 11
-84.1481840124
 21
20.2851443033
  0
LINE
  5
2E6
100
AcDbEntity
  8
DRAFT
100
AcDbLine
 62
7
  6
CONTINUOUS
 10
-84.3195083551
 20
21.1950911265
 11
-84.1481840124
 21
21.1173883286
  0
LINE
  5
2E7
100
AcDbEntity
  8
0
100
AcDbLine
 62
7
  6
CONTINUOUS
 10
-66.2581221194
 20
-25.963645946
 11
-65.6581221194
 21
-24.5360148011
  0
LINE
  5
2E8
100
AcDbEntity
  8
DRAFT
100
AcDbLine
 62
7
  6
CONTINUOUS
 10
-77.0195083551
 20
17.2332580333
 11
-69.0195083551
 21
17.2588120757
  0
LINE
  5
2E9
100
AcDbEntity
  8
0
100
AcDbLine
 62
7
  6
CONTINUOUS
 10
-69.0195083551
 20
19.0346096908
 11
-65.3875693551
 21
19.0346096908
  0
LINE
  5
2EA
100
AcDbEntity
  8
DRAFT
100
AcDbLine
 62
7
  6
CONTINUOUS
 10
-84.3195083551
 20
25.187244554
 11
-84.1481840124
 21
25.0949062214
  0
LINE
  5
2EB
100
AcDbEntity
  8
DRAFT
100
AcDbLine
 62
7
  6
CONTINUOUS
 10
-84.3195083551
 20
25.6270631248
 11
-84.1481840124
 21
25.5331123843
  0
LINE
  5
2EC
100
AcDbEntity
  8
0
100
AcDbLine
 62
7
  6
CONTINUOUS
 10
-66.2581221194
 20
25.963645946
 11
-65.8436789192
 21
24.9775259119
  0
LINE
  5
2ED
100
AcDbEntity
  8
0
100
AcDbLine
 62
7
  6
CONTINUOUS
 10
-66.1212351724
 20
26.1379391644
 11
-65.6581221194
 21
25.0360148011
  0
LINE
  5
2EE
100
AcDbEntity
  8
0
100
AcDbLine
 62
7
  6
CONTINUOUS
 10
-65.6581221194
 20
-29.7860148011
 11
-66.2581221194
 21
-31.213645946
  0
LINE
  5
2EF
100
AcDbEntity
  8
RACCORDO
100
AcDbLine
 62
250
  6
CONTINUOUS
 10
-69.0195083551
 20
20.2838311142
 11
-77.0195083551
 21
20.2582770718
  0
LINE
  5
2F0
100
AcDbEntity
  8
RACCORDO
100
AcDbLine
 62
250
  6
CONTINUOUS
 10
-69.0195083551
 20
21.6498045039
 11
-77.0195083551
 21
21.6242504615
  0
LINE
  5
2F1
100
AcDbEntity
  8
0
100
AcDbLine
 62
7
  6
CONTINUOUS
 10
-69.0195083551
 20
19.4026706908
 11
-65.0195083551
 21
19.4026706908
  0
LINE
  5
2F2
100
AcDbEntity
  8
0
100
AcDbLine
 62
7
  6
CONTINUOUS
 10
-65.0195083551
 20
19.4846096908
 11
-63.2195083551
 21
19.4846096908
  0
LINE
  5
2F3
100
AcDbEntity
  8
0
100
AcDbLine
 62
7
  6
CONTINUOUS
 10
-65.0195083551
 20
22.0846096908
 11
-63.2195083551
 21
22.0846096908
  0
LINE
  5
2F4
100
AcDbEntity
  8
0
100
AcDbLine
 62
7
  6
CONTINUOUS
 10
-69.0195083551
 20
22.1665486908
 11
-65.0195083551
 21
22.1665486908
  0
LINE
  5
2F5
100
AcDbEntity
  8
DRAFT
100
AcDbLine
 62
7
  6
CONTINUOUS
 10
-84.1481840124
 20
20.2851443033
 11
-84.3195083551
 21
20.2862725227
  0
LINE
  5
2F6
100
AcDbEntity
  8
0
100
AcDbLine
 62
7
  6
CONTINUOUS
 10
-65.8436789192
 20
30.2275259119
 11
-66.2581221194
 21
31.213645946
  0
LINE
  5
2F7
100
AcDbEntity
  8
0
100
AcDbLine
 62
7
  6
CONTINUOUS
 10
-65.6581221194
 20
30.2860148011
 11
-66.2581221194
 21
31.713645946
  0
LINE
  5
2F8
100
AcDbEntity
  8
DRAFT
100
AcDbLine
 62
7
  6
CONTINUOUS
 10
-69.0195083551
 20
24.6470729186
 11
-77.0195083551
 21
24.5992943223
  0
LINE
  5
2F9
100
AcDbEntity
  8
0
100
AcDbLine
 62
7
  6
CONTINUOUS
 10
-69.0195083551
 20
22.5346096908
 11
-65.3875693551
 21
22.5346096908
  0
LINE
  5
2FA
100
AcDbEntity
  8
DRAFT
100
AcDbLine
 62
7
  6
CONTINUOUS
 10
-84.1481840124
 20
25.0949062214
 11
-84.3195083551
 21
25.0963019502
  0
LINE
  5
2FB
100
AcDbEntity
  8
0
100
AcDbLine
 62
7
  6
CONTINUOUS
 10
-65.0195083551
 20
22.1665486908
 11
-65.3875693551
 21
22.5346096908
  0
LWPOLYLINE
  5
2FC
100
AcDbEntity
  8
0
100
AcDbPolyline
 62
7
  6
CONTINUOUS
 90
13
 70
0
 10
-63.1944349589
 20
-24.105833662
 10
-63.091952088
 20
-24.0380205461
 10
-62.9971322591
 20
-23.9642420068
 10
-62.9099754724
 20
-23.8844980443
 10
-62.8299478794
 20
-23.7980815319
 10
-62.7575833285
 20
-23.7056995962
 10
-62.6944833644
 20
-23.6094736168
 10
-62.6409614573
 20
-23.5096223765
 10
-62.596704137
 20
-23.4059270925
 10
-62.5623725369
 20
-23.299852796
 10
-62.5380709279
 20
-23.1909398302
 10
-62.5236950392
 20
-23.0796478519
 10
-62.5195329766
 20
-22.9830126863
  0
LINE
  5
2FD
100
AcDbEntity
  8
0
100
AcDbLine
 62
7
  6
CONTINUOUS
 10
-63.1944349589
 20
-24.105833662
 11
-66.2581221194
 21
-25.963645946
  0
LINE
  5
2FE
100
AcDbEntity
  8
0
100
AcDbLine
 62
7
  6
CONTINUOUS
 10
-63.1944349589
 20
-24.605833662
 11
-66.2581221194
 21
-26.463645946
  0
LINE
  5
2FF
100
AcDbEntity
  8
DRAFT
100
AcDbLine
 62
7
  6
CONTINUOUS
 10
-77.0195083551
 20
26.8198149423
 11
-82.9195083551
 21
26.8713034623
  0
LINE
  5
300
100
AcDbEntity
  8
RACCORDO
100
AcDbLine
 62
7
  6
CONTINUOUS
 10
-69.0552215903
 20
26.005411261
 11
-69.0195083551
 21
26.0050536823
  0
LINE
  5
301
100
AcDbEntity
  8
RACCORDO
100
AcDbLine
 62
7
  6
CONTINUOUS
 10
-69.0195083551
 20
26.0604869508
 11
-69.7791423641
 21
26.0681327561
  0
LINE
  5
302
100
AcDbEntity
  8
RACCORDO
100
AcDbLine
 62
7
  6
CONTINUOUS
 10
-69.0195083551
 20
26.0022498385
 11
-69.0552215903
 21
26.005411261
  0
LINE
  5
303
100
AcDbEntity
  8
0
100
AcDbLine
 62
7
  6
CONTINUOUS
 10
-63.1944349589
 20
24.605833662
 11
-65.8578914612
 21
26.220947069
  0
LWPOLYLINE
  5
304
100
AcDbEntity
  8
0
100
AcDbPolyline
 62
7
  6
CONTINUOUS
 90
13
 70
0
 10
-63.1944349589
 20
-29.355833662
 10
-63.091952088
 20
-29.2880205461
 10
-62.9971322591
 20
-29.2142420068
 10
-62.9099754724
 20
-29.1344980443
 10
-62.8299478794
 20
-29.0480815319
 10
-62.7575833285
 20
-28.9556995962
 10
-62.6944833644
 20
-28.8594736168
 10
-62.6409614573
 20
-28.7596223765
 10
-62.596704137
 20
-28.6559270925
 10
-62.5623725369
 20
-28.549852796
 10
-62.5380709279
 20
-28.4409398302
 10
-62.5236950392
 20
-28.3296478519
 10
-62.5195329766
 20
-28.2330126863
  0
LINE
  5
305
100
AcDbEntity
  8
0
100
AcDbLine
 62
7
  6
CONTINUOUS
 10
-66.2581221194
 20
-31.213645946
 11
-63.1944349589
 21
-29.355833662
  0
LINE
  5
306
100
AcDbEntity
  8
0
100
AcDbLine
 62
7
  6
CONTINUOUS
 10
-82.9195083551
 20
29.5651666667
 11
-84.3195083551
 21
29.5651666667
  0
LWPOLYLINE
  5
307
100
AcDbEntity
  8
0
100
AcDbPolyline
 62
7
  6
CONTINUOUS
 90
10
 70
0
 43
0.3500000087
 10
-73.5888508545
 20
60.9669189575
 10
-73.5174234314
 20
60.8240555847
 10
-73.5174234314
 20
60.7526281616
 10
-73.6602782776
 20
60.6097733154
 10
-73.7317142273
 20
60.6097733154
 10
-73.8031416504
 20
60.6812007385
 10
-73.8031416504
 20
60.7526281616
 10
-73.7317142273
 20
60.8954915344
 10
-73.6602782776
 20
60.9669189575
 10
-73.5888508545
 20
60.9669189575
  0
LINE
  5
308
100
AcDbEntity
  8
0
100
AcDbLine
 62
7
  6
CONTINUOUS
 10
-66.2581221194
 20
-31.713645946
 11
-63.1944349589
 21
-29.855833662
  0
LINE
  5
309
100
AcDbEntity
  8
0
100
AcDbLine
 62
7
  6
CONTINUOUS
 10
-66.2581221194
 20
31.713645946
 11
-63.1944349589
 21
29.855833662
  0
LINE
  5
30A
100
AcDbEntity
  8
DRAFT
100
AcDbLine
 62
7
  6
CONTINUOUS
 10
-84.3195083551
 20
45.0
 11
-84.9685745143
 21
44.9773341103
  0
LWPOLYLINE
  5
30B
100
AcDbEntity
  8
0
100
AcDbPolyline
 62
7
  6
CONTINUOUS
 90
6
 70
0
 43
0.3500000087
 10
-76.3745715149
 20
60.4669184692
 10
-75.3031431152
 20
60.4669184692
 10
-75.0888523193
 20
60.6812007385
 10
-75.0888523193
 20
61.7526291382
 10
-75.5174253845
 20
62.1812022034
 10
-75.9459984497
 20
62.1812022034
  0
LWPOLYLINE
  5
30C
100
AcDbEntity
  8
0
100
AcDbPolyline
 62
7
  6
CONTINUOUS
 90
8
 70
0
 43
0.3500000087
 10
-72.5174224548
 20
60.4669184692
 10
-71.6602848511
 20
60.4669184692
 10
-71.2317117859
 20
60.8954915344
 10
-71.2317117859
 20
61.7526291382
 10
-71.6602848511
 20
62.1812022034
 10
-72.5174224548
 20
62.1812022034
 10
-72.5174224548
 20
63.4669128723
 10
-71.2317117859
 20
63.4669128723
  0
LWPOLYLINE
  5
30D
100
AcDbEntity
  8
0
100
AcDbPolyline
 62
7
  6
CONTINUOUS
 90
10
 70
0
 43
0.3500000087
 10
-1.9285714658
 20
59.4020470337
 10
-1.0714285995
 20
60.2591931641
 10
-0.8571428663
 20
61.1163392944
 10
-0.8571428663
 20
61.9734768982
 10
-1.2857142661
 20
62.4020499634
 10
-1.9285714658
 20
62.4020499634
 10
-2.357142799
 20
61.9734768982
 10
-2.357142799
 20
61.1163392944
 10
-1.9285714658
 20
60.6877662292
 10
-0.9999999774
 20
60.6877662292
  0
LWPOLYLINE
  5
30E
100
AcDbEntity
  8
0
100
AcDbPolyline
 62
7
  6
CONTINUOUS
 90
13
 70
0
 43
0.3500000087
 10
-0.0
 20
60.2591931641
 10
-0.0
 20
61.544903833
 10
0.2142857166
 20
61.9734768982
 10
0.6428571331
 20
62.4020499634
 10
0.8571428663
 20
62.4020499634
 10
1.2857142661
 20
61.9734768982
 10
1.4999999993
 20
61.544903833
 10
1.4999999993
 20
60.2591931641
 10
1.2857142661
 20
59.8306200989
 10
0.8571428663
 20
59.4020470337
 10
0.6428571331
 20
59.4020470337
 10
0.2142857166
 20
59.8306200989
 10
-0.0
 20
60.2591931641
  0
CIRCLE
  5
30F
100
AcDbEntity
  8
DRAFT
100
AcDbCircle
 62
7
  6
CONTINUOUS
 10
-0.0
 20
0.0
 40
45.0
  0
CIRCLE
  5
310
100
AcDbEntity
  8
RACCORDO
100
AcDbCircle
 62
250
  6
CONTINUOUS
 10
-0.0
 20
0.0
 40
44.9773341103
  0
CIRCLE
  5
311
100
AcDbEntity
  8
RACCORDO
100
AcDbCircle
 62
250
  6
CONTINUOUS
 10
0.0
 20
0.0
 40
43.5749736715
  0
ARC
  5
312
100
AcDbEntity
  8
0
100
AcDbCircle
 62
7
  6
CONTINUOUS
 10
587.9304916449
 20
0.0
 40
675.75
100
AcDbArc
 50
176.3027812258
 51
183.6972187742
  0
ARC
  5
313
100
AcDbEntity
  8
RACCORDO
100
AcDbCircle
 62
7
  6
CONTINUOUS
 10
-84.9162252693
 20
43.4782478697
 40
1.5
100
AcDbArc
 50
92.0
 51
176.3027812258
  0
ARC
  5
314
100
AcDbEntity
  8
RACCORDO
100
AcDbCircle
 62
7
  6
CONTINUOUS
 10
-84.9162252693
 20
-43.4782478697
 40
1.5
100
AcDbArc
 50
183.6972187742
 51
268.0
  0
ARC
  5
315
100
AcDbEntity
  8
0
100
AcDbCircle
 62
7
  6
CONTINUOUS
 10
-79.3195083551
 20
-24.6434554176
 40
0.2
100
AcDbArc
 50
180.0
 51
270.0
  0
ARC
  5
316
100
AcDbEntity
  8
0
100
AcDbCircle
 62
7
  6
CONTINUOUS
 10
-79.3195083551
 20
-24.4441035418
 40
0.2
100
AcDbArc
 50
180.0
 51
270.0
  0
ARC
  5
317
100
AcDbEntity
  8
0
100
AcDbCircle
 62
7
  6
CONTINUOUS
 10
-63.2195083551
 20
21.8846096908
 40
0.2
100
AcDbArc
 50
0.0
 51
90.0
  0
ARC
  5
318
100
AcDbEntity
  8
0
100
AcDbCircle
 62
7
  6
CONTINUOUS
 10
-63.2195083551
 20
19.6846096908
 40
0.2
100
AcDbArc
 50
270.0
 51
360.0
  0
ARC
  5
319
100
AcDbEntity
  8
0
100
AcDbCircle
 62
7
  6
CONTINUOUS
 10
-63.2195083551
 20
-19.6846096908
 40
0.2
100
AcDbArc
 50
0.0
 51
90.0
  0
ARC
  5
31A
100
AcDbEntity
  8
0
100
AcDbCircle
 62
7
  6
CONTINUOUS
 10
-63.2195083551
 20
-21.8846096908
 40
0.2
100
AcDbArc
 50
334.9406661824
 51
360.0
  0
ELLIPSE
  5
31B
100
AcDbEntity
  8
RACCORDO
100
AcDbEllipse
 62
7
  6
CONTINUOUS
 10
-48.2193632569
 20
0.3515681981
 30
0.0
 11
80.4723336089
 21
-14.4084361656
 31
0.0
 40
0.2772866464
 41
1.8819769694
 42
1.9859377812
  0
ELLIPSE
  5
31C
100
AcDbEntity
  8
DRAFT
100
AcDbEllipse
 62
7
  6
CONTINUOUS
 10
-44.0430316332
 20
-0.3370056209
 30
0.0
 11
77.1390270831
 21
-13.811613231
 31
0.0
 40
0.2772866464
 41
-1.9623266677
 42
-1.8509845894
  0
ELLIPSE
  5
31D
100
AcDbEntity
  8
RACCORDO
100
AcDbEllipse
 62
7
  6
CONTINUOUS
 10
-48.2193632569
 20
0.3515681981
 30
0.0
 11
80.4723336089
 21
-14.4084361656
 31
0.0
 40
0.2772866464
 41
-1.8867238285
 42
-1.7827630167
  0
ELLIPSE
  5
31E
100
AcDbEntity
  8
DRAFT
100
AcDbEllipse
 62
7
  6
CONTINUOUS
 10
-845.7534262344
 20
-0.0
 30
0.0
 11
1920.8438552256
 21
0.0
 31
0.0
 40
0.0151169134
 41
-1.1631975795
 42
-1.1624035583
  0
ELLIPSE
  5
31F
100
AcDbEntity
  8
DRAFT
100
AcDbEllipse
 62
7
  6
CONTINUOUS
 10
-845.7534262344
 20
-0.0
 30
0.0
 11
1920.8438552256
 21
0.0
 31
0.0
 40
0.0151169134
 41
1.1624035583
 42
1.1631975795
  0
ELLIPSE
  5
320
100
AcDbEntity
  8
DRAFT
100
AcDbEllipse
 62
7
  6
CONTINUOUS
 10
-34.6840483034
 20
-23.8881995293
 30
0.0
 11
103.1297850603
 21
-0.4500257041
 31
0.0
 40
0.0075575453
 41
-1.9319687633
 42
-1.9101772276
  0
ELLIPSE
  5
321
100
AcDbEntity
  8
DRAFT
100
AcDbEllipse
 62
7
  6
CONTINUOUS
 10
114.5953573526
 20
0.0
 30
0.0
 11
1695.7828642705
 21
0.0
 31
0.0
 40
0.0174550649
 41
1.6875354489
 42
1.6883667245
  0
ELLIPSE
  5
322
100
AcDbEntity
  8
DRAFT
100
AcDbEllipse
 62
7
  6
CONTINUOUS
 10
114.5953573526
 20
0.0
 30
0.0
 11
1695.7828642705
 21
0.0
 31
0.0
 40
0.0174550649
 41
-1.6883667245
 42
-1.6875354489
  0
ELLIPSE
  5
323
100
AcDbEntity
  8
DRAFT
100
AcDbEllipse
 62
7
  6
CONTINUOUS
 10
-44.0430316332
 20
-0.3370056209
 30
0.0
 11
77.1390270831
 21
-13.811613231
 31
0.0
 40
0.2772866464
 41
1.9501985421
 42
2.0615406204
  0
ENDSEC
  0
SECTION
  2
OBJECTS
  0
DICTIONARY
  5
C
100
AcDbDictionary
280
0
281
1
  3
ACAD_GROUP
350
D
  3
ACAD_MLINESTYLE
350
17
  3
ACAD_LAYOUT
350
1A
  3
ACAD_PLOTSETTINGS
350
19
  3
ACAD_PLOTSTYLENAME
350
E
  0
DICTIONARY
  5
D
102
{ACAD_REACTORS
330
C
102
}
100
AcDbDictionary
280
0
281
1
  0
ACDBDICTIONARYWDFLT
  5
E
102
{ACAD_REACTORS
330
C
102
}
100
AcDbDictionary
281
1
  3
Normal
350
F
100
AcDbDictionaryWithDefault
340
F
  0
DICTIONARY
  5
17
102
{ACAD_REACTORS
330
C
102
}
100
AcDbDictionary
280
0
281
1
  3
Standard
350
18
  0
DICTIONARY
  5
19
102
{ACAD_REACTORS
330
C
102
}
100
AcDbDictionary
281
1
  0
DICTIONARY
  5
1A
102
{ACAD_REACTORS
330
C
102
}
100
AcDbDictionary
281
1
  3
Model
350
324
  3
Layout1
350
325
  0
ACDBPLACEHOLDER
  5
F
102
{ACAD_REACTORS
330
E
102
}
  0
MLINESTYLE
  5
18
102
{ACAD_REACTORS
330
17
102
}
100
AcDbMlineStyle
  2
STANDARD
 70
0
  3

 62
256
 51
90.0
 52
90.0
 71
2
 49
0.5
 62
256
  6
BYLAYER
 49
-0.5
 62
256
  6
BYLAYER
  0
LAYOUT
  5
324
102
{ACAD_REACTORS
330
1A
102
}
100
AcDbPlotSettings
  1

  2
none_device
  4
ANSI_C_(22.00_x_17.00_Inches)
  6

 40
0.0
 41
0.0
 42
0.0
 43
0.0
 44
558.8
 45
431.8
 46
0.0
 47
0.0
 48
0.0
 49
0.0
140
0.0
141
0.0
142
1.0
143
1.0
 70
1024
 72
1
 73
0
 74
0
  7

 75
0
147
1.0
148
0.0
149
0.0
100
AcDbLayout
  1
Model
 70
0
 71
0
 10
0.0
 20
0.0
 11
558.8
 21
431.8
 12
0.0
 22
0.0
 32
0.0
 14
0.0
 24
0.0
 34
0.0
 15
0.0
 25
0.0
 35
0.0
146
0.0
 13
0.0
 23
0.0
 33
0.0
 16
1.0
 26
0.0
 36
0.0
 17
0.0
 27
1.0
 37
0.0
 76
0
330
214
345
0
346
0
  0
LAYOUT
  5
325
102
{ACAD_REACTORS
330
1A
102
}
100
AcDbPlotSettings
  1

  2
none_device
  4
ANSI_C_(22.00_x_17.00_Inches)
  6

 40
0.0
 41
0.0
 42
0.0
 43
0.0
 44
558.8
 45
431.8
 46
0.0
 47
0.0
 48
0.0
 49
0.0
140
0.0
141
0.0
142
1.0
143
1.0
 70
0
 72
1
 73
0
 74
0
  7

 75
0
147
1.0
148
0.0
149
0.0
100
AcDbLayout
  1
Layout1
 70
0
 71
1
 10
0.0
 20
0.0
 11
558.8
 21
431.8
 12
0.0
 22
0.0
 32
0.0
 14
0.0
 24
0.0
 34
0.0
 15
0.0
 25
0.0
 35
0.0
146
0.0
 13
0.0
 23
0.0
 33
0.0
 16
1.0
 26
0.0
 36
0.0
 17
0.0
 27
1.0
 37
0.0
 76
0
330
215
345
0
346
0
  0
ENDSEC
  0
EOF
