  0
SECTION
  2
HEADER
  9
$ACADVER
  1
AC1021
  9
$DWGCODEPAGE
  3
ANSI_1252
  9
$EXTMAX
 10
558.8
 20
431.8
 30
0.0
  9
$EXTMIN
 10
0.0
 20
0.0
 30
0.0
  9
$LIMMIN
 10
0.0
 20
0.0
  9
$LIMMAX
 10
558.8
 20
431.8
  9
$VIEWCTR
 10
279.4
 20
215.9
  9
$VIEWSIZE
 40
431.8
  9
$CLAYER
  8
0
  9
$LTSCALE
 40
30.734
  9
$CELTYPE
  6
BYLAYER
  9
$DIMSCALE
 40
1.0
  9
$DIMASZ
 40
3.0
  9
$DIMEXO
 40
0.5
  9
$DIMDLI
 40
21.2344
  9
$DIMEXE
 40
1.5
  9
$DIMCEN
 40
5.0292
  9
$DIMLFAC
 40
1.0
  9
$DIMBLK
  1
_FILLED
  9
$DIMALT
 70
0
  9
$DIMALTF
 40
25.4
  9
$DIMTXT
 40
3.0
  9
$DIMTOL
 70
1
  9
$DIMLIM
 70
0
  9
$DIMTFAC
 40
1.0
  9
$DIMTP
 40
0.01
  9
$DIMTM
 40
0.01
  9
$DIMGAP
 40
0.625
  9
$DIMDSEP
 70
44
  9
$AUNITS
 70
0
  9
$PDMODE
 70
3
  9
$PDSIZE
 40
3.0
  9
$HANDSEED
  5
2F7
  9
$TILEMODE
 70
1
  9
$MEASUREMENT
 70
1
  9
$INSUNITS
 70
4
  0
ENDSEC
  0
SECTION
  2
CLASSES
  0
CLASS
  1
ACDBDICTIONARYWDFLT
  2
AcDbDictionaryWithDefault
  3
AutoCAD 2000
 90
0
 91
1
280
0
281
0
  0
CLASS
  1
ACDBPLACEHOLDER
  2
AcDbPlaceHolder
  3
AutoCAD 2000
 90
0
 91
1
280
0
281
0
  0
CLASS
  1
LAYOUT
  2
AcDbLayout
  3
AutoCAD 2000
 90
0
 91
0
280
0
281
0
  0
ENDSEC
  0
SECTION
  2
TABLES
  0
TABLE
  2
VPORT
  5
8
100
AcDbSymbolTable
 70
2
  0
VPORT
  5
1F4
100
AcDbSymbolTableRecord
100
AcDbViewportTableRecord
  2
*ACTIVE
 70
0
 10
0.0
 20
0.0
 11
1.0
 21
1.0
 12
279.4
 22
215.9
 13
0.0
 23
0.0
 14
1.0
 24
1.0
 15
0.0
 25
0.0
 16
0.0
 26
0.0
 36
1.0
 17
0.0
 27
0.0
 37
0.0
 40
431.8
 41
1.2941176471
 42
50.0
 43
0.0
 44
0.0
 50
0.0
 51
0.0
 71
0
 72
100
 73
1
 74
1
 75
0
 76
0
 77
0
 78
0
  0
ENDTAB
  0
TABLE
  2
LTYPE
  5
5
100
AcDbSymbolTable
 70
6
  0
LTYPE
  5
14
100
AcDbSymbolTableRecord
100
AcDbLinetypeTableRecord
  2
BYBLOCK
 70
0
  3

 72
65
 73
0
 40
0.0
  0
LTYPE
  5
15
100
AcDbSymbolTableRecord
100
AcDbLinetypeTableRecord
  2
BYLAYER
 70
0
  3

 72
65
 73
0
 40
0.0
  0
LTYPE
  5
16
100
AcDbSymbolTableRecord
100
AcDbLinetypeTableRecord
  2
CONTINUOUS
 70
64
  3
Solid line
 72
65
 73
0
 40
0.0
  0
LTYPE
  5
1F5
100
AcDbSymbolTableRecord
100
AcDbLinetypeTableRecord
  2
CENTER
 70
64
  3
____ _ ____ _ ____ _ ____ _ ____ _ ____ _ ____
 72
65
 73
4
 40
0.6
 49
0.375
 74
0
 49
-0.075
 74
0
 49
0.075
 74
0
 49
-0.075
 74
0
  0
LTYPE
  5
1F6
100
AcDbSymbolTableRecord
100
AcDbLinetypeTableRecord
  2
HIDDEN
 70
64
  3
- - - - - - - - - - - - - - - - - - - -
 72
65
 73
2
 40
0.2
 49
0.1
 74
0
 49
-0.1
 74
0
  0
LTYPE
  5
1F7
100
AcDbSymbolTableRecord
100
AcDbLinetypeTableRecord
  2
PHANTOM
 70
64
  3
_____ _ _ _____ _ _ _____ _ _ _____
 72
65
 73
6
 40
0.8
 49
0.45
 74
0
 49
-0.05
 74
0
 49
0.1
 74
0
 49
-0.05
 74
0
 49
0.1
 74
0
 49
-0.05
 74
0
  0
LTYPE
  5
1F8
100
AcDbSymbolTableRecord
100
AcDbLinetypeTableRecord
  2
DOT
 70
64
  3
. . . . . . . . . . . . . . . . . . . .
 72
65
 73
2
 40
0.2
 49
0.1
 74
0
 49
-0.1
 74
0
  0
LTYPE
  5
1F9
100
AcDbSymbolTableRecord
100
AcDbLinetypeTableRecord
  2
DASHED
 70
64
  3
- - - - - - - - - - - - - - - - - - - -
 72
65
 73
2
 40
0.2
 49
0.1
 74
0
 49
-0.1
 74
0
  0
ENDTAB
  0
TABLE
  2
LAYER
  5
2
100
AcDbSymbolTable
 70
36
  0
LAYER
  5
10
100
AcDbSymbolTableRecord
100
AcDbLayerTableRecord
  2
0
 70
0
 62
7
  6
CONTINUOUS
370
-3
390
F
  0
LAYER
  5
1FA
100
AcDbSymbolTableRecord
100
AcDbLayerTableRecord
  2
DEFAULT_1
 70
0
 62
7
  6
CENTER
370
-3
390
F
  0
LAYER
  5
1FB
100
AcDbSymbolTableRecord
100
AcDbLayerTableRecord
  2
DEFAULT_2
 70
0
 62
7
  6
HIDDEN
370
-3
390
F
  0
LAYER
  5
1FC
100
AcDbSymbolTableRecord
100
AcDbLayerTableRecord
  2
DEFAULT_3
 70
0
 62
7
  6
PHANTOM
370
-3
390
F
  0
LAYER
  5
1FD
100
AcDbSymbolTableRecord
100
AcDbLayerTableRecord
  2
ASSI
 70
0
 62
7
  6
CONTINUOUS
370
-3
390
F
  0
LAYER
  5
1FE
100
AcDbSymbolTableRecord
100
AcDbLayerTableRecord
  2
COORDINATE
 70
0
 62
7
  6
CONTINUOUS
370
-3
390
F
  0
LAYER
  5
1FF
100
AcDbSymbolTableRecord
100
AcDbLayerTableRecord
  2
COPY_PUBLISH
 70
0
 62
7
  6
CONTINUOUS
370
-3
390
F
  0
LAYER
  5
200
100
AcDbSymbolTableRecord
100
AcDbLayerTableRecord
  2
COSMETIC
 70
0
 62
7
  6
CONTINUOUS
370
-3
390
F
  0
LAYER
  5
201
100
AcDbSymbolTableRecord
100
AcDbLayerTableRecord
  2
COSMETICI
 70
0
 62
7
  6
CONTINUOUS
370
-3
390
F
  0
LAYER
  5
202
100
AcDbSymbolTableRecord
100
AcDbLayerTableRecord
  2
CURVE
 70
0
 62
7
  6
CONTINUOUS
370
-3
390
F
  0
LAYER
  5
203
100
AcDbSymbolTableRecord
100
AcDbLayerTableRecord
  2
DRAFT
 70
0
 62
7
  6
CONTINUOUS
370
-3
390
F
  0
LAYER
  5
204
100
AcDbSymbolTableRecord
100
AcDbLayerTableRecord
  2
IMPORT_IGES
 70
0
 62
7
  6
CONTINUOUS
370
-3
390
F
  0
LAYER
  5
205
100
AcDbSymbolTableRecord
100
AcDbLayerTableRecord
  2
INTF_1
 70
0
 62
7
  6
CONTINUOUS
370
-3
390
F
  0
LAYER
  5
206
100
AcDbSymbolTableRecord
100
AcDbLayerTableRecord
  2
NOTE
 70
0
 62
7
  6
CONTINUOUS
370
-3
390
F
  0
LAYER
  5
207
100
AcDbSymbolTableRecord
100
AcDbLayerTableRecord
  2
PIANI
 70
0
 62
7
  6
CONTINUOUS
370
-3
390
F
  0
LAYER
  5
208
100
AcDbSymbolTableRecord
100
AcDbLayerTableRecord
  2
PUNTI
 70
0
 62
7
  6
CONTINUOUS
370
-3
390
F
  0
LAYER
  5
209
100
AcDbSymbolTableRecord
100
AcDbLayerTableRecord
  2
RACCORDO
 70
0
 62
7
  6
CONTINUOUS
370
-3
390
F
  0
LAYER
  5
20A
100
AcDbSymbolTableRecord
100
AcDbLayerTableRecord
  2
RGB____0____0____0__
 70
0
 62
7
  6
CONTINUOUS
370
-3
390
F
  0
LAYER
  5
20B
100
AcDbSymbolTableRecord
100
AcDbLayerTableRecord
  2
SIMBOLI
 70
0
 62
7
  6
CONTINUOUS
370
-3
390
F
  0
LAYER
  5
20C
100
AcDbSymbolTableRecord
100
AcDbLayerTableRecord
  2
SMUSSO
 70
0
 62
7
  6
CONTINUOUS
370
-3
390
F
  0
LAYER
  5
20D
100
AcDbSymbolTableRecord
100
AcDbLayerTableRecord
  2
SNAPLINE
 70
0
 62
7
  6
CONTINUOUS
370
-3
390
F
  0
LAYER
  5
20E
100
AcDbSymbolTableRecord
100
AcDbLayerTableRecord
  2
SUPERFICI
 70
0
 62
7
  6
CONTINUOUS
370
-3
390
F
  0
LAYER
  5
20F
100
AcDbSymbolTableRecord
100
AcDbLayerTableRecord
  2
TRASH
 70
0
 62
7
  6
CONTINUOUS
370
-3
390
F
  0
ENDTAB
  0
TABLE
  2
STYLE
  5
3
100
AcDbSymbolTable
 70
1
  0
STYLE
  5
11
100
AcDbSymbolTableRecord
100
AcDbTextStyleTableRecord
  2
STANDARD
 70
0
 40
0.0
 41
0.8
 50
0.0
 71
0
 42
0.2
  3
txt
  4

  0
STYLE
  5
210
100
AcDbSymbolTableRecord
100
AcDbTextStyleTableRecord
  2
TEXTSTYLE_1
 70
0
 40
0.0
 41
0.8
 50
0.0
 71
0
 42
0.2
  3
gdt
  4

  0
ENDTAB
  0
TABLE
  2
VIEW
  5
6
100
AcDbSymbolTable
 70
0
  0
ENDTAB
  0
TABLE
  2
UCS
  5
7
100
AcDbSymbolTable
 70
0
  0
ENDTAB
  0
TABLE
  2
APPID
  5
9
100
AcDbSymbolTable
 70
1
  0
APPID
  5
211
100
AcDbSymbolTableRecord
100
AcDbRegAppTableRecord
  2
ACAD
 70
0
  0
ENDTAB
  0
TABLE
  2
BLOCK_RECORD
  5
1
100
AcDbSymbolTable
 70
0
  0
BLOCK_RECORD
  5
212
100
AcDbSymbolTableRecord
100
AcDbBlockTableRecord
  2
*Model_Space
  0
BLOCK_RECORD
  5
213
100
AcDbSymbolTableRecord
100
AcDbBlockTableRecord
  2
*Paper_Space
  0
BLOCK_RECORD
  5
214
100
AcDbSymbolTableRecord
100
AcDbBlockTableRecord
  2
_FILLED
  0
BLOCK_RECORD
  5
215
100
AcDbSymbolTableRecord
100
AcDbBlockTableRecord
  2
*D0
  0
BLOCK_RECORD
  5
216
100
AcDbSymbolTableRecord
100
AcDbBlockTableRecord
  2
*D1
  0
BLOCK_RECORD
  5
217
100
AcDbSymbolTableRecord
100
AcDbBlockTableRecord
  2
*D2
  0
ENDTAB
  0
TABLE
  2
DIMSTYLE
  5
A
100
AcDbSymbolTable
 70
1
100
AcDbDimStyleTable
 71
0
  0
DIMSTYLE
105
218
100
AcDbSymbolTableRecord
100
AcDbDimStyleTableRecord
  2
STANDARD
 70
0
  3

  4

 40
1.0
 41
3.0
 42
0.5
 43
0.38
 44
1.5
 45
0.0
 46
0.0
 47
0.01
 48
0.01
140
3.0
141
0.09
142
0.0
143
25.4
144
1.0
145
0.0
146
1.0
147
0.625
 71
1.0
 72
0.0
 73
0
 74
0
 75
0
 76
0
 77
1
 78
8
170
0
171
1
172
0
173
0
174
0
175
0
176
0
177
0
178
0
270
2
271
2
272
2
273
2
274
2
275
0
280
0
281
0
282
0
283
1
284
8
285
0
286
0
287
3
288
0
340
11
278
44
341
214
342
214
343
214
344
214
  0
DIMSTYLE
105
219
100
AcDbSymbolTableRecord
100
AcDbDimStyleTableRecord
  2
DIMSTYLE_1
 70
0
  3

  4

 40
1.0
 41
3.0
 42
0.5
 43
0.38
 44
1.5
 45
0.0
 46
0.0
 47
0.0
 48
0.0
140
3.0
141
0.09
142
0.0
143
25.4
144
1.0
145
0.0
146
1.0
147
0.75
 71
0.0
 72
0.0
 73
0
 74
0
 75
0
 76
0
 77
1
 78
8
170
0
171
1
172
0
173
0
174
0
175
0
176
0
177
0
178
0
270
2
271
2
272
2
273
2
274
2
275
0
280
0
281
0
282
0
283
1
284
8
285
0
286
0
287
3
288
0
340
11
278
44
341
214
342
214
343
214
344
214
  0
ENDTAB
  0
ENDSEC
  0
SECTION
  2
BLOCKS
  0
BLOCK
  5
20
100
AcDbEntity
  8
0
100
AcDbBlockBegin
  2
*Model_Space
 70
0
 10
0.0
 20
0.0
 30
0.0
  3
*Model_Space
  1

  0
ENDBLK
  5
21
100
AcDbEntity
  8
0
100
AcDbBlockEnd
  0
BLOCK
  5
1C
100
AcDbEntity
  8
0
100
AcDbBlockBegin
  2
*Paper_Space
 70
0
 10
0.0
 20
0.0
 30
0.0
  3
*Paper_Space
  1

  0
ENDBLK
  5
1D
100
AcDbEntity
  8
0
100
AcDbBlockEnd
  0
BLOCK
  5
21A
100
AcDbEntity
  8
0
100
AcDbBlockBegin
  2
_FILLED
 70
64
 10
0.0
 20
0.0
  3
_FILLED
  1

  0
SOLID
  5
21B
100
AcDbEntity
  8
0
  6
BYBLOCK
 62
0
100
AcDbTrace
 10
0.0
 20
0.0
 11
-1.0
 21
0.3166666667
 12
-1.0
 22
-0.3166666667
 13
-1.0
 23
-0.3166666667
  0
ENDBLK
  5
21C
100
AcDbEntity
  8
0
  6
BYBLOCK
 62
0
100
AcDbBlockEnd
  0
BLOCK
  5
21D
100
AcDbEntity
  8
0
100
AcDbBlockBegin
 62
7
  6
CONTINUOUS
  2
*D0
 70
65
 10
0.0
 20
0.0
  3
*D0
  1

  0
MTEXT
  5
21E
100
AcDbEntity
  8
0
100
AcDbMText
 62
7
  6
CONTINUOUS
  7
STANDARD
 71
2
 72
1
 10
-0.0
 20
101.25
 30
0.0
 11
1.0
 21
0.0
 31
0.0
 44
0.9
  1
220
 40
3.0
 41
10.6071428571
  0
LINE
  5
21F
100
AcDbEntity
  8
0
100
AcDbLine
 62
7
  6
CONTINUOUS
 10
110.0
 20
80.0
 11
110.0
 21
99.0
  0
LINE
  5
220
100
AcDbEntity
  8
0
100
AcDbLine
 62
7
  6
CONTINUOUS
 10
-110.0
 20
80.0
 11
-110.0
 21
99.0
  0
LINE
  5
221
100
AcDbEntity
  8
0
100
AcDbLine
 62
7
  6
CONTINUOUS
 10
110.0
 20
97.5
 11
-0.0
 21
97.5
  0
LINE
  5
222
100
AcDbEntity
  8
0
100
AcDbLine
 62
7
  6
CONTINUOUS
 10
-110.0
 20
97.5
 11
-0.0
 21
97.5
  0
INSERT
  5
223
100
AcDbEntity
  8
0
100
AcDbBlockReference
 62
7
  6
CONTINUOUS
  2
_FILLED
 10
110.0
 20
97.5
 41
3.0
 42
3.0
 43
3.0
  0
INSERT
  5
224
100
AcDbEntity
  8
0
100
AcDbBlockReference
 62
7
  6
CONTINUOUS
  2
_FILLED
 10
-110.0
 20
97.5
 41
3.0
 42
3.0
 43
3.0
 50
180.0
  0
ENDBLK
  5
225
100
AcDbEntity
  8
0
  6
BYBLOCK
 62
0
100
AcDbBlockEnd
  0
BLOCK
  5
226
100
AcDbEntity
  8
0
100
AcDbBlockBegin
 62
7
  6
CONTINUOUS
  2
*D1
 70
65
 10
0.0
 20
0.0
  3
*D1
  1

  0
MTEXT
  5
227
100
AcDbEntity
  8
0
100
AcDbMText
 62
7
  6
CONTINUOUS
  7
STANDARD
 71
2
 72
1
 10
114.25
 20
0.0
 30
0.0
 11
0.0
 21
1.0
 31
0.0
 44
0.9
  1
179
 40
3.0
 41
9.6428571429
  0
LINE
  5
228
100
AcDbEntity
  8
0
100
AcDbLine
 62
7
  6
CONTINUOUS
 10
100.5
 20
89.5
 11
119.5
 21
89.5
  0
LINE
  5
229
100
AcDbEntity
  8
0
100
AcDbLine
 62
7
  6
CONTINUOUS
 10
100.5
 20
-89.5
 11
119.5
 21
-89.5
  0
LINE
  5
22A
100
AcDbEntity
  8
0
100
AcDbLine
 62
7
  6
CONTINUOUS
 10
118.0
 20
89.5
 11
118.0
 21
0.0
  0
LINE
  5
22B
100
AcDbEntity
  8
0
100
AcDbLine
 62
7
  6
CONTINUOUS
 10
118.0
 20
-89.5
 11
118.0
 21
0.0
  0
INSERT
  5
22C
100
AcDbEntity
  8
0
100
AcDbBlockReference
 62
7
  6
CONTINUOUS
  2
_FILLED
 10
118.0
 20
89.5
 41
3.0
 42
3.0
 43
3.0
 50
90.0
  0
INSERT
  5
22D
100
AcDbEntity
  8
0
100
AcDbBlockReference
 62
7
  6
CONTINUOUS
  2
_FILLED
 10
118.0
 20
-89.5
 41
3.0
 42
3.0
 43
3.0
 50
270.0
  0
ENDBLK
  5
22E
100
AcDbEntity
  8
0
  6
BYBLOCK
 62
0
100
AcDbBlockEnd
  0
BLOCK
  5
22F
100
AcDbEntity
  8
0
100
AcDbBlockBegin
 62
7
  6
CONTINUOUS
  2
*D2
 70
65
 10
0.0
 20
0.0
  3
*D2
  1

  0
MTEXT
  5
230
100
AcDbEntity
  8
0
100
AcDbMText
 62
7
  6
CONTINUOUS
  7
STANDARD
 71
1
 72
1
 10
-171.2545975457
 20
101.25
 30
0.0
 11
1.0
 21
0.0
 31
0.0
 44
0.9
  1
4,5
 40
3.0
 41
9.3214285714
  0
LINE
  5
231
100
AcDbEntity
  8
0
100
AcDbLine
 62
7
  6
CONTINUOUS
 10
-176.5685746187
 20
90.0
 11
-176.5685746187
 21
99.0
  0
LINE
  5
232
100
AcDbEntity
  8
0
100
AcDbLine
 62
7
  6
CONTINUOUS
 10
-181.0685746187
 20
87.9999999745
 11
-181.0685746187
 21
99.0
  0
LINE
  5
233
100
AcDbEntity
  8
0
100
AcDbLine
 62
7
  6
CONTINUOUS
 10
-176.5685746187
 20
97.5
 11
-165.0403118314
 21
97.5
  0
LINE
  5
234
100
AcDbEntity
  8
0
100
AcDbLine
 62
7
  6
CONTINUOUS
 10
-165.0403118314
 20
97.5
 11
-178.8185746187
 21
97.5
  0
LINE
  5
235
100
AcDbEntity
  8
0
100
AcDbLine
 62
7
  6
CONTINUOUS
 10
-181.0685746187
 20
97.5
 11
-185.0685746187
 21
97.5
  0
LINE
  5
236
100
AcDbEntity
  8
0
100
AcDbLine
 62
7
  6
CONTINUOUS
 10
-185.0685746187
 20
97.5
 11
-178.8185746187
 21
97.5
  0
INSERT
  5
237
100
AcDbEntity
  8
0
100
AcDbBlockReference
 62
7
  6
CONTINUOUS
  2
_FILLED
 10
-176.5685746187
 20
97.5
 41
3.0
 42
3.0
 43
3.0
 50
180.0
  0
INSERT
  5
238
100
AcDbEntity
  8
0
100
AcDbBlockReference
 62
7
  6
CONTINUOUS
  2
_FILLED
 10
-181.0685746187
 20
97.5
 41
3.0
 42
3.0
 43
3.0
  0
ENDBLK
  5
239
100
AcDbEntity
  8
0
  6
BYBLOCK
 62
0
100
AcDbBlockEnd
  0
ENDSEC
  0
SECTION
  2
ENTITIES
  0
DIMENSION
  5
23A
100
AcDbEntity
  8
0
100
AcDbDimension
 62
7
  6
CONTINUOUS
  2
*D0
 10
-110.0
 20
97.5
 11
-0.4285713332
 21
97.5
 70
160
 71
2
 42
220.0
  3
DIMSTYLE_1
100
AcDbAlignedDimension
 13
110.0
 23
79.5
 14
-110.0
 24
79.5
 50
180.0
100
AcDbRotatedDimension
  0
DIMENSION
  5
23B
100
AcDbEntity
  8
0
100
AcDbDimension
 62
7
  6
CONTINUOUS
  2
*D1
 10
118.0
 20
-89.5
 11
118.0
 21
-0.4285699245
 70
160
 71
2
 42
179.0
  3
DIMSTYLE_1
100
AcDbAlignedDimension
 13
100.0
 23
89.5
 14
100.0
 24
-89.5
 50
270.0
100
AcDbRotatedDimension
  0
DIMENSION
  5
23C
100
AcDbEntity
  8
0
100
AcDbDimension
 62
7
  6
CONTINUOUS
  2
*D2
 10
-181.0685746187
 20
97.5
 11
-168.5760258118
 21
97.5
 70
160
 71
1
 42
4.5
  3
DIMSTYLE_1
100
AcDbAlignedDimension
 13
-176.5685746187
 23
89.5
 14
-181.0685746187
 24
87.4999999745
 50
180.0
100
AcDbRotatedDimension
  0
LINE
  5
23D
100
AcDbEntity
  8
RACCORDO
100
AcDbLine
 62
7
  6
CONTINUOUS
 10
-110.0
 20
79.5
 11
-110.0
 21
-79.5
  0
LINE
  5
23E
100
AcDbEntity
  8
RACCORDO
100
AcDbLine
 62
250
  6
CONTINUOUS
 10
-108.0
 20
79.5
 11
-108.0
 21
-79.5
  0
LINE
  5
23F
100
AcDbEntity
  8
RACCORDO
100
AcDbLine
 62
250
  6
CONTINUOUS
 10
-100.0
 20
-87.5
 11
-100.0
 21
-89.5
  0
LINE
  5
240
100
AcDbEntity
  8
RACCORDO
100
AcDbLine
 62
250
  6
CONTINUOUS
 10
-100.0
 20
87.5
 11
-100.0
 21
89.5
  0
LINE
  5
241
100
AcDbEntity
  8
RACCORDO
100
AcDbLine
 62
7
  6
CONTINUOUS
 10
-100.0
 20
-89.5
 11
100.0
 21
-89.5
  0
LINE
  5
242
100
AcDbEntity
  8
RACCORDO
100
AcDbLine
 62
250
  6
CONTINUOUS
 10
-100.0
 20
-87.5
 11
100.0
 21
-87.5
  0
LINE
  5
243
100
AcDbEntity
  8
0
100
AcDbLine
 62
7
  6
CONTINUOUS
 10
-6.0
 20
-86.0
 11
6.0
 21
-86.0
  0
LINE
  5
244
100
AcDbEntity
  8
0
100
AcDbLine
 62
7
  6
CONTINUOUS
 10
2.3709750891
 20
-79.6678035706
 11
1.9777623057
 21
-79.701091446
  0
LINE
  5
245
100
AcDbEntity
  8
0
100
AcDbLine
 62
7
  6
CONTINUOUS
 10
0.0012957633
 20
-79.6678035706
 11
-0.3919170201
 21
-79.701091446
  0
LWPOLYLINE
  5
246
100
AcDbEntity
  8
0
100
AcDbPolyline
 62
7
  6
CONTINUOUS
 90
16
 70
0
 10
2.9576735854
 20
-80.5520122768
 10
3.0310488076
 20
-80.5495257392
 10
3.1007223204
 20
-80.5437788736
 10
3.1666941237
 20
-80.5347716802
 10
3.2285701191
 20
-80.5223792985
 10
3.286744405
 20
-80.506726589
 10
3.3423992766
 20
-80.4881881328
 10
3.3956637794
 20
-80.4669411862
 10
3.4464088679
 20
-80.442808493
 10
3.4954297005
 20
-80.4156328646
 10
3.5428228147
 20
-80.3855849148
 10
3.588491673
 20
-80.3524940299
 10
3.6329418217
 20
-80.3156911804
 10
3.6763417763
 20
-80.2749533567
 10
3.7185230213
 20
-80.2305035684
 10
3.7594855568
 20
-80.1823418156
  0
LWPOLYLINE
  5
247
100
AcDbEntity
  8
0
100
AcDbPolyline
 62
7
  6
CONTINUOUS
 90
16
 70
0
 10
0.5879942596
 20
-80.5520122768
 10
0.6613693758
 20
-80.5495257435
 10
0.731042801
 20
-80.5437788822
 10
0.797014535
 20
-80.5347716931
 10
0.8588904827
 20
-80.5223793162
 10
0.9170647393
 20
-80.5067266114
 10
0.9727195904
 20
-80.4881881581
 10
1.0259840802
 20
-80.4669412121
 10
1.0767291645
 20
-80.4428085175
 10
1.1257499961
 20
-80.4156328865
 10
1.173143112
 20
-80.385584932
 10
1.2188119752
 20
-80.352494041
 10
1.2632621282
 20
-80.3156911866
 10
1.3066620849
 20
-80.2749533597
 10
1.3488433313
 20
-80.2305035693
 10
1.3898058674
 20
-80.1823418156
  0
LWPOLYLINE
  5
248
100
AcDbEntity
  8
0
100
AcDbPolyline
 62
7
  6
CONTINUOUS
 90
16
 70
0
 10
-1.8961121321
 20
-79.2600272566
 10
-1.7868610238
 20
-79.257214791
 10
-1.6863699817
 20
-79.251479653
 10
-1.5946390057
 20
-79.2428218425
 10
-1.5123659991
 20
-79.2308743235
 10
-1.4388530586
 20
-79.2160041322
 10
-1.3720064745
 20
-79.1993123767
 10
-1.3117252941
 20
-79.180929859
 10
-1.2581104701
 20
-79.1607257773
 10
-1.2093711513
 20
-79.139408834
 10
-1.1654169232
 20
-79.1171570528
 10
-1.1263382003
 20
-79.0937924101
 10
-1.0906153748
 20
-79.0694895375
 10
-1.0577419109
 20
-79.0443066457
 10
-1.0282243444
 20
-79.0181855241
 10
-1.0020626753
 20
-78.9911261727
  0
LWPOLYLINE
  5
249
100
AcDbEntity
  8
0
100
AcDbPolyline
 62
7
  6
CONTINUOUS
 90
13
 70
0
 10
3.0512961268
 20
-78.4777625948
 10
3.0032712915
 20
-78.4789721626
 10
2.9555208446
 20
-78.4826628142
 10
2.9080447861
 20
-78.4888345495
 10
2.8610100898
 20
-78.497396658
 10
2.814249782
 20
-78.5084398503
 10
2.7672629415
 20
-78.5222362581
 10
2.7200523343
 20
-78.5386620975
 10
2.6726151944
 20
-78.5578411525
 10
2.6244423022
 20
-78.5804169074
 10
2.575363918
 20
-78.6066038568
 10
2.5255497815
 20
-78.6361875062
 10
2.4749998927
 20
-78.6691678554
  0
LWPOLYLINE
  5
24A
100
AcDbEntity
  8
0
100
AcDbPolyline
 62
7
  6
CONTINUOUS
 90
13
 70
0
 10
0.6816164374
 20
-78.4777625948
 10
0.633591943
 20
-78.4789721448
 10
0.5858417752
 20
-78.4826627735
 10
0.5383659341
 20
-78.4888344808
 10
0.4913313929
 20
-78.4973965512
 10
0.4445711784
 20
-78.5084397002
 10
0.3975843707
 20
-78.5222360744
 10
0.3503737383
 20
-78.538661889
 10
0.3029365126
 20
-78.5578409288
 10
0.2547634688
 20
-78.5804166952
 10
0.2056848651
 20
-78.6066036887
 10
0.1558704433
 20
-78.6361874087
 10
0.1053202033
 20
-78.6691678554
  0
LINE
  5
24B
100
AcDbEntity
  8
0
100
AcDbLine
 62
7
  6
CONTINUOUS
 10
-4.1971353002
 20
-80.5
 11
-3.7935200274
 21
-80.5
  0
LINE
  5
24C
100
AcDbEntity
  8
0
100
AcDbLine
 62
7
  6
CONTINUOUS
 10
-3.0819921121
 20
-80.5
 11
-2.6783767939
 21
-80.5
  0
LINE
  5
24D
100
AcDbEntity
  8
RACCORDO
100
AcDbLine
 62
250
  6
CONTINUOUS
 10
108.0
 20
-79.5
 11
110.0
 21
-79.5
  0
LINE
  5
24E
100
AcDbEntity
  8
RACCORDO
100
AcDbLine
 62
250
  6
CONTINUOUS
 10
-108.0
 20
-79.5
 11
-110.0
 21
-79.5
  0
LINE
  5
24F
100
AcDbEntity
  8
0
100
AcDbLine
 62
7
  6
CONTINUOUS
 10
-2.6783767939
 20
-79.2600272566
 11
-1.8961121321
 21
-79.2600272566
  0
LINE
  5
250
100
AcDbEntity
  8
0
100
AcDbLine
 62
7
  6
CONTINUOUS
 10
-1.889870593
 20
-78.9001022577
 11
-2.6783767939
 21
-78.9001022577
  0
LINE
  5
251
100
AcDbEntity
  8
0
100
AcDbLine
 62
7
  6
CONTINUOUS
 10
0.2696792185
 20
-77.8494543225
 11
1.4867664397
 21
-77.8494543225
  0
LINE
  5
252
100
AcDbEntity
  8
0
100
AcDbLine
 62
7
  6
CONTINUOUS
 10
2.6393585443
 20
-77.8494543225
 11
3.8564457655
 21
-77.8494543225
  0
LINE
  5
253
100
AcDbEntity
  8
0
100
AcDbLine
 62
7
  6
CONTINUOUS
 10
-2.6783767939
 20
-77.8099249989
 11
-1.8981925845
 21
-77.8099249989
  0
LINE
  5
254
100
AcDbEntity
  8
0
100
AcDbLine
 62
7
  6
CONTINUOUS
 10
3.8564457655
 20
-77.491609776
 11
2.3397675753
 21
-77.491609776
  0
LINE
  5
255
100
AcDbEntity
  8
0
100
AcDbLine
 62
7
  6
CONTINUOUS
 10
1.4867664397
 20
-77.491609776
 11
-0.0299117506
 21
-77.491609776
  0
LINE
  5
256
100
AcDbEntity
  8
0
100
AcDbLine
 62
7
  6
CONTINUOUS
 10
-1.9314805508
 20
-77.45
 11
-3.0819921121
 21
-77.45
  0
LINE
  5
257
100
AcDbEntity
  8
0
100
AcDbLine
 62
7
  6
CONTINUOUS
 10
-3.7935200274
 20
-77.45
 11
-4.1971353002
 21
-77.45
  0
LINE
  5
258
100
AcDbEntity
  8
0
100
AcDbLine
 62
7
  6
CONTINUOUS
 10
6.0
 20
-76.0
 11
-6.0
 21
-76.0
  0
LWPOLYLINE
  5
259
100
AcDbEntity
  8
0
100
AcDbPolyline
 62
7
  6
CONTINUOUS
 90
10
 70
0
 10
-1.8981925845
 20
-77.8099249989
 10
-1.8331579279
 20
-77.8105666275
 10
-1.7742548666
 20
-77.8118988661
 10
-1.7214834005
 20
-77.8139217146
 10
-1.6752731348
 20
-77.816714462
 10
-1.6351944643
 20
-77.8201978193
 10
-1.5999585737
 20
-77.8241339199
 10
-1.569135858
 20
-77.8284434748
 10
-1.5431559222
 20
-77.8332057728
 10
-1.5220187663
 20
-77.8384208141
  0
LWPOLYLINE
  5
25A
100
AcDbEntity
  8
0
100
AcDbPolyline
 62
7
  6
CONTINUOUS
 90
13
 70
0
 10
0.5879942596
 20
-80.2440996002
 10
0.548674542
 20
-80.2427734851
 10
0.5109372267
 20
-80.2395011414
 10
0.4747823135
 20
-80.2342825691
 10
0.4403848789
 20
-80.2270847181
 10
0.4075698465
 20
-80.2179406384
 10
0.3758119872
 20
-80.2069494802
 10
0.3450588773
 20
-80.1942134257
 10
0.3153629405
 20
-80.1796302926
 10
0.2863562186
 20
-80.1629926845
 10
0.2579160589
 20
-80.1442314693
 10
0.2301651143
 20
-80.123415779
 10
0.2031033845
 20
-80.1005456138
  0
LWPOLYLINE
  5
25B
100
AcDbEntity
  8
0
100
AcDbPolyline
 62
7
  6
CONTINUOUS
 90
13
 70
0
 10
2.9576735854
 20
-80.2440996002
 10
2.9183538392
 20
-80.2427734822
 10
2.8806165021
 20
-80.2395011339
 10
2.8444615743
 20
-80.2342825555
 10
2.8100641326
 20
-80.2270846963
 10
2.7772491001
 20
-80.2179406069
 10
2.7454912464
 20
-80.2069494389
 10
2.7147381476
 20
-80.1942133747
 10
2.6850422277
 20
-80.1796302318
 10
2.656035528
 20
-80.1629926148
 10
2.6275953957
 20
-80.1442313918
 10
2.5998444837
 20
-80.1234156947
 10
2.5727827919
 20
-80.1005455234
  0
LWPOLYLINE
  5
25C
100
AcDbEntity
  8
0
100
AcDbPolyline
 62
7
  6
CONTINUOUS
 90
13
 70
0
 10
0.5817529023
 20
-78.8085607141
 10
0.6339050009
 20
-78.8105355452
 10
0.6831784335
 20
-78.8150273544
 10
0.7295731999
 20
-78.8220361419
 10
0.7727447508
 20
-78.8316440398
 10
0.8130376357
 20
-78.843768916
 10
0.8514855028
 20
-78.8581643737
 10
0.8882133361
 20
-78.8746555539
 10
0.9230961518
 20
-78.8934173157
 10
0.9567926463
 20
-78.9147278393
 10
0.9895223852
 20
-78.9386798516
 10
1.021065803
 20
-78.9651806257
 10
1.0514228997
 20
-78.9942301617
  0
LWPOLYLINE
  5
25D
100
AcDbEntity
  8
0
100
AcDbPolyline
 62
7
  6
CONTINUOUS
 90
13
 70
0
 10
2.9514322281
 20
-78.8085607141
 10
3.0035843267
 20
-78.8105355452
 10
3.0528577593
 20
-78.8150273544
 10
3.0992525258
 20
-78.8220361419
 10
3.1424240767
 20
-78.8316440398
 10
3.1827169615
 20
-78.843768916
 10
3.2211648286
 20
-78.8581643737
 10
3.2578926619
 20
-78.8746555539
 10
3.2927754776
 20
-78.8934173157
 10
3.3264719721
 20
-78.9147278393
 10
3.359201711
 20
-78.9386798516
 10
3.3907451288
 20
-78.9651806257
 10
3.4211022255
 20
-78.9942301617
  0
LINE
  5
25E
100
AcDbEntity
  8
0
100
AcDbLine
 62
7
  6
CONTINUOUS
 10
-0.3253414512
 20
-79.0582196429
 11
0.0262615561
 21
-79.1039904147
  0
LINE
  5
25F
100
AcDbEntity
  8
0
100
AcDbLine
 62
7
  6
CONTINUOUS
 10
2.0443382382
 20
-79.0582196429
 11
2.3959412456
 21
-79.1039904147
  0
LWPOLYLINE
  5
260
100
AcDbEntity
  8
0
100
AcDbPolyline
 62
7
  6
CONTINUOUS
 90
10
 70
0
 10
-1.467463931
 20
-77.4787355656
 10
-1.5015273291
 20
-77.4733003632
 10
-1.5397574389
 20
-77.4683789361
 10
-1.5821542603
 20
-77.4639712843
 10
-1.6284420742
 20
-77.4600149875
 10
-1.6788965997
 20
-77.456572466
 10
-1.7343449944
 20
-77.4538309805
 10
-1.7950629774
 20
-77.4518529511
 10
-1.8607748295
 20
-77.4505759576
 10
-1.9314805508
 20
-77.45
  0
LWPOLYLINE
  5
261
100
AcDbEntity
  8
0
100
AcDbPolyline
 62
7
  6
CONTINUOUS
 90
13
 70
0
 10
-1.5220187663
 20
-77.8384208141
 10
-1.4962069586
 20
-77.8461148066
 10
-1.4713530185
 20
-77.855045814
 10
-1.4474569462
 20
-77.8652138361
 10
-1.4245987875
 20
-77.8765821248
 10
-1.4026984965
 20
-77.8891874283
 10
-1.3815159351
 20
-77.903139991
 10
-1.3610158261
 20
-77.918380051
 10
-1.3412334468
 20
-77.9349673701
 10
-1.3220344911
 20
-77.9531914777
 10
-1.3033741903
 20
-77.9731488835
 10
-1.2852973132
 20
-77.9947430779
 10
-1.2678038597
 20
-78.0179740608
  0
LWPOLYLINE
  5
262
100
AcDbEntity
  8
0
100
AcDbPolyline
 62
7
  6
CONTINUOUS
 90
10
 70
0
 10
-1.0913036754
 20
-77.6231705314
 10
-1.1223394351
 20
-77.602305299
 10
-1.1558148765
 20
-77.5825949569
 10
-1.1917299996
 20
-77.5640395051
 10
-1.2297511051
 20
-77.5465731631
 10
-1.2702118923
 20
-77.5302617113
 10
-1.3141134588
 20
-77.5153024916
 10
-1.3617895036
 20
-77.5017612843
 10
-1.4129063277
 20
-77.489572309
 10
-1.467463931
 20
-77.4787355656
  0
LWPOLYLINE
  5
263
100
AcDbEntity
  8
0
100
AcDbPolyline
 62
7
  6
CONTINUOUS
 90
13
 70
0
 10
-0.0928437804
 20
-80.3195786649
 10
-0.0510898521
 20
-80.3544536333
 10
-0.0072262026
 20
-80.3865553408
 10
0.0387471679
 20
-80.4158837876
 10
0.086500494
 20
-80.4424181885
 10
0.1363635412
 20
-80.4661793286
 10
0.1893256066
 20
-80.487229563
 10
0.2452039269
 20
-80.5057642835
 10
0.3041812655
 20
-80.5215880983
 10
0.3677952093
 20
-80.534177187
 10
0.4365582874
 20
-80.543356943
 10
0.5099579709
 20
-80.5493019729
 10
0.5879942596
 20
-80.5520122768
  0
LWPOLYLINE
  5
264
100
AcDbEntity
  8
0
100
AcDbPolyline
 62
7
  6
CONTINUOUS
 90
13
 70
0
 10
2.2768357484
 20
-80.3195788449
 10
2.3185896097
 20
-80.3544537595
 10
2.3624532039
 20
-80.3865554233
 10
2.4084265309
 20
-80.4158838362
 10
2.4561798263
 20
-80.4424182153
 10
2.5060428545
 20
-80.4661793435
 10
2.5590049087
 20
-80.48722957
 10
2.614883227
 20
-80.5057642856
 10
2.6738605713
 20
-80.5215880994
 10
2.7374745213
 20
-80.5341771877
 10
2.8062376036
 20
-80.5433569428
 10
2.8796372917
 20
-80.5493019725
 10
2.9576735854
 20
-80.5520122768
  0
LWPOLYLINE
  5
265
100
AcDbEntity
  8
0
100
AcDbPolyline
 62
7
  6
CONTINUOUS
 90
13
 70
0
 10
0.2031033845
 20
-80.1005456138
 10
0.181085018
 20
-80.0797064013
 10
0.1599235111
 20
-80.0566136804
 10
0.1396188637
 20
-80.031267451
 10
0.1201460847
 20
-80.0039694123
 10
0.1015301653
 20
-79.9744178651
 10
0.0838460792
 20
-79.9417077125
 10
0.0669767527
 20
-79.905889193
 10
0.0510392595
 20
-79.8669120681
 10
0.0364597945
 20
-79.8237205247
 10
0.0233804226
 20
-79.7759626252
 10
0.0116590788
 20
-79.7239903072
 10
0.0012957633
 20
-79.6678035706
  0
LWPOLYLINE
  5
266
100
AcDbEntity
  8
0
100
AcDbPolyline
 62
7
  6
CONTINUOUS
 90
13
 70
0
 10
2.5727827919
 20
-80.1005455234
 10
2.5507644329
 20
-80.0797062848
 10
2.5296029269
 20
-80.0566135359
 10
2.5092982741
 20
-80.0312672764
 10
2.4898254798
 20
-80.0039691986
 10
2.4712095387
 20
-79.9744176103
 10
2.4535254342
 20
-79.9417074355
 10
2.4366560961
 20
-79.9058889208
 10
2.4207185946
 20
-79.8669118196
 10
2.4061391238
 20
-79.8237203156
 10
2.3930597482
 20
-79.7759624701
 10
2.3813384033
 20
-79.7239902217
 10
2.3709750891
 20
-79.6678035706
  0
LWPOLYLINE
  5
267
100
AcDbEntity
  8
0
100
AcDbPolyline
 62
7
  6
CONTINUOUS
 90
16
 70
0
 10
1.3551760643
 20
-78.7549857173
 10
1.3165108397
 20
-78.7182596193
 10
1.2772923924
 20
-78.6843957336
 10
1.2375207224
 20
-78.6533940602
 10
1.1973062389
 20
-78.6254035353
 10
1.1565385327
 20
-78.6002752226
 10
1.1148863764
 20
-78.5775623136
 10
1.0723897699
 20
-78.5571656301
 10
1.0290087134
 20
-78.5391843503
 10
0.9842919798
 20
-78.5234691998
 10
0.9382900296
 20
-78.5099224901
 10
0.8909524025
 20
-78.4986419098
 10
0.8416764904
 20
-78.4897712509
 10
0.7902614243
 20
-78.4833584441
 10
0.7369080733
 20
-78.4793555587
 10
0.6816164374
 20
-78.4777625948
  0
LWPOLYLINE
  5
268
100
AcDbEntity
  8
0
100
AcDbPolyline
 62
7
  6
CONTINUOUS
 90
16
 70
0
 10
3.7248554802
 20
-78.7549859903
 10
3.6861902353
 20
-78.7182598383
 10
3.6469717713
 20
-78.6843959052
 10
3.6072000881
 20
-78.653394191
 10
3.5669855943
 20
-78.6254036324
 10
3.5262178815
 20
-78.6002752926
 10
3.484565724
 20
-78.5775623613
 10
3.4420691217
 20
-78.5571656604
 10
3.3986880748
 20
-78.539184368
 10
3.3539713588
 20
-78.5234692083
 10
3.3079694338
 20
-78.5099224926
 10
3.2606318397
 20
-78.4986419096
 10
3.2113559724
 20
-78.4897712493
 10
3.1599409637
 20
-78.4833584417
 10
3.1065876819
 20
-78.4793555569
 10
3.0512961268
 20
-78.4777625948
  0
LWPOLYLINE
  5
269
100
AcDbEntity
  8
0
100
AcDbPolyline
 62
7
  6
CONTINUOUS
 90
13
 70
0
 10
1.0514228997
 20
-78.9942301617
 10
1.0783571944
 20
-79.0236558431
 10
1.1031927125
 20
-79.054864556
 10
1.1259294541
 20
-79.0878563002
 10
1.1465539293
 20
-79.1223538753
 10
1.165079628
 20
-79.1586344818
 10
1.1815470191
 20
-79.1975297213
 10
1.1961274196
 20
-79.2388793094
 10
1.2086495126
 20
-79.2828435304
 10
1.2186398167
 20
-79.3307348387
 10
1.225940505
 20
-79.382990719
 10
1.2307094044
 20
-79.4391736866
 10
1.2329465151
 20
-79.4992837414
  0
LWPOLYLINE
  5
26A
100
AcDbEntity
  8
0
100
AcDbPolyline
 62
7
  6
CONTINUOUS
 90
13
 70
0
 10
3.4211022255
 20
-78.9942301617
 10
3.4480365928
 20
-79.0236559243
 10
3.4728721756
 20
-79.0548647121
 10
3.495608974
 20
-79.0878565252
 10
3.5162334987
 20
-79.1223541687
 10
3.5347592391
 20
-79.1586348374
 10
3.5512266627
 20
-79.1975301162
 10
3.5658070842
 20
-79.2388797196
 10
3.5783291891
 20
-79.2828439331
 10
3.5883195012
 20
-79.330735198
 10
3.5956201951
 20
-79.3829909945
 10
3.6003890962
 20
-79.4391738423
 10
3.6026262045
 20
-79.4992837414
  0
LWPOLYLINE
  5
26B
100
AcDbEntity
  8
0
100
AcDbPolyline
 62
7
  6
CONTINUOUS
 90
10
 70
0
 10
-1.2678038597
 20
-78.0179740608
 10
-1.2479200924
 20
-78.048237321
 10
-1.2302703597
 20
-78.0797908875
 10
-1.2148546614
 20
-78.1126347602
 10
-1.2016453836
 20
-78.1464794262
 10
-1.1906701403
 20
-78.1816143985
 10
-1.1820117737
 20
-78.2189082157
 10
-1.175697898
 20
-78.2586503906
 10
-1.1717008991
 20
-78.3005514105
 10
-1.170020777
 20
-78.3446112752
  0
LWPOLYLINE
  5
26C
100
AcDbEntity
  8
0
100
AcDbPolyline
 62
7
  6
CONTINUOUS
 90
10
 70
0
 10
-0.8479582884
 20
-77.9162361285
 10
-0.8714315248
 20
-77.8724014803
 10
-0.8957700151
 20
-77.831568273
 10
-0.9209737592
 20
-77.7937365065
 10
-0.9470080489
 20
-77.7591508341
 10
-0.9739075924
 20
-77.7275666026
 10
-1.0017765143
 20
-77.6982498525
 10
-1.0306495229
 20
-77.6709559307
 10
-1.0604919099
 20
-77.6459294903
 10
-1.0913036754
 20
-77.6231705314
  0
LWPOLYLINE
  5
26D
100
AcDbEntity
  8
0
100
AcDbPolyline
 62
7
  6
CONTINUOUS
 90
16
 70
0
 10
-0.3919170201
 20
-79.701091446
 10
-0.3849232926
 20
-79.7571124493
 10
-0.3760171958
 20
-79.8104970215
 10
-0.3651987298
 20
-79.8612451625
 10
-0.3524048557
 20
-79.9091191764
 10
-0.3376986122
 20
-79.9543567592
 10
-0.3212691157
 20
-79.9976709985
 10
-0.3031945759
 20
-80.0391333609
 10
-0.283396783
 20
-80.0786723797
 10
-0.2618302232
 20
-80.1167867428
 10
-0.2385668343
 20
-80.1535306002
 10
-0.2135346784
 20
-80.1888498019
 10
-0.1864724279
 20
-80.2230805854
 10
-0.1572929734
 20
-80.25633503
 10
-0.1260834242
 20
-80.2885010565
 10
-0.0928437804
 20
-80.3195786649
  0
LINE
  5
26E
100
AcDbEntity
  8
0
100
AcDbLine
 62
7
  6
CONTINUOUS
 10
1.193853
 20
-2.123329
 11
0.773104
 21
2.376123
  0
LINE
  5
26F
100
AcDbEntity
  8
0
100
AcDbLine
 62
7
  6
CONTINUOUS
 10
0.08209
 20
0.802481
 11
0.275054
 21
-2.123329
  0
LWPOLYLINE
  5
270
100
AcDbEntity
  8
0
100
AcDbPolyline
 62
7
  6
CONTINUOUS
 90
16
 70
0
 10
1.6303202033
 20
-79.4659958661
 10
1.6284745755
 20
-79.4026362488
 10
1.6241392527
 20
-79.3421796135
 10
1.6173142348
 20
-79.28462596
 10
1.6078958281
 20
-79.2302562189
 10
1.5959877264
 20
-79.1787894597
 10
1.5819010109
 20
-79.1293828911
 10
1.5657416709
 20
-79.0819550215
 10
1.5474037172
 20
-79.0365873424
 10
1.5268802633
 20
-78.992681537
 10
1.5042673175
 20
-78.9501775624
 10
1.4794688716
 20
-78.9091354614
 10
1.4521900144
 20
-78.8691370453
 10
1.4223324423
 20
-78.8300429178
 10
1.3899944589
 20
-78.7919924751
 10
1.3551760643
 20
-78.7549857173
  0
LWPOLYLINE
  5
271
100
AcDbEntity
  8
0
100
AcDbPolyline
 62
7
  6
CONTINUOUS
 90
10
 70
0
 10
-0.7539226532
 20
-78.332128197
 10
-0.7553586577
 20
-78.2802001765
 10
-0.7590771013
 20
-78.2298011743
 10
-0.7650779838
 20
-78.1809311904
 10
-0.7734004241
 20
-78.1337229854
 10
-0.7840053035
 20
-78.0880437987
 10
-0.7967752652
 20
-78.0434953479
 10
-0.8116711905
 20
-77.9999448722
 10
-0.8287321982
 20
-77.9575251324
 10
-0.8479582884
 20
-77.9162361285
  0
LINE
  5
272
100
AcDbEntity
  8
0
100
AcDbLine
 62
7
  6
CONTINUOUS
 10
-6.0
 20
-76.0
 11
-6.0
 21
-86.0
  0
LINE
  5
273
100
AcDbEntity
  8
0
100
AcDbLine
 62
7
  6
CONTINUOUS
 10
-4.814188
 20
2.376393
 11
-4.814188
 21
-2.123329
  0
LINE
  5
274
100
AcDbEntity
  8
0
100
AcDbLine
 62
7
  6
CONTINUOUS
 10
-4.1971353002
 20
-77.45
 11
-4.1971353002
 21
-80.5
  0
LINE
  5
275
100
AcDbEntity
  8
0
100
AcDbLine
 62
7
  6
CONTINUOUS
 10
-3.874976
 20
-2.123329
 11
-3.874976
 21
2.376393
  0
LINE
  5
276
100
AcDbEntity
  8
0
100
AcDbLine
 62
7
  6
CONTINUOUS
 10
-3.7935200274
 20
-80.5
 11
-3.7935200274
 21
-77.45
  0
LINE
  5
277
100
AcDbEntity
  8
0
100
AcDbLine
 62
7
  6
CONTINUOUS
 10
-3.0819921121
 20
-77.45
 11
-3.0819921121
 21
-80.5
  0
LINE
  5
278
100
AcDbEntity
  8
0
100
AcDbLine
 62
7
  6
CONTINUOUS
 10
-2.6783767939
 20
-80.5
 11
-2.6783767939
 21
-79.2600272566
  0
LINE
  5
279
100
AcDbEntity
  8
0
100
AcDbLine
 62
7
  6
CONTINUOUS
 10
-2.6783767939
 20
-78.9001022577
 11
-2.6783767939
 21
-77.8099249989
  0
LINE
  5
27A
100
AcDbEntity
  8
0
100
AcDbLine
 62
7
  6
CONTINUOUS
 10
-2.470848
 20
-2.123329
 11
-2.268167
 21
0.814728
  0
LINE
  5
27B
100
AcDbEntity
  8
0
100
AcDbLine
 62
7
  6
CONTINUOUS
 10
-2.963094
 20
2.376123
 11
-3.369369
 21
-2.123329
  0
LINE
  5
27C
100
AcDbEntity
  8
0
100
AcDbLine
 62
7
  6
CONTINUOUS
 10
-6.101302
 20
2.376123
 11
-6.985179
 21
-0.720989
  0
LINE
  5
27D
100
AcDbEntity
  8
0
100
AcDbLine
 62
7
  6
CONTINUOUS
 10
-6.609036
 20
-2.123329
 11
-5.162732
 21
2.376123
  0
LINE
  5
27E
100
AcDbEntity
  8
0
100
AcDbLine
 62
7
  6
CONTINUOUS
 10
-0.156155
 20
2.376123
 11
-1.095366
 21
-0.121987
  0
LINE
  5
27F
100
AcDbEntity
  8
0
100
AcDbLine
 62
7
  6
CONTINUOUS
 10
-1.034633
 20
-2.123329
 11
0.08209
 21
0.802481
  0
LWPOLYLINE
  5
280
100
AcDbEntity
  8
0
100
AcDbPolyline
 62
7
  6
CONTINUOUS
 90
82
 70
0
 10
7.7322332597
 20
0.0035632995
 10
7.7404685642
 20
0.0052798033
 10
7.7488283566
 20
0.0077037783
 10
7.757312637
 20
0.0108352247
 10
7.7659121981
 20
0.0148140825
 10
7.7746362471
 20
0.0195004116
 10
7.7835124057
 20
0.0244743919
 10
7.7925415721
 20
0.0296133242
 10
7.801722848
 20
0.0350399077
 10
7.8110811608
 20
0.0407024204
 10
7.8206185134
 20
0.0465584456
 10
7.8303329029
 20
0.0526504001
 10
7.8402432479
 20
0.0590538114
 10
7.8503501841
 20
0.0657647779
 10
7.8606530759
 20
0.0727872014
 10
7.8711689352
 20
0.0802083146
 10
7.8819024242
 20
0.0880394685
 10
7.8928488807
 20
0.0962693121
 10
7.9040113299
 20
0.1049510254
 10
7.9153919891
 20
0.1140893063
 10
7.9269886411
 20
0.1236794567
 10
7.9387976597
 20
0.1337605627
 10
7.9508204246
 20
0.1443330164
 10
7.9630555562
 20
0.1553964257
 10
7.9754952895
 20
0.1669886997
 10
7.9881417737
 20
0.1790968316
 10
8.0009928596
 20
0.1917338282
 10
8.0140343345
 20
0.2049766194
 10
8.0272700705
 20
0.2188156375
 10
8.0406961954
 20
0.2332604503
 10
8.0542868795
 20
0.2484166904
 10
8.0680476587
 20
0.2642780357
 10
8.081972997
 20
0.2808508085
 10
8.0960204571
 20
0.2982596085
 10
8.1101984046
 20
0.3165008893
 10
8.1244984739
 20
0.3355781974
 10
8.1388531302
 20
0.3556267715
 10
8.1532736462
 20
0.3766407007
 10
8.1677487492
 20
0.398625896
 10
8.1821770864
 20
0.4217353283
 10
8.1965727496
 20
0.4459630144
 10
8.210921647
 20
0.4713149377
 10
8.2250801503
 20
0.4979620195
 10
8.2390666062
 20
0.5258994311
 10
8.252862668
 20
0.5551320013
 10
8.2662696674
 20
0.5858451377
 10
8.2793115941
 20
0.618034415
 10
8.2919644583
 20
0.6517042586
 10
8.3039576226
 20
0.6870533526
 10
8.3153116615
 20
0.7240813325
 10
8.3260060005
 20
0.7627885628
 10
8.3357082789
 20
0.803374821
 10
8.3444443182
 20
0.8458510387
 10
8.3521882968
 20
0.8902062844
 10
8.3585303891
 20
0.9366075401
 10
8.3634921306
 20
0.9850681601
 10
8.3670519858
 20
1.0355747902
 10
8.3687355224
 20
1.0882543499
 10
8.3686877517
 20
1.1430968492
 10
8.3667636624
 20
1.2001122781
 10
8.3620537889
 20
1.2594575266
 10
8.3545722295
 20
1.3217303082
 10
8.3443048857
 20
1.3863329094
 10
8.3302999964
 20
1.4516290801
 10
8.3120779951
 20
1.5180368412
 10
8.2901184483
 20
1.5851381718
 10
8.2649082936
 20
1.6500427583
 10
8.2365710895
 20
1.7117696536
 10
8.2049832776
 20
1.7712998047
 10
8.1702611204
 20
1.8286857388
 10
8.1320546161
 20
1.8842881815
 10
8.0907137665
 20
1.9377464072
 10
8.04740484
 20
1.9880307662
 10
8.001799879
 20
2.0350664564
 10
7.9542268411
 20
2.0789282799
 10
7.9068358669
 20
2.118810994
 10
7.860166514
 20
2.1543259404
 10
7.8136792248
 20
2.1858617774
 10
7.7679054677
 20
2.2137792363
 10
7.7230223988
 20
2.238198561
 10
7.678852862
 20
2.2589995077
 10
7.6353968572
 20
2.2761820764
  0
LWPOLYLINE
  5
281
100
AcDbEntity
  8
0
100
AcDbPolyline
 62
7
  6
CONTINUOUS
 90
10
 70
0
 10
6.2218553081
 20
1.6095967219
 10
6.3102697999
 20
1.6239822062
 10
6.3964599308
 20
1.6354768107
 10
6.4804257009
 20
1.6440805353
 10
6.5614213873
 20
1.6497530496
 10
6.6401927128
 20
1.652534684
 10
6.7189768463
 20
1.6525464305
 10
6.7985195105
 20
1.6498286196
 10
6.8780749826
 20
1.6443409206
 10
6.9576432625
 20
1.6360833337
  0
LINE
  5
282
100
AcDbEntity
  8
0
100
AcDbLine
 62
7
  6
CONTINUOUS
 10
-7.436717
 20
-2.123329
 11
-6.609036
 21
-2.123329
  0
LINE
  5
283
100
AcDbEntity
  8
0
100
AcDbLine
 62
7
  6
CONTINUOUS
 10
-4.814188
 20
-2.123329
 11
-3.874976
 21
-2.123329
  0
LINE
  5
284
100
AcDbEntity
  8
0
100
AcDbLine
 62
7
  6
CONTINUOUS
 10
-3.369369
 20
-2.123329
 11
-2.470848
 21
-2.123329
  0
LINE
  5
285
100
AcDbEntity
  8
0
100
AcDbLine
 62
7
  6
CONTINUOUS
 10
-1.166357
 20
-2.123329
 11
-1.034633
 21
-2.123329
  0
LINE
  5
286
100
AcDbEntity
  8
0
100
AcDbLine
 62
7
  6
CONTINUOUS
 10
0.275054
 20
-2.123329
 11
1.193853
 21
-2.123329
  0
LINE
  5
287
100
AcDbEntity
  8
0
100
AcDbLine
 62
7
  6
CONTINUOUS
 10
1.341334
 20
-2.123329
 11
2.270357
 21
-2.123329
  0
LINE
  5
288
100
AcDbEntity
  8
0
100
AcDbLine
 62
7
  6
CONTINUOUS
 10
4.051876
 20
-2.123329
 11
5.041767
 21
-2.123329
  0
LINE
  5
289
100
AcDbEntity
  8
0
100
AcDbLine
 62
7
  6
CONTINUOUS
 10
5.3175652652
 20
-2.1233285009
 11
6.2529981651
 21
-2.1233285009
  0
LINE
  5
28A
100
AcDbEntity
  8
0
100
AcDbLine
 62
7
  6
CONTINUOUS
 10
7.6912717989
 20
-2.1233285009
 11
8.5946845782
 21
-2.1233285009
  0
LINE
  5
28B
100
AcDbEntity
  8
0
100
AcDbLine
 62
7
  6
CONTINUOUS
 10
2.52952
 20
-1.225078
 11
3.808571
 21
-1.225078
  0
LINE
  5
28C
100
AcDbEntity
  8
0
100
AcDbLine
 62
7
  6
CONTINUOUS
 10
3.62087
 20
-0.530015
 11
2.721641
 21
-0.530015
  0
LINE
  5
28D
100
AcDbEntity
  8
0
100
AcDbLine
 62
7
  6
CONTINUOUS
 10
6.2529981651
 20
-0.3624917982
 11
6.7565811989
 21
-0.3624917982
  0
LINE
  5
28E
100
AcDbEntity
  8
0
100
AcDbLine
 62
7
  6
CONTINUOUS
 10
6.7586056534
 20
0.3744096061
 11
6.2218553081
 21
0.3744096061
  0
LWPOLYLINE
  5
28F
100
AcDbEntity
  8
0
100
AcDbPolyline
 62
7
  6
CONTINUOUS
 90
19
 70
0
 10
6.7565811989
 20
-0.3624917982
 10
6.7946894287
 20
-0.3639247635
 10
6.8319577129
 20
-0.3677531549
 10
6.8683860514
 20
-0.3739769725
 10
6.9041245504
 20
-0.3826546718
 10
6.9390231037
 20
-0.3937277973
 10
6.9726313934
 20
-0.407020982
 10
7.0047366326
 20
-0.4224364348
 10
7.0355516081
 20
-0.4400719467
 10
7.0652643623
 20
-0.4600455242
 10
7.0939469086
 20
-0.4822628735
 10
7.1215272335
 20
-0.5068182882
 10
7.1479773395
 20
-0.5341126557
 10
7.1733734459
 20
-0.5641777972
 10
7.1976393334
 20
-0.5969818914
 10
7.2205183462
 20
-0.6328303618
 10
7.2419249325
 20
-0.6718250161
 10
7.2619446443
 20
-0.7138640465
 10
7.2805774814
 20
-0.758947453
  0
LINE
  5
290
100
AcDbEntity
  8
0
100
AcDbLine
 62
7
  6
CONTINUOUS
 10
-2.268167
 20
0.814728
 11
-1.166357
 21
-2.123329
  0
LINE
  5
291
100
AcDbEntity
  8
0
100
AcDbLine
 62
7
  6
CONTINUOUS
 10
-1.095366
 20
-0.121987
 11
-2.024659
 21
2.376123
  0
LINE
  5
292
100
AcDbEntity
  8
0
100
AcDbLine
 62
7
  6
CONTINUOUS
 10
-8.863131
 20
2.376123
 11
-7.436717
 21
-2.123329
  0
LINE
  5
293
100
AcDbEntity
  8
0
100
AcDbLine
 62
7
  6
CONTINUOUS
 10
-6.985179
 20
-0.720989
 11
-7.842856
 21
2.376123
  0
LWPOLYLINE
  5
294
100
AcDbEntity
  8
0
100
AcDbPolyline
 62
7
  6
CONTINUOUS
 90
16
 70
0
 10
1.9777623057
 20
-79.701091446
 10
1.9847561395
 20
-79.7571126747
 10
1.9936623285
 20
-79.8104974253
 10
2.0044808729
 20
-79.8612456977
 10
2.0172748115
 20
-79.9091197882
 10
2.0319811055
 20
-79.9543574006
 10
2.0484106382
 20
-79.9976716459
 10
2.0664851989
 20
-80.0391339937
 10
2.0862829984
 20
-80.0786729743
 10
2.1078495526
 20
-80.1167872898
 10
2.1311129228
 20
-80.1535310914
 10
2.1561450477
 20
-80.1888502279
 10
2.1832072595
 20
-80.2230809467
 10
2.2123866689
 20
-80.2563353304
 10
2.2435961652
 20
-80.2885012965
 10
2.2768357484
 20
-80.3195788449
  0
LWPOLYLINE
  5
295
100
AcDbEntity
  8
0
100
AcDbPolyline
 62
7
  6
CONTINUOUS
 90
16
 70
0
 10
3.9999998927
 20
-79.4659958661
 10
3.9981542783
 20
-79.4026365782
 10
3.9938189663
 20
-79.3421802024
 10
3.9869939566
 20
-79.2846267385
 10
3.9775755574
 20
-79.230257105
 10
3.9656674606
 20
-79.1787903835
 10
3.9515807415
 20
-79.1293838187
 10
3.9354213871
 20
-79.081955924
 10
3.9170834104
 20
-79.0365881861
 10
3.8965599268
 20
-78.9926823096
 10
3.8739469424
 20
-78.9501782542
 10
3.849148451
 20
-78.9091360602
 10
3.8218695494
 20
-78.8691375542
 10
3.7920119365
 20
-78.8300433449
 10
3.7596739135
 20
-78.7919928236
 10
3.7248554802
 20
-78.7549859903
  0
LINE
  5
296
100
AcDbEntity
  8
0
100
AcDbLine
 62
7
  6
CONTINUOUS
 10
1.4867664397
 20
-77.8494543225
 11
1.4867664397
 21
-77.491609776
  0
LINE
  5
297
100
AcDbEntity
  8
0
100
AcDbLine
 62
7
  6
CONTINUOUS
 10
3.8564457655
 20
-77.8494543225
 11
3.8564457655
 21
-77.491609776
  0
LINE
  5
298
100
AcDbEntity
  8
0
100
AcDbLine
 62
7
  6
CONTINUOUS
 10
5.3175652652
 20
2.3235543096
 11
5.3175652652
 21
-2.1233285009
  0
LINE
  5
299
100
AcDbEntity
  8
0
100
AcDbLine
 62
7
  6
CONTINUOUS
 10
6.0
 20
-86.0
 11
6.0
 21
-76.0
  0
LINE
  5
29A
100
AcDbEntity
  8
0
100
AcDbLine
 62
7
  6
CONTINUOUS
 10
6.2218553081
 20
0.3744096061
 11
6.2218553081
 21
1.6095967219
  0
LINE
  5
29B
100
AcDbEntity
  8
0
100
AcDbLine
 62
7
  6
CONTINUOUS
 10
6.2529981651
 20
-2.1233285009
 11
6.2529981651
 21
-0.3624917982
  0
LINE
  5
29C
100
AcDbEntity
  8
0
100
AcDbLine
 62
7
  6
CONTINUOUS
 10
7.7322332597
 20
-0.023024535
 11
7.7322332597
 21
0.0035632995
  0
LWPOLYLINE
  5
29D
100
AcDbEntity
  8
0
100
AcDbPolyline
 62
7
  6
CONTINUOUS
 90
28
 70
0
 10
7.4881852809
 20
1.0736224175
 10
7.4878310992
 20
1.0233494905
 10
7.4853599714
 20
0.9752614976
 10
7.4807718975
 20
0.929358439
 10
7.4740128815
 20
0.8856601452
 10
7.4651369195
 20
0.8441467857
 10
7.4543059993
 20
0.8047588683
 10
7.4415581955
 20
0.7676651528
 10
7.4268554335
 20
0.7326968795
 10
7.4102454771
 20
0.6992882761
 10
7.3916626842
 20
0.6672116821
 10
7.3711726968
 20
0.6366947582
 10
7.3490202043
 20
0.6078547141
 10
7.3253589474
 20
0.5807392224
 10
7.3000351853
 20
0.5553006105
 10
7.2728323853
 20
0.5315130709
 10
7.2439305167
 20
0.5094444099
 10
7.2131496102
 20
0.4890268212
 10
7.1797332246
 20
0.4700310783
 10
7.1434783253
 20
0.4522727439
 10
7.1045879469
 20
0.4359362555
 10
7.0629147514
 20
0.4213456982
 10
7.0182442965
 20
0.4084870812
 10
6.9707910245
 20
0.3973743955
 10
6.9210509252
 20
0.3883736993
 10
6.8691893286
 20
0.381607012
 10
6.8150409046
 20
0.3769523143
 10
6.7586056534
 20
0.3744096061
  0
LWPOLYLINE
  5
29E
100
AcDbEntity
  8
0
100
AcDbPolyline
 62
7
  6
CONTINUOUS
 90
13
 70
0
 10
1.2329465151
 20
-79.4992837414
 10
1.2306857126
 20
-79.5626393293
 10
1.2258064733
 20
-79.6220573827
 10
1.2183087971
 20
-79.6775379016
 10
1.2080307769
 20
-79.7286637771
 10
1.1951343198
 20
-79.7758521181
 10
1.1801051474
 20
-79.8203542518
 10
1.1631012134
 20
-79.862319663
 10
1.1439645642
 20
-79.9015988668
 10
1.1227070609
 20
-79.9389947351
 10
1.0993326572
 20
-79.9747748918
 10
1.0738373994
 20
-80.008671713
 10
1.0462212876
 20
-80.0406851987
  0
LWPOLYLINE
  5
29F
100
AcDbEntity
  8
0
100
AcDbPolyline
 62
7
  6
CONTINUOUS
 90
13
 70
0
 10
3.6026262045
 20
-79.4992837414
 10
3.6003654149
 20
-79.5626390917
 10
3.5954861851
 20
-79.6220569685
 10
3.5879885149
 20
-79.6775373718
 10
3.5777104982
 20
-79.728663206
 10
3.5648140412
 20
-79.7758515668
 10
3.5497848627
 20
-79.820353741
 10
3.532780913
 20
-79.8623192074
 10
3.5136442418
 20
-79.9015984872
 10
3.4923867159
 20
-79.938994432
 10
3.4690122911
 20
-79.9747746589
 10
3.4435170117
 20
-80.0086715509
 10
3.4159008777
 20
-80.0406851077
  0
LWPOLYLINE
  5
2A0
100
AcDbEntity
  8
0
100
AcDbPolyline
 62
7
  6
CONTINUOUS
 90
13
 70
0
 10
-1.170020777
 20
-78.3446112752
 10
-1.1720430344
 20
-78.3939393395
 10
-1.1763434755
 20
-78.4399786708
 10
-1.1829221005
 20
-78.4827292691
 10
-1.1919150506
 20
-78.5218309876
 10
-1.2031861845
 20
-78.5576439732
 10
-1.2163270785
 20
-78.5912486662
 10
-1.2311756698
 20
-78.6227877741
 10
-1.2478940213
 20
-78.6521185895
 10
-1.2665598973
 20
-78.6798934303
 10
-1.2871992192
 20
-78.7063297358
 10
-1.3097860657
 20
-78.7312100668
 10
-1.3343204367
 20
-78.7545344232
  0
LINE
  5
2A1
100
AcDbEntity
  8
0
100
AcDbLine
 62
7
  6
CONTINUOUS
 10
2.721641
 20
-0.530015
 11
3.18929
 21
1.139788
  0
LINE
  5
2A2
100
AcDbEntity
  8
0
100
AcDbLine
 62
7
  6
CONTINUOUS
 10
2.270357
 20
-2.123329
 11
2.52952
 21
-1.225078
  0
LINE
  5
2A3
100
AcDbEntity
  8
0
100
AcDbLine
 62
7
  6
CONTINUOUS
 10
2.752649
 20
2.376123
 11
1.341334
 21
-2.123329
  0
LINE
  5
2A4
100
AcDbEntity
  8
0
100
AcDbLine
 62
7
  6
CONTINUOUS
 10
3.661224
 20
2.376123
 11
2.752649
 21
2.376123
  0
LINE
  5
2A5
100
AcDbEntity
  8
0
100
AcDbLine
 62
7
  6
CONTINUOUS
 10
0.773104
 20
2.376123
 11
-0.156155
 21
2.376123
  0
LINE
  5
2A6
100
AcDbEntity
  8
0
100
AcDbLine
 62
7
  6
CONTINUOUS
 10
-2.024659
 20
2.376123
 11
-2.963094
 21
2.376123
  0
LINE
  5
2A7
100
AcDbEntity
  8
0
100
AcDbLine
 62
7
  6
CONTINUOUS
 10
-5.162732
 20
2.376123
 11
-6.101302
 21
2.376123
  0
LINE
  5
2A8
100
AcDbEntity
  8
0
100
AcDbLine
 62
7
  6
CONTINUOUS
 10
-7.842856
 20
2.376123
 11
-8.863131
 21
2.376123
  0
LINE
  5
2A9
100
AcDbEntity
  8
0
100
AcDbLine
 62
7
  6
CONTINUOUS
 10
-3.874976
 20
2.376393
 11
-4.814188
 21
2.376393
  0
LWPOLYLINE
  5
2AA
100
AcDbEntity
  8
0
100
AcDbPolyline
 62
7
  6
CONTINUOUS
 90
22
 70
0
 10
6.9576432625
 20
1.6360833337
 10
7.0004828999
 20
1.6295628137
 10
7.0425626408
 20
1.6202854387
 10
7.083882485
 20
1.6082512088
 10
7.1249335941
 20
1.5931950894
 10
7.1652248066
 20
1.575382115
 10
7.2032826383
 20
1.5556073892
 10
7.238701954
 20
1.5339645987
 10
7.2718878889
 20
1.5103600567
 10
7.3025823635
 20
1.485307806
 10
7.3305885577
 20
1.4590105054
 10
7.3561032916
 20
1.4312654962
 10
7.3794589469
 20
1.4019788449
 10
7.4008020453
 20
1.371102847
 10
7.4199860651
 20
1.3386852071
 10
7.4369038234
 20
1.3047751057
 10
7.4516091939
 20
1.2692574085
 10
7.4640483029
 20
1.2322472497
 10
7.4739523465
 20
1.1941392129
 10
7.4812317234
 20
1.1550648259
 10
7.4859760348
 20
1.1148925607
 10
7.4881852809
 20
1.0736224175
  0
LWPOLYLINE
  5
2AB
100
AcDbEntity
  8
0
100
AcDbPolyline
 62
7
  6
CONTINUOUS
 90
19
 70
0
 10
7.6353968572
 20
2.2761820764
 10
7.548195022
 20
2.3055292732
 10
7.4559139658
 20
2.3316969418
 10
7.3585536888
 20
2.3546850822
 10
7.2559887523
 20
2.3744888799
 10
7.1483445949
 20
2.3911131495
 10
7.0359975323
 20
2.4045723341
 10
6.9190547468
 20
2.4148545944
 10
6.797409056
 20
2.4219717698
 10
6.6711152295
 20
2.4259738222
 10
6.5402641818
 20
2.4268425837
 10
6.4047649983
 20
2.4245962222
 10
6.2643997041
 20
2.4193392024
 10
6.1191703967
 20
2.4111518228
 10
5.9690749786
 20
2.3999537849
 10
5.8138891831
 20
2.3856086577
 10
5.6535382546
 20
2.3680709643
 10
5.4880969486
 20
2.3473861816
 10
5.3175652652
 20
2.3235543096
  0
LWPOLYLINE
  5
2AC
100
AcDbEntity
  8
0
100
AcDbPolyline
 62
7
  6
CONTINUOUS
 90
5
 70
0
 10
7.2805774814
 20
-0.758947453
 10
7.3129679247
 20
-0.8567047378
 10
7.345447742
 20
-0.9573174035
 10
7.3780169332
 20
-1.0607854501
 10
7.4104778862
 20
-1.167104433
  0
LINE
  5
2AD
100
AcDbEntity
  8
0
100
AcDbLine
 62
7
  6
CONTINUOUS
 10
5.041767
 20
-2.123329
 11
3.661224
 21
2.376123
  0
LINE
  5
2AE
100
AcDbEntity
  8
0
100
AcDbLine
 62
7
  6
CONTINUOUS
 10
7.4104778862
 20
-1.167104433
 11
7.5806444612
 21
-1.7416767403
  0
LINE
  5
2AF
100
AcDbEntity
  8
0
100
AcDbLine
 62
7
  6
CONTINUOUS
 10
7.5806444612
 20
-1.7416767403
 11
7.6912717989
 21
-2.1233285009
  0
LINE
  5
2B0
100
AcDbEntity
  8
0
100
AcDbLine
 62
7
  6
CONTINUOUS
 10
3.808571
 20
-1.225078
 11
4.051876
 21
-2.123329
  0
LWPOLYLINE
  5
2B1
100
AcDbEntity
  8
0
100
AcDbPolyline
 62
7
  6
CONTINUOUS
 90
22
 70
0
 10
8.3850239626
 20
-1.3232127077
 10
8.2555556416
 20
-0.8372401404
 10
8.237021207
 20
-0.7712037243
 10
8.2180028054
 20
-0.7074087038
 10
8.1986619455
 20
-0.6457114225
 10
8.1788371187
 20
-0.5862555368
 10
8.1580437987
 20
-0.5294720163
 10
8.1361616093
 20
-0.4754356841
 10
8.1133109269
 20
-0.424071717
 10
8.089368354
 20
-0.3755866152
 10
8.0642679291
 20
-0.3299791963
 10
8.0380756138
 20
-0.2872506427
 10
8.0108658949
 20
-0.2476110007
 10
7.9825814348
 20
-0.211207526
 10
7.9532795711
 20
-0.177892963
 10
7.9232068034
 20
-0.1474355911
 10
7.8922542226
 20
-0.1198027776
 10
7.8605307378
 20
-0.0950271552
 10
7.8286095764
 20
-0.0729749019
 10
7.7966818141
 20
-0.0536014105
 10
7.7645563752
 20
-0.0369512882
 10
7.7322332597
 20
-0.023024535
  0
LINE
  5
2B2
100
AcDbEntity
  8
0
100
AcDbLine
 62
7
  6
CONTINUOUS
 10
8.5946845782
 20
-2.1233285009
 11
8.3850239626
 21
-1.3232127077
  0
LINE
  5
2B3
100
AcDbEntity
  8
0
100
AcDbLine
 62
7
  6
CONTINUOUS
 10
3.18929
 20
1.139788
 11
3.62087
 21
-0.530015
  0
LINE
  5
2B4
100
AcDbEntity
  8
0
100
AcDbLine
 62
7
  6
CONTINUOUS
 10
-0.0299117506
 20
-77.491609776
 11
-0.3253414512
 21
-79.0582196429
  0
LINE
  5
2B5
100
AcDbEntity
  8
0
100
AcDbLine
 62
7
  6
CONTINUOUS
 10
2.3397675753
 20
-77.491609776
 11
2.0443382382
 21
-79.0582196429
  0
LINE
  5
2B6
100
AcDbEntity
  8
0
100
AcDbLine
 62
7
  6
CONTINUOUS
 10
0.1053202033
 20
-78.6691678554
 11
0.2696792185
 21
-77.8494543225
  0
LINE
  5
2B7
100
AcDbEntity
  8
0
100
AcDbLine
 62
7
  6
CONTINUOUS
 10
2.4749998927
 20
-78.6691678554
 11
2.6393585443
 21
-77.8494543225
  0
LWPOLYLINE
  5
2B8
100
AcDbEntity
  8
0
100
AcDbPolyline
 62
7
  6
CONTINUOUS
 90
10
 70
0
 10
0.0262615561
 20
-79.1039904147
 10
0.0439303918
 20
-79.0770397235
 10
0.0634090977
 20
-79.0509446606
 10
0.0846976738
 20
-79.0257052259
 10
0.1076320261
 20
-79.001354716
 10
0.1323762487
 20
-78.9778598343
 10
0.1594226239
 20
-78.9551206915
 10
0.1889352459
 20
-78.9331039908
 10
0.2207500207
 20
-78.9118430288
 10
0.2548669481
 20
-78.8913378056
  0
LWPOLYLINE
  5
2B9
100
AcDbEntity
  8
0
100
AcDbPolyline
 62
7
  6
CONTINUOUS
 90
10
 70
0
 10
2.3959412456
 20
-79.1039904147
 10
2.4136098906
 20
-79.0770398352
 10
2.4330884438
 20
-79.0509448525
 10
2.454376905
 20
-79.0257054669
 10
2.4773111703
 20
-79.0013549758
 10
2.5020553438
 20
-78.9778600818
 10
2.5291017373
 20
-78.9551208916
 10
2.5586144548
 20
-78.9331041076
 10
2.5904293925
 20
-78.9118430274
 10
2.6245465502
 20
-78.8913376512
  0
LWPOLYLINE
  5
2BA
100
AcDbEntity
  8
0
100
AcDbPolyline
 62
7
  6
CONTINUOUS
 90
13
 70
0
 10
1.3898058674
 20
-80.1823418156
 10
1.4276644256
 20
-80.1318113895
 10
1.462222964
 20
-80.0799875191
 10
1.4934814827
 20
-80.0268702045
 10
1.521366241
 20
-79.9726675685
 10
1.5459509795
 20
-79.9171714883
 10
1.5674569197
 20
-79.859757595
 10
1.5860303957
 20
-79.8005050086
 10
1.6015250735
 20
-79.7393346092
 10
1.6137231712
 20
-79.6753846682
 10
1.6225520952
 20
-79.6083679425
 10
1.6280844392
 20
-79.5385716751
 10
1.6303202033
 20
-79.4659958661
  0
LWPOLYLINE
  5
2BB
100
AcDbEntity
  8
0
100
AcDbPolyline
 62
7
  6
CONTINUOUS
 90
13
 70
0
 10
3.7594855568
 20
-80.1823418156
 10
3.797344115
 20
-80.1318113895
 10
3.8319026534
 20
-80.0799875191
 10
3.8631611721
 20
-80.0268702045
 10
3.8910459304
 20
-79.9726675685
 10
3.9156306689
 20
-79.9171714883
 10
3.9371366091
 20
-79.859757595
 10
3.9557100852
 20
-79.8005050086
 10
3.9712047629
 20
-79.7393346092
 10
3.9834028606
 20
-79.6753846682
 10
3.9922317846
 20
-79.6083679425
 10
3.9977641286
 20
-79.5385716751
 10
3.9999998927
 20
-79.4659958661
  0
LWPOLYLINE
  5
2BC
100
AcDbEntity
  8
0
100
AcDbPolyline
 62
7
  6
CONTINUOUS
 90
16
 70
0
 10
-1.0020626753
 20
-78.9911261727
 10
-0.9702126219
 20
-78.954794471
 10
-0.9406740541
 20
-78.9176911813
 10
-0.9134469718
 20
-78.8798163034
 10
-0.8886175397
 20
-78.8412721742
 10
-0.8660995932
 20
-78.8019564568
 10
-0.8456346383
 20
-78.7615621412
 10
-0.8271482199
 20
-78.720127201
 10
-0.810714793
 20
-78.6776136625
 10
-0.7962992287
 20
-78.633600594
 10
-0.783822708
 20
-78.5881351657
 10
-0.7733640499
 20
-78.5411702074
 10
-0.7651245825
 20
-78.4921432757
 10
-0.7591714153
 20
-78.4408668895
 10
-0.7554374389
 20
-78.3875285299
 10
-0.7539226532
 20
-78.332128197
  0
LWPOLYLINE
  5
2BD
100
AcDbEntity
  8
0
100
AcDbPolyline
 62
7
  6
CONTINUOUS
 90
16
 70
0
 10
1.0462212876
 20
-80.0406851987
 10
1.0194460327
 20
-80.0681830038
 10
0.9923669696
 20
-80.0934433278
 10
0.9649840984
 20
-80.1164661706
 10
0.9373737122
 20
-80.1371149193
 10
0.9094595179
 20
-80.1555261868
 10
0.8810126356
 20
-80.1721098121
 10
0.8520620953
 20
-80.1869482852
 10
0.8225788671
 20
-80.199959116
 10
0.792246982
 20
-80.2113046727
 10
0.7611021421
 20
-80.2210625
 10
0.7291086454
 20
-80.229155053
 10
0.6958434163
 20
-80.2355120662
 10
0.6611654298
 20
-80.2401101175
 10
0.6252157109
 20
-80.2429726288
 10
0.5879942596
 20
-80.2440996002
  0
LWPOLYLINE
  5
2BE
100
AcDbEntity
  8
0
100
AcDbPolyline
 62
7
  6
CONTINUOUS
 90
16
 70
0
 10
3.4159008777
 20
-80.0406851077
 10
3.3891256573
 20
-80.0681829158
 10
3.3620466255
 20
-80.0934432425
 10
3.3346637824
 20
-80.1164660877
 10
3.3070534227
 20
-80.137114838
 10
3.2791392517
 20
-80.1555261068
 10
3.2506923855
 20
-80.1721097351
 10
3.2217418544
 20
-80.1869482138
 10
3.192258628
 20
-80.1999590519
 10
3.1619267319
 20
-80.2113046172
 10
3.1307818692
 20
-80.2210624552
 10
3.0987883366
 20
-80.2291550205
 10
3.0655230504
 20
-80.2355120445
 10
3.0308449824
 20
-80.2401101044
 10
2.9948951608
 20
-80.2429726229
 10
2.9576735854
 20
-80.2440996002
  0
LWPOLYLINE
  5
2BF
100
AcDbEntity
  8
0
100
AcDbPolyline
 62
7
  6
CONTINUOUS
 90
13
 70
0
 10
-1.3343204367
 20
-78.7545344232
 10
-1.3562240778
 20
-78.7732108659
 10
-1.3817668563
 20
-78.7910325162
 10
-1.4109487724
 20
-78.8079993741
 10
-1.4433027412
 20
-78.8242911263
 10
-1.4792958475
 20
-78.8397280862
 10
-1.5203293455
 20
-78.8537711934
 10
-1.5663262636
 20
-78.8665214482
 10
-1.6173635733
 20
-78.8778778504
 10
-1.6750734442
 20
-78.8869983386
 10
-1.7399999327
 20
-78.8936022257
 10
-1.8115989822
 20
-78.8979701987
 10
-1.889870593
 20
-78.9001022577
  0
LWPOLYLINE
  5
2C0
100
AcDbEntity
  8
0
100
AcDbPolyline
 62
7
  6
CONTINUOUS
 90
10
 70
0
 10
0.2548669481
 20
-78.8913378056
 10
0.2872034938
 20
-78.8744120725
 10
0.3205053499
 20
-78.859388954
 10
0.3547725163
 20
-78.8462684503
 10
0.3899640347
 20
-78.8350112881
 10
0.4261208634
 20
-78.8256567405
 10
0.463365877
 20
-78.8183226274
 10
0.5017400338
 20
-78.8130482219
 10
0.5412023756
 20
-78.8097942508
 10
0.5817529023
 20
-78.8085607141
  0
LWPOLYLINE
  5
2C1
100
AcDbEntity
  8
0
100
AcDbPolyline
 62
7
  6
CONTINUOUS
 90
10
 70
0
 10
2.6245465502
 20
-78.8913376512
 10
2.6568829814
 20
-78.8744119751
 10
2.690184749
 20
-78.8593889012
 10
2.724451853
 20
-78.8462684293
 10
2.759643342
 20
-78.8350112829
 10
2.7958001674
 20
-78.8256567386
 10
2.8330451833
 20
-78.8183226266
 10
2.8714193411
 20
-78.8130482235
 10
2.9108816893
 20
-78.8097942527
 10
2.9514322281
 20
-78.8085607141
  0
LINE
  5
2C2
100
AcDbEntity
  8
RACCORDO
100
AcDbLine
 62
250
  6
CONTINUOUS
 10
108.0
 20
79.5
 11
110.0
 21
79.5
  0
LINE
  5
2C3
100
AcDbEntity
  8
RACCORDO
100
AcDbLine
 62
250
  6
CONTINUOUS
 10
-108.0
 20
79.5
 11
-110.0
 21
79.5
  0
LINE
  5
2C4
100
AcDbEntity
  8
RACCORDO
100
AcDbLine
 62
250
  6
CONTINUOUS
 10
100.0
 20
87.5
 11
-100.0
 21
87.5
  0
LINE
  5
2C5
100
AcDbEntity
  8
RACCORDO
100
AcDbLine
 62
7
  6
CONTINUOUS
 10
100.0
 20
89.5
 11
-100.0
 21
89.5
  0
LINE
  5
2C6
100
AcDbEntity
  8
RACCORDO
100
AcDbLine
 62
250
  6
CONTINUOUS
 10
100.0
 20
-87.5
 11
100.0
 21
-89.5
  0
LINE
  5
2C7
100
AcDbEntity
  8
RACCORDO
100
AcDbLine
 62
250
  6
CONTINUOUS
 10
100.0
 20
87.5
 11
100.0
 21
89.5
  0
LINE
  5
2C8
100
AcDbEntity
  8
RACCORDO
100
AcDbLine
 62
250
  6
CONTINUOUS
 10
108.0
 20
-79.5
 11
108.0
 21
79.5
  0
LINE
  5
2C9
100
AcDbEntity
  8
RACCORDO
100
AcDbLine
 62
7
  6
CONTINUOUS
 10
110.0
 20
-79.5
 11
110.0
 21
79.5
  0
LINE
  5
2CA
100
AcDbEntity
  8
RACCORDO
100
AcDbLine
 62
7
  6
CONTINUOUS
 10
-176.5685746187
 20
-89.5
 11
-179.0685746187
 21
-89.5
  0
LINE
  5
2CB
100
AcDbEntity
  8
0
100
AcDbLine
 62
250
  6
CONTINUOUS
 10
-174.9685746187
 20
-79.5
 11
-176.5685746187
 21
-79.5
  0
LINE
  5
2CC
100
AcDbEntity
  8
RACCORDO
100
AcDbLine
 62
250
  6
CONTINUOUS
 10
-176.5685746187
 20
-79.5
 11
-181.0685746187
 21
-79.5
  0
LINE
  5
2CD
100
AcDbEntity
  8
ASSI
100
AcDbLine
 62
7
  6
CONTINUOUS
 10
-172.8685746187
 20
-72.7
 11
-174.9685746187
 21
-72.9370967742
  0
LINE
  5
2CE
100
AcDbEntity
  8
ASSI
100
AcDbLine
 62
7
  6
CONTINUOUS
 10
-172.8685746187
 20
-66.3
 11
-174.9685746187
 21
-66.0629032258
  0
LINE
  5
2CF
100
AcDbEntity
  8
0
100
AcDbLine
 62
7
  6
CONTINUOUS
 10
-181.1185746187
 20
-2.1233285009
 11
-181.1185746187
 21
2.4269224051
  0
LINE
  5
2D0
100
AcDbEntity
  8
RACCORDO
100
AcDbLine
 62
7
  6
CONTINUOUS
 10
-181.0685746187
 20
-87.5
 11
-181.0685746187
 21
87.5
  0
LINE
  5
2D1
100
AcDbEntity
  8
RACCORDO
100
AcDbLine
 62
250
  6
CONTINUOUS
 10
-179.0685746187
 20
-89.5
 11
-179.0685746187
 21
89.5
  0
LINE
  5
2D2
100
AcDbEntity
  8
0
100
AcDbLine
 62
7
  6
CONTINUOUS
 10
-176.5685746187
 20
-89.5
 11
-176.5685746187
 21
89.5
  0
LINE
  5
2D3
100
AcDbEntity
  8
0
100
AcDbLine
 62
7
  6
CONTINUOUS
 10
-181.0685746187
 20
-2.1233285009
 11
-181.1185746187
 21
-2.1233285009
  0
LINE
  5
2D4
100
AcDbEntity
  8
0
100
AcDbLine
 62
250
  6
CONTINUOUS
 10
-181.0685746187
 20
-0.9055179521
 11
-181.1185746187
 21
-0.9055179521
  0
LINE
  5
2D5
100
AcDbEntity
  8
0
100
AcDbLine
 62
7
  6
CONTINUOUS
 10
-181.0685746187
 20
-0.023024535
 11
-181.1185746187
 21
-0.023024535
  0
LINE
  5
2D6
100
AcDbEntity
  8
0
100
AcDbLine
 62
7
  6
CONTINUOUS
 10
-181.0685746187
 20
0.0035632995
 11
-181.1185746187
 21
0.0035632995
  0
LINE
  5
2D7
100
AcDbEntity
  8
0
100
AcDbLine
 62
7
  6
CONTINUOUS
 10
-174.9685746187
 20
85.1866543665
 11
-174.9685746187
 21
-85.1866543665
  0
LINE
  5
2D8
100
AcDbEntity
  8
ASSI
100
AcDbLine
 62
7
  6
CONTINUOUS
 10
-172.8685746187
 20
-66.3
 11
-172.8685746187
 21
-72.7
  0
LINE
  5
2D9
100
AcDbEntity
  8
ASSI
100
AcDbLine
 62
7
  6
CONTINUOUS
 10
-172.8685746187
 20
66.3
 11
-172.8685746187
 21
72.7
  0
LINE
  5
2DA
100
AcDbEntity
  8
0
100
AcDbLine
 62
250
  6
CONTINUOUS
 10
-181.0685746187
 20
2.2761820764
 11
-181.1185746187
 21
2.2761820764
  0
LINE
  5
2DB
100
AcDbEntity
  8
0
100
AcDbLine
 62
7
  6
CONTINUOUS
 10
-181.0685746187
 20
2.426927257
 11
-181.1185746187
 21
2.426927257
  0
LINE
  5
2DC
100
AcDbEntity
  8
ASSI
100
AcDbLine
 62
7
  6
CONTINUOUS
 10
-174.9685746187
 20
66.0629032258
 11
-172.8685746187
 21
66.3
  0
LINE
  5
2DD
100
AcDbEntity
  8
ASSI
100
AcDbLine
 62
7
  6
CONTINUOUS
 10
-174.9685746187
 20
72.9370967742
 11
-172.8685746187
 21
72.7
  0
LINE
  5
2DE
100
AcDbEntity
  8
0
100
AcDbLine
 62
250
  6
CONTINUOUS
 10
-174.9685746187
 20
79.5
 11
-176.5685746187
 21
79.5
  0
LINE
  5
2DF
100
AcDbEntity
  8
RACCORDO
100
AcDbLine
 62
250
  6
CONTINUOUS
 10
-176.5685746187
 20
79.5
 11
-181.0685746187
 21
79.5
  0
LINE
  5
2E0
100
AcDbEntity
  8
RACCORDO
100
AcDbLine
 62
7
  6
CONTINUOUS
 10
-176.5685746187
 20
89.5
 11
-179.0685746187
 21
89.5
  0
ARC
  5
2E1
100
AcDbEntity
  8
RACCORDO
100
AcDbCircle
 62
7
  6
CONTINUOUS
 10
-100.0
 20
-79.5
 40
10.0
100
AcDbArc
 50
180.0
 51
270.0
  0
ARC
  5
2E2
100
AcDbEntity
  8
RACCORDO
100
AcDbCircle
 62
7
  6
CONTINUOUS
 10
100.0
 20
-79.5
 40
10.0
100
AcDbArc
 50
270.0
 51
360.0
  0
ARC
  5
2E3
100
AcDbEntity
  8
RACCORDO
100
AcDbCircle
 62
7
  6
CONTINUOUS
 10
100.0
 20
79.5
 40
10.0
100
AcDbArc
 50
0.0
 51
90.0
  0
ARC
  5
2E4
100
AcDbEntity
  8
RACCORDO
100
AcDbCircle
 62
7
  6
CONTINUOUS
 10
-100.0
 20
79.5
 40
10.0
100
AcDbArc
 50
90.0
 51
180.0
  0
ARC
  5
2E5
100
AcDbEntity
  8
RACCORDO
100
AcDbCircle
 62
250
  6
CONTINUOUS
 10
-100.0
 20
-79.5
 40
7.9999999745
100
AcDbArc
 50
180.0
 51
270.0
  0
ARC
  5
2E6
100
AcDbEntity
  8
RACCORDO
100
AcDbCircle
 62
250
  6
CONTINUOUS
 10
-100.0
 20
79.5
 40
7.9999999745
100
AcDbArc
 50
90.0
 51
180.0
  0
ARC
  5
2E7
100
AcDbEntity
  8
RACCORDO
100
AcDbCircle
 62
250
  6
CONTINUOUS
 10
100.0
 20
79.5
 40
7.9999999745
100
AcDbArc
 50
0.0
 51
90.0
  0
ARC
  5
2E8
100
AcDbEntity
  8
RACCORDO
100
AcDbCircle
 62
250
  6
CONTINUOUS
 10
100.0
 20
-79.5
 40
7.9999999745
100
AcDbArc
 50
270.0
 51
360.0
  0
CIRCLE
  5
2E9
100
AcDbEntity
  8
0
100
AcDbCircle
 62
7
  6
CONTINUOUS
 10
-90.0
 20
69.5
 40
3.0
  0
CIRCLE
  5
2EA
100
AcDbEntity
  8
0
100
AcDbCircle
 62
7
  6
CONTINUOUS
 10
90.0
 20
69.5
 40
3.0
  0
CIRCLE
  5
2EB
100
AcDbEntity
  8
0
100
AcDbCircle
 62
7
  6
CONTINUOUS
 10
-90.0
 20
-69.5
 40
3.0
  0
CIRCLE
  5
2EC
100
AcDbEntity
  8
0
100
AcDbCircle
 62
7
  6
CONTINUOUS
 10
90.0
 20
-69.5
 40
3.0
  0
CIRCLE
  5
2ED
100
AcDbEntity
  8
0
100
AcDbCircle
 62
7
  6
CONTINUOUS
 10
-90.0
 20
69.5
 40
1.65
  0
CIRCLE
  5
2EE
100
AcDbEntity
  8
0
100
AcDbCircle
 62
7
  6
CONTINUOUS
 10
90.0
 20
69.5
 40
1.65
  0
CIRCLE
  5
2EF
100
AcDbEntity
  8
0
100
AcDbCircle
 62
7
  6
CONTINUOUS
 10
90.0
 20
-69.5
 40
1.65
  0
CIRCLE
  5
2F0
100
AcDbEntity
  8
0
100
AcDbCircle
 62
7
  6
CONTINUOUS
 10
-90.0
 20
-69.5
 40
1.65
  0
ARC
  5
2F1
100
AcDbEntity
  8
RACCORDO
100
AcDbCircle
 62
7
  6
CONTINUOUS
 10
-179.0685746187
 20
-87.5
 40
2.0
100
AcDbArc
 50
180.0
 51
270.0
  0
ARC
  5
2F2
100
AcDbEntity
  8
RACCORDO
100
AcDbCircle
 62
7
  6
CONTINUOUS
 10
-179.0685746187
 20
87.5
 40
2.0
100
AcDbArc
 50
90.0
 51
180.0
  0
ARC
  5
2F3
100
AcDbEntity
  8
0
100
AcDbCircle
 62
7
  6
CONTINUOUS
 10
-176.7885746187
 20
-85.1866543665
 40
1.82
100
AcDbArc
 50
276.9428418454
 51
360.0
  0
ARC
  5
2F4
100
AcDbEntity
  8
0
100
AcDbCircle
 62
7
  6
CONTINUOUS
 10
-176.7885746187
 20
85.1866543665
 40
1.82
100
AcDbArc
 50
0.0
 51
83.0571581546
  0
ENDSEC
  0
SECTION
  2
OBJECTS
  0
DICTIONARY
  5
C
100
AcDbDictionary
280
0
281
1
  3
ACAD_GROUP
350
D
  3
ACAD_MLINESTYLE
350
17
  3
ACAD_LAYOUT
350
1A
  3
ACAD_PLOTSETTINGS
350
19
  3
ACAD_PLOTSTYLENAME
350
E
  0
DICTIONARY
  5
D
102
{ACAD_REACTORS
330
C
102
}
100
AcDbDictionary
280
0
281
1
  0
ACDBDICTIONARYWDFLT
  5
E
102
{ACAD_REACTORS
330
C
102
}
100
AcDbDictionary
281
1
  3
Normal
350
F
100
AcDbDictionaryWithDefault
340
F
  0
DICTIONARY
  5
17
102
{ACAD_REACTORS
330
C
102
}
100
AcDbDictionary
280
0
281
1
  3
Standard
350
18
  0
DICTIONARY
  5
19
102
{ACAD_REACTORS
330
C
102
}
100
AcDbDictionary
281
1
  0
DICTIONARY
  5
1A
102
{ACAD_REACTORS
330
C
102
}
100
AcDbDictionary
281
1
  3
Model
350
2F5
  3
Layout1
350
2F6
  0
ACDBPLACEHOLDER
  5
F
102
{ACAD_REACTORS
330
E
102
}
  0
MLINESTYLE
  5
18
102
{ACAD_REACTORS
330
17
102
}
100
AcDbMlineStyle
  2
STANDARD
 70
0
  3

 62
256
 51
90.0
 52
90.0
 71
2
 49
0.5
 62
256
  6
BYLAYER
 49
-0.5
 62
256
  6
BYLAYER
  0
LAYOUT
  5
2F5
102
{ACAD_REACTORS
330
1A
102
}
100
AcDbPlotSettings
  1

  2
none_device
  4
ANSI_C_(22.00_x_17.00_Inches)
  6

 40
0.0
 41
0.0
 42
0.0
 43
0.0
 44
558.8
 45
431.8
 46
0.0
 47
0.0
 48
0.0
 49
0.0
140
0.0
141
0.0
142
1.0
143
1.0
 70
1024
 72
1
 73
0
 74
0
  7

 75
0
147
1.0
148
0.0
149
0.0
100
AcDbLayout
  1
Model
 70
0
 71
0
 10
0.0
 20
0.0
 11
558.8
 21
431.8
 12
0.0
 22
0.0
 32
0.0
 14
0.0
 24
0.0
 34
0.0
 15
0.0
 25
0.0
 35
0.0
146
0.0
 13
0.0
 23
0.0
 33
0.0
 16
1.0
 26
0.0
 36
0.0
 17
0.0
 27
1.0
 37
0.0
 76
0
330
212
345
0
346
0
  0
LAYOUT
  5
2F6
102
{ACAD_REACTORS
330
1A
102
}
100
AcDbPlotSettings
  1

  2
none_device
  4
ANSI_C_(22.00_x_17.00_Inches)
  6

 40
0.0
 41
0.0
 42
0.0
 43
0.0
 44
558.8
 45
431.8
 46
0.0
 47
0.0
 48
0.0
 49
0.0
140
0.0
141
0.0
142
1.0
143
1.0
 70
0
 72
1
 73
0
 74
0
  7

 75
0
147
1.0
148
0.0
149
0.0
100
AcDbLayout
  1
Layout1
 70
0
 71
1
 10
0.0
 20
0.0
 11
558.8
 21
431.8
 12
0.0
 22
0.0
 32
0.0
 14
0.0
 24
0.0
 34
0.0
 15
0.0
 25
0.0
 35
0.0
146
0.0
 13
0.0
 23
0.0
 33
0.0
 16
1.0
 26
0.0
 36
0.0
 17
0.0
 27
1.0
 37
0.0
 76
0
330
213
345
0
346
0
  0
ENDSEC
  0
EOF
