  0
SECTION
  2
HEADER
  9
$ACADVER
  1
AC1021
  9
$DWGCODEPAGE
  3
ANSI_1252
  9
$EXTMAX
 10
558.8
 20
431.8
 30
0.0
  9
$EXTMIN
 10
0.0
 20
0.0
 30
0.0
  9
$LIMMIN
 10
0.0
 20
0.0
  9
$LIMMAX
 10
558.8
 20
431.8
  9
$VIEWCTR
 10
279.4
 20
215.9
  9
$VIEWSIZE
 40
431.8
  9
$CLAYER
  8
0
  9
$LTSCALE
 40
30.734
  9
$CELTYPE
  6
BYLAYER
  9
$DIMSCALE
 40
1.0
  9
$DIMASZ
 40
3.0
  9
$DIMEXO
 40
0.5
  9
$DIMDLI
 40
21.2344
  9
$DIMEXE
 40
1.5
  9
$DIMCEN
 40
5.0292
  9
$DIMLFAC
 40
1.0
  9
$DIMBLK
  1
_FILLED
  9
$DIMALT
 70
0
  9
$DIMALTF
 40
25.4
  9
$DIMTXT
 40
3.0
  9
$DIMTOL
 70
1
  9
$DIMLIM
 70
0
  9
$DIMTFAC
 40
1.0
  9
$DIMTP
 40
0.01
  9
$DIMTM
 40
0.01
  9
$DIMGAP
 40
0.625
  9
$DIMDSEP
 70
44
  9
$AUNITS
 70
0
  9
$PDMODE
 70
3
  9
$PDSIZE
 40
3.0
  9
$HANDSEED
  5
2FF
  9
$TILEMODE
 70
1
  9
$MEASUREMENT
 70
1
  9
$INSUNITS
 70
4
  0
ENDSEC
  0
SECTION
  2
CLASSES
  0
CLASS
  1
ACDBDICTIONARYWDFLT
  2
AcDbDictionaryWithDefault
  3
AutoCAD 2000
 90
0
 91
1
280
0
281
0
  0
CLASS
  1
ACDBPLACEHOLDER
  2
AcDbPlaceHolder
  3
AutoCAD 2000
 90
0
 91
1
280
0
281
0
  0
CLASS
  1
LAYOUT
  2
AcDbLayout
  3
AutoCAD 2000
 90
0
 91
0
280
0
281
0
  0
ENDSEC
  0
SECTION
  2
TABLES
  0
TABLE
  2
VPORT
  5
8
100
AcDbSymbolTable
 70
2
  0
VPORT
  5
1F4
100
AcDbSymbolTableRecord
100
AcDbViewportTableRecord
  2
*ACTIVE
 70
0
 10
0.0
 20
0.0
 11
1.0
 21
1.0
 12
279.4
 22
215.9
 13
0.0
 23
0.0
 14
1.0
 24
1.0
 15
0.0
 25
0.0
 16
0.0
 26
0.0
 36
1.0
 17
0.0
 27
0.0
 37
0.0
 40
431.8
 41
1.2941176471
 42
50.0
 43
0.0
 44
0.0
 50
0.0
 51
0.0
 71
0
 72
100
 73
1
 74
1
 75
0
 76
0
 77
0
 78
0
  0
ENDTAB
  0
TABLE
  2
LTYPE
  5
5
100
AcDbSymbolTable
 70
6
  0
LTYPE
  5
14
100
AcDbSymbolTableRecord
100
AcDbLinetypeTableRecord
  2
BYBLOCK
 70
0
  3

 72
65
 73
0
 40
0.0
  0
LTYPE
  5
15
100
AcDbSymbolTableRecord
100
AcDbLinetypeTableRecord
  2
BYLAYER
 70
0
  3

 72
65
 73
0
 40
0.0
  0
LTYPE
  5
16
100
AcDbSymbolTableRecord
100
AcDbLinetypeTableRecord
  2
CONTINUOUS
 70
64
  3
Solid line
 72
65
 73
0
 40
0.0
  0
LTYPE
  5
1F5
100
AcDbSymbolTableRecord
100
AcDbLinetypeTableRecord
  2
CENTER
 70
64
  3
____ _ ____ _ ____ _ ____ _ ____ _ ____ _ ____
 72
65
 73
4
 40
0.6
 49
0.375
 74
0
 49
-0.075
 74
0
 49
0.075
 74
0
 49
-0.075
 74
0
  0
LTYPE
  5
1F6
100
AcDbSymbolTableRecord
100
AcDbLinetypeTableRecord
  2
HIDDEN
 70
64
  3
- - - - - - - - - - - - - - - - - - - -
 72
65
 73
2
 40
0.2
 49
0.1
 74
0
 49
-0.1
 74
0
  0
LTYPE
  5
1F7
100
AcDbSymbolTableRecord
100
AcDbLinetypeTableRecord
  2
PHANTOM
 70
64
  3
_____ _ _ _____ _ _ _____ _ _ _____
 72
65
 73
6
 40
0.8
 49
0.45
 74
0
 49
-0.05
 74
0
 49
0.1
 74
0
 49
-0.05
 74
0
 49
0.1
 74
0
 49
-0.05
 74
0
  0
LTYPE
  5
1F8
100
AcDbSymbolTableRecord
100
AcDbLinetypeTableRecord
  2
DOT
 70
64
  3
. . . . . . . . . . . . . . . . . . . .
 72
65
 73
2
 40
0.2
 49
0.1
 74
0
 49
-0.1
 74
0
  0
LTYPE
  5
1F9
100
AcDbSymbolTableRecord
100
AcDbLinetypeTableRecord
  2
DASHED
 70
64
  3
- - - - - - - - - - - - - - - - - - - -
 72
65
 73
2
 40
0.2
 49
0.1
 74
0
 49
-0.1
 74
0
  0
ENDTAB
  0
TABLE
  2
LAYER
  5
2
100
AcDbSymbolTable
 70
36
  0
LAYER
  5
10
100
AcDbSymbolTableRecord
100
AcDbLayerTableRecord
  2
0
 70
0
 62
7
  6
CONTINUOUS
370
-3
390
F
  0
LAYER
  5
1FA
100
AcDbSymbolTableRecord
100
AcDbLayerTableRecord
  2
DEFAULT_1
 70
0
 62
7
  6
CENTER
370
-3
390
F
  0
LAYER
  5
1FB
100
AcDbSymbolTableRecord
100
AcDbLayerTableRecord
  2
DEFAULT_2
 70
0
 62
7
  6
HIDDEN
370
-3
390
F
  0
LAYER
  5
1FC
100
AcDbSymbolTableRecord
100
AcDbLayerTableRecord
  2
DEFAULT_3
 70
0
 62
7
  6
PHANTOM
370
-3
390
F
  0
LAYER
  5
1FD
100
AcDbSymbolTableRecord
100
AcDbLayerTableRecord
  2
ASSI
 70
0
 62
7
  6
CONTINUOUS
370
-3
390
F
  0
LAYER
  5
1FE
100
AcDbSymbolTableRecord
100
AcDbLayerTableRecord
  2
COORDINATE
 70
0
 62
7
  6
CONTINUOUS
370
-3
390
F
  0
LAYER
  5
1FF
100
AcDbSymbolTableRecord
100
AcDbLayerTableRecord
  2
COPY_PUBLISH
 70
0
 62
7
  6
CONTINUOUS
370
-3
390
F
  0
LAYER
  5
200
100
AcDbSymbolTableRecord
100
AcDbLayerTableRecord
  2
COSMETIC
 70
0
 62
7
  6
CONTINUOUS
370
-3
390
F
  0
LAYER
  5
201
100
AcDbSymbolTableRecord
100
AcDbLayerTableRecord
  2
COSMETICI
 70
0
 62
7
  6
CONTINUOUS
370
-3
390
F
  0
LAYER
  5
202
100
AcDbSymbolTableRecord
100
AcDbLayerTableRecord
  2
CURVE
 70
0
 62
7
  6
CONTINUOUS
370
-3
390
F
  0
LAYER
  5
203
100
AcDbSymbolTableRecord
100
AcDbLayerTableRecord
  2
DRAFT
 70
0
 62
7
  6
CONTINUOUS
370
-3
390
F
  0
LAYER
  5
204
100
AcDbSymbolTableRecord
100
AcDbLayerTableRecord
  2
IMPORT_IGES
 70
0
 62
7
  6
CONTINUOUS
370
-3
390
F
  0
LAYER
  5
205
100
AcDbSymbolTableRecord
100
AcDbLayerTableRecord
  2
INTF_1
 70
0
 62
7
  6
CONTINUOUS
370
-3
390
F
  0
LAYER
  5
206
100
AcDbSymbolTableRecord
100
AcDbLayerTableRecord
  2
NOTE
 70
0
 62
7
  6
CONTINUOUS
370
-3
390
F
  0
LAYER
  5
207
100
AcDbSymbolTableRecord
100
AcDbLayerTableRecord
  2
PIANI
 70
0
 62
7
  6
CONTINUOUS
370
-3
390
F
  0
LAYER
  5
208
100
AcDbSymbolTableRecord
100
AcDbLayerTableRecord
  2
PUNTI
 70
0
 62
7
  6
CONTINUOUS
370
-3
390
F
  0
LAYER
  5
209
100
AcDbSymbolTableRecord
100
AcDbLayerTableRecord
  2
RACCORDO
 70
0
 62
7
  6
CONTINUOUS
370
-3
390
F
  0
LAYER
  5
20A
100
AcDbSymbolTableRecord
100
AcDbLayerTableRecord
  2
RGB____0____0____0__
 70
0
 62
7
  6
CONTINUOUS
370
-3
390
F
  0
LAYER
  5
20B
100
AcDbSymbolTableRecord
100
AcDbLayerTableRecord
  2
SIMBOLI
 70
0
 62
7
  6
CONTINUOUS
370
-3
390
F
  0
LAYER
  5
20C
100
AcDbSymbolTableRecord
100
AcDbLayerTableRecord
  2
SMUSSO
 70
0
 62
7
  6
CONTINUOUS
370
-3
390
F
  0
LAYER
  5
20D
100
AcDbSymbolTableRecord
100
AcDbLayerTableRecord
  2
SNAPLINE
 70
0
 62
7
  6
CONTINUOUS
370
-3
390
F
  0
LAYER
  5
20E
100
AcDbSymbolTableRecord
100
AcDbLayerTableRecord
  2
SUPERFICI
 70
0
 62
7
  6
CONTINUOUS
370
-3
390
F
  0
LAYER
  5
20F
100
AcDbSymbolTableRecord
100
AcDbLayerTableRecord
  2
TRASH
 70
0
 62
7
  6
CONTINUOUS
370
-3
390
F
  0
ENDTAB
  0
TABLE
  2
STYLE
  5
3
100
AcDbSymbolTable
 70
1
  0
STYLE
  5
11
100
AcDbSymbolTableRecord
100
AcDbTextStyleTableRecord
  2
STANDARD
 70
0
 40
0.0
 41
0.8
 50
0.0
 71
0
 42
0.2
  3
txt
  4

  0
STYLE
  5
210
100
AcDbSymbolTableRecord
100
AcDbTextStyleTableRecord
  2
TEXTSTYLE_1
 70
0
 40
0.0
 41
0.8
 50
0.0
 71
0
 42
0.2
  3
gdt
  4

  0
ENDTAB
  0
TABLE
  2
VIEW
  5
6
100
AcDbSymbolTable
 70
0
  0
ENDTAB
  0
TABLE
  2
UCS
  5
7
100
AcDbSymbolTable
 70
0
  0
ENDTAB
  0
TABLE
  2
APPID
  5
9
100
AcDbSymbolTable
 70
1
  0
APPID
  5
211
100
AcDbSymbolTableRecord
100
AcDbRegAppTableRecord
  2
ACAD
 70
0
  0
ENDTAB
  0
TABLE
  2
BLOCK_RECORD
  5
1
100
AcDbSymbolTable
 70
0
  0
BLOCK_RECORD
  5
212
100
AcDbSymbolTableRecord
100
AcDbBlockTableRecord
  2
*Model_Space
  0
BLOCK_RECORD
  5
213
100
AcDbSymbolTableRecord
100
AcDbBlockTableRecord
  2
*Paper_Space
  0
BLOCK_RECORD
  5
214
100
AcDbSymbolTableRecord
100
AcDbBlockTableRecord
  2
_FILLED
  0
BLOCK_RECORD
  5
215
100
AcDbSymbolTableRecord
100
AcDbBlockTableRecord
  2
*D0
  0
BLOCK_RECORD
  5
216
100
AcDbSymbolTableRecord
100
AcDbBlockTableRecord
  2
*D1
  0
BLOCK_RECORD
  5
217
100
AcDbSymbolTableRecord
100
AcDbBlockTableRecord
  2
*D2
  0
ENDTAB
  0
TABLE
  2
DIMSTYLE
  5
A
100
AcDbSymbolTable
 70
1
100
AcDbDimStyleTable
 71
0
  0
DIMSTYLE
105
218
100
AcDbSymbolTableRecord
100
AcDbDimStyleTableRecord
  2
STANDARD
 70
0
  3

  4

 40
1.0
 41
3.0
 42
0.5
 43
0.38
 44
1.5
 45
0.0
 46
0.0
 47
0.01
 48
0.01
140
3.0
141
0.09
142
0.0
143
25.4
144
1.0
145
0.0
146
1.0
147
0.625
 71
1.0
 72
0.0
 73
0
 74
0
 75
0
 76
0
 77
1
 78
8
170
0
171
1
172
0
173
0
174
0
175
0
176
0
177
0
178
0
270
2
271
2
272
2
273
2
274
2
275
0
280
0
281
0
282
0
283
1
284
8
285
0
286
0
287
3
288
0
340
11
278
44
341
214
342
214
343
214
344
214
  0
DIMSTYLE
105
219
100
AcDbSymbolTableRecord
100
AcDbDimStyleTableRecord
  2
DIMSTYLE_1
 70
0
  3

  4

 40
1.0
 41
3.0
 42
0.5
 43
0.38
 44
1.5
 45
0.0
 46
0.0
 47
0.0
 48
0.0
140
3.0
141
0.09
142
0.0
143
25.4
144
1.0
145
0.0
146
1.0
147
0.75
 71
0.0
 72
0.0
 73
0
 74
0
 75
0
 76
0
 77
1
 78
8
170
0
171
1
172
0
173
0
174
0
175
0
176
0
177
0
178
0
270
2
271
2
272
2
273
2
274
2
275
0
280
0
281
0
282
0
283
1
284
8
285
0
286
0
287
3
288
0
340
11
278
44
341
214
342
214
343
214
344
214
  0
ENDTAB
  0
ENDSEC
  0
SECTION
  2
BLOCKS
  0
BLOCK
  5
20
100
AcDbEntity
  8
0
100
AcDbBlockBegin
  2
*Model_Space
 70
0
 10
0.0
 20
0.0
 30
0.0
  3
*Model_Space
  1

  0
ENDBLK
  5
21
100
AcDbEntity
  8
0
100
AcDbBlockEnd
  0
BLOCK
  5
1C
100
AcDbEntity
  8
0
100
AcDbBlockBegin
  2
*Paper_Space
 70
0
 10
0.0
 20
0.0
 30
0.0
  3
*Paper_Space
  1

  0
ENDBLK
  5
1D
100
AcDbEntity
  8
0
100
AcDbBlockEnd
  0
BLOCK
  5
21A
100
AcDbEntity
  8
0
100
AcDbBlockBegin
  2
_FILLED
 70
64
 10
0.0
 20
0.0
  3
_FILLED
  1

  0
SOLID
  5
21B
100
AcDbEntity
  8
0
  6
BYBLOCK
 62
0
100
AcDbTrace
 10
0.0
 20
0.0
 11
-1.0
 21
0.3166666667
 12
-1.0
 22
-0.3166666667
 13
-1.0
 23
-0.3166666667
  0
ENDBLK
  5
21C
100
AcDbEntity
  8
0
  6
BYBLOCK
 62
0
100
AcDbBlockEnd
  0
BLOCK
  5
21D
100
AcDbEntity
  8
0
100
AcDbBlockBegin
 62
7
  6
CONTINUOUS
  2
*D0
 70
65
 10
0.0
 20
0.0
  3
*D0
  1

  0
MTEXT
  5
21E
100
AcDbEntity
  8
0
100
AcDbMText
 62
7
  6
CONTINUOUS
  7
STANDARD
 71
3
 72
1
 10
-207.2225101319
 20
101.25
 30
0.0
 11
1.0
 21
0.0
 31
0.0
 44
0.9
  1
4,5
 40
3.0
 41
9.3214285714
  0
LINE
  5
21F
100
AcDbEntity
  8
0
100
AcDbLine
 62
7
  6
CONTINUOUS
 10
-198.4728261719
 20
90.0
 11
-198.4728261719
 21
99.0
  0
LINE
  5
220
100
AcDbEntity
  8
0
100
AcDbLine
 62
7
  6
CONTINUOUS
 10
-202.9728261719
 20
87.999999972
 11
-202.9728261719
 21
99.0
  0
LINE
  5
221
100
AcDbEntity
  8
0
100
AcDbLine
 62
7
  6
CONTINUOUS
 10
-198.4728261719
 20
97.5
 11
-194.4728261719
 21
97.5
  0
LINE
  5
222
100
AcDbEntity
  8
0
100
AcDbLine
 62
7
  6
CONTINUOUS
 10
-194.4728261719
 20
97.5
 11
-200.7228261719
 21
97.5
  0
LINE
  5
223
100
AcDbEntity
  8
0
100
AcDbLine
 62
7
  6
CONTINUOUS
 10
-202.9728261719
 20
97.5
 11
-213.4367958462
 21
97.5
  0
LINE
  5
224
100
AcDbEntity
  8
0
100
AcDbLine
 62
7
  6
CONTINUOUS
 10
-213.4367958462
 20
97.5
 11
-200.7228261719
 21
97.5
  0
INSERT
  5
225
100
AcDbEntity
  8
0
100
AcDbBlockReference
 62
7
  6
CONTINUOUS
  2
_FILLED
 10
-198.4728261719
 20
97.5
 41
3.0
 42
3.0
 43
3.0
 50
180.0
  0
INSERT
  5
226
100
AcDbEntity
  8
0
100
AcDbBlockReference
 62
7
  6
CONTINUOUS
  2
_FILLED
 10
-202.9728261719
 20
97.5
 41
3.0
 42
3.0
 43
3.0
  0
ENDBLK
  5
227
100
AcDbEntity
  8
0
  6
BYBLOCK
 62
0
100
AcDbBlockEnd
  0
BLOCK
  5
228
100
AcDbEntity
  8
0
100
AcDbBlockBegin
 62
7
  6
CONTINUOUS
  2
*D1
 70
65
 10
0.0
 20
0.0
  3
*D1
  1

  0
MTEXT
  5
229
100
AcDbEntity
  8
0
100
AcDbMText
 62
7
  6
CONTINUOUS
  7
STANDARD
 71
2
 72
1
 10
0.0
 20
101.25
 30
0.0
 11
1.0
 21
0.0
 31
0.0
 44
0.9
  1
312
 40
3.0
 41
9.3214285714
  0
LINE
  5
22A
100
AcDbEntity
  8
0
100
AcDbLine
 62
7
  6
CONTINUOUS
 10
-156.0
 20
80.0
 11
-156.0
 21
99.0
  0
LINE
  5
22B
100
AcDbEntity
  8
0
100
AcDbLine
 62
7
  6
CONTINUOUS
 10
156.0
 20
80.0
 11
156.0
 21
99.0
  0
LINE
  5
22C
100
AcDbEntity
  8
0
100
AcDbLine
 62
7
  6
CONTINUOUS
 10
-156.0
 20
97.5
 11
0.0
 21
97.5
  0
LINE
  5
22D
100
AcDbEntity
  8
0
100
AcDbLine
 62
7
  6
CONTINUOUS
 10
156.0
 20
97.5
 11
0.0
 21
97.5
  0
INSERT
  5
22E
100
AcDbEntity
  8
0
100
AcDbBlockReference
 62
7
  6
CONTINUOUS
  2
_FILLED
 10
-156.0
 20
97.5
 41
3.0
 42
3.0
 43
3.0
 50
180.0
  0
INSERT
  5
22F
100
AcDbEntity
  8
0
100
AcDbBlockReference
 62
7
  6
CONTINUOUS
  2
_FILLED
 10
156.0
 20
97.5
 41
3.0
 42
3.0
 43
3.0
  0
ENDBLK
  5
230
100
AcDbEntity
  8
0
  6
BYBLOCK
 62
0
100
AcDbBlockEnd
  0
BLOCK
  5
231
100
AcDbEntity
  8
0
100
AcDbBlockBegin
 62
7
  6
CONTINUOUS
  2
*D2
 70
65
 10
0.0
 20
0.0
  3
*D2
  1

  0
MTEXT
  5
232
100
AcDbEntity
  8
0
100
AcDbMText
 62
7
  6
CONTINUOUS
  7
STANDARD
 71
2
 72
1
 10
160.25
 20
-0.0
 30
0.0
 11
0.0
 21
1.0
 31
0.0
 44
0.9
  1
179
 40
3.0
 41
9.6428571429
  0
LINE
  5
233
100
AcDbEntity
  8
0
100
AcDbLine
 62
7
  6
CONTINUOUS
 10
146.5
 20
89.5
 11
165.5
 21
89.5
  0
LINE
  5
234
100
AcDbEntity
  8
0
100
AcDbLine
 62
7
  6
CONTINUOUS
 10
146.5
 20
-89.5
 11
165.5
 21
-89.5
  0
LINE
  5
235
100
AcDbEntity
  8
0
100
AcDbLine
 62
7
  6
CONTINUOUS
 10
164.0
 20
89.5
 11
164.0
 21
-0.0
  0
LINE
  5
236
100
AcDbEntity
  8
0
100
AcDbLine
 62
7
  6
CONTINUOUS
 10
164.0
 20
-89.5
 11
164.0
 21
-0.0
  0
INSERT
  5
237
100
AcDbEntity
  8
0
100
AcDbBlockReference
 62
7
  6
CONTINUOUS
  2
_FILLED
 10
164.0
 20
89.5
 41
3.0
 42
3.0
 43
3.0
 50
90.0
  0
INSERT
  5
238
100
AcDbEntity
  8
0
100
AcDbBlockReference
 62
7
  6
CONTINUOUS
  2
_FILLED
 10
164.0
 20
-89.5
 41
3.0
 42
3.0
 43
3.0
 50
270.0
  0
ENDBLK
  5
239
100
AcDbEntity
  8
0
  6
BYBLOCK
 62
0
100
AcDbBlockEnd
  0
ENDSEC
  0
SECTION
  2
ENTITIES
  0
DIMENSION
  5
23A
100
AcDbEntity
  8
0
100
AcDbDimension
 62
7
  6
CONTINUOUS
  2
*D0
 10
-202.9728261719
 20
97.5
 11
-210.7582208252
 21
97.5
 70
160
 71
3
 42
4.5
  3
DIMSTYLE_1
100
AcDbAlignedDimension
 13
-198.4728261719
 23
89.5
 14
-202.9728261719
 24
87.499999972
 50
180.0
100
AcDbRotatedDimension
  0
DIMENSION
  5
23B
100
AcDbEntity
  8
0
100
AcDbDimension
 62
7
  6
CONTINUOUS
  2
*D1
 10
156.0
 20
97.5
 11
-0.4285713332
 21
97.5
 70
160
 71
2
 42
312.0
  3
DIMSTYLE_1
100
AcDbAlignedDimension
 13
-156.0
 23
79.5
 14
156.0
 24
79.5
100
AcDbRotatedDimension
  0
DIMENSION
  5
23C
100
AcDbEntity
  8
0
100
AcDbDimension
 62
7
  6
CONTINUOUS
  2
*D2
 10
164.0
 20
-89.5
 11
164.0
 21
-0.4285676357
 70
160
 71
2
 42
179.0
  3
DIMSTYLE_1
100
AcDbAlignedDimension
 13
146.0
 23
89.5
 14
146.0
 24
-89.5
 50
270.0
100
AcDbRotatedDimension
  0
LINE
  5
23D
100
AcDbEntity
  8
RACCORDO
100
AcDbLine
 62
7
  6
CONTINUOUS
 10
-156.0
 20
79.5
 11
-156.0
 21
-79.5
  0
LINE
  5
23E
100
AcDbEntity
  8
RACCORDO
100
AcDbLine
 62
250
  6
CONTINUOUS
 10
-154.0
 20
79.5
 11
-154.0
 21
-79.5
  0
LINE
  5
23F
100
AcDbEntity
  8
RACCORDO
100
AcDbLine
 62
250
  6
CONTINUOUS
 10
-146.0
 20
-87.5
 11
-146.0
 21
-89.5
  0
LINE
  5
240
100
AcDbEntity
  8
RACCORDO
100
AcDbLine
 62
250
  6
CONTINUOUS
 10
-146.0
 20
87.5
 11
-146.0
 21
89.5
  0
LINE
  5
241
100
AcDbEntity
  8
RACCORDO
100
AcDbLine
 62
7
  6
CONTINUOUS
 10
-146.0
 20
-89.5
 11
146.0
 21
-89.5
  0
LINE
  5
242
100
AcDbEntity
  8
RACCORDO
100
AcDbLine
 62
250
  6
CONTINUOUS
 10
-146.0
 20
-87.5
 11
146.0
 21
-87.5
  0
LINE
  5
243
100
AcDbEntity
  8
0
100
AcDbLine
 62
7
  6
CONTINUOUS
 10
-6.0
 20
-86.0
 11
6.0
 21
-86.0
  0
LINE
  5
244
100
AcDbEntity
  8
0
100
AcDbLine
 62
7
  6
CONTINUOUS
 10
2.4670293544
 20
-79.667940542
 11
2.07388129
 21
-79.7012229385
  0
LINE
  5
245
100
AcDbEntity
  8
0
100
AcDbLine
 62
7
  6
CONTINUOUS
 10
0.0977400545
 20
-79.667940542
 11
-0.2954080099
 21
-79.7012229385
  0
LWPOLYLINE
  5
246
100
AcDbEntity
  8
0
100
AcDbPolyline
 62
7
  6
CONTINUOUS
 90
19
 70
0
 10
3.053631286
 20
-80.5520037161
 10
3.1152987943
 20
-80.5502884919
 10
3.1742368374
 20
-80.5462364924
 10
3.2304454153
 20
-80.5398477178
 10
3.2836750114
 20
-80.5310219565
 10
3.3341751423
 20
-80.5198594201
 10
3.3826943576
 20
-80.5066607431
 10
3.429301787
 20
-80.4915161918
 10
3.4739283008
 20
-80.4743354999
 10
3.5171150593
 20
-80.4551485033
 10
3.558913981
 20
-80.4340355502
 10
3.5992731474
 20
-80.4109162923
 10
3.6385779639
 20
-80.3855795208
 10
3.6768726412
 20
-80.3581094471
 10
3.7141129686
 20
-80.3284218597
 10
3.7505517195
 20
-80.2960529155
 10
3.7862731518
 20
-80.2608480001
 10
3.8211930076
 20
-80.2229617279
 10
3.855311287
 20
-80.182394099
  0
LWPOLYLINE
  5
247
100
AcDbEntity
  8
0
100
AcDbPolyline
 62
7
  6
CONTINUOUS
 90
19
 70
0
 10
0.6843419861
 20
-80.5520037161
 10
0.7460094024
 20
-80.5502884948
 10
0.8049473676
 20
-80.5462364987
 10
0.8611558818
 20
-80.5398477277
 10
0.9143854305
 20
-80.5310219709
 10
0.9648855281
 20
-80.5198594391
 10
1.0134047178
 20
-80.5066607658
 10
1.0600121288
 20
-80.4915162166
 10
1.1046386319
 20
-80.4743355259
 10
1.1478253837
 20
-80.4551485291
 10
1.1896243022
 20
-80.4340355742
 10
1.2299834693
 20
-80.4109163133
 10
1.2692882878
 20
-80.3855795382
 10
1.3075829681
 20
-80.3581094599
 10
1.3448232997
 20
-80.3284218673
 10
1.3812620539
 20
-80.296052919
 10
1.4169834878
 20
-80.2608480013
 10
1.4519033444
 20
-80.222961728
 10
1.4860216235
 20
-80.182394099
  0
LWPOLYLINE
  5
248
100
AcDbEntity
  8
0
100
AcDbPolyline
 62
7
  6
CONTINUOUS
 90
16
 70
0
 10
-1.7993555461
 20
-79.2602313439
 10
-1.6888867725
 20
-79.2573118552
 10
-1.5874874475
 20
-79.2514616093
 10
-1.4951575711
 20
-79.242680606
 10
-1.4126563287
 20
-79.2305826377
 10
-1.3392245349
 20
-79.2155539121
 10
-1.2725846334
 20
-79.1987530528
 10
-1.2126226397
 20
-79.1803350285
 10
-1.1594525384
 20
-79.1601448705
 10
-1.1111387268
 20
-79.1388762964
 10
-1.0675513186
 20
-79.1167098428
 10
-1.0288202
 20
-79.0934649732
 10
-0.9933994274
 20
-79.0692937952
 10
-0.9607736861
 20
-79.0442470113
 10
-0.9314582907
 20
-79.0182739191
 10
-0.9054532412
 20
-78.9913745184
  0
LWPOLYLINE
  5
249
100
AcDbEntity
  8
0
100
AcDbPolyline
 62
7
  6
CONTINUOUS
 90
13
 70
0
 10
3.147238418
 20
-78.4780954352
 10
3.0992214871
 20
-78.4793048039
 10
3.0514788994
 20
-78.4829948481
 10
3.0040106551
 20
-78.4891655676
 10
2.9569837003
 20
-78.4977262668
 10
2.9102310887
 20
-78.5087676415
 10
2.8632519817
 20
-78.5225617786
 10
2.816049145
 20
-78.5389849144
 10
2.7686198128
 20
-78.5581608127
 10
2.7204548494
 20
-78.5807328519
 10
2.671384543
 20
-78.6069154912
 10
2.6215786054
 20
-78.6364942714
 10
2.5710370366
 20
-78.6694691923
  0
LWPOLYLINE
  5
24A
100
AcDbEntity
  8
0
100
AcDbPolyline
 62
7
  6
CONTINUOUS
 90
13
 70
0
 10
0.7779487546
 20
-78.4780954352
 10
0.7299321645
 20
-78.4793047861
 10
0.682189856
 20
-78.4829948074
 10
0.6347218289
 20
-78.4891654988
 10
0.5876950292
 20
-78.49772616
 10
0.5409425109
 20
-78.5087674914
 10
0.4939634368
 20
-78.5225615949
 10
0.4467605747
 20
-78.538984706
 10
0.3993311567
 20
-78.5581605891
 10
0.3511660417
 20
-78.5807326397
 10
0.3020955159
 20
-78.6069153231
 10
0.2522892931
 20
-78.6364941739
 10
0.2017473732
 20
-78.6694691923
  0
LINE
  5
24B
100
AcDbEntity
  8
0
100
AcDbLine
 62
7
  6
CONTINUOUS
 10
-4.0999999885
 20
-80.5
 11
-3.6964511468
 21
-80.5
  0
LINE
  5
24C
100
AcDbEntity
  8
0
100
AcDbLine
 62
7
  6
CONTINUOUS
 10
-2.985040342
 20
-80.5
 11
-2.5814914549
 21
-80.5
  0
LINE
  5
24D
100
AcDbEntity
  8
RACCORDO
100
AcDbLine
 62
250
  6
CONTINUOUS
 10
154.0
 20
-79.5
 11
156.0
 21
-79.5
  0
LINE
  5
24E
100
AcDbEntity
  8
RACCORDO
100
AcDbLine
 62
250
  6
CONTINUOUS
 10
-154.0
 20
-79.5
 11
-156.0
 21
-79.5
  0
LINE
  5
24F
100
AcDbEntity
  8
0
100
AcDbLine
 62
7
  6
CONTINUOUS
 10
-2.5814914549
 20
-79.2602313439
 11
-1.7993555461
 21
-79.2602313439
  0
LINE
  5
250
100
AcDbEntity
  8
0
100
AcDbLine
 62
7
  6
CONTINUOUS
 10
-1.7931150343
 20
-78.9003655852
 11
-2.5814914549
 21
-78.9003655852
  0
LINE
  5
251
100
AcDbEntity
  8
0
100
AcDbLine
 62
7
  6
CONTINUOUS
 10
0.3660793365
 20
-77.8498905762
 11
1.5829662371
 21
-77.8498905762
  0
LINE
  5
252
100
AcDbEntity
  8
0
100
AcDbLine
 62
7
  6
CONTINUOUS
 10
2.7353686364
 20
-77.8498905762
 11
3.952255537
 21
-77.8498905762
  0
LINE
  5
253
100
AcDbEntity
  8
0
100
AcDbLine
 62
7
  6
CONTINUOUS
 10
-2.5814914549
 20
-77.8103677588
 11
-1.8014356562
 21
-77.8103677588
  0
LINE
  5
254
100
AcDbEntity
  8
0
100
AcDbLine
 62
7
  6
CONTINUOUS
 10
3.952255537
 20
-77.4921049275
 11
2.4358269771
 21
-77.4921049275
  0
LINE
  5
255
100
AcDbEntity
  8
0
100
AcDbLine
 62
7
  6
CONTINUOUS
 10
1.5829662371
 20
-77.4921049275
 11
0.0665376772
 21
-77.4921049275
  0
LINE
  5
256
100
AcDbEntity
  8
0
100
AcDbLine
 62
7
  6
CONTINUOUS
 10
-1.8347181435
 20
-77.450502
 11
-2.985040342
 21
-77.450502
  0
LINE
  5
257
100
AcDbEntity
  8
0
100
AcDbLine
 62
7
  6
CONTINUOUS
 10
-3.6964511468
 20
-77.450502
 11
-4.0999999885
 21
-77.450502
  0
LINE
  5
258
100
AcDbEntity
  8
0
100
AcDbLine
 62
7
  6
CONTINUOUS
 10
6.0
 20
-76.0
 11
-6.0
 21
-76.0
  0
LWPOLYLINE
  5
259
100
AcDbEntity
  8
0
100
AcDbPolyline
 62
7
  6
CONTINUOUS
 90
10
 70
0
 10
-1.8014356562
 20
-77.8103677588
 10
-1.7361735417
 20
-77.8110182263
 10
-1.6771118977
 20
-77.8123588687
 10
-1.6242507241
 20
-77.814389686
 10
-1.5780333471
 20
-77.8171925069
 10
-1.5380164406
 20
-77.8206855027
 10
-1.5028700257
 20
-77.824623187
 10
-1.4721507762
 20
-77.8289237308
 10
-1.4463020185
 20
-77.8336689631
 10
-1.4253237525
 20
-77.8388588839
  0
LWPOLYLINE
  5
25A
100
AcDbEntity
  8
0
100
AcDbPolyline
 62
7
  6
CONTINUOUS
 90
16
 70
0
 10
0.678101656
 20
-78.8088391084
 10
0.7203289253
 20
-78.8100975599
 10
0.7605553734
 20
-78.8130314876
 10
0.7987810002
 20
-78.8176408914
 10
0.8348062675
 20
-78.8239967699
 10
0.8688307135
 20
-78.8320281244
 10
0.9014529529
 20
-78.8415219598
 10
0.9327326278
 20
-78.8524027842
 10
0.962610096
 20
-78.8647460895
 10
0.9915050448
 20
-78.8785653554
 10
1.0194605869
 20
-78.8937919306
 10
1.0464336095
 20
-78.9104944665
 10
1.0727144623
 20
-78.9288923976
 10
1.0983999282
 20
-78.9490588687
 10
1.1233932242
 20
-78.9709207351
 10
1.1476943503
 20
-78.9944779966
  0
LWPOLYLINE
  5
25B
100
AcDbEntity
  8
0
100
AcDbPolyline
 62
7
  6
CONTINUOUS
 90
16
 70
0
 10
3.0473909559
 20
-78.8088391084
 10
3.0896182252
 20
-78.8100975599
 10
3.1298446733
 20
-78.8130314876
 10
3.1680703001
 20
-78.8176408914
 10
3.2040955674
 20
-78.8239967699
 10
3.2381200135
 20
-78.8320281244
 10
3.2707422528
 20
-78.8415219598
 10
3.3020219277
 20
-78.8524027842
 10
3.3318993959
 20
-78.8647460895
 10
3.3607943448
 20
-78.8785653554
 10
3.3887498868
 20
-78.8937919306
 10
3.4157229094
 20
-78.9104944665
 10
3.4420037622
 20
-78.9288923976
 10
3.4676892281
 20
-78.9490588687
 10
3.4926825242
 20
-78.9709207351
 10
3.5169836503
 20
-78.9944779966
  0
LWPOLYLINE
  5
25C
100
AcDbEntity
  8
0
100
AcDbPolyline
 62
7
  6
CONTINUOUS
 90
13
 70
0
 10
0.6843419861
 20
-80.2441417189
 10
0.6450287401
 20
-80.2428158221
 10
0.6072976359
 20
-80.239544017
 10
0.5711486735
 20
-80.2343263035
 10
0.5367569004
 20
-80.2271296372
 10
0.503947269
 20
-80.2179870626
 10
0.4721946367
 20
-80.2069977135
 10
0.4414465885
 20
-80.1942637552
 10
0.4117555393
 20
-80.1796830223
 10
0.3827535917
 20
-80.1630481526
 10
0.354318113
 20
-80.1442900253
 10
0.3265717359
 20
-80.1234777611
 10
0.2995144602
 20
-80.10061136
  0
LWPOLYLINE
  5
25D
100
AcDbEntity
  8
0
100
AcDbPolyline
 62
7
  6
CONTINUOUS
 90
13
 70
0
 10
3.053631286
 20
-80.2441417189
 10
3.0143180113
 20
-80.2428158191
 10
2.9765868855
 20
-80.2395440095
 10
2.9404379085
 20
-80.23432629
 10
2.9060461282
 20
-80.2271296155
 10
2.8732364967
 20
-80.2179870311
 10
2.84148387
 20
-80.2069976722
 10
2.8107358329
 20
-80.1942637042
 10
2.7810448006
 20
-80.1796829616
 10
2.7520428752
 20
-80.1630480829
 10
2.7236074239
 20
-80.1442899478
 10
2.6958610794
 20
-80.1234776767
 10
2.6688038417
 20
-80.1006112696
  0
LINE
  5
25E
100
AcDbEntity
  8
0
100
AcDbLine
 62
7
  6
CONTINUOUS
 10
-0.2288433986
 20
-79.0584569458
 11
0.1227017383
 21
-79.1042201842
  0
LINE
  5
25F
100
AcDbEntity
  8
0
100
AcDbLine
 62
7
  6
CONTINUOUS
 10
2.1404462648
 20
-79.0584569458
 11
2.4919914017
 21
-79.1042201842
  0
LWPOLYLINE
  5
260
100
AcDbEntity
  8
0
100
AcDbPolyline
 62
7
  6
CONTINUOUS
 90
10
 70
0
 10
-1.3707778964
 20
-77.4792328361
 10
-1.404684777
 20
-77.4738154448
 10
-1.4427910863
 20
-77.4689061152
 10
-1.4850968241
 20
-77.4645048473
 10
-1.5313205501
 20
-77.4605473647
 10
-1.5817437047
 20
-77.4570979438
 10
-1.6372106092
 20
-77.454349414
 10
-1.698002704
 20
-77.4523660516
 10
-1.7638385488
 20
-77.4510835803
 10
-1.8347181435
 20
-77.450502
  0
LWPOLYLINE
  5
261
100
AcDbEntity
  8
0
100
AcDbPolyline
 62
7
  6
CONTINUOUS
 90
13
 70
0
 10
-1.4253237525
 20
-77.8388588839
 10
-1.3995161931
 20
-77.84655161
 10
-1.3746663438
 20
-77.8554811474
 10
-1.3507742045
 20
-77.8656474959
 10
-1.327919808
 20
-77.8770139136
 10
-1.3060231216
 20
-77.8896171424
 10
-1.2848440467
 20
-77.9035674086
 10
-1.2643473118
 20
-77.9188049602
 10
-1.2445681884
 20
-77.9353895492
 10
-1.2253723927
 20
-77.9536106573
 10
-1.2067151632
 20
-77.9735647784
 10
-1.1886412614
 20
-77.9951554186
 10
-1.1711506871
 20
-78.0183825778
  0
LWPOLYLINE
  5
262
100
AcDbEntity
  8
0
100
AcDbPolyline
 62
7
  6
CONTINUOUS
 90
10
 70
0
 10
-0.994679553
 20
-77.6236440293
 10
-1.0256884286
 20
-77.6027976047
 10
-1.0591290621
 20
-77.5831048801
 10
-1.0950014537
 20
-77.5645658555
 10
-1.1329546708
 20
-77.547118552
 10
-1.173339646
 20
-77.5308249485
 10
-1.2172091764
 20
-77.5158709815
 10
-1.2649141945
 20
-77.5023186299
 10
-1.3161037678
 20
-77.4901059147
 10
-1.3707778964
 20
-77.4792328361
  0
LWPOLYLINE
  5
263
100
AcDbEntity
  8
0
100
AcDbPolyline
 62
7
  6
CONTINUOUS
 90
16
 70
0
 10
0.0036160053
 20
-80.3196083605
 10
0.0370209879
 20
-80.3477971649
 10
0.0716734141
 20
-80.3741733033
 10
0.1075732838
 20
-80.3987367756
 10
0.1445738464
 20
-80.4214500027
 10
0.1828218526
 20
-80.4423505638
 10
0.2227575542
 20
-80.4615511959
 10
0.2643191923
 20
-80.4791247375
 10
0.3075685259
 20
-80.4949983502
 10
0.3531310829
 20
-80.5090662559
 10
0.4009188242
 20
-80.5214168463
 10
0.451019789
 20
-80.5319617296
 10
0.5043236231
 20
-80.5403299536
 10
0.5611268748
 20
-80.5463978672
 10
0.6211329958
 20
-80.5502891214
 10
0.6843419861
 20
-80.5520037161
  0
LWPOLYLINE
  5
264
100
AcDbEntity
  8
0
100
AcDbPolyline
 62
7
  6
CONTINUOUS
 90
16
 70
0
 10
2.3729055081
 20
-80.3196085404
 10
2.4063104356
 20
-80.3477972994
 10
2.4409628144
 20
-80.3741733996
 10
2.4768626447
 20
-80.3987368411
 10
2.5138631763
 20
-80.4214500459
 10
2.5521111594
 20
-80.4423505919
 10
2.592046844
 20
-80.4615512128
 10
2.6336084716
 20
-80.4791247466
 10
2.6768578008
 20
-80.4949983553
 10
2.7224203571
 20
-80.5090662584
 10
2.7702081021
 20
-80.5214168471
 10
2.8203090743
 20
-80.5319617303
 10
2.8736129147
 20
-80.5403299542
 10
2.9304161703
 20
-80.5463978675
 10
2.990422294
 20
-80.5502891215
 10
3.053631286
 20
-80.5520037161
  0
LWPOLYLINE
  5
265
100
AcDbEntity
  8
0
100
AcDbPolyline
 62
7
  6
CONTINUOUS
 90
13
 70
0
 10
0.2995144602
 20
-80.10061136
 10
0.2775352513
 20
-80.0798094357
 10
0.2564104151
 20
-80.0567641658
 10
0.2361399516
 20
-80.0314755505
 10
0.2167006788
 20
-80.0042474207
 10
0.1981157788
 20
-79.9747759454
 10
0.1804547978
 20
-79.9421496315
 10
0.1636035196
 20
-79.906448967
 10
0.1476761605
 20
-79.8675934638
 10
0.133084915
 20
-79.8244301654
 10
0.1199671812
 20
-79.7765747529
 10
0.1081855611
 20
-79.7244115451
 10
0.0977400545
 20
-79.667940542
  0
LWPOLYLINE
  5
266
100
AcDbEntity
  8
0
100
AcDbPolyline
 62
7
  6
CONTINUOUS
 90
13
 70
0
 10
2.6688038417
 20
-80.1006112696
 10
2.6468246404
 20
-80.0798093194
 10
2.6256998053
 20
-80.0567640217
 10
2.6054293364
 20
-80.0314753765
 10
2.5859900486
 20
-80.0042472078
 10
2.5674051269
 20
-79.9747756917
 10
2.5497441275
 20
-79.9421493558
 10
2.5328928378
 20
-79.9064486959
 10
2.5169654703
 20
-79.8675932162
 10
2.5023742188
 20
-79.8244299569
 10
2.4892564813
 20
-79.7765745982
 10
2.4774748599
 20
-79.7244114598
 10
2.4670293544
 20
-79.667940542
  0
LWPOLYLINE
  5
267
100
AcDbEntity
  8
0
100
AcDbPolyline
 62
7
  6
CONTINUOUS
 90
16
 70
0
 10
1.4513975202
 20
-78.7552729295
 10
1.4127386595
 20
-78.7185528763
 10
1.3735266672
 20
-78.6846945642
 10
1.3337615432
 20
-78.6536979934
 10
1.2935536786
 20
-78.6257120754
 10
1.2527926824
 20
-78.6005878986
 10
1.2111473816
 20
-78.577878728
 10
1.1686577697
 20
-78.5574854016
 10
1.1252838532
 20
-78.5395070812
 10
1.0805744796
 20
-78.5237945173
 10
1.0345801009
 20
-78.5102500373
 10
0.987250265
 20
-78.4989713136
 10
0.9379824633
 20
-78.4901021148
 10
0.8865758596
 20
-78.4836903635
 10
0.83323129
 20
-78.4796881369
 10
0.7779487546
 20
-78.4780954352
  0
LWPOLYLINE
  5
268
100
AcDbEntity
  8
0
100
AcDbPolyline
 62
7
  6
CONTINUOUS
 90
16
 70
0
 10
3.8206869102
 20
-78.7552732024
 10
3.7820280292
 20
-78.7185530952
 10
3.7428160201
 20
-78.6846947358
 10
3.703050883
 20
-78.6536981241
 10
3.6628430081
 20
-78.6257121725
 10
3.6220820052
 20
-78.6005879686
 10
3.5804367033
 20
-78.5778787756
 10
3.5379470955
 20
-78.5574854318
 10
3.4945731887
 20
-78.539507099
 10
3.4498638326
 20
-78.5237945258
 10
3.4038694791
 20
-78.5102500398
 10
3.3565396763
 20
-78.4989713134
 10
3.3072719193
 20
-78.4901021132
 10
3.2558653731
 20
-78.4836903611
 10
3.2025208727
 20
-78.4796881351
 10
3.147238418
 20
-78.4780954352
  0
LWPOLYLINE
  5
269
100
AcDbEntity
  8
0
100
AcDbPolyline
 62
7
  6
CONTINUOUS
 90
16
 70
0
 10
1.1476943503
 20
-78.9944779966
 10
1.1694585239
 20
-79.0180086007
 10
1.1898495924
 20
-79.0425959158
 10
1.2088675557
 20
-79.0682399418
 10
1.2264824622
 20
-79.0948197924
 10
1.2427242635
 20
-79.1224563541
 10
1.2576828152
 20
-79.1515122855
 10
1.2714207905
 20
-79.1819301653
 10
1.2838755161
 20
-79.213767415
 10
1.2949488284
 20
-79.2475589575
 10
1.3047189172
 20
-79.2832227212
 10
1.3131075926
 20
-79.3208407777
 10
1.3197821208
 20
-79.361194265
 10
1.3246315906
 20
-79.4045435624
 10
1.3277669133
 20
-79.4506282906
 10
1.3291880887
 20
-79.4994484495
  0
LWPOLYLINE
  5
26A
100
AcDbEntity
  8
0
100
AcDbPolyline
 62
7
  6
CONTINUOUS
 90
16
 70
0
 10
3.5169836503
 20
-78.9944779966
 10
3.5387478856
 20
-79.0180086679
 10
3.5591390106
 20
-79.042596048
 10
3.5781570254
 20
-79.068240137
 10
3.5957719785
 20
-79.0948200507
 10
3.6120138214
 20
-79.1224566732
 10
3.6269724083
 20
-79.1515126571
 10
3.640710412
 20
-79.1819305824
 10
3.6531651597
 20
-79.2137678691
 10
3.6642384881
 20
-79.2475594301
 10
3.6740085863
 20
-79.2832231964
 10
3.6823972652
 20
-79.3208412369
 10
3.6890717942
 20
-79.3611946705
 10
3.6939212634
 20
-79.4045438703
 10
3.6970565827
 20
-79.4506284633
 10
3.6984777522
 20
-79.4994484495
  0
LWPOLYLINE
  5
26B
100
AcDbEntity
  8
0
100
AcDbPolyline
 62
7
  6
CONTINUOUS
 90
13
 70
0
 10
-1.1711506871
 20
-78.0183825778
 10
-1.1559862283
 20
-78.0411264493
 10
-1.1421017454
 20
-78.064496269
 10
-1.1294972385
 20
-78.0884920369
 10
-1.1181897063
 20
-78.1130090749
 10
-1.1081621501
 20
-78.1381520612
 10
-1.0993635736
 20
-78.1642350297
 10
-1.0917360522
 20
-78.1912194921
 10
-1.0853375105
 20
-78.2191439368
 10
-1.0802907265
 20
-78.2484378631
 10
-1.0766366261
 20
-78.2792444375
 10
-1.0743342835
 20
-78.3114204934
 10
-1.0733836985
 20
-78.344966031
  0
LWPOLYLINE
  5
26C
100
AcDbEntity
  8
0
100
AcDbPolyline
 62
7
  6
CONTINUOUS
 90
10
 70
0
 10
-0.7513742182
 20
-77.9166613906
 10
-0.7748435912
 20
-77.8728339572
 10
-0.7991780756
 20
-77.8320074706
 10
-0.8243776714
 20
-77.7941819309
 10
-0.8504076761
 20
-77.7596019509
 10
-0.8773027922
 20
-77.7280229178
 10
-0.9051671272
 20
-77.698710993
 10
-0.9340353836
 20
-77.6714215635
 10
-0.9638728589
 20
-77.6463992423
 10
-0.994679553
 20
-77.6236440293
  0
LINE
  5
26D
100
AcDbEntity
  8
0
100
AcDbLine
 62
7
  6
CONTINUOUS
 10
1.193853
 20
-2.123329
 11
0.773104
 21
2.376123
  0
LINE
  5
26E
100
AcDbEntity
  8
0
100
AcDbLine
 62
7
  6
CONTINUOUS
 10
0.08209
 20
0.802481
 11
0.275054
 21
-2.123329
  0
LWPOLYLINE
  5
26F
100
AcDbEntity
  8
0
100
AcDbPolyline
 62
7
  6
CONTINUOUS
 90
16
 70
0
 10
1.7264963732
 20
-79.466166053
 10
1.7246510491
 20
-79.4028168641
 10
1.7203164399
 20
-79.3423701793
 10
1.7134925453
 20
-79.2848259986
 10
1.7040756888
 20
-79.2304652063
 10
1.692169547
 20
-79.179006918
 10
1.6780851501
 20
-79.1296084812
 10
1.6619284698
 20
-79.0821884177
 10
1.6435935343
 20
-79.0368282058
 10
1.6230734584
 20
-78.9929296268
 10
1.6004642344
 20
-78.9504326479
 10
1.5756698701
 20
-78.9093973021
 10
1.5483955028
 20
-78.8694054693
 10
1.5185428449
 20
-78.8303177763
 10
1.486210184
 20
-78.7922735964
 10
1.4513975202
 20
-78.7552729295
  0
LWPOLYLINE
  5
270
100
AcDbEntity
  8
0
100
AcDbPolyline
 62
7
  6
CONTINUOUS
 90
10
 70
0
 10
-0.6573540604
 20
-78.3324850073
 10
-0.6587898286
 20
-78.2805655337
 10
-0.6625076601
 20
-78.2301748267
 10
-0.6685075549
 20
-78.1813128863
 10
-0.6768286255
 20
-78.1341124513
 10
-0.6874317594
 20
-78.088440783
 10
-0.7001996193
 20
-78.0438996644
 10
-0.7150930929
 20
-78.0003563567
 10
-0.7321512925
 20
-77.9579435988
 10
-0.7513742182
 20
-77.9166613906
  0
LINE
  5
271
100
AcDbEntity
  8
0
100
AcDbLine
 62
7
  6
CONTINUOUS
 10
-6.0
 20
-76.0
 11
-6.0
 21
-86.0
  0
LINE
  5
272
100
AcDbEntity
  8
0
100
AcDbLine
 62
7
  6
CONTINUOUS
 10
-4.814188
 20
2.376393
 11
-4.814188
 21
-2.123329
  0
LINE
  5
273
100
AcDbEntity
  8
0
100
AcDbLine
 62
7
  6
CONTINUOUS
 10
-4.0999999885
 20
-77.450502
 11
-4.0999999885
 21
-80.5
  0
LINE
  5
274
100
AcDbEntity
  8
0
100
AcDbLine
 62
7
  6
CONTINUOUS
 10
-3.874976
 20
-2.123329
 11
-3.874976
 21
2.376393
  0
LINE
  5
275
100
AcDbEntity
  8
0
100
AcDbLine
 62
7
  6
CONTINUOUS
 10
-3.6964511468
 20
-80.5
 11
-3.6964511468
 21
-77.450502
  0
LINE
  5
276
100
AcDbEntity
  8
0
100
AcDbLine
 62
7
  6
CONTINUOUS
 10
-2.985040342
 20
-77.450502
 11
-2.985040342
 21
-80.5
  0
LINE
  5
277
100
AcDbEntity
  8
0
100
AcDbLine
 62
7
  6
CONTINUOUS
 10
-2.5814914549
 20
-80.5
 11
-2.5814914549
 21
-79.2602313439
  0
LINE
  5
278
100
AcDbEntity
  8
0
100
AcDbLine
 62
7
  6
CONTINUOUS
 10
-2.5814914549
 20
-78.9003655852
 11
-2.5814914549
 21
-77.8103677588
  0
LINE
  5
279
100
AcDbEntity
  8
0
100
AcDbLine
 62
7
  6
CONTINUOUS
 10
1.5829662371
 20
-77.8498905762
 11
1.5829662371
 21
-77.4921049275
  0
LWPOLYLINE
  5
27A
100
AcDbEntity
  8
0
100
AcDbPolyline
 62
7
  6
CONTINUOUS
 90
16
 70
0
 10
-1.0733836985
 20
-78.344966031
 10
-1.0746632394
 20
-78.3849834359
 10
-1.0774859445
 20
-78.422728734
 10
-1.081851814
 20
-78.4582019253
 10
-1.0878590908
 20
-78.4911929749
 10
-1.095409532
 20
-78.5219119176
 10
-1.1042084086
 20
-78.5509888578
 10
-1.1141820829
 20
-78.5784902177
 10
-1.1254041926
 20
-78.604349575
 10
-1.1378009216
 20
-78.6289977671
 10
-1.1513122704
 20
-78.6524855333
 10
-1.1659982384
 20
-78.6747621343
 10
-1.1819650088
 20
-78.6961061904
 10
-1.1992479757
 20
-78.7166105751
 10
-1.2178117448
 20
-78.7361824148
 10
-1.2376563162
 20
-78.7548217097
  0
LINE
  5
27B
100
AcDbEntity
  8
0
100
AcDbLine
 62
7
  6
CONTINUOUS
 10
-2.470848
 20
-2.123329
 11
-2.268167
 21
0.814728
  0
LINE
  5
27C
100
AcDbEntity
  8
0
100
AcDbLine
 62
7
  6
CONTINUOUS
 10
-2.963094
 20
2.376123
 11
-3.369369
 21
-2.123329
  0
LINE
  5
27D
100
AcDbEntity
  8
0
100
AcDbLine
 62
7
  6
CONTINUOUS
 10
-6.101302
 20
2.376123
 11
-6.985179
 21
-0.720989
  0
LINE
  5
27E
100
AcDbEntity
  8
0
100
AcDbLine
 62
7
  6
CONTINUOUS
 10
-6.609036
 20
-2.123329
 11
-5.162732
 21
2.376123
  0
LINE
  5
27F
100
AcDbEntity
  8
0
100
AcDbLine
 62
7
  6
CONTINUOUS
 10
-0.156155
 20
2.376123
 11
-1.095366
 21
-0.121987
  0
LINE
  5
280
100
AcDbEntity
  8
0
100
AcDbLine
 62
7
  6
CONTINUOUS
 10
-1.034633
 20
-2.123329
 11
0.08209
 21
0.802481
  0
LWPOLYLINE
  5
281
100
AcDbEntity
  8
0
100
AcDbPolyline
 62
7
  6
CONTINUOUS
 90
82
 70
0
 10
7.7322332597
 20
0.0035632995
 10
7.7402152852
 20
0.0051923109
 10
7.7483356379
 20
0.0075138143
 10
7.7565943179
 20
0.0105278097
 10
7.7649840245
 20
0.0143661963
 10
7.7735120584
 20
0.0188970749
 10
7.7822003217
 20
0.0237247478
 10
7.7910488124
 20
0.0287388728
 10
7.8000575325
 20
0.0340497921
 10
7.8092483902
 20
0.0395928354
 10
7.8186219915
 20
0.0453217518
 10
7.8281777304
 20
0.0512827922
 10
7.837935698
 20
0.0575500382
 10
7.8478961927
 20
0.0641183356
 10
7.858058916
 20
0.0709928386
 10
7.8684430633
 20
0.0782630924
 10
7.8790531694
 20
0.0859393148
 10
7.8898846996
 20
0.0940112878
 10
7.9009432447
 20
0.1025379028
 10
7.9122313342
 20
0.1115243576
 10
7.9237464386
 20
0.1209654543
 10
7.9354865605
 20
0.1309044905
 10
7.9474531679
 20
0.1413423731
 10
7.9596447927
 20
0.1522781953
 10
7.9720550326
 20
0.1637525344
 10
7.9846858824
 20
0.1757528887
 10
7.9975353474
 20
0.1882917598
 10
8.0105910414
 20
0.2014472295
 10
8.0238568525
 20
0.2152082584
 10
8.0373288926
 20
0.2295858858
 10
8.0509831123
 20
0.2446913117
 10
8.0648252026
 20
0.2605172593
 10
8.0788494724
 20
0.2770710055
 10
8.0930147985
 20
0.2944855807
 10
8.1073300012
 20
0.3127564783
 10
8.1217862602
 20
0.3318882051
 10
8.1363159911
 20
0.3520273117
 10
8.1509313115
 20
0.3731669481
 10
8.1656201036
 20
0.3953139643
 10
8.1802784302
 20
0.4186354615
 10
8.1949218508
 20
0.4431240409
 10
8.2095348057
 20
0.4687871012
 10
8.2239666783
 20
0.4958139393
 10
8.2382380039
 20
0.5241982697
 10
8.2523282472
 20
0.5539463778
 10
8.266025185
 20
0.5852664173
 10
8.2793560821
 20
0.6181523237
 10
8.2922936736
 20
0.6526101615
 10
8.3045439421
 20
0.6888662783
 10
8.3161315655
 20
0.7269194078
 10
8.3270318659
 20
0.7667708163
 10
8.3368767921
 20
0.8086506494
 10
8.3456970763
 20
0.852570444
 10
8.3534619864
 20
0.8985186632
 10
8.3597112755
 20
0.9466908424
 10
8.3644754154
 20
0.997099238
 10
8.3677239344
 20
1.0497315936
 10
8.3689051695
 20
1.1047466749
 10
8.3681884348
 20
1.1622236126
 10
8.3654044164
 20
1.222083276
 10
8.35949351
 20
1.2842470385
 10
8.3501717103
 20
1.3498526125
 10
8.3377230228
 20
1.4177622855
 10
8.3219398589
 20
1.4844842939
 10
8.3026504857
 20
1.5491472073
 10
8.2800266363
 20
1.6126224559
 10
8.2543759212
 20
1.6740325673
 10
8.2257651206
 20
1.7330743365
 10
8.1941274544
 20
1.7900509685
 10
8.1595701932
 20
1.8449946053
 10
8.1218005548
 20
1.8982064005
 10
8.0811113214
 20
1.9493852005
 10
8.0384881098
 20
1.9976596863
 10
7.9935191178
 20
2.0430580469
 10
7.9466161476
 20
2.0855520932
 10
7.9000002231
 20
2.1241859399
 10
7.8542404937
 20
2.1585235872
 10
7.8087678098
 20
2.1890010349
 10
7.7640957467
 20
2.2159703963
 10
7.7203954961
 20
2.2395490426
 10
7.6774958663
 20
2.2596196027
 10
7.6353968572
 20
2.2761820764
  0
LWPOLYLINE
  5
282
100
AcDbEntity
  8
0
100
AcDbPolyline
 62
7
  6
CONTINUOUS
 90
10
 70
0
 10
6.2218553081
 20
1.6095967219
 10
6.3104163317
 20
1.6239932153
 10
6.396683384
 20
1.635494636
 10
6.480656465
 20
1.6441009838
 10
6.5615458819
 20
1.6497700073
 10
6.6401413275
 20
1.652543958
 10
6.7188118806
 20
1.6525495905
 10
6.7983472338
 20
1.6498291564
 10
6.8779576945
 20
1.6443404041
 10
6.9576432625
 20
1.6360833337
  0
LINE
  5
283
100
AcDbEntity
  8
0
100
AcDbLine
 62
7
  6
CONTINUOUS
 10
-7.436717
 20
-2.123329
 11
-6.609036
 21
-2.123329
  0
LINE
  5
284
100
AcDbEntity
  8
0
100
AcDbLine
 62
7
  6
CONTINUOUS
 10
-4.814188
 20
-2.123329
 11
-3.874976
 21
-2.123329
  0
LINE
  5
285
100
AcDbEntity
  8
0
100
AcDbLine
 62
7
  6
CONTINUOUS
 10
-3.369369
 20
-2.123329
 11
-2.470848
 21
-2.123329
  0
LINE
  5
286
100
AcDbEntity
  8
0
100
AcDbLine
 62
7
  6
CONTINUOUS
 10
-1.166357
 20
-2.123329
 11
-1.034633
 21
-2.123329
  0
LINE
  5
287
100
AcDbEntity
  8
0
100
AcDbLine
 62
7
  6
CONTINUOUS
 10
0.275054
 20
-2.123329
 11
1.193853
 21
-2.123329
  0
LINE
  5
288
100
AcDbEntity
  8
0
100
AcDbLine
 62
7
  6
CONTINUOUS
 10
1.341334
 20
-2.123329
 11
2.270357
 21
-2.123329
  0
LINE
  5
289
100
AcDbEntity
  8
0
100
AcDbLine
 62
7
  6
CONTINUOUS
 10
4.051876
 20
-2.123329
 11
5.041767
 21
-2.123329
  0
LINE
  5
28A
100
AcDbEntity
  8
0
100
AcDbLine
 62
7
  6
CONTINUOUS
 10
5.3175652652
 20
-2.1233285009
 11
6.2529981651
 21
-2.1233285009
  0
LINE
  5
28B
100
AcDbEntity
  8
0
100
AcDbLine
 62
7
  6
CONTINUOUS
 10
7.6912717989
 20
-2.1233285009
 11
8.5946845782
 21
-2.1233285009
  0
LINE
  5
28C
100
AcDbEntity
  8
0
100
AcDbLine
 62
7
  6
CONTINUOUS
 10
2.52952
 20
-1.225078
 11
3.808571
 21
-1.225078
  0
LINE
  5
28D
100
AcDbEntity
  8
0
100
AcDbLine
 62
7
  6
CONTINUOUS
 10
3.62087
 20
-0.530015
 11
2.721641
 21
-0.530015
  0
LINE
  5
28E
100
AcDbEntity
  8
0
100
AcDbLine
 62
7
  6
CONTINUOUS
 10
6.2529981651
 20
-0.3624917982
 11
6.7565811989
 21
-0.3624917982
  0
LINE
  5
28F
100
AcDbEntity
  8
0
100
AcDbLine
 62
7
  6
CONTINUOUS
 10
6.7586056534
 20
0.3744096061
 11
6.2218553081
 21
0.3744096061
  0
LWPOLYLINE
  5
290
100
AcDbEntity
  8
0
100
AcDbPolyline
 62
7
  6
CONTINUOUS
 90
22
 70
0
 10
6.7565811989
 20
-0.3624917982
 10
6.7891155829
 20
-0.3635243697
 10
6.8211157031
 20
-0.3663402613
 10
6.8525815597
 20
-0.370939473
 10
6.8836463719
 20
-0.377371012
 10
6.9141769205
 20
-0.3855858712
 10
6.9437735476
 20
-0.395437029
 10
6.972282423
 20
-0.406871031
 10
6.9998573769
 20
-0.4199413318
 10
7.0265602426
 20
-0.4346612728
 10
7.0523839831
 20
-0.4509838865
 10
7.0773356353
 20
-0.4689561405
 10
7.1014981428
 20
-0.4887322797
 10
7.1249165521
 20
-0.5102545537
 10
7.1475458167
 20
-0.5335807129
 10
7.1693337401
 20
-0.5590382535
 10
7.1903263028
 20
-0.5866715278
 10
7.2104775242
 20
-0.6164361836
 10
7.2295972666
 20
-0.64852666
 10
7.2476221506
 20
-0.6830077703
 10
7.2646155556
 20
-0.7198147013
 10
7.2805774814
 20
-0.758947453
  0
LINE
  5
291
100
AcDbEntity
  8
0
100
AcDbLine
 62
7
  6
CONTINUOUS
 10
-2.268167
 20
0.814728
 11
-1.166357
 21
-2.123329
  0
LINE
  5
292
100
AcDbEntity
  8
0
100
AcDbLine
 62
7
  6
CONTINUOUS
 10
-1.095366
 20
-0.121987
 11
-2.024659
 21
2.376123
  0
LINE
  5
293
100
AcDbEntity
  8
0
100
AcDbLine
 62
7
  6
CONTINUOUS
 10
-8.863131
 20
2.376123
 11
-7.436717
 21
-2.123329
  0
LINE
  5
294
100
AcDbEntity
  8
0
100
AcDbLine
 62
7
  6
CONTINUOUS
 10
-6.985179
 20
-0.720989
 11
-7.842856
 21
2.376123
  0
LWPOLYLINE
  5
295
100
AcDbEntity
  8
0
100
AcDbPolyline
 62
7
  6
CONTINUOUS
 90
16
 70
0
 10
-0.2954080099
 20
-79.7012229385
 10
-0.2884154335
 20
-79.7572347213
 10
-0.2795108026
 20
-79.8106105069
 10
-0.2686941171
 20
-79.8613502952
 10
-0.2559023487
 20
-79.9092164296
 10
-0.2411985258
 20
-79.9544465667
 10
-0.2247717334
 20
-79.9977536769
 10
-0.2067001685
 20
-80.039209215
 10
-0.1869056342
 20
-80.0787417261
 10
-0.1653426239
 20
-80.116849816
 10
-0.142083064
 20
-80.1535876257
 10
-0.1170550282
 20
-80.1889010141
 10
-0.0899972318
 20
-80.2231261636
 10
-0.06082258
 20
-80.2563751349
 10
-0.0296181676
 20
-80.2885358672
 10
0.0036160053
 20
-80.3196083605
  0
LWPOLYLINE
  5
296
100
AcDbEntity
  8
0
100
AcDbPolyline
 62
7
  6
CONTINUOUS
 90
16
 70
0
 10
2.07388129
 20
-79.7012229385
 10
2.0808739727
 20
-79.7572349467
 10
2.0897786958
 20
-79.8106109106
 10
2.1005954596
 20
-79.8613508303
 10
2.1133872925
 20
-79.9092170413
 10
2.1280911659
 20
-79.9544472081
 10
2.1445179945
 20
-79.9977543242
 10
2.1625895803
 20
-80.0392098477
 10
2.1823841212
 20
-80.0787423206
 10
2.2039471258
 20
-80.1168503628
 10
2.2272066671
 20
-80.1535881168
 10
2.252234672
 20
-80.1889014401
 10
2.2792924296
 20
-80.2231265249
 10
2.3084670364
 20
-80.2563754352
 10
2.3396713959
 20
-80.2885361071
 10
2.3729055081
 20
-80.3196085404
  0
LWPOLYLINE
  5
297
100
AcDbEntity
  8
0
100
AcDbPolyline
 62
7
  6
CONTINUOUS
 90
16
 70
0
 10
4.0957860366
 20
-79.466166053
 10
4.093940726
 20
-79.4028171935
 10
4.0896061275
 20
-79.3423707681
 10
4.0827822411
 20
-79.284826777
 10
4.0733653921
 20
-79.2304660922
 10
4.0614592552
 20
-79.1790078416
 10
4.0473748548
 20
-79.1296094087
 10
4.03121816
 20
-79.0821893201
 10
4.0128832015
 20
-79.0368290493
 10
3.9923630959
 20
-78.9929303993
 10
3.9697538333
 20
-78.9504333396
 10
3.9449594235
 20
-78.9093979007
 10
3.9176850118
 20
-78.8694059781
 10
3.8878323132
 20
-78.8303182033
 10
3.8554996127
 20
-78.7922739448
 10
3.8206869102
 20
-78.7552732024
  0
LINE
  5
298
100
AcDbEntity
  8
0
100
AcDbLine
 62
7
  6
CONTINUOUS
 10
3.952255537
 20
-77.8498905762
 11
3.952255537
 21
-77.4921049275
  0
LINE
  5
299
100
AcDbEntity
  8
0
100
AcDbLine
 62
7
  6
CONTINUOUS
 10
5.3175652652
 20
2.3235543096
 11
5.3175652652
 21
-2.1233285009
  0
LINE
  5
29A
100
AcDbEntity
  8
0
100
AcDbLine
 62
7
  6
CONTINUOUS
 10
6.0
 20
-86.0
 11
6.0
 21
-76.0
  0
LINE
  5
29B
100
AcDbEntity
  8
0
100
AcDbLine
 62
7
  6
CONTINUOUS
 10
6.2218553081
 20
0.3744096061
 11
6.2218553081
 21
1.6095967219
  0
LINE
  5
29C
100
AcDbEntity
  8
0
100
AcDbLine
 62
7
  6
CONTINUOUS
 10
6.2529981651
 20
-2.1233285009
 11
6.2529981651
 21
-0.3624917982
  0
LINE
  5
29D
100
AcDbEntity
  8
0
100
AcDbLine
 62
7
  6
CONTINUOUS
 10
7.7322332597
 20
-0.023024535
 11
7.7322332597
 21
0.0035632995
  0
LWPOLYLINE
  5
29E
100
AcDbEntity
  8
0
100
AcDbPolyline
 62
7
  6
CONTINUOUS
 90
28
 70
0
 10
7.4881852809
 20
1.0736224175
 10
7.4877990136
 20
1.0231495854
 10
7.4853153639
 20
0.974963402
 10
7.480734332
 20
0.9290638672
 10
7.4740073536
 20
0.8855213042
 10
7.4651829928
 20
0.8442653899
 10
7.4544069427
 20
0.8050851547
 10
7.4417245767
 20
0.7681016375
 10
7.4270905213
 20
0.7331937993
 10
7.410514349
 20
0.6997875546
 10
7.3918689736
 20
0.6675960277
 10
7.3712814813
 20
0.6369060942
 10
7.3491427027
 20
0.6080042953
 10
7.3256594728
 20
0.5810319637
 10
7.3006249566
 20
0.5558477666
 10
7.2738094806
 20
0.5323142466
 10
7.2454676229
 20
0.5105013297
 10
7.2153448052
 20
0.49033909
 10
7.1824476194
 20
0.4714802923
 10
7.1464942977
 20
0.4536702978
 10
7.1077666078
 20
0.4371637454
 10
7.0661164436
 20
0.4223773168
 10
7.0213441264
 20
0.4093093543
 10
6.9736493348
 20
0.3979615156
 10
6.9234829987
 20
0.3887554559
 10
6.8709954281
 20
0.381831727
 10
6.816036313
 20
0.377049777
 10
6.7586056534
 20
0.3744096061
  0
LWPOLYLINE
  5
29F
100
AcDbEntity
  8
0
100
AcDbPolyline
 62
7
  6
CONTINUOUS
 90
16
 70
0
 10
1.3291880887
 20
-79.4994484495
 10
1.3277611643
 20
-79.5507798519
 10
1.3245640333
 20
-79.5994001748
 10
1.3195966959
 20
-79.6453094182
 10
1.3127482366
 20
-79.6882666802
 10
1.3041295709
 20
-79.7285128627
 10
1.2940734448
 20
-79.7667706709
 10
1.2826520576
 20
-79.8031108756
 10
1.26979321
 20
-79.837462706
 10
1.25561305
 20
-79.8703365547
 10
1.2401696728
 20
-79.9017841089
 10
1.2234049833
 20
-79.9317536814
 10
1.2052608445
 20
-79.9606006034
 10
1.1857178772
 20
-79.9884433186
 10
1.1647954605
 20
-80.0151633832
 10
1.1424935944
 20
-80.0407607974
  0
LWPOLYLINE
  5
2A0
100
AcDbEntity
  8
0
100
AcDbPolyline
 62
7
  6
CONTINUOUS
 90
16
 70
0
 10
3.6984777522
 20
-79.4994484495
 10
3.6970508362
 20
-79.5507796448
 10
3.6938537126
 20
-79.5993998065
 10
3.6888863815
 20
-79.6453089344
 10
3.6820379285
 20
-79.688266135
 10
3.673419268
 20
-79.728512302
 10
3.6633631427
 20
-79.7667701156
 10
3.6519417504
 20
-79.8031103432
 10
3.6390828933
 20
-79.8374622175
 10
3.6249027206
 20
-79.8703361172
 10
3.6094593263
 20
-79.9017837276
 10
3.5926946164
 20
-79.9317533633
 10
3.574550458
 20
-79.9606003468
 10
3.5550074734
 20
-79.9884431189
 10
3.5340850403
 20
-80.0151632388
 10
3.5117831586
 20
-80.0407607065
  0
LINE
  5
2A1
100
AcDbEntity
  8
0
100
AcDbLine
 62
7
  6
CONTINUOUS
 10
2.721641
 20
-0.530015
 11
3.18929
 21
1.139788
  0
LINE
  5
2A2
100
AcDbEntity
  8
0
100
AcDbLine
 62
7
  6
CONTINUOUS
 10
2.270357
 20
-2.123329
 11
2.52952
 21
-1.225078
  0
LINE
  5
2A3
100
AcDbEntity
  8
0
100
AcDbLine
 62
7
  6
CONTINUOUS
 10
2.752649
 20
2.376123
 11
1.341334
 21
-2.123329
  0
LINE
  5
2A4
100
AcDbEntity
  8
0
100
AcDbLine
 62
7
  6
CONTINUOUS
 10
3.661224
 20
2.376123
 11
2.752649
 21
2.376123
  0
LINE
  5
2A5
100
AcDbEntity
  8
0
100
AcDbLine
 62
7
  6
CONTINUOUS
 10
0.773104
 20
2.376123
 11
-0.156155
 21
2.376123
  0
LINE
  5
2A6
100
AcDbEntity
  8
0
100
AcDbLine
 62
7
  6
CONTINUOUS
 10
-2.024659
 20
2.376123
 11
-2.963094
 21
2.376123
  0
LINE
  5
2A7
100
AcDbEntity
  8
0
100
AcDbLine
 62
7
  6
CONTINUOUS
 10
-5.162732
 20
2.376123
 11
-6.101302
 21
2.376123
  0
LINE
  5
2A8
100
AcDbEntity
  8
0
100
AcDbLine
 62
7
  6
CONTINUOUS
 10
-7.842856
 20
2.376123
 11
-8.863131
 21
2.376123
  0
LINE
  5
2A9
100
AcDbEntity
  8
0
100
AcDbLine
 62
7
  6
CONTINUOUS
 10
-3.874976
 20
2.376393
 11
-4.814188
 21
2.376393
  0
LWPOLYLINE
  5
2AA
100
AcDbEntity
  8
0
100
AcDbPolyline
 62
7
  6
CONTINUOUS
 90
25
 70
0
 10
6.9576432625
 20
1.6360833337
 10
6.9948996777
 20
1.6306142992
 10
7.0317371743
 20
1.6229791589
 10
7.0681557524
 20
1.6131779129
 10
7.1045139956
 20
1.6010507411
 10
7.1404533203
 20
1.5867574635
 10
7.1748979755
 20
1.5707775406
 10
7.2076545692
 20
1.5530893225
 10
7.2389164934
 20
1.5337144591
 10
7.2681881733
 20
1.5131973597
 10
7.2952226995
 20
1.491719869
 10
7.3202669812
 20
1.4691001423
 10
7.3435661714
 20
1.4453370556
 10
7.3651659991
 20
1.4204468338
 10
7.3850207352
 20
1.3944132519
 10
7.4032383444
 20
1.3671865108
 10
7.4199048028
 20
1.3387188138
 10
7.4349341343
 20
1.3090579575
 10
7.4481763754
 20
1.2782975324
 10
7.4596413796
 20
1.2463653576
 10
7.4693192934
 20
1.2133336141
 10
7.4770305928
 20
1.1795124349
 10
7.4827154365
 20
1.145005198
 10
7.4864336659
 20
1.1097085255
 10
7.4881852809
 20
1.0736224175
  0
LWPOLYLINE
  5
2AB
100
AcDbEntity
  8
0
100
AcDbPolyline
 62
7
  6
CONTINUOUS
 90
19
 70
0
 10
7.6353968572
 20
2.2761820764
 10
7.5499053796
 20
2.305056453
 10
7.4591989089
 20
2.3308835913
 10
7.3632774453
 20
2.3536634916
 10
7.2620392487
 20
2.3734174458
 10
7.155586059
 20
2.3901241619
 10
7.0442230964
 20
2.4037197632
 10
6.9280456356
 20
2.4141851384
 10
6.8069584019
 20
2.4215393988
 10
6.6809807909
 20
2.4257760017
 10
6.550207311
 20
2.4268735648
 10
6.4145434538
 20
2.4248534703
 10
6.2737250895
 20
2.4197733224
 10
6.1277559058
 20
2.4117112931
 10
5.9766322151
 20
2.4005892103
 10
5.820078825
 20
2.3862301618
 10
5.6580040045
 20
2.3685751768
 10
5.4904994846
 20
2.347683226
 10
5.3175652652
 20
2.3235543096
  0
LWPOLYLINE
  5
2AC
100
AcDbEntity
  8
0
100
AcDbPolyline
 62
7
  6
CONTINUOUS
 90
5
 70
0
 10
7.2805774814
 20
-0.758947453
 10
7.3127422525
 20
-0.8559481091
 10
7.3450334195
 20
-0.955928958
 10
7.3774509824
 20
-1.05889
 10
7.4097944835
 20
-1.1648199077
  0
LINE
  5
2AD
100
AcDbEntity
  8
0
100
AcDbLine
 62
7
  6
CONTINUOUS
 10
5.041767
 20
-2.123329
 11
3.661224
 21
2.376123
  0
LINE
  5
2AE
100
AcDbEntity
  8
0
100
AcDbLine
 62
7
  6
CONTINUOUS
 10
7.4097944835
 20
-1.1648199077
 11
7.5800230296
 21
-1.7395461378
  0
LINE
  5
2AF
100
AcDbEntity
  8
0
100
AcDbLine
 62
7
  6
CONTINUOUS
 10
7.5800230296
 20
-1.7395461378
 11
7.6912717989
 21
-2.1233285009
  0
LINE
  5
2B0
100
AcDbEntity
  8
0
100
AcDbLine
 62
7
  6
CONTINUOUS
 10
3.808571
 20
-1.225078
 11
4.051876
 21
-2.123329
  0
LWPOLYLINE
  5
2B1
100
AcDbEntity
  8
0
100
AcDbPolyline
 62
7
  6
CONTINUOUS
 90
22
 70
0
 10
8.3852090456
 20
-1.3239181191
 10
8.2552961894
 20
-0.8362687419
 10
8.2365192075
 20
-0.7694243395
 10
8.2172751636
 20
-0.704984745
 10
8.1977191906
 20
-0.6428107559
 10
8.1776961554
 20
-0.5830415746
 10
8.1567406593
 20
-0.5260948089
 10
8.1347254956
 20
-0.4720520663
 10
8.1117778709
 20
-0.4208317392
 10
8.0878140064
 20
-0.3726066125
 10
8.0627894276
 20
-0.3274079858
 10
8.0367486091
 20
-0.2852045595
 10
8.0097411953
 20
-0.2460752196
 10
7.9817468128
 20
-0.2101615213
 10
7.9527858351
 20
-0.1773219093
 10
7.9229690263
 20
-0.147210604
 10
7.8921141965
 20
-0.1197168313
 10
7.8604035357
 20
-0.0949513651
 10
7.8284943782
 20
-0.0729007482
 10
7.7966058354
 20
-0.0535604946
 10
7.7645187959
 20
-0.0369350902
 10
7.7322332597
 20
-0.023024535
  0
LINE
  5
2B2
100
AcDbEntity
  8
0
100
AcDbLine
 62
7
  6
CONTINUOUS
 10
8.5946845782
 20
-2.1233285009
 11
8.3852090456
 21
-1.3239181191
  0
LINE
  5
2B3
100
AcDbEntity
  8
0
100
AcDbLine
 62
7
  6
CONTINUOUS
 10
3.18929
 20
1.139788
 11
3.62087
 21
-0.530015
  0
LINE
  5
2B4
100
AcDbEntity
  8
0
100
AcDbLine
 62
7
  6
CONTINUOUS
 10
0.0665376772
 20
-77.4921049275
 11
-0.2288433986
 21
-79.0584569458
  0
LINE
  5
2B5
100
AcDbEntity
  8
0
100
AcDbLine
 62
7
  6
CONTINUOUS
 10
2.4358269771
 20
-77.4921049275
 11
2.1404462648
 21
-79.0584569458
  0
LINE
  5
2B6
100
AcDbEntity
  8
0
100
AcDbLine
 62
7
  6
CONTINUOUS
 10
0.2017473732
 20
-78.6694691923
 11
0.3660793365
 21
-77.8498905762
  0
LINE
  5
2B7
100
AcDbEntity
  8
0
100
AcDbLine
 62
7
  6
CONTINUOUS
 10
2.5710370366
 20
-78.6694691923
 11
2.7353686364
 21
-77.8498905762
  0
LWPOLYLINE
  5
2B8
100
AcDbEntity
  8
0
100
AcDbPolyline
 62
7
  6
CONTINUOUS
 90
10
 70
0
 10
0.1227017383
 20
-79.1042201842
 10
0.1403676658
 20
-79.0772739288
 10
0.1598431657
 20
-79.0511831608
 10
0.1811282379
 20
-79.0259478803
 10
0.2040588155
 20
-79.0016013782
 10
0.2287989654
 20
-78.9781103636
 10
0.255840889
 20
-78.9553749634
 10
0.2853486536
 20
-78.9333618865
 10
0.3171581919
 20
-78.9121044239
 10
0.351269504
 20
-78.8916025756
  0
LWPOLYLINE
  5
2B9
100
AcDbEntity
  8
0
100
AcDbPolyline
 62
7
  6
CONTINUOUS
 90
10
 70
0
 10
2.4919914017
 20
-79.1042201842
 10
2.5096571387
 20
-79.0772740404
 10
2.5291324859
 20
-79.0511833528
 10
2.5504174432
 20
-79.0259481212
 10
2.5733479338
 20
-79.0016016381
 10
2.5980880346
 20
-78.978110611
 10
2.6251299765
 20
-78.9553751635
 10
2.6546378366
 20
-78.9333620032
 10
2.6864475378
 20
-78.9121044225
 10
2.7205590801
 20
-78.8916024212
  0
LWPOLYLINE
  5
2BA
100
AcDbEntity
  8
0
100
AcDbPolyline
 62
7
  6
CONTINUOUS
 90
16
 70
0
 10
1.4860216235
 20
-80.182394099
 10
1.5166630859
 20
-80.1419629202
 10
1.5451394935
 20
-80.1007742532
 10
1.5714508465
 20
-80.0588280979
 10
1.5955371269
 20
-80.0162211383
 10
1.6174583525
 20
-79.9728566905
 10
1.6373945769
 20
-79.9284447021
 10
1.6554044136
 20
-79.8830143268
 10
1.6714292491
 20
-79.8365364109
 10
1.6854732957
 20
-79.7886334411
 10
1.6975991824
 20
-79.7393413722
 10
1.7077442803
 20
-79.6886242493
 10
1.7157249157
 20
-79.6359966938
 10
1.721479864
 20
-79.5812969128
 10
1.7250703498
 20
-79.5246866992
 10
1.7264963732
 20
-79.466166053
  0
LWPOLYLINE
  5
2BB
100
AcDbEntity
  8
0
100
AcDbPolyline
 62
7
  6
CONTINUOUS
 90
16
 70
0
 10
3.855311287
 20
-80.182394099
 10
3.8859527493
 20
-80.1419629202
 10
3.914429157
 20
-80.1007742532
 10
3.9407405099
 20
-80.0588280979
 10
3.9648267903
 20
-80.0162211383
 10
3.986748016
 20
-79.9728566905
 10
4.0066842404
 20
-79.9284447021
 10
4.0246940771
 20
-79.8830143268
 10
4.0407189125
 20
-79.8365364109
 10
4.0547629592
 20
-79.7886334411
 10
4.0668888458
 20
-79.7393413722
 10
4.0770339437
 20
-79.6886242493
 10
4.0850145791
 20
-79.6359966938
 10
4.0907695274
 20
-79.5812969128
 10
4.0943600133
 20
-79.5246866992
 10
4.0957860366
 20
-79.466166053
  0
LWPOLYLINE
  5
2BC
100
AcDbEntity
  8
0
100
AcDbPolyline
 62
7
  6
CONTINUOUS
 90
16
 70
0
 10
-0.9054532412
 20
-78.9913745184
 10
-0.8736084299
 20
-78.9550487967
 10
-0.8440747239
 20
-78.9179516138
 10
-0.8168521229
 20
-78.8800829697
 10
-0.7920267775
 20
-78.8415451845
 10
-0.7695125372
 20
-78.8022359381
 10
-0.7490509506
 20
-78.7618482709
 10
-0.7305675749
 20
-78.7204201506
 10
-0.7141368528
 20
-78.6779136094
 10
-0.6997236611
 20
-78.6339077849
 10
-0.6872491939
 20
-78.5884498399
 10
-0.6767922572
 20
-78.5414926115
 10
-0.668554146
 20
-78.4924737492
 10
-0.6626019586
 20
-78.4412058026
 10
-0.6588685968
 20
-78.3878762219
 10
-0.6573540604
 20
-78.3324850073
  0
LWPOLYLINE
  5
2BD
100
AcDbEntity
  8
0
100
AcDbPolyline
 62
7
  6
CONTINUOUS
 90
16
 70
0
 10
1.1424935944
 20
-80.0407607974
 10
1.1157227464
 20
-80.0682540766
 10
1.0886481403
 20
-80.093510243
 10
1.061269776
 20
-80.1165292965
 10
1.0336639342
 20
-80.1371746466
 10
1.0057543343
 20
-80.1555828838
 10
0.9773121341
 20
-80.1721637796
 10
0.9483663588
 20
-80.1869998104
 10
0.9188879832
 20
-80.2000084998
 10
0.8885610904
 20
-80.2113521891
 10
0.8574213767
 20
-80.2211084103
 10
0.8254331458
 20
-80.2291996314
 10
0.7921733919
 20
-80.2355555983
 10
0.757501113
 20
-80.2401528928
 10
0.721557311
 20
-80.243014933
 10
0.6843419861
 20
-80.2441417189
  0
LWPOLYLINE
  5
2BE
100
AcDbEntity
  8
0
100
AcDbPolyline
 62
7
  6
CONTINUOUS
 90
16
 70
0
 10
3.5117831586
 20
-80.0407607065
 10
3.485012345
 20
-80.0682539887
 10
3.4579377702
 20
-80.0935101577
 10
3.4305594341
 20
-80.1165292136
 10
3.4029536188
 20
-80.1371745653
 10
3.3750440422
 20
-80.1555828038
 10
3.3466018581
 20
-80.1721637026
 10
3.3176560919
 20
-80.186999739
 10
3.2881777182
 20
-80.2000084357
 10
3.2578508144
 20
-80.2113521336
 10
3.2267110778
 20
-80.2211083656
 10
3.1947228111
 20
-80.2291995989
 10
3.161463
 20
-80.2355555766
 10
3.1267906397
 20
-80.2401528797
 10
3.090846735
 20
-80.2430149271
 10
3.053631286
 20
-80.2441417189
  0
LWPOLYLINE
  5
2BF
100
AcDbEntity
  8
0
100
AcDbPolyline
 62
7
  6
CONTINUOUS
 90
16
 70
0
 10
-1.2376563162
 20
-78.7548217097
 10
-1.254992106
 20
-78.7696055063
 10
-1.2744661502
 20
-78.7839086763
 10
-1.2960784486
 20
-78.7977312197
 10
-1.3195782703
 20
-78.8111401191
 10
-1.3452163463
 20
-78.8240683918
 10
-1.3737448694
 20
-78.8363150904
 10
-1.4051483309
 20
-78.8479422881
 10
-1.4394422396
 20
-78.8588879116
 10
-1.4774253143
 20
-78.8687647938
 10
-1.5190407818
 20
-78.8776084194
 10
-1.5643454154
 20
-78.8853833037
 10
-1.6143082536
 20
-78.8915958246
 10
-1.6692523092
 20
-78.8960814415
 10
-1.7288545695
 20
-78.899004695
 10
-1.7931150343
 20
-78.9003655852
  0
LWPOLYLINE
  5
2C0
100
AcDbEntity
  8
0
100
AcDbPolyline
 62
7
  6
CONTINUOUS
 90
10
 70
0
 10
0.351269504
 20
-78.8916025756
 10
0.3836007275
 20
-78.8746796283
 10
0.4168971024
 20
-78.8596589825
 10
0.4511586287
 20
-78.8465406383
 10
0.486344355
 20
-78.8352853288
 10
0.5224952326
 20
-78.825932321
 10
0.5597341161
 20
-78.818599415
 10
0.5981019569
 20
-78.8133258776
 10
0.6375578035
 20
-78.8100724421
 10
0.678101656
 20
-78.8088391084
  0
LWPOLYLINE
  5
2C1
100
AcDbEntity
  8
0
100
AcDbPolyline
 62
7
  6
CONTINUOUS
 90
10
 70
0
 10
2.7205590801
 20
-78.8916024212
 10
2.7528901891
 20
-78.8746795309
 10
2.7861864756
 20
-78.8596589296
 10
2.8204479395
 20
-78.8465406173
 10
2.8556336364
 20
-78.8352853237
 10
2.8917845107
 20
-78.825932319
 10
2.9290233965
 20
-78.8185994141
 10
2.9673912382
 20
-78.8133258792
 10
3.0068470914
 20
-78.8100724439
 10
3.0473909559
 20
-78.8088391084
  0
LINE
  5
2C2
100
AcDbEntity
  8
RACCORDO
100
AcDbLine
 62
250
  6
CONTINUOUS
 10
154.0
 20
79.5
 11
156.0
 21
79.5
  0
LINE
  5
2C3
100
AcDbEntity
  8
RACCORDO
100
AcDbLine
 62
250
  6
CONTINUOUS
 10
-154.0
 20
79.5
 11
-156.0
 21
79.5
  0
LINE
  5
2C4
100
AcDbEntity
  8
RACCORDO
100
AcDbLine
 62
250
  6
CONTINUOUS
 10
146.0
 20
87.5
 11
-146.0
 21
87.5
  0
LINE
  5
2C5
100
AcDbEntity
  8
RACCORDO
100
AcDbLine
 62
7
  6
CONTINUOUS
 10
146.0
 20
89.5
 11
-146.0
 21
89.5
  0
LINE
  5
2C6
100
AcDbEntity
  8
RACCORDO
100
AcDbLine
 62
250
  6
CONTINUOUS
 10
146.0
 20
-87.5
 11
146.0
 21
-89.5
  0
LINE
  5
2C7
100
AcDbEntity
  8
RACCORDO
100
AcDbLine
 62
250
  6
CONTINUOUS
 10
146.0
 20
87.5
 11
146.0
 21
89.5
  0
LINE
  5
2C8
100
AcDbEntity
  8
RACCORDO
100
AcDbLine
 62
250
  6
CONTINUOUS
 10
154.0
 20
-79.5
 11
154.0
 21
79.5
  0
LINE
  5
2C9
100
AcDbEntity
  8
RACCORDO
100
AcDbLine
 62
7
  6
CONTINUOUS
 10
156.0
 20
-79.5
 11
156.0
 21
79.5
  0
LINE
  5
2CA
100
AcDbEntity
  8
RACCORDO
100
AcDbLine
 62
7
  6
CONTINUOUS
 10
-198.4728261719
 20
-89.5
 11
-200.9728261719
 21
-89.5
  0
LINE
  5
2CB
100
AcDbEntity
  8
0
100
AcDbLine
 62
250
  6
CONTINUOUS
 10
-196.8728261719
 20
-79.5025
 11
-198.4728261719
 21
-79.5025
  0
LINE
  5
2CC
100
AcDbEntity
  8
RACCORDO
100
AcDbLine
 62
250
  6
CONTINUOUS
 10
-198.4728261719
 20
-79.5
 11
-202.9728261719
 21
-79.5
  0
LINE
  5
2CD
100
AcDbEntity
  8
ASSI
100
AcDbLine
 62
7
  6
CONTINUOUS
 10
-196.3728261719
 20
-72.7
 11
-196.8728261719
 21
-72.7760869565
  0
LINE
  5
2CE
100
AcDbEntity
  8
ASSI
100
AcDbLine
 62
7
  6
CONTINUOUS
 10
-196.3728261719
 20
-66.3
 11
-196.8728261719
 21
-66.2239130435
  0
LINE
  5
2CF
100
AcDbEntity
  8
0
100
AcDbLine
 62
7
  6
CONTINUOUS
 10
-203.0228261719
 20
-2.1233285009
 11
-203.0228261719
 21
2.4269090604
  0
LINE
  5
2D0
100
AcDbEntity
  8
RACCORDO
100
AcDbLine
 62
7
  6
CONTINUOUS
 10
-202.9728261719
 20
-87.5
 11
-202.9728261719
 21
87.5
  0
LINE
  5
2D1
100
AcDbEntity
  8
RACCORDO
100
AcDbLine
 62
250
  6
CONTINUOUS
 10
-200.9728261719
 20
-89.5
 11
-200.9728261719
 21
89.5
  0
LINE
  5
2D2
100
AcDbEntity
  8
0
100
AcDbLine
 62
7
  6
CONTINUOUS
 10
-202.9728261719
 20
-2.1233285009
 11
-203.0228261719
 21
-2.1233285009
  0
LINE
  5
2D3
100
AcDbEntity
  8
0
100
AcDbLine
 62
250
  6
CONTINUOUS
 10
-202.9728261719
 20
-0.9055179521
 11
-203.0228261719
 21
-0.9055179521
  0
LINE
  5
2D4
100
AcDbEntity
  8
0
100
AcDbLine
 62
7
  6
CONTINUOUS
 10
-202.9728261719
 20
-0.023024535
 11
-203.0228261719
 21
-0.023024535
  0
LINE
  5
2D5
100
AcDbEntity
  8
0
100
AcDbLine
 62
7
  6
CONTINUOUS
 10
-202.9728261719
 20
0.0035632995
 11
-203.0228261719
 21
0.0035632995
  0
LINE
  5
2D6
100
AcDbEntity
  8
0
100
AcDbLine
 62
7
  6
CONTINUOUS
 10
-198.4728261719
 20
-89.5
 11
-198.4728261719
 21
89.5
  0
LINE
  5
2D7
100
AcDbEntity
  8
0
100
AcDbLine
 62
7
  6
CONTINUOUS
 10
-196.8728261719
 20
85.1875
 11
-196.8728261719
 21
-85.1875
  0
LINE
  5
2D8
100
AcDbEntity
  8
ASSI
100
AcDbLine
 62
7
  6
CONTINUOUS
 10
-196.3728261719
 20
-66.3
 11
-196.3728261719
 21
-72.7
  0
LINE
  5
2D9
100
AcDbEntity
  8
ASSI
100
AcDbLine
 62
7
  6
CONTINUOUS
 10
-196.3728261719
 20
66.3
 11
-196.3728261719
 21
72.7
  0
LINE
  5
2DA
100
AcDbEntity
  8
0
100
AcDbLine
 62
250
  6
CONTINUOUS
 10
-202.9728261719
 20
2.2761820764
 11
-203.0228261719
 21
2.2761820764
  0
LINE
  5
2DB
100
AcDbEntity
  8
0
100
AcDbLine
 62
7
  6
CONTINUOUS
 10
-202.9728261719
 20
2.426927257
 11
-203.0228261719
 21
2.426927257
  0
LINE
  5
2DC
100
AcDbEntity
  8
ASSI
100
AcDbLine
 62
7
  6
CONTINUOUS
 10
-196.8728261719
 20
66.2239130435
 11
-196.3728261719
 21
66.3
  0
LINE
  5
2DD
100
AcDbEntity
  8
ASSI
100
AcDbLine
 62
7
  6
CONTINUOUS
 10
-196.8728261719
 20
72.7760869565
 11
-196.3728261719
 21
72.7
  0
LINE
  5
2DE
100
AcDbEntity
  8
RACCORDO
100
AcDbLine
 62
250
  6
CONTINUOUS
 10
-198.4728261719
 20
79.5
 11
-202.9728261719
 21
79.5
  0
LINE
  5
2DF
100
AcDbEntity
  8
0
100
AcDbLine
 62
250
  6
CONTINUOUS
 10
-196.8728261719
 20
79.5025
 11
-198.4728261719
 21
79.5025
  0
LINE
  5
2E0
100
AcDbEntity
  8
RACCORDO
100
AcDbLine
 62
7
  6
CONTINUOUS
 10
-198.4728261719
 20
89.5
 11
-200.9728261719
 21
89.5
  0
ARC
  5
2E1
100
AcDbEntity
  8
RACCORDO
100
AcDbCircle
 62
7
  6
CONTINUOUS
 10
-146.0
 20
-79.5
 40
10.0
100
AcDbArc
 50
180.0
 51
270.0
  0
ARC
  5
2E2
100
AcDbEntity
  8
RACCORDO
100
AcDbCircle
 62
250
  6
CONTINUOUS
 10
-146.0
 20
-79.5
 40
7.999999972
100
AcDbArc
 50
180.0
 51
270.0
  0
CIRCLE
  5
2E3
100
AcDbEntity
  8
0
100
AcDbCircle
 62
7
  6
CONTINUOUS
 10
-136.0
 20
-69.5
 40
3.0
  0
CIRCLE
  5
2E4
100
AcDbEntity
  8
0
100
AcDbCircle
 62
250
  6
CONTINUOUS
 10
-136.0
 20
-69.5
 40
2.7071067812
  0
CIRCLE
  5
2E5
100
AcDbEntity
  8
0
100
AcDbCircle
 62
7
  6
CONTINUOUS
 10
-136.0
 20
-69.5
 40
1.65
  0
ARC
  5
2E6
100
AcDbEntity
  8
RACCORDO
100
AcDbCircle
 62
7
  6
CONTINUOUS
 10
-146.0
 20
79.5
 40
10.0
100
AcDbArc
 50
90.0
 51
180.0
  0
ARC
  5
2E7
100
AcDbEntity
  8
RACCORDO
100
AcDbCircle
 62
250
  6
CONTINUOUS
 10
-146.0
 20
79.5
 40
7.999999972
100
AcDbArc
 50
90.0
 51
180.0
  0
CIRCLE
  5
2E8
100
AcDbEntity
  8
0
100
AcDbCircle
 62
7
  6
CONTINUOUS
 10
-136.0
 20
69.5
 40
3.0
  0
CIRCLE
  5
2E9
100
AcDbEntity
  8
0
100
AcDbCircle
 62
7
  6
CONTINUOUS
 10
-41.0
 20
69.5
 40
3.0
  0
CIRCLE
  5
2EA
100
AcDbEntity
  8
0
100
AcDbCircle
 62
250
  6
CONTINUOUS
 10
-136.0
 20
69.5
 40
2.7071067812
  0
CIRCLE
  5
2EB
100
AcDbEntity
  8
0
100
AcDbCircle
 62
7
  6
CONTINUOUS
 10
-136.0
 20
69.5
 40
1.65
  0
CIRCLE
  5
2EC
100
AcDbEntity
  8
0
100
AcDbCircle
 62
7
  6
CONTINUOUS
 10
-41.0
 20
69.5
 40
1.65
  0
ARC
  5
2ED
100
AcDbEntity
  8
RACCORDO
100
AcDbCircle
 62
7
  6
CONTINUOUS
 10
146.0
 20
-79.5
 40
10.0
100
AcDbArc
 50
270.0
 51
360.0
  0
ARC
  5
2EE
100
AcDbEntity
  8
RACCORDO
100
AcDbCircle
 62
250
  6
CONTINUOUS
 10
146.0
 20
-79.5
 40
7.999999972
100
AcDbArc
 50
270.0
 51
360.0
  0
CIRCLE
  5
2EF
100
AcDbEntity
  8
0
100
AcDbCircle
 62
7
  6
CONTINUOUS
 10
136.0
 20
-69.5
 40
3.0
  0
CIRCLE
  5
2F0
100
AcDbEntity
  8
0
100
AcDbCircle
 62
7
  6
CONTINUOUS
 10
41.0
 20
-69.5
 40
3.0
  0
CIRCLE
  5
2F1
100
AcDbEntity
  8
0
100
AcDbCircle
 62
250
  6
CONTINUOUS
 10
136.0
 20
-69.5
 40
2.7071067812
  0
CIRCLE
  5
2F2
100
AcDbEntity
  8
0
100
AcDbCircle
 62
7
  6
CONTINUOUS
 10
136.0
 20
-69.5
 40
1.65
  0
CIRCLE
  5
2F3
100
AcDbEntity
  8
0
100
AcDbCircle
 62
7
  6
CONTINUOUS
 10
41.0
 20
-69.5
 40
1.65
  0
ARC
  5
2F4
100
AcDbEntity
  8
RACCORDO
100
AcDbCircle
 62
7
  6
CONTINUOUS
 10
146.0
 20
79.5
 40
10.0
100
AcDbArc
 50
0.0
 51
90.0
  0
ARC
  5
2F5
100
AcDbEntity
  8
RACCORDO
100
AcDbCircle
 62
250
  6
CONTINUOUS
 10
146.0
 20
79.5
 40
7.999999972
100
AcDbArc
 50
0.0
 51
90.0
  0
CIRCLE
  5
2F6
100
AcDbEntity
  8
0
100
AcDbCircle
 62
7
  6
CONTINUOUS
 10
136.0
 20
69.5
 40
3.0
  0
CIRCLE
  5
2F7
100
AcDbEntity
  8
0
100
AcDbCircle
 62
250
  6
CONTINUOUS
 10
136.0
 20
69.5
 40
2.7071067812
  0
CIRCLE
  5
2F8
100
AcDbEntity
  8
0
100
AcDbCircle
 62
7
  6
CONTINUOUS
 10
136.0
 20
69.5
 40
1.65
  0
ARC
  5
2F9
100
AcDbEntity
  8
RACCORDO
100
AcDbCircle
 62
7
  6
CONTINUOUS
 10
-200.9728261719
 20
-87.5
 40
2.0
100
AcDbArc
 50
180.0
 51
270.0
  0
ARC
  5
2FA
100
AcDbEntity
  8
RACCORDO
100
AcDbCircle
 62
7
  6
CONTINUOUS
 10
-200.9728261719
 20
87.5
 40
2.0
100
AcDbArc
 50
90.0
 51
180.0
  0
ARC
  5
2FB
100
AcDbEntity
  8
0
100
AcDbCircle
 62
7
  6
CONTINUOUS
 10
-198.6909589844
 20
-85.1875
 40
1.8181328125
100
AcDbArc
 50
276.8907336685
 51
360.0
  0
ARC
  5
2FC
100
AcDbEntity
  8
0
100
AcDbCircle
 62
7
  6
CONTINUOUS
 10
-198.6909589844
 20
85.1875
 40
1.8181328125
100
AcDbArc
 50
0.0
 51
83.1092663315
  0
ENDSEC
  0
SECTION
  2
OBJECTS
  0
DICTIONARY
  5
C
100
AcDbDictionary
280
0
281
1
  3
ACAD_GROUP
350
D
  3
ACAD_MLINESTYLE
350
17
  3
ACAD_LAYOUT
350
1A
  3
ACAD_PLOTSETTINGS
350
19
  3
ACAD_PLOTSTYLENAME
350
E
  0
DICTIONARY
  5
D
102
{ACAD_REACTORS
330
C
102
}
100
AcDbDictionary
280
0
281
1
  0
ACDBDICTIONARYWDFLT
  5
E
102
{ACAD_REACTORS
330
C
102
}
100
AcDbDictionary
281
1
  3
Normal
350
F
100
AcDbDictionaryWithDefault
340
F
  0
DICTIONARY
  5
17
102
{ACAD_REACTORS
330
C
102
}
100
AcDbDictionary
280
0
281
1
  3
Standard
350
18
  0
DICTIONARY
  5
19
102
{ACAD_REACTORS
330
C
102
}
100
AcDbDictionary
281
1
  0
DICTIONARY
  5
1A
102
{ACAD_REACTORS
330
C
102
}
100
AcDbDictionary
281
1
  3
Model
350
2FD
  3
Layout1
350
2FE
  0
ACDBPLACEHOLDER
  5
F
102
{ACAD_REACTORS
330
E
102
}
  0
MLINESTYLE
  5
18
102
{ACAD_REACTORS
330
17
102
}
100
AcDbMlineStyle
  2
STANDARD
 70
0
  3

 62
256
 51
90.0
 52
90.0
 71
2
 49
0.5
 62
256
  6
BYLAYER
 49
-0.5
 62
256
  6
BYLAYER
  0
LAYOUT
  5
2FD
102
{ACAD_REACTORS
330
1A
102
}
100
AcDbPlotSettings
  1

  2
none_device
  4
ANSI_C_(22.00_x_17.00_Inches)
  6

 40
0.0
 41
0.0
 42
0.0
 43
0.0
 44
558.8
 45
431.8
 46
0.0
 47
0.0
 48
0.0
 49
0.0
140
0.0
141
0.0
142
1.0
143
1.0
 70
1024
 72
1
 73
0
 74
0
  7

 75
0
147
1.0
148
0.0
149
0.0
100
AcDbLayout
  1
Model
 70
0
 71
0
 10
0.0
 20
0.0
 11
558.8
 21
431.8
 12
0.0
 22
0.0
 32
0.0
 14
0.0
 24
0.0
 34
0.0
 15
0.0
 25
0.0
 35
0.0
146
0.0
 13
0.0
 23
0.0
 33
0.0
 16
1.0
 26
0.0
 36
0.0
 17
0.0
 27
1.0
 37
0.0
 76
0
330
212
345
0
346
0
  0
LAYOUT
  5
2FE
102
{ACAD_REACTORS
330
1A
102
}
100
AcDbPlotSettings
  1

  2
none_device
  4
ANSI_C_(22.00_x_17.00_Inches)
  6

 40
0.0
 41
0.0
 42
0.0
 43
0.0
 44
558.8
 45
431.8
 46
0.0
 47
0.0
 48
0.0
 49
0.0
140
0.0
141
0.0
142
1.0
143
1.0
 70
0
 72
1
 73
0
 74
0
  7

 75
0
147
1.0
148
0.0
149
0.0
100
AcDbLayout
  1
Layout1
 70
0
 71
1
 10
0.0
 20
0.0
 11
558.8
 21
431.8
 12
0.0
 22
0.0
 32
0.0
 14
0.0
 24
0.0
 34
0.0
 15
0.0
 25
0.0
 35
0.0
146
0.0
 13
0.0
 23
0.0
 33
0.0
 16
1.0
 26
0.0
 36
0.0
 17
0.0
 27
1.0
 37
0.0
 76
0
330
213
345
0
346
0
  0
ENDSEC
  0
EOF
