  0
SECTION
  2
HEADER
  9
$ACADVER
  1
AC1015
  9
$DWGCODEPAGE
  3
ANSI_1252
  9
$EXTMAX
 10
297.0
 20
210.0
 30
0.0
  9
$EXTMIN
 10
0.0
 20
0.0
 30
0.0
  9
$LIMMIN
 10
0.0
 20
0.0
  9
$LIMMAX
 10
297.0
 20
210.0
  9
$VIEWCTR
 10
148.5
 20
105.0
  9
$VIEWSIZE
 40
210.0
  9
$CLAYER
  8
0
  9
$LTSCALE
 40
16.335
  9
$CELTYPE
  6
BYLAYER
  9
$DIMSCALE
 40
1.0
  9
$DIMASZ
 40
3.0
  9
$DIMEXO
 40
1.85625
  9
$DIMDLI
 40
11.286
  9
$DIMEXE
 40
5.346
  9
$DIMCEN
 40
2.673
  9
$DIMLFAC
 40
1.0
  9
$DIMBLK
  1
_FILLED
  9
$DIMTXT
 40
3.0
  9
$DIMTOL
 70
1
  9
$DIMLIM
 70
0
  9
$DIMTFAC
 40
1.0
  9
$DIMTP
 40
0.01
  9
$DIMTM
 40
0.01
  9
$PDMODE
 70
3
  9
$PDSIZE
 40
3.0
  9
$HANDSEED
  5
441
  9
$TILEMODE
 70
1
  9
$MEASUREMENT
 70
1
  9
$INSUNITS
 70
4
  0
ENDSEC
  0
SECTION
  2
CLASSES
  0
CLASS
  1
ACDBDICTIONARYWDFLT
  2
AcDbDictionaryWithDefault
  3
AutoCAD 2000
 90
0
280
0
281
0
  0
CLASS
  1
ACDBPLACEHOLDER
  2
AcDbPlaceHolder
  3
AutoCAD 2000
 90
0
280
0
281
0
  0
CLASS
  1
LAYOUT
  2
AcDbLayout
  3
AutoCAD 2000
 90
0
280
0
281
0
  0
ENDSEC
  0
SECTION
  2
TABLES
  0
TABLE
  2
VPORT
  5
8
100
AcDbSymbolTable
 70
2
  0
VPORT
  5
1F4
100
AcDbSymbolTableRecord
100
AcDbViewportTableRecord
  2
*ACTIVE
 70
0
 10
0.0
 20
0.0
 11
1.0
 21
1.0
 12
148.5
 22
105.0
 13
0.0
 23
0.0
 14
1.0
 24
1.0
 15
0.0
 25
0.0
 16
0.0
 26
0.0
 36
1.0
 17
0.0
 27
0.0
 37
0.0
 40
210.0
 41
1.4142857143
 42
50.0
 43
0.0
 44
0.0
 50
0.0
 51
0.0
 71
0
 72
100
 73
1
 74
1
 75
0
 76
0
 77
0
 78
0
  0
ENDTAB
  0
TABLE
  2
LTYPE
  5
5
100
AcDbSymbolTable
 70
6
  0
LTYPE
  5
14
100
AcDbSymbolTableRecord
100
AcDbLinetypeTableRecord
  2
BYBLOCK
 70
0
  3

 72
65
 73
0
 40
0.0
  0
LTYPE
  5
15
100
AcDbSymbolTableRecord
100
AcDbLinetypeTableRecord
  2
BYLAYER
 70
0
  3

 72
65
 73
0
 40
0.0
  0
LTYPE
  5
16
100
AcDbSymbolTableRecord
100
AcDbLinetypeTableRecord
  2
CONTINUOUS
 70
64
  3
Solid line
 72
65
 73
0
 40
0.0
  0
LTYPE
  5
1F5
100
AcDbSymbolTableRecord
100
AcDbLinetypeTableRecord
  2
CENTER
 70
64
  3
____ _ ____ _ ____ _ ____ _ ____ _ ____ _ ____
 72
65
 73
4
 40
0.6
 49
0.375
 74
0
 49
-0.075
 74
0
 49
0.075
 74
0
 49
-0.075
 74
0
  0
LTYPE
  5
1F6
100
AcDbSymbolTableRecord
100
AcDbLinetypeTableRecord
  2
HIDDEN
 70
64
  3
- - - - - - - - - - - - - - - - - - - -
 72
65
 73
2
 40
0.2
 49
0.1
 74
0
 49
-0.1
 74
0
  0
LTYPE
  5
1F7
100
AcDbSymbolTableRecord
100
AcDbLinetypeTableRecord
  2
PHANTOM
 70
64
  3
_____ _ _ _____ _ _ _____ _ _ _____
 72
65
 73
6
 40
0.8
 49
0.45
 74
0
 49
-0.05
 74
0
 49
0.1
 74
0
 49
-0.05
 74
0
 49
0.1
 74
0
 49
-0.05
 74
0
  0
LTYPE
  5
1F8
100
AcDbSymbolTableRecord
100
AcDbLinetypeTableRecord
  2
DOT
 70
64
  3
. . . . . . . . . . . . . . . . . . . .
 72
65
 73
2
 40
0.2
 49
0.1
 74
0
 49
-0.1
 74
0
  0
LTYPE
  5
1F9
100
AcDbSymbolTableRecord
100
AcDbLinetypeTableRecord
  2
DASHED
 70
64
  3
- - - - - - - - - - - - - - - - - - - -
 72
65
 73
2
 40
0.2
 49
0.1
 74
0
 49
-0.1
 74
0
  0
ENDTAB
  0
TABLE
  2
LAYER
  5
2
100
AcDbSymbolTable
 70
36
  0
LAYER
  5
10
100
AcDbSymbolTableRecord
100
AcDbLayerTableRecord
  2
0
 70
0
 62
7
  6
CONTINUOUS
370
-3
390
F
  0
LAYER
  5
1FA
100
AcDbSymbolTableRecord
100
AcDbLayerTableRecord
  2
DEFAULT_1
 70
0
 62
7
  6
CENTER
370
-3
390
F
  0
LAYER
  5
1FB
100
AcDbSymbolTableRecord
100
AcDbLayerTableRecord
  2
DEFAULT_2
 70
0
 62
7
  6
HIDDEN
370
-3
390
F
  0
LAYER
  5
1FC
100
AcDbSymbolTableRecord
100
AcDbLayerTableRecord
  2
DEFAULT_3
 70
0
 62
7
  6
PHANTOM
370
-3
390
F
  0
LAYER
  5
1FD
100
AcDbSymbolTableRecord
100
AcDbLayerTableRecord
  2
ASSI
 70
0
 62
7
  6
CONTINUOUS
370
-3
390
F
  0
LAYER
  5
1FE
100
AcDbSymbolTableRecord
100
AcDbLayerTableRecord
  2
COLOR5
 70
0
 62
7
  6
CONTINUOUS
370
-3
390
F
  0
LAYER
  5
1FF
100
AcDbSymbolTableRecord
100
AcDbLayerTableRecord
  2
COORDINATE
 70
0
 62
7
  6
CONTINUOUS
370
-3
390
F
  0
LAYER
  5
200
100
AcDbSymbolTableRecord
100
AcDbLayerTableRecord
  2
COORD_ORIGINE
 70
0
 62
7
  6
CONTINUOUS
370
-3
390
F
  0
LAYER
  5
201
100
AcDbSymbolTableRecord
100
AcDbLayerTableRecord
  2
COPY_PUBLISH
 70
0
 62
7
  6
CONTINUOUS
370
-3
390
F
  0
LAYER
  5
202
100
AcDbSymbolTableRecord
100
AcDbLayerTableRecord
  2
COSMETIC
 70
0
 62
7
  6
CONTINUOUS
370
-3
390
F
  0
LAYER
  5
203
100
AcDbSymbolTableRecord
100
AcDbLayerTableRecord
  2
CURVE
 70
0
 62
7
  6
CONTINUOUS
370
-3
390
F
  0
LAYER
  5
204
100
AcDbSymbolTableRecord
100
AcDbLayerTableRecord
  2
DRAFT
 70
0
 62
7
  6
CONTINUOUS
370
-3
390
F
  0
LAYER
  5
205
100
AcDbSymbolTableRecord
100
AcDbLayerTableRecord
  2
IMPORT_IGES
 70
0
 62
7
  6
CONTINUOUS
370
-3
390
F
  0
LAYER
  5
206
100
AcDbSymbolTableRecord
100
AcDbLayerTableRecord
  2
INTF_1
 70
0
 62
7
  6
CONTINUOUS
370
-3
390
F
  0
LAYER
  5
207
100
AcDbSymbolTableRecord
100
AcDbLayerTableRecord
  2
INTF_2
 70
0
 62
7
  6
CONTINUOUS
370
-3
390
F
  0
LAYER
  5
208
100
AcDbSymbolTableRecord
100
AcDbLayerTableRecord
  2
NOTE
 70
0
 62
7
  6
CONTINUOUS
370
-3
390
F
  0
LAYER
  5
209
100
AcDbSymbolTableRecord
100
AcDbLayerTableRecord
  2
PIANI
 70
0
 62
7
  6
CONTINUOUS
370
-3
390
F
  0
LAYER
  5
20A
100
AcDbSymbolTableRecord
100
AcDbLayerTableRecord
  2
PIANI_ORIGINE
 70
0
 62
7
  6
CONTINUOUS
370
-3
390
F
  0
LAYER
  5
20B
100
AcDbSymbolTableRecord
100
AcDbLayerTableRecord
  2
PUNTI
 70
0
 62
7
  6
CONTINUOUS
370
-3
390
F
  0
LAYER
  5
20C
100
AcDbSymbolTableRecord
100
AcDbLayerTableRecord
  2
PUNZONI
 70
0
 62
7
  6
CONTINUOUS
370
-3
390
F
  0
LAYER
  5
20D
100
AcDbSymbolTableRecord
100
AcDbLayerTableRecord
  2
RACCORDO
 70
0
 62
7
  6
CONTINUOUS
370
-3
390
F
  0
LAYER
  5
20E
100
AcDbSymbolTableRecord
100
AcDbLayerTableRecord
  2
RGB
 70
0
 62
7
  6
CONTINUOUS
370
-3
390
F
  0
LAYER
  5
20F
100
AcDbSymbolTableRecord
100
AcDbLayerTableRecord
  2
RGB__255__255__255__
 70
0
 62
7
  6
CONTINUOUS
370
-3
390
F
  0
LAYER
  5
210
100
AcDbSymbolTableRecord
100
AcDbLayerTableRecord
  2
RGB____0____0____0__
 70
0
 62
7
  6
CONTINUOUS
370
-3
390
F
  0
LAYER
  5
211
100
AcDbSymbolTableRecord
100
AcDbLayerTableRecord
  2
SMUSSO
 70
0
 62
7
  6
CONTINUOUS
370
-3
390
F
  0
LAYER
  5
212
100
AcDbSymbolTableRecord
100
AcDbLayerTableRecord
  2
SNAPLINE
 70
0
 62
7
  6
CONTINUOUS
370
-3
390
F
  0
LAYER
  5
213
100
AcDbSymbolTableRecord
100
AcDbLayerTableRecord
  2
SUPERFICI
 70
0
 62
7
  6
CONTINUOUS
370
-3
390
F
  0
LAYER
  5
214
100
AcDbSymbolTableRecord
100
AcDbLayerTableRecord
  2
TRASH
 70
0
 62
7
  6
CONTINUOUS
370
-3
390
F
  0
LAYER
  5
215
100
AcDbSymbolTableRecord
100
AcDbLayerTableRecord
  2
XSEC_DATUMS
 70
0
 62
7
  6
CONTINUOUS
370
-3
390
F
  0
ENDTAB
  0
TABLE
  2
STYLE
  5
3
100
AcDbSymbolTable
 70
1
  0
STYLE
  5
11
100
AcDbSymbolTableRecord
100
AcDbTextStyleTableRecord
  2
STANDARD
 70
0
 40
0.0
 41
0.8
 50
0.0
 71
0
 42
0.2
  3
txt
  4

  0
STYLE
  5
216
100
AcDbSymbolTableRecord
100
AcDbTextStyleTableRecord
  2
TEXTSTYLE_1
 70
0
 40
0.0
 41
0.8
 50
0.0
 71
0
 42
0.2
  3
gdt
  4

  0
ENDTAB
  0
TABLE
  2
VIEW
  5
6
100
AcDbSymbolTable
 70
0
  0
ENDTAB
  0
TABLE
  2
UCS
  5
7
100
AcDbSymbolTable
 70
0
  0
ENDTAB
  0
TABLE
  2
APPID
  5
9
100
AcDbSymbolTable
 70
1
  0
APPID
  5
217
100
AcDbSymbolTableRecord
100
AcDbRegAppTableRecord
  2
ACAD
 70
0
  0
ENDTAB
  0
TABLE
  2
BLOCK_RECORD
  5
1
100
AcDbSymbolTable
 70
0
  0
BLOCK_RECORD
  5
218
100
AcDbSymbolTableRecord
100
AcDbBlockTableRecord
  2
*Model_Space
  0
BLOCK_RECORD
  5
219
100
AcDbSymbolTableRecord
100
AcDbBlockTableRecord
  2
*Paper_Space
  0
BLOCK_RECORD
  5
21A
100
AcDbSymbolTableRecord
100
AcDbBlockTableRecord
  2
_FILLED
  0
BLOCK_RECORD
  5
21B
100
AcDbSymbolTableRecord
100
AcDbBlockTableRecord
  2
*D0
  0
BLOCK_RECORD
  5
21C
100
AcDbSymbolTableRecord
100
AcDbBlockTableRecord
  2
*D1
  0
BLOCK_RECORD
  5
21D
100
AcDbSymbolTableRecord
100
AcDbBlockTableRecord
  2
*D2
  0
BLOCK_RECORD
  5
21E
100
AcDbSymbolTableRecord
100
AcDbBlockTableRecord
  2
*D3
  0
BLOCK_RECORD
  5
21F
100
AcDbSymbolTableRecord
100
AcDbBlockTableRecord
  2
*D4
  0
BLOCK_RECORD
  5
220
100
AcDbSymbolTableRecord
100
AcDbBlockTableRecord
  2
*D5
  0
ENDTAB
  0
TABLE
  2
DIMSTYLE
  5
A
100
AcDbSymbolTable
 70
1
100
AcDbDimStyleTable
 71
0
  0
DIMSTYLE
105
221
100
AcDbSymbolTableRecord
100
AcDbDimStyleTableRecord
  2
STANDARD
 70
0
  3

  4

 40
1.0
 41
3.0
 42
0.0625
 43
0.38
 44
0.18
 45
0.0
 46
0.0
 47
0.01
 48
0.01
140
3.0
141
0.09
142
0.0
143
25.4
144
1.0
145
0.0
146
1.0
147
0.09
 71
1.0
 72
0.0
 73
0
 74
0
 75
0
 76
0
 77
1
 78
8
170
0
171
2
172
0
173
0
174
0
175
0
176
0
177
0
178
0
270
2
271
2
272
2
273
2
274
2
275
0
280
0
281
0
282
0
283
1
284
8
285
0
286
0
287
3
288
0
340
11
341
21A
342
21A
343
21A
344
21A
  0
DIMSTYLE
105
222
100
AcDbSymbolTableRecord
100
AcDbDimStyleTableRecord
  2
DIMSTYLE_1
 70
0
  3

  4

 40
1.0
 41
3.0
 42
0.0625
 43
0.38
 44
0.18
 45
0.0
 46
0.0
 47
0.0
 48
0.0
140
3.0
141
0.09
142
0.0
143
25.4
144
1.0
145
0.0
146
1.0
147
0.09
 71
0.0
 72
0.0
 73
0
 74
0
 75
0
 76
0
 77
1
 78
8
170
0
171
2
172
0
173
0
174
0
175
0
176
0
177
0
178
0
270
2
271
2
272
2
273
2
274
2
275
0
280
0
281
0
282
0
283
1
284
8
285
0
286
0
287
3
288
0
340
11
341
21A
342
21A
343
21A
344
21A
  0
DIMSTYLE
105
223
100
AcDbSymbolTableRecord
100
AcDbDimStyleTableRecord
  2
DIMSTYLE_2
 70
0
  3

  4

 40
1.0
 41
3.0
 42
0.0625
 43
0.38
 44
0.18
 45
0.0
 46
0.0
 47
0.0
 48
0.0
140
3.0
141
0.09
142
0.0
143
25.4
144
1.0
145
0.0
146
1.0
147
0.09
 71
0.0
 72
0.0
 73
0
 74
0
 75
0
 76
0
 77
1
 78
8
170
0
171
2
172
0
173
0
174
0
175
0
176
0
177
0
178
0
270
2
271
0
272
0
273
2
274
2
275
0
280
0
281
0
282
0
283
1
284
8
285
0
286
0
287
3
288
0
340
11
341
21A
342
21A
343
21A
344
21A
  0
ENDTAB
  0
ENDSEC
  0
SECTION
  2
BLOCKS
  0
BLOCK
  5
20
100
AcDbEntity
  8
0
100
AcDbBlockBegin
  2
*Model_Space
 70
0
 10
0.0
 20
0.0
 30
0.0
  3
*Model_Space
  1

  0
ENDBLK
  5
21
100
AcDbEntity
  8
0
100
AcDbBlockEnd
  0
BLOCK
  5
1C
100
AcDbEntity
  8
0
100
AcDbBlockBegin
  2
*Paper_Space
 70
0
 10
0.0
 20
0.0
 30
0.0
  3
*Paper_Space
  1

  0
ENDBLK
  5
1D
100
AcDbEntity
  8
0
100
AcDbBlockEnd
  0
BLOCK
  5
224
100
AcDbEntity
  8
0
100
AcDbBlockBegin
  2
_FILLED
 70
64
 10
0.0
 20
0.0
  3
_FILLED
  1

  0
SOLID
  5
225
100
AcDbEntity
  8
0
  6
BYBLOCK
 62
0
100
AcDbTrace
 10
0.0
 20
0.0
 11
-1.0
 21
0.3166666667
 12
-1.0
 22
-0.3166666667
 13
-1.0
 23
-0.3166666667
  0
ENDBLK
  5
226
100
AcDbEntity
  8
0
  6
BYBLOCK
 62
0
100
AcDbBlockEnd
  0
BLOCK
  5
227
100
AcDbEntity
  8
0
100
AcDbBlockBegin
 62
7
  6
CONTINUOUS
  2
*D0
 70
65
 10
0.0
 20
0.0
  3
*D0
  1

  0
MTEXT
  5
228
100
AcDbEntity
  8
0
100
AcDbMText
 62
7
  6
CONTINUOUS
  7
STANDARD
 71
2
 72
1
 10
0.0
 20
58.3871998771
 30
0.0
 11
1.0
 21
0.0
 31
0.0
 44
0.9
  1
68
 40
3.0
 41
4.7142857143
  0
LINE
  5
229
100
AcDbEntity
  8
0
100
AcDbLine
 62
7
  6
CONTINUOUS
 10
34.0
 20
35.4332988254
 11
34.0
 21
56.1371998771
  0
LINE
  5
22A
100
AcDbEntity
  8
0
100
AcDbLine
 62
7
  6
CONTINUOUS
 10
-34.0
 20
35.4332988254
 11
-34.0
 21
56.1371998771
  0
LINE
  5
22B
100
AcDbEntity
  8
0
100
AcDbLine
 62
7
  6
CONTINUOUS
 10
34.0
 20
54.6371998771
 11
0.0
 21
54.6371998771
  0
LINE
  5
22C
100
AcDbEntity
  8
0
100
AcDbLine
 62
7
  6
CONTINUOUS
 10
-34.0
 20
54.6371998771
 11
0.0
 21
54.6371998771
  0
INSERT
  5
22D
100
AcDbEntity
  8
0
100
AcDbBlockReference
 62
7
  6
CONTINUOUS
  2
_FILLED
 10
34.0
 20
54.6371998771
 41
3.0
 42
3.0
 43
3.0
 50
360.0
  0
INSERT
  5
22E
100
AcDbEntity
  8
0
100
AcDbBlockReference
 62
7
  6
CONTINUOUS
  2
_FILLED
 10
-34.0
 20
54.6371998771
 41
3.0
 42
3.0
 43
3.0
 50
180.0
  0
ENDBLK
  5
22F
100
AcDbEntity
  8
0
  6
BYBLOCK
 62
0
100
AcDbBlockEnd
  0
BLOCK
  5
230
100
AcDbEntity
  8
0
100
AcDbBlockBegin
 62
7
  6
CONTINUOUS
  2
*D1
 70
65
 10
0.0
 20
0.0
  3
*D1
  1

  0
MTEXT
  5
231
100
AcDbEntity
  8
0
100
AcDbMText
 62
7
  6
CONTINUOUS
  7
STANDARD
 71
2
 72
1
 10
-69.8811331057
 20
58.3871998771
 30
0.0
 11
1.0
 21
0.0
 31
0.0
 44
0.9
  1
40
 40
3.0
 41
4.7142857143
  0
LINE
  5
232
100
AcDbEntity
  8
0
100
AcDbLine
 62
7
  6
CONTINUOUS
 10
-49.8811331057
 20
35.0928748262
 11
-49.8811331057
 21
56.1371998771
  0
LINE
  5
233
100
AcDbEntity
  8
0
100
AcDbLine
 62
7
  6
CONTINUOUS
 10
-89.8811331057
 20
35.4332988254
 11
-89.8811331057
 21
56.1371998771
  0
LINE
  5
234
100
AcDbEntity
  8
0
100
AcDbLine
 62
7
  6
CONTINUOUS
 10
-49.8811331057
 20
54.6371998771
 11
-69.8811331057
 21
54.6371998771
  0
LINE
  5
235
100
AcDbEntity
  8
0
100
AcDbLine
 62
7
  6
CONTINUOUS
 10
-89.8811331057
 20
54.6371998771
 11
-69.8811331057
 21
54.6371998771
  0
INSERT
  5
236
100
AcDbEntity
  8
0
100
AcDbBlockReference
 62
7
  6
CONTINUOUS
  2
_FILLED
 10
-49.8811331057
 20
54.6371998771
 41
3.0
 42
3.0
 43
3.0
  0
INSERT
  5
237
100
AcDbEntity
  8
0
100
AcDbBlockReference
 62
7
  6
CONTINUOUS
  2
_FILLED
 10
-89.8811331057
 20
54.6371998771
 41
3.0
 42
3.0
 43
3.0
 50
180.0
  0
ENDBLK
  5
238
100
AcDbEntity
  8
0
  6
BYBLOCK
 62
0
100
AcDbBlockEnd
  0
BLOCK
  5
239
100
AcDbEntity
  8
0
100
AcDbBlockBegin
 62
7
  6
CONTINUOUS
  2
*D2
 70
65
 10
0.0
 20
0.0
  3
*D2
  1

  0
MTEXT
  5
23A
100
AcDbEntity
  8
0
100
AcDbMText
 62
7
  6
CONTINUOUS
  7
STANDARD
 71
2
 72
1
 10
-97.8811331057
 20
58.3871998771
 30
0.0
 11
1.0
 21
0.0
 31
0.0
 44
0.9
  1
16
 40
3.0
 41
4.0714285714
  0
LINE
  5
23B
100
AcDbEntity
  8
0
100
AcDbLine
 62
7
  6
CONTINUOUS
 10
-105.8811331057
 20
-4.56675829
 11
-105.8811331057
 21
56.1371998771
  0
LINE
  5
23C
100
AcDbEntity
  8
0
100
AcDbLine
 62
7
  6
CONTINUOUS
 10
-89.8811331057
 20
35.4332988254
 11
-89.8811331057
 21
56.1371998771
  0
LINE
  5
23D
100
AcDbEntity
  8
0
100
AcDbLine
 62
7
  6
CONTINUOUS
 10
-105.8811331057
 20
54.6371998771
 11
-97.8811331057
 21
54.6371998771
  0
LINE
  5
23E
100
AcDbEntity
  8
0
100
AcDbLine
 62
7
  6
CONTINUOUS
 10
-89.8811331057
 20
54.6371998771
 11
-97.8811331057
 21
54.6371998771
  0
INSERT
  5
23F
100
AcDbEntity
  8
0
100
AcDbBlockReference
 62
7
  6
CONTINUOUS
  2
_FILLED
 10
-105.8811331057
 20
54.6371998771
 41
3.0
 42
3.0
 43
3.0
 50
180.0
  0
INSERT
  5
240
100
AcDbEntity
  8
0
100
AcDbBlockReference
 62
7
  6
CONTINUOUS
  2
_FILLED
 10
-89.8811331057
 20
54.6371998771
 41
3.0
 42
3.0
 43
3.0
  0
ENDBLK
  5
241
100
AcDbEntity
  8
0
  6
BYBLOCK
 62
0
100
AcDbBlockEnd
  0
BLOCK
  5
242
100
AcDbEntity
  8
0
100
AcDbBlockBegin
 62
7
  6
CONTINUOUS
  2
*D3
 70
65
 10
0.0
 20
0.0
  3
*D3
  1

  0
MTEXT
  5
243
100
AcDbEntity
  8
0
100
AcDbMText
 62
7
  6
CONTINUOUS
  7
STANDARD
 71
2
 72
1
 10
-77.8811331057
 20
68.3871998771
 30
0.0
 11
1.0
 21
0.0
 31
0.0
 44
0.9
  1
56
 40
3.0
 41
4.5
  0
LINE
  5
244
100
AcDbEntity
  8
0
100
AcDbLine
 62
7
  6
CONTINUOUS
 10
-49.8811331057
 20
35.0928748262
 11
-49.8811331057
 21
66.1371998771
  0
LINE
  5
245
100
AcDbEntity
  8
0
100
AcDbLine
 62
7
  6
CONTINUOUS
 10
-105.8811331057
 20
-4.56675829
 11
-105.8811331057
 21
66.1371998771
  0
LINE
  5
246
100
AcDbEntity
  8
0
100
AcDbLine
 62
7
  6
CONTINUOUS
 10
-49.8811331057
 20
64.6371998771
 11
-77.8811331057
 21
64.6371998771
  0
LINE
  5
247
100
AcDbEntity
  8
0
100
AcDbLine
 62
7
  6
CONTINUOUS
 10
-105.8811331057
 20
64.6371998771
 11
-77.8811331057
 21
64.6371998771
  0
INSERT
  5
248
100
AcDbEntity
  8
0
100
AcDbBlockReference
 62
7
  6
CONTINUOUS
  2
_FILLED
 10
-49.8811331057
 20
64.6371998771
 41
3.0
 42
3.0
 43
3.0
  0
INSERT
  5
249
100
AcDbEntity
  8
0
100
AcDbBlockReference
 62
7
  6
CONTINUOUS
  2
_FILLED
 10
-105.8811331057
 20
64.6371998771
 41
3.0
 42
3.0
 43
3.0
 50
180.0
  0
ENDBLK
  5
24A
100
AcDbEntity
  8
0
  6
BYBLOCK
 62
0
100
AcDbBlockEnd
  0
BLOCK
  5
24B
100
AcDbEntity
  8
0
100
AcDbBlockBegin
 62
7
  6
CONTINUOUS
  2
*D4
 70
65
 10
0.0
 20
0.0
  3
*D4
  1

  0
MTEXT
  5
24C
100
AcDbEntity
  8
0
100
AcDbMText
 62
7
  6
CONTINUOUS
  7
STANDARD
 71
2
 72
1
 10
48.25
 20
0.0352207935
 30
0.0
 11
0.0
 21
1.0
 31
0.0
 44
0.9
  1
93
 40
3.0
 41
4.5
  0
LINE
  5
24D
100
AcDbEntity
  8
0
100
AcDbLine
 62
7
  6
CONTINUOUS
 10
33.0000571154
 20
-46.56675829
 11
53.5
 21
-46.56675829
  0
LINE
  5
24E
100
AcDbEntity
  8
0
100
AcDbLine
 62
7
  6
CONTINUOUS
 10
0.5463761538
 20
46.6371998771
 11
53.5
 21
46.6371998771
  0
LINE
  5
24F
100
AcDbEntity
  8
0
100
AcDbLine
 62
7
  6
CONTINUOUS
 10
52.0
 20
-46.56675829
 11
52.0
 21
0.0352207935
  0
LINE
  5
250
100
AcDbEntity
  8
0
100
AcDbLine
 62
7
  6
CONTINUOUS
 10
52.0
 20
46.6371998771
 11
52.0
 21
0.0352207935
  0
INSERT
  5
251
100
AcDbEntity
  8
0
100
AcDbBlockReference
 62
7
  6
CONTINUOUS
  2
_FILLED
 10
52.0
 20
-46.56675829
 41
3.0
 42
3.0
 43
3.0
 50
270.0
  0
INSERT
  5
252
100
AcDbEntity
  8
0
100
AcDbBlockReference
 62
7
  6
CONTINUOUS
  2
_FILLED
 10
52.0
 20
46.6371998771
 41
3.0
 42
3.0
 43
3.0
 50
90.0
  0
ENDBLK
  5
253
100
AcDbEntity
  8
0
  6
BYBLOCK
 62
0
100
AcDbBlockEnd
  0
BLOCK
  5
254
100
AcDbEntity
  8
0
100
AcDbBlockBegin
 62
7
  6
CONTINUOUS
  2
*D5
 70
65
 10
0.0
 20
0.0
  3
*D5
  1

  0
MTEXT
  5
255
100
AcDbEntity
  8
0
100
AcDbMText
 62
7
  6
CONTINUOUS
  7
STANDARD
 71
2
 72
1
 10
38.25
 20
-5.06675829
 30
0.0
 11
0.0
 21
1.0
 31
0.0
 44
0.9
  1
83
 40
3.0
 41
4.5
  0
LINE
  5
256
100
AcDbEntity
  8
0
100
AcDbLine
 62
7
  6
CONTINUOUS
 10
33.0000571154
 20
36.43324171
 11
43.5
 21
36.43324171
  0
LINE
  5
257
100
AcDbEntity
  8
0
100
AcDbLine
 62
7
  6
CONTINUOUS
 10
33.0000571154
 20
-46.56675829
 11
43.5
 21
-46.56675829
  0
LINE
  5
258
100
AcDbEntity
  8
0
100
AcDbLine
 62
7
  6
CONTINUOUS
 10
42.0
 20
36.43324171
 11
42.0
 21
-5.06675829
  0
LINE
  5
259
100
AcDbEntity
  8
0
100
AcDbLine
 62
7
  6
CONTINUOUS
 10
42.0
 20
-46.56675829
 11
42.0
 21
-5.06675829
  0
INSERT
  5
25A
100
AcDbEntity
  8
0
100
AcDbBlockReference
 62
7
  6
CONTINUOUS
  2
_FILLED
 10
42.0
 20
36.43324171
 41
3.0
 42
3.0
 43
3.0
 50
90.0
  0
INSERT
  5
25B
100
AcDbEntity
  8
0
100
AcDbBlockReference
 62
7
  6
CONTINUOUS
  2
_FILLED
 10
42.0
 20
-46.56675829
 41
3.0
 42
3.0
 43
3.0
 50
270.0
  0
ENDBLK
  5
25C
100
AcDbEntity
  8
0
  6
BYBLOCK
 62
0
100
AcDbBlockEnd
  0
ENDSEC
  0
SECTION
  2
ENTITIES
  0
DIMENSION
  5
25D
100
AcDbEntity
  8
0
100
AcDbDimension
 62
7
  6
CONTINUOUS
  2
*D0
 10
-34.0
 20
54.6371998771
 11
-2.3571428571
 21
56.8871998771
 70
160
 71
2
 42
68.0
  3
DIMSTYLE_1
100
AcDbAlignedDimension
 13
34.0
 23
35.4332988254
 14
-34.0
 24
35.4332988254
 50
180.0
100
AcDbRotatedDimension
  0
DIMENSION
  5
25E
100
AcDbEntity
  8
0
100
AcDbDimension
 62
7
  6
CONTINUOUS
  2
*D1
 10
-89.8811331057
 20
54.6371998771
 11
-72.2382759629
 21
56.8871998771
 70
160
 71
2
 42
40.0
  3
DIMSTYLE_1
100
AcDbAlignedDimension
 13
-49.8811331057
 23
35.0928748262
 14
-89.8811331057
 24
35.4332988254
 50
180.0
100
AcDbRotatedDimension
  0
DIMENSION
  5
25F
100
AcDbEntity
  8
0
100
AcDbDimension
 62
7
  6
CONTINUOUS
  2
*D2
 10
-89.8811331057
 20
54.6371998771
 11
-99.9168473914
 21
56.8871998771
 70
160
 71
2
 42
16.0
  3
DIMSTYLE_1
100
AcDbAlignedDimension
 13
-105.8811331057
 23
-4.56675829
 14
-89.8811331057
 24
35.4332988254
100
AcDbRotatedDimension
  0
DIMENSION
  5
260
100
AcDbEntity
  8
0
100
AcDbDimension
 62
7
  6
CONTINUOUS
  2
*D3
 10
-105.8811331057
 20
64.6371998771
 11
-80.1311331057
 21
66.8871998771
 70
160
 71
2
 42
56.0
  3
DIMSTYLE_1
100
AcDbAlignedDimension
 13
-49.8811331057
 23
35.0928748262
 14
-105.8811331057
 24
-4.56675829
 50
180.0
100
AcDbRotatedDimension
  0
DIMENSION
  5
261
100
AcDbEntity
  8
0
100
AcDbDimension
 62
7
  6
CONTINUOUS
  2
*D4
 10
52.0
 20
46.6371998771
 11
50.7581656363
 21
-1.9762716996
 70
160
 71
2
 42
93.2039581671
  3
DIMSTYLE_2
100
AcDbAlignedDimension
 13
33.0000571154
 23
-46.56675829
 14
0.5463761538
 24
46.6371998771
 50
90.0
100
AcDbRotatedDimension
  0
DIMENSION
  5
262
100
AcDbEntity
  8
0
100
AcDbDimension
 62
7
  6
CONTINUOUS
  2
*D5
 10
42.0
 20
-46.56675829
 11
40.7581656363
 21
-7.0782507831
 70
160
 71
2
 42
83.0
  3
DIMSTYLE_1
100
AcDbAlignedDimension
 13
33.0000571154
 23
36.43324171
 14
33.0000571154
 24
-46.56675829
 50
270.0
100
AcDbRotatedDimension
  0
LINE
  5
263
100
AcDbEntity
  8
RACCORDO
100
AcDbLine
 62
7
  6
CONTINUOUS
 10
32.5000571154
 20
-46.56675829
 11
-32.5000571154
 21
-46.56675829
  0
LINE
  5
264
100
AcDbEntity
  8
RACCORDO
100
AcDbLine
 62
253
  6
CONTINUOUS
 10
32.4205053945
 20
-46.4872065691
 11
-32.4205053944
 21
-46.487206569
  0
LINE
  5
265
100
AcDbEntity
  8
RACCORDO
100
AcDbLine
 62
253
  6
CONTINUOUS
 10
32.3903975079
 20
-42.0151215164
 11
-32.3903975079
 21
-42.0151215079
  0
LINE
  5
266
100
AcDbEntity
  8
ASSI
100
AcDbLine
 62
7
  6
CONTINUOUS
 10
27.305315
 20
-39.56674429
 11
27.936092
 21
-39.56673729
  0
LINE
  5
267
100
AcDbEntity
  8
ASSI
100
AcDbLine
 62
7
  6
CONTINUOUS
 10
22.963796
 20
-39.56675129
 11
23.523817
 21
-39.56674429
  0
LINE
  5
268
100
AcDbEntity
  8
ASSI
100
AcDbLine
 62
7
  6
CONTINUOUS
 10
20.94095
 20
-39.56675129
 11
21.500957
 21
-39.56674429
  0
LINE
  5
269
100
AcDbEntity
  8
ASSI
100
AcDbLine
 62
7
  6
CONTINUOUS
 10
18.731435
 20
-39.56675829
 11
19.291456
 21
-39.56675129
  0
LINE
  5
26A
100
AcDbEntity
  8
ASSI
100
AcDbLine
 62
7
  6
CONTINUOUS
 10
16.899024
 20
-39.56675829
 11
17.459066
 21
-39.56675129
  0
LINE
  5
26B
100
AcDbEntity
  8
ASSI
100
AcDbLine
 62
7
  6
CONTINUOUS
 10
19.851463
 20
-39.56675129
 11
20.411484
 21
-39.56675129
  0
LINE
  5
26C
100
AcDbEntity
  8
ASSI
100
AcDbLine
 62
7
  6
CONTINUOUS
 10
22.03043
 20
-39.56675129
 11
22.590451
 21
-39.56675129
  0
LINE
  5
26D
100
AcDbEntity
  8
ASSI
100
AcDbLine
 62
7
  6
CONTINUOUS
 10
25.695238
 20
-39.56674429
 11
26.255266
 21
-39.56674429
  0
LINE
  5
26E
100
AcDbEntity
  8
ASSI
100
AcDbLine
 62
7
  6
CONTINUOUS
 10
24.761865
 20
-39.56674429
 11
25.321893
 21
-39.56675129
  0
LINE
  5
26F
100
AcDbEntity
  8
ASSI
100
AcDbLine
 62
7
  6
CONTINUOUS
 10
23.700616
 20
-39.01608229
 11
24.585073
 21
-39.01608229
  0
LINE
  5
270
100
AcDbEntity
  8
ASSI
100
AcDbLine
 62
7
  6
CONTINUOUS
 10
24.414245
 20
-38.48406129
 11
23.871437
 21
-38.48406129
  0
LINE
  5
271
100
AcDbEntity
  8
ASSI
100
AcDbLine
 62
7
  6
CONTINUOUS
 10
26.255329
 20
-38.48405429
 11
26.744104
 21
-38.48406129
  0
LINE
  5
272
100
AcDbEntity
  8
ASSI
100
AcDbLine
 62
7
  6
CONTINUOUS
 10
26.928888
 20
-37.96603329
 11
26.247545
 21
-37.96603329
  0
LINE
  5
273
100
AcDbEntity
  8
ASSI
100
AcDbLine
 62
7
  6
CONTINUOUS
 10
26.247538
 20
-37.28463929
 11
26.928888
 21
-37.28463929
  0
LINE
  5
274
100
AcDbEntity
  8
ASSI
100
AcDbLine
 62
7
  6
CONTINUOUS
 10
22.590451
 20
-36.76662529
 11
21.74385
 21
-36.76662529
  0
LINE
  5
275
100
AcDbEntity
  8
ASSI
100
AcDbLine
 62
7
  6
CONTINUOUS
 10
20.698064
 20
-36.76662529
 11
19.851463
 21
-36.76662529
  0
LINE
  5
276
100
AcDbEntity
  8
ASSI
100
AcDbLine
 62
7
  6
CONTINUOUS
 10
19.291463
 20
-36.76662529
 11
18.731442
 21
-36.76662529
  0
LINE
  5
277
100
AcDbEntity
  8
ASSI
100
AcDbLine
 62
7
  6
CONTINUOUS
 10
18.358097
 20
-36.76662529
 11
17.798069
 21
-36.76662529
  0
LINE
  5
278
100
AcDbEntity
  8
ASSI
100
AcDbLine
 62
7
  6
CONTINUOUS
 10
16.560028
 20
-36.76662529
 11
16.0
 21
-36.76662529
  0
LINE
  5
279
100
AcDbEntity
  8
ASSI
100
AcDbLine
 62
7
  6
CONTINUOUS
 10
27.006618
 20
-36.76661829
 11
25.695238
 21
-36.76661829
  0
LINE
  5
27A
100
AcDbEntity
  8
ASSI
100
AcDbLine
 62
7
  6
CONTINUOUS
 10
24.422862
 20
-36.76661829
 11
23.862813
 21
-36.76661829
  0
LINE
  5
27B
100
AcDbEntity
  8
0
100
AcDbLine
 62
7
  6
CONTINUOUS
 10
-26.122106287
 20
-31.8279359174
 11
-26.1716048889
 21
-31.7216856161
  0
LINE
  5
27C
100
AcDbEntity
  8
0
100
AcDbLine
 62
7
  6
CONTINUOUS
 10
-23.877893713
 20
-32.3055806626
 11
-23.8283951111
 21
-32.4118309639
  0
LINE
  5
27D
100
AcDbEntity
  8
RACCORDO
100
AcDbLine
 62
7
  6
CONTINUOUS
 10
-34.0
 20
34.9332988254
 11
-34.0
 21
-45.0668154054
  0
LINE
  5
27E
100
AcDbEntity
  8
0
100
AcDbLine
 62
7
  6
CONTINUOUS
 10
-25.6
 20
-34.8989136117
 11
-25.6
 21
-32.5205656566
  0
LINE
  5
27F
100
AcDbEntity
  8
0
100
AcDbLine
 62
7
  6
CONTINUOUS
 10
-25.6
 20
-31.6129509234
 11
-25.6
 21
-29.2346029683
  0
LINE
  5
280
100
AcDbEntity
  8
0
100
AcDbLine
 62
7
  6
CONTINUOUS
 10
-24.4
 20
-29.2346029683
 11
-24.4
 21
-31.6129509234
  0
LINE
  5
281
100
AcDbEntity
  8
0
100
AcDbLine
 62
7
  6
CONTINUOUS
 10
-24.4
 20
-32.5205656566
 11
-24.4
 21
-34.8989136117
  0
LINE
  5
282
100
AcDbEntity
  8
RACCORDO
100
AcDbLine
 62
253
  6
CONTINUOUS
 10
19.25
 20
-23.5325861424
 11
5.75
 21
-23.5325861424
  0
LINE
  5
283
100
AcDbEntity
  8
RACCORDO
100
AcDbLine
 62
253
  6
CONTINUOUS
 10
-5.75
 20
-23.5325861424
 11
-19.25
 21
-23.5325861424
  0
LINE
  5
284
100
AcDbEntity
  8
RACCORDO
100
AcDbLine
 62
7
  6
CONTINUOUS
 10
19.2499443034
 20
-23.21675829
 11
5.7500752893
 21
-23.21675829
  0
LINE
  5
285
100
AcDbEntity
  8
RACCORDO
100
AcDbLine
 62
7
  6
CONTINUOUS
 10
-5.7500556966
 20
-23.21675829
 11
-19.2499247107
 21
-23.21675829
  0
LINE
  5
286
100
AcDbEntity
  8
RACCORDO
100
AcDbLine
 62
253
  6
CONTINUOUS
 10
-21.45
 20
-21.3306988104
 11
-21.45
 21
11.1971822304
  0
LINE
  5
287
100
AcDbEntity
  8
RACCORDO
100
AcDbLine
 62
7
  6
CONTINUOUS
 10
-21.15
 20
-21.3166922122
 11
-21.15
 21
11.1831565565
  0
LINE
  5
288
100
AcDbEntity
  8
RACCORDO
100
AcDbLine
 62
253
  6
CONTINUOUS
 10
-19.25
 20
13.3990695624
 11
-19.25
 21
13.08324171
  0
LINE
  5
289
100
AcDbEntity
  8
RACCORDO
100
AcDbLine
 62
253
  6
CONTINUOUS
 10
-19.25
 20
-23.5325861424
 11
-19.2499999996
 21
-23.21675829
  0
LINE
  5
28A
100
AcDbEntity
  8
0
100
AcDbLine
 62
7
  6
CONTINUOUS
 10
-14.0
 20
37.8598075293
 11
-14.0
 21
36.4371998771
  0
LINE
  5
28B
100
AcDbEntity
  8
0
100
AcDbLine
 62
7
  6
CONTINUOUS
 10
-11.85
 20
40.2639237189
 11
-11.85
 21
39.8371998771
  0
LINE
  5
28C
100
AcDbEntity
  8
0
100
AcDbLine
 62
7
  6
CONTINUOUS
 10
-11.35
 20
39.8371998771
 11
-11.35
 21
39.3371998771
  0
LINE
  5
28D
100
AcDbEntity
  8
0
100
AcDbLine
 62
7
  6
CONTINUOUS
 10
-10.1
 20
42.1041160977
 11
-10.1
 21
41.6371998771
  0
LINE
  5
28E
100
AcDbEntity
  8
0
100
AcDbLine
 62
7
  6
CONTINUOUS
 10
-9.45
 20
41.6371998771
 11
-9.45
 21
41.1371998771
  0
LINE
  5
28F
100
AcDbEntity
  8
0
100
AcDbLine
 62
7
  6
CONTINUOUS
 10
-8.35
 20
43.8773211784
 11
-8.35
 21
43.4371998771
  0
LINE
  5
290
100
AcDbEntity
  8
0
100
AcDbLine
 62
7
  6
CONTINUOUS
 10
-7.85
 20
43.4371998771
 11
-7.85
 21
42.9371998771
  0
LINE
  5
291
100
AcDbEntity
  8
0
100
AcDbLine
 62
7
  6
CONTINUOUS
 10
-26.171604981
 20
-32.4118309147
 11
-26.1221062937
 21
-32.3055806725
  0
LINE
  5
292
100
AcDbEntity
  8
0
100
AcDbLine
 62
7
  6
CONTINUOUS
 10
-23.828395019
 20
-31.7216856653
 11
-23.8778937063
 21
-31.8279359075
  0
LINE
  5
293
100
AcDbEntity
  8
DRAFT
100
AcDbLine
 62
7
  6
CONTINUOUS
 10
-21.15
 20
-9.06675829
 11
-20.0
 21
-9.06675829
  0
LINE
  5
294
100
AcDbEntity
  8
RACCORDO
100
AcDbLine
 62
7
  6
CONTINUOUS
 10
21.15
 20
-9.06675829
 11
20.0
 21
-9.06675829
  0
LINE
  5
295
100
AcDbEntity
  8
RACCORDO
100
AcDbLine
 62
253
  6
CONTINUOUS
 10
32.5000571154
 20
-46.56675829
 11
32.4205053945
 21
-46.4872065691
  0
LINE
  5
296
100
AcDbEntity
  8
RACCORDO
100
AcDbLine
 62
253
  6
CONTINUOUS
 10
34.0
 20
-45.0668154054
 11
33.9204472986
 21
-44.987262704
  0
LINE
  5
297
100
AcDbEntity
  8
RACCORDO
100
AcDbLine
 62
253
  6
CONTINUOUS
 10
-5.75
 20
13.3990695624
 11
-5.7500000004
 21
13.08324171
  0
LINE
  5
298
100
AcDbEntity
  8
RACCORDO
100
AcDbLine
 62
253
  6
CONTINUOUS
 10
-5.75
 20
-23.5325861424
 11
-5.75
 21
-23.21675829
  0
LINE
  5
299
100
AcDbEntity
  8
0
100
AcDbLine
 62
7
  6
CONTINUOUS
 10
-4.1
 20
45.5763592865
 11
-4.1
 21
45.2371998771
  0
LINE
  5
29A
100
AcDbEntity
  8
RACCORDO
100
AcDbLine
 62
7
  6
CONTINUOUS
 10
-3.85
 20
11.1831756322
 11
-3.85
 21
-21.3166731365
  0
LINE
  5
29B
100
AcDbEntity
  8
0
100
AcDbLine
 62
7
  6
CONTINUOUS
 10
-3.6
 20
45.2371998771
 11
-3.6
 21
44.7371998771
  0
LINE
  5
29C
100
AcDbEntity
  8
RACCORDO
100
AcDbLine
 62
253
  6
CONTINUOUS
 10
-3.55
 20
11.1971822304
 11
-3.55
 21
-21.3306988104
  0
LINE
  5
29D
100
AcDbEntity
  8
RACCORDO
100
AcDbLine
 62
253
  6
CONTINUOUS
 10
32.420505358
 20
36.3536899526
 11
32.5000571154
 21
36.43324171
  0
LINE
  5
29E
100
AcDbEntity
  8
RACCORDO
100
AcDbLine
 62
253
  6
CONTINUOUS
 10
33.9204472986
 20
34.853746124
 11
34.0
 21
34.9332988254
  0
LINE
  5
29F
100
AcDbEntity
  8
RACCORDO
100
AcDbLine
 62
7
  6
CONTINUOUS
 10
-21.15
 20
-1.06675829
 11
-20.0
 21
-1.06675829
  0
LINE
  5
2A0
100
AcDbEntity
  8
DRAFT
100
AcDbLine
 62
7
  6
CONTINUOUS
 10
21.15
 20
-1.06675829
 11
20.0
 21
-1.06675829
  0
LINE
  5
2A1
100
AcDbEntity
  8
RACCORDO
100
AcDbLine
 62
253
  6
CONTINUOUS
 10
3.55
 20
-21.3306988104
 11
3.55
 21
11.1971822304
  0
LINE
  5
2A2
100
AcDbEntity
  8
0
100
AcDbLine
 62
7
  6
CONTINUOUS
 10
3.6
 20
45.2371998771
 11
3.6
 21
44.7371998771
  0
LINE
  5
2A3
100
AcDbEntity
  8
RACCORDO
100
AcDbLine
 62
7
  6
CONTINUOUS
 10
3.85
 20
-21.3166922122
 11
3.85
 21
11.1831565565
  0
LINE
  5
2A4
100
AcDbEntity
  8
0
100
AcDbLine
 62
7
  6
CONTINUOUS
 10
4.1
 20
45.5763592865
 11
4.1
 21
45.2371998771
  0
LINE
  5
2A5
100
AcDbEntity
  8
RACCORDO
100
AcDbLine
 62
253
  6
CONTINUOUS
 10
-34.0
 20
34.9332988254
 11
-33.9204472986
 21
34.853746124
  0
LINE
  5
2A6
100
AcDbEntity
  8
RACCORDO
100
AcDbLine
 62
253
  6
CONTINUOUS
 10
-32.5000571154
 20
36.43324171
 11
-32.4205053581
 21
36.3536899527
  0
LINE
  5
2A7
100
AcDbEntity
  8
ASSI
100
AcDbLine
 62
7
  6
CONTINUOUS
 10
16.0
 20
-36.76662529
 11
16.899024
 21
-39.56675829
  0
LINE
  5
2A8
100
AcDbEntity
  8
RACCORDO
100
AcDbLine
 62
253
  6
CONTINUOUS
 10
5.75
 20
13.3990695624
 11
5.75
 21
13.08324171
  0
LINE
  5
2A9
100
AcDbEntity
  8
RACCORDO
100
AcDbLine
 62
253
  6
CONTINUOUS
 10
5.75
 20
-23.5325861424
 11
5.7500000004
 21
-23.21675829
  0
LINE
  5
2AA
100
AcDbEntity
  8
0
100
AcDbLine
 62
7
  6
CONTINUOUS
 10
7.85
 20
43.4371998771
 11
7.85
 21
42.9371998771
  0
LINE
  5
2AB
100
AcDbEntity
  8
RACCORDO
100
AcDbLine
 62
253
  6
CONTINUOUS
 10
-33.9204472986
 20
-44.987262704
 11
-34.0
 21
-45.0668154054
  0
LINE
  5
2AC
100
AcDbEntity
  8
ASSI
100
AcDbLine
 62
7
  6
CONTINUOUS
 10
26.744104
 20
-38.48406129
 11
27.305315
 21
-39.56674429
  0
LINE
  5
2AD
100
AcDbEntity
  8
ASSI
100
AcDbLine
 62
7
  6
CONTINUOUS
 10
27.936092
 20
-39.56673729
 11
27.3399777907
 21
-38.4167119569
  0
LINE
  5
2AE
100
AcDbEntity
  8
ASSI
100
AcDbLine
 62
7
  6
CONTINUOUS
 10
17.179052
 20
-38.69466329
 11
16.560028
 21
-36.76662529
  0
LINE
  5
2AF
100
AcDbEntity
  8
0
100
AcDbLine
 62
7
  6
CONTINUOUS
 10
8.35
 20
43.8773211784
 11
8.35
 21
43.4371998771
  0
LINE
  5
2B0
100
AcDbEntity
  8
0
100
AcDbLine
 62
7
  6
CONTINUOUS
 10
9.45
 20
41.6371998771
 11
9.45
 21
41.1371998771
  0
LINE
  5
2B1
100
AcDbEntity
  8
0
100
AcDbLine
 62
7
  6
CONTINUOUS
 10
10.1
 20
42.1041160977
 11
10.1
 21
41.6371998771
  0
LINE
  5
2B2
100
AcDbEntity
  8
0
100
AcDbLine
 62
7
  6
CONTINUOUS
 10
11.35
 20
39.8371998771
 11
11.35
 21
39.3371998771
  0
LINE
  5
2B3
100
AcDbEntity
  8
0
100
AcDbLine
 62
7
  6
CONTINUOUS
 10
11.85
 20
40.2639237189
 11
11.85
 21
39.8371998771
  0
LINE
  5
2B4
100
AcDbEntity
  8
RACCORDO
100
AcDbLine
 62
253
  6
CONTINUOUS
 10
-32.4205053944
 20
-46.487206569
 11
-32.5000571154
 21
-46.56675829
  0
LINE
  5
2B5
100
AcDbEntity
  8
ASSI
100
AcDbLine
 62
7
  6
CONTINUOUS
 10
24.142834
 20
-37.63871329
 11
24.414245
 21
-38.48406129
  0
LINE
  5
2B6
100
AcDbEntity
  8
ASSI
100
AcDbLine
 62
7
  6
CONTINUOUS
 10
24.585073
 20
-39.01608229
 11
24.761865
 21
-39.56674429
  0
LINE
  5
2B7
100
AcDbEntity
  8
ASSI
100
AcDbLine
 62
7
  6
CONTINUOUS
 10
25.321893
 20
-39.56675129
 11
24.422862
 21
-36.76661829
  0
LINE
  5
2B8
100
AcDbEntity
  8
ASSI
100
AcDbLine
 62
7
  6
CONTINUOUS
 10
20.411484
 20
-37.72025629
 11
20.94095
 21
-39.56675129
  0
LINE
  5
2B9
100
AcDbEntity
  8
ASSI
100
AcDbLine
 62
7
  6
CONTINUOUS
 10
21.220957
 20
-38.59016729
 11
20.698064
 21
-36.76662529
  0
LINE
  5
2BA
100
AcDbEntity
  8
0
100
AcDbLine
 62
7
  6
CONTINUOUS
 10
14.0
 20
37.8598075293
 11
14.0
 21
36.4371998771
  0
LINE
  5
2BB
100
AcDbEntity
  8
0
100
AcDbLine
 62
7
  6
CONTINUOUS
 10
23.828395019
 20
21.5881690853
 11
23.8778937063
 21
21.6944193275
  0
LINE
  5
2BC
100
AcDbEntity
  8
0
100
AcDbLine
 62
7
  6
CONTINUOUS
 10
26.171604981
 20
22.2783143347
 11
26.1221062937
 21
22.1720640925
  0
LINE
  5
2BD
100
AcDbEntity
  8
RACCORDO
100
AcDbLine
 62
7
  6
CONTINUOUS
 10
-19.2499443034
 20
13.08324171
 11
-5.7500752893
 21
13.08324171
  0
LINE
  5
2BE
100
AcDbEntity
  8
RACCORDO
100
AcDbLine
 62
7
  6
CONTINUOUS
 10
5.7500556966
 20
13.08324171
 11
19.2499247107
 21
13.08324171
  0
LINE
  5
2BF
100
AcDbEntity
  8
RACCORDO
100
AcDbLine
 62
253
  6
CONTINUOUS
 10
-19.25
 20
13.3990695624
 11
-5.75
 21
13.3990695624
  0
LINE
  5
2C0
100
AcDbEntity
  8
RACCORDO
100
AcDbLine
 62
253
  6
CONTINUOUS
 10
5.75
 20
13.3990695624
 11
19.25
 21
13.3990695624
  0
LINE
  5
2C1
100
AcDbEntity
  8
ASSI
100
AcDbLine
 62
7
  6
CONTINUOUS
 10
18.731442
 20
-36.76662529
 11
18.731435
 21
-39.56675829
  0
LINE
  5
2C2
100
AcDbEntity
  8
RACCORDO
100
AcDbLine
 62
253
  6
CONTINUOUS
 10
19.25
 20
13.3990695624
 11
19.2499999996
 21
13.08324171
  0
LINE
  5
2C3
100
AcDbEntity
  8
RACCORDO
100
AcDbLine
 62
253
  6
CONTINUOUS
 10
19.25
 20
-23.5325861424
 11
19.25
 21
-23.21675829
  0
LINE
  5
2C4
100
AcDbEntity
  8
ASSI
100
AcDbLine
 62
7
  6
CONTINUOUS
 10
19.291456
 20
-39.56675129
 11
19.291463
 21
-36.76662529
  0
LINE
  5
2C5
100
AcDbEntity
  8
ASSI
100
AcDbLine
 62
7
  6
CONTINUOUS
 10
19.851463
 20
-36.76662529
 11
19.851463
 21
-39.56675129
  0
LINE
  5
2C6
100
AcDbEntity
  8
ASSI
100
AcDbLine
 62
7
  6
CONTINUOUS
 10
20.411484
 20
-39.56675129
 11
20.411484
 21
-37.72025629
  0
LINE
  5
2C7
100
AcDbEntity
  8
RACCORDO
100
AcDbLine
 62
7
  6
CONTINUOUS
 10
21.15
 20
11.1831756322
 11
21.15
 21
-21.3166731365
  0
LINE
  5
2C8
100
AcDbEntity
  8
RACCORDO
100
AcDbLine
 62
253
  6
CONTINUOUS
 10
21.45
 20
11.1971822304
 11
21.45
 21
-21.3306988104
  0
LINE
  5
2C9
100
AcDbEntity
  8
ASSI
100
AcDbLine
 62
7
  6
CONTINUOUS
 10
22.030423
 20
-37.72025629
 11
22.03043
 21
-39.56675129
  0
LINE
  5
2CA
100
AcDbEntity
  8
ASSI
100
AcDbLine
 62
7
  6
CONTINUOUS
 10
22.590451
 20
-39.56675129
 11
22.590451
 21
-36.76662529
  0
LINE
  5
2CB
100
AcDbEntity
  8
0
100
AcDbLine
 62
7
  6
CONTINUOUS
 10
24.4
 20
19.1010863883
 11
24.4
 21
21.4794343434
  0
LINE
  5
2CC
100
AcDbEntity
  8
0
100
AcDbLine
 62
7
  6
CONTINUOUS
 10
24.4
 20
22.3870490766
 11
24.4
 21
24.7653970317
  0
LINE
  5
2CD
100
AcDbEntity
  8
0
100
AcDbLine
 62
7
  6
CONTINUOUS
 10
25.6
 20
24.7653970317
 11
25.6
 21
22.3870490766
  0
LINE
  5
2CE
100
AcDbEntity
  8
0
100
AcDbLine
 62
7
  6
CONTINUOUS
 10
25.6
 20
21.4794343434
 11
25.6
 21
19.1010863883
  0
LINE
  5
2CF
100
AcDbEntity
  8
ASSI
100
AcDbLine
 62
7
  6
CONTINUOUS
 10
25.695238
 20
-36.76661829
 11
25.695238
 21
-39.56674429
  0
LINE
  5
2D0
100
AcDbEntity
  8
ASSI
100
AcDbLine
 62
7
  6
CONTINUOUS
 10
26.247545
 20
-37.96603329
 11
26.247538
 21
-37.28463929
  0
LINE
  5
2D1
100
AcDbEntity
  8
ASSI
100
AcDbLine
 62
7
  6
CONTINUOUS
 10
26.255266
 20
-39.56674429
 11
26.255329
 21
-38.48405429
  0
LINE
  5
2D2
100
AcDbEntity
  8
ASSI
100
AcDbLine
 62
7
  6
CONTINUOUS
 10
21.74385
 20
-36.76662529
 11
21.220957
 21
-38.59016729
  0
LINE
  5
2D3
100
AcDbEntity
  8
ASSI
100
AcDbLine
 62
7
  6
CONTINUOUS
 10
17.798069
 20
-36.76662529
 11
17.179052
 21
-38.69466329
  0
LINE
  5
2D4
100
AcDbEntity
  8
ASSI
100
AcDbLine
 62
7
  6
CONTINUOUS
 10
17.459066
 20
-39.56675129
 11
18.358097
 21
-36.76662529
  0
LINE
  5
2D5
100
AcDbEntity
  8
0
100
AcDbLine
 62
7
  6
CONTINUOUS
 10
23.877893713
 20
22.1720640826
 11
23.8283951111
 21
22.2783143839
  0
LINE
  5
2D6
100
AcDbEntity
  8
RACCORDO
100
AcDbLine
 62
7
  6
CONTINUOUS
 10
34.0
 20
34.9332988254
 11
34.0
 21
-45.0668154054
  0
LINE
  5
2D7
100
AcDbEntity
  8
ASSI
100
AcDbLine
 62
7
  6
CONTINUOUS
 10
21.500957
 20
-39.56674429
 11
22.030423
 21
-37.72025629
  0
LINE
  5
2D8
100
AcDbEntity
  8
ASSI
100
AcDbLine
 62
7
  6
CONTINUOUS
 10
23.862813
 20
-36.76661829
 11
22.963796
 21
-39.56675129
  0
LINE
  5
2D9
100
AcDbEntity
  8
ASSI
100
AcDbLine
 62
7
  6
CONTINUOUS
 10
23.871437
 20
-38.48406129
 11
24.142834
 21
-37.63871329
  0
LINE
  5
2DA
100
AcDbEntity
  8
ASSI
100
AcDbLine
 62
7
  6
CONTINUOUS
 10
23.523817
 20
-39.56674429
 11
23.700616
 21
-39.01608229
  0
LINE
  5
2DB
100
AcDbEntity
  8
RACCORDO
100
AcDbLine
 62
253
  6
CONTINUOUS
 10
32.3903974705
 20
31.8816007089
 11
-32.3903974705
 21
31.8816007167
  0
LINE
  5
2DC
100
AcDbEntity
  8
0
100
AcDbLine
 62
7
  6
CONTINUOUS
 10
26.122106287
 20
21.6944193374
 11
26.1716048889
 21
21.5881690361
  0
LINE
  5
2DD
100
AcDbEntity
  8
RACCORDO
100
AcDbLine
 62
253
  6
CONTINUOUS
 10
32.420505358
 20
36.3536899526
 11
-32.4205053581
 21
36.3536899527
  0
LINE
  5
2DE
100
AcDbEntity
  8
RACCORDO
100
AcDbLine
 62
7
  6
CONTINUOUS
 10
32.5000571154
 20
36.43324171
 11
-32.5000571154
 21
36.43324171
  0
LINE
  5
2DF
100
AcDbEntity
  8
0
100
AcDbLine
 62
7
  6
CONTINUOUS
 10
13.9999999322
 20
36.4371998771
 11
-13.9999999322
 21
36.4371998771
  0
LINE
  5
2E0
100
AcDbEntity
  8
RACCORDO
100
AcDbLine
 62
253
  6
CONTINUOUS
 10
-14.0
 20
37.8598075293
 11
14.0
 21
37.8598075293
  0
LINE
  5
2E1
100
AcDbEntity
  8
RACCORDO
100
AcDbLine
 62
253
  6
CONTINUOUS
 10
-13.2588190417
 20
38.8257333563
 11
13.2588190417
 21
38.8257333563
  0
LINE
  5
2E2
100
AcDbEntity
  8
0
100
AcDbLine
 62
7
  6
CONTINUOUS
 10
-11.35
 20
39.3371998771
 11
-13.2588190423
 21
38.8257333562
  0
LINE
  5
2E3
100
AcDbEntity
  8
0
100
AcDbLine
 62
7
  6
CONTINUOUS
 10
-9.45
 20
41.1371998771
 11
-11.627645708
 21
40.5537014682
  0
LINE
  5
2E4
100
AcDbEntity
  8
0
100
AcDbLine
 62
7
  6
CONTINUOUS
 10
11.35
 20
39.3371998771
 11
-11.35
 21
39.3371998771
  0
LINE
  5
2E5
100
AcDbEntity
  8
0
100
AcDbLine
 62
7
  6
CONTINUOUS
 10
11.8499999334
 20
39.8371998771
 11
-11.8499999334
 21
39.8371998771
  0
LINE
  5
2E6
100
AcDbEntity
  8
RACCORDO
100
AcDbLine
 62
253
  6
CONTINUOUS
 10
-11.85
 20
40.2639237189
 11
11.85
 21
40.2639237189
  0
LINE
  5
2E7
100
AcDbEntity
  8
RACCORDO
100
AcDbLine
 62
253
  6
CONTINUOUS
 10
-11.6276457073
 20
40.5537014684
 11
11.6276457073
 21
40.5537014684
  0
LINE
  5
2E8
100
AcDbEntity
  8
0
100
AcDbLine
 62
7
  6
CONTINUOUS
 10
9.45
 20
41.1371998771
 11
-9.45
 21
41.1371998771
  0
LINE
  5
2E9
100
AcDbEntity
  8
0
100
AcDbLine
 62
7
  6
CONTINUOUS
 10
10.0999999333
 20
41.6371998771
 11
-10.0999999333
 21
41.6371998771
  0
LINE
  5
2EA
100
AcDbEntity
  8
RACCORDO
100
AcDbLine
 62
253
  6
CONTINUOUS
 10
-10.1
 20
42.1041160976
 11
10.1
 21
42.1041160976
  0
LINE
  5
2EB
100
AcDbEntity
  8
RACCORDO
100
AcDbLine
 62
253
  6
CONTINUOUS
 10
-9.877645721
 20
42.3938938436
 11
9.877645721
 21
42.3938938436
  0
LINE
  5
2EC
100
AcDbEntity
  8
0
100
AcDbLine
 62
7
  6
CONTINUOUS
 10
11.35
 20
39.3371998771
 11
13.2588190423
 21
38.8257333562
  0
LINE
  5
2ED
100
AcDbEntity
  8
0
100
AcDbLine
 62
7
  6
CONTINUOUS
 10
9.45
 20
41.1371998771
 11
11.627645708
 21
40.5537014682
  0
LINE
  5
2EE
100
AcDbEntity
  8
0
100
AcDbLine
 62
7
  6
CONTINUOUS
 10
-7.85
 20
42.9371998771
 11
-9.8776457159
 21
42.393893845
  0
LINE
  5
2EF
100
AcDbEntity
  8
0
100
AcDbLine
 62
7
  6
CONTINUOUS
 10
-6.0
 20
44.7371998771
 11
-8.127645714
 21
44.1670989262
  0
LINE
  5
2F0
100
AcDbEntity
  8
0
100
AcDbLine
 62
7
  6
CONTINUOUS
 10
-1.0
 20
46.6371998771
 11
-3.8776456564
 21
45.8661370473
  0
LINE
  5
2F1
100
AcDbEntity
  8
0
100
AcDbLine
 62
7
  6
CONTINUOUS
 10
7.85
 20
42.9371998771
 11
-7.85
 21
42.9371998771
  0
LINE
  5
2F2
100
AcDbEntity
  8
0
100
AcDbLine
 62
7
  6
CONTINUOUS
 10
8.3499320146
 20
43.4371998771
 11
-8.3499320146
 21
43.4371998771
  0
LINE
  5
2F3
100
AcDbEntity
  8
RACCORDO
100
AcDbLine
 62
253
  6
CONTINUOUS
 10
-8.35
 20
43.8773211783
 11
8.35
 21
43.8773211783
  0
LINE
  5
2F4
100
AcDbEntity
  8
RACCORDO
100
AcDbLine
 62
253
  6
CONTINUOUS
 10
-8.12764572
 20
44.1670989246
 11
8.12764572
 21
44.1670989246
  0
LINE
  5
2F5
100
AcDbEntity
  8
0
100
AcDbLine
 62
7
  6
CONTINUOUS
 10
5.9999297231
 20
44.7371998771
 11
-5.9999297231
 21
44.7371998771
  0
LINE
  5
2F6
100
AcDbEntity
  8
0
100
AcDbLine
 62
7
  6
CONTINUOUS
 10
4.0999283597
 20
45.2371998771
 11
-4.0999283597
 21
45.2371998771
  0
LINE
  5
2F7
100
AcDbEntity
  8
RACCORDO
100
AcDbLine
 62
253
  6
CONTINUOUS
 10
-4.1
 20
45.5763592866
 11
4.1
 21
45.5763592866
  0
LINE
  5
2F8
100
AcDbEntity
  8
RACCORDO
100
AcDbLine
 62
253
  6
CONTINUOUS
 10
-3.8776456562
 20
45.8661370474
 11
3.8776456562
 21
45.8661370474
  0
LINE
  5
2F9
100
AcDbEntity
  8
0
100
AcDbLine
 62
7
  6
CONTINUOUS
 10
0.9999204644
 20
46.6371998771
 11
-0.9999204644
 21
46.6371998771
  0
LINE
  5
2FA
100
AcDbEntity
  8
0
100
AcDbLine
 62
7
  6
CONTINUOUS
 10
7.85
 20
42.9371998771
 11
9.8776457159
 21
42.393893845
  0
LINE
  5
2FB
100
AcDbEntity
  8
0
100
AcDbLine
 62
7
  6
CONTINUOUS
 10
6.0
 20
44.7371998771
 11
8.127645714
 21
44.1670989262
  0
LINE
  5
2FC
100
AcDbEntity
  8
0
100
AcDbLine
 62
7
  6
CONTINUOUS
 10
1.0
 20
46.6371998771
 11
3.8776456564
 21
45.8661370473
  0
LINE
  5
2FD
100
AcDbEntity
  8
RACCORDO
100
AcDbLine
 62
7
  6
CONTINUOUS
 10
-89.8811331057
 20
-46.56675829
 11
-50.8724065702
 21
-46.2263342908
  0
LINE
  5
2FE
100
AcDbEntity
  8
RACCORDO
100
AcDbLine
 62
253
  6
CONTINUOUS
 10
-89.8811331057
 20
-45.0668154054
 11
-50.8724065702
 21
-44.7263851389
  0
LINE
  5
2FF
100
AcDbEntity
  8
RACCORDO
100
AcDbLine
 62
253
  6
CONTINUOUS
 10
-49.8811331057
 20
-44.7263914062
 11
-50.8724065702
 21
-44.7263914062
  0
LINE
  5
300
100
AcDbEntity
  8
RACCORDO
100
AcDbLine
 62
7
  6
CONTINUOUS
 10
-89.8811331057
 20
-46.56675829
 11
-98.996857421
 21
-46.4872065691
  0
LINE
  5
301
100
AcDbEntity
  8
RACCORDO
100
AcDbLine
 62
253
  6
CONTINUOUS
 10
-89.8811331057
 20
-45.0668154054
 11
-98.9969697735
 21
-44.987262704
  0
LINE
  5
302
100
AcDbEntity
  8
ASSI
100
AcDbLine
 62
7
  6
CONTINUOUS
 10
-104.3273613089
 20
-39.56673729
 11
-104.1766275483
 21
-39.56673729
  0
LINE
  5
303
100
AcDbEntity
  8
RACCORDO
100
AcDbLine
 62
253
  6
CONTINUOUS
 10
-103.9253980084
 20
-42.0152313004
 11
-102.4468695484
 21
-41.8568807034
  0
LINE
  5
304
100
AcDbEntity
  8
ASSI
100
AcDbLine
 62
7
  6
CONTINUOUS
 10
-104.4393105889
 20
-38.4167119569
 11
-104.2886252617
 21
-38.4167119569
  0
LINE
  5
305
100
AcDbEntity
  8
ASSI
100
AcDbLine
 62
7
  6
CONTINUOUS
 10
-104.4426325229
 20
-36.76661829
 11
-104.5932515278
 21
-36.76661829
  0
LINE
  5
306
100
AcDbEntity
  8
RACCORDO
100
AcDbLine
 62
7
  6
CONTINUOUS
 10
-89.8811331057
 20
-46.56675829
 11
-89.8811331057
 21
36.43324171
  0
LINE
  5
307
100
AcDbEntity
  8
0
100
AcDbLine
 62
7
  6
CONTINUOUS
 10
-79.8811331057
 20
37.8598075289
 11
-79.8811331057
 21
36.4371998771
  0
LINE
  5
308
100
AcDbEntity
  8
0
100
AcDbLine
 62
7
  6
CONTINUOUS
 10
-77.7311331057
 20
40.2639237188
 11
-77.7311331057
 21
39.8371998771
  0
LINE
  5
309
100
AcDbEntity
  8
0
100
AcDbLine
 62
7
  6
CONTINUOUS
 10
-77.3811331057
 20
36.4371998771
 11
-77.3811331057
 21
36.3241558626
  0
LINE
  5
30A
100
AcDbEntity
  8
0
100
AcDbLine
 62
7
  6
CONTINUOUS
 10
-77.2311331057
 20
39.8371998771
 11
-77.2311331057
 21
39.3371998771
  0
LINE
  5
30B
100
AcDbEntity
  8
0
100
AcDbLine
 62
7
  6
CONTINUOUS
 10
-75.9811331057
 20
42.1041160977
 11
-75.9811331057
 21
41.6371998771
  0
LINE
  5
30C
100
AcDbEntity
  8
0
100
AcDbLine
 62
7
  6
CONTINUOUS
 10
-75.3311331057
 20
41.6371998771
 11
-75.3311331057
 21
41.1371998771
  0
LINE
  5
30D
100
AcDbEntity
  8
0
100
AcDbLine
 62
7
  6
CONTINUOUS
 10
-74.2311331057
 20
43.8773211784
 11
-74.2311331057
 21
43.4371998771
  0
LINE
  5
30E
100
AcDbEntity
  8
0
100
AcDbLine
 62
7
  6
CONTINUOUS
 10
-73.7311331057
 20
43.4371998771
 11
-73.7311331057
 21
42.9371998771
  0
LINE
  5
30F
100
AcDbEntity
  8
0
100
AcDbLine
 62
7
  6
CONTINUOUS
 10
-69.9811331057
 20
45.5763592841
 11
-69.9811331057
 21
45.2371998771
  0
LINE
  5
310
100
AcDbEntity
  8
RACCORDO
100
AcDbLine
 62
7
  6
CONTINUOUS
 10
-69.9811309607
 20
45.2371998771
 11
-69.9811309607
 21
45.5763592841
  0
LINE
  5
311
100
AcDbEntity
  8
0
100
AcDbLine
 62
7
  6
CONTINUOUS
 10
-69.4811331057
 20
45.2371998771
 11
-69.4811331057
 21
44.7371998771
  0
LINE
  5
312
100
AcDbEntity
  8
0
100
AcDbLine
 62
7
  6
CONTINUOUS
 10
-62.2811349891
 20
44.7371998771
 11
-62.2811349891
 21
45.2371998771
  0
LINE
  5
313
100
AcDbEntity
  8
RACCORDO
100
AcDbLine
 62
7
  6
CONTINUOUS
 10
-61.7811352507
 20
45.2371998771
 11
-61.7811352507
 21
45.5763592841
  0
LINE
  5
314
100
AcDbEntity
  8
0
100
AcDbLine
 62
7
  6
CONTINUOUS
 10
-61.7811331057
 20
45.5763592841
 11
-61.7811331057
 21
45.2371998771
  0
LINE
  5
315
100
AcDbEntity
  8
0
100
AcDbLine
 62
7
  6
CONTINUOUS
 10
-58.0311331057
 20
43.4371998771
 11
-58.0311331057
 21
42.9371998771
  0
LINE
  5
316
100
AcDbEntity
  8
0
100
AcDbLine
 62
7
  6
CONTINUOUS
 10
-57.5311331057
 20
43.8773211784
 11
-57.5311331057
 21
43.4371998771
  0
LINE
  5
317
100
AcDbEntity
  8
0
100
AcDbLine
 62
7
  6
CONTINUOUS
 10
-56.4311331057
 20
41.6371998771
 11
-56.4311331057
 21
41.1371998771
  0
LINE
  5
318
100
AcDbEntity
  8
0
100
AcDbLine
 62
7
  6
CONTINUOUS
 10
-55.7811331057
 20
42.1041160977
 11
-55.7811331057
 21
41.6371998771
  0
LINE
  5
319
100
AcDbEntity
  8
0
100
AcDbLine
 62
7
  6
CONTINUOUS
 10
-54.5311331057
 20
39.8371998771
 11
-54.5311331057
 21
39.3371998771
  0
LINE
  5
31A
100
AcDbEntity
  8
0
100
AcDbLine
 62
7
  6
CONTINUOUS
 10
-54.3811331057
 20
36.4371998771
 11
-54.3811331057
 21
36.1234379034
  0
LINE
  5
31B
100
AcDbEntity
  8
0
100
AcDbLine
 62
7
  6
CONTINUOUS
 10
-54.0311331057
 20
40.2639237188
 11
-54.0311331057
 21
39.8371998771
  0
LINE
  5
31C
100
AcDbEntity
  8
0
100
AcDbLine
 62
7
  6
CONTINUOUS
 10
-51.8811331057
 20
37.8598075289
 11
-51.8811331057
 21
36.4371998771
  0
LINE
  5
31D
100
AcDbEntity
  8
RACCORDO
100
AcDbLine
 62
253
  6
CONTINUOUS
 10
-50.8724065702
 20
34.5928674522
 11
-50.8724065702
 21
-44.7263851389
  0
LINE
  5
31E
100
AcDbEntity
  8
0
100
AcDbLine
 62
7
  6
CONTINUOUS
 10
-49.8811331057
 20
-45.06675829
 11
-49.8811331057
 21
-44.7263914062
  0
LINE
  5
31F
100
AcDbEntity
  8
RACCORDO
100
AcDbLine
 62
7
  6
CONTINUOUS
 10
-49.8811331057
 20
35.0928557878
 11
-49.8811331057
 21
-45.2263723678
  0
LINE
  5
320
100
AcDbEntity
  8
RACCORDO
100
AcDbLine
 62
253
  6
CONTINUOUS
 10
-103.9253955316
 20
31.8817144574
 11
-102.4468695484
 21
31.7233641234
  0
LINE
  5
321
100
AcDbEntity
  8
RACCORDO
100
AcDbLine
 62
253
  6
CONTINUOUS
 10
-98.9969697735
 20
34.853746124
 11
-89.8811331057
 21
34.9332988254
  0
LINE
  5
322
100
AcDbEntity
  8
RACCORDO
100
AcDbLine
 62
7
  6
CONTINUOUS
 10
-98.9968615995
 20
36.3536899526
 11
-89.8811331057
 21
36.43324171
  0
LINE
  5
323
100
AcDbEntity
  8
RACCORDO
100
AcDbLine
 62
253
  6
CONTINUOUS
 10
-49.8811331057
 20
34.5928748262
 11
-50.8724065702
 21
34.5928748262
  0
LINE
  5
324
100
AcDbEntity
  8
0
100
AcDbLine
 62
7
  6
CONTINUOUS
 10
-51.8811380379
 20
36.4371998771
 11
-79.8811257814
 21
36.4371998771
  0
LINE
  5
325
100
AcDbEntity
  8
RACCORDO
100
AcDbLine
 62
253
  6
CONTINUOUS
 10
-89.8811331057
 20
34.9332988254
 11
-50.8724065702
 21
34.5928674522
  0
LINE
  5
326
100
AcDbEntity
  8
RACCORDO
100
AcDbLine
 62
7
  6
CONTINUOUS
 10
-89.8811331057
 20
36.43324171
 11
-50.8724065702
 21
36.0928177108
  0
LINE
  5
327
100
AcDbEntity
  8
0
100
AcDbLine
 62
7
  6
CONTINUOUS
 10
-77.2311331057
 20
39.3371998771
 11
-79.1399521591
 21
38.8257333532
  0
LINE
  5
328
100
AcDbEntity
  8
0
100
AcDbLine
 62
7
  6
CONTINUOUS
 10
-75.3311331057
 20
41.1371998771
 11
-77.5087788223
 21
40.5537014659
  0
LINE
  5
329
100
AcDbEntity
  8
0
100
AcDbLine
 62
7
  6
CONTINUOUS
 10
-73.7311331057
 20
42.9371998771
 11
-75.7587788213
 21
42.393893845
  0
LINE
  5
32A
100
AcDbEntity
  8
RACCORDO
100
AcDbLine
 62
253
  6
CONTINUOUS
 10
-79.8811257814
 20
37.8598075291
 11
-51.8811331057
 21
37.8598075285
  0
LINE
  5
32B
100
AcDbEntity
  8
RACCORDO
100
AcDbLine
 62
253
  6
CONTINUOUS
 10
-79.1399452143
 20
38.8257333554
 11
-52.6223140415
 21
38.8257333503
  0
LINE
  5
32C
100
AcDbEntity
  8
0
100
AcDbLine
 62
7
  6
CONTINUOUS
 10
-54.5311331057
 20
39.3371998771
 11
-77.2311271678
 21
39.3371998771
  0
LINE
  5
32D
100
AcDbEntity
  8
0
100
AcDbLine
 62
7
  6
CONTINUOUS
 10
-54.0311383267
 20
39.8371998771
 11
-77.7311269062
 21
39.8371998771
  0
LINE
  5
32E
100
AcDbEntity
  8
RACCORDO
100
AcDbLine
 62
253
  6
CONTINUOUS
 10
-77.7311269062
 20
40.2639237188
 11
-54.0311331321
 21
40.2639237187
  0
LINE
  5
32F
100
AcDbEntity
  8
0
100
AcDbLine
 62
7
  6
CONTINUOUS
 10
-71.8811331057
 20
44.7371998771
 11
-74.0087788222
 21
44.1670989256
  0
LINE
  5
330
100
AcDbEntity
  8
RACCORDO
100
AcDbLine
 62
7
  6
CONTINUOUS
 10
-69.7587767906
 20
45.866137032
 11
-66.8811325825
 21
46.6371998771
  0
LINE
  5
331
100
AcDbEntity
  8
0
100
AcDbLine
 62
7
  6
CONTINUOUS
 10
-66.8811331057
 20
46.6371998771
 11
-69.7587788245
 21
45.8661370306
  0
LINE
  5
332
100
AcDbEntity
  8
RACCORDO
100
AcDbLine
 62
253
  6
CONTINUOUS
 10
-77.5087727361
 20
40.5537014667
 11
-54.2534874075
 21
40.5537014639
  0
LINE
  5
333
100
AcDbEntity
  8
0
100
AcDbLine
 62
7
  6
CONTINUOUS
 10
-56.4311331057
 20
41.1371998771
 11
-75.3311281618
 21
41.1371998771
  0
LINE
  5
334
100
AcDbEntity
  8
0
100
AcDbLine
 62
7
  6
CONTINUOUS
 10
-55.7811387703
 20
41.6371998771
 11
-75.9811278218
 21
41.6371998771
  0
LINE
  5
335
100
AcDbEntity
  8
RACCORDO
100
AcDbLine
 62
253
  6
CONTINUOUS
 10
-75.9811278218
 20
42.1041160977
 11
-55.7811331247
 21
42.1041160976
  0
LINE
  5
336
100
AcDbEntity
  8
RACCORDO
100
AcDbLine
 62
253
  6
CONTINUOUS
 10
-75.7587736516
 20
42.3938938456
 11
-56.0034874033
 21
42.3938938436
  0
LINE
  5
337
100
AcDbEntity
  8
0
100
AcDbLine
 62
7
  6
CONTINUOUS
 10
-58.0311331057
 20
42.9371998771
 11
-73.7311289989
 21
42.9371998771
  0
LINE
  5
338
100
AcDbEntity
  8
0
100
AcDbLine
 62
7
  6
CONTINUOUS
 10
-57.5311384296
 20
43.4371998771
 11
-74.2311287373
 21
43.4371998771
  0
LINE
  5
339
100
AcDbEntity
  8
RACCORDO
100
AcDbLine
 62
253
  6
CONTINUOUS
 10
-74.2311287373
 20
43.8773211785
 11
-57.5311331245
 21
43.8773211783
  0
LINE
  5
33A
100
AcDbEntity
  8
RACCORDO
100
AcDbLine
 62
253
  6
CONTINUOUS
 10
-74.0087745672
 20
44.1670989263
 11
-57.753487399
 21
44.1670989233
  0
LINE
  5
33B
100
AcDbEntity
  8
0
100
AcDbLine
 62
7
  6
CONTINUOUS
 10
-59.8811381368
 20
44.7371998771
 11
-71.8811299667
 21
44.7371998771
  0
LINE
  5
33C
100
AcDbEntity
  8
0
100
AcDbLine
 62
7
  6
CONTINUOUS
 10
-61.7811377514
 20
45.2371998771
 11
-69.9811309607
 21
45.2371998771
  0
LINE
  5
33D
100
AcDbEntity
  8
RACCORDO
100
AcDbLine
 62
253
  6
CONTINUOUS
 10
-69.9811309607
 20
45.5763592841
 11
-61.7811331077
 21
45.5763592838
  0
LINE
  5
33E
100
AcDbEntity
  8
RACCORDO
100
AcDbLine
 62
253
  6
CONTINUOUS
 10
-69.7587767906
 20
45.866137032
 11
-62.003487379
 21
45.866137028
  0
LINE
  5
33F
100
AcDbEntity
  8
0
100
AcDbLine
 62
7
  6
CONTINUOUS
 10
-64.8811366423
 20
46.6371998771
 11
-66.8811325825
 21
46.6371998771
  0
LINE
  5
340
100
AcDbEntity
  8
0
100
AcDbLine
 62
7
  6
CONTINUOUS
 10
-54.5311331057
 20
39.3371998771
 11
-52.6223140523
 21
38.8257333532
  0
LINE
  5
341
100
AcDbEntity
  8
0
100
AcDbLine
 62
7
  6
CONTINUOUS
 10
-56.4311331057
 20
41.1371998771
 11
-54.2534873892
 21
40.5537014659
  0
LINE
  5
342
100
AcDbEntity
  8
0
100
AcDbLine
 62
7
  6
CONTINUOUS
 10
-58.0311331057
 20
42.9371998771
 11
-56.0034873901
 21
42.393893845
  0
LINE
  5
343
100
AcDbEntity
  8
0
100
AcDbLine
 62
7
  6
CONTINUOUS
 10
-59.8811331057
 20
44.7371998771
 11
-57.7534873892
 21
44.1670989256
  0
LINE
  5
344
100
AcDbEntity
  8
0
100
AcDbLine
 62
7
  6
CONTINUOUS
 10
-64.8811331057
 20
46.6371998771
 11
-62.0034873869
 21
45.8661370306
  0
LINE
  5
345
100
AcDbEntity
  8
RACCORDO
100
AcDbLine
 62
7
  6
CONTINUOUS
 10
-62.0034894208
 20
45.866137032
 11
-64.8811336289
 21
46.6371998771
  0
ARC
  5
346
100
AcDbEntity
  8
0
100
AcDbCircle
 62
7
  6
CONTINUOUS
 10
-38.0773750891
 20
-98.7180967917
 40
68.4863730367
100
AcDbArc
 50
77.563207778
 51
77.9759958578
  0
ARC
  5
347
100
AcDbEntity
  8
0
100
AcDbCircle
 62
7
  6
CONTINUOUS
 10
-39.1604077293
 20
-38.7177603653
 40
16.3387675929
100
AcDbArc
 50
26.0349730838
 51
26.1979446202
  0
ARC
  5
348
100
AcDbEntity
  8
0
100
AcDbCircle
 62
7
  6
CONTINUOUS
 10
-31.650643478
 20
-46.2264371118
 40
16.337955255
100
AcDbArc
 50
63.8020552904
 51
63.9650349025
  0
ARC
  5
349
100
AcDbEntity
  8
0
100
AcDbCircle
 62
7
  6
CONTINUOUS
 10
-39.1259263173
 20
-25.4325884763
 40
16.3003971265
100
AcDbArc
 50
333.8016338065
 51
333.9649905686
  0
ARC
  5
34A
100
AcDbEntity
  8
0
100
AcDbCircle
 62
7
  6
CONTINUOUS
 10
-31.6325359484
 20
-17.944224351
 40
16.2966318497
100
AcDbArc
 50
296.0350829577
 51
296.1984781097
  0
ARC
  5
34B
100
AcDbEntity
  8
0
100
AcDbCircle
 62
7
  6
CONTINUOUS
 10
-37.4355712915
 20
-26.1961554074
 40
14.5897650615
100
AcDbArc
 50
333.3130487244
 51
333.5527387092
  0
ARC
  5
34C
100
AcDbEntity
  8
0
100
AcDbCircle
 62
7
  6
CONTINUOUS
 10
-37.3953036783
 20
-37.9171808639
 40
14.5447241039
100
AcDbArc
 50
26.4467334955
 51
26.6871679444
  0
ARC
  5
34D
100
AcDbEntity
  8
RACCORDO
100
AcDbCircle
 62
253
  6
CONTINUOUS
 10
-25.0003234655
 20
-32.0619650861
 40
3.2969539193
100
AcDbArc
 50
89.9943787726
 51
270.0056212274
  0
ARC
  5
34E
100
AcDbEntity
  8
RACCORDO
100
AcDbCircle
 62
253
  6
CONTINUOUS
 10
-24.9996765323
 20
-32.0619650602
 40
3.2969539183
100
AcDbArc
 50
269.9943787353
 51
90.0056212648
  0
CIRCLE
  5
34F
100
AcDbEntity
  8
DRAFT
100
AcDbCircle
 62
7
  6
CONTINUOUS
 10
-25.0
 20
-32.06675829
 40
3.25
  0
CIRCLE
  5
350
100
AcDbEntity
  8
0
100
AcDbCircle
 62
7
  6
CONTINUOUS
 10
-25.0
 20
-32.06675829
 40
3.0
  0
ARC
  5
351
100
AcDbEntity
  8
0
100
AcDbCircle
 62
7
  6
CONTINUOUS
 10
-25.0
 20
-32.06675829
 40
2.8950136038
100
AcDbArc
 50
78.0385857315
 51
101.9614142685
  0
ARC
  5
352
100
AcDbEntity
  8
0
100
AcDbCircle
 62
7
  6
CONTINUOUS
 10
-25.0
 20
-32.06675829
 40
2.8950136038
100
AcDbArc
 50
258.0385857315
 51
281.9614142685
  0
ARC
  5
353
100
AcDbEntity
  8
0
100
AcDbCircle
 62
7
  6
CONTINUOUS
 10
-25.0
 20
-32.06675829
 40
2.8155023425
100
AcDbArc
 50
282.3044249574
 51
77.6955750426
  0
ARC
  5
354
100
AcDbEntity
  8
0
100
AcDbCircle
 62
7
  6
CONTINUOUS
 10
-25.0
 20
-32.06675829
 40
2.8155023425
100
AcDbArc
 50
102.3044249574
 51
257.6955750426
  0
ARC
  5
355
100
AcDbEntity
  8
0
100
AcDbCircle
 62
7
  6
CONTINUOUS
 10
-25.0
 20
-32.06675829
 40
1.6874840352
100
AcDbArc
 50
352.230101045
 51
7.7632444202
  0
ARC
  5
356
100
AcDbEntity
  8
0
100
AcDbCircle
 62
7
  6
CONTINUOUS
 10
-25.0
 20
-32.06675829
 40
1.6874840352
100
AcDbArc
 50
172.2301010241
 51
187.7632444202
  0
ARC
  5
357
100
AcDbEntity
  8
RACCORDO
100
AcDbCircle
 62
253
  6
CONTINUOUS
 10
-32.4203670335
 20
-44.9871253235
 40
1.5000802714
100
AcDbArc
 50
180.0052472679
 51
269.9947527321
  0
ARC
  5
358
100
AcDbEntity
  8
TRASH
100
AcDbCircle
 62
7
  6
CONTINUOUS
 10
-25.0
 20
-32.06675829
 40
1.1472328625
100
AcDbArc
 50
167.9845776281
 51
192.0153200785
  0
ARC
  5
359
100
AcDbEntity
  8
TRASH
100
AcDbCircle
 62
7
  6
CONTINUOUS
 10
-25.0
 20
-32.06675829
 40
1.1472328625
100
AcDbArc
 50
347.9845776281
 51
12.0153200785
  0
ARC
  5
35A
100
AcDbEntity
  8
0
100
AcDbCircle
 62
7
  6
CONTINUOUS
 10
-25.0
 20
-32.06675829
 40
0.7522905861
100
AcDbArc
 50
318.3509867785
 51
322.8981211086
  0
ARC
  5
35B
100
AcDbEntity
  8
0
100
AcDbCircle
 62
7
  6
CONTINUOUS
 10
-25.0
 20
-32.06675829
 40
0.7522905861
100
AcDbArc
 50
228.3509342563
 51
311.6490283615
  0
ARC
  5
35C
100
AcDbEntity
  8
0
100
AcDbCircle
 62
7
  6
CONTINUOUS
 10
-25.0
 20
-32.06675829
 40
0.7522905861
100
AcDbArc
 50
217.1018788914
 51
221.6490663885
  0
ARC
  5
35D
100
AcDbEntity
  8
0
100
AcDbCircle
 62
7
  6
CONTINUOUS
 10
-25.0
 20
-32.06675829
 40
0.7522905861
100
AcDbArc
 50
138.3509867785
 51
142.8981211086
  0
ARC
  5
35E
100
AcDbEntity
  8
0
100
AcDbCircle
 62
7
  6
CONTINUOUS
 10
-25.0
 20
-32.06675829
 40
0.7522905861
100
AcDbArc
 50
48.3509342563
 51
131.6490283615
  0
ARC
  5
35F
100
AcDbEntity
  8
0
100
AcDbCircle
 62
7
  6
CONTINUOUS
 10
-25.0
 20
-32.06675829
 40
0.7522905861
100
AcDbArc
 50
37.1018788914
 51
41.6490663885
  0
ARC
  5
360
100
AcDbEntity
  8
0
100
AcDbCircle
 62
7
  6
CONTINUOUS
 10
-13.5972344246
 20
-91.1653561322
 40
60.7504001412
100
AcDbArc
 50
101.9634542591
 51
102.4284884885
  0
ARC
  5
361
100
AcDbEntity
  8
0
100
AcDbCircle
 62
7
  6
CONTINUOUS
 10
-18.3487827879
 20
-17.9059091821
 40
16.339258611
100
AcDbArc
 50
243.8020617907
 51
243.9650284022
  0
ARC
  5
362
100
AcDbEntity
  8
0
100
AcDbCircle
 62
7
  6
CONTINUOUS
 10
-10.8395922707
 20
-25.4157562147
 40
16.3387675929
100
AcDbArc
 50
206.0349730838
 51
206.1979446202
  0
ARC
  5
363
100
AcDbEntity
  8
0
100
AcDbCircle
 62
7
  6
CONTINUOUS
 10
-10.8740736856
 20
-38.7009281023
 40
16.3003971232
100
AcDbArc
 50
153.8016338065
 51
153.9649905687
  0
ARC
  5
364
100
AcDbEntity
  8
0
100
AcDbCircle
 62
7
  6
CONTINUOUS
 10
-18.3674803525
 20
-46.1892589793
 40
16.2965948192
100
AcDbArc
 50
116.0350827721
 51
116.1984782953
  0
ARC
  5
365
100
AcDbEntity
  8
0
100
AcDbCircle
 62
7
  6
CONTINUOUS
 10
-12.5644287076
 20
-37.937361173
 40
14.5897650626
100
AcDbArc
 50
153.3130487244
 51
153.5527387092
  0
ARC
  5
366
100
AcDbEntity
  8
0
100
AcDbCircle
 62
7
  6
CONTINUOUS
 10
-12.6046963227
 20
-26.2163357166
 40
14.5447241028
100
AcDbArc
 50
206.4467334955
 51
206.6871679444
  0
ARC
  5
367
100
AcDbEntity
  8
RACCORDO
100
AcDbCircle
 62
7
  6
CONTINUOUS
 10
-19.25
 20
-21.31675829
 40
1.9
100
AcDbArc
 50
179.9980073749
 51
270.0022703962
  0
ARC
  5
368
100
AcDbEntity
  8
RACCORDO
100
AcDbCircle
 62
7
  6
CONTINUOUS
 10
-5.75
 20
-21.31675829
 40
1.9
100
AcDbArc
 50
269.9983204328
 51
0.0025678718
  0
ARC
  5
369
100
AcDbEntity
  8
0
100
AcDbCircle
 62
7
  6
CONTINUOUS
 10
-11.9901610462
 20
34.2730094694
 40
68.1675678912
100
AcDbArc
 50
257.5622417814
 51
257.9769603856
  0
ARC
  5
36A
100
AcDbEntity
  8
0
100
AcDbCircle
 62
7
  6
CONTINUOUS
 10
-36.4027652134
 20
27.0318380362
 40
60.7503985824
100
AcDbArc
 50
281.9634542226
 51
282.428488463
  0
ARC
  5
36B
100
AcDbEntity
  8
ASSI
100
AcDbCircle
 62
7
  6
CONTINUOUS
 10
-20.0
 20
-5.06675829
 40
4.0
100
AcDbArc
 50
270.0
 51
90.0
  0
ARC
  5
36C
100
AcDbEntity
  8
0
100
AcDbCircle
 62
7
  6
CONTINUOUS
 10
-20.0
 20
-5.06675829
 40
2.25
100
AcDbArc
 50
239.2588760787
 51
120.7411239213
  0
ARC
  5
36D
100
AcDbEntity
  8
RACCORDO
100
AcDbCircle
 62
7
  6
CONTINUOUS
 10
-19.25
 20
11.18324171
 40
1.9
100
AcDbArc
 50
89.9983204328
 51
180.0025678718
  0
ARC
  5
36E
100
AcDbEntity
  8
RACCORDO
100
AcDbCircle
 62
7
  6
CONTINUOUS
 10
-5.75
 20
11.18324171
 40
1.9
100
AcDbArc
 50
359.9980073749
 51
90.0022703962
  0
ARC
  5
36F
100
AcDbEntity
  8
RACCORDO
100
AcDbCircle
 62
253
  6
CONTINUOUS
 10
-32.4203670333
 20
34.8536087433
 40
1.5000802715
100
AcDbArc
 50
90.0052472736
 51
179.9947527264
  0
ARC
  5
370
100
AcDbEntity
  8
SMUSSO
100
AcDbCircle
 62
7
  6
CONTINUOUS
 10
-20.0
 20
-5.06675829
 40
1.4999997289
100
AcDbArc
 50
219.93683114
 51
140.0631688621
  0
ARC
  5
371
100
AcDbEntity
  8
SMUSSO
100
AcDbCircle
 62
7
  6
CONTINUOUS
 10
-20.0
 20
-5.06675829
 40
1.1999998741
100
AcDbArc
 50
196.5854894417
 51
163.4145187503
  0
ARC
  5
372
100
AcDbEntity
  8
RACCORDO
100
AcDbCircle
 62
7
  6
CONTINUOUS
 10
-13.0
 20
37.8598075291
 40
1.0
100
AcDbArc
 50
104.9999998343
 51
180.0
  0
ARC
  5
373
100
AcDbEntity
  8
RACCORDO
100
AcDbCircle
 62
7
  6
CONTINUOUS
 10
-3.8
 20
45.5763592841
 40
0.3
100
AcDbArc
 50
104.9999887049
 51
180.0
  0
ARC
  5
374
100
AcDbEntity
  8
RACCORDO
100
AcDbCircle
 62
7
  6
CONTINUOUS
 10
-8.05
 20
43.8773211785
 40
0.3
100
AcDbArc
 50
105.000000099
 51
180.0
  0
ARC
  5
375
100
AcDbEntity
  8
RACCORDO
100
AcDbCircle
 62
7
  6
CONTINUOUS
 10
-9.8
 20
42.1041160977
 40
0.3
100
AcDbArc
 50
105.000000465
 51
180.0
  0
ARC
  5
376
100
AcDbEntity
  8
RACCORDO
100
AcDbCircle
 62
7
  6
CONTINUOUS
 10
-11.55
 20
40.2639237188
 40
0.3
100
AcDbArc
 50
104.9999988982
 51
180.0
  0
ARC
  5
377
100
AcDbEntity
  8
0
100
AcDbCircle
 62
7
  6
CONTINUOUS
 10
11.922624911
 20
-44.7180967908
 40
68.4863730359
100
AcDbArc
 50
77.563207778
 51
77.9759958578
  0
ARC
  5
378
100
AcDbEntity
  8
0
100
AcDbCircle
 62
7
  6
CONTINUOUS
 10
36.4027655755
 20
-37.1653561326
 40
60.7504001416
100
AcDbArc
 50
101.9634542591
 51
102.4284884885
  0
ARC
  5
379
100
AcDbEntity
  8
RACCORDO
100
AcDbCircle
 62
7
  6
CONTINUOUS
 10
5.75
 20
-21.31675829
 40
1.9
100
AcDbArc
 50
179.9980073749
 51
270.0022703962
  0
ARC
  5
37A
100
AcDbEntity
  8
RACCORDO
100
AcDbCircle
 62
7
  6
CONTINUOUS
 10
19.25
 20
-21.31675829
 40
1.9
100
AcDbArc
 50
269.9983204328
 51
0.0025678718
  0
ARC
  5
37B
100
AcDbEntity
  8
RACCORDO
100
AcDbCircle
 62
253
  6
CONTINUOUS
 10
32.4203670333
 20
-44.9871253233
 40
1.5000802715
100
AcDbArc
 50
270.0052472738
 51
359.9947527262
  0
ARC
  5
37C
100
AcDbEntity
  8
ASSI
100
AcDbCircle
 62
7
  6
CONTINUOUS
 10
27.006618
 20
-37.62533729
 40
0.8587214994
100
AcDbArc
 50
292.8428415932
 51
90.0
  0
ARC
  5
37D
100
AcDbEntity
  8
ASSI
100
AcDbCircle
 62
7
  6
CONTINUOUS
 10
26.928888
 20
-37.62533729
 40
0.340698
100
AcDbArc
 50
270.0
 51
90.0
  0
ARC
  5
37E
100
AcDbEntity
  8
0
100
AcDbCircle
 62
7
  6
CONTINUOUS
 10
10.8395922686
 20
15.2822396337
 40
16.3387675952
100
AcDbArc
 50
26.0349730838
 51
26.1979446202
  0
ARC
  5
37F
100
AcDbEntity
  8
0
100
AcDbCircle
 62
7
  6
CONTINUOUS
 10
18.3493565216
 20
7.7735628873
 40
16.3379552559
100
AcDbArc
 50
63.8020552904
 51
63.9650349025
  0
ARC
  5
380
100
AcDbEntity
  8
0
100
AcDbCircle
 62
7
  6
CONTINUOUS
 10
10.8740736823
 20
28.5674115239
 40
16.3003971269
100
AcDbArc
 50
333.8016338066
 51
333.9649905686
  0
ARC
  5
381
100
AcDbEntity
  8
0
100
AcDbCircle
 62
7
  6
CONTINUOUS
 10
18.3674640508
 20
36.0557756506
 40
16.2966318515
100
AcDbArc
 50
296.0350829578
 51
296.1984781096
  0
ARC
  5
382
100
AcDbEntity
  8
0
100
AcDbCircle
 62
7
  6
CONTINUOUS
 10
12.5644287083
 20
27.8038445926
 40
14.5897650617
100
AcDbArc
 50
333.3130487244
 51
333.5527387092
  0
ARC
  5
383
100
AcDbEntity
  8
0
100
AcDbCircle
 62
7
  6
CONTINUOUS
 10
12.6046963219
 20
16.0828191362
 40
14.5447241037
100
AcDbArc
 50
26.4467334955
 51
26.6871679444
  0
ARC
  5
384
100
AcDbEntity
  8
ASSI
100
AcDbCircle
 62
7
  6
CONTINUOUS
 10
0.0
 20
-5.06675829
 40
12.5
100
AcDbArc
 50
107.9394998367
 51
252.0605001633
  0
ARC
  5
385
100
AcDbEntity
  8
ASSI
100
AcDbCircle
 62
7
  6
CONTINUOUS
 10
0.0
 20
-5.06675829
 40
12.5
100
AcDbArc
 50
287.9394998367
 51
72.0605001633
  0
ARC
  5
386
100
AcDbEntity
  8
0
100
AcDbCircle
 62
7
  6
CONTINUOUS
 10
0.0
 20
-5.06675829
 40
6.2449979984
100
AcDbArc
 50
308.0631417873
 51
51.9368582127
  0
ARC
  5
387
100
AcDbEntity
  8
0
100
AcDbCircle
 62
7
  6
CONTINUOUS
 10
0.0
 20
-5.06675829
 40
6.2449979984
100
AcDbArc
 50
128.0631417873
 51
231.9368582127
  0
ARC
  5
388
100
AcDbEntity
  8
RACCORDO
100
AcDbCircle
 62
7
  6
CONTINUOUS
 10
5.75
 20
11.18324171
 40
1.9
100
AcDbArc
 50
89.9983204328
 51
180.0025678718
  0
ARC
  5
389
100
AcDbEntity
  8
RACCORDO
100
AcDbCircle
 62
7
  6
CONTINUOUS
 10
19.25
 20
11.18324171
 40
1.9
100
AcDbArc
 50
359.9980073749
 51
90.0022703962
  0
ARC
  5
38A
100
AcDbEntity
  8
RACCORDO
100
AcDbCircle
 62
7
  6
CONTINUOUS
 10
13.0
 20
37.8598075291
 40
1.0
100
AcDbArc
 50
0.0
 51
75.0000001657
  0
ARC
  5
38B
100
AcDbEntity
  8
RACCORDO
100
AcDbCircle
 62
7
  6
CONTINUOUS
 10
11.55
 20
40.2639237188
 40
0.3
100
AcDbArc
 50
0.0
 51
75.0000011018
  0
ARC
  5
38C
100
AcDbEntity
  8
0
100
AcDbCircle
 62
7
  6
CONTINUOUS
 10
13.5972347867
 20
81.0318380356
 40
60.7503985818
100
AcDbArc
 50
281.9634542226
 51
282.428488463
  0
ARC
  5
38D
100
AcDbEntity
  8
RACCORDO
100
AcDbCircle
 62
7
  6
CONTINUOUS
 10
3.8
 20
45.5763592841
 40
0.3
100
AcDbArc
 50
0.0
 51
75.0000112951
  0
ARC
  5
38E
100
AcDbEntity
  8
RACCORDO
100
AcDbCircle
 62
7
  6
CONTINUOUS
 10
8.05
 20
43.8773211785
 40
0.3
100
AcDbArc
 50
0.0
 51
74.999999901
  0
ARC
  5
38F
100
AcDbEntity
  8
RACCORDO
100
AcDbCircle
 62
7
  6
CONTINUOUS
 10
9.8
 20
42.1041160977
 40
0.3
100
AcDbArc
 50
0.0
 51
74.999999535
  0
ARC
  5
390
100
AcDbEntity
  8
ASSI
100
AcDbCircle
 62
7
  6
CONTINUOUS
 10
20.0
 20
-5.06675829
 40
4.0
100
AcDbArc
 50
90.0
 51
270.0
  0
ARC
  5
391
100
AcDbEntity
  8
0
100
AcDbCircle
 62
7
  6
CONTINUOUS
 10
20.0
 20
-5.06675829
 40
2.25
100
AcDbArc
 50
59.2588760787
 51
300.7411239213
  0
ARC
  5
392
100
AcDbEntity
  8
SMUSSO
100
AcDbCircle
 62
7
  6
CONTINUOUS
 10
20.0
 20
-5.06675829
 40
1.4999997289
100
AcDbArc
 50
39.93683114
 51
320.0631688621
  0
ARC
  5
393
100
AcDbEntity
  8
SMUSSO
100
AcDbCircle
 62
7
  6
CONTINUOUS
 10
20.0
 20
-5.06675829
 40
1.1999998741
100
AcDbArc
 50
16.5854894417
 51
343.4145187503
  0
ARC
  5
394
100
AcDbEntity
  8
RACCORDO
100
AcDbCircle
 62
253
  6
CONTINUOUS
 10
25.0003234652
 20
21.9284485061
 40
3.2969539213
100
AcDbArc
 50
269.9943787781
 51
90.005621222
  0
ARC
  5
395
100
AcDbEntity
  8
RACCORDO
100
AcDbCircle
 62
253
  6
CONTINUOUS
 10
24.9996765321
 20
21.9284484802
 40
3.2969539164
100
AcDbArc
 50
89.994378732
 51
270.005621268
  0
CIRCLE
  5
396
100
AcDbEntity
  8
DRAFT
100
AcDbCircle
 62
7
  6
CONTINUOUS
 10
25.0
 20
21.93324171
 40
3.25
  0
CIRCLE
  5
397
100
AcDbEntity
  8
0
100
AcDbCircle
 62
7
  6
CONTINUOUS
 10
25.0
 20
21.93324171
 40
3.0
  0
ARC
  5
398
100
AcDbEntity
  8
0
100
AcDbCircle
 62
7
  6
CONTINUOUS
 10
25.0
 20
21.93324171
 40
2.8950136038
100
AcDbArc
 50
78.0385857315
 51
101.9614142685
  0
ARC
  5
399
100
AcDbEntity
  8
0
100
AcDbCircle
 62
7
  6
CONTINUOUS
 10
25.0
 20
21.93324171
 40
2.8950136038
100
AcDbArc
 50
258.0385857315
 51
281.9614142685
  0
ARC
  5
39A
100
AcDbEntity
  8
0
100
AcDbCircle
 62
7
  6
CONTINUOUS
 10
25.0
 20
21.93324171
 40
2.8155023425
100
AcDbArc
 50
282.3044249574
 51
77.6955750426
  0
ARC
  5
39B
100
AcDbEntity
  8
0
100
AcDbCircle
 62
7
  6
CONTINUOUS
 10
25.0
 20
21.93324171
 40
2.8155023425
100
AcDbArc
 50
102.3044249574
 51
257.6955750426
  0
ARC
  5
39C
100
AcDbEntity
  8
0
100
AcDbCircle
 62
7
  6
CONTINUOUS
 10
25.0
 20
21.93324171
 40
1.6874840352
100
AcDbArc
 50
352.230101045
 51
7.7632444202
  0
ARC
  5
39D
100
AcDbEntity
  8
0
100
AcDbCircle
 62
7
  6
CONTINUOUS
 10
25.0
 20
21.93324171
 40
1.6874840352
100
AcDbArc
 50
172.2301010241
 51
187.7632444202
  0
ARC
  5
39E
100
AcDbEntity
  8
TRASH
100
AcDbCircle
 62
7
  6
CONTINUOUS
 10
25.0
 20
21.93324171
 40
1.1472328625
100
AcDbArc
 50
167.9845776281
 51
192.0153200785
  0
ARC
  5
39F
100
AcDbEntity
  8
TRASH
100
AcDbCircle
 62
7
  6
CONTINUOUS
 10
25.0
 20
21.93324171
 40
1.1472328625
100
AcDbArc
 50
347.9845776281
 51
12.0153200785
  0
ARC
  5
3A0
100
AcDbEntity
  8
0
100
AcDbCircle
 62
7
  6
CONTINUOUS
 10
25.0
 20
21.93324171
 40
0.7522905861
100
AcDbArc
 50
318.3509867785
 51
322.8981211086
  0
ARC
  5
3A1
100
AcDbEntity
  8
0
100
AcDbCircle
 62
7
  6
CONTINUOUS
 10
25.0
 20
21.93324171
 40
0.7522905861
100
AcDbArc
 50
228.3509342563
 51
311.6490283615
  0
ARC
  5
3A2
100
AcDbEntity
  8
0
100
AcDbCircle
 62
7
  6
CONTINUOUS
 10
25.0
 20
21.93324171
 40
0.7522905861
100
AcDbArc
 50
217.1018788914
 51
221.6490663885
  0
ARC
  5
3A3
100
AcDbEntity
  8
0
100
AcDbCircle
 62
7
  6
CONTINUOUS
 10
25.0
 20
21.93324171
 40
0.7522905861
100
AcDbArc
 50
138.3509867785
 51
142.8981211086
  0
ARC
  5
3A4
100
AcDbEntity
  8
0
100
AcDbCircle
 62
7
  6
CONTINUOUS
 10
25.0
 20
21.93324171
 40
0.7522905861
100
AcDbArc
 50
48.3509342563
 51
131.6490283615
  0
ARC
  5
3A5
100
AcDbEntity
  8
0
100
AcDbCircle
 62
7
  6
CONTINUOUS
 10
25.0
 20
21.93324171
 40
0.7522905861
100
AcDbArc
 50
37.1018788914
 51
41.6490663885
  0
ARC
  5
3A6
100
AcDbEntity
  8
0
100
AcDbCircle
 62
7
  6
CONTINUOUS
 10
39.1259263144
 20
15.2990718977
 40
16.3003971232
100
AcDbArc
 50
153.8016338065
 51
153.9649905686
  0
ARC
  5
3A7
100
AcDbEntity
  8
0
100
AcDbCircle
 62
7
  6
CONTINUOUS
 10
31.6325196491
 20
7.8107410174
 40
16.2965948229
100
AcDbArc
 50
116.0350827721
 51
116.1984782953
  0
ARC
  5
3A8
100
AcDbEntity
  8
0
100
AcDbCircle
 62
7
  6
CONTINUOUS
 10
31.6512172133
 20
36.0940908204
 40
16.3392586138
100
AcDbArc
 50
243.8020617908
 51
243.9650284022
  0
ARC
  5
3A9
100
AcDbEntity
  8
0
100
AcDbCircle
 62
7
  6
CONTINUOUS
 10
39.1604077314
 20
28.5842437863
 40
16.3387675952
100
AcDbArc
 50
206.0349730838
 51
206.1979446202
  0
ARC
  5
3AA
100
AcDbEntity
  8
0
100
AcDbCircle
 62
7
  6
CONTINUOUS
 10
37.4355712932
 20
16.0626388266
 40
14.5897650634
100
AcDbArc
 50
153.3130487244
 51
153.5527387092
  0
ARC
  5
3AB
100
AcDbEntity
  8
0
100
AcDbCircle
 62
7
  6
CONTINUOUS
 10
37.3953036773
 20
27.7836642834
 40
14.5447241028
100
AcDbArc
 50
206.4467334955
 51
206.6871679444
  0
ARC
  5
3AC
100
AcDbEntity
  8
RACCORDO
100
AcDbCircle
 62
253
  6
CONTINUOUS
 10
32.4203670335
 20
34.8536087435
 40
1.5000802714
100
AcDbArc
 50
0.0052472679
 51
89.9947527321
  0
ARC
  5
3AD
100
AcDbEntity
  8
0
100
AcDbCircle
 62
7
  6
CONTINUOUS
 10
38.0098389539
 20
88.2730094696
 40
68.1675678913
100
AcDbArc
 50
257.5622417814
 51
257.9769603856
  0
ARC
  5
3AE
100
AcDbEntity
  8
RACCORDO
100
AcDbCircle
 62
7
  6
CONTINUOUS
 10
-98.953337096
 20
-41.4873959733
 40
5.0
100
AcDbArc
 50
186.0585734986
 51
269.5012875131
  0
ARC
  5
3AF
100
AcDbEntity
  8
RACCORDO
100
AcDbCircle
 62
253
  6
CONTINUOUS
 10
-98.9664268955
 20
-41.4873959691
 40
3.5000000042
100
AcDbArc
 50
186.0598386792
 51
269.4999999388
  0
ARC
  5
3B0
100
AcDbEntity
  8
RACCORDO
100
AcDbCircle
 62
7
  6
CONTINUOUS
 10
-50.8811331057
 20
-45.2263723678
 40
1.0
100
AcDbArc
 50
270.5
 51
360.0
  0
ARC
  5
3B1
100
AcDbEntity
  8
RACCORDO
100
AcDbCircle
 62
7
  6
CONTINUOUS
 10
-98.953337096
 20
31.3538793933
 40
5.0
100
AcDbArc
 50
90.4987603704
 51
173.9414752159
  0
ARC
  5
3B2
100
AcDbEntity
  8
RACCORDO
100
AcDbCircle
 62
253
  6
CONTINUOUS
 10
-98.9664268955
 20
31.3538793891
 40
3.5000000042
100
AcDbArc
 50
90.5000000609
 51
173.9401613211
  0
ARC
  5
3B3
100
AcDbEntity
  8
RACCORDO
100
AcDbCircle
 62
7
  6
CONTINUOUS
 10
-52.8811331057
 20
37.8598075291
 40
1.0
100
AcDbArc
 50
0.0
 51
74.9999995076
  0
ARC
  5
3B4
100
AcDbEntity
  8
RACCORDO
100
AcDbCircle
 62
7
  6
CONTINUOUS
 10
-78.8811331057
 20
37.8598075291
 40
1.0
100
AcDbArc
 50
105.0000004924
 51
180.0
  0
ARC
  5
3B5
100
AcDbEntity
  8
RACCORDO
100
AcDbCircle
 62
7
  6
CONTINUOUS
 10
-50.8811331057
 20
35.0928557455
 40
1.0
100
AcDbArc
 50
0.0000024223
 51
89.5000000211
  0
ARC
  5
3B6
100
AcDbEntity
  8
RACCORDO
100
AcDbCircle
 62
7
  6
CONTINUOUS
 10
-57.8311331057
 20
43.8773211785
 40
0.3
100
AcDbArc
 50
0.0
 51
74.9999994195
  0
ARC
  5
3B7
100
AcDbEntity
  8
RACCORDO
100
AcDbCircle
 62
7
  6
CONTINUOUS
 10
-73.9311331057
 20
43.8773211785
 40
0.3
100
AcDbArc
 50
105.0000005805
 51
180.0
  0
ARC
  5
3B8
100
AcDbEntity
  8
RACCORDO
100
AcDbCircle
 62
7
  6
CONTINUOUS
 10
-56.0811331057
 20
42.1041160977
 40
0.3
100
AcDbArc
 50
0.0
 51
74.9999995912
  0
ARC
  5
3B9
100
AcDbEntity
  8
RACCORDO
100
AcDbCircle
 62
7
  6
CONTINUOUS
 10
-75.6811331057
 20
42.1041160977
 40
0.3
100
AcDbArc
 50
105.0000004088
 51
180.0
  0
ARC
  5
3BA
100
AcDbEntity
  8
RACCORDO
100
AcDbCircle
 62
7
  6
CONTINUOUS
 10
-54.3311331057
 20
40.2639237188
 40
0.3
100
AcDbArc
 50
0.0
 51
74.999999405
  0
ARC
  5
3BB
100
AcDbEntity
  8
RACCORDO
100
AcDbCircle
 62
7
  6
CONTINUOUS
 10
-77.4311331057
 20
40.2639237188
 40
0.3
100
AcDbArc
 50
105.000000595
 51
180.0
  0
ARC
  5
3BC
100
AcDbEntity
  8
RACCORDO
100
AcDbCircle
 62
7
  6
CONTINUOUS
 10
-62.0811350937
 20
45.5763592841
 40
0.3
100
AcDbArc
 50
0.0
 51
75.0000075013
  0
ARC
  5
3BD
100
AcDbEntity
  8
RACCORDO
100
AcDbCircle
 62
7
  6
CONTINUOUS
 10
-69.6811311177
 20
45.5763592841
 40
0.3
100
AcDbArc
 50
104.9999924987
 51
180.0
  0
ARC
  5
3BE
100
AcDbEntity
  8
ASSI
100
AcDbCircle
 62
7
  6
CONTINUOUS
 10
244.1188668943
 20
-5.06675829
 40
350.15
100
AcDbArc
 50
185.194226157
 51
185.6544782134
  0
ARC
  5
3BF
100
AcDbEntity
  8
RACCORDO
100
AcDbCircle
 62
7
  6
CONTINUOUS
 10
244.1188668943
 20
-5.06675829
 40
350.0
100
AcDbArc
 50
173.9401801511
 51
186.0598205449
  0
ARC
  5
3C0
100
AcDbEntity
  8
RACCORDO
100
AcDbCircle
 62
253
  6
CONTINUOUS
 10
244.1057769935
 20
-5.06675829
 40
348.499999903
100
AcDbArc
 50
173.9401613803
 51
186.0598386197
  0
LINE
  5
3C1
100
AcDbEntity
  8
0
100
AcDbLine
 62
7
  6
CONTINUOUS
 10
24.4
 20
22.5332415682
 11
24.3727025934
 21
22.5605389441
  0
LINE
  5
3C2
100
AcDbEntity
  8
0
100
AcDbLine
 62
7
  6
CONTINUOUS
 10
24.4802765158
 20
22.4529651942
 11
24.4795953518
 21
22.4536463581
  0
LINE
  5
3C3
100
AcDbEntity
  8
0
100
AcDbLine
 62
7
  6
CONTINUOUS
 10
25.6272975093
 20
22.5605392263
 11
25.6
 21
22.5332417164
  0
LINE
  5
3C4
100
AcDbEntity
  8
0
100
AcDbLine
 62
7
  6
CONTINUOUS
 10
25.5204046482
 20
22.4536463582
 11
25.5197234842
 21
22.4529651942
  0
LINE
  5
3C5
100
AcDbEntity
  8
0
100
AcDbLine
 62
7
  6
CONTINUOUS
 10
25.519717435
 20
21.4135149278
 11
25.4999466442
 21
21.3711078478
  0
SPLINE
  5
3C6
100
AcDbEntity
  8
0
100
AcDbSpline
 62
7
  6
CONTINUOUS
 70
0
 71
3
 72
9
 73
5
 74
3
 42
0.0000001
 43
0.0000001
 44
0.0000000001
 12
-0.0452995647
 22
-0.1041126532
 32
0.0
 13
-0.0452995647
 23
-0.1041126532
 33
0.0
 40
0.0
 40
0.0
 40
0.0
 40
0.0
 40
0.4996939835
 40
1.0
 40
1.0
 40
1.0
 40
1.0
 10
26.1898066956
 20
22.2657131229
 30
0.0
 10
26.182261389
 20
22.2483716341
 30
0.0
 10
26.1669167609
 20
22.2137725534
 30
0.0
 10
26.1525518251
 20
22.178752667
 30
0.0
 10
26.1449972769
 20
22.1613899381
 30
0.0
 11
26.1898066956
 21
22.2657131229
 31
0.0
 11
26.1671707757
 21
22.2136886565
 31
0.0
 11
26.1449972769
 21
22.1613899381
 31
0.0
  0
SPLINE
  5
3C7
100
AcDbEntity
  8
0
100
AcDbSpline
 62
7
  6
CONTINUOUS
 70
0
 71
3
 72
9
 73
5
 74
3
 42
0.0000001
 43
0.0000001
 44
0.0000000001
 12
0.5269772644
 22
-0.0010793166
 32
0.0
 13
0.5269783692
 23
0.0000227564
 33
0.0
 40
0.0
 40
0.0
 40
0.0
 40
0.0
 40
0.4866884719
 40
1.0
 40
1.0
 40
1.0
 40
1.0
 10
26.1450395831
 20
22.1615949811
 30
0.0
 10
26.2305308363
 20
22.1614198841
 30
0.0
 10
26.406190262
 20
22.1612357904
 30
0.0
 10
26.5818497119
 20
22.1611831159
 30
0.0
 10
26.6720177359
 20
22.1611870096
 30
0.0
 11
26.1450395831
 21
22.1615949811
 31
0.0
 11
26.401513677
 21
22.1612718202
 31
0.0
 11
26.6720177359
 21
22.1611870096
 31
0.0
  0
LINE
  5
3C8
100
AcDbEntity
  8
TRASH
100
AcDbLine
 62
7
  6
CONTINUOUS
 10
26.1221062937
 20
22.1720640925
 11
26.1449972769
 21
22.1613899381
  0
LINE
  5
3C9
100
AcDbEntity
  8
TRASH
100
AcDbLine
 62
7
  6
CONTINUOUS
 10
26.1449972701
 20
21.7050934919
 11
26.122106287
 21
21.6944193374
  0
LINE
  5
3CA
100
AcDbEntity
  8
0
100
AcDbLine
 62
7
  6
CONTINUOUS
 10
24.4378660057
 20
22.4331882056
 11
24.4802732178
 21
22.452959145
  0
LINE
  5
3CB
100
AcDbEntity
  8
0
100
AcDbLine
 62
7
  6
CONTINUOUS
 10
26.6719912503
 20
21.7051022179
 11
26.1450079232
 21
21.70504897
  0
LINE
  5
3CC
100
AcDbEntity
  8
0
100
AcDbLine
 62
7
  6
CONTINUOUS
 10
26.1449972701
 20
21.7050934919
 11
26.1900477491
 21
21.6009372519
  0
LINE
  5
3CD
100
AcDbEntity
  8
0
100
AcDbLine
 62
7
  6
CONTINUOUS
 10
23.8778971865
 20
22.1720677278
 11
24.4
 21
22.415530997
  0
LINE
  5
3CE
100
AcDbEntity
  8
0
100
AcDbLine
 62
7
  6
CONTINUOUS
 10
25.6
 20
21.3332418518
 11
25.6272974066
 21
21.3059444759
  0
LINE
  5
3CF
100
AcDbEntity
  8
0
100
AcDbLine
 62
7
  6
CONTINUOUS
 10
24.4
 20
21.4509519029
 11
23.8778933466
 21
21.694416969
  0
LINE
  5
3D0
100
AcDbEntity
  8
0
100
AcDbLine
 62
7
  6
CONTINUOUS
 10
24.4802765161
 20
21.4135182261
 11
24.4378664697
 21
21.4332946928
  0
LINE
  5
3D1
100
AcDbEntity
  8
0
100
AcDbLine
 62
7
  6
CONTINUOUS
 10
26.1898066956
 20
22.2657131229
 11
26.171604981
 21
22.2783143347
  0
SPLINE
  5
3D2
100
AcDbEntity
  8
0
100
AcDbSpline
 62
7
  6
CONTINUOUS
 70
0
 71
3
 72
14
 73
10
 74
8
 42
0.0000001
 43
0.0000001
 44
0.0000000001
 12
0.5489866675
 22
-0.2730585867
 32
0.0
 13
0.540741044
 23
-0.289044073
 33
0.0
 40
0.0
 40
0.0
 40
0.0
 40
0.0
 40
0.1676248277
 40
0.3171576827
 40
0.4562893429
 40
0.5918233207
 40
0.7276155638
 40
0.864047256
 40
1.0
 40
1.0
 40
1.0
 40
1.0
 10
25.6272975093
 20
22.5605392263
 30
0.0
 10
25.6579721078
 20
22.5452820935
 30
0.0
 10
25.7159046577
 20
22.5162012106
 30
0.0
 10
25.7989942188
 20
22.4738560627
 30
0.0
 10
25.8760507922
 20
22.4341199889
 30
0.0
 10
25.9504559263
 20
22.3953712899
 30
0.0
 10
26.0242360761
 20
22.3566183798
 30
0.0
 10
26.0979697374
 20
22.3175938643
 30
0.0
 10
26.1470999047
 20
22.291413113
 30
0.0
 10
26.171604981
 20
22.2783143347
 30
0.0
 11
25.6272975093
 21
22.5605392263
 31
0.0
 11
25.7191594664
 21
22.5144438828
 31
0.0
 11
25.8008536937
 21
22.4728234054
 31
0.0
 11
25.8766776316
 21
22.4337315134
 31
0.0
 11
25.9503866032
 21
22.3953526515
 31
0.0
 11
26.0241000844
 21
22.3566406843
 31
0.0
 11
26.0980377467
 21
22.3175132228
 31
0.0
 11
26.171604981
 21
22.2783143347
 31
0.0
  0
LINE
  5
3D3
100
AcDbEntity
  8
0
100
AcDbLine
 62
7
  6
CONTINUOUS
 10
25.5197234842
 20
21.4135182258
 11
25.5204046482
 21
21.4128370619
  0
SPLINE
  5
3D4
100
AcDbEntity
  8
0
100
AcDbSpline
 62
7
  6
CONTINUOUS
 70
0
 71
3
 72
14
 73
10
 74
8
 42
0.0000001
 43
0.0000001
 44
0.0000000001
 12
-0.5407409237
 22
-0.2890440051
 32
0.0
 13
-0.5489846067
 23
-0.2730624198
 33
0.0
 40
0.0
 40
0.0
 40
0.0
 40
0.0
 40
0.1360891828
 40
0.2724205737
 40
0.4077679873
 40
0.5429185838
 40
0.6821509024
 40
0.8319710672
 40
1.0
 40
1.0
 40
1.0
 40
1.0
 10
26.1716048889
 20
21.5881690361
 30
0.0
 10
26.1470752255
 20
21.5750571153
 30
0.0
 10
26.0979384405
 20
21.548873104
 30
0.0
 10
26.0242786827
 20
21.5098875575
 30
0.0
 10
25.9506666198
 20
21.4712227809
 30
0.0
 10
25.8763940757
 20
21.4325414555
 30
0.0
 10
25.7993373918
 20
21.392803599
 30
0.0
 10
25.7161051984
 20
21.3503818348
 30
0.0
 10
25.6580458391
 20
21.3212386049
 30
0.0
 10
25.6272974066
 20
21.3059444759
 30
0.0
 11
26.1716048889
 21
21.5881690361
 31
0.0
 11
26.0979637521
 21
21.5489309847
 31
0.0
 11
26.0240804449
 21
21.509832333
 31
0.0
 11
25.9506085972
 21
21.4712469101
 31
0.0
 11
25.8771087678
 21
21.4329754138
 31
0.0
 11
25.8012308721
 21
21.393853538
 31
0.0
 11
25.7193807836
 21
21.3521509695
 31
0.0
 11
25.6272974066
 21
21.3059444759
 31
0.0
  0
LINE
  5
3D5
100
AcDbEntity
  8
0
100
AcDbLine
 62
7
  6
CONTINUOUS
 10
26.1900477491
 20
21.6009372519
 11
26.1716048889
 21
21.5881690361
  0
SPLINE
  5
3D6
100
AcDbEntity
  8
0
100
AcDbSpline
 62
7
  6
CONTINUOUS
 70
0
 71
3
 72
14
 73
10
 74
8
 42
0.0000001
 43
0.0000001
 44
0.0000000001
 12
0.5407409237
 22
0.2890440051
 32
0.0
 13
0.5489846067
 23
0.2730624198
 33
0.0
 40
0.0
 40
0.0
 40
0.0
 40
0.0
 40
0.1360891828
 40
0.2724205737
 40
0.4077679873
 40
0.5429185838
 40
0.6821509024
 40
0.8319710672
 40
1.0
 40
1.0
 40
1.0
 40
1.0
 10
23.8283951111
 20
22.2783143839
 30
0.0
 10
23.8529247745
 20
22.2914263047
 30
0.0
 10
23.9020615595
 20
22.317610316
 30
0.0
 10
23.9757213173
 20
22.3565958625
 30
0.0
 10
24.0493333802
 20
22.3952606391
 30
0.0
 10
24.1236059243
 20
22.4339419645
 30
0.0
 10
24.2006626082
 20
22.473679821
 30
0.0
 10
24.2838948016
 20
22.5161015852
 30
0.0
 10
24.3419541609
 20
22.5452448151
 30
0.0
 10
24.3727025934
 20
22.5605389441
 30
0.0
 11
23.8283951111
 21
22.2783143839
 31
0.0
 11
23.9020362479
 21
22.3175524353
 31
0.0
 11
23.9759195551
 21
22.356651087
 31
0.0
 11
24.0493914028
 21
22.3952365098
 31
0.0
 11
24.1228912322
 21
22.4335080062
 31
0.0
 11
24.1987691279
 21
22.472629882
 31
0.0
 11
24.2806192164
 21
22.5143324505
 31
0.0
 11
24.3727025934
 21
22.5605389441
 31
0.0
  0
LINE
  5
3D7
100
AcDbEntity
  8
0
100
AcDbLine
 62
7
  6
CONTINUOUS
 10
23.8283951111
 20
22.2783143839
 11
23.809952252
 21
22.2655461689
  0
LINE
  5
3D8
100
AcDbEntity
  8
0
100
AcDbLine
 62
7
  6
CONTINUOUS
 10
23.828395019
 20
21.5881690853
 11
23.8101933044
 21
21.6007702971
  0
SPLINE
  5
3D9
100
AcDbEntity
  8
0
100
AcDbSpline
 62
7
  6
CONTINUOUS
 70
0
 71
3
 72
14
 73
10
 74
8
 42
0.0000001
 43
0.0000001
 44
0.0000000001
 12
-0.5489866675
 22
0.2730585867
 32
0.0
 13
-0.540741044
 23
0.289044073
 33
0.0
 40
0.0
 40
0.0
 40
0.0
 40
0.0
 40
0.1676248277
 40
0.3171576827
 40
0.4562893429
 40
0.5918233207
 40
0.7276155638
 40
0.864047256
 40
1.0
 40
1.0
 40
1.0
 40
1.0
 10
24.3727024907
 20
21.3059441937
 30
0.0
 10
24.3420278922
 20
21.3212013265
 30
0.0
 10
24.2840953423
 20
21.3502822094
 30
0.0
 10
24.2010057812
 20
21.3926273573
 30
0.0
 10
24.1239492078
 20
21.4323634311
 30
0.0
 10
24.0495440737
 20
21.4711121301
 30
0.0
 10
23.9757639239
 20
21.5098650402
 30
0.0
 10
23.9020302626
 20
21.5488895557
 30
0.0
 10
23.8529000953
 20
21.575070307
 30
0.0
 10
23.828395019
 20
21.5881690853
 30
0.0
 11
24.3727024907
 21
21.3059441937
 31
0.0
 11
24.2808405336
 21
21.3520395372
 31
0.0
 11
24.1991463063
 21
21.3936600146
 31
0.0
 11
24.1233223684
 21
21.4327519066
 31
0.0
 11
24.0496133968
 21
21.4711307685
 31
0.0
 11
23.9758999156
 21
21.5098427357
 31
0.0
 11
23.9019622533
 21
21.5489701972
 31
0.0
 11
23.828395019
 21
21.5881690853
 31
0.0
  0
LINE
  5
3DA
100
AcDbEntity
  8
0
100
AcDbLine
 62
7
  6
CONTINUOUS
 10
25.4999470109
 20
22.495375246
 11
25.5197234839
 21
22.4529651939
  0
LINE
  5
3DB
100
AcDbEntity
  8
0
100
AcDbLine
 62
7
  6
CONTINUOUS
 10
25.5197234839
 20
22.4529651939
 11
25.5621335303
 21
22.4331887272
  0
LINE
  5
3DC
100
AcDbEntity
  8
0
100
AcDbLine
 62
7
  6
CONTINUOUS
 10
25.6
 20
22.4155315171
 11
26.1221066534
 21
22.172066451
  0
LINE
  5
3DD
100
AcDbEntity
  8
0
100
AcDbLine
 62
7
  6
CONTINUOUS
 10
26.1221028135
 20
21.6944156922
 11
25.6
 21
21.450952423
  0
LINE
  5
3DE
100
AcDbEntity
  8
0
100
AcDbLine
 62
7
  6
CONTINUOUS
 10
25.5621339943
 20
21.4332952144
 11
25.5197267822
 21
21.413524275
  0
LINE
  5
3DF
100
AcDbEntity
  8
0
100
AcDbLine
 62
7
  6
CONTINUOUS
 10
24.480282565
 20
22.4529684922
 11
24.5000533558
 21
22.4953755722
  0
LINE
  5
3E0
100
AcDbEntity
  8
0
100
AcDbLine
 62
7
  6
CONTINUOUS
 10
24.5000529891
 20
21.371108174
 11
24.4802765161
 21
21.4135182261
  0
LINE
  5
3E1
100
AcDbEntity
  8
0
100
AcDbLine
 62
7
  6
CONTINUOUS
 10
24.4
 20
21.3332417036
 11
24.3727024907
 21
21.3059441937
  0
LINE
  5
3E2
100
AcDbEntity
  8
0
100
AcDbLine
 62
7
  6
CONTINUOUS
 10
24.4802765158
 20
21.4135182258
 11
24.4795953518
 21
21.4128370618
  0
SPLINE
  5
3E3
100
AcDbEntity
  8
0
100
AcDbSpline
 62
7
  6
CONTINUOUS
 70
0
 71
3
 72
9
 73
5
 74
3
 42
0.0000001
 43
0.0000001
 44
0.0000000001
 12
0.0452995647
 22
0.1041126532
 32
0.0
 13
0.0452995647
 23
0.1041126532
 33
0.0
 40
0.0
 40
0.0
 40
0.0
 40
0.0
 40
0.4996939835
 40
1.0
 40
1.0
 40
1.0
 40
1.0
 10
23.8101933044
 20
21.6007702971
 30
0.0
 10
23.817738611
 20
21.6181117859
 30
0.0
 10
23.8330832391
 20
21.6527108666
 30
0.0
 10
23.8474481749
 20
21.687730753
 30
0.0
 10
23.8550027231
 20
21.7050934819
 30
0.0
 11
23.8101933044
 21
21.6007702971
 31
0.0
 11
23.8328292243
 21
21.6527947635
 31
0.0
 11
23.8550027231
 21
21.7050934819
 31
0.0
  0
SPLINE
  5
3E4
100
AcDbEntity
  8
0
100
AcDbSpline
 62
7
  6
CONTINUOUS
 70
0
 71
3
 72
9
 73
5
 74
3
 42
0.0000001
 43
0.0000001
 44
0.0000000001
 12
-0.5269772644
 22
0.0010793166
 32
0.0
 13
-0.5269783692
 23
-0.0000227564
 33
0.0
 40
0.0
 40
0.0
 40
0.0
 40
0.0
 40
0.4866884719
 40
1.0
 40
1.0
 40
1.0
 40
1.0
 10
23.8549604169
 20
21.7048884389
 30
0.0
 10
23.7694691637
 20
21.7050635359
 30
0.0
 10
23.593809738
 20
21.7052476296
 30
0.0
 10
23.4181502881
 20
21.7053003041
 30
0.0
 10
23.3279822641
 20
21.7052964104
 30
0.0
 11
23.8549604169
 21
21.7048884389
 31
0.0
 11
23.598486323
 21
21.7052115998
 31
0.0
 11
23.3279822641
 21
21.7052964104
 31
0.0
  0
LINE
  5
3E5
100
AcDbEntity
  8
TRASH
100
AcDbLine
 62
7
  6
CONTINUOUS
 10
23.8778937063
 20
21.6944193275
 11
23.8550027231
 21
21.7050934819
  0
LINE
  5
3E6
100
AcDbEntity
  8
0
100
AcDbLine
 62
7
  6
CONTINUOUS
 10
23.8549920759
 20
22.1614344549
 11
23.3280087498
 21
22.1613812027
  0
LINE
  5
3E7
100
AcDbEntity
  8
0
100
AcDbLine
 62
7
  6
CONTINUOUS
 10
23.8550027299
 20
22.1613899281
 11
23.809952252
 21
22.2655461689
  0
LINE
  5
3E8
100
AcDbEntity
  8
TRASH
100
AcDbLine
 62
7
  6
CONTINUOUS
 10
23.877893713
 20
22.1720640826
 11
23.8550027299
 21
22.1613899281
  0
LINE
  5
3E9
100
AcDbEntity
  8
0
100
AcDbLine
 62
7
  6
CONTINUOUS
 10
-25.6
 20
-31.4667584318
 11
-25.6272974066
 21
-31.4394610559
  0
LINE
  5
3EA
100
AcDbEntity
  8
0
100
AcDbLine
 62
7
  6
CONTINUOUS
 10
-25.5197234842
 20
-31.5470348058
 11
-25.5204046482
 21
-31.5463536419
  0
LINE
  5
3EB
100
AcDbEntity
  8
0
100
AcDbLine
 62
7
  6
CONTINUOUS
 10
-24.3727024907
 20
-31.4394607737
 11
-24.4
 21
-31.4667582836
  0
LINE
  5
3EC
100
AcDbEntity
  8
0
100
AcDbLine
 62
7
  6
CONTINUOUS
 10
-24.4795953518
 20
-31.5463536418
 11
-24.4802765158
 21
-31.5470348058
  0
LINE
  5
3ED
100
AcDbEntity
  8
0
100
AcDbLine
 62
7
  6
CONTINUOUS
 10
-24.480282565
 20
-32.5864850722
 11
-24.5000533558
 21
-32.6288921522
  0
SPLINE
  5
3EE
100
AcDbEntity
  8
0
100
AcDbSpline
 62
7
  6
CONTINUOUS
 70
0
 71
3
 72
9
 73
5
 74
3
 42
0.0000001
 43
0.0000001
 44
0.0000000001
 12
-0.0452995647
 22
-0.1041126532
 32
0.0
 13
-0.0452995647
 23
-0.1041126532
 33
0.0
 40
0.0
 40
0.0
 40
0.0
 40
0.0
 40
0.4996939835
 40
1.0
 40
1.0
 40
1.0
 40
1.0
 10
-23.8101933044
 20
-31.7342868771
 30
0.0
 10
-23.817738611
 20
-31.7516283659
 30
0.0
 10
-23.8330832391
 20
-31.7862274466
 30
0.0
 10
-23.8474481749
 20
-31.821247333
 30
0.0
 10
-23.8550027231
 20
-31.8386100619
 30
0.0
 11
-23.8101933044
 21
-31.7342868771
 31
0.0
 11
-23.8328292243
 21
-31.7863113435
 31
0.0
 11
-23.8550027231
 21
-31.8386100619
 31
0.0
  0
SPLINE
  5
3EF
100
AcDbEntity
  8
0
100
AcDbSpline
 62
7
  6
CONTINUOUS
 70
0
 71
3
 72
9
 73
5
 74
3
 42
0.0000001
 43
0.0000001
 44
0.0000000001
 12
0.5269772644
 22
-0.0010793166
 32
0.0
 13
0.5269783692
 23
0.0000227564
 33
0.0
 40
0.0
 40
0.0
 40
0.0
 40
0.0
 40
0.4866884719
 40
1.0
 40
1.0
 40
1.0
 40
1.0
 10
-23.8549604169
 20
-31.8384050189
 30
0.0
 10
-23.7694691637
 20
-31.8385801159
 30
0.0
 10
-23.593809738
 20
-31.8387642096
 30
0.0
 10
-23.4181502881
 20
-31.8388168841
 30
0.0
 10
-23.3279822641
 20
-31.8388129904
 30
0.0
 11
-23.8549604169
 21
-31.8384050189
 31
0.0
 11
-23.598486323
 21
-31.8387281798
 31
0.0
 11
-23.3279822641
 21
-31.8388129904
 31
0.0
  0
LINE
  5
3F0
100
AcDbEntity
  8
TRASH
100
AcDbLine
 62
7
  6
CONTINUOUS
 10
-23.8778937063
 20
-31.8279359075
 11
-23.8550027231
 21
-31.8386100619
  0
LINE
  5
3F1
100
AcDbEntity
  8
TRASH
100
AcDbLine
 62
7
  6
CONTINUOUS
 10
-23.8550027299
 20
-32.2949065081
 11
-23.877893713
 21
-32.3055806626
  0
LINE
  5
3F2
100
AcDbEntity
  8
0
100
AcDbLine
 62
7
  6
CONTINUOUS
 10
-25.5621339943
 20
-31.5668117944
 11
-25.5197267822
 21
-31.547040855
  0
LINE
  5
3F3
100
AcDbEntity
  8
0
100
AcDbLine
 62
7
  6
CONTINUOUS
 10
-23.3280087497
 20
-32.2948977821
 11
-23.8549920768
 21
-32.29495103
  0
LINE
  5
3F4
100
AcDbEntity
  8
0
100
AcDbLine
 62
7
  6
CONTINUOUS
 10
-23.8550027299
 20
-32.2949065081
 11
-23.8099522509
 21
-32.3990627481
  0
LINE
  5
3F5
100
AcDbEntity
  8
0
100
AcDbLine
 62
7
  6
CONTINUOUS
 10
-26.1221028135
 20
-31.8279322722
 11
-25.6
 21
-31.584469003
  0
LINE
  5
3F6
100
AcDbEntity
  8
0
100
AcDbLine
 62
7
  6
CONTINUOUS
 10
-24.4
 20
-32.6667581482
 11
-24.3727025934
 21
-32.6940555241
  0
LINE
  5
3F7
100
AcDbEntity
  8
0
100
AcDbLine
 62
7
  6
CONTINUOUS
 10
-25.6
 20
-32.5490480971
 11
-26.1221066534
 21
-32.305583031
  0
LINE
  5
3F8
100
AcDbEntity
  8
0
100
AcDbLine
 62
7
  6
CONTINUOUS
 10
-25.5197234839
 20
-32.5864817739
 11
-25.5621335303
 21
-32.5667053072
  0
LINE
  5
3F9
100
AcDbEntity
  8
0
100
AcDbLine
 62
7
  6
CONTINUOUS
 10
-23.8101933044
 20
-31.7342868771
 11
-23.828395019
 21
-31.7216856653
  0
SPLINE
  5
3FA
100
AcDbEntity
  8
0
100
AcDbSpline
 62
7
  6
CONTINUOUS
 70
0
 71
3
 72
14
 73
10
 74
8
 42
0.0000001
 43
0.0000001
 44
0.0000000001
 12
0.5489866675
 22
-0.2730585867
 32
0.0
 13
0.540741044
 23
-0.289044073
 33
0.0
 40
0.0
 40
0.0
 40
0.0
 40
0.0
 40
0.1676248277
 40
0.3171576827
 40
0.4562893429
 40
0.5918233207
 40
0.7276155638
 40
0.864047256
 40
1.0
 40
1.0
 40
1.0
 40
1.0
 10
-24.3727024907
 20
-31.4394607737
 30
0.0
 10
-24.3420278922
 20
-31.4547179065
 30
0.0
 10
-24.2840953423
 20
-31.4837987894
 30
0.0
 10
-24.2010057812
 20
-31.5261439373
 30
0.0
 10
-24.1239492078
 20
-31.5658800111
 30
0.0
 10
-24.0495440737
 20
-31.6046287101
 30
0.0
 10
-23.9757639239
 20
-31.6433816202
 30
0.0
 10
-23.9020302626
 20
-31.6824061357
 30
0.0
 10
-23.8529000953
 20
-31.708586887
 30
0.0
 10
-23.828395019
 20
-31.7216856653
 30
0.0
 11
-24.3727024907
 21
-31.4394607737
 31
0.0
 11
-24.2808405336
 21
-31.4855561172
 31
0.0
 11
-24.1991463063
 21
-31.5271765946
 31
0.0
 11
-24.1233223684
 21
-31.5662684866
 31
0.0
 11
-24.0496133968
 21
-31.6046473485
 31
0.0
 11
-23.9758999156
 21
-31.6433593157
 31
0.0
 11
-23.9019622533
 21
-31.6824867772
 31
0.0
 11
-23.828395019
 21
-31.7216856653
 31
0.0
  0
LINE
  5
3FB
100
AcDbEntity
  8
0
100
AcDbLine
 62
7
  6
CONTINUOUS
 10
-24.4802765158
 20
-32.5864817742
 11
-24.4795953518
 21
-32.5871629381
  0
SPLINE
  5
3FC
100
AcDbEntity
  8
0
100
AcDbSpline
 62
7
  6
CONTINUOUS
 70
0
 71
3
 72
14
 73
10
 74
8
 42
0.0000001
 43
0.0000001
 44
0.0000000001
 12
-0.5407409237
 22
-0.2890440051
 32
0.0
 13
-0.5489846067
 23
-0.2730624198
 33
0.0
 40
0.0
 40
0.0
 40
0.0
 40
0.0
 40
0.1360891828
 40
0.2724205737
 40
0.4077679873
 40
0.5429185838
 40
0.6821509024
 40
0.8319710672
 40
1.0
 40
1.0
 40
1.0
 40
1.0
 10
-23.8283951111
 20
-32.4118309639
 30
0.0
 10
-23.8529247745
 20
-32.4249428847
 30
0.0
 10
-23.9020615595
 20
-32.451126896
 30
0.0
 10
-23.9757213173
 20
-32.4901124425
 30
0.0
 10
-24.0493333802
 20
-32.5287772191
 30
0.0
 10
-24.1236059243
 20
-32.5674585445
 30
0.0
 10
-24.2006626082
 20
-32.607196401
 30
0.0
 10
-24.2838948016
 20
-32.6496181652
 30
0.0
 10
-24.3419541609
 20
-32.6787613951
 30
0.0
 10
-24.3727025934
 20
-32.6940555241
 30
0.0
 11
-23.8283951111
 21
-32.4118309639
 31
0.0
 11
-23.9020362479
 21
-32.4510690153
 31
0.0
 11
-23.9759195551
 21
-32.490167667
 31
0.0
 11
-24.0493914028
 21
-32.5287530899
 31
0.0
 11
-24.1228912322
 21
-32.5670245862
 31
0.0
 11
-24.1987691279
 21
-32.606146462
 31
0.0
 11
-24.2806192164
 21
-32.6478490305
 31
0.0
 11
-24.3727025934
 21
-32.6940555241
 31
0.0
  0
LINE
  5
3FD
100
AcDbEntity
  8
0
100
AcDbLine
 62
7
  6
CONTINUOUS
 10
-23.8099522509
 20
-32.3990627481
 11
-23.8283951111
 21
-32.4118309639
  0
SPLINE
  5
3FE
100
AcDbEntity
  8
0
100
AcDbSpline
 62
7
  6
CONTINUOUS
 70
0
 71
3
 72
14
 73
10
 74
8
 42
0.0000001
 43
0.0000001
 44
0.0000000001
 12
0.5407409237
 22
0.2890440051
 32
0.0
 13
0.5489846067
 23
0.2730624198
 33
0.0
 40
0.0
 40
0.0
 40
0.0
 40
0.0
 40
0.1360891828
 40
0.2724205737
 40
0.4077679873
 40
0.5429185838
 40
0.6821509024
 40
0.8319710672
 40
1.0
 40
1.0
 40
1.0
 40
1.0
 10
-26.1716048889
 20
-31.7216856161
 30
0.0
 10
-26.1470752255
 20
-31.7085736953
 30
0.0
 10
-26.0979384405
 20
-31.682389684
 30
0.0
 10
-26.0242786827
 20
-31.6434041375
 30
0.0
 10
-25.9506666198
 20
-31.6047393609
 30
0.0
 10
-25.8763940757
 20
-31.5660580355
 30
0.0
 10
-25.7993373918
 20
-31.526320179
 30
0.0
 10
-25.7161051984
 20
-31.4838984148
 30
0.0
 10
-25.6580458391
 20
-31.4547551849
 30
0.0
 10
-25.6272974066
 20
-31.4394610559
 30
0.0
 11
-26.1716048889
 21
-31.7216856161
 31
0.0
 11
-26.0979637521
 21
-31.6824475647
 31
0.0
 11
-26.0240804449
 21
-31.643348913
 31
0.0
 11
-25.9506085972
 21
-31.6047634902
 31
0.0
 11
-25.8771087678
 21
-31.5664919938
 31
0.0
 11
-25.8012308721
 21
-31.527370118
 31
0.0
 11
-25.7193807836
 21
-31.4856675495
 31
0.0
 11
-25.6272974066
 21
-31.4394610559
 31
0.0
  0
LINE
  5
3FF
100
AcDbEntity
  8
0
100
AcDbLine
 62
7
  6
CONTINUOUS
 10
-26.1716048889
 20
-31.7216856161
 11
-26.190047748
 21
-31.7344538311
  0
LINE
  5
400
100
AcDbEntity
  8
0
100
AcDbLine
 62
7
  6
CONTINUOUS
 10
-26.171604981
 20
-32.4118309147
 11
-26.1898066956
 21
-32.3992297029
  0
SPLINE
  5
401
100
AcDbEntity
  8
0
100
AcDbSpline
 62
7
  6
CONTINUOUS
 70
0
 71
3
 72
14
 73
10
 74
8
 42
0.0000001
 43
0.0000001
 44
0.0000000001
 12
-0.5489866675
 22
0.2730585867
 32
0.0
 13
-0.540741044
 23
0.289044073
 33
0.0
 40
0.0
 40
0.0
 40
0.0
 40
0.0
 40
0.1676248277
 40
0.3171576827
 40
0.4562893429
 40
0.5918233207
 40
0.7276155638
 40
0.864047256
 40
1.0
 40
1.0
 40
1.0
 40
1.0
 10
-25.6272975093
 20
-32.6940558063
 30
0.0
 10
-25.6579721078
 20
-32.6787986735
 30
0.0
 10
-25.7159046577
 20
-32.6497177906
 30
0.0
 10
-25.7989942188
 20
-32.6073726427
 30
0.0
 10
-25.8760507922
 20
-32.5676365689
 30
0.0
 10
-25.9504559263
 20
-32.5288878699
 30
0.0
 10
-26.0242360761
 20
-32.4901349598
 30
0.0
 10
-26.0979697374
 20
-32.4511104443
 30
0.0
 10
-26.1470999047
 20
-32.424929693
 30
0.0
 10
-26.171604981
 20
-32.4118309147
 30
0.0
 11
-25.6272975093
 21
-32.6940558063
 31
0.0
 11
-25.7191594664
 21
-32.6479604628
 31
0.0
 11
-25.8008536937
 21
-32.6063399854
 31
0.0
 11
-25.8766776316
 21
-32.5672480934
 31
0.0
 11
-25.9503866032
 21
-32.5288692315
 31
0.0
 11
-26.0241000844
 21
-32.4901572643
 31
0.0
 11
-26.0980377467
 21
-32.4510298028
 31
0.0
 11
-26.171604981
 21
-32.4118309147
 31
0.0
  0
LINE
  5
402
100
AcDbEntity
  8
0
100
AcDbLine
 62
7
  6
CONTINUOUS
 10
-24.5000529891
 20
-31.504624754
 11
-24.4802765161
 21
-31.5470348061
  0
LINE
  5
403
100
AcDbEntity
  8
0
100
AcDbLine
 62
7
  6
CONTINUOUS
 10
-24.4802765161
 20
-31.5470348061
 11
-24.4378664697
 21
-31.5668112728
  0
LINE
  5
404
100
AcDbEntity
  8
0
100
AcDbLine
 62
7
  6
CONTINUOUS
 10
-24.4
 20
-31.5844684829
 11
-23.8778933466
 21
-31.827933549
  0
LINE
  5
405
100
AcDbEntity
  8
0
100
AcDbLine
 62
7
  6
CONTINUOUS
 10
-23.8778971865
 20
-32.3055843078
 11
-24.4
 21
-32.549047577
  0
LINE
  5
406
100
AcDbEntity
  8
0
100
AcDbLine
 62
7
  6
CONTINUOUS
 10
-24.4378660057
 20
-32.5667047856
 11
-24.4802732178
 21
-32.586475725
  0
LINE
  5
407
100
AcDbEntity
  8
0
100
AcDbLine
 62
7
  6
CONTINUOUS
 10
-25.519717435
 20
-31.5470315078
 11
-25.4999466442
 21
-31.5046244278
  0
LINE
  5
408
100
AcDbEntity
  8
0
100
AcDbLine
 62
7
  6
CONTINUOUS
 10
-25.4999470109
 20
-32.628891826
 11
-25.5197234839
 21
-32.5864817739
  0
LINE
  5
409
100
AcDbEntity
  8
0
100
AcDbLine
 62
7
  6
CONTINUOUS
 10
-25.6
 20
-32.6667582964
 11
-25.6272975093
 21
-32.6940558063
  0
LINE
  5
40A
100
AcDbEntity
  8
0
100
AcDbLine
 62
7
  6
CONTINUOUS
 10
-25.5197234842
 20
-32.5864817742
 11
-25.5204046482
 21
-32.5871629382
  0
SPLINE
  5
40B
100
AcDbEntity
  8
0
100
AcDbSpline
 62
7
  6
CONTINUOUS
 70
0
 71
3
 72
9
 73
5
 74
3
 42
0.0000001
 43
0.0000001
 44
0.0000000001
 12
0.0452995647
 22
0.1041126532
 32
0.0
 13
0.0452995647
 23
0.1041126532
 33
0.0
 40
0.0
 40
0.0
 40
0.0
 40
0.0
 40
0.4996939835
 40
1.0
 40
1.0
 40
1.0
 40
1.0
 10
-26.1898066956
 20
-32.3992297029
 30
0.0
 10
-26.182261389
 20
-32.3818882141
 30
0.0
 10
-26.1669167609
 20
-32.3472891334
 30
0.0
 10
-26.1525518251
 20
-32.312269247
 30
0.0
 10
-26.1449972769
 20
-32.2949065181
 30
0.0
 11
-26.1898066956
 21
-32.3992297029
 31
0.0
 11
-26.1671707757
 21
-32.3472052365
 31
0.0
 11
-26.1449972769
 21
-32.2949065181
 31
0.0
  0
SPLINE
  5
40C
100
AcDbEntity
  8
0
100
AcDbSpline
 62
7
  6
CONTINUOUS
 70
0
 71
3
 72
9
 73
5
 74
3
 42
0.0000001
 43
0.0000001
 44
0.0000000001
 12
-0.5269772644
 22
0.0010793166
 32
0.0
 13
-0.5269783692
 23
-0.0000227564
 33
0.0
 40
0.0
 40
0.0
 40
0.0
 40
0.0
 40
0.4866884719
 40
1.0
 40
1.0
 40
1.0
 40
1.0
 10
-26.1450395831
 20
-32.2951115611
 30
0.0
 10
-26.2305308363
 20
-32.2949364641
 30
0.0
 10
-26.406190262
 20
-32.2947523704
 30
0.0
 10
-26.5818497119
 20
-32.2946996959
 30
0.0
 10
-26.6720177359
 20
-32.2947035896
 30
0.0
 11
-26.1450395831
 21
-32.2951115611
 31
0.0
 11
-26.401513677
 21
-32.2947884002
 31
0.0
 11
-26.6720177359
 21
-32.2947035896
 31
0.0
  0
LINE
  5
40D
100
AcDbEntity
  8
TRASH
100
AcDbLine
 62
7
  6
CONTINUOUS
 10
-26.1221062937
 20
-32.3055806725
 11
-26.1449972769
 21
-32.2949065181
  0
LINE
  5
40E
100
AcDbEntity
  8
0
100
AcDbLine
 62
7
  6
CONTINUOUS
 10
-26.1450079241
 20
-31.8385655451
 11
-26.6719912502
 21
-31.8386187973
  0
LINE
  5
40F
100
AcDbEntity
  8
0
100
AcDbLine
 62
7
  6
CONTINUOUS
 10
-26.1449972701
 20
-31.8386100719
 11
-26.190047748
 21
-31.7344538311
  0
LINE
  5
410
100
AcDbEntity
  8
TRASH
100
AcDbLine
 62
7
  6
CONTINUOUS
 10
-26.122106287
 20
-31.8279359174
 11
-26.1449972701
 21
-31.8386100719
  0
SPLINE
  5
411
100
AcDbEntity
  8
RACCORDO
100
AcDbSpline
 62
253
  6
CONTINUOUS
 70
0
 71
3
 72
12
 73
8
 74
6
 42
0.0000001
 43
0.0000001
 44
0.0000000001
 12
-0.300893308
 22
0.0000000007
 32
0.0
 13
-0.0
 23
0.300893308
 33
0.0
 40
0.0
 40
0.0
 40
0.0
 40
0.0
 40
0.3081114648
 40
0.5861306634
 40
0.8069421857
 40
0.9491458154
 40
1.0
 40
1.0
 40
1.0
 40
1.0
 10
-3.55
 20
-21.3306988104
 30
0.0
 10
-3.5809028926
 20
-21.3306988104
 30
0.0
 10
-3.6402004363
 20
-21.3305374636
 30
0.0
 10
-3.7191533946
 20
-21.3277610415
 30
0.0
 10
-3.7884353766
 20
-21.3275087605
 30
0.0
 10
-3.8201461178
 20
-21.3195636968
 30
0.0
 10
-3.85
 20
-21.3218588507
 30
0.0
 10
-3.85
 20
-21.3167582895
 30
0.0
 11
-3.55
 21
-21.3306988104
 31
0.0
 11
-3.642706167
 21
-21.3300164965
 31
0.0
 11
-3.7263368448
 21
-21.3280363648
 31
0.0
 11
-3.7927059356
 21
-21.3249522683
 31
0.0
 11
-3.8353172139
 21
-21.3210661102
 31
0.0
 11
-3.85
 21
-21.3167582895
 31
0.0
  0
SPLINE
  5
412
100
AcDbEntity
  8
RACCORDO
100
AcDbSpline
 62
253
  6
CONTINUOUS
 70
0
 71
3
 72
12
 73
8
 74
6
 42
0.0000001
 43
0.0000001
 44
0.0000000001
 12
0.3008933055
 22
0.0
 32
0.0
 13
0.0
 23
0.3008933055
 33
0.0
 40
0.0
 40
0.0
 40
0.0
 40
0.0
 40
0.3081079184
 40
0.5861264528
 40
0.806939408
 40
0.9491449558
 40
1.0
 40
1.0
 40
1.0
 40
1.0
 10
3.55
 20
-21.3306988104
 30
0.0
 10
3.5809025367
 20
-21.3306988104
 30
0.0
 10
3.6401996488
 20
-21.330537469
 30
0.0
 10
3.7191523429
 20
-21.3277610711
 30
0.0
 10
3.7884346154
 20
-21.3275088348
 30
0.0
 10
3.8201456583
 20
-21.3195636683
 30
0.0
 10
3.85
 20
-21.3218589375
 30
0.0
 10
3.85
 20
-21.31675829
 30
0.0
 11
3.55
 21
-21.3306988104
 31
0.0
 11
3.6427050992
 21
-21.3300165128
 31
0.0
 11
3.726335577
 21
-21.3280364079
 31
0.0
 11
3.7927050994
 21
-21.3249523223
 31
0.0
 11
3.8353169553
 21
-21.3210661477
 31
0.0
 11
3.85
 21
-21.31675829
 31
0.0
  0
SPLINE
  5
413
100
AcDbEntity
  8
RACCORDO
100
AcDbSpline
 62
253
  6
CONTINUOUS
 70
0
 71
3
 72
12
 73
8
 74
6
 42
0.0000001
 43
0.0000001
 44
0.0000000001
 12
-0.300893308
 22
0.0000000007
 32
0.0
 13
-0.0
 23
0.300893308
 33
0.0
 40
0.0
 40
0.0
 40
0.0
 40
0.0
 40
0.3081114648
 40
0.5861306634
 40
0.8069421857
 40
0.9491458154
 40
1.0
 40
1.0
 40
1.0
 40
1.0
 10
21.45
 20
-21.3306988104
 30
0.0
 10
21.4190971074
 20
-21.3306988104
 30
0.0
 10
21.3597995637
 20
-21.3305374636
 30
0.0
 10
21.2808466054
 20
-21.3277610415
 30
0.0
 10
21.2115646234
 20
-21.3275087605
 30
0.0
 10
21.1798538822
 20
-21.3195636968
 30
0.0
 10
21.15
 20
-21.3218588507
 30
0.0
 10
21.15
 20
-21.3167582895
 30
0.0
 11
21.45
 21
-21.3306988104
 31
0.0
 11
21.357293833
 21
-21.3300164965
 31
0.0
 11
21.2736631552
 21
-21.3280363648
 31
0.0
 11
21.2072940644
 21
-21.3249522683
 31
0.0
 11
21.1646827861
 21
-21.3210661102
 31
0.0
 11
21.15
 21
-21.3167582895
 31
0.0
  0
SPLINE
  5
414
100
AcDbEntity
  8
RACCORDO
100
AcDbSpline
 62
253
  6
CONTINUOUS
 70
0
 71
3
 72
12
 73
8
 74
6
 42
0.0000001
 43
0.0000001
 44
0.0000000001
 12
-0.3008933055
 22
-0.0
 32
0.0
 13
-0.0
 23
-0.3008933055
 33
0.0
 40
0.0
 40
0.0
 40
0.0
 40
0.0
 40
0.3081079184
 40
0.5861264528
 40
0.806939408
 40
0.9491449558
 40
1.0
 40
1.0
 40
1.0
 40
1.0
 10
21.45
 20
11.1971822304
 30
0.0
 10
21.4190974633
 20
11.1971822304
 30
0.0
 10
21.3598003512
 20
11.197020889
 30
0.0
 10
21.2808476571
 20
11.1942444911
 30
0.0
 10
21.2115653846
 20
11.1939922548
 30
0.0
 10
21.1798543417
 20
11.1860470883
 30
0.0
 10
21.15
 20
11.1883423574
 30
0.0
 10
21.15
 20
11.18324171
 30
0.0
 11
21.45
 21
11.1971822304
 31
0.0
 11
21.3572949008
 21
11.1964999328
 31
0.0
 11
21.273664423
 21
11.1945198279
 31
0.0
 11
21.2072949006
 21
11.1914357423
 31
0.0
 11
21.1646830447
 21
11.1875495677
 31
0.0
 11
21.15
 21
11.18324171
 31
0.0
  0
SPLINE
  5
415
100
AcDbEntity
  8
RACCORDO
100
AcDbSpline
 62
253
  6
CONTINUOUS
 70
0
 71
3
 72
12
 73
8
 74
6
 42
0.0000001
 43
0.0000001
 44
0.0000000001
 12
0.300893308
 22
-0.0000000007
 32
0.0
 13
0.0
 23
-0.300893308
 33
0.0
 40
0.0
 40
0.0
 40
0.0
 40
0.0
 40
0.3081114648
 40
0.5861306634
 40
0.8069421857
 40
0.9491458154
 40
1.0
 40
1.0
 40
1.0
 40
1.0
 10
3.55
 20
11.1971822304
 30
0.0
 10
3.5809028926
 20
11.1971822304
 30
0.0
 10
3.6402004363
 20
11.1970208836
 30
0.0
 10
3.7191533946
 20
11.1942444615
 30
0.0
 10
3.7884353766
 20
11.1939921805
 30
0.0
 10
3.8201461178
 20
11.1860471168
 30
0.0
 10
3.85
 20
11.1883422707
 30
0.0
 10
3.85
 20
11.1832417095
 30
0.0
 11
3.55
 21
11.1971822304
 31
0.0
 11
3.642706167
 21
11.1964999165
 31
0.0
 11
3.7263368448
 21
11.1945197848
 31
0.0
 11
3.7927059356
 21
11.1914356883
 31
0.0
 11
3.8353172139
 21
11.1875495302
 31
0.0
 11
3.85
 21
11.1832417095
 31
0.0
  0
SPLINE
  5
416
100
AcDbEntity
  8
RACCORDO
100
AcDbSpline
 62
253
  6
CONTINUOUS
 70
0
 71
3
 72
16
 73
12
 74
10
 42
0.0000001
 43
0.0000001
 44
0.0000000001
 12
3.4528354516
 22
-0.000267707
 32
0.0
 13
0.0002349087
 23
-3.452835454
 33
0.0
 40
0.0
 40
0.0
 40
0.0
 40
0.0
 40
0.103728295
 40
0.2141285749
 40
0.3276355194
 40
0.4410754303
 40
0.5534104829
 40
0.6666243204
 40
0.7804540475
 40
0.8925550961
 40
1.0
 40
1.0
 40
1.0
 40
1.0
 10
19.25
 20
13.3990695624
 30
0.0
 10
19.3693855781
 20
13.3990603062
 30
0.0
 10
19.6162922013
 20
13.3789126111
 30
0.0
 10
19.9834353649
 20
13.2851695184
 30
0.0
 10
20.3389181245
 20
13.1238877767
 30
0.0
 10
20.6619491
 20
12.9008187477
 30
0.0
 10
20.9402845041
 20
12.6245257333
 30
0.0
 10
21.1658690905
 20
12.3031265399
 30
0.0
 10
21.330789224
 20
11.947018231
 30
0.0
 10
21.4286396028
 20
11.5740359122
 30
0.0
 10
21.4499915868
 20
11.3208454216
 30
0.0
 10
21.45
 20
11.1971822304
 30
0.0
 11
19.25
 21
13.3990695624
 31
0.0
 11
19.6069662128
 21
13.3698913179
 31
0.0
 11
19.9763165391
 21
13.2756087462
 31
0.0
 11
20.3332176384
 21
13.1136719649
 31
0.0
 11
20.6555328542
 21
12.8911108575
 31
0.0
 11
20.930813888
 21
12.6178583301
 31
0.0
 11
21.1553875118
 21
12.2978952999
 31
0.0
 11
21.3205744954
 21
11.9412581988
 31
0.0
 11
21.418772548
 21
11.5668552083
 31
0.0
 11
21.45
 21
11.1971822304
 31
0.0
  0
SPLINE
  5
417
100
AcDbEntity
  8
RACCORDO
100
AcDbSpline
 62
253
  6
CONTINUOUS
 70
0
 71
3
 72
17
 73
13
 74
11
 42
0.0000001
 43
0.0000001
 44
0.0000000001
 12
2.5623221183
 22
-3.6656307072
 32
0.0
 13
0.0029019685
 23
-4.4723969746
 33
0.0
 40
0.0
 40
0.0
 40
0.0
 40
0.0
 40
0.0132895715
 40
0.0499358891
 40
0.1091930701
 40
0.1898022648
 40
0.290061644
 40
0.4078477576
 40
0.5406646729
 40
0.68570848
 40
0.8398801387
 40
1.0
 40
1.0
 40
1.0
 40
1.0
 10
-32.4205050721
 20
36.3536899515
 30
0.0
 10
-32.4091543511
 20
36.3374517311
 30
0.0
 10
-32.4256721558
 20
36.255107173
 30
0.0
 10
-32.4040022747
 20
36.0996377533
 30
0.0
 10
-32.4100089323
 20
35.8325390028
 30
0.0
 10
-32.4021454555
 20
35.4762698297
 30
0.0
 10
-32.4003187422
 20
35.0304183282
 30
0.0
 10
-32.3968020468
 20
34.5075765577
 30
0.0
 10
-32.394465056
 20
33.9176824035
 30
0.0
 10
-32.3924407488
 20
33.2736329923
 30
0.0
 10
-32.3910669885
 20
32.5888511301
 30
0.0
 10
-32.3905523581
 20
32.1203072445
 30
0.0
 10
-32.3903974705
 20
31.8816007167
 30
0.0
 11
-32.4205050721
 21
36.3536899515
 31
0.0
 11
-32.4160744136
 21
36.2944190709
 31
0.0
 11
-32.4117450242
 21
36.1305793474
 31
0.0
 11
-32.4076058642
 21
35.8655899796
 31
0.0
 11
-32.4037456804
 21
35.5050942523
 31
0.0
 11
-32.4002458521
 21
35.056708072
 31
0.0
 11
-32.3971805789
 21
34.5299306213
 31
0.0
 11
-32.3946148076
 21
33.9359260673
 31
0.0
 11
-32.3926026776
 21
33.2872355675
 31
0.0
 11
-32.3911871261
 21
32.5977200155
 31
0.0
 11
-32.3903974705
 21
31.8816007167
 31
0.0
  0
SPLINE
  5
418
100
AcDbEntity
  8
RACCORDO
100
AcDbSpline
 62
253
  6
CONTINUOUS
 70
0
 71
3
 72
17
 73
13
 74
11
 42
0.0000001
 43
0.0000001
 44
0.0000000001
 12
0.0029019687
 22
4.4723969823
 32
0.0
 13
2.5623222372
 23
3.6656306336
 33
0.0
 40
0.0
 40
0.0
 40
0.0
 40
0.0
 40
0.1601198628
 40
0.3142915212
 40
0.459335328
 40
0.5921522431
 40
0.7099383565
 40
0.8101977356
 40
0.8908069301
 40
0.950064111
 40
0.9867104286
 40
1.0
 40
1.0
 40
1.0
 40
1.0
 10
32.3903974705
 20
31.8816007089
 30
0.0
 10
32.3905523581
 20
32.1203072393
 30
0.0
 10
32.3910669885
 20
32.5888511275
 30
0.0
 10
32.3924407488
 20
33.2736329923
 30
0.0
 10
32.394465056
 20
33.9176824035
 30
0.0
 10
32.3968020467
 20
34.5075765577
 30
0.0
 10
32.4003187423
 20
35.0304183282
 30
0.0
 10
32.4021454554
 20
35.4762698298
 30
0.0
 10
32.4100089325
 20
35.8325390026
 30
0.0
 10
32.4040022743
 20
36.0996377535
 30
0.0
 10
32.4256721565
 20
36.2551071725
 30
0.0
 10
32.4091543506
 20
36.3374517314
 30
0.0
 10
32.4205050721
 20
36.3536899514
 30
0.0
 11
32.3903974705
 21
31.8816007089
 31
0.0
 11
32.3911871261
 21
32.5977200155
 31
0.0
 11
32.3926026776
 21
33.2872355675
 31
0.0
 11
32.3946148076
 21
33.9359260673
 31
0.0
 11
32.3971805789
 21
34.5299306213
 31
0.0
 11
32.4002458521
 21
35.056708072
 31
0.0
 11
32.4037456804
 21
35.5050942523
 31
0.0
 11
32.4076058642
 21
35.8655899796
 31
0.0
 11
32.4117450242
 21
36.1305793474
 31
0.0
 11
32.4160744136
 21
36.2944190709
 31
0.0
 11
32.4205050721
 21
36.3536899514
 31
0.0
  0
SPLINE
  5
419
100
AcDbEntity
  8
RACCORDO
100
AcDbSpline
 62
253
  6
CONTINUOUS
 70
0
 71
3
 72
16
 73
12
 74
10
 42
0.0000001
 43
0.0000001
 44
0.0000000001
 12
-0.0003034303
 22
-3.4528362583
 32
0.0
 13
-3.4528362659
 23
-0.0001974492
 33
0.0
 40
0.0
 40
0.0
 40
0.0
 40
0.0
 40
0.106925894
 40
0.2186959911
 40
0.3324543509
 40
0.4456998969
 40
0.557964169
 40
0.6712412597
 40
0.7847600302
 40
0.8955470484
 40
1.0
 40
1.0
 40
1.0
 40
1.0
 10
-3.55
 20
-21.3306988104
 30
0.0
 10
-3.5500108149
 20
-21.4537646783
 30
0.0
 10
-3.571171967
 20
-21.7059696293
 30
0.0
 10
-3.6683466879
 20
-22.0780164767
 30
0.0
 10
-3.8325920198
 20
-22.4339615175
 30
0.0
 10
-4.0576457692
 20
-22.7555787114
 30
0.0
 10
-4.3354126801
 20
-23.0321087989
 30
0.0
 10
-4.657860774
 20
-23.2555579566
 30
0.0
 10
-5.013308508
 20
-23.4175769464
 30
0.0
 10
-5.3815848452
 20
-23.5121793226
 30
0.0
 10
-5.6297803535
 20
-23.5325792677
 30
0.0
 10
-5.75
 20
-23.5325861424
 30
0.0
 11
-3.55
 21
-21.3306988104
 31
0.0
 11
-3.5809255246
 21
-21.6985989104
 31
0.0
 11
-3.6784300982
 21
-22.0720022748
 31
0.0
 11
-3.8430181028
 21
-22.4286449252
 31
0.0
 11
-4.0671987793
 21
-22.749017143
 31
0.0
 11
-4.341909213
 21
-23.0224971445
 31
0.0
 11
-4.6633970607
 21
-23.2452662794
 31
0.0
 11
-5.020050248
 21
-23.4078470301
 31
0.0
 11
-5.3905568303
 21
-23.5029976531
 31
0.0
 11
-5.75
 21
-23.5325861424
 31
0.0
  0
SPLINE
  5
41A
100
AcDbEntity
  8
RACCORDO
100
AcDbSpline
 62
253
  6
CONTINUOUS
 70
0
 71
3
 72
16
 73
12
 74
10
 42
0.0000001
 43
0.0000001
 44
0.0000000001
 12
3.4528354516
 22
-0.000267707
 32
0.0
 13
0.0002349087
 23
-3.452835454
 33
0.0
 40
0.0
 40
0.0
 40
0.0
 40
0.0
 40
0.103728295
 40
0.2141285749
 40
0.3276355194
 40
0.4410754303
 40
0.5534104829
 40
0.6666243204
 40
0.7804540475
 40
0.8925550961
 40
1.0
 40
1.0
 40
1.0
 40
1.0
 10
-5.75
 20
13.3990695624
 30
0.0
 10
-5.6306144219
 20
13.3990603062
 30
0.0
 10
-5.3837077987
 20
13.3789126111
 30
0.0
 10
-5.0165646351
 20
13.2851695184
 30
0.0
 10
-4.6610818755
 20
13.1238877767
 30
0.0
 10
-4.3380509
 20
12.9008187477
 30
0.0
 10
-4.0597154959
 20
12.6245257333
 30
0.0
 10
-3.8341309095
 20
12.3031265399
 30
0.0
 10
-3.669210776
 20
11.947018231
 30
0.0
 10
-3.5713603972
 20
11.5740359122
 30
0.0
 10
-3.5500084132
 20
11.3208454216
 30
0.0
 10
-3.55
 20
11.1971822304
 30
0.0
 11
-5.75
 21
13.3990695624
 31
0.0
 11
-5.3930337872
 21
13.3698913179
 31
0.0
 11
-5.0236834609
 21
13.2756087462
 31
0.0
 11
-4.6667823616
 21
13.1136719649
 31
0.0
 11
-4.3444671458
 21
12.8911108575
 31
0.0
 11
-4.069186112
 21
12.6178583301
 31
0.0
 11
-3.8446124882
 21
12.2978952999
 31
0.0
 11
-3.6794255046
 21
11.9412581988
 31
0.0
 11
-3.581227452
 21
11.5668552083
 31
0.0
 11
-3.55
 21
11.1971822304
 31
0.0
  0
SPLINE
  5
41B
100
AcDbEntity
  8
RACCORDO
100
AcDbSpline
 62
253
  6
CONTINUOUS
 70
0
 71
3
 72
14
 73
10
 74
8
 42
0.0000001
 43
0.0000001
 44
0.0000000001
 12
1.5226122441
 22
0.0013948985
 32
0.0
 13
0.1247357873
 23
1.5174949671
 33
0.0
 40
0.0
 40
0.0
 40
0.0
 40
0.0
 40
0.2180429709
 40
0.4254022
 40
0.6119402184
 40
0.7686095373
 40
0.8879944098
 40
0.965035456
 40
1.0
 40
1.0
 40
1.0
 40
1.0
 10
32.3903975948
 20
-42.0152313004
 30
0.0
 10
32.5010625605
 20
-42.0151299178
 30
0.0
 10
32.7170320261
 20
-42.0124206237
 30
0.0
 10
33.0272091961
 20
-42.0011203087
 30
0.0
 10
33.3068182548
 20
-41.9828360274
 30
0.0
 10
33.5384482944
 20
-41.9599615416
 30
0.0
 10
33.7207105778
 20
-41.9307285332
 30
0.0
 10
33.8249154349
 20
-41.905232667
 30
0.0
 10
33.8888867027
 20
-41.8745668766
 30
0.0
 10
33.8903404794
 20
-41.8568807034
 30
0.0
 11
32.3903975948
 21
-42.0152313004
 31
0.0
 11
32.7223656733
 21
-42.0110005609
 31
0.0
 11
33.0378701414
 21
-41.9991264078
 31
0.0
 11
33.3212638844
 21
-41.9801977274
 31
0.0
 11
33.5584922855
 21
-41.9551532678
 31
0.0
 11
33.7377902496
 21
-41.9252350829
 31
0.0
 11
33.8502656815
 21
-41.8919269338
 31
0.0
 11
33.8903404794
 21
-41.8568807034
 31
0.0
  0
SPLINE
  5
41C
100
AcDbEntity
  8
RACCORDO
100
AcDbSpline
 62
253
  6
CONTINUOUS
 70
0
 71
3
 72
14
 73
10
 74
8
 42
0.0000001
 43
0.0000001
 44
0.0000000001
 12
1.522612075
 22
-0.0013948826
 32
0.0
 13
0.1247561131
 23
-1.5174931265
 33
0.0
 40
0.0
 40
0.0
 40
0.0
 40
0.0
 40
0.2180428017
 40
0.4254018896
 40
0.6119398198
 40
0.7686091239
 40
0.8879940676
 40
0.9650352716
 40
1.0
 40
1.0
 40
1.0
 40
1.0
 10
32.3903975948
 20
31.8817144574
 30
0.0
 10
32.5010624624
 20
31.881613076
 30
0.0
 10
32.7170317457
 20
31.8789037902
 30
0.0
 10
33.0272086827
 20
31.8676034937
 30
0.0
 10
33.3068175787
 20
31.8493192633
 30
0.0
 10
33.5384476052
 20
31.8264447701
 30
0.0
 10
33.7207099252
 20
31.7972119156
 30
0.0
 10
33.8249150869
 20
31.7717158558
 30
0.0
 10
33.8888864582
 20
31.7410503684
 30
0.0
 10
33.8903404794
 20
31.7233641234
 30
0.0
 11
32.3903975948
 21
31.8817144574
 31
0.0
 11
32.7223653789
 21
31.8774837292
 31
0.0
 11
33.0378695978
 21
31.8656096019
 31
0.0
 11
33.3212631772
 21
31.8466809592
 31
0.0
 11
33.5584915337
 21
31.8216365459
 31
0.0
 11
33.7377895957
 21
31.7917184112
 31
0.0
 11
33.8502652789
 21
31.7584103112
 31
0.0
 11
33.8903404794
 21
31.7233641234
 31
0.0
  0
SPLINE
  5
41D
100
AcDbEntity
  8
RACCORDO
100
AcDbSpline
 62
253
  6
CONTINUOUS
 70
0
 71
3
 72
14
 73
10
 74
8
 42
0.0000001
 43
0.0000001
 44
0.0000000001
 12
-1.5226122442
 22
-0.0013948985
 32
0.0
 13
-0.1247357747
 23
-1.5174949682
 33
0.0
 40
0.0
 40
0.0
 40
0.0
 40
0.0
 40
0.218042971
 40
0.4254022002
 40
0.6119402186
 40
0.7686095375
 40
0.88799441
 40
0.9650354561
 40
1.0
 40
1.0
 40
1.0
 40
1.0
 10
-32.3903975948
 20
31.8817147206
 30
0.0
 10
-32.5010625606
 20
31.881613338
 30
0.0
 10
-32.7170320263
 20
31.8789040438
 30
0.0
 10
-33.0272091965
 20
31.8676037288
 30
0.0
 10
-33.3068182552
 20
31.8493194475
 30
0.0
 10
-33.5384482948
 20
31.8264449617
 30
0.0
 10
-33.7207105782
 20
31.7972119533
 30
0.0
 10
-33.8249154352
 20
31.7717160871
 30
0.0
 10
-33.8888867029
 20
31.7410502965
 30
0.0
 10
-33.8903404794
 20
31.7233641234
 30
0.0
 11
-32.3903975948
 21
31.8817147206
 31
0.0
 11
-32.7223656734
 21
31.877483981
 31
0.0
 11
-33.0378701417
 21
31.8656098279
 31
0.0
 11
-33.3212638849
 21
31.8466811475
 31
0.0
 11
-33.558492286
 21
31.8216366879
 31
0.0
 11
-33.73779025
 21
31.7917185029
 31
0.0
 11
-33.8502656817
 21
31.7584103538
 31
0.0
 11
-33.8903404794
 21
31.7233641234
 31
0.0
  0
SPLINE
  5
41E
100
AcDbEntity
  8
RACCORDO
100
AcDbSpline
 62
253
  6
CONTINUOUS
 70
0
 71
3
 72
14
 73
10
 74
8
 42
0.0000001
 43
0.0000001
 44
0.0000000001
 12
-1.5226120942
 22
0.0013948833
 32
0.0
 13
-0.1247538983
 23
1.5174933278
 33
0.0
 40
0.0
 40
0.0
 40
0.0
 40
0.0
 40
0.21804282
 40
0.4254019232
 40
0.6119398629
 40
0.7686091685
 40
0.8879941045
 40
0.9650352913
 40
1.0
 40
1.0
 40
1.0
 40
1.0
 10
-32.3903975948
 20
-42.0152310685
 30
0.0
 10
-32.501062473
 20
-42.0151296871
 30
0.0
 10
-32.7170317762
 20
-42.0124204005
 30
0.0
 10
-33.0272087386
 20
-42.0011201019
 30
0.0
 10
-33.3068176523
 20
-41.9828358657
 30
0.0
 10
-33.5384476803
 20
-41.959961373
 30
0.0
 10
-33.7207099962
 20
-41.9307285011
 30
0.0
 10
-33.8249151252
 20
-41.905232462
 30
0.0
 10
-33.8888864848
 20
-41.8745669408
 30
0.0
 10
-33.8903404794
 20
-41.8568807034
 30
0.0
 11
-32.3903975948
 21
-42.0152310685
 31
0.0
 11
-32.7223654109
 21
-42.0110003392
 31
0.0
 11
-33.037869657
 21
-41.999126209
 31
0.0
 11
-33.3212632542
 21
-41.980197562
 31
0.0
 11
-33.5584916155
 21
-41.9551531433
 31
0.0
 11
-33.7377896669
 21
-41.9252350026
 31
0.0
 11
-33.8502653228
 21
-41.8919268965
 31
0.0
 11
-33.8903404794
 21
-41.8568807034
 31
0.0
  0
SPLINE
  5
41F
100
AcDbEntity
  8
RACCORDO
100
AcDbSpline
 62
253
  6
CONTINUOUS
 70
0
 71
3
 72
16
 73
12
 74
10
 42
0.0000001
 43
0.0000001
 44
0.0000000001
 12
0.0003034303
 22
3.4528362583
 32
0.0
 13
3.4528362659
 23
0.0001974492
 33
0.0
 40
0.0
 40
0.0
 40
0.0
 40
0.0
 40
0.106925894
 40
0.2186959911
 40
0.3324543509
 40
0.4456998969
 40
0.557964169
 40
0.6712412597
 40
0.7847600302
 40
0.8955470484
 40
1.0
 40
1.0
 40
1.0
 40
1.0
 10
-21.45
 20
11.1971822304
 30
0.0
 10
-21.4499891851
 20
11.3202480983
 30
0.0
 10
-21.428828033
 20
11.5724530493
 30
0.0
 10
-21.3316533121
 20
11.9444998967
 30
0.0
 10
-21.1674079802
 20
12.3004449375
 30
0.0
 10
-20.9423542308
 20
12.6220621314
 30
0.0
 10
-20.6645873199
 20
12.8985922189
 30
0.0
 10
-20.342139226
 20
13.1220413766
 30
0.0
 10
-19.986691492
 20
13.2840603664
 30
0.0
 10
-19.6184151548
 20
13.3786627426
 30
0.0
 10
-19.3702196465
 20
13.3990626877
 30
0.0
 10
-19.25
 20
13.3990695624
 30
0.0
 11
-21.45
 21
11.1971822304
 31
0.0
 11
-21.4190744754
 21
11.5650823304
 31
0.0
 11
-21.3215699018
 21
11.9384856948
 31
0.0
 11
-21.1569818972
 21
12.2951283452
 31
0.0
 11
-20.9328012207
 21
12.615500563
 31
0.0
 11
-20.658090787
 21
12.8889805645
 31
0.0
 11
-20.3366029393
 21
13.1117496994
 31
0.0
 11
-19.979949752
 21
13.2743304501
 31
0.0
 11
-19.6094431697
 21
13.3694810731
 31
0.0
 11
-19.25
 21
13.3990695624
 31
0.0
  0
SPLINE
  5
420
100
AcDbEntity
  8
RACCORDO
100
AcDbSpline
 62
253
  6
CONTINUOUS
 70
0
 71
3
 72
16
 73
12
 74
10
 42
0.0000001
 43
0.0000001
 44
0.0000000001
 12
-3.4528354516
 22
0.000267707
 32
0.0
 13
-0.0002349087
 23
3.452835454
 33
0.0
 40
0.0
 40
0.0
 40
0.0
 40
0.0
 40
0.103728295
 40
0.2141285749
 40
0.3276355194
 40
0.4410754303
 40
0.5534104829
 40
0.6666243204
 40
0.7804540475
 40
0.8925550961
 40
1.0
 40
1.0
 40
1.0
 40
1.0
 10
-19.25
 20
-23.5325861424
 30
0.0
 10
-19.3693855781
 20
-23.5325768862
 30
0.0
 10
-19.6162922013
 20
-23.5124291911
 30
0.0
 10
-19.9834353649
 20
-23.4186860984
 30
0.0
 10
-20.3389181245
 20
-23.2574043567
 30
0.0
 10
-20.6619491
 20
-23.0343353277
 30
0.0
 10
-20.9402845041
 20
-22.7580423133
 30
0.0
 10
-21.1658690905
 20
-22.43664312
 30
0.0
 10
-21.330789224
 20
-22.080534811
 30
0.0
 10
-21.4286396028
 20
-21.7075524922
 30
0.0
 10
-21.4499915868
 20
-21.4543620016
 30
0.0
 10
-21.45
 20
-21.3306988104
 30
0.0
 11
-19.25
 21
-23.5325861424
 31
0.0
 11
-19.6069662128
 21
-23.5034078979
 31
0.0
 11
-19.9763165391
 21
-23.4091253262
 31
0.0
 11
-20.3332176384
 21
-23.2471885449
 31
0.0
 11
-20.6555328542
 21
-23.0246274375
 31
0.0
 11
-20.930813888
 21
-22.7513749101
 31
0.0
 11
-21.1553875118
 21
-22.4314118799
 31
0.0
 11
-21.3205744954
 21
-22.0747747788
 31
0.0
 11
-21.418772548
 21
-21.7003717883
 31
0.0
 11
-21.45
 21
-21.3306988104
 31
0.0
  0
SPLINE
  5
421
100
AcDbEntity
  8
RACCORDO
100
AcDbSpline
 62
253
  6
CONTINUOUS
 70
0
 71
3
 72
17
 73
13
 74
11
 42
0.0000001
 43
0.0000001
 44
0.0000000001
 12
-0.0029018324
 22
-4.4723928013
 32
0.0
 13
-2.5622662129
 23
-3.6656646934
 33
0.0
 40
0.0
 40
0.0
 40
0.0
 40
0.0
 40
0.160119464
 40
0.3142912276
 40
0.4593351041
 40
0.5921521205
 40
0.7099383018
 40
0.8101977431
 40
0.8908069664
 40
0.9500641706
 40
0.9867104707
 40
1.0
 40
1.0
 40
1.0
 40
1.0
 10
-32.3903974751
 20
-42.0151215078
 30
0.0
 10
-32.390552355
 20
-42.2538272204
 30
0.0
 10
-32.3910670004
 20
-42.7223702328
 30
0.0
 10
-32.39244075
 20
-43.4071511233
 30
0.0
 10
-32.3944650651
 20
-44.051200345
 30
0.0
 10
-32.3968020601
 20
-44.6410943007
 30
0.0
 10
-32.4003187452
 20
-45.1639359376
 30
0.0
 10
-32.4021455037
 20
-45.6097872296
 30
0.0
 10
-32.4100088584
 20
-45.9660563201
 30
0.0
 10
-32.4040024936
 20
-46.2331546832
 30
0.0
 10
-32.425671816
 20
-46.3886242568
 30
0.0
 10
-32.4091546602
 20
-46.4709682483
 30
0.0
 10
-32.4205050974
 20
-46.4872065678
 30
0.0
 11
-32.3903974751
 21
-42.0151215078
 31
0.0
 11
-32.3911871312
 21
-42.7312383612
 31
0.0
 11
-32.3926026817
 21
-43.4207537388
 31
0.0
 11
-32.3946148162
 21
-44.0694439439
 31
0.0
 11
-32.3971805898
 21
-44.6634483957
 31
0.0
 11
-32.4002458661
 21
-45.1902256576
 31
0.0
 11
-32.4037456955
 21
-45.6386116971
 31
0.0
 11
-32.4076058799
 21
-45.9991072162
 31
0.0
 11
-32.4117450396
 21
-46.2640964405
 31
0.0
 11
-32.4160744319
 21
-46.4279359326
 31
0.0
 11
-32.4205050974
 21
-46.4872065678
 31
0.0
  0
SPLINE
  5
422
100
AcDbEntity
  8
RACCORDO
100
AcDbSpline
 62
253
  6
CONTINUOUS
 70
0
 71
3
 72
17
 73
13
 74
11
 42
0.0000001
 43
0.0000001
 44
0.0000000001
 12
-0.0029018977
 22
-3.1308212777
 32
0.0
 13
-2.2074169347
 23
-2.2202163791
 33
0.0
 40
0.0
 40
0.0
 40
0.0
 40
0.0
 40
0.1599724356
 40
0.3141696217
 40
0.4592396095
 40
0.5920813895
 40
0.7098893377
 40
0.8101648291
 40
0.8907836564
 40
0.9500446327
 40
0.9866931558
 40
1.0
 40
1.0
 40
1.0
 40
1.0
 10
-33.8903404794
 20
-41.8568807034
 30
0.0
 10
-33.8904952206
 20
-42.0238290718
 30
0.0
 10
-33.8910088527
 20
-42.3516969051
 30
0.0
 10
-33.8923849459
 20
-42.8309680861
 30
0.0
 10
-33.8943996157
 20
-43.2818923638
 30
0.0
 10
-33.8967684811
 20
-43.6949384515
 30
0.0
 10
-33.9001877894
 20
-44.0609142761
 30
0.0
 10
-33.9023015454
 20
-44.3733277191
 30
0.0
 10
-33.9093963682
 20
-44.6220400991
 30
0.0
 10
-33.9052013585
 20
-44.8106731319
 30
0.0
 10
-33.923563856
 20
-44.9164699578
 30
0.0
 10
-33.9106560475
 20
-44.9774146795
 30
0.0
 10
-33.9204472986
 20
-44.987262704
 30
0.0
 11
-33.8903404794
 21
-41.8568807034
 31
0.0
 11
-33.8911292036
 21
-42.3577254028
 31
0.0
 11
-33.892544655
 21
-42.8404873663
 31
0.0
 11
-33.8945568761
 21
-43.2946713084
 31
0.0
 11
-33.8971230211
 21
-43.7105674417
 31
0.0
 11
-33.9001888792
 21
-44.0793904887
 31
0.0
 11
-33.9036894481
 21
-44.3933157492
 31
0.0
 11
-33.9075504905
 21
-44.6456894641
 31
0.0
 11
-33.9116904528
 21
-44.831178875
 31
0.0
 11
-33.9160208412
 21
-44.9458371548
 31
0.0
 11
-33.9204472986
 21
-44.987262704
 31
0.0
  0
SPLINE
  5
423
100
AcDbEntity
  8
RACCORDO
100
AcDbSpline
 62
253
  6
CONTINUOUS
 70
0
 71
3
 72
14
 73
10
 74
8
 42
0.0000001
 43
0.0000001
 44
0.0000000001
 12
0.0681680218
 22
-73.5802235136
 32
0.0
 13
-0.0681680204
 23
-73.5802235136
 33
0.0
 40
0.0
 40
0.0
 40
0.0
 40
0.0
 40
0.1425304104
 40
0.2853876231
 40
0.4284407859
 40
0.5715592548
 40
0.7146124174
 40
0.8574696298
 40
1.0
 40
1.0
 40
1.0
 40
1.0
 10
-33.8903404794
 20
31.7233641234
 30
0.0
 10
-33.8871018073
 20
28.2275576385
 30
0.0
 10
-33.8815514869
 20
21.2279283726
 30
0.0
 10
-33.8760049752
 20
10.7196689483
 30
0.0
 10
-33.8732304441
 20
0.1969852531
 30
0.0
 10
-33.8732304445
 20
-10.3305048191
 30
0.0
 10
-33.8760049764
 20
-20.8531885032
 30
0.0
 10
-33.8815514883
 20
-31.3614469304
 30
0.0
 10
-33.8871018083
 20
-38.3610752044
 30
0.0
 10
-33.8903404794
 20
-41.8568807034
 30
0.0
 11
-33.8903404794
 21
31.7233641234
 31
0.0
 11
-33.8820207176
 21
21.235943468
 31
0.0
 11
-33.8764699667
 21
10.7244747828
 31
0.0
 11
-33.8736933236
 21
0.1985869403
 31
0.0
 11
-33.873693324
 21
-10.3321065115
 31
0.0
 11
-33.8764699679
 21
-20.8579943383
 31
0.0
 11
-33.8820207195
 21
-31.3694630058
 31
0.0
 11
-33.8903404794
 21
-41.8568807034
 31
0.0
  0
SPLINE
  5
424
100
AcDbEntity
  8
RACCORDO
100
AcDbSpline
 62
253
  6
CONTINUOUS
 70
0
 71
3
 72
17
 73
13
 74
11
 42
0.0000001
 43
0.0000001
 44
0.0000000001
 12
2.2075974178
 22
-2.2200369128
 32
0.0
 13
0.0029019371
 23
-3.1308212712
 33
0.0
 40
0.0
 40
0.0
 40
0.0
 40
0.0
 40
0.0133085599
 40
0.0499587631
 40
0.1092215875
 40
0.1898423085
 40
0.2901196645
 40
0.4079285193
 40
0.5407708261
 40
0.6858411133
 40
0.8400382812
 40
1.0
 40
1.0
 40
1.0
 40
1.0
 10
-33.9204472986
 20
34.853746124
 30
0.0
 10
-33.9106539844
 20
34.8438976259
 30
0.0
 10
-33.9235653129
 20
34.782946745
 30
0.0
 10
-33.9052002188
 20
34.6771464344
 30
0.0
 10
-33.9093964313
 20
34.4885067601
 30
0.0
 10
-33.9023011356
 20
34.2397889262
 30
0.0
 10
-33.9001875736
 20
33.9273704737
 30
0.0
 10
-33.8967682546
 20
33.5613912531
 30
0.0
 10
-33.8943994515
 20
33.1483433434
 30
0.0
 10
-33.8923848278
 20
32.6974182273
 30
0.0
 10
-33.8910088091
 20
32.2181579366
 30
0.0
 10
-33.8904952123
 20
31.8903013073
 30
0.0
 10
-33.8903404794
 20
31.7233641234
 30
0.0
 11
-33.9204472986
 21
34.853746124
 31
0.0
 11
-33.9160205424
 21
34.8123152047
 31
0.0
 11
-33.911690149
 21
34.6976516614
 31
0.0
 11
-33.90755019
 21
34.5121564633
 31
0.0
 11
-33.903689157
 21
34.2597768191
 31
0.0
 11
-33.9001886081
 21
33.9458457214
 31
0.0
 11
-33.8971227988
 21
33.5770198362
 31
0.0
 11
-33.8945567044
 21
33.161122054
 31
0.0
 11
-33.8925445332
 21
32.7069371751
 31
0.0
 11
-33.891129128
 21
32.2241752693
 31
0.0
 11
-33.8903404794
 21
31.7233641234
 31
0.0
  0
SPLINE
  5
425
100
AcDbEntity
  8
RACCORDO
100
AcDbSpline
 62
253
  6
CONTINUOUS
 70
0
 71
3
 72
17
 73
13
 74
11
 42
0.0000001
 43
0.0000001
 44
0.0000000001
 12
0.0029019373
 22
3.1308212712
 32
0.0
 13
2.2075981421
 23
2.2200361926
 33
0.0
 40
0.0
 40
0.0
 40
0.0
 40
0.0
 40
0.1599617188
 40
0.3141588867
 40
0.4592291739
 40
0.5920714807
 40
0.7098803355
 40
0.8101576915
 40
0.8907784125
 40
0.9500412369
 40
0.9866914401
 40
1.0
 40
1.0
 40
1.0
 40
1.0
 10
33.8903404794
 20
31.7233641234
 30
0.0
 10
33.8904952123
 20
31.8903013073
 30
0.0
 10
33.8910088091
 20
32.2181579366
 30
0.0
 10
33.8923848278
 20
32.6974182273
 30
0.0
 10
33.8943994515
 20
33.1483433434
 30
0.0
 10
33.8967682545
 20
33.5613912532
 30
0.0
 10
33.9001875738
 20
33.9273704736
 30
0.0
 10
33.9023011352
 20
34.2397889266
 30
0.0
 10
33.9093964324
 20
34.488506759
 30
0.0
 10
33.9052002162
 20
34.6771464369
 30
0.0
 10
33.9235653171
 20
34.7829467408
 30
0.0
 10
33.9106539812
 20
34.8438976291
 30
0.0
 10
33.9204472986
 20
34.853746124
 30
0.0
 11
33.8903404794
 21
31.7233641234
 31
0.0
 11
33.891129128
 21
32.2241752693
 31
0.0
 11
33.8925445332
 21
32.7069371751
 31
0.0
 11
33.8945567044
 21
33.161122054
 31
0.0
 11
33.8971227988
 21
33.5770198362
 31
0.0
 11
33.9001886081
 21
33.9458457214
 31
0.0
 11
33.903689157
 21
34.2597768191
 31
0.0
 11
33.90755019
 21
34.5121564633
 31
0.0
 11
33.911690149
 21
34.6976516614
 31
0.0
 11
33.9160205424
 21
34.8123152047
 31
0.0
 11
33.9204472986
 21
34.853746124
 31
0.0
  0
SPLINE
  5
426
100
AcDbEntity
  8
RACCORDO
100
AcDbSpline
 62
253
  6
CONTINUOUS
 70
0
 71
3
 72
14
 73
10
 74
8
 42
0.0000001
 43
0.0000001
 44
0.0000000001
 12
-0.0681680204
 22
73.5802235136
 32
0.0
 13
0.0681680218
 23
73.5802235136
 33
0.0
 40
0.0
 40
0.0
 40
0.0
 40
0.0
 40
0.1425303702
 40
0.2853875826
 40
0.4284407452
 40
0.5715592141
 40
0.7146123769
 40
0.8574695896
 40
1.0
 40
1.0
 40
1.0
 40
1.0
 10
33.8903404794
 20
-41.8568807034
 30
0.0
 10
33.8871018083
 20
-38.3610752044
 30
0.0
 10
33.8815514883
 20
-31.3614469304
 30
0.0
 10
33.8760049764
 20
-20.8531885032
 30
0.0
 10
33.8732304445
 20
-10.3305048191
 30
0.0
 10
33.8732304441
 20
0.1969852531
 30
0.0
 10
33.8760049752
 20
10.7196689483
 30
0.0
 10
33.8815514869
 20
21.2279283726
 30
0.0
 10
33.8871018073
 20
28.2275576385
 30
0.0
 10
33.8903404794
 20
31.7233641234
 30
0.0
 11
33.8903404794
 21
-41.8568807034
 31
0.0
 11
33.8820207195
 21
-31.3694630058
 31
0.0
 11
33.8764699679
 21
-20.8579943383
 31
0.0
 11
33.873693324
 21
-10.3321065115
 31
0.0
 11
33.8736933236
 21
0.1985869403
 31
0.0
 11
33.8764699667
 21
10.7244747828
 31
0.0
 11
33.8820207176
 21
21.235943468
 31
0.0
 11
33.8903404794
 21
31.7233641234
 31
0.0
  0
SPLINE
  5
427
100
AcDbEntity
  8
RACCORDO
100
AcDbSpline
 62
253
  6
CONTINUOUS
 70
0
 71
3
 72
17
 73
13
 74
11
 42
0.0000001
 43
0.0000001
 44
0.0000000001
 12
-2.2074162612
 22
2.2202170487
 32
0.0
 13
-0.0029018975
 23
3.1308212777
 33
0.0
 40
0.0
 40
0.0
 40
0.0
 40
0.0
 40
0.0133068442
 40
0.0499553673
 40
0.1092163436
 40
0.1898351709
 40
0.2901106623
 40
0.4079186105
 40
0.5407603905
 40
0.6858303783
 40
0.8400275644
 40
1.0
 40
1.0
 40
1.0
 40
1.0
 10
33.9204472986
 20
-44.987262704
 30
0.0
 10
33.9106560505
 20
-44.9774146766
 30
0.0
 10
33.923563852
 20
-44.9164699617
 30
0.0
 10
33.9052013609
 20
-44.8106731296
 30
0.0
 10
33.9093963672
 20
-44.6220401001
 30
0.0
 10
33.9023015458
 20
-44.3733277187
 30
0.0
 10
33.9001877892
 20
-44.0609142763
 30
0.0
 10
33.8967684811
 20
-43.6949384515
 30
0.0
 10
33.8943996156
 20
-43.2818923638
 30
0.0
 10
33.8923849459
 20
-42.8309680861
 30
0.0
 10
33.8910088527
 20
-42.3516969051
 30
0.0
 10
33.8904952206
 20
-42.0238290718
 30
0.0
 10
33.8903404794
 20
-41.8568807034
 30
0.0
 11
33.9204472986
 21
-44.987262704
 31
0.0
 11
33.9160208412
 21
-44.9458371548
 31
0.0
 11
33.9116904528
 21
-44.8311788751
 31
0.0
 11
33.9075504905
 21
-44.6456894641
 31
0.0
 11
33.9036894481
 21
-44.3933157492
 31
0.0
 11
33.9001888792
 21
-44.0793904887
 31
0.0
 11
33.8971230211
 21
-43.7105674417
 31
0.0
 11
33.8945568761
 21
-43.2946713084
 31
0.0
 11
33.892544655
 21
-42.8404873663
 31
0.0
 11
33.8911292036
 21
-42.3577254028
 31
0.0
 11
33.8903404794
 21
-41.8568807034
 31
0.0
  0
SPLINE
  5
428
100
AcDbEntity
  8
RACCORDO
100
AcDbSpline
 62
253
  6
CONTINUOUS
 70
0
 71
3
 72
17
 73
13
 74
11
 42
0.0000001
 43
0.0000001
 44
0.0000000001
 12
-2.5622661071
 22
3.665664757
 32
0.0
 13
-0.0029018322
 23
4.4723927928
 33
0.0
 40
0.0
 40
0.0
 40
0.0
 40
0.0
 40
0.0132895293
 40
0.0499358295
 40
0.1091930338
 40
0.1898022573
 40
0.2900616988
 40
0.4078478803
 40
0.540664897
 40
0.6857087738
 40
0.8398805376
 40
1.0
 40
1.0
 40
1.0
 40
1.0
 10
32.4205050975
 20
-46.4872065678
 30
0.0
 10
32.4091546606
 20
-46.4709682481
 30
0.0
 10
32.4256718154
 20
-46.3886242572
 30
0.0
 10
32.404002494
 20
-46.2331546829
 30
0.0
 10
32.4100088582
 20
-45.9660563202
 30
0.0
 10
32.4021455038
 20
-45.6097872295
 30
0.0
 10
32.4003187452
 20
-45.1639359376
 30
0.0
 10
32.3968020601
 20
-44.6410943007
 30
0.0
 10
32.3944650651
 20
-44.051200345
 30
0.0
 10
32.39244075
 20
-43.4071511233
 30
0.0
 10
32.3910670004
 20
-42.7223702357
 30
0.0
 10
32.390552355
 20
-42.2538272261
 30
0.0
 10
32.3903974751
 20
-42.0151215163
 30
0.0
 11
32.4205050975
 21
-46.4872065678
 31
0.0
 11
32.4160744319
 21
-46.4279359326
 31
0.0
 11
32.4117450396
 21
-46.2640964405
 31
0.0
 11
32.4076058799
 21
-45.9991072162
 31
0.0
 11
32.4037456955
 21
-45.6386116971
 31
0.0
 11
32.4002458661
 21
-45.1902256576
 31
0.0
 11
32.3971805898
 21
-44.6634483957
 31
0.0
 11
32.3946148162
 21
-44.0694439439
 31
0.0
 11
32.3926026817
 21
-43.4207537388
 31
0.0
 11
32.3911871312
 21
-42.7312383612
 31
0.0
 11
32.3903974751
 21
-42.0151215163
 31
0.0
  0
SPLINE
  5
429
100
AcDbEntity
  8
RACCORDO
100
AcDbSpline
 62
253
  6
CONTINUOUS
 70
0
 71
3
 72
14
 73
10
 74
8
 42
0.0000001
 43
0.0000001
 44
0.0000000001
 12
0.0681678158
 22
-73.8967010029
 32
0.0
 13
-0.0681678145
 23
-73.8967010029
 33
0.0
 40
0.0
 40
0.0
 40
0.0
 40
0.0
 40
0.142529616
 40
0.2853871272
 40
0.4284405881
 40
0.5715593549
 40
0.7146128158
 40
0.857470327
 40
1.0
 40
1.0
 40
1.0
 40
1.0
 10
-32.3903975046
 20
31.8816007168
 30
0.0
 10
-32.3871588604
 20
28.3707779117
 30
0.0
 10
-32.3816085714
 20
21.3410546125
 30
0.0
 10
-32.3760620868
 20
10.787602785
 30
0.0
 10
-32.3732875598
 20
0.2196377492
 30
0.0
 10
-32.3732875598
 20
-10.3531543296
 30
0.0
 10
-32.3760620868
 20
-20.9211193653
 30
0.0
 10
-32.3816085721
 20
-31.4745725963
 30
0.0
 10
-32.3871588625
 20
-38.5042972992
 30
0.0
 10
-32.3903975079
 20
-42.0151215079
 30
0.0
 11
-32.3903975046
 21
31.8816007168
 31
0.0
 11
-32.3820778176
 21
21.3491311061
 31
0.0
 11
-32.3765270767
 21
10.7924292826
 31
0.0
 11
-32.3737504385
 21
0.2212463196
 31
0.0
 11
-32.3737504385
 21
-10.3547629
 31
0.0
 11
-32.3765270768
 21
-20.9259458628
 31
0.0
 11
-32.3820778176
 21
-31.4826476864
 31
0.0
 11
-32.3903975079
 21
-42.0151215079
 31
0.0
  0
SPLINE
  5
42A
100
AcDbEntity
  8
RACCORDO
100
AcDbSpline
 62
253
  6
CONTINUOUS
 70
0
 71
3
 72
14
 73
10
 74
8
 42
0.0000001
 43
0.0000001
 44
0.0000000001
 12
-0.0681678145
 22
73.8967010037
 32
0.0
 13
0.0681678158
 23
73.8967010037
 33
0.0
 40
0.0
 40
0.0
 40
0.0
 40
0.0
 40
0.1425296731
 40
0.2853871843
 40
0.4284406452
 40
0.571559412
 40
0.7146128729
 40
0.8574703841
 40
1.0
 40
1.0
 40
1.0
 40
1.0
 10
32.3903975079
 20
-42.0151215164
 30
0.0
 10
32.3871588625
 20
-38.5042973049
 30
0.0
 10
32.3816085721
 20
-31.4745725992
 30
0.0
 10
32.3760620868
 20
-20.9211193653
 30
0.0
 10
32.3732875598
 20
-10.3531543296
 30
0.0
 10
32.3732875598
 20
0.2196377492
 30
0.0
 10
32.3760620868
 20
10.787602785
 30
0.0
 10
32.3816085714
 20
21.3410546099
 30
0.0
 10
32.3871588604
 20
28.3707779065
 30
0.0
 10
32.3903975046
 20
31.881600709
 30
0.0
 11
32.3903975079
 21
-42.0151215164
 31
0.0
 11
32.3820778176
 21
-31.4826476864
 31
0.0
 11
32.3765270768
 21
-20.9259458628
 31
0.0
 11
32.3737504385
 21
-10.3547629
 31
0.0
 11
32.3737504385
 21
0.2212463196
 31
0.0
 11
32.3765270767
 21
10.7924292826
 31
0.0
 11
32.3820778176
 21
21.3491311061
 31
0.0
 11
32.3903975046
 21
31.881600709
 31
0.0
  0
SPLINE
  5
42B
100
AcDbEntity
  8
RACCORDO
100
AcDbSpline
 62
253
  6
CONTINUOUS
 70
0
 71
3
 72
37
 73
33
 74
31
 42
0.0000001
 43
0.0000001
 44
0.0000000001
 12
-11.1414650865
 22
0.0000181907
 32
0.0
 13
11.1414650864
 23
0.0000561587
 33
0.0
 40
0.0
 40
0.0
 40
0.0
 40
0.0
 40
0.0233519031
 40
0.0480281865
 40
0.074207914
 40
0.1020748958
 40
0.1315177098
 40
0.1617051581
 40
0.1917015279
 40
0.2212834192
 40
0.2509155671
 40
0.2821149469
 40
0.3166353225
 40
0.3559956292
 40
0.4004711876
 40
0.4492486795
 40
0.500976434
 40
0.5525794895
 40
0.6010254282
 40
0.6450546008
 40
0.6839398195
 40
0.7180227535
 40
0.7489356637
 40
0.7784219166
 40
0.807979724
 40
0.8379121085
 40
0.867970313
 40
0.8973375691
 40
0.9253277581
 40
0.9517821069
 40
0.9766821674
 40
1.0
 40
1.0
 40
1.0
 40
1.0
 10
25.0
 20
18.3982433071
 30
0.0
 10
24.9132751955
 20
18.3982434487
 30
0.0
 10
24.7348396201
 20
18.4047941463
 30
0.0
 10
24.4607144309
 20
18.4356803718
 30
0.0
 10
24.1734031246
 20
18.4915680234
 30
0.0
 10
23.8747829775
 20
18.576491802
 30
0.0
 10
23.5710546476
 20
18.693299045
 30
0.0
 10
23.2724742212
 20
18.8415476818
 30
0.0
 10
22.9887937199
 20
19.017596672
 30
0.0
 10
22.7244656513
 20
19.2181316058
 30
0.0
 10
22.4766074411
 20
19.445372778
 30
0.0
 10
22.2392258754
 20
19.7089085507
 30
0.0
 10
22.0088527751
 20
20.0248475244
 30
0.0
 10
21.7921762047
 20
20.4085724587
 30
0.0
 10
21.6077996214
 20
20.8669928601
 30
0.0
 10
21.4814220827
 20
21.3925576622
 30
0.0
 10
21.4371170042
 20
21.958232653
 30
0.0
 10
21.4846780644
 20
22.522389788
 30
0.0
 10
21.6129902358
 20
23.0439908294
 30
0.0
 10
21.7974288775
 20
23.4973152495
 30
0.0
 10
22.0125731852
 20
23.8760625721
 30
0.0
 10
22.2406562313
 20
24.1881254199
 30
0.0
 10
22.4758611359
 20
24.449253666
 30
0.0
 10
22.7223069333
 20
24.6755161049
 30
0.0
 10
22.985748445
 20
24.8757789577
 30
0.0
 10
23.268546655
 20
25.0517124762
 30
0.0
 10
23.5660194612
 20
25.1999331286
 30
0.0
 10
23.8692598782
 20
25.3171549119
 30
0.0
 10
24.1688947736
 20
25.402903209
 30
0.0
 10
24.4584237162
 20
25.4595313614
 30
0.0
 10
24.7342619713
 20
25.4906789377
 30
0.0
 10
24.9134017272
 20
25.4972453798
 30
0.0
 10
25.0
 20
25.4972458163
 30
0.0
 11
25.0
 21
18.3982433071
 31
0.0
 11
24.740000817
 21
18.4077905743
 31
0.0
 11
24.4667993932
 21
18.4385713961
 31
0.0
 11
24.1804856138
 21
18.4942665107
 31
0.0
 11
23.8818481717
 21
18.5791952468
 31
0.0
 11
23.5756734353
 21
18.6969437234
 31
0.0
 11
23.2744291326
 21
18.8465142879
 31
0.0
 11
22.99046298
 21
19.022739169
 31
0.0
 11
22.7278892447
 21
19.2219418474
 31
0.0
 11
22.4845392103
 21
19.4450490845
 31
0.0
 11
22.2518951552
 21
19.7033265156
 31
0.0
 11
22.0252967408
 21
20.0140935237
 31
0.0
 11
21.8096787785
 21
20.3959557445
 31
0.0
 11
21.6247822364
 21
20.8556906624
 31
0.0
 11
21.4977337619
 21
21.3840840264
 31
0.0
 11
21.4527377656
 21
21.958647798
 31
0.0
 11
21.5010302766
 21
22.5315496432
 31
0.0
 11
21.6299560954
 21
23.0556847643
 31
0.0
 11
21.8148174784
 21
23.5100690409
 31
0.0
 11
22.0287963512
 21
23.8867764498
 31
0.0
 11
22.2528672823
 21
24.1933543218
 31
0.0
 11
22.4833709721
 21
24.4492641038
 31
0.0
 11
22.7253681915
 21
24.6714414518
 31
0.0
 11
22.9875361548
 21
24.8707347768
 31
0.0
 11
23.2707025212
 21
25.0468960676
 31
0.0
 11
23.5704473019
 21
25.1962480358
 31
0.0
 11
23.8756328428
 21
25.3142220512
 31
0.0
 11
24.1754491593
 21
25.4000222115
 31
0.0
 11
24.4647082918
 21
25.4565990773
 31
0.0
 11
24.740379645
 21
25.4877264213
 31
0.0
 11
25.0
 21
25.4972458163
 31
0.0
  0
SPLINE
  5
42C
100
AcDbEntity
  8
RACCORDO
100
AcDbSpline
 62
253
  6
CONTINUOUS
 70
0
 71
3
 72
37
 73
33
 74
31
 42
0.0000001
 43
0.0000001
 44
0.0000000001
 12
11.1414648889
 22
-0.0000171995
 32
0.0
 13
-11.1414648888
 23
-0.000057491
 33
0.0
 40
0.0
 40
0.0
 40
0.0
 40
0.0
 40
0.0232148328
 40
0.0477588978
 40
0.0738172938
 40
0.1015800126
 40
0.1309400611
 40
0.1610606577
 40
0.1909901061
 40
0.2204955497
 40
0.2500366438
 40
0.2811246553
 40
0.3155163572
 40
0.3547383496
 40
0.3990925519
 40
0.4477791199
 40
0.499473113
 40
0.5511160208
 40
0.5996578472
 40
0.643809975
 40
0.6828338469
 40
0.7170440143
 40
0.7480665971
 40
0.7776427299
 40
0.8072763755
 40
0.8372767284
 40
0.8674022832
 40
0.8968517081
 40
0.9249445597
 40
0.9515180116
 40
0.9765478787
 40
1.0
 40
1.0
 40
1.0
 40
1.0
 10
25.0
 20
25.4972458163
 30
0.0
 10
25.0862157482
 20
25.4972456832
 30
0.0
 10
25.2636500502
 20
25.49077
 30
0.0
 10
25.5363490659
 20
25.4602209601
 30
0.0
 10
25.8224090154
 20
25.4048846919
 30
0.0
 10
26.1200409155
 20
25.3206897208
 30
0.0
 10
26.4230814923
 20
25.204733197
 30
0.0
 10
26.7212221916
 20
25.0574162753
 30
0.0
 10
27.0046101926
 20
24.8823843453
 30
0.0
 10
27.2687122836
 20
24.6829996375
 30
0.0
 10
27.5163963526
 20
24.457109347
 30
0.0
 10
27.7537212137
 20
24.1951875392
 30
0.0
 10
27.9843033397
 20
23.8811530697
 30
0.0
 10
28.2016911233
 20
23.4995028725
 30
0.0
 10
28.387468349
 20
23.0430677863
 30
0.0
 10
28.5159754078
 20
22.5189723171
 30
0.0
 10
28.562895022
 20
21.9538291054
 30
0.0
 10
28.5179330137
 20
21.3890733402
 30
0.0
 10
28.391713317
 20
20.8659612055
 30
0.0
 10
28.2086360746
 20
20.4106399781
 30
0.0
 10
27.994177447
 20
20.0298326252
 30
0.0
 10
27.7662935058
 20
19.7158891308
 30
0.0
 10
27.531034218
 20
19.4531706704
 30
0.0
 10
27.284420505
 20
19.2255740684
 30
0.0
 10
27.0207537339
 20
19.0241688603
 30
0.0
 10
26.7376585236
 20
18.8472231823
 30
0.0
 10
26.439741381
 20
18.6980768962
 30
0.0
 10
26.1358189629
 20
18.5800122448
 30
0.0
 10
25.8352125143
 20
18.4935413047
 30
0.0
 10
25.5444556575
 20
18.4363656944
 30
0.0
 10
25.2672187166
 20
18.4048842354
 30
0.0
 10
25.0870969955
 20
18.3982437565
 30
0.0
 10
25.0
 20
18.3982433071
 30
0.0
 11
25.0
 21
25.4972458163
 31
0.0
 11
25.2584750821
 21
25.4878102974
 31
0.0
 11
25.5302321653
 21
25.4573680521
 31
0.0
 11
25.8152763703
 21
25.4022267998
 31
0.0
 11
26.1129139879
 21
25.3180301514
 31
0.0
 11
26.4184256096
 21
25.2011276908
 31
0.0
 11
26.7192889724
 21
25.0524661518
 31
0.0
 11
27.00299572
 21
24.8772387244
 31
0.0
 11
27.2653583569
 21
24.6791685348
 31
0.0
 11
27.5085423836
 21
24.4573830838
 31
0.0
 11
27.7411108473
 21
24.2007095418
 31
0.0
 11
27.9678893356
 21
23.8918506983
 31
0.0
 11
28.1841684784
 21
23.5121350323
 31
0.0
 11
28.3704571624
 21
23.05442192
 31
0.0
 11
28.4996268955
 21
22.5275860863
 31
0.0
 11
28.547274084
 21
21.9536135508
 31
0.0
 11
28.5016164534
 21
21.3800502901
 31
0.0
 11
28.3747719689
 21
20.8543085475
 31
0.0
 11
28.1912654673
 21
20.3978985983
 31
0.0
 11
27.9779209885
 21
20.0190576334
 31
0.0
 11
27.754022622
 21
19.7106003512
 31
0.0
 11
27.523447757
 21
19.4531121401
 31
0.0
 11
27.2812909321
 21
19.2296295785
 31
0.0
 11
27.0189165911
 21
19.0292130184
 31
0.0
 11
26.7354794131
 21
18.8520548676
 31
0.0
 11
26.4353467394
 21
18.7018001671
 31
0.0
 11
26.1295037516
 21
18.5829891245
 31
0.0
 11
25.8287057268
 21
18.496463152
 31
0.0
 11
25.538202287
 21
18.4393358635
 31
0.0
 11
25.2611134909
 21
18.4078726587
 31
0.0
 11
25.0
 21
18.3982433071
 31
0.0
  0
SPLINE
  5
42D
100
AcDbEntity
  8
RACCORDO
100
AcDbSpline
 62
253
  6
CONTINUOUS
 70
0
 71
3
 72
37
 73
33
 74
31
 42
0.0000001
 43
0.0000001
 44
0.0000000001
 12
-11.1414648889
 22
0.0000171995
 32
0.0
 13
11.1414648888
 23
0.000057491
 33
0.0
 40
0.0
 40
0.0
 40
0.0
 40
0.0
 40
0.0232148328
 40
0.0477588978
 40
0.0738172938
 40
0.1015800126
 40
0.1309400611
 40
0.1610606577
 40
0.1909901061
 40
0.2204955497
 40
0.2500366438
 40
0.2811246553
 40
0.3155163572
 40
0.3547383496
 40
0.3990925519
 40
0.4477791199
 40
0.499473113
 40
0.5511160208
 40
0.5996578472
 40
0.643809975
 40
0.6828338469
 40
0.7170440143
 40
0.7480665971
 40
0.7776427299
 40
0.8072763755
 40
0.8372767284
 40
0.8674022832
 40
0.8968517081
 40
0.9249445597
 40
0.9515180116
 40
0.9765478787
 40
1.0
 40
1.0
 40
1.0
 40
1.0
 10
-25.0
 20
-35.6307623963
 30
0.0
 10
-25.0862157482
 20
-35.6307622632
 30
0.0
 10
-25.2636500502
 20
-35.62428658
 30
0.0
 10
-25.5363490659
 20
-35.5937375401
 30
0.0
 10
-25.8224090154
 20
-35.5384012719
 30
0.0
 10
-26.1200409155
 20
-35.4542063008
 30
0.0
 10
-26.4230814923
 20
-35.338249777
 30
0.0
 10
-26.7212221916
 20
-35.1909328553
 30
0.0
 10
-27.0046101926
 20
-35.0159009253
 30
0.0
 10
-27.2687122836
 20
-34.8165162175
 30
0.0
 10
-27.5163963526
 20
-34.590625927
 30
0.0
 10
-27.7537212137
 20
-34.3287041192
 30
0.0
 10
-27.9843033397
 20
-34.0146696497
 30
0.0
 10
-28.2016911233
 20
-33.6330194525
 30
0.0
 10
-28.387468349
 20
-33.1765843663
 30
0.0
 10
-28.5159754078
 20
-32.6524888971
 30
0.0
 10
-28.562895022
 20
-32.0873456854
 30
0.0
 10
-28.5179330137
 20
-31.5225899201
 30
0.0
 10
-28.391713317
 20
-30.9994777854
 30
0.0
 10
-28.2086360746
 20
-30.5441565581
 30
0.0
 10
-27.9941774469
 20
-30.1633492052
 30
0.0
 10
-27.7662935058
 20
-29.8494057108
 30
0.0
 10
-27.531034218
 20
-29.5866872504
 30
0.0
 10
-27.284420505
 20
-29.3590906484
 30
0.0
 10
-27.0207537338
 20
-29.1576854402
 30
0.0
 10
-26.7376585235
 20
-28.9807397623
 30
0.0
 10
-26.439741381
 20
-28.8315934762
 30
0.0
 10
-26.1358189629
 20
-28.7135288248
 30
0.0
 10
-25.8352125143
 20
-28.6270578847
 30
0.0
 10
-25.5444556575
 20
-28.5698822744
 30
0.0
 10
-25.2672187166
 20
-28.5384008154
 30
0.0
 10
-25.0870969955
 20
-28.5317603365
 30
0.0
 10
-25.0
 20
-28.5317598871
 30
0.0
 11
-25.0
 21
-35.6307623963
 31
0.0
 11
-25.2584750821
 21
-35.6213268774
 31
0.0
 11
-25.5302321653
 21
-35.5908846321
 31
0.0
 11
-25.8152763703
 21
-35.5357433798
 31
0.0
 11
-26.1129139879
 21
-35.4515467314
 31
0.0
 11
-26.4184256096
 21
-35.3346442708
 31
0.0
 11
-26.7192889724
 21
-35.1859827318
 31
0.0
 11
-27.00299572
 21
-35.0107553044
 31
0.0
 11
-27.2653583569
 21
-34.8126851148
 31
0.0
 11
-27.5085423836
 21
-34.5908996638
 31
0.0
 11
-27.7411108473
 21
-34.3342261218
 31
0.0
 11
-27.9678893356
 21
-34.0253672782
 31
0.0
 11
-28.1841684784
 21
-33.6456516123
 31
0.0
 11
-28.3704571624
 21
-33.1879385
 31
0.0
 11
-28.4996268955
 21
-32.6611026663
 31
0.0
 11
-28.547274084
 21
-32.0871301308
 31
0.0
 11
-28.5016164534
 21
-31.5135668701
 31
0.0
 11
-28.3747719689
 21
-30.9878251275
 31
0.0
 11
-28.1912654673
 21
-30.5314151783
 31
0.0
 11
-27.9779209885
 21
-30.1525742134
 31
0.0
 11
-27.754022622
 21
-29.8441169312
 31
0.0
 11
-27.5234477569
 21
-29.5866287201
 31
0.0
 11
-27.2812909321
 21
-29.3631461585
 31
0.0
 11
-27.0189165911
 21
-29.1627295984
 31
0.0
 11
-26.7354794131
 21
-28.9855714476
 31
0.0
 11
-26.4353467393
 21
-28.8353167471
 31
0.0
 11
-26.1295037516
 21
-28.7165057045
 31
0.0
 11
-25.8287057268
 21
-28.629979732
 31
0.0
 11
-25.538202287
 21
-28.5728524435
 31
0.0
 11
-25.2611134909
 21
-28.5413892387
 31
0.0
 11
-25.0
 21
-28.5317598871
 31
0.0
  0
SPLINE
  5
42E
100
AcDbEntity
  8
RACCORDO
100
AcDbSpline
 62
253
  6
CONTINUOUS
 70
0
 71
3
 72
37
 73
33
 74
31
 42
0.0000001
 43
0.0000001
 44
0.0000000001
 12
11.1414650865
 22
-0.0000181907
 32
0.0
 13
-11.1414650864
 23
-0.0000561587
 33
0.0
 40
0.0
 40
0.0
 40
0.0
 40
0.0
 40
0.0233519031
 40
0.0480281865
 40
0.074207914
 40
0.1020748958
 40
0.1315177098
 40
0.1617051581
 40
0.1917015279
 40
0.2212834192
 40
0.2509155671
 40
0.2821149469
 40
0.3166353225
 40
0.3559956292
 40
0.4004711876
 40
0.4492486795
 40
0.500976434
 40
0.5525794895
 40
0.6010254282
 40
0.6450546008
 40
0.6839398195
 40
0.7180227535
 40
0.7489356637
 40
0.7784219166
 40
0.807979724
 40
0.8379121085
 40
0.867970313
 40
0.8973375691
 40
0.9253277581
 40
0.9517821069
 40
0.9766821674
 40
1.0
 40
1.0
 40
1.0
 40
1.0
 10
-25.0
 20
-28.5317598871
 30
0.0
 10
-24.9132751955
 20
-28.5317600287
 30
0.0
 10
-24.7348396201
 20
-28.5383107263
 30
0.0
 10
-24.4607144309
 20
-28.5691969518
 30
0.0
 10
-24.1734031246
 20
-28.6250846034
 30
0.0
 10
-23.8747829775
 20
-28.710008382
 30
0.0
 10
-23.5710546476
 20
-28.826815625
 30
0.0
 10
-23.2724742212
 20
-28.9750642618
 30
0.0
 10
-22.9887937199
 20
-29.151113252
 30
0.0
 10
-22.7244656513
 20
-29.3516481858
 30
0.0
 10
-22.4766074411
 20
-29.578889358
 30
0.0
 10
-22.2392258754
 20
-29.8424251307
 30
0.0
 10
-22.0088527751
 20
-30.1583641044
 30
0.0
 10
-21.7921762047
 20
-30.5420890387
 30
0.0
 10
-21.6077996214
 20
-31.0005094401
 30
0.0
 10
-21.4814220827
 20
-31.5260742422
 30
0.0
 10
-21.4371170042
 20
-32.091749233
 30
0.0
 10
-21.4846780644
 20
-32.655906368
 30
0.0
 10
-21.6129902358
 20
-33.1775074094
 30
0.0
 10
-21.7974288775
 20
-33.6308318295
 30
0.0
 10
-22.0125731852
 20
-34.0095791521
 30
0.0
 10
-22.2406562313
 20
-34.3216419999
 30
0.0
 10
-22.4758611359
 20
-34.582770246
 30
0.0
 10
-22.7223069333
 20
-34.8090326849
 30
0.0
 10
-22.985748445
 20
-35.0092955377
 30
0.0
 10
-23.268546655
 20
-35.1852290562
 30
0.0
 10
-23.5660194612
 20
-35.3334497086
 30
0.0
 10
-23.8692598782
 20
-35.4506714919
 30
0.0
 10
-24.1688947736
 20
-35.536419789
 30
0.0
 10
-24.4584237162
 20
-35.5930479414
 30
0.0
 10
-24.7342619713
 20
-35.6241955177
 30
0.0
 10
-24.9134017272
 20
-35.6307619598
 30
0.0
 10
-25.0
 20
-35.6307623963
 30
0.0
 11
-25.0
 21
-28.5317598871
 31
0.0
 11
-24.740000817
 21
-28.5413071543
 31
0.0
 11
-24.4667993932
 21
-28.5720879761
 31
0.0
 11
-24.1804856138
 21
-28.6277830907
 31
0.0
 11
-23.8818481717
 21
-28.7127118268
 31
0.0
 11
-23.5756734352
 21
-28.8304603034
 31
0.0
 11
-23.2744291326
 21
-28.9800308679
 31
0.0
 11
-22.99046298
 21
-29.156255749
 31
0.0
 11
-22.7278892447
 21
-29.3554584274
 31
0.0
 11
-22.4845392103
 21
-29.5785656645
 31
0.0
 11
-22.2518951552
 21
-29.8368430956
 31
0.0
 11
-22.0252967408
 21
-30.1476101037
 31
0.0
 11
-21.8096787785
 21
-30.5294723245
 31
0.0
 11
-21.6247822364
 21
-30.9892072424
 31
0.0
 11
-21.4977337619
 21
-31.5176006064
 31
0.0
 11
-21.4527377656
 21
-32.092164378
 31
0.0
 11
-21.5010302766
 21
-32.6650662232
 31
0.0
 11
-21.6299560954
 21
-33.1892013443
 31
0.0
 11
-21.8148174784
 21
-33.643585621
 31
0.0
 11
-22.0287963513
 21
-34.0202930298
 31
0.0
 11
-22.2528672823
 21
-34.3268709018
 31
0.0
 11
-22.4833709721
 21
-34.5827806838
 31
0.0
 11
-22.7253681915
 21
-34.8049580318
 31
0.0
 11
-22.9875361548
 21
-35.0042513568
 31
0.0
 11
-23.2707025212
 21
-35.1804126476
 31
0.0
 11
-23.5704473019
 21
-35.3297646158
 31
0.0
 11
-23.8756328428
 21
-35.4477386312
 31
0.0
 11
-24.1754491593
 21
-35.5335387915
 31
0.0
 11
-24.4647082918
 21
-35.5901156573
 31
0.0
 11
-24.740379645
 21
-35.6212430013
 31
0.0
 11
-25.0
 21
-35.6307623963
 31
0.0
  0
SPLINE
  5
42F
100
AcDbEntity
  8
RACCORDO
100
AcDbSpline
 62
253
  6
CONTINUOUS
 70
0
 71
3
 72
16
 73
12
 74
10
 42
0.0000001
 43
0.0000001
 44
0.0000000001
 12
0.0003034303
 22
3.4528362583
 32
0.0
 13
3.4528362659
 23
0.0001974492
 33
0.0
 40
0.0
 40
0.0
 40
0.0
 40
0.0
 40
0.106925894
 40
0.2186959911
 40
0.3324543509
 40
0.4456998969
 40
0.557964169
 40
0.6712412597
 40
0.7847600302
 40
0.8955470484
 40
1.0
 40
1.0
 40
1.0
 40
1.0
 10
3.55
 20
11.1971822304
 30
0.0
 10
3.5500108149
 20
11.3202480983
 30
0.0
 10
3.571171967
 20
11.5724530493
 30
0.0
 10
3.6683466879
 20
11.9444998967
 30
0.0
 10
3.8325920198
 20
12.3004449375
 30
0.0
 10
4.0576457692
 20
12.6220621314
 30
0.0
 10
4.3354126801
 20
12.8985922189
 30
0.0
 10
4.657860774
 20
13.1220413766
 30
0.0
 10
5.013308508
 20
13.2840603664
 30
0.0
 10
5.3815848452
 20
13.3786627426
 30
0.0
 10
5.6297803535
 20
13.3990626877
 30
0.0
 10
5.75
 20
13.3990695624
 30
0.0
 11
3.55
 21
11.1971822304
 31
0.0
 11
3.5809255246
 21
11.5650823304
 31
0.0
 11
3.6784300982
 21
11.9384856948
 31
0.0
 11
3.8430181028
 21
12.2951283452
 31
0.0
 11
4.0671987793
 21
12.615500563
 31
0.0
 11
4.341909213
 21
12.8889805645
 31
0.0
 11
4.6633970607
 21
13.1117496994
 31
0.0
 11
5.020050248
 21
13.2743304501
 31
0.0
 11
5.3905568303
 21
13.3694810731
 31
0.0
 11
5.75
 21
13.3990695624
 31
0.0
  0
SPLINE
  5
430
100
AcDbEntity
  8
RACCORDO
100
AcDbSpline
 62
253
  6
CONTINUOUS
 70
0
 71
3
 72
16
 73
12
 74
10
 42
0.0000001
 43
0.0000001
 44
0.0000000001
 12
-3.4528354516
 22
0.000267707
 32
0.0
 13
-0.0002349087
 23
3.452835454
 33
0.0
 40
0.0
 40
0.0
 40
0.0
 40
0.0
 40
0.103728295
 40
0.2141285749
 40
0.3276355194
 40
0.4410754303
 40
0.5534104829
 40
0.6666243204
 40
0.7804540475
 40
0.8925550961
 40
1.0
 40
1.0
 40
1.0
 40
1.0
 10
5.75
 20
-23.5325861424
 30
0.0
 10
5.6306144219
 20
-23.5325768862
 30
0.0
 10
5.3837077987
 20
-23.5124291911
 30
0.0
 10
5.0165646351
 20
-23.4186860984
 30
0.0
 10
4.6610818755
 20
-23.2574043567
 30
0.0
 10
4.3380509
 20
-23.0343353277
 30
0.0
 10
4.0597154959
 20
-22.7580423133
 30
0.0
 10
3.8341309095
 20
-22.43664312
 30
0.0
 10
3.669210776
 20
-22.080534811
 30
0.0
 10
3.5713603972
 20
-21.7075524922
 30
0.0
 10
3.5500084132
 20
-21.4543620016
 30
0.0
 10
3.55
 20
-21.3306988104
 30
0.0
 11
5.75
 21
-23.5325861424
 31
0.0
 11
5.3930337872
 21
-23.5034078979
 31
0.0
 11
5.0236834609
 21
-23.4091253262
 31
0.0
 11
4.6667823616
 21
-23.2471885449
 31
0.0
 11
4.3444671458
 21
-23.0246274375
 31
0.0
 11
4.069186112
 21
-22.7513749101
 31
0.0
 11
3.8446124882
 21
-22.4314118799
 31
0.0
 11
3.6794255046
 21
-22.0747747788
 31
0.0
 11
3.581227452
 21
-21.7003717883
 31
0.0
 11
3.55
 21
-21.3306988104
 31
0.0
  0
SPLINE
  5
431
100
AcDbEntity
  8
RACCORDO
100
AcDbSpline
 62
253
  6
CONTINUOUS
 70
0
 71
3
 72
16
 73
12
 74
10
 42
0.0000001
 43
0.0000001
 44
0.0000000001
 12
-0.0003034303
 22
-3.4528362583
 32
0.0
 13
-3.4528362659
 23
-0.0001974492
 33
0.0
 40
0.0
 40
0.0
 40
0.0
 40
0.0
 40
0.106925894
 40
0.2186959911
 40
0.3324543509
 40
0.4456998969
 40
0.557964169
 40
0.6712412597
 40
0.7847600302
 40
0.8955470484
 40
1.0
 40
1.0
 40
1.0
 40
1.0
 10
21.45
 20
-21.3306988104
 30
0.0
 10
21.4499891851
 20
-21.4537646783
 30
0.0
 10
21.428828033
 20
-21.7059696293
 30
0.0
 10
21.3316533121
 20
-22.0780164767
 30
0.0
 10
21.1674079802
 20
-22.4339615175
 30
0.0
 10
20.9423542308
 20
-22.7555787114
 30
0.0
 10
20.6645873199
 20
-23.0321087989
 30
0.0
 10
20.342139226
 20
-23.2555579566
 30
0.0
 10
19.986691492
 20
-23.4175769464
 30
0.0
 10
19.6184151548
 20
-23.5121793226
 30
0.0
 10
19.3702196465
 20
-23.5325792677
 30
0.0
 10
19.25
 20
-23.5325861424
 30
0.0
 11
21.45
 21
-21.3306988104
 31
0.0
 11
21.4190744754
 21
-21.6985989104
 31
0.0
 11
21.3215699018
 21
-22.0720022748
 31
0.0
 11
21.1569818972
 21
-22.4286449252
 31
0.0
 11
20.9328012207
 21
-22.749017143
 31
0.0
 11
20.658090787
 21
-23.0224971445
 31
0.0
 11
20.3366029393
 21
-23.2452662794
 31
0.0
 11
19.979949752
 21
-23.4078470301
 31
0.0
 11
19.6094431697
 21
-23.5029976531
 31
0.0
 11
19.25
 21
-23.5325861424
 31
0.0
  0
SPLINE
  5
432
100
AcDbEntity
  8
RACCORDO
100
AcDbSpline
 62
253
  6
CONTINUOUS
 70
0
 71
3
 72
12
 73
8
 74
6
 42
0.0000001
 43
0.0000001
 44
0.0000000001
 12
-0.3008933055
 22
-0.0
 32
0.0
 13
-0.0
 23
-0.3008933055
 33
0.0
 40
0.0
 40
0.0
 40
0.0
 40
0.0
 40
0.3081079184
 40
0.5861264528
 40
0.806939408
 40
0.9491449558
 40
1.0
 40
1.0
 40
1.0
 40
1.0
 10
-3.55
 20
11.1971822304
 30
0.0
 10
-3.5809025367
 20
11.1971822304
 30
0.0
 10
-3.6401996488
 20
11.197020889
 30
0.0
 10
-3.7191523429
 20
11.1942444911
 30
0.0
 10
-3.7884346154
 20
11.1939922548
 30
0.0
 10
-3.8201456583
 20
11.1860470883
 30
0.0
 10
-3.85
 20
11.1883423574
 30
0.0
 10
-3.85
 20
11.18324171
 30
0.0
 11
-3.55
 21
11.1971822304
 31
0.0
 11
-3.6427050992
 21
11.1964999328
 31
0.0
 11
-3.726335577
 21
11.1945198279
 31
0.0
 11
-3.7927050994
 21
11.1914357423
 31
0.0
 11
-3.8353169553
 21
11.1875495677
 31
0.0
 11
-3.85
 21
11.18324171
 31
0.0
  0
SPLINE
  5
433
100
AcDbEntity
  8
RACCORDO
100
AcDbSpline
 62
253
  6
CONTINUOUS
 70
0
 71
3
 72
12
 73
8
 74
6
 42
0.0000001
 43
0.0000001
 44
0.0000000001
 12
0.300893308
 22
-0.0000000007
 32
0.0
 13
0.0
 23
-0.300893308
 33
0.0
 40
0.0
 40
0.0
 40
0.0
 40
0.0
 40
0.3081114648
 40
0.5861306634
 40
0.8069421857
 40
0.9491458154
 40
1.0
 40
1.0
 40
1.0
 40
1.0
 10
-21.45
 20
11.1971822304
 30
0.0
 10
-21.4190971074
 20
11.1971822304
 30
0.0
 10
-21.3597995637
 20
11.1970208836
 30
0.0
 10
-21.2808466054
 20
11.1942444615
 30
0.0
 10
-21.2115646234
 20
11.1939921805
 30
0.0
 10
-21.1798538822
 20
11.1860471168
 30
0.0
 10
-21.15
 20
11.1883422707
 30
0.0
 10
-21.15
 20
11.1832417095
 30
0.0
 11
-21.45
 21
11.1971822304
 31
0.0
 11
-21.357293833
 21
11.1964999165
 31
0.0
 11
-21.2736631552
 21
11.1945197848
 31
0.0
 11
-21.2072940644
 21
11.1914356883
 31
0.0
 11
-21.1646827861
 21
11.1875495302
 31
0.0
 11
-21.15
 21
11.1832417095
 31
0.0
  0
SPLINE
  5
434
100
AcDbEntity
  8
RACCORDO
100
AcDbSpline
 62
253
  6
CONTINUOUS
 70
0
 71
3
 72
12
 73
8
 74
6
 42
0.0000001
 43
0.0000001
 44
0.0000000001
 12
0.3008933055
 22
0.0
 32
0.0
 13
0.0
 23
0.3008933055
 33
0.0
 40
0.0
 40
0.0
 40
0.0
 40
0.0
 40
0.3081079184
 40
0.5861264528
 40
0.806939408
 40
0.9491449558
 40
1.0
 40
1.0
 40
1.0
 40
1.0
 10
-21.45
 20
-21.3306988104
 30
0.0
 10
-21.4190974633
 20
-21.3306988104
 30
0.0
 10
-21.3598003512
 20
-21.330537469
 30
0.0
 10
-21.2808476571
 20
-21.3277610711
 30
0.0
 10
-21.2115653846
 20
-21.3275088348
 30
0.0
 10
-21.1798543417
 20
-21.3195636683
 30
0.0
 10
-21.15
 20
-21.3218589375
 30
0.0
 10
-21.15
 20
-21.31675829
 30
0.0
 11
-21.45
 21
-21.3306988104
 31
0.0
 11
-21.3572949008
 21
-21.3300165128
 31
0.0
 11
-21.273664423
 21
-21.3280364079
 31
0.0
 11
-21.2072949006
 21
-21.3249523223
 31
0.0
 11
-21.1646830447
 21
-21.3210661477
 31
0.0
 11
-21.15
 21
-21.31675829
 31
0.0
  0
SPLINE
  5
435
100
AcDbEntity
  8
RACCORDO
100
AcDbSpline
 62
253
  6
CONTINUOUS
 70
0
 71
3
 72
14
 73
10
 74
8
 42
0.0000001
 43
0.0000001
 44
0.0000000001
 12
-1.5000079569
 22
0.0130903711
 32
0.0
 13
0.0130893866
 23
1.5000079655
 33
0.0
 40
0.0
 40
0.0
 40
0.0
 40
0.0
 40
0.0251436929
 40
0.0991155984
 40
0.2182485097
 40
0.3765757571
 40
0.5661614582
 40
0.7775013415
 40
1.0
 40
1.0
 40
1.0
 40
1.0
 10
-98.9969697735
 20
-46.4872055886
 30
0.0
 10
-99.0095416866
 20
-46.4870958752
 30
0.0
 10
-98.9852987723
 20
-46.4077472087
 30
0.0
 10
-99.0110334469
 20
-46.3267637508
 30
0.0
 10
-98.9984489149
 20
-46.1356857965
 30
0.0
 10
-99.0038406134
 20
-45.9084811486
 30
0.0
 10
-99.0009429732
 20
-45.6266057407
 30
0.0
 10
-98.9997759448
 20
-45.3156085667
 30
0.0
 10
-98.9979405638
 20
-45.0985126241
 30
0.0
 10
-98.9969697735
 20
-44.987262704
 30
0.0
 11
-98.9969697735
 21
-46.4872055886
 31
0.0
 11
-98.9995540152
 21
-46.4495770485
 31
0.0
 11
-99.001352369
 21
-46.3386289503
 31
0.0
 11
-99.0022746663
 21
-46.1599242108
 31
0.0
 11
-99.0022746646
 21
-45.9224230365
 31
0.0
 11
-99.0013523647
 21
-45.6380336432
 31
0.0
 11
-98.9995540113
 21
-45.3210151662
 31
0.0
 11
-98.9969697735
 21
-44.987262704
 31
0.0
  0
SPLINE
  5
436
100
AcDbEntity
  8
RACCORDO
100
AcDbSpline
 62
253
  6
CONTINUOUS
 70
0
 71
3
 72
14
 73
10
 74
8
 42
0.0000001
 43
0.0000001
 44
0.0000000001
 12
-1.5000079567
 22
-0.0130903711
 32
0.0
 13
0.0130893743
 23
-1.5000079654
 33
0.0
 40
0.0
 40
0.0
 40
0.0
 40
0.0
 40
0.025143656
 40
0.0991154662
 40
0.2182482638
 40
0.3765754315
 40
0.5661611341
 40
0.777501127
 40
1.0
 40
1.0
 40
1.0
 40
1.0
 10
-98.9969697735
 20
36.3536890086
 30
0.0
 10
-99.0095416682
 20
36.3535792953
 30
0.0
 10
-98.9852987858
 20
36.2742307355
 30
0.0
 10
-99.0110334323
 20
36.1932473685
 30
0.0
 10
-98.99844891
 20
36.0021695698
 30
0.0
 10
-99.0038406096
 20
35.774965017
 30
0.0
 10
-99.0009429705
 20
35.4930895921
 30
0.0
 10
-98.9997759447
 20
35.1820922562
 30
0.0
 10
-98.9979405638
 20
34.9649961513
 30
0.0
 10
-98.9969697735
 20
34.853746124
 30
0.0
 11
-98.9969697735
 21
36.3536890086
 31
0.0
 11
-98.999554011
 21
36.3160605237
 31
0.0
 11
-99.0013523626
 21
36.2051125685
 31
0.0
 11
-99.0022746602
 21
36.0264079996
 31
0.0
 11
-99.0022746602
 21
35.7889069449
 31
0.0
 11
-99.0013523627
 21
35.5045175494
 31
0.0
 11
-98.9995540111
 21
35.1874989079
 31
0.0
 11
-98.9969697735
 21
34.853746124
 31
0.0
  0
SPLINE
  5
437
100
AcDbEntity
  8
RACCORDO
100
AcDbSpline
 62
253
  6
CONTINUOUS
 70
0
 71
3
 72
25
 73
21
 74
19
 42
0.0000001
 43
0.0000001
 44
0.0000000001
 12
1.4999666205
 22
-0.0136290068
 32
0.0
 13
-0.0087274898
 23
-1.5000031478
 33
0.0
 40
0.0
 40
0.0
 40
0.0
 40
0.0
 40
0.0038393826
 40
0.0152371786
 40
0.0341247618
 40
0.0603608697
 40
0.093746787
 40
0.1340289397
 40
0.1809009113
 40
0.2340061305
 40
0.2929406331
 40
0.3572559874
 40
0.4264627881
 40
0.5000345166
 40
0.5774113479
 40
0.6580042658
 40
0.7412001088
 40
0.8263660881
 40
0.9128533091
 40
1.0
 40
1.0
 40
1.0
 40
1.0
 10
-50.8724066075
 20
36.0928177111
 30
0.0
 10
-50.8704869589
 20
36.0928002688
 30
0.0
 10
-50.8734418254
 20
36.0806887237
 30
0.0
 10
-50.8695936233
 20
36.0679544925
 30
0.0
 10
-50.8709380007
 20
36.0372533804
 30
0.0
 10
-50.8696512419
 20
35.9990701059
 30
0.0
 10
-50.8695722606
 20
35.9487073049
 30
0.0
 10
-50.8691491318
 20
35.8885829649
 30
0.0
 10
-50.8689625609
 20
35.8184031257
 30
0.0
 10
-50.8688162989
 20
35.7389617542
 30
0.0
 10
-50.8687778709
 20
35.6507775468
 30
0.0
 10
-50.8688270877
 20
35.5545489109
 30
0.0
 10
-50.8689703578
 20
35.4509996306
 30
0.0
 10
-50.8692048241
 20
35.340920231
 30
0.0
 10
-50.8695294286
 20
35.2251476979
 30
0.0
 10
-50.8699416139
 20
35.1045633162
 30
0.0
 10
-50.8704384005
 20
34.9800845598
 30
0.0
 10
-50.871015944
 20
34.8526589175
 30
0.0
 10
-50.8716700768
 20
34.7232581578
 30
0.0
 10
-50.8721530901
 20
34.6364408894
 30
0.0
 10
-50.8724066141
 20
34.5928674526
 30
0.0
 11
-50.8724066075
 21
36.0928177111
 31
0.0
 11
-50.8716793582
 21
36.0871046294
 31
0.0
 11
-50.8710239868
 21
36.0700201757
 31
0.0
 11
-50.8704455965
 21
36.0416941665
 31
0.0
 11
-50.8699485187
 21
36.0023423952
 31
0.0
 11
-50.8695365626
 21
35.952264261
 31
0.0
 11
-50.8692128532
 21
35.8918407494
 31
0.0
 11
-50.8689798573
 21
35.8215318406
 31
0.0
 11
-50.8688393468
 21
35.7418726201
 31
0.0
 11
-50.8687923907
 21
35.6534691969
 31
0.0
 11
-50.8688393465
 21
35.5569943415
 31
0.0
 11
-50.868979857
 21
35.4531822606
 31
0.0
 11
-50.8692128533
 21
35.3428228144
 31
0.0
 11
-50.8695365634
 21
35.2267558106
 31
0.0
 11
-50.8699485207
 21
35.1058648358
 31
0.0
 11
-50.8704455991
 21
34.9810696871
 31
0.0
 11
-50.871023993
 21
34.8533195971
 31
0.0
 11
-50.871679362
 21
34.7235879528
 31
0.0
 11
-50.8724066141
 21
34.5928674526
 31
0.0
  0
SPLINE
  5
438
100
AcDbEntity
  8
RACCORDO
100
AcDbSpline
 62
253
  6
CONTINUOUS
 70
0
 71
3
 72
25
 73
21
 74
19
 42
0.0000001
 43
0.0000001
 44
0.0000000001
 12
0.0087287908
 22
-1.5000020357
 32
0.0
 13
-1.4999646501
 23
-0.0137239711
 33
0.0
 40
0.0
 40
0.0
 40
0.0
 40
0.0
 40
0.0871475377
 40
0.1736347939
 40
0.2588008079
 40
0.3419966758
 40
0.422589596
 40
0.4999664218
 40
0.5735381363
 40
0.642744908
 40
0.7070602198
 40
0.765994669
 40
0.8190998223
 40
0.8659717153
 40
0.9062537816
 40
0.939639604
 40
0.9658756039
 40
0.9847630719
 40
0.9961607462
 40
1.0
 40
1.0
 40
1.0
 40
1.0
 10
-50.8724066075
 20
-44.7263851392
 30
0.0
 10
-50.8721530433
 20
-44.7699589672
 30
0.0
 10
-50.8716700984
 20
-44.8567766131
 30
0.0
 10
-50.8710159299
 20
-44.9861777357
 30
0.0
 10
-50.8704384009
 20
-45.1136033316
 30
0.0
 10
-50.8699416109
 20
-45.2380820273
 30
0.0
 10
-50.8695294282
 20
-45.358666331
 30
0.0
 10
-50.869204824
 20
-45.4744387703
 30
0.0
 10
-50.8689703582
 20
-45.5845180646
 30
0.0
 10
-50.8688270881
 20
-45.6880672259
 30
0.0
 10
-50.868777871
 20
-45.7842957286
 30
0.0
 10
-50.8688162986
 20
-45.8724797898
 30
0.0
 10
-50.8689625604
 20
-45.9519210048
 30
0.0
 10
-50.8691491323
 20
-46.0221006739
 30
0.0
 10
-50.8695722595
 20
-46.0822248486
 30
0.0
 10
-50.8696512481
 20
-46.1325874423
 30
0.0
 10
-50.8709379907
 20
-46.170770598
 30
0.0
 10
-50.8695936562
 20
-46.2014713514
 30
0.0
 10
-50.8734417681
 20
-46.2142057082
 30
0.0
 10
-50.8704870324
 20
-46.2263167279
 30
0.0
 10
-50.8724066141
 20
-46.2263342912
 30
0.0
 11
-50.8724066075
 21
-44.7263851392
 31
0.0
 11
-50.8716793582
 21
-44.8571068135
 31
0.0
 11
-50.8710239868
 21
-44.986838415
 31
0.0
 11
-50.8704455965
 21
-45.1145884631
 31
0.0
 11
-50.8699485187
 21
-45.2393835571
 31
0.0
 11
-50.8695365626
 21
-45.3602744464
 31
0.0
 11
-50.8692128532
 21
-45.4763413564
 31
0.0
 11
-50.8689798573
 21
-45.5867007005
 31
0.0
 11
-50.8688393468
 21
-45.6905126615
 31
0.0
 11
-50.8687923907
 21
-45.7869873821
 31
0.0
 11
-50.8688393465
 21
-45.8753906602
 31
0.0
 11
-50.868979857
 21
-45.9550497229
 31
0.0
 11
-50.8692128533
 21
-46.0253584622
 31
0.0
 11
-50.8695365634
 21
-46.0857817996
 31
0.0
 11
-50.8699485207
 21
-46.1358597546
 31
0.0
 11
-50.8704455991
 21
-46.1752113349
 31
0.0
 11
-50.871023993
 21
-46.2035371504
 31
0.0
 11
-50.871679362
 21
-46.2206214089
 31
0.0
 11
-50.8724066141
 21
-46.2263342912
 31
0.0
  0
ELLIPSE
  5
439
100
AcDbEntity
  8
RACCORDO
100
AcDbEllipse
 62
7
  6
CONTINUOUS
 10
32.4999428824
 20
34.9331845924
 30
0.0
 11
-1.0607409467
 21
-1.0607409467
 31
0.0
 40
0.9999238505
 41
8.6394178736
 42
10.210138048
  0
ELLIPSE
  5
43A
100
AcDbEntity
  8
RACCORDO
100
AcDbEllipse
 62
7
  6
CONTINUOUS
 10
32.4999428824
 20
-45.0667011724
 30
0.0
 11
-1.0607409467
 21
1.0607409467
 31
0.0
 40
0.9999238505
 41
8.6394178736
 42
10.210138048
  0
ELLIPSE
  5
43B
100
AcDbEntity
  8
RACCORDO
100
AcDbEllipse
 62
7
  6
CONTINUOUS
 10
-32.4999428824
 20
34.9331845924
 30
0.0
 11
1.0607409467
 21
-1.0607409467
 31
0.0
 40
0.9999238505
 41
2.3562325664
 42
3.9269527408
  0
ELLIPSE
  5
43C
100
AcDbEntity
  8
RACCORDO
100
AcDbEllipse
 62
7
  6
CONTINUOUS
 10
32.4999428824
 20
34.9331845924
 30
0.0
 11
1.0607409467
 21
1.0607409467
 31
0.0
 40
0.9999238505
 41
-0.7853600872
 42
0.7853600872
  0
ELLIPSE
  5
43D
100
AcDbEntity
  8
RACCORDO
100
AcDbEllipse
 62
7
  6
CONTINUOUS
 10
32.4999428824
 20
-45.0667011724
 30
0.0
 11
1.0607409467
 21
-1.0607409467
 31
0.0
 40
0.9999238505
 41
-0.7853600872
 42
0.7853600872
  0
ELLIPSE
  5
43E
100
AcDbEntity
  8
RACCORDO
100
AcDbEllipse
 62
7
  6
CONTINUOUS
 10
-32.4999428824
 20
-45.0667011724
 30
0.0
 11
1.0607409467
 21
1.0607409467
 31
0.0
 40
0.9999238505
 41
2.3562325664
 42
3.9269527408
  0
ENDSEC
  0
SECTION
  2
OBJECTS
  0
DICTIONARY
  5
C
100
AcDbDictionary
280
0
281
1
  3
ACAD_GROUP
350
D
  3
ACAD_MLINESTYLE
350
17
  3
ACAD_LAYOUT
350
1A
  3
ACAD_PLOTSETTINGS
350
19
  3
ACAD_PLOTSTYLENAME
350
E
  0
DICTIONARY
  5
D
102
{ACAD_REACTORS
330
C
102
}
100
AcDbDictionary
280
0
281
1
  0
ACDBDICTIONARYWDFLT
  5
E
102
{ACAD_REACTORS
330
C
102
}
100
AcDbDictionary
281
1
  3
Normal
350
F
100
AcDbDictionaryWithDefault
340
F
  0
DICTIONARY
  5
17
102
{ACAD_REACTORS
330
C
102
}
100
AcDbDictionary
280
0
281
1
  3
Standard
350
18
  0
DICTIONARY
  5
19
102
{ACAD_REACTORS
330
C
102
}
100
AcDbDictionary
281
1
  0
DICTIONARY
  5
1A
102
{ACAD_REACTORS
330
C
102
}
100
AcDbDictionary
281
1
  3
Model
350
43F
  3
Layout1
350
440
  0
ACDBPLACEHOLDER
  5
F
102
{ACAD_REACTORS
330
E
102
}
  0
MLINESTYLE
  5
18
102
{ACAD_REACTORS
330
17
102
}
100
AcDbMlineStyle
  2
STANDARD
 70
0
  3

 62
256
 51
90.0
 52
90.0
 71
2
 49
0.5
 62
256
  6
BYLAYER
 49
-0.5
 62
256
  6
BYLAYER
  0
LAYOUT
  5
43F
102
{ACAD_REACTORS
330
1A
102
}
100
AcDbPlotSettings
  1

  2
none_device
  4
ISO_A4_(297.00_x_210.00_MM)
  6

 40
0.0
 41
0.0
 42
0.0
 43
0.0
 44
297.0
 45
210.0
 46
0.0
 47
0.0
 48
0.0
 49
0.0
140
0.0
141
0.0
142
1.0
143
1.0
 70
1024
 72
1
 73
0
 74
0
  7

 75
0
147
1.0
148
0.0
149
0.0
100
AcDbLayout
  1
Model
 70
0
 71
0
 10
0.0
 20
0.0
 11
297.0
 21
210.0
 12
0.0
 22
0.0
 32
0.0
 14
0.0
 24
0.0
 34
0.0
 15
0.0
 25
0.0
 35
0.0
146
0.0
 13
0.0
 23
0.0
 33
0.0
 16
1.0
 26
0.0
 36
0.0
 17
0.0
 27
1.0
 37
0.0
 76
0
330
218
345
0
346
0
  0
LAYOUT
  5
440
102
{ACAD_REACTORS
330
1A
102
}
100
AcDbPlotSettings
  1

  2
none_device
  4
ISO_A4_(297.00_x_210.00_MM)
  6

 40
0.0
 41
0.0
 42
0.0
 43
0.0
 44
297.0
 45
210.0
 46
0.0
 47
0.0
 48
0.0
 49
0.0
140
0.0
141
0.0
142
1.0
143
1.0
 70
0
 72
1
 73
0
 74
0
  7

 75
0
147
1.0
148
0.0
149
0.0
100
AcDbLayout
  1
Layout1
 70
0
 71
1
 10
0.0
 20
0.0
 11
297.0
 21
210.0
 12
0.0
 22
0.0
 32
0.0
 14
0.0
 24
0.0
 34
0.0
 15
0.0
 25
0.0
 35
0.0
146
0.0
 13
0.0
 23
0.0
 33
0.0
 16
1.0
 26
0.0
 36
0.0
 17
0.0
 27
1.0
 37
0.0
 76
0
330
219
345
0
346
0
  0
ENDSEC
  0
EOF
