  0
SECTION
  2
HEADER
  9
$ACADVER
  1
AC1015
  9
$DWGCODEPAGE
  3
ANSI_1252
  9
$EXTMAX
 10
297.0
 20
210.0
 30
0.0
  9
$EXTMIN
 10
0.0
 20
0.0
 30
0.0
  9
$LIMMIN
 10
0.0
 20
0.0
  9
$LIMMAX
 10
297.0
 20
210.0
  9
$VIEWCTR
 10
148.5
 20
105.0
  9
$VIEWSIZE
 40
210.0
  9
$CLAYER
  8
0
  9
$LTSCALE
 40
16.335
  9
$CELTYPE
  6
BYLAYER
  9
$DIMSCALE
 40
1.0
  9
$DIMASZ
 40
3.0
  9
$DIMEXO
 40
1.85625
  9
$DIMDLI
 40
11.286
  9
$DIMEXE
 40
5.346
  9
$DIMCEN
 40
2.673
  9
$DIMLFAC
 40
1.0
  9
$DIMBLK
  1
_FILLED
  9
$DIMTXT
 40
3.0
  9
$DIMTOL
 70
1
  9
$DIMLIM
 70
0
  9
$DIMTFAC
 40
1.0
  9
$DIMTP
 40
0.01
  9
$DIMTM
 40
0.01
  9
$PDMODE
 70
3
  9
$PDSIZE
 40
3.0
  9
$HANDSEED
  5
42F
  9
$TILEMODE
 70
1
  9
$MEASUREMENT
 70
1
  9
$INSUNITS
 70
4
  0
ENDSEC
  0
SECTION
  2
CLASSES
  0
CLASS
  1
ACDBDICTIONARYWDFLT
  2
AcDbDictionaryWithDefault
  3
AutoCAD 2000
 90
0
280
0
281
0
  0
CLASS
  1
ACDBPLACEHOLDER
  2
AcDbPlaceHolder
  3
AutoCAD 2000
 90
0
280
0
281
0
  0
CLASS
  1
LAYOUT
  2
AcDbLayout
  3
AutoCAD 2000
 90
0
280
0
281
0
  0
ENDSEC
  0
SECTION
  2
TABLES
  0
TABLE
  2
VPORT
  5
8
100
AcDbSymbolTable
 70
2
  0
VPORT
  5
1F4
100
AcDbSymbolTableRecord
100
AcDbViewportTableRecord
  2
*ACTIVE
 70
0
 10
0.0
 20
0.0
 11
1.0
 21
1.0
 12
148.5
 22
105.0
 13
0.0
 23
0.0
 14
1.0
 24
1.0
 15
0.0
 25
0.0
 16
0.0
 26
0.0
 36
1.0
 17
0.0
 27
0.0
 37
0.0
 40
210.0
 41
1.4142857143
 42
50.0
 43
0.0
 44
0.0
 50
0.0
 51
0.0
 71
0
 72
100
 73
1
 74
1
 75
0
 76
0
 77
0
 78
0
  0
ENDTAB
  0
TABLE
  2
LTYPE
  5
5
100
AcDbSymbolTable
 70
6
  0
LTYPE
  5
14
100
AcDbSymbolTableRecord
100
AcDbLinetypeTableRecord
  2
BYBLOCK
 70
0
  3

 72
65
 73
0
 40
0.0
  0
LTYPE
  5
15
100
AcDbSymbolTableRecord
100
AcDbLinetypeTableRecord
  2
BYLAYER
 70
0
  3

 72
65
 73
0
 40
0.0
  0
LTYPE
  5
16
100
AcDbSymbolTableRecord
100
AcDbLinetypeTableRecord
  2
CONTINUOUS
 70
64
  3
Solid line
 72
65
 73
0
 40
0.0
  0
LTYPE
  5
1F5
100
AcDbSymbolTableRecord
100
AcDbLinetypeTableRecord
  2
CENTER
 70
64
  3
____ _ ____ _ ____ _ ____ _ ____ _ ____ _ ____
 72
65
 73
4
 40
0.6
 49
0.375
 74
0
 49
-0.075
 74
0
 49
0.075
 74
0
 49
-0.075
 74
0
  0
LTYPE
  5
1F6
100
AcDbSymbolTableRecord
100
AcDbLinetypeTableRecord
  2
HIDDEN
 70
64
  3
- - - - - - - - - - - - - - - - - - - -
 72
65
 73
2
 40
0.2
 49
0.1
 74
0
 49
-0.1
 74
0
  0
LTYPE
  5
1F7
100
AcDbSymbolTableRecord
100
AcDbLinetypeTableRecord
  2
PHANTOM
 70
64
  3
_____ _ _ _____ _ _ _____ _ _ _____
 72
65
 73
6
 40
0.8
 49
0.45
 74
0
 49
-0.05
 74
0
 49
0.1
 74
0
 49
-0.05
 74
0
 49
0.1
 74
0
 49
-0.05
 74
0
  0
LTYPE
  5
1F8
100
AcDbSymbolTableRecord
100
AcDbLinetypeTableRecord
  2
DOT
 70
64
  3
. . . . . . . . . . . . . . . . . . . .
 72
65
 73
2
 40
0.2
 49
0.1
 74
0
 49
-0.1
 74
0
  0
LTYPE
  5
1F9
100
AcDbSymbolTableRecord
100
AcDbLinetypeTableRecord
  2
DASHED
 70
64
  3
- - - - - - - - - - - - - - - - - - - -
 72
65
 73
2
 40
0.2
 49
0.1
 74
0
 49
-0.1
 74
0
  0
ENDTAB
  0
TABLE
  2
LAYER
  5
2
100
AcDbSymbolTable
 70
36
  0
LAYER
  5
10
100
AcDbSymbolTableRecord
100
AcDbLayerTableRecord
  2
0
 70
0
 62
7
  6
CONTINUOUS
370
-3
390
F
  0
LAYER
  5
1FA
100
AcDbSymbolTableRecord
100
AcDbLayerTableRecord
  2
DEFAULT_1
 70
0
 62
7
  6
CENTER
370
-3
390
F
  0
LAYER
  5
1FB
100
AcDbSymbolTableRecord
100
AcDbLayerTableRecord
  2
DEFAULT_2
 70
0
 62
7
  6
HIDDEN
370
-3
390
F
  0
LAYER
  5
1FC
100
AcDbSymbolTableRecord
100
AcDbLayerTableRecord
  2
DEFAULT_3
 70
0
 62
7
  6
PHANTOM
370
-3
390
F
  0
LAYER
  5
1FD
100
AcDbSymbolTableRecord
100
AcDbLayerTableRecord
  2
ASSI
 70
0
 62
7
  6
CONTINUOUS
370
-3
390
F
  0
LAYER
  5
1FE
100
AcDbSymbolTableRecord
100
AcDbLayerTableRecord
  2
COLOR5
 70
0
 62
7
  6
CONTINUOUS
370
-3
390
F
  0
LAYER
  5
1FF
100
AcDbSymbolTableRecord
100
AcDbLayerTableRecord
  2
COORDINATE
 70
0
 62
7
  6
CONTINUOUS
370
-3
390
F
  0
LAYER
  5
200
100
AcDbSymbolTableRecord
100
AcDbLayerTableRecord
  2
COORD_ORIGINE
 70
0
 62
7
  6
CONTINUOUS
370
-3
390
F
  0
LAYER
  5
201
100
AcDbSymbolTableRecord
100
AcDbLayerTableRecord
  2
COPY_PUBLISH
 70
0
 62
7
  6
CONTINUOUS
370
-3
390
F
  0
LAYER
  5
202
100
AcDbSymbolTableRecord
100
AcDbLayerTableRecord
  2
COSMETIC
 70
0
 62
7
  6
CONTINUOUS
370
-3
390
F
  0
LAYER
  5
203
100
AcDbSymbolTableRecord
100
AcDbLayerTableRecord
  2
CURVE
 70
0
 62
7
  6
CONTINUOUS
370
-3
390
F
  0
LAYER
  5
204
100
AcDbSymbolTableRecord
100
AcDbLayerTableRecord
  2
DRAFT
 70
0
 62
7
  6
CONTINUOUS
370
-3
390
F
  0
LAYER
  5
205
100
AcDbSymbolTableRecord
100
AcDbLayerTableRecord
  2
IMPORT_IGES
 70
0
 62
7
  6
CONTINUOUS
370
-3
390
F
  0
LAYER
  5
206
100
AcDbSymbolTableRecord
100
AcDbLayerTableRecord
  2
INTF_1
 70
0
 62
7
  6
CONTINUOUS
370
-3
390
F
  0
LAYER
  5
207
100
AcDbSymbolTableRecord
100
AcDbLayerTableRecord
  2
INTF_2
 70
0
 62
7
  6
CONTINUOUS
370
-3
390
F
  0
LAYER
  5
208
100
AcDbSymbolTableRecord
100
AcDbLayerTableRecord
  2
NOTE
 70
0
 62
7
  6
CONTINUOUS
370
-3
390
F
  0
LAYER
  5
209
100
AcDbSymbolTableRecord
100
AcDbLayerTableRecord
  2
PIANI
 70
0
 62
7
  6
CONTINUOUS
370
-3
390
F
  0
LAYER
  5
20A
100
AcDbSymbolTableRecord
100
AcDbLayerTableRecord
  2
PIANI_ORIGINE
 70
0
 62
7
  6
CONTINUOUS
370
-3
390
F
  0
LAYER
  5
20B
100
AcDbSymbolTableRecord
100
AcDbLayerTableRecord
  2
PUNTI
 70
0
 62
7
  6
CONTINUOUS
370
-3
390
F
  0
LAYER
  5
20C
100
AcDbSymbolTableRecord
100
AcDbLayerTableRecord
  2
PUNZONI
 70
0
 62
7
  6
CONTINUOUS
370
-3
390
F
  0
LAYER
  5
20D
100
AcDbSymbolTableRecord
100
AcDbLayerTableRecord
  2
RACCORDO
 70
0
 62
7
  6
CONTINUOUS
370
-3
390
F
  0
LAYER
  5
20E
100
AcDbSymbolTableRecord
100
AcDbLayerTableRecord
  2
RGB
 70
0
 62
7
  6
CONTINUOUS
370
-3
390
F
  0
LAYER
  5
20F
100
AcDbSymbolTableRecord
100
AcDbLayerTableRecord
  2
RGB__255__255__255__
 70
0
 62
7
  6
CONTINUOUS
370
-3
390
F
  0
LAYER
  5
210
100
AcDbSymbolTableRecord
100
AcDbLayerTableRecord
  2
RGB____0____0____0__
 70
0
 62
7
  6
CONTINUOUS
370
-3
390
F
  0
LAYER
  5
211
100
AcDbSymbolTableRecord
100
AcDbLayerTableRecord
  2
SMUSSO
 70
0
 62
7
  6
CONTINUOUS
370
-3
390
F
  0
LAYER
  5
212
100
AcDbSymbolTableRecord
100
AcDbLayerTableRecord
  2
SNAPLINE
 70
0
 62
7
  6
CONTINUOUS
370
-3
390
F
  0
LAYER
  5
213
100
AcDbSymbolTableRecord
100
AcDbLayerTableRecord
  2
SUPERFICI
 70
0
 62
7
  6
CONTINUOUS
370
-3
390
F
  0
LAYER
  5
214
100
AcDbSymbolTableRecord
100
AcDbLayerTableRecord
  2
TRASH
 70
0
 62
7
  6
CONTINUOUS
370
-3
390
F
  0
LAYER
  5
215
100
AcDbSymbolTableRecord
100
AcDbLayerTableRecord
  2
XSEC_DATUMS
 70
0
 62
7
  6
CONTINUOUS
370
-3
390
F
  0
ENDTAB
  0
TABLE
  2
STYLE
  5
3
100
AcDbSymbolTable
 70
1
  0
STYLE
  5
11
100
AcDbSymbolTableRecord
100
AcDbTextStyleTableRecord
  2
STANDARD
 70
0
 40
0.0
 41
0.8
 50
0.0
 71
0
 42
0.2
  3
txt
  4

  0
STYLE
  5
216
100
AcDbSymbolTableRecord
100
AcDbTextStyleTableRecord
  2
TEXTSTYLE_1
 70
0
 40
0.0
 41
0.8
 50
0.0
 71
0
 42
0.2
  3
gdt
  4

  0
ENDTAB
  0
TABLE
  2
VIEW
  5
6
100
AcDbSymbolTable
 70
0
  0
ENDTAB
  0
TABLE
  2
UCS
  5
7
100
AcDbSymbolTable
 70
0
  0
ENDTAB
  0
TABLE
  2
APPID
  5
9
100
AcDbSymbolTable
 70
1
  0
APPID
  5
217
100
AcDbSymbolTableRecord
100
AcDbRegAppTableRecord
  2
ACAD
 70
0
  0
ENDTAB
  0
TABLE
  2
BLOCK_RECORD
  5
1
100
AcDbSymbolTable
 70
0
  0
BLOCK_RECORD
  5
218
100
AcDbSymbolTableRecord
100
AcDbBlockTableRecord
  2
*Model_Space
  0
BLOCK_RECORD
  5
219
100
AcDbSymbolTableRecord
100
AcDbBlockTableRecord
  2
*Paper_Space
  0
BLOCK_RECORD
  5
21A
100
AcDbSymbolTableRecord
100
AcDbBlockTableRecord
  2
_FILLED
  0
BLOCK_RECORD
  5
21B
100
AcDbSymbolTableRecord
100
AcDbBlockTableRecord
  2
*D0
  0
BLOCK_RECORD
  5
21C
100
AcDbSymbolTableRecord
100
AcDbBlockTableRecord
  2
*D1
  0
BLOCK_RECORD
  5
21D
100
AcDbSymbolTableRecord
100
AcDbBlockTableRecord
  2
*D2
  0
BLOCK_RECORD
  5
21E
100
AcDbSymbolTableRecord
100
AcDbBlockTableRecord
  2
*D3
  0
BLOCK_RECORD
  5
21F
100
AcDbSymbolTableRecord
100
AcDbBlockTableRecord
  2
*D4
  0
BLOCK_RECORD
  5
220
100
AcDbSymbolTableRecord
100
AcDbBlockTableRecord
  2
*D5
  0
ENDTAB
  0
TABLE
  2
DIMSTYLE
  5
A
100
AcDbSymbolTable
 70
1
100
AcDbDimStyleTable
 71
0
  0
DIMSTYLE
105
221
100
AcDbSymbolTableRecord
100
AcDbDimStyleTableRecord
  2
STANDARD
 70
0
  3

  4

 40
1.0
 41
3.0
 42
0.0625
 43
0.38
 44
0.18
 45
0.0
 46
0.0
 47
0.01
 48
0.01
140
3.0
141
0.09
142
0.0
143
25.4
144
1.0
145
0.0
146
1.0
147
0.09
 71
1.0
 72
0.0
 73
0
 74
0
 75
0
 76
0
 77
1
 78
8
170
0
171
2
172
0
173
0
174
0
175
0
176
0
177
0
178
0
270
2
271
2
272
2
273
2
274
2
275
0
280
0
281
0
282
0
283
1
284
8
285
0
286
0
287
3
288
0
340
11
341
21A
342
21A
343
21A
344
21A
  0
DIMSTYLE
105
222
100
AcDbSymbolTableRecord
100
AcDbDimStyleTableRecord
  2
DIMSTYLE_1
 70
0
  3

  4

 40
1.0
 41
3.0
 42
0.0625
 43
0.38
 44
0.18
 45
0.0
 46
0.0
 47
0.0
 48
0.0
140
3.0
141
0.09
142
0.0
143
25.4
144
1.0
145
0.0
146
1.0
147
0.09
 71
0.0
 72
0.0
 73
0
 74
0
 75
0
 76
0
 77
1
 78
8
170
0
171
2
172
0
173
0
174
0
175
0
176
0
177
0
178
0
270
2
271
2
272
2
273
2
274
2
275
0
280
0
281
0
282
0
283
1
284
8
285
0
286
0
287
3
288
0
340
11
341
21A
342
21A
343
21A
344
21A
  0
DIMSTYLE
105
223
100
AcDbSymbolTableRecord
100
AcDbDimStyleTableRecord
  2
DIMSTYLE_2
 70
0
  3

  4

 40
1.0
 41
3.0
 42
0.0625
 43
0.38
 44
0.18
 45
0.0
 46
0.0
 47
0.0
 48
0.0
140
3.0
141
0.09
142
0.0
143
25.4
144
1.0
145
0.0
146
1.0
147
0.09
 71
0.0
 72
0.0
 73
0
 74
0
 75
0
 76
0
 77
1
 78
8
170
0
171
2
172
0
173
0
174
0
175
0
176
0
177
0
178
0
270
2
271
0
272
0
273
2
274
2
275
0
280
0
281
0
282
0
283
1
284
8
285
0
286
0
287
3
288
0
340
11
341
21A
342
21A
343
21A
344
21A
  0
ENDTAB
  0
ENDSEC
  0
SECTION
  2
BLOCKS
  0
BLOCK
  5
20
100
AcDbEntity
  8
0
100
AcDbBlockBegin
  2
*Model_Space
 70
0
 10
0.0
 20
0.0
 30
0.0
  3
*Model_Space
  1

  0
ENDBLK
  5
21
100
AcDbEntity
  8
0
100
AcDbBlockEnd
  0
BLOCK
  5
1C
100
AcDbEntity
  8
0
100
AcDbBlockBegin
  2
*Paper_Space
 70
0
 10
0.0
 20
0.0
 30
0.0
  3
*Paper_Space
  1

  0
ENDBLK
  5
1D
100
AcDbEntity
  8
0
100
AcDbBlockEnd
  0
BLOCK
  5
224
100
AcDbEntity
  8
0
100
AcDbBlockBegin
  2
_FILLED
 70
64
 10
0.0
 20
0.0
  3
_FILLED
  1

  0
SOLID
  5
225
100
AcDbEntity
  8
0
  6
BYBLOCK
 62
0
100
AcDbTrace
 10
0.0
 20
0.0
 11
-1.0
 21
0.3166666667
 12
-1.0
 22
-0.3166666667
 13
-1.0
 23
-0.3166666667
  0
ENDBLK
  5
226
100
AcDbEntity
  8
0
  6
BYBLOCK
 62
0
100
AcDbBlockEnd
  0
BLOCK
  5
227
100
AcDbEntity
  8
0
100
AcDbBlockBegin
 62
7
  6
CONTINUOUS
  2
*D0
 70
65
 10
0.0
 20
0.0
  3
*D0
  1

  0
MTEXT
  5
228
100
AcDbEntity
  8
0
100
AcDbMText
 62
7
  6
CONTINUOUS
  7
STANDARD
 71
2
 72
1
 10
0.0
 20
58.3874495667
 30
0.0
 11
1.0
 21
0.0
 31
0.0
 44
0.9
  1
68
 40
3.0
 41
4.7142857143
  0
LINE
  5
229
100
AcDbEntity
  8
0
100
AcDbLine
 62
7
  6
CONTINUOUS
 10
-34.0
 20
35.4330491358
 11
-34.0
 21
56.1374495667
  0
LINE
  5
22A
100
AcDbEntity
  8
0
100
AcDbLine
 62
7
  6
CONTINUOUS
 10
34.0
 20
35.4330491358
 11
34.0
 21
56.1374495667
  0
LINE
  5
22B
100
AcDbEntity
  8
0
100
AcDbLine
 62
7
  6
CONTINUOUS
 10
-34.0
 20
54.6374495667
 11
0.0
 21
54.6374495667
  0
LINE
  5
22C
100
AcDbEntity
  8
0
100
AcDbLine
 62
7
  6
CONTINUOUS
 10
34.0
 20
54.6374495667
 11
0.0
 21
54.6374495667
  0
INSERT
  5
22D
100
AcDbEntity
  8
0
100
AcDbBlockReference
 62
7
  6
CONTINUOUS
  2
_FILLED
 10
-34.0
 20
54.6374495667
 41
3.0
 42
3.0
 43
3.0
 50
180.0
  0
INSERT
  5
22E
100
AcDbEntity
  8
0
100
AcDbBlockReference
 62
7
  6
CONTINUOUS
  2
_FILLED
 10
34.0
 20
54.6374495667
 41
3.0
 42
3.0
 43
3.0
  0
ENDBLK
  5
22F
100
AcDbEntity
  8
0
  6
BYBLOCK
 62
0
100
AcDbBlockEnd
  0
BLOCK
  5
230
100
AcDbEntity
  8
0
100
AcDbBlockBegin
 62
7
  6
CONTINUOUS
  2
*D1
 70
65
 10
0.0
 20
0.0
  3
*D1
  1

  0
MTEXT
  5
231
100
AcDbEntity
  8
0
100
AcDbMText
 62
7
  6
CONTINUOUS
  7
STANDARD
 71
2
 72
1
 10
38.25
 20
-5.0670079796
 30
0.0
 11
0.0
 21
1.0
 31
0.0
 44
0.9
  1
83
 40
3.0
 41
4.5
  0
LINE
  5
232
100
AcDbEntity
  8
0
100
AcDbLine
 62
7
  6
CONTINUOUS
 10
33.0000571154
 20
36.4329920204
 11
43.5
 21
36.4329920204
  0
LINE
  5
233
100
AcDbEntity
  8
0
100
AcDbLine
 62
7
  6
CONTINUOUS
 10
33.0000571154
 20
-46.5670079796
 11
43.5
 21
-46.5670079796
  0
LINE
  5
234
100
AcDbEntity
  8
0
100
AcDbLine
 62
7
  6
CONTINUOUS
 10
42.0
 20
36.4329920204
 11
42.0
 21
-5.0670079796
  0
LINE
  5
235
100
AcDbEntity
  8
0
100
AcDbLine
 62
7
  6
CONTINUOUS
 10
42.0
 20
-46.5670079796
 11
42.0
 21
-5.0670079796
  0
INSERT
  5
236
100
AcDbEntity
  8
0
100
AcDbBlockReference
 62
7
  6
CONTINUOUS
  2
_FILLED
 10
42.0
 20
36.4329920204
 41
3.0
 42
3.0
 43
3.0
 50
90.0
  0
INSERT
  5
237
100
AcDbEntity
  8
0
100
AcDbBlockReference
 62
7
  6
CONTINUOUS
  2
_FILLED
 10
42.0
 20
-46.5670079796
 41
3.0
 42
3.0
 43
3.0
 50
270.0
  0
ENDBLK
  5
238
100
AcDbEntity
  8
0
  6
BYBLOCK
 62
0
100
AcDbBlockEnd
  0
BLOCK
  5
239
100
AcDbEntity
  8
0
100
AcDbBlockBegin
 62
7
  6
CONTINUOUS
  2
*D2
 70
65
 10
0.0
 20
0.0
  3
*D2
  1

  0
MTEXT
  5
23A
100
AcDbEntity
  8
0
100
AcDbMText
 62
7
  6
CONTINUOUS
  7
STANDARD
 71
2
 72
1
 10
-76.0003094481
 20
58.3874495667
 30
0.0
 11
1.0
 21
0.0
 31
0.0
 44
0.9
  1
40
 40
3.0
 41
4.7142857143
  0
LINE
  5
23B
100
AcDbEntity
  8
0
100
AcDbLine
 62
7
  6
CONTINUOUS
 10
-56.0003094481
 20
35.0926251366
 11
-56.0003094481
 21
56.1374495667
  0
LINE
  5
23C
100
AcDbEntity
  8
0
100
AcDbLine
 62
7
  6
CONTINUOUS
 10
-96.0003094481
 20
35.4330491358
 11
-96.0003094481
 21
56.1374495667
  0
LINE
  5
23D
100
AcDbEntity
  8
0
100
AcDbLine
 62
7
  6
CONTINUOUS
 10
-56.0003094481
 20
54.6374495667
 11
-76.0003094481
 21
54.6374495667
  0
LINE
  5
23E
100
AcDbEntity
  8
0
100
AcDbLine
 62
7
  6
CONTINUOUS
 10
-96.0003094481
 20
54.6374495667
 11
-76.0003094481
 21
54.6374495667
  0
INSERT
  5
23F
100
AcDbEntity
  8
0
100
AcDbBlockReference
 62
7
  6
CONTINUOUS
  2
_FILLED
 10
-56.0003094481
 20
54.6374495667
 41
3.0
 42
3.0
 43
3.0
  0
INSERT
  5
240
100
AcDbEntity
  8
0
100
AcDbBlockReference
 62
7
  6
CONTINUOUS
  2
_FILLED
 10
-96.0003094481
 20
54.6374495667
 41
3.0
 42
3.0
 43
3.0
 50
180.0
  0
ENDBLK
  5
241
100
AcDbEntity
  8
0
  6
BYBLOCK
 62
0
100
AcDbBlockEnd
  0
BLOCK
  5
242
100
AcDbEntity
  8
0
100
AcDbBlockBegin
 62
7
  6
CONTINUOUS
  2
*D3
 70
65
 10
0.0
 20
0.0
  3
*D3
  1

  0
MTEXT
  5
243
100
AcDbEntity
  8
0
100
AcDbMText
 62
7
  6
CONTINUOUS
  7
STANDARD
 71
2
 72
1
 10
48.25
 20
0.0352207935
 30
0.0
 11
0.0
 21
1.0
 31
0.0
 44
0.9
  1
93
 40
3.0
 41
4.5
  0
LINE
  5
244
100
AcDbEntity
  8
0
100
AcDbLine
 62
7
  6
CONTINUOUS
 10
33.0000571154
 20
-46.5670079796
 11
53.5
 21
-46.5670079796
  0
LINE
  5
245
100
AcDbEntity
  8
0
100
AcDbLine
 62
7
  6
CONTINUOUS
 10
-0.5
 20
46.6374495667
 11
53.5
 21
46.6374495667
  0
LINE
  5
246
100
AcDbEntity
  8
0
100
AcDbLine
 62
7
  6
CONTINUOUS
 10
52.0
 20
-46.5670079796
 11
52.0
 21
0.0352207935
  0
LINE
  5
247
100
AcDbEntity
  8
0
100
AcDbLine
 62
7
  6
CONTINUOUS
 10
52.0
 20
46.6374495667
 11
52.0
 21
0.0352207935
  0
INSERT
  5
248
100
AcDbEntity
  8
0
100
AcDbBlockReference
 62
7
  6
CONTINUOUS
  2
_FILLED
 10
52.0
 20
-46.5670079796
 41
3.0
 42
3.0
 43
3.0
 50
270.0
  0
INSERT
  5
249
100
AcDbEntity
  8
0
100
AcDbBlockReference
 62
7
  6
CONTINUOUS
  2
_FILLED
 10
52.0
 20
46.6374495667
 41
3.0
 42
3.0
 43
3.0
 50
90.0
  0
ENDBLK
  5
24A
100
AcDbEntity
  8
0
  6
BYBLOCK
 62
0
100
AcDbBlockEnd
  0
BLOCK
  5
24B
100
AcDbEntity
  8
0
100
AcDbBlockBegin
 62
7
  6
CONTINUOUS
  2
*D4
 70
65
 10
0.0
 20
0.0
  3
*D4
  1

  0
MTEXT
  5
24C
100
AcDbEntity
  8
0
100
AcDbMText
 62
7
  6
CONTINUOUS
  7
STANDARD
 71
2
 72
1
 10
-84.0003094481
 20
68.3874495667
 30
0.0
 11
1.0
 21
0.0
 31
0.0
 44
0.9
  1
56
 40
3.0
 41
4.5
  0
LINE
  5
24D
100
AcDbEntity
  8
0
100
AcDbLine
 62
7
  6
CONTINUOUS
 10
-56.0003094481
 20
-44.2266410959
 11
-56.0003094481
 21
66.1374495667
  0
LINE
  5
24E
100
AcDbEntity
  8
0
100
AcDbLine
 62
7
  6
CONTINUOUS
 10
-112.0003094481
 20
-4.5670079796
 11
-112.0003094481
 21
66.1374495667
  0
LINE
  5
24F
100
AcDbEntity
  8
0
100
AcDbLine
 62
7
  6
CONTINUOUS
 10
-56.0003094481
 20
64.6374495667
 11
-84.0003094481
 21
64.6374495667
  0
LINE
  5
250
100
AcDbEntity
  8
0
100
AcDbLine
 62
7
  6
CONTINUOUS
 10
-112.0003094481
 20
64.6374495667
 11
-84.0003094481
 21
64.6374495667
  0
INSERT
  5
251
100
AcDbEntity
  8
0
100
AcDbBlockReference
 62
7
  6
CONTINUOUS
  2
_FILLED
 10
-56.0003094481
 20
64.6374495667
 41
3.0
 42
3.0
 43
3.0
  0
INSERT
  5
252
100
AcDbEntity
  8
0
100
AcDbBlockReference
 62
7
  6
CONTINUOUS
  2
_FILLED
 10
-112.0003094481
 20
64.6374495667
 41
3.0
 42
3.0
 43
3.0
 50
180.0
  0
ENDBLK
  5
253
100
AcDbEntity
  8
0
  6
BYBLOCK
 62
0
100
AcDbBlockEnd
  0
BLOCK
  5
254
100
AcDbEntity
  8
0
100
AcDbBlockBegin
 62
7
  6
CONTINUOUS
  2
*D5
 70
65
 10
0.0
 20
0.0
  3
*D5
  1

  0
MTEXT
  5
255
100
AcDbEntity
  8
0
100
AcDbMText
 62
7
  6
CONTINUOUS
  7
STANDARD
 71
2
 72
1
 10
-104.0003094481
 20
58.3874495667
 30
0.0
 11
1.0
 21
0.0
 31
0.0
 44
0.9
  1
16
 40
3.0
 41
4.0714285714
  0
LINE
  5
256
100
AcDbEntity
  8
0
100
AcDbLine
 62
7
  6
CONTINUOUS
 10
-112.0003094481
 20
-4.5670079796
 11
-112.0003094481
 21
56.1374495667
  0
LINE
  5
257
100
AcDbEntity
  8
0
100
AcDbLine
 62
7
  6
CONTINUOUS
 10
-96.0003094481
 20
35.4330491358
 11
-96.0003094481
 21
56.1374495667
  0
LINE
  5
258
100
AcDbEntity
  8
0
100
AcDbLine
 62
7
  6
CONTINUOUS
 10
-112.0003094481
 20
54.6374495667
 11
-104.0003094481
 21
54.6374495667
  0
LINE
  5
259
100
AcDbEntity
  8
0
100
AcDbLine
 62
7
  6
CONTINUOUS
 10
-96.0003094481
 20
54.6374495667
 11
-104.0003094481
 21
54.6374495667
  0
INSERT
  5
25A
100
AcDbEntity
  8
0
100
AcDbBlockReference
 62
7
  6
CONTINUOUS
  2
_FILLED
 10
-112.0003094481
 20
54.6374495667
 41
3.0
 42
3.0
 43
3.0
 50
180.0
  0
INSERT
  5
25B
100
AcDbEntity
  8
0
100
AcDbBlockReference
 62
7
  6
CONTINUOUS
  2
_FILLED
 10
-96.0003094481
 20
54.6374495667
 41
3.0
 42
3.0
 43
3.0
  0
ENDBLK
  5
25C
100
AcDbEntity
  8
0
  6
BYBLOCK
 62
0
100
AcDbBlockEnd
  0
ENDSEC
  0
SECTION
  2
ENTITIES
  0
DIMENSION
  5
25D
100
AcDbEntity
  8
0
100
AcDbDimension
 62
7
  6
CONTINUOUS
  2
*D0
 10
34.0
 20
54.6374495667
 11
-2.3571428571
 21
56.8874495667
 70
160
 71
2
 42
68.0
  3
DIMSTYLE_1
100
AcDbAlignedDimension
 13
-34.0
 23
35.4330491358
 14
34.0
 24
35.4330491358
100
AcDbRotatedDimension
  0
DIMENSION
  5
25E
100
AcDbEntity
  8
0
100
AcDbDimension
 62
7
  6
CONTINUOUS
  2
*D1
 10
42.0
 20
-46.5670079796
 11
40.7581656363
 21
-7.0785004727
 70
160
 71
2
 42
83.0
  3
DIMSTYLE_1
100
AcDbAlignedDimension
 13
33.0000571154
 23
36.4329920204
 14
33.0000571154
 24
-46.5670079796
 50
270.0
100
AcDbRotatedDimension
  0
DIMENSION
  5
25F
100
AcDbEntity
  8
0
100
AcDbDimension
 62
7
  6
CONTINUOUS
  2
*D2
 10
-96.0003094481
 20
54.6374495667
 11
-78.3574523052
 21
56.8874495667
 70
160
 71
2
 42
40.0
  3
DIMSTYLE_1
100
AcDbAlignedDimension
 13
-56.0003094481
 23
35.0926251366
 14
-96.0003094481
 24
35.4330491358
 50
180.0
100
AcDbRotatedDimension
  0
DIMENSION
  5
260
100
AcDbEntity
  8
0
100
AcDbDimension
 62
7
  6
CONTINUOUS
  2
*D3
 10
52.0
 20
46.6374495667
 11
50.7581656363
 21
-1.9762716996
 70
160
 71
2
 42
93.2044575463
  3
DIMSTYLE_2
100
AcDbAlignedDimension
 13
33.0000571154
 23
-46.5670079796
 14
-0.5
 24
46.6374495667
 50
90.0
100
AcDbRotatedDimension
  0
DIMENSION
  5
261
100
AcDbEntity
  8
0
100
AcDbDimension
 62
7
  6
CONTINUOUS
  2
*D4
 10
-112.0003094481
 20
64.6374495667
 11
-86.2503094481
 21
66.8874495667
 70
160
 71
2
 42
56.0
  3
DIMSTYLE_1
100
AcDbAlignedDimension
 13
-56.0003094481
 23
-44.2266410959
 14
-112.0003094481
 24
-4.5670079796
 50
180.0
100
AcDbRotatedDimension
  0
DIMENSION
  5
262
100
AcDbEntity
  8
0
100
AcDbDimension
 62
7
  6
CONTINUOUS
  2
*D5
 10
-96.0003094481
 20
54.6374495667
 11
-106.0360237338
 21
56.8874495667
 70
160
 71
2
 42
16.0
  3
DIMSTYLE_1
100
AcDbAlignedDimension
 13
-112.0003094481
 23
-4.5670079796
 14
-96.0003094481
 24
35.4330491358
100
AcDbRotatedDimension
  0
LINE
  5
263
100
AcDbEntity
  8
RACCORDO
100
AcDbLine
 62
7
  6
CONTINUOUS
 10
32.5000571154
 20
-46.5670079796
 11
-32.5000571154
 21
-46.5670079796
  0
LINE
  5
264
100
AcDbEntity
  8
RACCORDO
100
AcDbLine
 62
253
  6
CONTINUOUS
 10
32.4205053945
 20
-46.4874562587
 11
-32.4205053944
 21
-46.4874562587
  0
LINE
  5
265
100
AcDbEntity
  8
RACCORDO
100
AcDbLine
 62
253
  6
CONTINUOUS
 10
32.3903975079
 20
-42.0153712061
 11
-32.3903975079
 21
-42.0153711975
  0
LINE
  5
266
100
AcDbEntity
  8
ASSI
100
AcDbLine
 62
7
  6
CONTINUOUS
 10
27.305315
 20
-39.5669939796
 11
27.936092
 21
-39.5669869796
  0
LINE
  5
267
100
AcDbEntity
  8
ASSI
100
AcDbLine
 62
7
  6
CONTINUOUS
 10
22.963796
 20
-39.5670009796
 11
23.523817
 21
-39.5669939796
  0
LINE
  5
268
100
AcDbEntity
  8
ASSI
100
AcDbLine
 62
7
  6
CONTINUOUS
 10
20.94095
 20
-39.5670009796
 11
21.500957
 21
-39.5669939796
  0
LINE
  5
269
100
AcDbEntity
  8
ASSI
100
AcDbLine
 62
7
  6
CONTINUOUS
 10
18.731435
 20
-39.5670079796
 11
19.291456
 21
-39.5670009796
  0
LINE
  5
26A
100
AcDbEntity
  8
ASSI
100
AcDbLine
 62
7
  6
CONTINUOUS
 10
16.899024
 20
-39.5670079796
 11
17.459066
 21
-39.5670009796
  0
LINE
  5
26B
100
AcDbEntity
  8
ASSI
100
AcDbLine
 62
7
  6
CONTINUOUS
 10
19.851463
 20
-39.5670009796
 11
20.411484
 21
-39.5670009796
  0
LINE
  5
26C
100
AcDbEntity
  8
ASSI
100
AcDbLine
 62
7
  6
CONTINUOUS
 10
22.03043
 20
-39.5670009796
 11
22.590451
 21
-39.5670009796
  0
LINE
  5
26D
100
AcDbEntity
  8
ASSI
100
AcDbLine
 62
7
  6
CONTINUOUS
 10
25.695238
 20
-39.5669939796
 11
26.255266
 21
-39.5669939796
  0
LINE
  5
26E
100
AcDbEntity
  8
ASSI
100
AcDbLine
 62
7
  6
CONTINUOUS
 10
24.761865
 20
-39.5669939796
 11
25.321893
 21
-39.5670009796
  0
LINE
  5
26F
100
AcDbEntity
  8
ASSI
100
AcDbLine
 62
7
  6
CONTINUOUS
 10
23.700616
 20
-39.0163319796
 11
24.585073
 21
-39.0163319796
  0
LINE
  5
270
100
AcDbEntity
  8
ASSI
100
AcDbLine
 62
7
  6
CONTINUOUS
 10
24.414245
 20
-38.4843109796
 11
23.871437
 21
-38.4843109796
  0
LINE
  5
271
100
AcDbEntity
  8
ASSI
100
AcDbLine
 62
7
  6
CONTINUOUS
 10
26.255329
 20
-38.4843039796
 11
26.744104
 21
-38.4843109796
  0
LINE
  5
272
100
AcDbEntity
  8
ASSI
100
AcDbLine
 62
7
  6
CONTINUOUS
 10
26.928888
 20
-37.9662829796
 11
26.247545
 21
-37.9662829796
  0
LINE
  5
273
100
AcDbEntity
  8
0
100
AcDbLine
 62
7
  6
CONTINUOUS
 10
-24.6549273753
 20
-33.2386129606
 11
-24.7611776175
 21
-33.1891142734
  0
LINE
  5
274
100
AcDbEntity
  8
0
100
AcDbLine
 62
7
  6
CONTINUOUS
 10
-25.3450726247
 20
-30.8954029987
 11
-25.2388223825
 21
-30.9449016859
  0
LINE
  5
275
100
AcDbEntity
  8
ASSI
100
AcDbLine
 62
7
  6
CONTINUOUS
 10
26.247538
 20
-37.2848889796
 11
26.928888
 21
-37.2848889796
  0
LINE
  5
276
100
AcDbEntity
  8
ASSI
100
AcDbLine
 62
7
  6
CONTINUOUS
 10
22.590451
 20
-36.7668749796
 11
21.74385
 21
-36.7668749796
  0
LINE
  5
277
100
AcDbEntity
  8
ASSI
100
AcDbLine
 62
7
  6
CONTINUOUS
 10
20.698064
 20
-36.7668749796
 11
19.851463
 21
-36.7668749796
  0
LINE
  5
278
100
AcDbEntity
  8
ASSI
100
AcDbLine
 62
7
  6
CONTINUOUS
 10
19.291463
 20
-36.7668749796
 11
18.731442
 21
-36.7668749796
  0
LINE
  5
279
100
AcDbEntity
  8
ASSI
100
AcDbLine
 62
7
  6
CONTINUOUS
 10
18.358097
 20
-36.7668749796
 11
17.798069
 21
-36.7668749796
  0
LINE
  5
27A
100
AcDbEntity
  8
ASSI
100
AcDbLine
 62
7
  6
CONTINUOUS
 10
16.560028
 20
-36.7668749796
 11
16.0
 21
-36.7668749796
  0
LINE
  5
27B
100
AcDbEntity
  8
ASSI
100
AcDbLine
 62
7
  6
CONTINUOUS
 10
27.006618
 20
-36.7668679796
 11
25.695238
 21
-36.7668679796
  0
LINE
  5
27C
100
AcDbEntity
  8
ASSI
100
AcDbLine
 62
7
  6
CONTINUOUS
 10
24.422862
 20
-36.7668679796
 11
23.862813
 21
-36.7668679796
  0
LINE
  5
27D
100
AcDbEntity
  8
RACCORDO
100
AcDbLine
 62
7
  6
CONTINUOUS
 10
-34.0
 20
34.9330491358
 11
-34.0
 21
-45.067065095
  0
LINE
  5
27E
100
AcDbEntity
  8
0
100
AcDbLine
 62
7
  6
CONTINUOUS
 10
-22.1678446783
 20
-32.6670079796
 11
-24.5461926334
 21
-32.6670079796
  0
LINE
  5
27F
100
AcDbEntity
  8
0
100
AcDbLine
 62
7
  6
CONTINUOUS
 10
-25.4538073666
 20
-32.6670079796
 11
-27.8321553217
 21
-32.6670079796
  0
LINE
  5
280
100
AcDbEntity
  8
0
100
AcDbLine
 62
7
  6
CONTINUOUS
 10
-27.8321553217
 20
-31.4670079796
 11
-25.4538073666
 21
-31.4670079796
  0
LINE
  5
281
100
AcDbEntity
  8
0
100
AcDbLine
 62
7
  6
CONTINUOUS
 10
-24.5461926334
 20
-31.4670079796
 11
-22.1678446783
 21
-31.4670079796
  0
LINE
  5
282
100
AcDbEntity
  8
RACCORDO
100
AcDbLine
 62
253
  6
CONTINUOUS
 10
25.2937884187
 20
-27.8770893136
 11
-25.2937884187
 21
-27.8770893136
  0
LINE
  5
283
100
AcDbEntity
  8
RACCORDO
100
AcDbLine
 62
253
  6
CONTINUOUS
 10
25.0438264949
 20
-27.6108344746
 11
-25.0438264949
 21
-27.6108344746
  0
LINE
  5
284
100
AcDbEntity
  8
DRAFT
100
AcDbLine
 62
7
  6
CONTINUOUS
 10
25.0
 20
-27.5670079796
 11
-25.0
 21
-27.5670079796
  0
LINE
  5
285
100
AcDbEntity
  8
DRAFT
100
AcDbLine
 62
7
  6
CONTINUOUS
 10
-25.0
 20
-27.5670079796
 11
-25.0
 21
17.4329920204
  0
LWPOLYLINE
  5
286
100
AcDbEntity
  8
RACCORDO
100
AcDbPolyline
 62
7
  6
CONTINUOUS
 90
10
 70
0
 10
-25.0441090879
 20
-27.6116425961
 10
-25.0440776996
 20
-27.6115008498
 10
-25.0440463107
 20
-27.6113721021
 10
-25.044014921
 20
-27.611256353
 10
-25.0439835334
 20
-27.6111536156
 10
-25.043952145
 20
-27.6110638769
 10
-25.0439207478
 20
-27.6109870973
 10
-25.043889339
 20
-27.6109232639
 10
-25.0438579214
 20
-27.6108723896
 10
-25.0438264949
 20
-27.6108344746
  0
LINE
  5
287
100
AcDbEntity
  8
0
100
AcDbLine
 62
7
  6
CONTINUOUS
 10
-14.0
 20
37.8600572185
 11
-14.0
 21
36.4374495667
  0
LINE
  5
288
100
AcDbEntity
  8
0
100
AcDbLine
 62
7
  6
CONTINUOUS
 10
-11.85
 20
40.2641734084
 11
-11.85
 21
39.8374495667
  0
LINE
  5
289
100
AcDbEntity
  8
0
100
AcDbLine
 62
7
  6
CONTINUOUS
 10
-11.35
 20
39.8374495667
 11
-11.35
 21
39.3374495667
  0
LINE
  5
28A
100
AcDbEntity
  8
0
100
AcDbLine
 62
7
  6
CONTINUOUS
 10
-10.1
 20
42.1043657873
 11
-10.1
 21
41.6374495667
  0
LINE
  5
28B
100
AcDbEntity
  8
0
100
AcDbLine
 62
7
  6
CONTINUOUS
 10
-9.45
 20
41.6374495667
 11
-9.45
 21
41.1374495667
  0
LINE
  5
28C
100
AcDbEntity
  8
0
100
AcDbLine
 62
7
  6
CONTINUOUS
 10
-8.35
 20
43.8775708681
 11
-8.35
 21
43.4374495667
  0
LINE
  5
28D
100
AcDbEntity
  8
0
100
AcDbLine
 62
7
  6
CONTINUOUS
 10
-7.85
 20
43.4374495667
 11
-7.85
 21
42.9374495667
  0
LINE
  5
28E
100
AcDbEntity
  8
0
100
AcDbLine
 62
7
  6
CONTINUOUS
 10
25.2388223726
 20
23.0550983074
 11
25.3450726739
 21
23.1045969093
  0
LINE
  5
28F
100
AcDbEntity
  8
0
100
AcDbLine
 62
7
  6
CONTINUOUS
 10
24.7611776274
 20
20.8108857334
 11
24.6549273261
 21
20.7613871314
  0
LINE
  5
290
100
AcDbEntity
  8
RACCORDO
100
AcDbLine
 62
7
  6
CONTINUOUS
 10
25.0
 20
-9.0670079796
 11
20.0
 21
-9.0670079796
  0
LINE
  5
291
100
AcDbEntity
  8
ASSI
100
AcDbLine
 62
7
  6
CONTINUOUS
 10
-20.0
 20
-9.0670079796
 11
-25.0
 21
-9.0670079796
  0
LINE
  5
292
100
AcDbEntity
  8
RACCORDO
100
AcDbLine
 62
253
  6
CONTINUOUS
 10
32.5000571154
 20
-46.5670079796
 11
32.4205053945
 21
-46.4874562587
  0
LINE
  5
293
100
AcDbEntity
  8
RACCORDO
100
AcDbLine
 62
253
  6
CONTINUOUS
 10
34.0
 20
-45.067065095
 11
33.9204472986
 21
-44.9875123936
  0
LWPOLYLINE
  5
294
100
AcDbEntity
  8
RACCORDO
100
AcDbPolyline
 62
7
  6
CONTINUOUS
 90
10
 70
0
 10
-25.0438264949
 20
17.4768185153
 10
-25.0438579215
 20
17.4768564305
 10
-25.0438893392
 20
17.476907305
 10
-25.0439207481
 20
17.4769711387
 10
-25.0439521453
 20
17.4770479184
 10
-25.0439835338
 20
17.4771376574
 10
-25.0440149216
 20
17.4772403958
 10
-25.0440463117
 20
17.4773561468
 10
-25.0440777012
 20
17.4774848973
 10
-25.0441090902
 20
17.477626647
  0
LINE
  5
295
100
AcDbEntity
  8
0
100
AcDbLine
 62
7
  6
CONTINUOUS
 10
-4.1
 20
45.5766089734
 11
-4.1
 21
45.2374495667
  0
LINE
  5
296
100
AcDbEntity
  8
RACCORDO
100
AcDbLine
 62
7
  6
CONTINUOUS
 10
-4.099997855
 20
45.2374495667
 11
-4.099997855
 21
45.5766089738
  0
LINE
  5
297
100
AcDbEntity
  8
0
100
AcDbLine
 62
7
  6
CONTINUOUS
 10
-3.6
 20
45.2374495667
 11
-3.6
 21
44.7374495667
  0
LINE
  5
298
100
AcDbEntity
  8
RACCORDO
100
AcDbLine
 62
7
  6
CONTINUOUS
 10
-25.0438264949
 20
17.4768185153
 11
-25.0
 21
17.4329920204
  0
LINE
  5
299
100
AcDbEntity
  8
RACCORDO
100
AcDbLine
 62
253
  6
CONTINUOUS
 10
32.420505358
 20
36.353440263
 11
32.5000571154
 21
36.4329920204
  0
LINE
  5
29A
100
AcDbEntity
  8
RACCORDO
100
AcDbLine
 62
253
  6
CONTINUOUS
 10
33.9204472986
 20
34.8534964344
 11
34.0
 21
34.9330491358
  0
LINE
  5
29B
100
AcDbEntity
  8
RACCORDO
100
AcDbLine
 62
7
  6
CONTINUOUS
 10
-25.0
 20
-1.0670079796
 11
-20.0
 21
-1.0670079796
  0
LINE
  5
29C
100
AcDbEntity
  8
ASSI
100
AcDbLine
 62
7
  6
CONTINUOUS
 10
20.0
 20
-1.0670079796
 11
25.0
 21
-1.0670079796
  0
LINE
  5
29D
100
AcDbEntity
  8
RACCORDO
100
AcDbLine
 62
7
  6
CONTINUOUS
 10
25.0
 20
-27.5670079796
 11
25.0438264949
 21
-27.6108344746
  0
LINE
  5
29E
100
AcDbEntity
  8
0
100
AcDbLine
 62
7
  6
CONTINUOUS
 10
3.5999981166
 20
44.7374495667
 11
3.5999981166
 21
45.2374495667
  0
LINE
  5
29F
100
AcDbEntity
  8
RACCORDO
100
AcDbLine
 62
7
  6
CONTINUOUS
 10
4.099997855
 20
45.2374495667
 11
4.099997855
 21
45.5766089738
  0
LINE
  5
2A0
100
AcDbEntity
  8
0
100
AcDbLine
 62
7
  6
CONTINUOUS
 10
4.1
 20
45.5766089734
 11
4.1
 21
45.2374495667
  0
LINE
  5
2A1
100
AcDbEntity
  8
RACCORDO
100
AcDbLine
 62
7
  6
CONTINUOUS
 10
-25.0
 20
-27.5670079796
 11
-25.0438264949
 21
-27.6108344746
  0
LINE
  5
2A2
100
AcDbEntity
  8
RACCORDO
100
AcDbLine
 62
253
  6
CONTINUOUS
 10
-34.0
 20
34.9330491358
 11
-33.9204472986
 21
34.8534964344
  0
LINE
  5
2A3
100
AcDbEntity
  8
RACCORDO
100
AcDbLine
 62
253
  6
CONTINUOUS
 10
-32.5000571154
 20
36.4329920204
 11
-32.4205053581
 21
36.3534402631
  0
LWPOLYLINE
  5
2A4
100
AcDbEntity
  8
RACCORDO
100
AcDbPolyline
 62
7
  6
CONTINUOUS
 90
10
 70
0
 10
25.0438264949
 20
-27.6108344746
 10
25.0438579215
 20
-27.6108723898
 10
25.0438893392
 20
-27.6109232642
 10
25.0439207481
 20
-27.610987098
 10
25.0439521442
 20
-27.6110638732
 10
25.0439835316
 20
-27.6111536076
 10
25.0440149216
 20
-27.6112563551
 10
25.0440463183
 20
-27.6113721333
 10
25.0440777178
 20
-27.6115009245
 10
25.04410912
 20
-27.6116427286
  0
LINE
  5
2A5
100
AcDbEntity
  8
ASSI
100
AcDbLine
 62
7
  6
CONTINUOUS
 10
16.0
 20
-36.7668749796
 11
16.899024
 21
-39.5670079796
  0
LINE
  5
2A6
100
AcDbEntity
  8
0
100
AcDbLine
 62
7
  6
CONTINUOUS
 10
7.85
 20
43.4374495667
 11
7.85
 21
42.9374495667
  0
LINE
  5
2A7
100
AcDbEntity
  8
RACCORDO
100
AcDbLine
 62
7
  6
CONTINUOUS
 10
25.0
 20
17.4329920204
 11
25.0438264949
 21
17.4768185153
  0
LINE
  5
2A8
100
AcDbEntity
  8
RACCORDO
100
AcDbLine
 62
253
  6
CONTINUOUS
 10
-33.9204472986
 20
-44.9875123936
 11
-34.0
 21
-45.067065095
  0
LINE
  5
2A9
100
AcDbEntity
  8
ASSI
100
AcDbLine
 62
7
  6
CONTINUOUS
 10
26.744104
 20
-38.4843109796
 11
27.305315
 21
-39.5669939796
  0
LINE
  5
2AA
100
AcDbEntity
  8
ASSI
100
AcDbLine
 62
7
  6
CONTINUOUS
 10
27.936092
 20
-39.5669869796
 11
27.3399777907
 21
-38.4169616466
  0
LINE
  5
2AB
100
AcDbEntity
  8
ASSI
100
AcDbLine
 62
7
  6
CONTINUOUS
 10
17.179052
 20
-38.6949129796
 11
16.560028
 21
-36.7668749796
  0
LINE
  5
2AC
100
AcDbEntity
  8
0
100
AcDbLine
 62
7
  6
CONTINUOUS
 10
8.35
 20
43.8775708681
 11
8.35
 21
43.4374495667
  0
LINE
  5
2AD
100
AcDbEntity
  8
0
100
AcDbLine
 62
7
  6
CONTINUOUS
 10
9.45
 20
41.6374495667
 11
9.45
 21
41.1374495667
  0
LINE
  5
2AE
100
AcDbEntity
  8
0
100
AcDbLine
 62
7
  6
CONTINUOUS
 10
10.1
 20
42.1043657873
 11
10.1
 21
41.6374495667
  0
LINE
  5
2AF
100
AcDbEntity
  8
0
100
AcDbLine
 62
7
  6
CONTINUOUS
 10
11.35
 20
39.8374495667
 11
11.35
 21
39.3374495667
  0
LINE
  5
2B0
100
AcDbEntity
  8
0
100
AcDbLine
 62
7
  6
CONTINUOUS
 10
11.85
 20
40.2641734084
 11
11.85
 21
39.8374495667
  0
LINE
  5
2B1
100
AcDbEntity
  8
RACCORDO
100
AcDbLine
 62
253
  6
CONTINUOUS
 10
-32.4205053944
 20
-46.4874562587
 11
-32.5000571154
 21
-46.5670079796
  0
LINE
  5
2B2
100
AcDbEntity
  8
ASSI
100
AcDbLine
 62
7
  6
CONTINUOUS
 10
24.142834
 20
-37.6389629796
 11
24.414245
 21
-38.4843109796
  0
LINE
  5
2B3
100
AcDbEntity
  8
ASSI
100
AcDbLine
 62
7
  6
CONTINUOUS
 10
24.585073
 20
-39.0163319796
 11
24.761865
 21
-39.5669939796
  0
LINE
  5
2B4
100
AcDbEntity
  8
ASSI
100
AcDbLine
 62
7
  6
CONTINUOUS
 10
25.321893
 20
-39.5670009796
 11
24.422862
 21
-36.7668679796
  0
LINE
  5
2B5
100
AcDbEntity
  8
ASSI
100
AcDbLine
 62
7
  6
CONTINUOUS
 10
20.411484
 20
-37.7205059796
 11
20.94095
 21
-39.5670009796
  0
LINE
  5
2B6
100
AcDbEntity
  8
ASSI
100
AcDbLine
 62
7
  6
CONTINUOUS
 10
21.220957
 20
-38.5904169796
 11
20.698064
 21
-36.7668749796
  0
LINE
  5
2B7
100
AcDbEntity
  8
0
100
AcDbLine
 62
7
  6
CONTINUOUS
 10
14.0
 20
37.8600572185
 11
14.0
 21
36.4374495667
  0
LINE
  5
2B8
100
AcDbEntity
  8
ASSI
100
AcDbLine
 62
7
  6
CONTINUOUS
 10
18.731442
 20
-36.7668749796
 11
18.731435
 21
-39.5670079796
  0
LINE
  5
2B9
100
AcDbEntity
  8
ASSI
100
AcDbLine
 62
7
  6
CONTINUOUS
 10
19.291456
 20
-39.5670009796
 11
19.291463
 21
-36.7668749796
  0
LINE
  5
2BA
100
AcDbEntity
  8
0
100
AcDbLine
 62
7
  6
CONTINUOUS
 10
-24.7611776274
 20
-30.9449016926
 11
-24.6549273261
 21
-30.8954030907
  0
LINE
  5
2BB
100
AcDbEntity
  8
0
100
AcDbLine
 62
7
  6
CONTINUOUS
 10
-25.2388223726
 20
-33.1891142666
 11
-25.3450726739
 21
-33.2386128686
  0
LINE
  5
2BC
100
AcDbEntity
  8
DRAFT
100
AcDbLine
 62
7
  6
CONTINUOUS
 10
-25.0
 20
17.4329920204
 11
25.0
 21
17.4329920204
  0
LINE
  5
2BD
100
AcDbEntity
  8
RACCORDO
100
AcDbLine
 62
253
  6
CONTINUOUS
 10
-25.0438264949
 20
17.4768185153
 11
25.0438264949
 21
17.4768185153
  0
LINE
  5
2BE
100
AcDbEntity
  8
RACCORDO
100
AcDbLine
 62
253
  6
CONTINUOUS
 10
-25.2937884187
 20
17.7430733543
 11
25.2937884187
 21
17.7430733543
  0
LINE
  5
2BF
100
AcDbEntity
  8
ASSI
100
AcDbLine
 62
7
  6
CONTINUOUS
 10
19.851463
 20
-36.7668749796
 11
19.851463
 21
-39.5670009796
  0
LINE
  5
2C0
100
AcDbEntity
  8
ASSI
100
AcDbLine
 62
7
  6
CONTINUOUS
 10
20.411484
 20
-39.5670009796
 11
20.411484
 21
-37.7205059796
  0
LINE
  5
2C1
100
AcDbEntity
  8
ASSI
100
AcDbLine
 62
7
  6
CONTINUOUS
 10
22.030423
 20
-37.7205059796
 11
22.03043
 21
-39.5670009796
  0
LINE
  5
2C2
100
AcDbEntity
  8
ASSI
100
AcDbLine
 62
7
  6
CONTINUOUS
 10
22.590451
 20
-39.5670009796
 11
22.590451
 21
-36.7668749796
  0
LWPOLYLINE
  5
2C3
100
AcDbEntity
  8
RACCORDO
100
AcDbPolyline
 62
7
  6
CONTINUOUS
 90
10
 70
0
 10
25.044109117
 20
17.4776267565
 10
25.0440777158
 20
17.477484957
 10
25.0440463172
 20
17.4773561694
 10
25.044014921
 20
17.4772403937
 10
25.0439835312
 20
17.4771376475
 10
25.0439521439
 20
17.4770479132
 10
25.0439207478
 20
17.476971138
 10
25.043889339
 20
17.4769073046
 10
25.0438579214
 20
17.4768564303
 10
25.0438264949
 20
17.4768185153
  0
LINE
  5
2C4
100
AcDbEntity
  8
0
100
AcDbLine
 62
7
  6
CONTINUOUS
 10
27.8321553217
 20
21.3329920204
 11
25.4538073666
 21
21.3329920204
  0
LINE
  5
2C5
100
AcDbEntity
  8
0
100
AcDbLine
 62
7
  6
CONTINUOUS
 10
24.5461926334
 20
21.3329920204
 11
22.1678446783
 21
21.3329920204
  0
LINE
  5
2C6
100
AcDbEntity
  8
0
100
AcDbLine
 62
7
  6
CONTINUOUS
 10
22.1678446783
 20
22.5329920204
 11
24.5461926334
 21
22.5329920204
  0
LINE
  5
2C7
100
AcDbEntity
  8
0
100
AcDbLine
 62
7
  6
CONTINUOUS
 10
25.4538073666
 20
22.5329920204
 11
27.8321553217
 21
22.5329920204
  0
LINE
  5
2C8
100
AcDbEntity
  8
DRAFT
100
AcDbLine
 62
7
  6
CONTINUOUS
 10
25.0
 20
17.4329920204
 11
25.0
 21
-27.5670079796
  0
LINE
  5
2C9
100
AcDbEntity
  8
ASSI
100
AcDbLine
 62
7
  6
CONTINUOUS
 10
25.695238
 20
-36.7668679796
 11
25.695238
 21
-39.5669939796
  0
LINE
  5
2CA
100
AcDbEntity
  8
ASSI
100
AcDbLine
 62
7
  6
CONTINUOUS
 10
26.247545
 20
-37.9662829796
 11
26.247538
 21
-37.2848889796
  0
LINE
  5
2CB
100
AcDbEntity
  8
ASSI
100
AcDbLine
 62
7
  6
CONTINUOUS
 10
26.255266
 20
-39.5669939796
 11
26.255329
 21
-38.4843039796
  0
LINE
  5
2CC
100
AcDbEntity
  8
ASSI
100
AcDbLine
 62
7
  6
CONTINUOUS
 10
21.74385
 20
-36.7668749796
 11
21.220957
 21
-38.5904169796
  0
LINE
  5
2CD
100
AcDbEntity
  8
ASSI
100
AcDbLine
 62
7
  6
CONTINUOUS
 10
17.798069
 20
-36.7668749796
 11
17.179052
 21
-38.6949129796
  0
LINE
  5
2CE
100
AcDbEntity
  8
ASSI
100
AcDbLine
 62
7
  6
CONTINUOUS
 10
17.459066
 20
-39.5670009796
 11
18.358097
 21
-36.7668749796
  0
LINE
  5
2CF
100
AcDbEntity
  8
0
100
AcDbLine
 62
7
  6
CONTINUOUS
 10
25.3450726247
 20
20.7613870394
 11
25.2388223825
 21
20.8108857266
  0
LINE
  5
2D0
100
AcDbEntity
  8
RACCORDO
100
AcDbLine
 62
7
  6
CONTINUOUS
 10
34.0
 20
34.9330491358
 11
34.0
 21
-45.067065095
  0
LINE
  5
2D1
100
AcDbEntity
  8
ASSI
100
AcDbLine
 62
7
  6
CONTINUOUS
 10
21.500957
 20
-39.5669939796
 11
22.030423
 21
-37.7205059796
  0
LINE
  5
2D2
100
AcDbEntity
  8
ASSI
100
AcDbLine
 62
7
  6
CONTINUOUS
 10
23.862813
 20
-36.7668679796
 11
22.963796
 21
-39.5670009796
  0
LINE
  5
2D3
100
AcDbEntity
  8
ASSI
100
AcDbLine
 62
7
  6
CONTINUOUS
 10
23.871437
 20
-38.4843109796
 11
24.142834
 21
-37.6389629796
  0
LINE
  5
2D4
100
AcDbEntity
  8
ASSI
100
AcDbLine
 62
7
  6
CONTINUOUS
 10
23.523817
 20
-39.5669939796
 11
23.700616
 21
-39.0163319796
  0
LINE
  5
2D5
100
AcDbEntity
  8
RACCORDO
100
AcDbLine
 62
253
  6
CONTINUOUS
 10
32.3903974705
 20
31.8813510193
 11
-32.3903974705
 21
31.8813510271
  0
LINE
  5
2D6
100
AcDbEntity
  8
0
100
AcDbLine
 62
7
  6
CONTINUOUS
 10
24.6549273753
 20
23.1045970013
 11
24.7611776175
 21
23.0550983141
  0
LINE
  5
2D7
100
AcDbEntity
  8
RACCORDO
100
AcDbLine
 62
253
  6
CONTINUOUS
 10
32.420505358
 20
36.353440263
 11
-32.4205053581
 21
36.3534402631
  0
LINE
  5
2D8
100
AcDbEntity
  8
RACCORDO
100
AcDbLine
 62
7
  6
CONTINUOUS
 10
32.5000571154
 20
36.4329920204
 11
-32.5000571154
 21
36.4329920204
  0
LINE
  5
2D9
100
AcDbEntity
  8
0
100
AcDbLine
 62
7
  6
CONTINUOUS
 10
-13.9999950678
 20
36.4374495667
 11
13.9999926757
 21
36.4374495667
  0
LINE
  5
2DA
100
AcDbEntity
  8
RACCORDO
100
AcDbLine
 62
253
  6
CONTINUOUS
 10
-14.0
 20
37.8600572181
 11
13.9999926757
 21
37.8600572188
  0
LINE
  5
2DB
100
AcDbEntity
  8
RACCORDO
100
AcDbLine
 62
253
  6
CONTINUOUS
 10
-13.2588190654
 20
38.8259830396
 11
13.2588121086
 21
38.8259830451
  0
LINE
  5
2DC
100
AcDbEntity
  8
0
100
AcDbLine
 62
7
  6
CONTINUOUS
 10
-11.35
 20
39.3374495667
 11
-13.2588190539
 21
38.8259830427
  0
LINE
  5
2DD
100
AcDbEntity
  8
0
100
AcDbLine
 62
7
  6
CONTINUOUS
 10
-9.45
 20
41.1374495667
 11
-11.6276457168
 21
40.5539511555
  0
LINE
  5
2DE
100
AcDbEntity
  8
0
100
AcDbLine
 62
7
  6
CONTINUOUS
 10
-11.35
 20
39.3374495667
 11
11.3499940621
 21
39.3374495667
  0
LINE
  5
2DF
100
AcDbEntity
  8
0
100
AcDbLine
 62
7
  6
CONTINUOUS
 10
-11.849994779
 20
39.8374495667
 11
11.8499938005
 21
39.8374495667
  0
LINE
  5
2E0
100
AcDbEntity
  8
RACCORDO
100
AcDbLine
 62
253
  6
CONTINUOUS
 10
-11.8499999736
 20
40.2641734084
 11
11.8499938005
 21
40.2641734085
  0
LINE
  5
2E1
100
AcDbEntity
  8
RACCORDO
100
AcDbLine
 62
253
  6
CONTINUOUS
 10
-11.6276456994
 20
40.5539511532
 11
11.6276396304
 21
40.5539511564
  0
LINE
  5
2E2
100
AcDbEntity
  8
0
100
AcDbLine
 62
7
  6
CONTINUOUS
 10
-9.45
 20
41.1374495667
 11
9.4499950561
 21
41.1374495667
  0
LINE
  5
2E3
100
AcDbEntity
  8
0
100
AcDbLine
 62
7
  6
CONTINUOUS
 10
-10.0999943354
 20
41.6374495667
 11
10.099994716
 21
41.6374495667
  0
LINE
  5
2E4
100
AcDbEntity
  8
RACCORDO
100
AcDbLine
 62
253
  6
CONTINUOUS
 10
-10.0999999809
 20
42.1043657872
 11
10.099994716
 21
42.1043657873
  0
LINE
  5
2E5
100
AcDbEntity
  8
RACCORDO
100
AcDbLine
 62
253
  6
CONTINUOUS
 10
-9.8776457032
 20
42.394143533
 11
9.8776405459
 21
42.3941435352
  0
LINE
  5
2E6
100
AcDbEntity
  8
0
100
AcDbLine
 62
7
  6
CONTINUOUS
 10
11.35
 20
39.3374495667
 11
13.2588190539
 21
38.8259830427
  0
LINE
  5
2E7
100
AcDbEntity
  8
0
100
AcDbLine
 62
7
  6
CONTINUOUS
 10
9.45
 20
41.1374495667
 11
11.6276457168
 21
40.5539511555
  0
LINE
  5
2E8
100
AcDbEntity
  8
0
100
AcDbLine
 62
7
  6
CONTINUOUS
 10
-7.85
 20
42.9374495667
 11
-9.8776457158
 21
42.3941435346
  0
LINE
  5
2E9
100
AcDbEntity
  8
0
100
AcDbLine
 62
7
  6
CONTINUOUS
 10
-6.0
 20
44.7374495667
 11
-8.1276457168
 21
44.1673486151
  0
LINE
  5
2EA
100
AcDbEntity
  8
RACCORDO
100
AcDbLine
 62
7
  6
CONTINUOUS
 10
-3.8776436849
 20
45.8663867217
 11
-0.9999994768
 21
46.6374495667
  0
LINE
  5
2EB
100
AcDbEntity
  8
0
100
AcDbLine
 62
7
  6
CONTINUOUS
 10
-1.0
 20
46.6374495667
 11
-3.8776457269
 21
45.8663867181
  0
LINE
  5
2EC
100
AcDbEntity
  8
0
100
AcDbLine
 62
7
  6
CONTINUOUS
 10
-7.85
 20
42.9374495667
 11
7.8499958932
 21
42.9374495667
  0
LINE
  5
2ED
100
AcDbEntity
  8
0
100
AcDbLine
 62
7
  6
CONTINUOUS
 10
-8.3499946761
 20
43.4374495667
 11
8.3499956316
 21
43.4374495667
  0
LINE
  5
2EE
100
AcDbEntity
  8
RACCORDO
100
AcDbLine
 62
253
  6
CONTINUOUS
 10
-8.3499999812
 20
43.8775708679
 11
8.3499956316
 21
43.8775708681
  0
LINE
  5
2EF
100
AcDbEntity
  8
RACCORDO
100
AcDbLine
 62
253
  6
CONTINUOUS
 10
-8.1276457084
 20
44.1673486125
 11
8.1276414614
 21
44.167348616
  0
LINE
  5
2F0
100
AcDbEntity
  8
0
100
AcDbLine
 62
7
  6
CONTINUOUS
 10
-5.9999949689
 20
44.7374495667
 11
5.999996861
 21
44.7374495667
  0
LINE
  5
2F1
100
AcDbEntity
  8
0
100
AcDbLine
 62
7
  6
CONTINUOUS
 10
-4.0999953543
 20
45.2374495667
 11
4.099997855
 21
45.2374495667
  0
LINE
  5
2F2
100
AcDbEntity
  8
RACCORDO
100
AcDbLine
 62
253
  6
CONTINUOUS
 10
-4.1
 20
45.5766089727
 11
4.099997855
 21
45.5766089738
  0
LINE
  5
2F3
100
AcDbEntity
  8
RACCORDO
100
AcDbLine
 62
253
  6
CONTINUOUS
 10
-3.8776457488
 20
45.8663867122
 11
3.8776436849
 21
45.8663867217
  0
LINE
  5
2F4
100
AcDbEntity
  8
0
100
AcDbLine
 62
7
  6
CONTINUOUS
 10
-0.9999964634
 20
46.6374495667
 11
0.9999994768
 21
46.6374495667
  0
LINE
  5
2F5
100
AcDbEntity
  8
0
100
AcDbLine
 62
7
  6
CONTINUOUS
 10
7.85
 20
42.9374495667
 11
9.8776457158
 21
42.3941435346
  0
LINE
  5
2F6
100
AcDbEntity
  8
0
100
AcDbLine
 62
7
  6
CONTINUOUS
 10
6.0
 20
44.7374495667
 11
8.1276457168
 21
44.1673486151
  0
LINE
  5
2F7
100
AcDbEntity
  8
RACCORDO
100
AcDbLine
 62
7
  6
CONTINUOUS
 10
3.8776436849
 20
45.8663867217
 11
0.9999994768
 21
46.6374495667
  0
LINE
  5
2F8
100
AcDbEntity
  8
0
100
AcDbLine
 62
7
  6
CONTINUOUS
 10
1.0
 20
46.6374495667
 11
3.8776457269
 21
45.8663867181
  0
LINE
  5
2F9
100
AcDbEntity
  8
RACCORDO
100
AcDbLine
 62
7
  6
CONTINUOUS
 10
-96.0003094481
 20
-46.5670079796
 11
-56.9915829126
 21
-46.2265839805
  0
LINE
  5
2FA
100
AcDbEntity
  8
RACCORDO
100
AcDbLine
 62
253
  6
CONTINUOUS
 10
-96.0003094481
 20
-45.067065095
 11
-56.9915829126
 21
-44.7266348285
  0
LINE
  5
2FB
100
AcDbEntity
  8
RACCORDO
100
AcDbLine
 62
253
  6
CONTINUOUS
 10
-56.0003094481
 20
-44.7266410959
 11
-56.9915829126
 21
-44.7266410959
  0
LINE
  5
2FC
100
AcDbEntity
  8
RACCORDO
100
AcDbLine
 62
7
  6
CONTINUOUS
 10
-96.0003094481
 20
-46.5670079796
 11
-105.1160337634
 21
-46.4874562587
  0
LINE
  5
2FD
100
AcDbEntity
  8
RACCORDO
100
AcDbLine
 62
253
  6
CONTINUOUS
 10
-96.0003094481
 20
-45.067065095
 11
-105.1161461158
 21
-44.9875123936
  0
LINE
  5
2FE
100
AcDbEntity
  8
ASSI
100
AcDbLine
 62
7
  6
CONTINUOUS
 10
-110.4465376512
 20
-39.5669869796
 11
-110.2958038906
 21
-39.5669869796
  0
LINE
  5
2FF
100
AcDbEntity
  8
RACCORDO
100
AcDbLine
 62
253
  6
CONTINUOUS
 10
-110.0445743507
 20
-42.0154809901
 11
-108.5660458908
 21
-41.857130393
  0
LINE
  5
300
100
AcDbEntity
  8
ASSI
100
AcDbLine
 62
7
  6
CONTINUOUS
 10
-110.5584869313
 20
-38.4169616466
 11
-110.407801604
 21
-38.4169616466
  0
LINE
  5
301
100
AcDbEntity
  8
ASSI
100
AcDbLine
 62
7
  6
CONTINUOUS
 10
-110.5618088653
 20
-36.7668679796
 11
-110.7124278702
 21
-36.7668679796
  0
LINE
  5
302
100
AcDbEntity
  8
0
100
AcDbLine
 62
7
  6
CONTINUOUS
 10
-110.9103830001
 20
-32.6670079796
 11
-110.9511327956
 21
-32.6670079796
  0
LINE
  5
303
100
AcDbEntity
  8
RACCORDO
100
AcDbLine
 62
7
  6
CONTINUOUS
 10
-96.0003094481
 20
-46.5670079796
 11
-96.0003094481
 21
36.4329920204
  0
LINE
  5
304
100
AcDbEntity
  8
0
100
AcDbLine
 62
7
  6
CONTINUOUS
 10
-86.0003094481
 20
37.8600572189
 11
-86.0003094481
 21
36.4374495667
  0
LINE
  5
305
100
AcDbEntity
  8
0
100
AcDbLine
 62
7
  6
CONTINUOUS
 10
-83.8503094481
 20
40.2641734085
 11
-83.8503094481
 21
39.8374495667
  0
LINE
  5
306
100
AcDbEntity
  8
0
100
AcDbLine
 62
7
  6
CONTINUOUS
 10
-83.5003094481
 20
36.4374495667
 11
-83.5003094481
 21
36.323906173
  0
LINE
  5
307
100
AcDbEntity
  8
0
100
AcDbLine
 62
7
  6
CONTINUOUS
 10
-83.3503094481
 20
39.8374495667
 11
-83.3503094481
 21
39.3374495667
  0
LINE
  5
308
100
AcDbEntity
  8
0
100
AcDbLine
 62
7
  6
CONTINUOUS
 10
-82.1003094481
 20
42.1043657873
 11
-82.1003094481
 21
41.6374495667
  0
LINE
  5
309
100
AcDbEntity
  8
0
100
AcDbLine
 62
7
  6
CONTINUOUS
 10
-81.4503094481
 20
41.6374495667
 11
-81.4503094481
 21
41.1374495667
  0
LINE
  5
30A
100
AcDbEntity
  8
0
100
AcDbLine
 62
7
  6
CONTINUOUS
 10
-80.3503094481
 20
43.8775708681
 11
-80.3503094481
 21
43.4374495667
  0
LINE
  5
30B
100
AcDbEntity
  8
0
100
AcDbLine
 62
7
  6
CONTINUOUS
 10
-79.8503094481
 20
43.4374495667
 11
-79.8503094481
 21
42.9374495667
  0
LINE
  5
30C
100
AcDbEntity
  8
0
100
AcDbLine
 62
7
  6
CONTINUOUS
 10
-76.1003094481
 20
45.5766089761
 11
-76.1003094481
 21
45.2374495667
  0
LINE
  5
30D
100
AcDbEntity
  8
0
100
AcDbLine
 62
7
  6
CONTINUOUS
 10
-75.6003094481
 20
45.2374495667
 11
-75.6003094481
 21
44.7374495667
  0
LINE
  5
30E
100
AcDbEntity
  8
0
100
AcDbLine
 62
7
  6
CONTINUOUS
 10
-68.4003094481
 20
45.2374495667
 11
-68.4003094481
 21
44.7374495667
  0
LINE
  5
30F
100
AcDbEntity
  8
0
100
AcDbLine
 62
7
  6
CONTINUOUS
 10
-67.9003094481
 20
45.5766089761
 11
-67.9003094481
 21
45.2374495667
  0
LINE
  5
310
100
AcDbEntity
  8
0
100
AcDbLine
 62
7
  6
CONTINUOUS
 10
-64.1503094481
 20
43.4374495667
 11
-64.1503094481
 21
42.9374495667
  0
LINE
  5
311
100
AcDbEntity
  8
0
100
AcDbLine
 62
7
  6
CONTINUOUS
 10
-63.6503094481
 20
43.8775708681
 11
-63.6503094481
 21
43.4374495667
  0
LINE
  5
312
100
AcDbEntity
  8
0
100
AcDbLine
 62
7
  6
CONTINUOUS
 10
-62.5503094481
 20
41.6374495667
 11
-62.5503094481
 21
41.1374495667
  0
LINE
  5
313
100
AcDbEntity
  8
0
100
AcDbLine
 62
7
  6
CONTINUOUS
 10
-61.9003094481
 20
42.1043657873
 11
-61.9003094481
 21
41.6374495667
  0
LINE
  5
314
100
AcDbEntity
  8
0
100
AcDbLine
 62
7
  6
CONTINUOUS
 10
-60.6503094481
 20
39.8374495667
 11
-60.6503094481
 21
39.3374495667
  0
LINE
  5
315
100
AcDbEntity
  8
0
100
AcDbLine
 62
7
  6
CONTINUOUS
 10
-60.5003094481
 20
36.4374495667
 11
-60.5003094481
 21
36.1231882138
  0
LINE
  5
316
100
AcDbEntity
  8
0
100
AcDbLine
 62
7
  6
CONTINUOUS
 10
-60.1503094481
 20
40.2641734085
 11
-60.1503094481
 21
39.8374495667
  0
LINE
  5
317
100
AcDbEntity
  8
0
100
AcDbLine
 62
7
  6
CONTINUOUS
 10
-110.9511328799
 20
22.5329920204
 11
-110.9103820525
 21
22.5329920204
  0
LINE
  5
318
100
AcDbEntity
  8
0
100
AcDbLine
 62
7
  6
CONTINUOUS
 10
-58.0003094481
 20
37.8600572189
 11
-58.0003094481
 21
36.4374495667
  0
LINE
  5
319
100
AcDbEntity
  8
RACCORDO
100
AcDbLine
 62
253
  6
CONTINUOUS
 10
-56.9915829126
 20
34.5926177625
 11
-56.9915829126
 21
-44.7266348285
  0
LINE
  5
31A
100
AcDbEntity
  8
0
100
AcDbLine
 62
7
  6
CONTINUOUS
 10
-56.0003094481
 20
-45.0670079796
 11
-56.0003094481
 21
-44.7266410959
  0
LINE
  5
31B
100
AcDbEntity
  8
RACCORDO
100
AcDbLine
 62
7
  6
CONTINUOUS
 10
-56.0003094481
 20
35.0926060981
 11
-56.0003094481
 21
-45.2266220574
  0
LINE
  5
31C
100
AcDbEntity
  8
RACCORDO
100
AcDbLine
 62
253
  6
CONTINUOUS
 10
-110.044571874
 20
31.8814647677
 11
-108.5660458908
 21
31.7231144338
  0
LINE
  5
31D
100
AcDbEntity
  8
RACCORDO
100
AcDbLine
 62
253
  6
CONTINUOUS
 10
-105.1161461158
 20
34.8534964344
 11
-96.0003094481
 21
34.9330491358
  0
LINE
  5
31E
100
AcDbEntity
  8
RACCORDO
100
AcDbLine
 62
7
  6
CONTINUOUS
 10
-105.1160379419
 20
36.353440263
 11
-96.0003094481
 21
36.4329920204
  0
LINE
  5
31F
100
AcDbEntity
  8
RACCORDO
100
AcDbLine
 62
253
  6
CONTINUOUS
 10
-56.0003094481
 20
34.5926251366
 11
-56.9915829126
 21
34.5926251366
  0
LINE
  5
320
100
AcDbEntity
  8
0
100
AcDbLine
 62
7
  6
CONTINUOUS
 10
-58.0003095159
 20
36.4374495667
 11
-86.0003093803
 21
36.4374495667
  0
LINE
  5
321
100
AcDbEntity
  8
RACCORDO
100
AcDbLine
 62
253
  6
CONTINUOUS
 10
-96.0003094481
 20
34.9330491358
 11
-56.9915829126
 21
34.5926177625
  0
LINE
  5
322
100
AcDbEntity
  8
RACCORDO
100
AcDbLine
 62
7
  6
CONTINUOUS
 10
-96.0003094481
 20
36.4329920204
 11
-56.9915829126
 21
36.0925680212
  0
LINE
  5
323
100
AcDbEntity
  8
0
100
AcDbLine
 62
7
  6
CONTINUOUS
 10
-83.3503094481
 20
39.3374495667
 11
-85.2591284904
 21
38.8259830458
  0
LINE
  5
324
100
AcDbEntity
  8
0
100
AcDbLine
 62
7
  6
CONTINUOUS
 10
-81.4503094481
 20
41.1374495667
 11
-83.6279551561
 21
40.5539511578
  0
LINE
  5
325
100
AcDbEntity
  8
0
100
AcDbLine
 62
7
  6
CONTINUOUS
 10
-79.8503094481
 20
42.9374495667
 11
-81.8779551639
 21
42.3941435346
  0
LINE
  5
326
100
AcDbEntity
  8
RACCORDO
100
AcDbLine
 62
253
  6
CONTINUOUS
 10
-86.0003094481
 20
37.8600572189
 11
-58.0003094481
 21
37.8600572189
  0
LINE
  5
327
100
AcDbEntity
  8
RACCORDO
100
AcDbLine
 62
253
  6
CONTINUOUS
 10
-85.2591284898
 20
38.825983046
 11
-58.7414904063
 21
38.825983046
  0
LINE
  5
328
100
AcDbEntity
  8
0
100
AcDbLine
 62
7
  6
CONTINUOUS
 10
-60.6503094481
 20
39.3374495667
 11
-83.3503094481
 21
39.3374495667
  0
LINE
  5
329
100
AcDbEntity
  8
0
100
AcDbLine
 62
7
  6
CONTINUOUS
 10
-60.1503095147
 20
39.8374495667
 11
-83.8503093814
 21
39.8374495667
  0
LINE
  5
32A
100
AcDbEntity
  8
RACCORDO
100
AcDbLine
 62
253
  6
CONTINUOUS
 10
-83.8503094481
 20
40.2641734086
 11
-60.1503094481
 21
40.2641734086
  0
LINE
  5
32B
100
AcDbEntity
  8
0
100
AcDbLine
 62
7
  6
CONTINUOUS
 10
-78.0003094481
 20
44.7374495667
 11
-80.1279551621
 21
44.1673486159
  0
LINE
  5
32C
100
AcDbEntity
  8
0
100
AcDbLine
 62
7
  6
CONTINUOUS
 10
-73.0003094481
 20
46.6374495667
 11
-75.8779551058
 21
45.8663867366
  0
LINE
  5
32D
100
AcDbEntity
  8
RACCORDO
100
AcDbLine
 62
253
  6
CONTINUOUS
 10
-83.6279551555
 20
40.553951158
 11
-60.3726637406
 21
40.553951158
  0
LINE
  5
32E
100
AcDbEntity
  8
0
100
AcDbLine
 62
7
  6
CONTINUOUS
 10
-62.5503094481
 20
41.1374495667
 11
-81.4503094481
 21
41.1374495667
  0
LINE
  5
32F
100
AcDbEntity
  8
0
100
AcDbLine
 62
7
  6
CONTINUOUS
 10
-61.9003095148
 20
41.6374495667
 11
-82.1003093814
 21
41.6374495667
  0
LINE
  5
330
100
AcDbEntity
  8
RACCORDO
100
AcDbLine
 62
253
  6
CONTINUOUS
 10
-82.1003094481
 20
42.1043657872
 11
-61.9003094481
 21
42.1043657872
  0
LINE
  5
331
100
AcDbEntity
  8
RACCORDO
100
AcDbLine
 62
253
  6
CONTINUOUS
 10
-81.877955169
 20
42.3941435332
 11
-62.1226637271
 21
42.3941435332
  0
LINE
  5
332
100
AcDbEntity
  8
0
100
AcDbLine
 62
7
  6
CONTINUOUS
 10
-64.1503094481
 20
42.9374495667
 11
-79.8503094481
 21
42.9374495667
  0
LINE
  5
333
100
AcDbEntity
  8
0
100
AcDbLine
 62
7
  6
CONTINUOUS
 10
-63.6503774335
 20
43.4374495667
 11
-80.3502414627
 21
43.4374495667
  0
LINE
  5
334
100
AcDbEntity
  8
RACCORDO
100
AcDbLine
 62
253
  6
CONTINUOUS
 10
-80.3503094481
 20
43.877570868
 11
-63.6503094481
 21
43.877570868
  0
LINE
  5
335
100
AcDbEntity
  8
RACCORDO
100
AcDbLine
 62
253
  6
CONTINUOUS
 10
-80.1279551679
 20
44.1673486143
 11
-63.8726637282
 21
44.1673486143
  0
LINE
  5
336
100
AcDbEntity
  8
0
100
AcDbLine
 62
7
  6
CONTINUOUS
 10
-66.0003797249
 20
44.7374495667
 11
-78.0002391712
 21
44.7374495667
  0
LINE
  5
337
100
AcDbEntity
  8
0
100
AcDbLine
 62
7
  6
CONTINUOUS
 10
-67.9003810884
 20
45.2374495667
 11
-76.1002378077
 21
45.2374495667
  0
LINE
  5
338
100
AcDbEntity
  8
RACCORDO
100
AcDbLine
 62
253
  6
CONTINUOUS
 10
-76.1003094481
 20
45.5766089761
 11
-67.9003094481
 21
45.5766089761
  0
LINE
  5
339
100
AcDbEntity
  8
RACCORDO
100
AcDbLine
 62
253
  6
CONTINUOUS
 10
-75.8779551059
 20
45.8663867366
 11
-68.1226637902
 21
45.8663867366
  0
LINE
  5
33A
100
AcDbEntity
  8
0
100
AcDbLine
 62
7
  6
CONTINUOUS
 10
-71.0003889836
 20
46.6374495667
 11
-73.0002299125
 21
46.6374495667
  0
LINE
  5
33B
100
AcDbEntity
  8
0
100
AcDbLine
 62
7
  6
CONTINUOUS
 10
-60.6503094481
 20
39.3374495667
 11
-58.7414904057
 21
38.8259830458
  0
LINE
  5
33C
100
AcDbEntity
  8
0
100
AcDbLine
 62
7
  6
CONTINUOUS
 10
-62.5503094481
 20
41.1374495667
 11
-60.37266374
 21
40.5539511578
  0
LINE
  5
33D
100
AcDbEntity
  8
0
100
AcDbLine
 62
7
  6
CONTINUOUS
 10
-64.1503094481
 20
42.9374495667
 11
-62.1226637322
 21
42.3941435346
  0
LINE
  5
33E
100
AcDbEntity
  8
0
100
AcDbLine
 62
7
  6
CONTINUOUS
 10
-66.0003094481
 20
44.7374495667
 11
-63.8726637341
 21
44.1673486159
  0
LINE
  5
33F
100
AcDbEntity
  8
0
100
AcDbLine
 62
7
  6
CONTINUOUS
 10
-71.0003094481
 20
46.6374495667
 11
-68.1226637904
 21
45.8663867366
  0
ARC
  5
340
100
AcDbEntity
  8
RACCORDO
100
AcDbCircle
 62
253
  6
CONTINUOUS
 10
-20018.4321938835
 20
-5.0670079796
 40
20043.7389623916
100
AcDbArc
 50
359.934796513
 51
0.065203487
  0
ARC
  5
341
100
AcDbEntity
  8
RACCORDO
100
AcDbCircle
 62
253
  6
CONTINUOUS
 10
-19991.5100031205
 20
-5.0670093097
 40
20016.5668092229
100
AcDbArc
 50
359.9354678237
 51
0.0645321839
  0
ARC
  5
342
100
AcDbEntity
  8
0
100
AcDbCircle
 62
7
  6
CONTINUOUS
 10
-84.0985977629
 20
-43.469773916
 40
60.7504001406
100
AcDbArc
 50
11.9634546077
 51
12.428488837
  0
ARC
  5
343
100
AcDbEntity
  8
0
100
AcDbCircle
 62
7
  6
CONTINUOUS
 10
-10.8391508912
 20
-38.7182251921
 40
16.3392586119
100
AcDbArc
 50
153.8020617908
 51
153.9650284022
  0
ARC
  5
344
100
AcDbEntity
  8
0
100
AcDbCircle
 62
7
  6
CONTINUOUS
 10
-18.3489979249
 20
-46.2274157085
 40
16.3387675925
100
AcDbArc
 50
116.0349730838
 51
116.1979446203
  0
ARC
  5
345
100
AcDbEntity
  8
0
100
AcDbCircle
 62
7
  6
CONTINUOUS
 10
-31.6341698131
 20
-46.1929342957
 40
16.3003971251
100
AcDbArc
 50
63.8016338065
 51
63.9649905686
  0
ARC
  5
346
100
AcDbEntity
  8
0
100
AcDbCircle
 62
7
  6
CONTINUOUS
 10
-39.1225006901
 20
-38.6995276275
 40
16.2965948201
100
AcDbArc
 50
26.0350827721
 51
26.1984782953
  0
ARC
  5
347
100
AcDbEntity
  8
0
100
AcDbCircle
 62
7
  6
CONTINUOUS
 10
-30.8706028826
 20
-44.5025792713
 40
14.5897650617
100
AcDbArc
 50
63.3130487244
 51
63.5527387092
  0
ARC
  5
348
100
AcDbEntity
  8
0
100
AcDbCircle
 62
7
  6
CONTINUOUS
 10
-19.1495774267
 20
-44.4623116566
 40
14.5447241024
100
AcDbArc
 50
116.4467334955
 51
116.6871679444
  0
ARC
  5
349
100
AcDbEntity
  8
RACCORDO
100
AcDbCircle
 62
253
  6
CONTINUOUS
 10
-25.0003215785
 20
-32.0622289251
 40
3.286482995
100
AcDbArc
 50
89.9943937604
 51
270.0056062397
  0
ARC
  5
34A
100
AcDbEntity
  8
RACCORDO
100
AcDbCircle
 62
253
  6
CONTINUOUS
 10
-24.9996784193
 20
-32.062228899
 40
3.2864829939
100
AcDbArc
 50
269.9943937216
 51
90.0056062784
  0
CIRCLE
  5
34B
100
AcDbEntity
  8
DRAFT
100
AcDbCircle
 62
7
  6
CONTINUOUS
 10
-25.0
 20
-32.0670079796
 40
3.25
  0
ARC
  5
34C
100
AcDbEntity
  8
0
100
AcDbCircle
 62
7
  6
CONTINUOUS
 10
-25.0
 20
-32.0670079796
 40
2.8950136038
100
AcDbArc
 50
348.0385857315
 51
11.9614142685
  0
ARC
  5
34D
100
AcDbEntity
  8
0
100
AcDbCircle
 62
7
  6
CONTINUOUS
 10
-25.0
 20
-32.0670079796
 40
2.8950136038
100
AcDbArc
 50
168.0385857315
 51
191.9614142685
  0
ARC
  5
34E
100
AcDbEntity
  8
0
100
AcDbCircle
 62
7
  6
CONTINUOUS
 10
-25.0
 20
-32.0670079796
 40
2.8155023425
100
AcDbArc
 50
192.3044249574
 51
347.6955750426
  0
ARC
  5
34F
100
AcDbEntity
  8
0
100
AcDbCircle
 62
7
  6
CONTINUOUS
 10
-25.0
 20
-32.0670079796
 40
2.8155023425
100
AcDbArc
 50
12.3044249574
 51
167.6955750426
  0
ARC
  5
350
100
AcDbEntity
  8
0
100
AcDbCircle
 62
7
  6
CONTINUOUS
 10
-25.0
 20
-32.0670079796
 40
1.6874840352
100
AcDbArc
 50
262.230101045
 51
277.7632444202
  0
ARC
  5
351
100
AcDbEntity
  8
0
100
AcDbCircle
 62
7
  6
CONTINUOUS
 10
-25.0
 20
-32.0670079796
 40
1.6874840352
100
AcDbArc
 50
82.2301010241
 51
97.7632444202
  0
ARC
  5
352
100
AcDbEntity
  8
RACCORDO
100
AcDbCircle
 62
253
  6
CONTINUOUS
 10
-32.4203670335
 20
-44.9873750131
 40
1.5000802714
100
AcDbArc
 50
180.0052472679
 51
269.9947527321
  0
ARC
  5
353
100
AcDbEntity
  8
TRASH
100
AcDbCircle
 62
7
  6
CONTINUOUS
 10
-25.0
 20
-32.0670079796
 40
1.1472328625
100
AcDbArc
 50
77.9845776281
 51
102.0153200785
  0
ARC
  5
354
100
AcDbEntity
  8
TRASH
100
AcDbCircle
 62
7
  6
CONTINUOUS
 10
-25.0
 20
-32.0670079796
 40
1.1472328625
100
AcDbArc
 50
257.9845776281
 51
282.0153200785
  0
ARC
  5
355
100
AcDbEntity
  8
0
100
AcDbCircle
 62
7
  6
CONTINUOUS
 10
-25.0
 20
-32.0670079796
 40
0.7522905861
100
AcDbArc
 50
228.3509867785
 51
232.8981211086
  0
ARC
  5
356
100
AcDbEntity
  8
0
100
AcDbCircle
 62
7
  6
CONTINUOUS
 10
-25.0
 20
-32.0670079796
 40
0.7522905861
100
AcDbArc
 50
138.3509342563
 51
221.6490283615
  0
ARC
  5
357
100
AcDbEntity
  8
0
100
AcDbCircle
 62
7
  6
CONTINUOUS
 10
-25.0
 20
-32.0670079796
 40
0.7522905861
100
AcDbArc
 50
127.1018788914
 51
131.6490663885
  0
ARC
  5
358
100
AcDbEntity
  8
0
100
AcDbCircle
 62
7
  6
CONTINUOUS
 10
-25.0
 20
-32.0670079796
 40
0.7522905861
100
AcDbArc
 50
48.3509867785
 51
52.8981211086
  0
ARC
  5
359
100
AcDbEntity
  8
0
100
AcDbCircle
 62
7
  6
CONTINUOUS
 10
-25.0
 20
-32.0670079796
 40
0.7522905861
100
AcDbArc
 50
318.3509342563
 51
41.6490283615
  0
ARC
  5
35A
100
AcDbEntity
  8
0
100
AcDbCircle
 62
7
  6
CONTINUOUS
 10
-25.0
 20
-32.0670079796
 40
0.7522905861
100
AcDbArc
 50
307.1018788914
 51
311.6490663885
  0
ARC
  5
35B
100
AcDbEntity
  8
0
100
AcDbCircle
 62
7
  6
CONTINUOUS
 10
-91.6513384303
 20
-18.9896325636
 40
68.4863730366
100
AcDbArc
 50
347.5632074981
 51
347.9759955778
  0
ARC
  5
35C
100
AcDbEntity
  8
0
100
AcDbCircle
 62
7
  6
CONTINUOUS
 10
-31.6510020751
 20
-17.9066002507
 40
16.3387675925
100
AcDbArc
 50
296.0349730838
 51
296.1979446203
  0
ARC
  5
35D
100
AcDbEntity
  8
0
100
AcDbCircle
 62
7
  6
CONTINUOUS
 10
-39.1596788205
 20
-25.4163645023
 40
16.3379552536
100
AcDbArc
 50
333.8020552904
 51
333.9650349025
  0
ARC
  5
35E
100
AcDbEntity
  8
0
100
AcDbCircle
 62
7
  6
CONTINUOUS
 10
-18.3658301865
 20
-17.9410816628
 40
16.300397126
100
AcDbArc
 50
243.8016338065
 51
243.9649905686
  0
ARC
  5
35F
100
AcDbEntity
  8
0
100
AcDbCircle
 62
7
  6
CONTINUOUS
 10
-10.8774660598
 20
-25.4344720306
 40
16.2966318511
100
AcDbArc
 50
206.0350829578
 51
206.1984781096
  0
ARC
  5
360
100
AcDbEntity
  8
0
100
AcDbCircle
 62
7
  6
CONTINUOUS
 10
-19.1293971172
 20
-19.6314366876
 40
14.5897650621
100
AcDbArc
 50
243.3130487244
 51
243.5527387092
  0
ARC
  5
361
100
AcDbEntity
  8
0
100
AcDbCircle
 62
7
  6
CONTINUOUS
 10
-30.850422574
 20
-19.6717043012
 40
14.5447241041
100
AcDbArc
 50
296.4467334955
 51
296.6871679444
  0
CIRCLE
  5
362
100
AcDbEntity
  8
ASSI
100
AcDbCircle
 62
7
  6
CONTINUOUS
 10
-0.0
 20
-5.0670079796
 40
12.5
  0
CIRCLE
  5
363
100
AcDbEntity
  8
0
100
AcDbCircle
 62
7
  6
CONTINUOUS
 10
-0.0
 20
-5.0670079796
 40
6.2449979984
  0
ARC
  5
364
100
AcDbEntity
  8
ASSI
100
AcDbCircle
 62
7
  6
CONTINUOUS
 10
-20.0
 20
-5.0670079796
 40
4.0
100
AcDbArc
 50
270.0
 51
90.0
  0
CIRCLE
  5
365
100
AcDbEntity
  8
0
100
AcDbCircle
 62
7
  6
CONTINUOUS
 10
-20.0
 20
-5.0670079796
 40
2.25
  0
CIRCLE
  5
366
100
AcDbEntity
  8
SMUSSO
100
AcDbCircle
 62
7
  6
CONTINUOUS
 10
-20.0
 20
-5.0670079796
 40
1.4999997289
  0
CIRCLE
  5
367
100
AcDbEntity
  8
SMUSSO
100
AcDbCircle
 62
7
  6
CONTINUOUS
 10
-20.0
 20
-5.0670079796
 40
1.1999998741
  0
ARC
  5
368
100
AcDbEntity
  8
0
100
AcDbCircle
 62
7
  6
CONTINUOUS
 10
-41.6513384303
 20
35.0103674364
 40
68.4863730366
100
AcDbArc
 50
347.5632074981
 51
347.9759955778
  0
ARC
  5
369
100
AcDbEntity
  8
0
100
AcDbCircle
 62
7
  6
CONTINUOUS
 10
-34.098597763
 20
10.530226084
 40
60.7504001406
100
AcDbArc
 50
11.9634546077
 51
12.428488837
  0
ARC
  5
36A
100
AcDbEntity
  8
RACCORDO
100
AcDbCircle
 62
253
  6
CONTINUOUS
 10
-32.4203670333
 20
34.8533590537
 40
1.5000802715
100
AcDbArc
 50
90.0052472736
 51
179.9947527264
  0
ARC
  5
36B
100
AcDbEntity
  8
RACCORDO
100
AcDbCircle
 62
7
  6
CONTINUOUS
 10
-13.0
 20
37.8600572188
 40
1.0
100
AcDbArc
 50
105.0000005199
 51
180.0
  0
ARC
  5
36C
100
AcDbEntity
  8
RACCORDO
100
AcDbCircle
 62
7
  6
CONTINUOUS
 10
-8.05
 20
43.8775708681
 40
0.3
100
AcDbArc
 50
105.000000638
 51
180.0
  0
ARC
  5
36D
100
AcDbEntity
  8
RACCORDO
100
AcDbCircle
 62
7
  6
CONTINUOUS
 10
-9.8
 20
42.1043657873
 40
0.3
100
AcDbArc
 50
105.0000004418
 51
180.0
  0
ARC
  5
36E
100
AcDbEntity
  8
RACCORDO
100
AcDbCircle
 62
7
  6
CONTINUOUS
 10
-11.55
 20
40.2641734085
 40
0.3
100
AcDbArc
 50
105.0000006552
 51
180.0
  0
ARC
  5
36F
100
AcDbEntity
  8
RACCORDO
100
AcDbCircle
 62
7
  6
CONTINUOUS
 10
-3.799998012
 20
45.5766089738
 40
0.3
100
AcDbArc
 50
104.9999924987
 51
180.0
  0
ARC
  5
370
100
AcDbEntity
  8
RACCORDO
100
AcDbCircle
 62
253
  6
CONTINUOUS
 10
20018.4342756161
 20
-5.0670079796
 40
20043.741044123
100
AcDbArc
 50
179.9347965198
 51
180.0652034802
  0
ARC
  5
371
100
AcDbEntity
  8
RACCORDO
100
AcDbCircle
 62
253
  6
CONTINUOUS
 10
19990.7355647758
 20
-5.0670069314
 40
20015.7923712771
100
AcDbArc
 50
179.9354653264
 51
180.0645346796
  0
ARC
  5
372
100
AcDbEntity
  8
0
100
AcDbCircle
 62
7
  6
CONTINUOUS
 10
41.3397678299
 20
-45.076846607
 40
68.1675678913
100
AcDbArc
 50
167.5622420622
 51
167.9769606663
  0
ARC
  5
373
100
AcDbEntity
  8
0
100
AcDbCircle
 62
7
  6
CONTINUOUS
 10
34.0985962294
 20
-20.6642423226
 40
60.7503985821
100
AcDbArc
 50
191.9634546509
 51
192.4284888913
  0
ARC
  5
374
100
AcDbEntity
  8
ASSI
100
AcDbCircle
 62
7
  6
CONTINUOUS
 10
20.0
 20
-5.0670079796
 40
4.0
100
AcDbArc
 50
90.0
 51
270.0
  0
CIRCLE
  5
375
100
AcDbEntity
  8
0
100
AcDbCircle
 62
7
  6
CONTINUOUS
 10
20.0
 20
-5.0670079796
 40
2.25
  0
ARC
  5
376
100
AcDbEntity
  8
RACCORDO
100
AcDbCircle
 62
253
  6
CONTINUOUS
 10
32.4203670333
 20
-44.987375013
 40
1.5000802715
100
AcDbArc
 50
270.0052472738
 51
359.9947527262
  0
CIRCLE
  5
377
100
AcDbEntity
  8
SMUSSO
100
AcDbCircle
 62
7
  6
CONTINUOUS
 10
20.0
 20
-5.0670079796
 40
1.4999997289
  0
CIRCLE
  5
378
100
AcDbEntity
  8
SMUSSO
100
AcDbCircle
 62
7
  6
CONTINUOUS
 10
20.0
 20
-5.0670079796
 40
1.1999998741
  0
ARC
  5
379
100
AcDbEntity
  8
ASSI
100
AcDbCircle
 62
7
  6
CONTINUOUS
 10
27.006618
 20
-37.6255869796
 40
0.8587214994
100
AcDbArc
 50
292.8428415932
 51
90.0
  0
ARC
  5
37A
100
AcDbEntity
  8
ASSI
100
AcDbCircle
 62
7
  6
CONTINUOUS
 10
26.928888
 20
-37.6255869796
 40
0.340698
100
AcDbArc
 50
270.0
 51
90.0
  0
ARC
  5
37B
100
AcDbEntity
  8
0
100
AcDbCircle
 62
7
  6
CONTINUOUS
 10
39.1608491112
 20
15.2817748067
 40
16.3392586147
100
AcDbArc
 50
153.8020617908
 51
153.9650284022
  0
ARC
  5
37C
100
AcDbEntity
  8
0
100
AcDbCircle
 62
7
  6
CONTINUOUS
 10
31.6510020747
 20
7.7725842923
 40
16.3387675916
100
AcDbArc
 50
116.0349730838
 51
116.1979446203
  0
ARC
  5
37D
100
AcDbEntity
  8
0
100
AcDbCircle
 62
7
  6
CONTINUOUS
 10
18.3658301865
 20
7.8070657035
 40
16.300397126
100
AcDbArc
 50
63.8016338065
 51
63.9649905686
  0
ARC
  5
37E
100
AcDbEntity
  8
0
100
AcDbCircle
 62
7
  6
CONTINUOUS
 10
10.8774993074
 20
15.3004723713
 40
16.2965948228
100
AcDbArc
 50
26.0350827721
 51
26.1984782953
  0
ARC
  5
37F
100
AcDbEntity
  8
0
100
AcDbCircle
 62
7
  6
CONTINUOUS
 10
19.1293971164
 20
9.4974207268
 40
14.5897650639
100
AcDbArc
 50
63.3130487244
 51
63.5527387092
  0
ARC
  5
380
100
AcDbEntity
  8
0
100
AcDbCircle
 62
7
  6
CONTINUOUS
 10
30.8504225725
 20
9.5376883449
 40
14.5447241007
100
AcDbArc
 50
116.4467334955
 51
116.6871679444
  0
ARC
  5
381
100
AcDbEntity
  8
RACCORDO
100
AcDbCircle
 62
253
  6
CONTINUOUS
 10
25.0003215783
 20
21.9282129658
 40
3.2864829969
100
AcDbArc
 50
269.9943937638
 51
90.0056062363
  0
ARC
  5
382
100
AcDbEntity
  8
RACCORDO
100
AcDbCircle
 62
253
  6
CONTINUOUS
 10
24.9996784191
 20
21.9282129397
 40
3.286482992
100
AcDbArc
 50
89.9943937181
 51
270.005606282
  0
CIRCLE
  5
383
100
AcDbEntity
  8
DRAFT
100
AcDbCircle
 62
7
  6
CONTINUOUS
 10
25.0
 20
21.9329920204
 40
3.25
  0
ARC
  5
384
100
AcDbEntity
  8
0
100
AcDbCircle
 62
7
  6
CONTINUOUS
 10
25.0
 20
21.9329920204
 40
2.8950136038
100
AcDbArc
 50
348.0385857315
 51
11.9614142685
  0
ARC
  5
385
100
AcDbEntity
  8
0
100
AcDbCircle
 62
7
  6
CONTINUOUS
 10
25.0
 20
21.9329920204
 40
2.8950136038
100
AcDbArc
 50
168.0385857315
 51
191.9614142685
  0
ARC
  5
386
100
AcDbEntity
  8
0
100
AcDbCircle
 62
7
  6
CONTINUOUS
 10
25.0
 20
21.9329920204
 40
2.8155023425
100
AcDbArc
 50
192.3044249574
 51
347.6955750426
  0
ARC
  5
387
100
AcDbEntity
  8
0
100
AcDbCircle
 62
7
  6
CONTINUOUS
 10
25.0
 20
21.9329920204
 40
2.8155023425
100
AcDbArc
 50
12.3044249574
 51
167.6955750426
  0
ARC
  5
388
100
AcDbEntity
  8
0
100
AcDbCircle
 62
7
  6
CONTINUOUS
 10
25.0
 20
21.9329920204
 40
1.6874840352
100
AcDbArc
 50
262.230101045
 51
277.7632444202
  0
ARC
  5
389
100
AcDbEntity
  8
0
100
AcDbCircle
 62
7
  6
CONTINUOUS
 10
25.0
 20
21.9329920204
 40
1.6874840352
100
AcDbArc
 50
82.2301010241
 51
97.7632444202
  0
ARC
  5
38A
100
AcDbEntity
  8
TRASH
100
AcDbCircle
 62
7
  6
CONTINUOUS
 10
25.0
 20
21.9329920204
 40
1.1472328625
100
AcDbArc
 50
77.9845776281
 51
102.0153200785
  0
ARC
  5
38B
100
AcDbEntity
  8
TRASH
100
AcDbCircle
 62
7
  6
CONTINUOUS
 10
25.0
 20
21.9329920204
 40
1.1472328625
100
AcDbArc
 50
257.9845776281
 51
282.0153200785
  0
ARC
  5
38C
100
AcDbEntity
  8
0
100
AcDbCircle
 62
7
  6
CONTINUOUS
 10
25.0
 20
21.9329920204
 40
0.7522905861
100
AcDbArc
 50
228.3509867785
 51
232.8981211086
  0
ARC
  5
38D
100
AcDbEntity
  8
0
100
AcDbCircle
 62
7
  6
CONTINUOUS
 10
25.0
 20
21.9329920204
 40
0.7522905861
100
AcDbArc
 50
138.3509342563
 51
221.6490283615
  0
ARC
  5
38E
100
AcDbEntity
  8
0
100
AcDbCircle
 62
7
  6
CONTINUOUS
 10
25.0
 20
21.9329920204
 40
0.7522905861
100
AcDbArc
 50
127.1018788914
 51
131.6490663885
  0
ARC
  5
38F
100
AcDbEntity
  8
0
100
AcDbCircle
 62
7
  6
CONTINUOUS
 10
25.0
 20
21.9329920204
 40
0.7522905861
100
AcDbArc
 50
48.3509867785
 51
52.8981211086
  0
ARC
  5
390
100
AcDbEntity
  8
0
100
AcDbCircle
 62
7
  6
CONTINUOUS
 10
25.0
 20
21.9329920204
 40
0.7522905861
100
AcDbArc
 50
318.3509342563
 51
41.6490283615
  0
ARC
  5
391
100
AcDbEntity
  8
0
100
AcDbCircle
 62
7
  6
CONTINUOUS
 10
25.0
 20
21.9329920204
 40
0.7522905861
100
AcDbArc
 50
307.1018788914
 51
311.6490663885
  0
ARC
  5
392
100
AcDbEntity
  8
0
100
AcDbCircle
 62
7
  6
CONTINUOUS
 10
18.3489979253
 20
36.0933997484
 40
16.3387675916
100
AcDbArc
 50
296.0349730838
 51
296.1979446203
  0
ARC
  5
393
100
AcDbEntity
  8
0
100
AcDbCircle
 62
7
  6
CONTINUOUS
 10
10.8403211799
 20
28.5836354975
 40
16.3379552531
100
AcDbArc
 50
333.8020552904
 51
333.9650349025
  0
ARC
  5
394
100
AcDbEntity
  8
0
100
AcDbCircle
 62
7
  6
CONTINUOUS
 10
31.6341698143
 20
36.0589183389
 40
16.3003971278
100
AcDbArc
 50
243.8016338065
 51
243.9649905686
  0
ARC
  5
395
100
AcDbEntity
  8
0
100
AcDbCircle
 62
7
  6
CONTINUOUS
 10
39.1225339423
 20
28.5655279704
 40
16.2966318534
100
AcDbArc
 50
206.0350829578
 51
206.1984781096
  0
ARC
  5
396
100
AcDbEntity
  8
0
100
AcDbCircle
 62
7
  6
CONTINUOUS
 10
30.8706028838
 20
34.3685633143
 40
14.5897650643
100
AcDbArc
 50
243.3130487244
 51
243.5527387092
  0
ARC
  5
397
100
AcDbEntity
  8
0
100
AcDbCircle
 62
7
  6
CONTINUOUS
 10
19.1495774252
 20
34.3282957004
 40
14.5447241058
100
AcDbArc
 50
296.4467334955
 51
296.6871679444
  0
ARC
  5
398
100
AcDbEntity
  8
RACCORDO
100
AcDbCircle
 62
253
  6
CONTINUOUS
 10
32.4203670335
 20
34.8533590539
 40
1.5000802714
100
AcDbArc
 50
0.0052472679
 51
89.9947527321
  0
ARC
  5
399
100
AcDbEntity
  8
RACCORDO
100
AcDbCircle
 62
7
  6
CONTINUOUS
 10
13.0
 20
37.8600572188
 40
1.0
100
AcDbArc
 50
0.0
 51
74.9999994801
  0
ARC
  5
39A
100
AcDbEntity
  8
RACCORDO
100
AcDbCircle
 62
7
  6
CONTINUOUS
 10
8.05
 20
43.8775708681
 40
0.3
100
AcDbArc
 50
0.0
 51
74.999999362
  0
ARC
  5
39B
100
AcDbEntity
  8
RACCORDO
100
AcDbCircle
 62
7
  6
CONTINUOUS
 10
9.8
 20
42.1043657873
 40
0.3
100
AcDbArc
 50
0.0
 51
74.9999995582
  0
ARC
  5
39C
100
AcDbEntity
  8
RACCORDO
100
AcDbCircle
 62
7
  6
CONTINUOUS
 10
11.55
 20
40.2641734085
 40
0.3
100
AcDbArc
 50
0.0
 51
74.9999993448
  0
ARC
  5
39D
100
AcDbEntity
  8
RACCORDO
100
AcDbCircle
 62
7
  6
CONTINUOUS
 10
3.799998012
 20
45.5766089738
 40
0.3
100
AcDbArc
 50
0.0
 51
75.0000075013
  0
ARC
  5
39E
100
AcDbEntity
  8
0
100
AcDbCircle
 62
7
  6
CONTINUOUS
 10
91.3397678299
 20
8.923153393
 40
68.1675678913
100
AcDbArc
 50
167.5622420622
 51
167.9769606663
  0
ARC
  5
39F
100
AcDbEntity
  8
0
100
AcDbCircle
 62
7
  6
CONTINUOUS
 10
84.0985962293
 20
33.3357576774
 40
60.750398582
100
AcDbArc
 50
191.9634546509
 51
192.4284888913
  0
ARC
  5
3A0
100
AcDbEntity
  8
0
100
AcDbCircle
 62
7
  6
CONTINUOUS
 10
-104.276931436
 20
-32.181185167
 40
6.7102735547
100
AcDbArc
 50
189.2240731857
 51
192.2144727768
  0
ARC
  5
3A1
100
AcDbEntity
  8
0
100
AcDbCircle
 62
7
  6
CONTINUOUS
 10
-105.333811819
 20
-32.4432932094
 40
5.6256333922
100
AcDbArc
 50
182.5573399507
 51
188.1273895388
  0
ARC
  5
3A2
100
AcDbEntity
  8
RACCORDO
100
AcDbCircle
 62
7
  6
CONTINUOUS
 10
-105.0725134383
 20
-41.4876456629
 40
5.0
100
AcDbArc
 50
186.0585734986
 51
269.5012875131
  0
ARC
  5
3A3
100
AcDbEntity
  8
0
100
AcDbCircle
 62
7
  6
CONTINUOUS
 10
-106.187808897
 20
-32.6005089049
 40
4.7581064547
100
AcDbArc
 50
187.7070906013
 51
187.9283268688
  0
ARC
  5
3A4
100
AcDbEntity
  8
RACCORDO
100
AcDbCircle
 62
253
  6
CONTINUOUS
 10
-105.0856032378
 20
-41.4876456588
 40
3.5000000042
100
AcDbArc
 50
186.0598386792
 51
269.4999999388
  0
ARC
  5
3A5
100
AcDbEntity
  8
0
100
AcDbCircle
 62
7
  6
CONTINUOUS
 10
-109.3964069348
 20
-32.8365370901
 40
1.563941374
100
AcDbArc
 50
173.7769878709
 51
174.7820639504
  0
ARC
  5
3A6
100
AcDbEntity
  8
RACCORDO
100
AcDbCircle
 62
7
  6
CONTINUOUS
 10
-57.0003094481
 20
-45.2266220574
 40
1.0
100
AcDbArc
 50
270.5
 51
360.0
  0
ARC
  5
3A7
100
AcDbEntity
  8
0
100
AcDbCircle
 62
7
  6
CONTINUOUS
 10
-104.2712929698
 20
22.0458874989
 40
6.7160500806
100
AcDbArc
 50
167.7852489531
 51
170.7707686178
  0
ARC
  5
3A8
100
AcDbEntity
  8
0
100
AcDbCircle
 62
7
  6
CONTINUOUS
 10
-105.3183075363
 20
22.3078227307
 40
5.641198094
100
AcDbArc
 50
171.8802492409
 51
177.4349290329
  0
ARC
  5
3A9
100
AcDbEntity
  8
RACCORDO
100
AcDbCircle
 62
7
  6
CONTINUOUS
 10
-105.0725134383
 20
31.3536297036
 40
5.0
100
AcDbArc
 50
90.4987603704
 51
173.9414752159
  0
ARC
  5
3AA
100
AcDbEntity
  8
0
100
AcDbCircle
 62
7
  6
CONTINUOUS
 10
-106.1878131039
 20
22.4664935144
 40
4.7581022102
100
AcDbArc
 50
172.0687422167
 51
172.2929105112
  0
ARC
  5
3AB
100
AcDbEntity
  8
RACCORDO
100
AcDbCircle
 62
253
  6
CONTINUOUS
 10
-105.0856032378
 20
31.3536296995
 40
3.5000000042
100
AcDbArc
 50
90.5000000609
 51
173.9401613211
  0
ARC
  5
3AC
100
AcDbEntity
  8
0
100
AcDbCircle
 62
7
  6
CONTINUOUS
 10
-109.3969265271
 20
22.7024667995
 40
1.5634190378
100
AcDbArc
 50
185.2176885621
 51
186.2230965194
  0
ARC
  5
3AD
100
AcDbEntity
  8
RACCORDO
100
AcDbCircle
 62
7
  6
CONTINUOUS
 10
-59.0003094481
 20
37.8600572188
 40
1.0
100
AcDbArc
 50
0.0
 51
75.000000162
  0
ARC
  5
3AE
100
AcDbEntity
  8
RACCORDO
100
AcDbCircle
 62
7
  6
CONTINUOUS
 10
-85.0003094481
 20
37.8600572188
 40
1.0
100
AcDbArc
 50
104.999999838
 51
180.0
  0
ARC
  5
3AF
100
AcDbEntity
  8
RACCORDO
100
AcDbCircle
 62
7
  6
CONTINUOUS
 10
-57.0003094481
 20
35.0926060559
 40
1.0
100
AcDbArc
 50
0.0000024223
 51
89.5000000211
  0
ARC
  5
3B0
100
AcDbEntity
  8
RACCORDO
100
AcDbCircle
 62
7
  6
CONTINUOUS
 10
-68.2003094481
 20
45.5766089738
 40
0.3
100
AcDbArc
 50
0.0
 51
75.0000110411
  0
ARC
  5
3B1
100
AcDbEntity
  8
RACCORDO
100
AcDbCircle
 62
7
  6
CONTINUOUS
 10
-75.8003094481
 20
45.5766089738
 40
0.3
100
AcDbArc
 50
104.9999889589
 51
180.0
  0
ARC
  5
3B2
100
AcDbEntity
  8
RACCORDO
100
AcDbCircle
 62
7
  6
CONTINUOUS
 10
-63.9503094481
 20
43.8775708681
 40
0.3
100
AcDbArc
 50
0.0
 51
74.9999999092
  0
ARC
  5
3B3
100
AcDbEntity
  8
RACCORDO
100
AcDbCircle
 62
7
  6
CONTINUOUS
 10
-80.0503094481
 20
43.8775708681
 40
0.3
100
AcDbArc
 50
105.0000000908
 51
180.0
  0
ARC
  5
3B4
100
AcDbEntity
  8
RACCORDO
100
AcDbCircle
 62
7
  6
CONTINUOUS
 10
-62.2003094481
 20
42.1043657873
 40
0.3
100
AcDbArc
 50
0.0
 51
74.9999995436
  0
ARC
  5
3B5
100
AcDbEntity
  8
RACCORDO
100
AcDbCircle
 62
7
  6
CONTINUOUS
 10
-81.8003094481
 20
42.1043657873
 40
0.3
100
AcDbArc
 50
105.0000004564
 51
180.0
  0
ARC
  5
3B6
100
AcDbEntity
  8
RACCORDO
100
AcDbCircle
 62
7
  6
CONTINUOUS
 10
-60.4503094481
 20
40.2641734085
 40
0.3
100
AcDbArc
 50
0.0
 51
75.0000010764
  0
ARC
  5
3B7
100
AcDbEntity
  8
RACCORDO
100
AcDbCircle
 62
7
  6
CONTINUOUS
 10
-83.5503094481
 20
40.2641734085
 40
0.3
100
AcDbArc
 50
104.9999989236
 51
180.0
  0
ARC
  5
3B8
100
AcDbEntity
  8
ASSI
100
AcDbCircle
 62
7
  6
CONTINUOUS
 10
237.9996905519
 20
-5.0670079796
 40
350.15
100
AcDbArc
 50
185.194226157
 51
185.6544782134
  0
ARC
  5
3B9
100
AcDbEntity
  8
RACCORDO
100
AcDbCircle
 62
7
  6
CONTINUOUS
 10
237.9996905519
 20
-5.0670079796
 40
350.0
100
AcDbArc
 50
173.9401801511
 51
186.0598205449
  0
ARC
  5
3BA
100
AcDbEntity
  8
RACCORDO
100
AcDbCircle
 62
253
  6
CONTINUOUS
 10
237.9866006511
 20
-5.0670079796
 40
348.499999903
100
AcDbArc
 50
173.9401613803
 51
186.0598386197
  0
LINE
  5
3BB
100
AcDbEntity
  8
0
100
AcDbLine
 62
7
  6
CONTINUOUS
 10
25.5999998582
 20
22.5329920204
 11
25.6272972341
 21
22.560289427
  0
LINE
  5
3BC
100
AcDbEntity
  8
0
100
AcDbLine
 62
7
  6
CONTINUOUS
 10
25.5197234842
 20
22.4527155045
 11
25.5204046481
 21
22.4533966685
  0
LINE
  5
3BD
100
AcDbEntity
  8
0
100
AcDbLine
 62
7
  6
CONTINUOUS
 10
25.6272975163
 20
21.3056945111
 11
25.6000000064
 21
21.3329920204
  0
LINE
  5
3BE
100
AcDbEntity
  8
0
100
AcDbLine
 62
7
  6
CONTINUOUS
 10
25.5204046482
 20
21.4125873722
 11
25.5197234842
 21
21.4132685362
  0
LINE
  5
3BF
100
AcDbEntity
  8
0
100
AcDbLine
 62
7
  6
CONTINUOUS
 10
24.4802732178
 20
21.4132745854
 11
24.4378661378
 21
21.4330453762
  0
SPLINE
  5
3C0
100
AcDbEntity
  8
0
100
AcDbSpline
 62
7
  6
CONTINUOUS
 70
0
 71
3
 72
9
 73
5
 74
3
 42
0.0000001
 43
0.0000001
 44
0.0000000001
 12
-0.1041126532
 22
0.0452995647
 32
0.0
 13
-0.1041126532
 23
0.0452995647
 33
0.0
 40
0.0
 40
0.0
 40
0.0
 40
0.0
 40
0.4996939835
 40
1.0
 40
1.0
 40
1.0
 40
1.0
 10
25.3324714129
 20
20.7431853248
 30
0.0
 10
25.3151299241
 20
20.7507306314
 30
0.0
 10
25.2805308434
 20
20.7660752595
 30
0.0
 10
25.245510957
 20
20.7804401952
 30
0.0
 10
25.2281482281
 20
20.7879947435
 30
0.0
 11
25.3324714129
 21
20.7431853248
 31
0.0
 11
25.2804469465
 21
20.7658212447
 31
0.0
 11
25.2281482281
 21
20.7879947435
 31
0.0
  0
SPLINE
  5
3C1
100
AcDbEntity
  8
0
100
AcDbSpline
 62
7
  6
CONTINUOUS
 70
0
 71
3
 72
9
 73
5
 74
3
 42
0.0000001
 43
0.0000001
 44
0.0000000001
 12
-0.0010793166
 22
-0.5269772644
 32
0.0
 13
0.0000227564
 23
-0.5269783692
 33
0.0
 40
0.0
 40
0.0
 40
0.0
 40
0.0
 40
0.4866884719
 40
1.0
 40
1.0
 40
1.0
 40
1.0
 10
25.2283532711
 20
20.7879524373
 30
0.0
 10
25.2281781741
 20
20.7024611841
 30
0.0
 10
25.2279940804
 20
20.5268017583
 30
0.0
 10
25.2279414059
 20
20.3511423084
 30
0.0
 10
25.2279452996
 20
20.2609742844
 30
0.0
 11
25.2283532711
 21
20.7879524373
 31
0.0
 11
25.2280301102
 21
20.5314783434
 31
0.0
 11
25.2279452996
 21
20.2609742844
 31
0.0
  0
LINE
  5
3C2
100
AcDbEntity
  8
TRASH
100
AcDbLine
 62
7
  6
CONTINUOUS
 10
25.2388223825
 20
20.8108857266
 11
25.2281482281
 21
20.7879947435
  0
LINE
  5
3C3
100
AcDbEntity
  8
TRASH
100
AcDbLine
 62
7
  6
CONTINUOUS
 10
24.7718517819
 20
20.7879947502
 11
24.7611776274
 21
20.8108857334
  0
LINE
  5
3C4
100
AcDbEntity
  8
0
100
AcDbLine
 62
7
  6
CONTINUOUS
 10
25.4999464956
 20
22.4951260146
 11
25.519717435
 21
22.4527188026
  0
LINE
  5
3C5
100
AcDbEntity
  8
0
100
AcDbLine
 62
7
  6
CONTINUOUS
 10
24.7718605079
 20
20.2610007701
 11
24.77180726
 21
20.7879840972
  0
LINE
  5
3C6
100
AcDbEntity
  8
0
100
AcDbLine
 62
7
  6
CONTINUOUS
 10
24.7718517819
 20
20.7879947502
 11
24.6676955419
 21
20.7429442713
  0
LINE
  5
3C7
100
AcDbEntity
  8
0
100
AcDbLine
 62
7
  6
CONTINUOUS
 10
25.2388260178
 20
23.0550948339
 11
25.482289287
 21
22.5329920204
  0
LINE
  5
3C8
100
AcDbEntity
  8
0
100
AcDbLine
 62
7
  6
CONTINUOUS
 10
24.4000001418
 20
21.3329920204
 11
24.3727027659
 21
21.3056946138
  0
LINE
  5
3C9
100
AcDbEntity
  8
0
100
AcDbLine
 62
7
  6
CONTINUOUS
 10
24.5177101929
 20
22.5329920204
 11
24.761175259
 21
23.0550986737
  0
LINE
  5
3CA
100
AcDbEntity
  8
0
100
AcDbLine
 62
7
  6
CONTINUOUS
 10
24.4802765161
 20
22.4527155042
 11
24.5000529828
 21
22.4951255507
  0
LINE
  5
3CB
100
AcDbEntity
  8
0
100
AcDbLine
 62
7
  6
CONTINUOUS
 10
25.3324714129
 20
20.7431853248
 11
25.3450726247
 21
20.7613870394
  0
SPLINE
  5
3CC
100
AcDbEntity
  8
0
100
AcDbSpline
 62
7
  6
CONTINUOUS
 70
0
 71
3
 72
14
 73
10
 74
8
 42
0.0000001
 43
0.0000001
 44
0.0000000001
 12
-0.2730585867
 22
-0.5489866675
 32
0.0
 13
-0.289044073
 23
-0.540741044
 33
0.0
 40
0.0
 40
0.0
 40
0.0
 40
0.0
 40
0.1676248277
 40
0.3171576827
 40
0.4562893429
 40
0.5918233207
 40
0.7276155638
 40
0.864047256
 40
1.0
 40
1.0
 40
1.0
 40
1.0
 10
25.6272975163
 20
21.3056945111
 30
0.0
 10
25.6120403835
 20
21.2750199126
 30
0.0
 10
25.5829595006
 20
21.2170873627
 30
0.0
 10
25.5406143527
 20
21.1339978015
 30
0.0
 10
25.5008782789
 20
21.0569412282
 30
0.0
 10
25.4621295799
 20
20.9825360941
 30
0.0
 10
25.4233766698
 20
20.9087559443
 30
0.0
 10
25.3843521543
 20
20.835022283
 30
0.0
 10
25.358171403
 20
20.7858921156
 30
0.0
 10
25.3450726247
 20
20.7613870394
 30
0.0
 11
25.6272975163
 21
21.3056945111
 31
0.0
 11
25.5812021728
 21
21.2138325539
 31
0.0
 11
25.5395816954
 21
21.1321383266
 31
0.0
 11
25.5004898034
 21
21.0563143888
 31
0.0
 11
25.4621109415
 21
20.9826054172
 31
0.0
 11
25.4233989743
 21
20.9088919359
 31
0.0
 11
25.3842715128
 21
20.8349542737
 31
0.0
 11
25.3450726247
 21
20.7613870394
 31
0.0
  0
LINE
  5
3CD
100
AcDbEntity
  8
0
100
AcDbLine
 62
7
  6
CONTINUOUS
 10
24.4802765158
 20
21.4132685362
 11
24.4795953519
 21
21.4125873722
  0
SPLINE
  5
3CE
100
AcDbEntity
  8
0
100
AcDbSpline
 62
7
  6
CONTINUOUS
 70
0
 71
3
 72
14
 73
10
 74
8
 42
0.0000001
 43
0.0000001
 44
0.0000000001
 12
-0.2890440051
 22
0.5407409237
 32
0.0
 13
-0.2730624198
 23
0.5489846067
 33
0.0
 40
0.0
 40
0.0
 40
0.0
 40
0.0
 40
0.1360891828
 40
0.2724205737
 40
0.4077679873
 40
0.5429185838
 40
0.6821509024
 40
0.8319710672
 40
1.0
 40
1.0
 40
1.0
 40
1.0
 10
24.6549273261
 20
20.7613871314
 30
0.0
 10
24.6418154053
 20
20.7859167949
 30
0.0
 10
24.615631394
 20
20.8350535799
 30
0.0
 10
24.5766458475
 20
20.9087133377
 30
0.0
 10
24.5379810709
 20
20.9823254006
 30
0.0
 10
24.4992997455
 20
21.0565979447
 30
0.0
 10
24.459561889
 20
21.1336546285
 30
0.0
 10
24.4171401248
 20
21.216886822
 30
0.0
 10
24.3879968949
 20
21.2749461812
 30
0.0
 10
24.3727027659
 20
21.3056946138
 30
0.0
 11
24.6549273261
 21
20.7613871314
 31
0.0
 11
24.6156892747
 21
20.8350282683
 31
0.0
 11
24.576590623
 21
20.9089115755
 31
0.0
 11
24.5380052001
 21
20.9823834232
 31
0.0
 11
24.4997337038
 21
21.0558832526
 31
0.0
 11
24.460611828
 21
21.1317611482
 31
0.0
 11
24.4189092595
 21
21.2136112368
 31
0.0
 11
24.3727027659
 21
21.3056946138
 31
0.0
  0
LINE
  5
3CF
100
AcDbEntity
  8
0
100
AcDbLine
 62
7
  6
CONTINUOUS
 10
24.6676955419
 20
20.7429442713
 11
24.6549273261
 21
20.7613871314
  0
SPLINE
  5
3D0
100
AcDbEntity
  8
0
100
AcDbSpline
 62
7
  6
CONTINUOUS
 70
0
 71
3
 72
14
 73
10
 74
8
 42
0.0000001
 43
0.0000001
 44
0.0000000001
 12
0.2890440051
 22
-0.5407409237
 32
0.0
 13
0.2730624198
 23
-0.5489846067
 33
0.0
 40
0.0
 40
0.0
 40
0.0
 40
0.0
 40
0.1360891828
 40
0.2724205737
 40
0.4077679873
 40
0.5429185838
 40
0.6821509024
 40
0.8319710672
 40
1.0
 40
1.0
 40
1.0
 40
1.0
 10
25.3450726739
 20
23.1045969093
 30
0.0
 10
25.3581845947
 20
23.0800672458
 30
0.0
 10
25.384368606
 20
23.0309304609
 30
0.0
 10
25.4233541525
 20
22.957270703
 30
0.0
 10
25.4620189291
 20
22.8836586402
 30
0.0
 10
25.5007002545
 20
22.8093860961
 30
0.0
 10
25.540438111
 20
22.7323294122
 30
0.0
 10
25.5828598752
 20
22.6490972187
 30
0.0
 10
25.6120031051
 20
22.5910378595
 30
0.0
 10
25.6272972341
 20
22.560289427
 30
0.0
 11
25.3450726739
 21
23.1045969093
 31
0.0
 11
25.3843107253
 21
23.0309557724
 31
0.0
 11
25.423409377
 21
22.9570724653
 31
0.0
 11
25.4619947999
 21
22.8836006175
 31
0.0
 11
25.5002662962
 21
22.8101007881
 31
0.0
 11
25.539388172
 21
22.7342228925
 31
0.0
 11
25.5810907405
 21
22.6523728039
 31
0.0
 11
25.6272972341
 21
22.560289427
 31
0.0
  0
LINE
  5
3D1
100
AcDbEntity
  8
0
100
AcDbLine
 62
7
  6
CONTINUOUS
 10
25.3450726739
 20
23.1045969093
 11
25.3323044589
 21
23.1230397683
  0
LINE
  5
3D2
100
AcDbEntity
  8
0
100
AcDbLine
 62
7
  6
CONTINUOUS
 10
24.6549273753
 20
23.1045970013
 11
24.6675285871
 21
23.122798716
  0
SPLINE
  5
3D3
100
AcDbEntity
  8
0
100
AcDbSpline
 62
7
  6
CONTINUOUS
 70
0
 71
3
 72
14
 73
10
 74
8
 42
0.0000001
 43
0.0000001
 44
0.0000000001
 12
0.2730585867
 22
0.5489866675
 32
0.0
 13
0.289044073
 23
0.540741044
 33
0.0
 40
0.0
 40
0.0
 40
0.0
 40
0.0
 40
0.1676248277
 40
0.3171576827
 40
0.4562893429
 40
0.5918233207
 40
0.7276155638
 40
0.864047256
 40
1.0
 40
1.0
 40
1.0
 40
1.0
 10
24.3727024837
 20
22.5602895296
 30
0.0
 10
24.3879596165
 20
22.5909641281
 30
0.0
 10
24.4170404994
 20
22.648896678
 30
0.0
 10
24.4593856473
 20
22.7319862392
 30
0.0
 10
24.4991217211
 20
22.8090428125
 30
0.0
 10
24.5378704201
 20
22.8834479466
 30
0.0
 10
24.5766233302
 20
22.9572280964
 30
0.0
 10
24.6156478457
 20
23.0309617577
 30
0.0
 10
24.641828597
 20
23.0800919251
 30
0.0
 10
24.6549273753
 20
23.1045970013
 30
0.0
 11
24.3727024837
 21
22.5602895296
 31
0.0
 11
24.4187978272
 21
22.6521514868
 31
0.0
 11
24.4604183046
 21
22.7338457141
 31
0.0
 11
24.4995101966
 21
22.8096696519
 31
0.0
 11
24.5378890585
 21
22.8833786235
 31
0.0
 11
24.5766010257
 21
22.9570921048
 31
0.0
 11
24.6157284872
 21
23.031029767
 31
0.0
 11
24.6549273753
 21
23.1045970013
 31
0.0
  0
LINE
  5
3D4
100
AcDbEntity
  8
0
100
AcDbLine
 62
7
  6
CONTINUOUS
 10
25.562133536
 20
21.4330450094
 11
25.5197234839
 21
21.4132685365
  0
LINE
  5
3D5
100
AcDbEntity
  8
0
100
AcDbLine
 62
7
  6
CONTINUOUS
 10
25.5197234839
 20
21.4132685365
 11
25.4999470172
 21
21.37085849
  0
LINE
  5
3D6
100
AcDbEntity
  8
0
100
AcDbLine
 62
7
  6
CONTINUOUS
 10
25.4822898071
 20
21.3329920204
 11
25.238824741
 21
20.810885367
  0
LINE
  5
3D7
100
AcDbEntity
  8
0
100
AcDbLine
 62
7
  6
CONTINUOUS
 10
24.7611739822
 20
20.8108892069
 11
24.517710713
 21
21.3329920204
  0
LINE
  5
3D8
100
AcDbEntity
  8
0
100
AcDbLine
 62
7
  6
CONTINUOUS
 10
24.5000535044
 20
21.3708580261
 11
24.480282565
 21
21.4132652381
  0
LINE
  5
3D9
100
AcDbEntity
  8
0
100
AcDbLine
 62
7
  6
CONTINUOUS
 10
25.5197267822
 20
22.4527094553
 11
25.5621338622
 21
22.4329386645
  0
LINE
  5
3DA
100
AcDbEntity
  8
0
100
AcDbLine
 62
7
  6
CONTINUOUS
 10
24.437866464
 20
22.4329390313
 11
24.4802765161
 21
22.4527155042
  0
LINE
  5
3DB
100
AcDbEntity
  8
0
100
AcDbLine
 62
7
  6
CONTINUOUS
 10
24.3999999936
 20
22.5329920204
 11
24.3727024837
 21
22.5602895296
  0
LINE
  5
3DC
100
AcDbEntity
  8
0
100
AcDbLine
 62
7
  6
CONTINUOUS
 10
24.4802765158
 20
22.4527155045
 11
24.4795953518
 21
22.4533966685
  0
SPLINE
  5
3DD
100
AcDbEntity
  8
0
100
AcDbSpline
 62
7
  6
CONTINUOUS
 70
0
 71
3
 72
9
 73
5
 74
3
 42
0.0000001
 43
0.0000001
 44
0.0000000001
 12
0.1041126532
 22
-0.0452995647
 32
0.0
 13
0.1041126532
 23
-0.0452995647
 33
0.0
 40
0.0
 40
0.0
 40
0.0
 40
0.0
 40
0.4996939835
 40
1.0
 40
1.0
 40
1.0
 40
1.0
 10
24.6675285871
 20
23.122798716
 30
0.0
 10
24.6848700759
 20
23.1152534093
 30
0.0
 10
24.7194691566
 20
23.0999087812
 30
0.0
 10
24.754489043
 20
23.0855438455
 30
0.0
 10
24.7718517719
 20
23.0779892972
 30
0.0
 11
24.6675285871
 21
23.122798716
 31
0.0
 11
24.7195530535
 21
23.100162796
 31
0.0
 11
24.7718517719
 21
23.0779892972
 31
0.0
  0
SPLINE
  5
3DE
100
AcDbEntity
  8
0
100
AcDbSpline
 62
7
  6
CONTINUOUS
 70
0
 71
3
 72
9
 73
5
 74
3
 42
0.0000001
 43
0.0000001
 44
0.0000000001
 12
0.0010793166
 22
0.5269772644
 32
0.0
 13
-0.0000227564
 23
0.5269783692
 33
0.0
 40
0.0
 40
0.0
 40
0.0
 40
0.0
 40
0.4866884719
 40
1.0
 40
1.0
 40
1.0
 40
1.0
 10
24.7716467289
 20
23.0780316035
 30
0.0
 10
24.7718218259
 20
23.1635228566
 30
0.0
 10
24.7720059196
 20
23.3391822824
 30
0.0
 10
24.7720585941
 20
23.5148417323
 30
0.0
 10
24.7720547004
 20
23.6050097563
 30
0.0
 11
24.7716467289
 21
23.0780316035
 31
0.0
 11
24.7719698898
 21
23.3345056973
 31
0.0
 11
24.7720547004
 21
23.6050097563
 31
0.0
  0
LINE
  5
3DF
100
AcDbEntity
  8
TRASH
100
AcDbLine
 62
7
  6
CONTINUOUS
 10
24.7611776175
 20
23.0550983141
 11
24.7718517719
 21
23.0779892972
  0
LINE
  5
3E0
100
AcDbEntity
  8
0
100
AcDbLine
 62
7
  6
CONTINUOUS
 10
25.2281927449
 20
23.0779999445
 11
25.2281394927
 21
23.6049832706
  0
LINE
  5
3E1
100
AcDbEntity
  8
0
100
AcDbLine
 62
7
  6
CONTINUOUS
 10
25.2281482181
 20
23.0779892905
 11
25.3323044589
 21
23.1230397683
  0
LINE
  5
3E2
100
AcDbEntity
  8
TRASH
100
AcDbLine
 62
7
  6
CONTINUOUS
 10
25.2388223726
 20
23.0550983074
 11
25.2281482181
 21
23.0779892905
  0
LINE
  5
3E3
100
AcDbEntity
  8
0
100
AcDbLine
 62
7
  6
CONTINUOUS
 10
-24.4000001418
 20
-31.4670079796
 11
-24.3727027659
 21
-31.439710573
  0
LINE
  5
3E4
100
AcDbEntity
  8
0
100
AcDbLine
 62
7
  6
CONTINUOUS
 10
-24.4802765158
 20
-31.5472844955
 11
-24.4795953519
 21
-31.5466033315
  0
LINE
  5
3E5
100
AcDbEntity
  8
0
100
AcDbLine
 62
7
  6
CONTINUOUS
 10
-24.3727024837
 20
-32.6943054889
 11
-24.3999999936
 21
-32.6670079796
  0
LINE
  5
3E6
100
AcDbEntity
  8
0
100
AcDbLine
 62
7
  6
CONTINUOUS
 10
-24.4795953518
 20
-32.5874126278
 11
-24.4802765158
 21
-32.5867314638
  0
LINE
  5
3E7
100
AcDbEntity
  8
0
100
AcDbLine
 62
7
  6
CONTINUOUS
 10
-25.5197267822
 20
-32.5867254146
 11
-25.5621338622
 21
-32.5669546238
  0
SPLINE
  5
3E8
100
AcDbEntity
  8
0
100
AcDbSpline
 62
7
  6
CONTINUOUS
 70
0
 71
3
 72
9
 73
5
 74
3
 42
0.0000001
 43
0.0000001
 44
0.0000000001
 12
-0.1041126532
 22
0.0452995647
 32
0.0
 13
-0.1041126532
 23
0.0452995647
 33
0.0
 40
0.0
 40
0.0
 40
0.0
 40
0.0
 40
0.4996939835
 40
1.0
 40
1.0
 40
1.0
 40
1.0
 10
-24.6675285871
 20
-33.2568146752
 30
0.0
 10
-24.6848700759
 20
-33.2492693686
 30
0.0
 10
-24.7194691566
 20
-33.2339247405
 30
0.0
 10
-24.754489043
 20
-33.2195598048
 30
0.0
 10
-24.7718517719
 20
-33.2120052565
 30
0.0
 11
-24.6675285871
 21
-33.2568146752
 31
0.0
 11
-24.7195530535
 21
-33.2341787553
 31
0.0
 11
-24.7718517719
 21
-33.2120052565
 31
0.0
  0
SPLINE
  5
3E9
100
AcDbEntity
  8
0
100
AcDbSpline
 62
7
  6
CONTINUOUS
 70
0
 71
3
 72
9
 73
5
 74
3
 42
0.0000001
 43
0.0000001
 44
0.0000000001
 12
-0.0010793166
 22
-0.5269772644
 32
0.0
 13
0.0000227564
 23
-0.5269783692
 33
0.0
 40
0.0
 40
0.0
 40
0.0
 40
0.0
 40
0.4866884719
 40
1.0
 40
1.0
 40
1.0
 40
1.0
 10
-24.7716467289
 20
-33.2120475627
 30
0.0
 10
-24.7718218259
 20
-33.2975388159
 30
0.0
 10
-24.7720059196
 20
-33.4731982417
 30
0.0
 10
-24.7720585941
 20
-33.6488576916
 30
0.0
 10
-24.7720547004
 20
-33.7390257156
 30
0.0
 11
-24.7716467289
 21
-33.2120475627
 31
0.0
 11
-24.7719698898
 21
-33.4685216566
 31
0.0
 11
-24.7720547004
 21
-33.7390257156
 31
0.0
  0
LINE
  5
3EA
100
AcDbEntity
  8
TRASH
100
AcDbLine
 62
7
  6
CONTINUOUS
 10
-24.7611776175
 20
-33.1891142734
 11
-24.7718517719
 21
-33.2120052565
  0
LINE
  5
3EB
100
AcDbEntity
  8
TRASH
100
AcDbLine
 62
7
  6
CONTINUOUS
 10
-25.2281482181
 20
-33.2120052498
 11
-25.2388223726
 21
-33.1891142666
  0
LINE
  5
3EC
100
AcDbEntity
  8
0
100
AcDbLine
 62
7
  6
CONTINUOUS
 10
-24.5000535044
 20
-31.5048739854
 11
-24.480282565
 21
-31.5472811974
  0
LINE
  5
3ED
100
AcDbEntity
  8
0
100
AcDbLine
 62
7
  6
CONTINUOUS
 10
-25.2281394921
 20
-33.7389992299
 11
-25.22819274
 21
-33.2120159028
  0
LINE
  5
3EE
100
AcDbEntity
  8
0
100
AcDbLine
 62
7
  6
CONTINUOUS
 10
-25.2281482181
 20
-33.2120052498
 11
-25.3323044581
 21
-33.2570557287
  0
LINE
  5
3EF
100
AcDbEntity
  8
0
100
AcDbLine
 62
7
  6
CONTINUOUS
 10
-24.7611739822
 20
-30.9449051661
 11
-24.517710713
 21
-31.4670079796
  0
LINE
  5
3F0
100
AcDbEntity
  8
0
100
AcDbLine
 62
7
  6
CONTINUOUS
 10
-25.5999998582
 20
-32.6670079796
 11
-25.6272972341
 21
-32.6943053862
  0
LINE
  5
3F1
100
AcDbEntity
  8
0
100
AcDbLine
 62
7
  6
CONTINUOUS
 10
-25.4822898071
 20
-31.4670079796
 11
-25.238824741
 21
-30.9449013263
  0
LINE
  5
3F2
100
AcDbEntity
  8
0
100
AcDbLine
 62
7
  6
CONTINUOUS
 10
-25.5197234839
 20
-31.5472844958
 11
-25.4999470172
 21
-31.5048744493
  0
LINE
  5
3F3
100
AcDbEntity
  8
0
100
AcDbLine
 62
7
  6
CONTINUOUS
 10
-24.6675285871
 20
-33.2568146752
 11
-24.6549273753
 21
-33.2386129606
  0
SPLINE
  5
3F4
100
AcDbEntity
  8
0
100
AcDbSpline
 62
7
  6
CONTINUOUS
 70
0
 71
3
 72
14
 73
10
 74
8
 42
0.0000001
 43
0.0000001
 44
0.0000000001
 12
-0.2730585867
 22
-0.5489866675
 32
0.0
 13
-0.289044073
 23
-0.540741044
 33
0.0
 40
0.0
 40
0.0
 40
0.0
 40
0.0
 40
0.1676248277
 40
0.3171576827
 40
0.4562893429
 40
0.5918233207
 40
0.7276155638
 40
0.864047256
 40
1.0
 40
1.0
 40
1.0
 40
1.0
 10
-24.3727024837
 20
-32.6943054889
 30
0.0
 10
-24.3879596165
 20
-32.7249800874
 30
0.0
 10
-24.4170404994
 20
-32.7829126373
 30
0.0
 10
-24.4593856473
 20
-32.8660021985
 30
0.0
 10
-24.4991217211
 20
-32.9430587718
 30
0.0
 10
-24.5378704201
 20
-33.0174639059
 30
0.0
 10
-24.5766233302
 20
-33.0912440557
 30
0.0
 10
-24.6156478457
 20
-33.164977717
 30
0.0
 10
-24.641828597
 20
-33.2141078844
 30
0.0
 10
-24.6549273753
 20
-33.2386129606
 30
0.0
 11
-24.3727024837
 21
-32.6943054889
 31
0.0
 11
-24.4187978272
 21
-32.7861674461
 31
0.0
 11
-24.4604183046
 21
-32.8678616734
 31
0.0
 11
-24.4995101966
 21
-32.9436856112
 31
0.0
 11
-24.5378890585
 21
-33.0173945828
 31
0.0
 11
-24.5766010257
 21
-33.0911080641
 31
0.0
 11
-24.6157284872
 21
-33.1650457263
 31
0.0
 11
-24.6549273753
 21
-33.2386129606
 31
0.0
  0
LINE
  5
3F5
100
AcDbEntity
  8
0
100
AcDbLine
 62
7
  6
CONTINUOUS
 10
-25.5197234842
 20
-32.5867314638
 11
-25.5204046481
 21
-32.5874126278
  0
SPLINE
  5
3F6
100
AcDbEntity
  8
0
100
AcDbSpline
 62
7
  6
CONTINUOUS
 70
0
 71
3
 72
14
 73
10
 74
8
 42
0.0000001
 43
0.0000001
 44
0.0000000001
 12
-0.2890440051
 22
0.5407409237
 32
0.0
 13
-0.2730624198
 23
0.5489846067
 33
0.0
 40
0.0
 40
0.0
 40
0.0
 40
0.0
 40
0.1360891828
 40
0.2724205737
 40
0.4077679873
 40
0.5429185838
 40
0.6821509024
 40
0.8319710672
 40
1.0
 40
1.0
 40
1.0
 40
1.0
 10
-25.3450726739
 20
-33.2386128686
 30
0.0
 10
-25.3581845947
 20
-33.2140832051
 30
0.0
 10
-25.384368606
 20
-33.1649464201
 30
0.0
 10
-25.4233541525
 20
-33.0912866623
 30
0.0
 10
-25.4620189291
 20
-33.0176745994
 30
0.0
 10
-25.5007002545
 20
-32.9434020553
 30
0.0
 10
-25.540438111
 20
-32.8663453715
 30
0.0
 10
-25.5828598752
 20
-32.783113178
 30
0.0
 10
-25.6120031051
 20
-32.7250538188
 30
0.0
 10
-25.6272972341
 20
-32.6943053862
 30
0.0
 11
-25.3450726739
 21
-33.2386128686
 31
0.0
 11
-25.3843107253
 21
-33.1649717317
 31
0.0
 11
-25.423409377
 21
-33.0910884245
 31
0.0
 11
-25.4619947999
 21
-33.0176165768
 31
0.0
 11
-25.5002662962
 21
-32.9441167474
 31
0.0
 11
-25.539388172
 21
-32.8682388518
 31
0.0
 11
-25.5810907405
 21
-32.7863887632
 31
0.0
 11
-25.6272972341
 21
-32.6943053862
 31
0.0
  0
LINE
  5
3F7
100
AcDbEntity
  8
0
100
AcDbLine
 62
7
  6
CONTINUOUS
 10
-25.3323044581
 20
-33.2570557287
 11
-25.3450726739
 21
-33.2386128686
  0
SPLINE
  5
3F8
100
AcDbEntity
  8
0
100
AcDbSpline
 62
7
  6
CONTINUOUS
 70
0
 71
3
 72
14
 73
10
 74
8
 42
0.0000001
 43
0.0000001
 44
0.0000000001
 12
0.2890440051
 22
-0.5407409237
 32
0.0
 13
0.2730624198
 23
-0.5489846067
 33
0.0
 40
0.0
 40
0.0
 40
0.0
 40
0.0
 40
0.1360891828
 40
0.2724205737
 40
0.4077679873
 40
0.5429185838
 40
0.6821509024
 40
0.8319710672
 40
1.0
 40
1.0
 40
1.0
 40
1.0
 10
-24.6549273261
 20
-30.8954030907
 30
0.0
 10
-24.6418154053
 20
-30.9199327542
 30
0.0
 10
-24.615631394
 20
-30.9690695391
 30
0.0
 10
-24.5766458475
 20
-31.042729297
 30
0.0
 10
-24.5379810709
 20
-31.1163413598
 30
0.0
 10
-24.4992997455
 20
-31.1906139039
 30
0.0
 10
-24.459561889
 20
-31.2676705878
 30
0.0
 10
-24.4171401248
 20
-31.3509027813
 30
0.0
 10
-24.3879968949
 20
-31.4089621405
 30
0.0
 10
-24.3727027659
 20
-31.439710573
 30
0.0
 11
-24.6549273261
 21
-30.8954030907
 31
0.0
 11
-24.6156892747
 21
-30.9690442276
 31
0.0
 11
-24.576590623
 21
-31.0429275347
 31
0.0
 11
-24.5380052001
 21
-31.1163993825
 31
0.0
 11
-24.4997337038
 21
-31.1898992119
 31
0.0
 11
-24.460611828
 21
-31.2657771075
 31
0.0
 11
-24.4189092595
 21
-31.3476271961
 31
0.0
 11
-24.3727027659
 21
-31.439710573
 31
0.0
  0
LINE
  5
3F9
100
AcDbEntity
  8
0
100
AcDbLine
 62
7
  6
CONTINUOUS
 10
-24.6549273261
 20
-30.8954030907
 11
-24.6676955411
 21
-30.8769602317
  0
LINE
  5
3FA
100
AcDbEntity
  8
0
100
AcDbLine
 62
7
  6
CONTINUOUS
 10
-25.3450726247
 20
-30.8954029987
 11
-25.3324714129
 21
-30.877201284
  0
SPLINE
  5
3FB
100
AcDbEntity
  8
0
100
AcDbSpline
 62
7
  6
CONTINUOUS
 70
0
 71
3
 72
14
 73
10
 74
8
 42
0.0000001
 43
0.0000001
 44
0.0000000001
 12
0.2730585867
 22
0.5489866675
 32
0.0
 13
0.289044073
 23
0.540741044
 33
0.0
 40
0.0
 40
0.0
 40
0.0
 40
0.0
 40
0.1676248277
 40
0.3171576827
 40
0.4562893429
 40
0.5918233207
 40
0.7276155638
 40
0.864047256
 40
1.0
 40
1.0
 40
1.0
 40
1.0
 10
-25.6272975163
 20
-31.4397104704
 30
0.0
 10
-25.6120403835
 20
-31.4090358719
 30
0.0
 10
-25.5829595006
 20
-31.351103322
 30
0.0
 10
-25.5406143527
 20
-31.2680137608
 30
0.0
 10
-25.5008782789
 20
-31.1909571875
 30
0.0
 10
-25.4621295799
 20
-31.1165520534
 30
0.0
 10
-25.4233766698
 20
-31.0427719036
 30
0.0
 10
-25.3843521543
 20
-30.9690382423
 30
0.0
 10
-25.358171403
 20
-30.9199080749
 30
0.0
 10
-25.3450726247
 20
-30.8954029987
 30
0.0
 11
-25.6272975163
 21
-31.4397104704
 31
0.0
 11
-25.5812021728
 21
-31.3478485132
 31
0.0
 11
-25.5395816954
 21
-31.2661542859
 31
0.0
 11
-25.5004898034
 21
-31.1903303481
 31
0.0
 11
-25.4621109415
 21
-31.1166213765
 31
0.0
 11
-25.4233989743
 21
-31.0429078952
 31
0.0
 11
-25.3842715128
 21
-30.968970233
 31
0.0
 11
-25.3450726247
 21
-30.8954029987
 31
0.0
  0
LINE
  5
3FC
100
AcDbEntity
  8
0
100
AcDbLine
 62
7
  6
CONTINUOUS
 10
-24.437866464
 20
-32.5669549906
 11
-24.4802765161
 21
-32.5867314635
  0
LINE
  5
3FD
100
AcDbEntity
  8
0
100
AcDbLine
 62
7
  6
CONTINUOUS
 10
-24.4802765161
 20
-32.5867314635
 11
-24.5000529828
 21
-32.62914151
  0
LINE
  5
3FE
100
AcDbEntity
  8
0
100
AcDbLine
 62
7
  6
CONTINUOUS
 10
-24.5177101929
 20
-32.6670079796
 11
-24.761175259
 21
-33.189114633
  0
LINE
  5
3FF
100
AcDbEntity
  8
0
100
AcDbLine
 62
7
  6
CONTINUOUS
 10
-25.2388260178
 20
-33.1891107931
 11
-25.482289287
 21
-32.6670079796
  0
LINE
  5
400
100
AcDbEntity
  8
0
100
AcDbLine
 62
7
  6
CONTINUOUS
 10
-25.4999464956
 20
-32.6291419739
 11
-25.519717435
 21
-32.5867347619
  0
LINE
  5
401
100
AcDbEntity
  8
0
100
AcDbLine
 62
7
  6
CONTINUOUS
 10
-24.4802732178
 20
-31.5472905447
 11
-24.4378661378
 21
-31.5670613355
  0
LINE
  5
402
100
AcDbEntity
  8
0
100
AcDbLine
 62
7
  6
CONTINUOUS
 10
-25.562133536
 20
-31.5670609687
 11
-25.5197234839
 21
-31.5472844958
  0
LINE
  5
403
100
AcDbEntity
  8
0
100
AcDbLine
 62
7
  6
CONTINUOUS
 10
-25.6000000064
 20
-31.4670079796
 11
-25.6272975163
 21
-31.4397104704
  0
LINE
  5
404
100
AcDbEntity
  8
0
100
AcDbLine
 62
7
  6
CONTINUOUS
 10
-25.5197234842
 20
-31.5472844955
 11
-25.5204046482
 21
-31.5466033315
  0
SPLINE
  5
405
100
AcDbEntity
  8
0
100
AcDbSpline
 62
7
  6
CONTINUOUS
 70
0
 71
3
 72
9
 73
5
 74
3
 42
0.0000001
 43
0.0000001
 44
0.0000000001
 12
0.1041126532
 22
-0.0452995647
 32
0.0
 13
0.1041126532
 23
-0.0452995647
 33
0.0
 40
0.0
 40
0.0
 40
0.0
 40
0.0
 40
0.4996939835
 40
1.0
 40
1.0
 40
1.0
 40
1.0
 10
-25.3324714129
 20
-30.877201284
 30
0.0
 10
-25.3151299241
 20
-30.8847465907
 30
0.0
 10
-25.2805308434
 20
-30.9000912188
 30
0.0
 10
-25.245510957
 20
-30.9144561545
 30
0.0
 10
-25.2281482281
 20
-30.9220107028
 30
0.0
 11
-25.3324714129
 21
-30.877201284
 31
0.0
 11
-25.2804469465
 21
-30.899837204
 31
0.0
 11
-25.2281482281
 21
-30.9220107028
 31
0.0
  0
SPLINE
  5
406
100
AcDbEntity
  8
0
100
AcDbSpline
 62
7
  6
CONTINUOUS
 70
0
 71
3
 72
9
 73
5
 74
3
 42
0.0000001
 43
0.0000001
 44
0.0000000001
 12
0.0010793166
 22
0.5269772644
 32
0.0
 13
-0.0000227564
 23
0.5269783692
 33
0.0
 40
0.0
 40
0.0
 40
0.0
 40
0.0
 40
0.4866884719
 40
1.0
 40
1.0
 40
1.0
 40
1.0
 10
-25.2283532711
 20
-30.9219683965
 30
0.0
 10
-25.2281781741
 20
-30.8364771434
 30
0.0
 10
-25.2279940804
 20
-30.6608177176
 30
0.0
 10
-25.2279414059
 20
-30.4851582677
 30
0.0
 10
-25.2279452996
 20
-30.3949902437
 30
0.0
 11
-25.2283532711
 21
-30.9219683965
 31
0.0
 11
-25.2280301102
 21
-30.6654943027
 31
0.0
 11
-25.2279452996
 21
-30.3949902437
 31
0.0
  0
LINE
  5
407
100
AcDbEntity
  8
TRASH
100
AcDbLine
 62
7
  6
CONTINUOUS
 10
-25.2388223825
 20
-30.9449016859
 11
-25.2281482281
 21
-30.9220107028
  0
LINE
  5
408
100
AcDbEntity
  8
0
100
AcDbLine
 62
7
  6
CONTINUOUS
 10
-24.7718072551
 20
-30.9220000555
 11
-24.7718605073
 21
-30.3950167294
  0
LINE
  5
409
100
AcDbEntity
  8
0
100
AcDbLine
 62
7
  6
CONTINUOUS
 10
-24.7718517819
 20
-30.9220107095
 11
-24.6676955411
 21
-30.8769602317
  0
LINE
  5
40A
100
AcDbEntity
  8
TRASH
100
AcDbLine
 62
7
  6
CONTINUOUS
 10
-24.7611776274
 20
-30.9449016926
 11
-24.7718517819
 21
-30.9220107095
  0
SPLINE
  5
40B
100
AcDbEntity
  8
RACCORDO
100
AcDbSpline
 62
253
  6
CONTINUOUS
 70
0
 71
3
 72
14
 73
10
 74
8
 42
0.0000001
 43
0.0000001
 44
0.0000000001
 12
0.0681678158
 22
-73.8967010029
 32
0.0
 13
-0.0681678145
 23
-73.8967010029
 33
0.0
 40
0.0
 40
0.0
 40
0.0
 40
0.0
 40
0.142529616
 40
0.2853871272
 40
0.4284405881
 40
0.5715593549
 40
0.7146128158
 40
0.857470327
 40
1.0
 40
1.0
 40
1.0
 40
1.0
 10
-32.3903975046
 20
31.8813510272
 30
0.0
 10
-32.3871588604
 20
28.3705282221
 30
0.0
 10
-32.3816085714
 20
21.3408049229
 30
0.0
 10
-32.3760620868
 20
10.7873530954
 30
0.0
 10
-32.3732875598
 20
0.2193880596
 30
0.0
 10
-32.3732875598
 20
-10.3534040192
 30
0.0
 10
-32.3760620868
 20
-20.921369055
 30
0.0
 10
-32.3816085721
 20
-31.474822286
 30
0.0
 10
-32.3871588625
 20
-38.5045469888
 30
0.0
 10
-32.3903975079
 20
-42.0153711975
 30
0.0
 11
-32.3903975046
 21
31.8813510272
 31
0.0
 11
-32.3820778176
 21
21.3488814164
 31
0.0
 11
-32.3765270767
 21
10.792179593
 31
0.0
 11
-32.3737504385
 21
0.2209966299
 31
0.0
 11
-32.3737504385
 21
-10.3550125897
 31
0.0
 11
-32.3765270768
 21
-20.9261955525
 31
0.0
 11
-32.3820778176
 21
-31.482897376
 31
0.0
 11
-32.3903975079
 21
-42.0153711975
 31
0.0
  0
SPLINE
  5
40C
100
AcDbEntity
  8
RACCORDO
100
AcDbSpline
 62
253
  6
CONTINUOUS
 70
0
 71
3
 72
14
 73
10
 74
8
 42
0.0000001
 43
0.0000001
 44
0.0000000001
 12
-0.0681678145
 22
73.8967010037
 32
0.0
 13
0.0681678158
 23
73.8967010037
 33
0.0
 40
0.0
 40
0.0
 40
0.0
 40
0.0
 40
0.1425296731
 40
0.2853871843
 40
0.4284406452
 40
0.571559412
 40
0.7146128729
 40
0.8574703841
 40
1.0
 40
1.0
 40
1.0
 40
1.0
 10
32.3903975079
 20
-42.0153712061
 30
0.0
 10
32.3871588625
 20
-38.5045469945
 30
0.0
 10
32.3816085721
 20
-31.4748222888
 30
0.0
 10
32.3760620868
 20
-20.921369055
 30
0.0
 10
32.3732875598
 20
-10.3534040192
 30
0.0
 10
32.3732875598
 20
0.2193880596
 30
0.0
 10
32.3760620868
 20
10.7873530954
 30
0.0
 10
32.3816085714
 20
21.3408049203
 30
0.0
 10
32.3871588604
 20
28.3705282169
 30
0.0
 10
32.3903975046
 20
31.8813510194
 30
0.0
 11
32.3903975079
 21
-42.0153712061
 31
0.0
 11
32.3820778176
 21
-31.482897376
 31
0.0
 11
32.3765270768
 21
-20.9261955525
 31
0.0
 11
32.3737504385
 21
-10.3550125897
 31
0.0
 11
32.3737504385
 21
0.2209966299
 31
0.0
 11
32.3765270767
 21
10.792179593
 31
0.0
 11
32.3820778176
 21
21.3488814164
 31
0.0
 11
32.3903975046
 21
31.8813510194
 31
0.0
  0
SPLINE
  5
40D
100
AcDbEntity
  8
RACCORDO
100
AcDbSpline
 62
253
  6
CONTINUOUS
 70
0
 71
3
 72
37
 73
33
 74
31
 42
0.0000001
 43
0.0000001
 44
0.0000000001
 12
-11.1085729565
 22
0.0000183804
 32
0.0
 13
11.1085729564
 23
0.0000564901
 33
0.0
 40
0.0
 40
0.0
 40
0.0
 40
0.0
 40
0.0234019237
 40
0.0481207133
 40
0.0743302286
 40
0.1022089147
 40
0.1316423911
 40
0.1618071274
 40
0.1917810425
 40
0.2213427019
 40
0.2509546034
 40
0.2821342672
 40
0.3166341188
 40
0.3559730864
 40
0.4004333612
 40
0.449214032
 40
0.5009675442
 40
0.5525960884
 40
0.6010447156
 40
0.6450588337
 40
0.6839239461
 40
0.7179877242
 40
0.7488816746
 40
0.7783478931
 40
0.8078854307
 40
0.8377953913
 40
0.8678306979
 40
0.8971896879
 40
0.9251941649
 40
0.9516817516
 40
0.9766283298
 40
1.0
 40
1.0
 40
1.0
 40
1.0
 10
25.0
 20
18.4084864521
 30
0.0
 10
24.9133460077
 20
18.4084865955
 30
0.0
 10
24.7350941688
 20
18.41504458
 30
0.0
 10
24.461333785
 20
18.4459518767
 30
0.0
 10
24.1745831362
 20
18.5018310366
 30
0.0
 10
23.8767637707
 20
18.5866568946
 30
0.0
 10
23.5740502188
 20
18.7032152933
 30
0.0
 10
23.2765856835
 20
18.851042083
 30
0.0
 10
22.993999434
 20
19.0265237254
 30
0.0
 10
22.7306817741
 20
19.2263826769
 30
0.0
 10
22.4837553303
 20
19.4528398771
 30
0.0
 10
22.2472492924
 20
19.7154521401
 30
0.0
 10
22.0177004354
 20
20.0302796164
 30
0.0
 10
21.8017542119
 20
20.4126778625
 30
0.0
 10
21.6179253762
 20
20.8696111278
 30
0.0
 10
21.4918492459
 20
21.3936595454
 30
0.0
 10
21.4476202892
 20
21.9578659125
 30
0.0
 10
21.4950649072
 20
22.5205593943
 30
0.0
 10
21.6230394044
 20
23.0406608585
 30
0.0
 10
21.8069043896
 20
23.4925273979
 30
0.0
 10
22.0213064759
 20
23.8699842053
 30
0.0
 10
22.2485633278
 20
24.1809689226
 30
0.0
 10
22.4828926457
 20
24.4411983266
 30
0.0
 10
22.7284031336
 20
24.666693151
 30
0.0
 10
22.9908283938
 20
24.8662930889
 30
0.0
 10
23.2725263899
 20
25.0416718226
 30
0.0
 10
23.5688828548
 20
25.1894854074
 30
0.0
 10
23.8711165449
 20
25.3064751468
 30
0.0
 10
24.1699692907
 20
25.3921427833
 30
0.0
 10
24.4589656705
 20
25.4487771862
 30
0.0
 10
24.7344750725
 20
25.4799553148
 30
0.0
 10
24.9134580323
 20
25.4865311707
 30
0.0
 10
25.0
 20
25.4865316108
 30
0.0
 11
25.0
 21
18.4084864521
 31
0.0
 11
24.740213862
 21
18.418046362
 31
0.0
 11
24.4673566753
 21
18.4488503545
 31
0.0
 11
24.1815821494
 21
18.5045407962
 31
0.0
 11
23.8837354706
 21
18.5893744577
 31
0.0
 11
23.5786092249
 21
18.7068622391
 31
0.0
 11
23.2785333779
 21
18.8559860148
 31
0.0
 11
22.9956676261
 21
19.0316398527
 31
0.0
 11
22.7340914505
 21
19.2301757039
 31
0.0
 11
22.4916599982
 21
19.4525097801
 31
0.0
 11
22.2598729715
 21
19.7098832664
 31
0.0
 11
22.0340866931
 21
20.0195550456
 31
0.0
 11
21.8192076536
 21
20.4000754997
 31
0.0
 11
21.6348768515
 21
20.8582781744
 31
0.0
 11
21.5081351802
 21
21.3851315014
 31
0.0
 11
21.4632104621
 21
21.9582812153
 31
0.0
 11
21.5113911359
 21
22.5297732816
 31
0.0
 11
21.6399729777
 21
23.0523827793
 31
0.0
 11
21.8242423364
 21
23.5052638906
 31
0.0
 11
22.0374723021
 21
23.8806688724
 31
0.0
 11
22.2607317013
 21
24.1861877325
 31
0.0
 11
22.4903782355
 21
24.4412176675
 31
0.0
 11
22.7314525179
 21
24.6626371182
 31
0.0
 11
22.9926146797
 21
24.8612749506
 31
0.0
 11
23.2746753108
 21
25.0368781983
 31
0.0
 11
23.5732475
 21
25.1857961836
 31
0.0
 11
23.8773932137
 21
25.3035263391
 31
0.0
 11
24.1764390779
 21
25.3892492636
 31
0.0
 11
24.4651858098
 21
25.4458362257
 31
0.0
 11
24.7405492531
 21
25.4769964366
 31
0.0
 11
25.0
 21
25.4865316108
 31
0.0
  0
SPLINE
  5
40E
100
AcDbEntity
  8
RACCORDO
100
AcDbSpline
 62
253
  6
CONTINUOUS
 70
0
 71
3
 72
37
 73
33
 74
31
 42
0.0000001
 43
0.0000001
 44
0.0000000001
 12
11.1085727591
 22
-0.0000173921
 32
0.0
 13
-11.108572759
 23
-0.0000578198
 33
0.0
 40
0.0
 40
0.0
 40
0.0
 40
0.0
 40
0.0232657058
 40
0.0478532629
 40
0.0739424373
 40
0.101717719
 40
0.1310689499
 40
0.1611669031
 40
0.1910738059
 40
0.2205590433
 40
0.25008007
 40
0.2811488164
 40
0.3155206689
 40
0.3547221024
 40
0.3990615336
 40
0.4477515171
 40
0.4994713175
 40
0.5511396529
 40
0.5996839178
 40
0.6438204604
 40
0.6828234297
 40
0.7170137807
 40
0.7480169766
 40
0.7775729224
 40
0.8071862848
 40
0.8371643025
 40
0.8672668944
 40
0.8967075336
 40
0.9248138265
 40
0.951419521
 40
0.9764949052
 40
1.0
 40
1.0
 40
1.0
 40
1.0
 10
25.0
 20
25.4865316108
 30
0.0
 10
25.0861495951
 20
25.4865314759
 30
0.0
 10
25.2634099258
 20
25.4800479503
 30
0.0
 10
25.5357587516
 20
25.4494751291
 30
0.0
 10
25.8212719118
 20
25.3941423675
 30
0.0
 10
26.1181138962
 20
25.310038282
 30
0.0
 10
26.4201456172
 20
25.1943225758
 30
0.0
 10
26.7171715835
 20
25.0474197751
 30
0.0
 10
26.9994639047
 20
24.872948071
 30
0.0
 10
27.2625538916
 20
24.6742318298
 30
0.0
 10
27.5093052829
 20
24.4491161368
 30
0.0
 10
27.7457539197
 20
24.1881056047
 30
0.0
 10
27.9755097432
 20
23.8751670867
 30
0.0
 10
28.1921608978
 20
23.4948266712
 30
0.0
 10
28.3773783664
 20
23.0398636818
 30
0.0
 10
28.5055671256
 20
22.5172748641
 30
0.0
 10
28.552391369
 20
21.9535970878
 30
0.0
 10
28.507526645
 20
21.3903085991
 30
0.0
 10
28.3816279901
 20
20.8687061263
 30
0.0
 10
28.1991127576
 20
20.4148580268
 30
0.0
 10
27.985390382
 20
20.0353580612
 30
0.0
 10
27.7583307129
 20
19.7225080266
 30
0.0
 10
27.5239462405
 20
19.4607003329
 30
0.0
 10
27.2782667781
 20
19.2338804833
 30
0.0
 10
27.0156144718
 20
19.0331455874
 30
0.0
 10
26.7336180295
 20
18.8567617647
 30
0.0
 10
26.4368184012
 20
18.7080302386
 30
0.0
 10
26.1339085602
 20
18.5902056175
 30
0.0
 10
25.8340950451
 20
18.5038223758
 30
0.0
 10
25.5438845755
 20
18.4466455269
 30
0.0
 10
25.2669911375
 20
18.4151362411
 30
0.0
 10
25.0870360185
 20
18.4084869051
 30
0.0
 10
25.0
 20
18.4084864521
 30
0.0
 11
25.0
 21
25.4865316108
 31
0.0
 11
25.2582759999
 21
25.4770826664
 31
0.0
 11
25.5297039736
 21
25.446614504
 31
0.0
 11
25.8142233246
 21
25.3914728733
 31
0.0
 11
26.1110817886
 21
25.3073640736
 31
0.0
 11
26.415551105
 21
25.1907140709
 31
0.0
 11
26.7152459501
 21
25.0424920043
 31
0.0
 11
26.9978498868
 21
24.8678290688
 31
0.0
 11
27.2592131374
 21
24.6704183657
 31
0.0
 11
27.501477359
 21
24.4493971515
 31
0.0
 11
27.733188341
 21
24.1936153222
 31
0.0
 11
27.9591530335
 21
23.8858359073
 31
0.0
 11
28.1746877223
 21
23.5074437289
 31
0.0
 11
28.3603984711
 21
23.051247663
 31
0.0
 11
28.4892443118
 21
22.5259421906
 31
0.0
 11
28.5368010176
 21
21.9533806496
 31
0.0
 11
28.4912361112
 21
21.381230669
 31
0.0
 11
28.3647187735
 21
20.8570245896
 31
0.0
 11
28.1817924704
 21
20.4021332082
 31
0.0
 11
27.9691917446
 21
20.0246130053
 31
0.0
 11
27.746103346
 21
19.7172302376
 31
0.0
 11
27.5163850824
 21
19.4606337744
 31
0.0
 11
27.2751497786
 21
19.2379177593
 31
0.0
 11
27.0137793023
 21
19.0381639187
 31
0.0
 11
26.7314455183
 21
18.8615703554
 31
0.0
 11
26.4324853681
 21
18.7117569034
 31
0.0
 11
26.127688371
 21
18.5931979306
 31
0.0
 11
25.8276722234
 21
18.5067563964
 31
0.0
 11
25.537695556
 21
18.4496241023
 31
0.0
 11
25.2609298817
 21
18.4181308016
 31
0.0
 11
25.0
 21
18.4084864521
 31
0.0
  0
SPLINE
  5
40F
100
AcDbEntity
  8
RACCORDO
100
AcDbSpline
 62
253
  6
CONTINUOUS
 70
0
 71
3
 72
37
 73
33
 74
31
 42
0.0000001
 43
0.0000001
 44
0.0000000001
 12
-11.1085727591
 22
0.0000173921
 32
0.0
 13
11.108572759
 23
0.0000578198
 33
0.0
 40
0.0
 40
0.0
 40
0.0
 40
0.0
 40
0.0232657058
 40
0.0478532629
 40
0.0739424373
 40
0.101717719
 40
0.1310689499
 40
0.1611669031
 40
0.1910738059
 40
0.2205590433
 40
0.25008007
 40
0.2811488164
 40
0.3155206689
 40
0.3547221024
 40
0.3990615336
 40
0.4477515171
 40
0.4994713175
 40
0.5511396529
 40
0.5996839178
 40
0.6438204604
 40
0.6828234297
 40
0.7170137807
 40
0.7480169766
 40
0.7775729224
 40
0.8071862848
 40
0.8371643025
 40
0.8672668944
 40
0.8967075336
 40
0.9248138265
 40
0.951419521
 40
0.9764949052
 40
1.0
 40
1.0
 40
1.0
 40
1.0
 10
-25.0
 20
-35.6205475701
 30
0.0
 10
-25.0861495951
 20
-35.6205474352
 30
0.0
 10
-25.2634099258
 20
-35.6140639095
 30
0.0
 10
-25.5357587516
 20
-35.5834910884
 30
0.0
 10
-25.8212719118
 20
-35.5281583268
 30
0.0
 10
-26.1181138962
 20
-35.4440542413
 30
0.0
 10
-26.4201456172
 20
-35.3283385351
 30
0.0
 10
-26.7171715834
 20
-35.1814357344
 30
0.0
 10
-26.9994639047
 20
-35.0069640303
 30
0.0
 10
-27.2625538916
 20
-34.8082477891
 30
0.0
 10
-27.5093052829
 20
-34.5831320961
 30
0.0
 10
-27.7457539197
 20
-34.322121564
 30
0.0
 10
-27.9755097432
 20
-34.009183046
 30
0.0
 10
-28.1921608978
 20
-33.6288426305
 30
0.0
 10
-28.3773783664
 20
-33.173879641
 30
0.0
 10
-28.5055671256
 20
-32.6512908234
 30
0.0
 10
-28.552391369
 20
-32.0876130471
 30
0.0
 10
-28.507526645
 20
-31.5243245583
 30
0.0
 10
-28.3816279901
 20
-31.0027220856
 30
0.0
 10
-28.1991127576
 20
-30.5488739861
 30
0.0
 10
-27.985390382
 20
-30.1693740204
 30
0.0
 10
-27.7583307129
 20
-29.8565239859
 30
0.0
 10
-27.5239462405
 20
-29.5947162922
 30
0.0
 10
-27.2782667781
 20
-29.3678964425
 30
0.0
 10
-27.0156144718
 20
-29.1671615466
 30
0.0
 10
-26.7336180295
 20
-28.990777724
 30
0.0
 10
-26.4368184013
 20
-28.8420461979
 30
0.0
 10
-26.1339085602
 20
-28.7242215768
 30
0.0
 10
-25.8340950451
 20
-28.6378383351
 30
0.0
 10
-25.5438845755
 20
-28.5806614862
 30
0.0
 10
-25.2669911375
 20
-28.5491522004
 30
0.0
 10
-25.0870360185
 20
-28.5425028644
 30
0.0
 10
-25.0
 20
-28.5425024114
 30
0.0
 11
-25.0
 21
-35.6205475701
 31
0.0
 11
-25.2582759999
 21
-35.6110986257
 31
0.0
 11
-25.5297039736
 21
-35.5806304633
 31
0.0
 11
-25.8142233246
 21
-35.5254888325
 31
0.0
 11
-26.1110817886
 21
-35.4413800329
 31
0.0
 11
-26.415551105
 21
-35.3247300302
 31
0.0
 11
-26.7152459501
 21
-35.1765079636
 31
0.0
 11
-26.9978498868
 21
-35.0018450281
 31
0.0
 11
-27.2592131374
 21
-34.804434325
 31
0.0
 11
-27.501477359
 21
-34.5834131108
 31
0.0
 11
-27.733188341
 21
-34.3276312815
 31
0.0
 11
-27.9591530335
 21
-34.0198518665
 31
0.0
 11
-28.1746877223
 21
-33.6414596882
 31
0.0
 11
-28.3603984711
 21
-33.1852636223
 31
0.0
 11
-28.4892443118
 21
-32.6599581499
 31
0.0
 11
-28.5368010176
 21
-32.0873966089
 31
0.0
 11
-28.4912361112
 21
-31.5152466283
 31
0.0
 11
-28.3647187735
 21
-30.9910405489
 31
0.0
 11
-28.1817924704
 21
-30.5361491674
 31
0.0
 11
-27.9691917446
 21
-30.1586289645
 31
0.0
 11
-27.746103346
 21
-29.8512461969
 31
0.0
 11
-27.5163850824
 21
-29.5946497337
 31
0.0
 11
-27.2751497786
 21
-29.3719337186
 31
0.0
 11
-27.0137793023
 21
-29.1721798779
 31
0.0
 11
-26.7314455183
 21
-28.9955863147
 31
0.0
 11
-26.4324853681
 21
-28.8457728627
 31
0.0
 11
-26.127688371
 21
-28.7272138899
 31
0.0
 11
-25.8276722234
 21
-28.6407723557
 31
0.0
 11
-25.537695556
 21
-28.5836400616
 31
0.0
 11
-25.2609298817
 21
-28.5521467609
 31
0.0
 11
-25.0
 21
-28.5425024114
 31
0.0
  0
SPLINE
  5
410
100
AcDbEntity
  8
RACCORDO
100
AcDbSpline
 62
253
  6
CONTINUOUS
 70
0
 71
3
 72
37
 73
33
 74
31
 42
0.0000001
 43
0.0000001
 44
0.0000000001
 12
11.1085729565
 22
-0.0000183804
 32
0.0
 13
-11.1085729564
 23
-0.0000564901
 33
0.0
 40
0.0
 40
0.0
 40
0.0
 40
0.0
 40
0.0234019237
 40
0.0481207133
 40
0.0743302286
 40
0.1022089147
 40
0.1316423911
 40
0.1618071274
 40
0.1917810425
 40
0.2213427019
 40
0.2509546034
 40
0.2821342672
 40
0.3166341188
 40
0.3559730864
 40
0.4004333612
 40
0.449214032
 40
0.5009675442
 40
0.5525960884
 40
0.6010447156
 40
0.6450588337
 40
0.6839239461
 40
0.7179877242
 40
0.7488816746
 40
0.7783478931
 40
0.8078854307
 40
0.8377953913
 40
0.8678306979
 40
0.8971896879
 40
0.9251941649
 40
0.9516817516
 40
0.9766283298
 40
1.0
 40
1.0
 40
1.0
 40
1.0
 10
-25.0
 20
-28.5425024114
 30
0.0
 10
-24.9133460077
 20
-28.5425025547
 30
0.0
 10
-24.7350941688
 20
-28.5490605393
 30
0.0
 10
-24.461333785
 20
-28.579967836
 30
0.0
 10
-24.1745831362
 20
-28.6358469959
 30
0.0
 10
-23.8767637707
 20
-28.7206728538
 30
0.0
 10
-23.5740502188
 20
-28.8372312526
 30
0.0
 10
-23.2765856835
 20
-28.9850580423
 30
0.0
 10
-22.993999434
 20
-29.1605396846
 30
0.0
 10
-22.7306817741
 20
-29.3603986362
 30
0.0
 10
-22.4837553303
 20
-29.5868558364
 30
0.0
 10
-22.2472492925
 20
-29.8494680994
 30
0.0
 10
-22.0177004354
 20
-30.1642955757
 30
0.0
 10
-21.8017542119
 20
-30.5466938217
 30
0.0
 10
-21.6179253762
 20
-31.0036270871
 30
0.0
 10
-21.4918492459
 20
-31.5276755047
 30
0.0
 10
-21.4476202892
 20
-32.0918818718
 30
0.0
 10
-21.4950649072
 20
-32.6545753535
 30
0.0
 10
-21.6230394044
 20
-33.1746768178
 30
0.0
 10
-21.8069043896
 20
-33.6265433572
 30
0.0
 10
-22.0213064759
 20
-34.0040001645
 30
0.0
 10
-22.2485633278
 20
-34.3149848819
 30
0.0
 10
-22.4828926457
 20
-34.5752142859
 30
0.0
 10
-22.7284031336
 20
-34.8007091103
 30
0.0
 10
-22.9908283938
 20
-35.0003090481
 30
0.0
 10
-23.2725263899
 20
-35.1756877819
 30
0.0
 10
-23.5688828548
 20
-35.3235013666
 30
0.0
 10
-23.8711165449
 20
-35.4404911061
 30
0.0
 10
-24.1699692907
 20
-35.5261587425
 30
0.0
 10
-24.4589656705
 20
-35.5827931455
 30
0.0
 10
-24.7344750725
 20
-35.6139712741
 30
0.0
 10
-24.9134580323
 20
-35.62054713
 30
0.0
 10
-25.0
 20
-35.6205475701
 30
0.0
 11
-25.0
 21
-28.5425024114
 31
0.0
 11
-24.740213862
 21
-28.5520623212
 31
0.0
 11
-24.4673566753
 21
-28.5828663138
 31
0.0
 11
-24.1815821494
 21
-28.6385567555
 31
0.0
 11
-23.8837354706
 21
-28.723390417
 31
0.0
 11
-23.5786092249
 21
-28.8408781983
 31
0.0
 11
-23.2785333779
 21
-28.9900019741
 31
0.0
 11
-22.9956676261
 21
-29.165655812
 31
0.0
 11
-22.7340914505
 21
-29.3641916632
 31
0.0
 11
-22.4916599982
 21
-29.5865257394
 31
0.0
 11
-22.2598729715
 21
-29.8438992256
 31
0.0
 11
-22.0340866931
 21
-30.1535710049
 31
0.0
 11
-21.8192076536
 21
-30.534091459
 31
0.0
 11
-21.6348768515
 21
-30.9922941336
 31
0.0
 11
-21.5081351802
 21
-31.5191474607
 31
0.0
 11
-21.4632104621
 21
-32.0922971746
 31
0.0
 11
-21.5113911359
 21
-32.6637892409
 31
0.0
 11
-21.6399729777
 21
-33.1863987386
 31
0.0
 11
-21.8242423364
 21
-33.6392798498
 31
0.0
 11
-22.0374723021
 21
-34.0146848317
 31
0.0
 11
-22.2607317013
 21
-34.3202036917
 31
0.0
 11
-22.4903782355
 21
-34.5752336268
 31
0.0
 11
-22.7314525179
 21
-34.7966530775
 31
0.0
 11
-22.9926146797
 21
-34.9952909099
 31
0.0
 11
-23.2746753108
 21
-35.1708941576
 31
0.0
 11
-23.5732475
 21
-35.3198121429
 31
0.0
 11
-23.8773932137
 21
-35.4375422984
 31
0.0
 11
-24.1764390779
 21
-35.5232652229
 31
0.0
 11
-24.4651858098
 21
-35.579852185
 31
0.0
 11
-24.7405492531
 21
-35.6110123959
 31
0.0
 11
-25.0
 21
-35.6205475701
 31
0.0
  0
SPLINE
  5
411
100
AcDbEntity
  8
RACCORDO
100
AcDbSpline
 62
7
  6
CONTINUOUS
 70
0
 71
3
 72
14
 73
10
 74
8
 42
0.0000001
 43
0.0000001
 44
0.0000000001
 12
-0.0755172132
 22
0.3567687782
 32
0.0
 13
-0.2579448478
 23
0.2577814309
 33
0.0
 40
0.0
 40
0.0
 40
0.0
 40
0.0
 40
0.0513070707
 40
0.157661886
 40
0.2990548032
 40
0.4624848335
 40
0.6388622568
 40
0.8205543887
 40
1.0
 40
1.0
 40
1.0
 40
1.0
 10
-25.0441089716
 20
17.4776261606
 30
0.0
 10
-25.0454004939
 20
17.4837277475
 30
0.0
 10
-25.0606625074
 20
17.4976760888
 30
0.0
 10
-25.0824522603
 20
17.5255845677
 30
0.0
 10
-25.1174517431
 20
17.5619211477
 30
0.0
 10
-25.1574291557
 20
17.6044051118
 30
0.0
 10
-25.2016356475
 20
17.6499104166
 30
0.0
 10
-25.2473947229
 20
17.6965312278
 30
0.0
 10
-25.2783593951
 20
17.7276541055
 30
0.0
 10
-25.2937884187
 20
17.7430733543
 30
0.0
 11
-25.0441089716
 21
17.4776261606
 31
0.0
 11
-25.054934048
 21
17.4928870342
 31
0.0
 11
-25.0804589718
 21
17.5220887155
 31
0.0
 11
-25.1154420456
 21
17.5599681446
 31
0.0
 11
-25.1564863038
 21
17.6031811455
 31
0.0
 11
-25.2012166443
 21
17.6494010841
 31
0.0
 11
-25.2476418449
 21
17.6966754474
 31
0.0
 11
-25.2937884187
 21
17.7430733543
 31
0.0
  0
SPLINE
  5
412
100
AcDbEntity
  8
RACCORDO
100
AcDbSpline
 62
7
  6
CONTINUOUS
 70
0
 71
3
 72
14
 73
10
 74
8
 42
0.0000001
 43
0.0000001
 44
0.0000000001
 12
-0.0755182585
 22
-0.3567685581
 32
0.0
 13
-0.2579448481
 23
-0.2577814322
 33
0.0
 40
0.0
 40
0.0
 40
0.0
 40
0.0
 40
0.0513070486
 40
0.1576618571
 40
0.2990547739
 40
0.4624848073
 40
0.6388622366
 40
0.8205543772
 40
1.0
 40
1.0
 40
1.0
 40
1.0
 10
-25.0441089707
 20
-27.6116421156
 30
0.0
 10
-25.0454005104
 20
-27.6177436962
 30
0.0
 10
-25.0606624982
 20
-27.6316920336
 30
0.0
 10
-25.082452274
 20
-27.6596005034
 30
0.0
 10
-25.1174517523
 20
-27.6959370799
 30
0.0
 10
-25.1574291741
 20
-27.7384210393
 30
0.0
 10
-25.2016356641
 20
-27.7839263486
 30
0.0
 10
-25.247394771
 20
-27.8305471336
 30
0.0
 10
-25.2783593941
 20
-27.8616700637
 30
0.0
 10
-25.2937884187
 20
-27.8770893136
 30
0.0
 11
-25.0441089707
 21
-27.6116421156
 31
0.0
 11
-25.0549340494
 21
-27.6269029778
 31
0.0
 11
-25.0804589777
 21
-27.656104652
 31
0.0
 11
-25.1154420565
 21
-27.6939840765
 31
0.0
 11
-25.1564863198
 21
-27.7371970743
 31
0.0
 11
-25.201216666
 21
-27.7834170107
 31
0.0
 11
-25.2476418751
 21
-27.8306913705
 31
0.0
 11
-25.2937884187
 21
-27.8770893136
 31
0.0
  0
SPLINE
  5
413
100
AcDbEntity
  8
RACCORDO
100
AcDbSpline
 62
7
  6
CONTINUOUS
 70
0
 71
3
 72
14
 73
10
 74
8
 42
0.0000001
 43
0.0000001
 44
0.0000000001
 12
0.0755172132
 22
-0.3567687782
 32
0.0
 13
0.2579448478
 23
-0.2577814309
 33
0.0
 40
0.0
 40
0.0
 40
0.0
 40
0.0
 40
0.0513070707
 40
0.157661886
 40
0.2990548032
 40
0.4624848335
 40
0.6388622568
 40
0.8205543887
 40
1.0
 40
1.0
 40
1.0
 40
1.0
 10
25.0441089716
 20
-27.6116421198
 30
0.0
 10
25.0454004939
 20
-27.6177437068
 30
0.0
 10
25.0606625074
 20
-27.6316920481
 30
0.0
 10
25.0824522603
 20
-27.659600527
 30
0.0
 10
25.1174517431
 20
-27.695937107
 30
0.0
 10
25.1574291557
 20
-27.738421071
 30
0.0
 10
25.2016356475
 20
-27.7839263759
 30
0.0
 10
25.2473947229
 20
-27.8305471871
 30
0.0
 10
25.2783593951
 20
-27.8616700648
 30
0.0
 10
25.2937884187
 20
-27.8770893136
 30
0.0
 11
25.0441089716
 21
-27.6116421198
 31
0.0
 11
25.054934048
 21
-27.6269029934
 31
0.0
 11
25.0804589718
 21
-27.6561046748
 31
0.0
 11
25.1154420456
 21
-27.6939841039
 31
0.0
 11
25.1564863038
 21
-27.7371971048
 31
0.0
 11
25.2012166443
 21
-27.7834170433
 31
0.0
 11
25.2476418449
 21
-27.8306914067
 31
0.0
 11
25.2937884187
 21
-27.8770893136
 31
0.0
  0
SPLINE
  5
414
100
AcDbEntity
  8
RACCORDO
100
AcDbSpline
 62
7
  6
CONTINUOUS
 70
0
 71
3
 72
14
 73
10
 74
8
 42
0.0000001
 43
0.0000001
 44
0.0000000001
 12
0.0755182585
 22
0.3567685581
 32
0.0
 13
0.2579448481
 23
0.2577814322
 33
0.0
 40
0.0
 40
0.0
 40
0.0
 40
0.0
 40
0.0513070486
 40
0.1576618571
 40
0.2990547739
 40
0.4624848073
 40
0.6388622366
 40
0.8205543772
 40
1.0
 40
1.0
 40
1.0
 40
1.0
 10
25.0441089707
 20
17.4776261563
 30
0.0
 10
25.0454005104
 20
17.4837277369
 30
0.0
 10
25.0606624982
 20
17.4976760743
 30
0.0
 10
25.082452274
 20
17.5255845441
 30
0.0
 10
25.1174517523
 20
17.5619211206
 30
0.0
 10
25.1574291741
 20
17.60440508
 30
0.0
 10
25.2016356641
 20
17.6499103894
 30
0.0
 10
25.247394771
 20
17.6965311744
 30
0.0
 10
25.2783593941
 20
17.7276541044
 30
0.0
 10
25.2937884187
 20
17.7430733543
 30
0.0
 11
25.0441089707
 21
17.4776261563
 31
0.0
 11
25.0549340494
 21
17.4928870185
 31
0.0
 11
25.0804589777
 21
17.5220886927
 31
0.0
 11
25.1154420565
 21
17.5599681172
 31
0.0
 11
25.1564863198
 21
17.603181115
 31
0.0
 11
25.201216666
 21
17.6494010515
 31
0.0
 11
25.2476418751
 21
17.6966754113
 31
0.0
 11
25.2937884187
 21
17.7430733543
 31
0.0
  0
SPLINE
  5
415
100
AcDbEntity
  8
RACCORDO
100
AcDbSpline
 62
253
  6
CONTINUOUS
 70
0
 71
3
 72
14
 73
10
 74
8
 42
0.0000001
 43
0.0000001
 44
0.0000000001
 12
1.5226122441
 22
0.0013948985
 32
0.0
 13
0.1247357873
 23
1.5174949671
 33
0.0
 40
0.0
 40
0.0
 40
0.0
 40
0.0
 40
0.2180429709
 40
0.4254022
 40
0.6119402184
 40
0.7686095373
 40
0.8879944098
 40
0.965035456
 40
1.0
 40
1.0
 40
1.0
 40
1.0
 10
32.3903975948
 20
-42.0154809901
 30
0.0
 10
32.5010625605
 20
-42.0153796075
 30
0.0
 10
32.7170320261
 20
-42.0126703134
 30
0.0
 10
33.0272091961
 20
-42.0013699983
 30
0.0
 10
33.3068182548
 20
-41.983085717
 30
0.0
 10
33.5384482944
 20
-41.9602112313
 30
0.0
 10
33.7207105778
 20
-41.9309782229
 30
0.0
 10
33.8249154349
 20
-41.9054823566
 30
0.0
 10
33.8888867027
 20
-41.8748165662
 30
0.0
 10
33.8903404794
 20
-41.857130393
 30
0.0
 11
32.3903975948
 21
-42.0154809901
 31
0.0
 11
32.7223656733
 21
-42.0112502505
 31
0.0
 11
33.0378701414
 21
-41.9993760974
 31
0.0
 11
33.3212638844
 21
-41.980447417
 31
0.0
 11
33.5584922855
 21
-41.9554029574
 31
0.0
 11
33.7377902496
 21
-41.9254847725
 31
0.0
 11
33.8502656815
 21
-41.8921766234
 31
0.0
 11
33.8903404794
 21
-41.857130393
 31
0.0
  0
SPLINE
  5
416
100
AcDbEntity
  8
RACCORDO
100
AcDbSpline
 62
253
  6
CONTINUOUS
 70
0
 71
3
 72
14
 73
10
 74
8
 42
0.0000001
 43
0.0000001
 44
0.0000000001
 12
1.522612075
 22
-0.0013948826
 32
0.0
 13
0.1247561132
 23
-1.5174931265
 33
0.0
 40
0.0
 40
0.0
 40
0.0
 40
0.0
 40
0.2180428017
 40
0.4254018896
 40
0.6119398198
 40
0.7686091239
 40
0.8879940676
 40
0.9650352716
 40
1.0
 40
1.0
 40
1.0
 40
1.0
 10
32.3903975948
 20
31.8814647677
 30
0.0
 10
32.5010624624
 20
31.8813633864
 30
0.0
 10
32.7170317457
 20
31.8786541006
 30
0.0
 10
33.0272086827
 20
31.867353804
 30
0.0
 10
33.3068175787
 20
31.8490695737
 30
0.0
 10
33.5384476052
 20
31.8261950805
 30
0.0
 10
33.7207099252
 20
31.7969622259
 30
0.0
 10
33.8249150869
 20
31.7714661661
 30
0.0
 10
33.8888864582
 20
31.7408006788
 30
0.0
 10
33.8903404794
 20
31.7231144338
 30
0.0
 11
32.3903975948
 21
31.8814647677
 31
0.0
 11
32.7223653789
 21
31.8772340396
 31
0.0
 11
33.0378695978
 21
31.8653599122
 31
0.0
 11
33.3212631772
 21
31.8464312696
 31
0.0
 11
33.5584915337
 21
31.8213868563
 31
0.0
 11
33.7377895957
 21
31.7914687216
 31
0.0
 11
33.8502652789
 21
31.7581606215
 31
0.0
 11
33.8903404794
 21
31.7231144338
 31
0.0
  0
SPLINE
  5
417
100
AcDbEntity
  8
RACCORDO
100
AcDbSpline
 62
253
  6
CONTINUOUS
 70
0
 71
3
 72
17
 73
13
 74
11
 42
0.0000001
 43
0.0000001
 44
0.0000000001
 12
-0.0029018977
 22
-3.1308212777
 32
0.0
 13
-2.2074169347
 23
-2.2202163791
 33
0.0
 40
0.0
 40
0.0
 40
0.0
 40
0.0
 40
0.1599724356
 40
0.3141696217
 40
0.4592396095
 40
0.5920813895
 40
0.7098893377
 40
0.8101648291
 40
0.8907836564
 40
0.9500446327
 40
0.9866931558
 40
1.0
 40
1.0
 40
1.0
 40
1.0
 10
-33.8903404794
 20
-41.857130393
 30
0.0
 10
-33.8904952206
 20
-42.0240787615
 30
0.0
 10
-33.8910088527
 20
-42.3519465948
 30
0.0
 10
-33.8923849459
 20
-42.8312177757
 30
0.0
 10
-33.8943996157
 20
-43.2821420534
 30
0.0
 10
-33.8967684811
 20
-43.6951881412
 30
0.0
 10
-33.9001877894
 20
-44.0611639658
 30
0.0
 10
-33.9023015454
 20
-44.3735774087
 30
0.0
 10
-33.9093963682
 20
-44.6222897887
 30
0.0
 10
-33.9052013585
 20
-44.8109228216
 30
0.0
 10
-33.923563856
 20
-44.9167196475
 30
0.0
 10
-33.9106560475
 20
-44.9776643692
 30
0.0
 10
-33.9204472986
 20
-44.9875123936
 30
0.0
 11
-33.8903404794
 21
-41.857130393
 31
0.0
 11
-33.8911292036
 21
-42.3579750925
 31
0.0
 11
-33.892544655
 21
-42.8407370559
 31
0.0
 11
-33.8945568761
 21
-43.294920998
 31
0.0
 11
-33.8971230211
 21
-43.7108171313
 31
0.0
 11
-33.9001888792
 21
-44.0796401783
 31
0.0
 11
-33.9036894481
 21
-44.3935654388
 31
0.0
 11
-33.9075504905
 21
-44.6459391538
 31
0.0
 11
-33.9116904528
 21
-44.8314285647
 31
0.0
 11
-33.9160208412
 21
-44.9460868445
 31
0.0
 11
-33.9204472986
 21
-44.9875123936
 31
0.0
  0
SPLINE
  5
418
100
AcDbEntity
  8
RACCORDO
100
AcDbSpline
 62
253
  6
CONTINUOUS
 70
0
 71
3
 72
14
 73
10
 74
8
 42
0.0000001
 43
0.0000001
 44
0.0000000001
 12
0.0681680218
 22
-73.5802235136
 32
0.0
 13
-0.0681680204
 23
-73.5802235136
 33
0.0
 40
0.0
 40
0.0
 40
0.0
 40
0.0
 40
0.1425304104
 40
0.2853876231
 40
0.4284407859
 40
0.5715592548
 40
0.7146124174
 40
0.8574696298
 40
1.0
 40
1.0
 40
1.0
 40
1.0
 10
-33.8903404794
 20
31.7231144338
 30
0.0
 10
-33.8871018073
 20
28.2273079488
 30
0.0
 10
-33.8815514869
 20
21.227678683
 30
0.0
 10
-33.8760049752
 20
10.7194192587
 30
0.0
 10
-33.8732304441
 20
0.1967355635
 30
0.0
 10
-33.8732304445
 20
-10.3307545087
 30
0.0
 10
-33.8760049764
 20
-20.8534381928
 30
0.0
 10
-33.8815514883
 20
-31.3616966201
 30
0.0
 10
-33.8871018083
 20
-38.3613248941
 30
0.0
 10
-33.8903404794
 20
-41.857130393
 30
0.0
 11
-33.8903404794
 21
31.7231144338
 31
0.0
 11
-33.8820207176
 21
21.2356937783
 31
0.0
 11
-33.8764699667
 21
10.7242250932
 31
0.0
 11
-33.8736933236
 21
0.1983372506
 31
0.0
 11
-33.873693324
 21
-10.3323562011
 31
0.0
 11
-33.8764699679
 21
-20.858244028
 31
0.0
 11
-33.8820207195
 21
-31.3697126955
 31
0.0
 11
-33.8903404794
 21
-41.857130393
 31
0.0
  0
SPLINE
  5
419
100
AcDbEntity
  8
RACCORDO
100
AcDbSpline
 62
253
  6
CONTINUOUS
 70
0
 71
3
 72
17
 73
13
 74
11
 42
0.0000001
 43
0.0000001
 44
0.0000000001
 12
2.2075974178
 22
-2.2200369128
 32
0.0
 13
0.0029019371
 23
-3.1308212712
 33
0.0
 40
0.0
 40
0.0
 40
0.0
 40
0.0
 40
0.0133085599
 40
0.0499587631
 40
0.1092215875
 40
0.1898423085
 40
0.2901196645
 40
0.4079285193
 40
0.5407708261
 40
0.6858411133
 40
0.8400382812
 40
1.0
 40
1.0
 40
1.0
 40
1.0
 10
-33.9204472986
 20
34.8534964344
 30
0.0
 10
-33.9106539844
 20
34.8436479363
 30
0.0
 10
-33.9235653129
 20
34.7826970554
 30
0.0
 10
-33.9052002188
 20
34.6768967447
 30
0.0
 10
-33.9093964313
 20
34.4882570705
 30
0.0
 10
-33.9023011356
 20
34.2395392366
 30
0.0
 10
-33.9001875736
 20
33.9271207841
 30
0.0
 10
-33.8967682546
 20
33.5611415635
 30
0.0
 10
-33.8943994515
 20
33.1480936538
 30
0.0
 10
-33.8923848278
 20
32.6971685376
 30
0.0
 10
-33.8910088091
 20
32.217908247
 30
0.0
 10
-33.8904952123
 20
31.8900516177
 30
0.0
 10
-33.8903404794
 20
31.7231144338
 30
0.0
 11
-33.9204472986
 21
34.8534964344
 31
0.0
 11
-33.9160205424
 21
34.812065515
 31
0.0
 11
-33.911690149
 21
34.6974019718
 31
0.0
 11
-33.90755019
 21
34.5119067737
 31
0.0
 11
-33.903689157
 21
34.2595271295
 31
0.0
 11
-33.9001886081
 21
33.9455960317
 31
0.0
 11
-33.8971227988
 21
33.5767701465
 31
0.0
 11
-33.8945567044
 21
33.1608723643
 31
0.0
 11
-33.8925445332
 21
32.7066874855
 31
0.0
 11
-33.891129128
 21
32.2239255796
 31
0.0
 11
-33.8903404794
 21
31.7231144338
 31
0.0
  0
SPLINE
  5
41A
100
AcDbEntity
  8
RACCORDO
100
AcDbSpline
 62
253
  6
CONTINUOUS
 70
0
 71
3
 72
17
 73
13
 74
11
 42
0.0000001
 43
0.0000001
 44
0.0000000001
 12
0.0029019373
 22
3.1308212712
 32
0.0
 13
2.2075981421
 23
2.2200361926
 33
0.0
 40
0.0
 40
0.0
 40
0.0
 40
0.0
 40
0.1599617188
 40
0.3141588867
 40
0.4592291739
 40
0.5920714807
 40
0.7098803355
 40
0.8101576915
 40
0.8907784125
 40
0.9500412369
 40
0.9866914401
 40
1.0
 40
1.0
 40
1.0
 40
1.0
 10
33.8903404794
 20
31.7231144338
 30
0.0
 10
33.8904952123
 20
31.8900516177
 30
0.0
 10
33.8910088091
 20
32.217908247
 30
0.0
 10
33.8923848278
 20
32.6971685376
 30
0.0
 10
33.8943994515
 20
33.1480936537
 30
0.0
 10
33.8967682545
 20
33.5611415635
 30
0.0
 10
33.9001875738
 20
33.9271207839
 30
0.0
 10
33.9023011352
 20
34.239539237
 30
0.0
 10
33.9093964324
 20
34.4882570693
 30
0.0
 10
33.9052002162
 20
34.6768967473
 30
0.0
 10
33.9235653171
 20
34.7826970512
 30
0.0
 10
33.9106539812
 20
34.8436479395
 30
0.0
 10
33.9204472986
 20
34.8534964344
 30
0.0
 11
33.8903404794
 21
31.7231144338
 31
0.0
 11
33.891129128
 21
32.2239255796
 31
0.0
 11
33.8925445332
 21
32.7066874855
 31
0.0
 11
33.8945567044
 21
33.1608723643
 31
0.0
 11
33.8971227988
 21
33.5767701465
 31
0.0
 11
33.9001886081
 21
33.9455960317
 31
0.0
 11
33.903689157
 21
34.2595271295
 31
0.0
 11
33.90755019
 21
34.5119067737
 31
0.0
 11
33.911690149
 21
34.6974019717
 31
0.0
 11
33.9160205424
 21
34.812065515
 31
0.0
 11
33.9204472986
 21
34.8534964344
 31
0.0
  0
SPLINE
  5
41B
100
AcDbEntity
  8
RACCORDO
100
AcDbSpline
 62
253
  6
CONTINUOUS
 70
0
 71
3
 72
14
 73
10
 74
8
 42
0.0000001
 43
0.0000001
 44
0.0000000001
 12
-0.0681680204
 22
73.5802235136
 32
0.0
 13
0.0681680218
 23
73.5802235136
 33
0.0
 40
0.0
 40
0.0
 40
0.0
 40
0.0
 40
0.1425303702
 40
0.2853875826
 40
0.4284407452
 40
0.5715592141
 40
0.7146123769
 40
0.8574695896
 40
1.0
 40
1.0
 40
1.0
 40
1.0
 10
33.8903404794
 20
-41.857130393
 30
0.0
 10
33.8871018083
 20
-38.3613248941
 30
0.0
 10
33.8815514883
 20
-31.3616966201
 30
0.0
 10
33.8760049764
 20
-20.8534381928
 30
0.0
 10
33.8732304445
 20
-10.3307545087
 30
0.0
 10
33.8732304441
 20
0.1967355635
 30
0.0
 10
33.8760049752
 20
10.7194192587
 30
0.0
 10
33.8815514869
 20
21.227678683
 30
0.0
 10
33.8871018073
 20
28.2273079488
 30
0.0
 10
33.8903404794
 20
31.7231144338
 30
0.0
 11
33.8903404794
 21
-41.857130393
 31
0.0
 11
33.8820207195
 21
-31.3697126955
 31
0.0
 11
33.8764699679
 21
-20.858244028
 31
0.0
 11
33.873693324
 21
-10.3323562011
 31
0.0
 11
33.8736933236
 21
0.1983372506
 31
0.0
 11
33.8764699667
 21
10.7242250932
 31
0.0
 11
33.8820207176
 21
21.2356937783
 31
0.0
 11
33.8903404794
 21
31.7231144338
 31
0.0
  0
SPLINE
  5
41C
100
AcDbEntity
  8
RACCORDO
100
AcDbSpline
 62
253
  6
CONTINUOUS
 70
0
 71
3
 72
17
 73
13
 74
11
 42
0.0000001
 43
0.0000001
 44
0.0000000001
 12
-2.2074162612
 22
2.2202170487
 32
0.0
 13
-0.0029018975
 23
3.1308212777
 33
0.0
 40
0.0
 40
0.0
 40
0.0
 40
0.0
 40
0.0133068442
 40
0.0499553673
 40
0.1092163436
 40
0.1898351709
 40
0.2901106623
 40
0.4079186105
 40
0.5407603905
 40
0.6858303783
 40
0.8400275644
 40
1.0
 40
1.0
 40
1.0
 40
1.0
 10
33.9204472986
 20
-44.9875123936
 30
0.0
 10
33.9106560505
 20
-44.9776643662
 30
0.0
 10
33.923563852
 20
-44.9167196514
 30
0.0
 10
33.9052013609
 20
-44.8109228192
 30
0.0
 10
33.9093963672
 20
-44.6222897898
 30
0.0
 10
33.9023015458
 20
-44.3735774083
 30
0.0
 10
33.9001877892
 20
-44.0611639659
 30
0.0
 10
33.8967684811
 20
-43.6951881411
 30
0.0
 10
33.8943996156
 20
-43.2821420534
 30
0.0
 10
33.8923849459
 20
-42.8312177757
 30
0.0
 10
33.8910088527
 20
-42.3519465948
 30
0.0
 10
33.8904952206
 20
-42.0240787615
 30
0.0
 10
33.8903404794
 20
-41.857130393
 30
0.0
 11
33.9204472986
 21
-44.9875123936
 31
0.0
 11
33.9160208412
 21
-44.9460868444
 31
0.0
 11
33.9116904528
 21
-44.8314285647
 31
0.0
 11
33.9075504905
 21
-44.6459391537
 31
0.0
 11
33.9036894481
 21
-44.3935654388
 31
0.0
 11
33.9001888792
 21
-44.0796401783
 31
0.0
 11
33.8971230211
 21
-43.7108171313
 31
0.0
 11
33.8945568761
 21
-43.294920998
 31
0.0
 11
33.892544655
 21
-42.8407370559
 31
0.0
 11
33.8911292036
 21
-42.3579750925
 31
0.0
 11
33.8903404794
 21
-41.857130393
 31
0.0
  0
SPLINE
  5
41D
100
AcDbEntity
  8
RACCORDO
100
AcDbSpline
 62
253
  6
CONTINUOUS
 70
0
 71
3
 72
14
 73
10
 74
8
 42
0.0000001
 43
0.0000001
 44
0.0000000001
 12
-1.5226122442
 22
-0.0013948985
 32
0.0
 13
-0.1247357747
 23
-1.5174949682
 33
0.0
 40
0.0
 40
0.0
 40
0.0
 40
0.0
 40
0.218042971
 40
0.4254022002
 40
0.6119402186
 40
0.7686095375
 40
0.88799441
 40
0.9650354561
 40
1.0
 40
1.0
 40
1.0
 40
1.0
 10
-32.3903975948
 20
31.8814650309
 30
0.0
 10
-32.5010625606
 20
31.8813636483
 30
0.0
 10
-32.7170320263
 20
31.8786543542
 30
0.0
 10
-33.0272091965
 20
31.8673540392
 30
0.0
 10
-33.3068182552
 20
31.8490697578
 30
0.0
 10
-33.5384482948
 20
31.8261952721
 30
0.0
 10
-33.7207105782
 20
31.7969622636
 30
0.0
 10
-33.8249154352
 20
31.7714663975
 30
0.0
 10
-33.8888867029
 20
31.7408006069
 30
0.0
 10
-33.8903404794
 20
31.7231144338
 30
0.0
 11
-32.3903975948
 21
31.8814650309
 31
0.0
 11
-32.7223656734
 21
31.8772342914
 31
0.0
 11
-33.0378701417
 21
31.8653601382
 31
0.0
 11
-33.3212638849
 21
31.8464314578
 31
0.0
 11
-33.558492286
 21
31.8213869982
 31
0.0
 11
-33.73779025
 21
31.7914688133
 31
0.0
 11
-33.8502656817
 21
31.7581606642
 31
0.0
 11
-33.8903404794
 21
31.7231144338
 31
0.0
  0
SPLINE
  5
41E
100
AcDbEntity
  8
RACCORDO
100
AcDbSpline
 62
253
  6
CONTINUOUS
 70
0
 71
3
 72
14
 73
10
 74
8
 42
0.0000001
 43
0.0000001
 44
0.0000000001
 12
-1.5226120942
 22
0.0013948833
 32
0.0
 13
-0.1247538983
 23
1.5174933278
 33
0.0
 40
0.0
 40
0.0
 40
0.0
 40
0.0
 40
0.21804282
 40
0.4254019232
 40
0.6119398629
 40
0.7686091685
 40
0.8879941045
 40
0.9650352913
 40
1.0
 40
1.0
 40
1.0
 40
1.0
 10
-32.3903975948
 20
-42.0154807581
 30
0.0
 10
-32.501062473
 20
-42.0153793767
 30
0.0
 10
-32.7170317762
 20
-42.0126700901
 30
0.0
 10
-33.0272087386
 20
-42.0013697915
 30
0.0
 10
-33.3068176523
 20
-41.9830855554
 30
0.0
 10
-33.5384476803
 20
-41.9602110626
 30
0.0
 10
-33.7207099962
 20
-41.9309781907
 30
0.0
 10
-33.8249151252
 20
-41.9054821516
 30
0.0
 10
-33.8888864848
 20
-41.8748166304
 30
0.0
 10
-33.8903404794
 20
-41.857130393
 30
0.0
 11
-32.3903975948
 21
-42.0154807581
 31
0.0
 11
-32.7223654109
 21
-42.0112500288
 31
0.0
 11
-33.037869657
 21
-41.9993758987
 31
0.0
 11
-33.3212632542
 21
-41.9804472517
 31
0.0
 11
-33.5584916155
 21
-41.9554028329
 31
0.0
 11
-33.7377896669
 21
-41.9254846922
 31
0.0
 11
-33.8502653228
 21
-41.8921765862
 31
0.0
 11
-33.8903404794
 21
-41.857130393
 31
0.0
  0
SPLINE
  5
41F
100
AcDbEntity
  8
RACCORDO
100
AcDbSpline
 62
253
  6
CONTINUOUS
 70
0
 71
3
 72
17
 73
13
 74
11
 42
0.0000001
 43
0.0000001
 44
0.0000000001
 12
2.5623221183
 22
-3.6656307072
 32
0.0
 13
0.0029019685
 23
-4.4723969746
 33
0.0
 40
0.0
 40
0.0
 40
0.0
 40
0.0
 40
0.0132895715
 40
0.0499358891
 40
0.1091930701
 40
0.1898022648
 40
0.290061644
 40
0.4078477576
 40
0.5406646729
 40
0.68570848
 40
0.8398801387
 40
1.0
 40
1.0
 40
1.0
 40
1.0
 10
-32.4205050721
 20
36.3534402619
 30
0.0
 10
-32.4091543511
 20
36.3372020414
 30
0.0
 10
-32.4256721558
 20
36.2548574833
 30
0.0
 10
-32.4040022747
 20
36.0993880636
 30
0.0
 10
-32.4100089323
 20
35.8322893131
 30
0.0
 10
-32.4021454555
 20
35.4760201401
 30
0.0
 10
-32.4003187422
 20
35.0301686386
 30
0.0
 10
-32.3968020468
 20
34.5073268681
 30
0.0
 10
-32.394465056
 20
33.9174327138
 30
0.0
 10
-32.3924407488
 20
33.2733833027
 30
0.0
 10
-32.3910669885
 20
32.5886014404
 30
0.0
 10
-32.3905523581
 20
32.1200575549
 30
0.0
 10
-32.3903974705
 20
31.8813510271
 30
0.0
 11
-32.4205050721
 21
36.3534402619
 31
0.0
 11
-32.4160744136
 21
36.2941693812
 31
0.0
 11
-32.4117450242
 21
36.1303296577
 31
0.0
 11
-32.4076058642
 21
35.86534029
 31
0.0
 11
-32.4037456804
 21
35.5048445626
 31
0.0
 11
-32.4002458521
 21
35.0564583824
 31
0.0
 11
-32.3971805789
 21
34.5296809316
 31
0.0
 11
-32.3946148076
 21
33.9356763777
 31
0.0
 11
-32.3926026776
 21
33.2869858779
 31
0.0
 11
-32.3911871261
 21
32.5974703259
 31
0.0
 11
-32.3903974705
 21
31.8813510271
 31
0.0
  0
SPLINE
  5
420
100
AcDbEntity
  8
RACCORDO
100
AcDbSpline
 62
253
  6
CONTINUOUS
 70
0
 71
3
 72
17
 73
13
 74
11
 42
0.0000001
 43
0.0000001
 44
0.0000000001
 12
0.0029019687
 22
4.4723969823
 32
0.0
 13
2.5623222372
 23
3.6656306336
 33
0.0
 40
0.0
 40
0.0
 40
0.0
 40
0.0
 40
0.1601198628
 40
0.3142915212
 40
0.459335328
 40
0.5921522431
 40
0.7099383565
 40
0.8101977356
 40
0.8908069301
 40
0.950064111
 40
0.9867104286
 40
1.0
 40
1.0
 40
1.0
 40
1.0
 10
32.3903974705
 20
31.8813510193
 30
0.0
 10
32.3905523581
 20
32.1200575497
 30
0.0
 10
32.3910669885
 20
32.5886014378
 30
0.0
 10
32.3924407488
 20
33.2733833027
 30
0.0
 10
32.394465056
 20
33.9174327138
 30
0.0
 10
32.3968020467
 20
34.5073268681
 30
0.0
 10
32.4003187423
 20
35.0301686386
 30
0.0
 10
32.4021454554
 20
35.4760201401
 30
0.0
 10
32.4100089325
 20
35.832289313
 30
0.0
 10
32.4040022743
 20
36.0993880639
 30
0.0
 10
32.4256721565
 20
36.2548574828
 30
0.0
 10
32.4091543506
 20
36.3372020417
 30
0.0
 10
32.4205050721
 20
36.3534402618
 30
0.0
 11
32.3903974705
 21
31.8813510193
 31
0.0
 11
32.3911871261
 21
32.5974703259
 31
0.0
 11
32.3926026776
 21
33.2869858779
 31
0.0
 11
32.3946148076
 21
33.9356763777
 31
0.0
 11
32.3971805789
 21
34.5296809316
 31
0.0
 11
32.4002458521
 21
35.0564583824
 31
0.0
 11
32.4037456804
 21
35.5048445626
 31
0.0
 11
32.4076058642
 21
35.86534029
 31
0.0
 11
32.4117450242
 21
36.1303296577
 31
0.0
 11
32.4160744136
 21
36.2941693812
 31
0.0
 11
32.4205050721
 21
36.3534402618
 31
0.0
  0
SPLINE
  5
421
100
AcDbEntity
  8
RACCORDO
100
AcDbSpline
 62
253
  6
CONTINUOUS
 70
0
 71
3
 72
17
 73
13
 74
11
 42
0.0000001
 43
0.0000001
 44
0.0000000001
 12
-0.0029018324
 22
-4.4723928013
 32
0.0
 13
-2.5622662129
 23
-3.6656646934
 33
0.0
 40
0.0
 40
0.0
 40
0.0
 40
0.0
 40
0.160119464
 40
0.3142912276
 40
0.4593351041
 40
0.5921521205
 40
0.7099383018
 40
0.8101977431
 40
0.8908069664
 40
0.9500641706
 40
0.9867104707
 40
1.0
 40
1.0
 40
1.0
 40
1.0
 10
-32.3903974751
 20
-42.0153711974
 30
0.0
 10
-32.390552355
 20
-42.2540769101
 30
0.0
 10
-32.3910670004
 20
-42.7226199224
 30
0.0
 10
-32.39244075
 20
-43.4074008129
 30
0.0
 10
-32.3944650651
 20
-44.0514500347
 30
0.0
 10
-32.3968020601
 20
-44.6413439904
 30
0.0
 10
-32.4003187452
 20
-45.1641856272
 30
0.0
 10
-32.4021455037
 20
-45.6100369192
 30
0.0
 10
-32.4100088584
 20
-45.9663060098
 30
0.0
 10
-32.4040024936
 20
-46.2334043728
 30
0.0
 10
-32.425671816
 20
-46.3888739464
 30
0.0
 10
-32.4091546602
 20
-46.471217938
 30
0.0
 10
-32.4205050974
 20
-46.4874562574
 30
0.0
 11
-32.3903974751
 21
-42.0153711974
 31
0.0
 11
-32.3911871312
 21
-42.7314880508
 31
0.0
 11
-32.3926026817
 21
-43.4210034285
 31
0.0
 11
-32.3946148162
 21
-44.0696936336
 31
0.0
 11
-32.3971805898
 21
-44.6636980853
 31
0.0
 11
-32.4002458661
 21
-45.1904753472
 31
0.0
 11
-32.4037456955
 21
-45.6388613867
 31
0.0
 11
-32.4076058799
 21
-45.9993569058
 31
0.0
 11
-32.4117450396
 21
-46.2643461301
 31
0.0
 11
-32.4160744319
 21
-46.4281856222
 31
0.0
 11
-32.4205050974
 21
-46.4874562574
 31
0.0
  0
SPLINE
  5
422
100
AcDbEntity
  8
RACCORDO
100
AcDbSpline
 62
253
  6
CONTINUOUS
 70
0
 71
3
 72
17
 73
13
 74
11
 42
0.0000001
 43
0.0000001
 44
0.0000000001
 12
-2.5622661071
 22
3.665664757
 32
0.0
 13
-0.0029018322
 23
4.4723927928
 33
0.0
 40
0.0
 40
0.0
 40
0.0
 40
0.0
 40
0.0132895293
 40
0.0499358295
 40
0.1091930338
 40
0.1898022573
 40
0.2900616988
 40
0.4078478803
 40
0.540664897
 40
0.6857087738
 40
0.8398805376
 40
1.0
 40
1.0
 40
1.0
 40
1.0
 10
32.4205050975
 20
-46.4874562575
 30
0.0
 10
32.4091546606
 20
-46.4712179377
 30
0.0
 10
32.4256718154
 20
-46.3888739469
 30
0.0
 10
32.404002494
 20
-46.2334043726
 30
0.0
 10
32.4100088582
 20
-45.9663060099
 30
0.0
 10
32.4021455038
 20
-45.6100369192
 30
0.0
 10
32.4003187452
 20
-45.1641856272
 30
0.0
 10
32.3968020601
 20
-44.6413439904
 30
0.0
 10
32.3944650651
 20
-44.0514500347
 30
0.0
 10
32.39244075
 20
-43.4074008129
 30
0.0
 10
32.3910670004
 20
-42.7226199253
 30
0.0
 10
32.390552355
 20
-42.2540769158
 30
0.0
 10
32.3903974751
 20
-42.0153712059
 30
0.0
 11
32.4205050975
 21
-46.4874562575
 31
0.0
 11
32.4160744319
 21
-46.4281856222
 31
0.0
 11
32.4117450396
 21
-46.2643461301
 31
0.0
 11
32.4076058799
 21
-45.9993569058
 31
0.0
 11
32.4037456955
 21
-45.6388613867
 31
0.0
 11
32.4002458661
 21
-45.1904753472
 31
0.0
 11
32.3971805898
 21
-44.6636980853
 31
0.0
 11
32.3946148162
 21
-44.0696936336
 31
0.0
 11
32.3926026817
 21
-43.4210034285
 31
0.0
 11
32.3911871312
 21
-42.7314880508
 31
0.0
 11
32.3903974751
 21
-42.0153712059
 31
0.0
  0
SPLINE
  5
423
100
AcDbEntity
  8
RACCORDO
100
AcDbSpline
 62
253
  6
CONTINUOUS
 70
0
 71
3
 72
14
 73
10
 74
8
 42
0.0000001
 43
0.0000001
 44
0.0000000001
 12
-1.5000079569
 22
0.0130903711
 32
0.0
 13
0.0130893866
 23
1.5000079655
 33
0.0
 40
0.0
 40
0.0
 40
0.0
 40
0.0
 40
0.0251436929
 40
0.0991155984
 40
0.2182485097
 40
0.3765757571
 40
0.5661614582
 40
0.7775013415
 40
1.0
 40
1.0
 40
1.0
 40
1.0
 10
-105.1161461158
 20
-46.4874552782
 30
0.0
 10
-105.128718029
 20
-46.4873455648
 30
0.0
 10
-105.1044751146
 20
-46.4079968984
 30
0.0
 10
-105.1302097893
 20
-46.3270134405
 30
0.0
 10
-105.1176252573
 20
-46.1359354861
 30
0.0
 10
-105.1230169557
 20
-45.9087308382
 30
0.0
 10
-105.1201193155
 20
-45.6268554303
 30
0.0
 10
-105.1189522872
 20
-45.3158582563
 30
0.0
 10
-105.1171169061
 20
-45.0987623137
 30
0.0
 10
-105.1161461158
 20
-44.9875123936
 30
0.0
 11
-105.1161461158
 21
-46.4874552782
 31
0.0
 11
-105.1187303576
 21
-46.4498267382
 31
0.0
 11
-105.1205287113
 21
-46.33887864
 31
0.0
 11
-105.1214510087
 21
-46.1601739005
 31
0.0
 11
-105.1214510069
 21
-45.9226727262
 31
0.0
 11
-105.1205287071
 21
-45.6382833329
 31
0.0
 11
-105.1187303537
 21
-45.3212648558
 31
0.0
 11
-105.1161461158
 21
-44.9875123936
 31
0.0
  0
SPLINE
  5
424
100
AcDbEntity
  8
RACCORDO
100
AcDbSpline
 62
253
  6
CONTINUOUS
 70
0
 71
3
 72
14
 73
10
 74
8
 42
0.0000001
 43
0.0000001
 44
0.0000000001
 12
-1.5000079567
 22
-0.0130903711
 32
0.0
 13
0.0130893743
 23
-1.5000079654
 33
0.0
 40
0.0
 40
0.0
 40
0.0
 40
0.0
 40
0.025143656
 40
0.0991154662
 40
0.2182482638
 40
0.3765754315
 40
0.5661611341
 40
0.777501127
 40
1.0
 40
1.0
 40
1.0
 40
1.0
 10
-105.1161461158
 20
36.353439319
 30
0.0
 10
-105.1287180105
 20
36.3533296057
 30
0.0
 10
-105.1044751281
 20
36.2739810459
 30
0.0
 10
-105.1302097746
 20
36.1929976789
 30
0.0
 10
-105.1176252523
 20
36.0019198801
 30
0.0
 10
-105.1230169519
 20
35.7747153273
 30
0.0
 10
-105.1201193128
 20
35.4928399025
 30
0.0
 10
-105.118952287
 20
35.1818425666
 30
0.0
 10
-105.1171169062
 20
34.9647464616
 30
0.0
 10
-105.1161461158
 20
34.8534964344
 30
0.0
 11
-105.1161461158
 21
36.353439319
 31
0.0
 11
-105.1187303533
 21
36.3158108341
 31
0.0
 11
-105.120528705
 21
36.2048628789
 31
0.0
 11
-105.1214510025
 21
36.0261583099
 31
0.0
 11
-105.1214510025
 21
35.7886572553
 31
0.0
 11
-105.1205287051
 21
35.5042678597
 31
0.0
 11
-105.1187303534
 21
35.1872492182
 31
0.0
 11
-105.1161461158
 21
34.8534964344
 31
0.0
  0
SPLINE
  5
425
100
AcDbEntity
  8
RACCORDO
100
AcDbSpline
 62
253
  6
CONTINUOUS
 70
0
 71
3
 72
25
 73
21
 74
19
 42
0.0000001
 43
0.0000001
 44
0.0000000001
 12
1.4999666205
 22
-0.0136290068
 32
0.0
 13
-0.0087274898
 23
-1.5000031478
 33
0.0
 40
0.0
 40
0.0
 40
0.0
 40
0.0
 40
0.0038393826
 40
0.0152371786
 40
0.0341247618
 40
0.0603608697
 40
0.093746787
 40
0.1340289397
 40
0.1809009113
 40
0.2340061305
 40
0.2929406331
 40
0.3572559874
 40
0.4264627881
 40
0.5000345166
 40
0.5774113479
 40
0.6580042658
 40
0.7412001088
 40
0.8263660881
 40
0.9128533091
 40
1.0
 40
1.0
 40
1.0
 40
1.0
 10
-56.9915829498
 20
36.0925680215
 30
0.0
 10
-56.9896633012
 20
36.0925505792
 30
0.0
 10
-56.9926181677
 20
36.0804390341
 30
0.0
 10
-56.9887699657
 20
36.0677048028
 30
0.0
 10
-56.9901143431
 20
36.0370036907
 30
0.0
 10
-56.9888275843
 20
35.9988204163
 30
0.0
 10
-56.9887486029
 20
35.9484576153
 30
0.0
 10
-56.9883254741
 20
35.8883332753
 30
0.0
 10
-56.9881389033
 20
35.8181534361
 30
0.0
 10
-56.9879926413
 20
35.7387120646
 30
0.0
 10
-56.9879542133
 20
35.6505278572
 30
0.0
 10
-56.98800343
 20
35.5542992213
 30
0.0
 10
-56.9881467002
 20
35.4507499409
 30
0.0
 10
-56.9883811665
 20
35.3406705414
 30
0.0
 10
-56.988705771
 20
35.2248980083
 30
0.0
 10
-56.9891179563
 20
35.1043136266
 30
0.0
 10
-56.9896147429
 20
34.9798348702
 30
0.0
 10
-56.9901922864
 20
34.8524092279
 30
0.0
 10
-56.9908464192
 20
34.7230084682
 30
0.0
 10
-56.9913294325
 20
34.6361911998
 30
0.0
 10
-56.9915829564
 20
34.5926177629
 30
0.0
 11
-56.9915829498
 21
36.0925680215
 31
0.0
 11
-56.9908557006
 21
36.0868549398
 31
0.0
 11
-56.9902003291
 21
36.0697704861
 31
0.0
 11
-56.9896219388
 21
36.0414444768
 31
0.0
 11
-56.989124861
 21
36.0020927056
 31
0.0
 11
-56.988712905
 21
35.9520145714
 31
0.0
 11
-56.9883891955
 21
35.8915910598
 31
0.0
 11
-56.9881561996
 21
35.821282151
 31
0.0
 11
-56.9880156891
 21
35.7416229305
 31
0.0
 11
-56.987968733
 21
35.6532195073
 31
0.0
 11
-56.9880156888
 21
35.5567446519
 31
0.0
 11
-56.9881561994
 21
35.4529325709
 31
0.0
 11
-56.9883891957
 21
35.3425731247
 31
0.0
 11
-56.9887129057
 21
35.2265061209
 31
0.0
 11
-56.9891248631
 21
35.1056151462
 31
0.0
 11
-56.9896219414
 21
34.9808199974
 31
0.0
 11
-56.9902003353
 21
34.8530699075
 31
0.0
 11
-56.9908557043
 21
34.7233382632
 31
0.0
 11
-56.9915829564
 21
34.5926177629
 31
0.0
  0
SPLINE
  5
426
100
AcDbEntity
  8
RACCORDO
100
AcDbSpline
 62
253
  6
CONTINUOUS
 70
0
 71
3
 72
25
 73
21
 74
19
 42
0.0000001
 43
0.0000001
 44
0.0000000001
 12
0.0087287908
 22
-1.5000020357
 32
0.0
 13
-1.4999646501
 23
-0.0137239711
 33
0.0
 40
0.0
 40
0.0
 40
0.0
 40
0.0
 40
0.0871475377
 40
0.1736347939
 40
0.2588008079
 40
0.3419966758
 40
0.422589596
 40
0.4999664218
 40
0.5735381363
 40
0.642744908
 40
0.7070602198
 40
0.765994669
 40
0.8190998223
 40
0.8659717153
 40
0.9062537816
 40
0.939639604
 40
0.9658756039
 40
0.9847630719
 40
0.9961607462
 40
1.0
 40
1.0
 40
1.0
 40
1.0
 10
-56.9915829498
 20
-44.7266348289
 30
0.0
 10
-56.9913293856
 20
-44.7702086568
 30
0.0
 10
-56.9908464407
 20
-44.8570263027
 30
0.0
 10
-56.9901922723
 20
-44.9864274253
 30
0.0
 10
-56.9896147432
 20
-45.1138530212
 30
0.0
 10
-56.9891179533
 20
-45.2383317169
 30
0.0
 10
-56.9887057706
 20
-45.3589160206
 30
0.0
 10
-56.9883811663
 20
-45.4746884599
 30
0.0
 10
-56.9881467006
 20
-45.5847677542
 30
0.0
 10
-56.9880034304
 20
-45.6883169156
 30
0.0
 10
-56.9879542133
 20
-45.7845454182
 30
0.0
 10
-56.9879926409
 20
-45.8727294795
 30
0.0
 10
-56.9881389027
 20
-45.9521706944
 30
0.0
 10
-56.9883254746
 20
-46.0223503635
 30
0.0
 10
-56.9887486018
 20
-46.0824745382
 30
0.0
 10
-56.9888275904
 20
-46.1328371319
 30
0.0
 10
-56.9901143331
 20
-46.1710202876
 30
0.0
 10
-56.9887699986
 20
-46.201721041
 30
0.0
 10
-56.9926181104
 20
-46.2144553978
 30
0.0
 10
-56.9896633748
 20
-46.2265664176
 30
0.0
 10
-56.9915829564
 20
-46.2265839808
 30
0.0
 11
-56.9915829498
 21
-44.7266348289
 31
0.0
 11
-56.9908557006
 21
-44.8573565032
 31
0.0
 11
-56.9902003291
 21
-44.9870881047
 31
0.0
 11
-56.9896219388
 21
-45.1148381527
 31
0.0
 11
-56.989124861
 21
-45.2396332468
 31
0.0
 11
-56.988712905
 21
-45.3605241361
 31
0.0
 11
-56.9883891955
 21
-45.476591046
 31
0.0
 11
-56.9881561996
 21
-45.5869503901
 31
0.0
 11
-56.9880156891
 21
-45.6907623511
 31
0.0
 11
-56.987968733
 21
-45.7872370717
 31
0.0
 11
-56.9880156888
 21
-45.8756403498
 31
0.0
 11
-56.9881561994
 21
-45.9552994126
 31
0.0
 11
-56.9883891957
 21
-46.0256081518
 31
0.0
 11
-56.9887129057
 21
-46.0860314893
 31
0.0
 11
-56.9891248631
 21
-46.1361094442
 31
0.0
 11
-56.9896219414
 21
-46.1754610245
 31
0.0
 11
-56.9902003353
 21
-46.20378684
 31
0.0
 11
-56.9908557043
 21
-46.2208710986
 31
0.0
 11
-56.9915829564
 21
-46.2265839808
 31
0.0
  0
ELLIPSE
  5
427
100
AcDbEntity
  8
RACCORDO
100
AcDbEllipse
 62
7
  6
CONTINUOUS
 10
32.4999428824
 20
34.9329349028
 30
0.0
 11
-1.0607409467
 21
-1.0607409467
 31
0.0
 40
0.9999238505
 41
8.6394178736
 42
10.210138048
  0
ELLIPSE
  5
428
100
AcDbEntity
  8
RACCORDO
100
AcDbEllipse
 62
7
  6
CONTINUOUS
 10
32.4999428824
 20
-45.0669508621
 30
0.0
 11
-1.0607409467
 21
1.0607409467
 31
0.0
 40
0.9999238505
 41
8.6394178736
 42
10.210138048
  0
ELLIPSE
  5
429
100
AcDbEntity
  8
RACCORDO
100
AcDbEllipse
 62
7
  6
CONTINUOUS
 10
-32.4999428824
 20
-45.0669508621
 30
0.0
 11
1.0607409467
 21
1.0607409467
 31
0.0
 40
0.9999238505
 41
2.3562325664
 42
3.9269527408
  0
ELLIPSE
  5
42A
100
AcDbEntity
  8
RACCORDO
100
AcDbEllipse
 62
7
  6
CONTINUOUS
 10
32.4999428824
 20
-45.0669508621
 30
0.0
 11
1.0607409467
 21
-1.0607409467
 31
0.0
 40
0.9999238505
 41
-0.7853600872
 42
0.7853600872
  0
ELLIPSE
  5
42B
100
AcDbEntity
  8
RACCORDO
100
AcDbEllipse
 62
7
  6
CONTINUOUS
 10
32.4999428824
 20
34.9329349028
 30
0.0
 11
1.0607409467
 21
1.0607409467
 31
0.0
 40
0.9999238505
 41
-0.7853600872
 42
0.7853600872
  0
ELLIPSE
  5
42C
100
AcDbEntity
  8
RACCORDO
100
AcDbEllipse
 62
7
  6
CONTINUOUS
 10
-32.4999428824
 20
34.9329349028
 30
0.0
 11
1.0607409467
 21
-1.0607409467
 31
0.0
 40
0.9999238505
 41
2.3562325664
 42
3.9269527408
  0
ENDSEC
  0
SECTION
  2
OBJECTS
  0
DICTIONARY
  5
C
100
AcDbDictionary
280
0
281
1
  3
ACAD_GROUP
350
D
  3
ACAD_MLINESTYLE
350
17
  3
ACAD_LAYOUT
350
1A
  3
ACAD_PLOTSETTINGS
350
19
  3
ACAD_PLOTSTYLENAME
350
E
  0
DICTIONARY
  5
D
102
{ACAD_REACTORS
330
C
102
}
100
AcDbDictionary
280
0
281
1
  0
ACDBDICTIONARYWDFLT
  5
E
102
{ACAD_REACTORS
330
C
102
}
100
AcDbDictionary
281
1
  3
Normal
350
F
100
AcDbDictionaryWithDefault
340
F
  0
DICTIONARY
  5
17
102
{ACAD_REACTORS
330
C
102
}
100
AcDbDictionary
280
0
281
1
  3
Standard
350
18
  0
DICTIONARY
  5
19
102
{ACAD_REACTORS
330
C
102
}
100
AcDbDictionary
281
1
  0
DICTIONARY
  5
1A
102
{ACAD_REACTORS
330
C
102
}
100
AcDbDictionary
281
1
  3
Model
350
42D
  3
Layout1
350
42E
  0
ACDBPLACEHOLDER
  5
F
102
{ACAD_REACTORS
330
E
102
}
  0
MLINESTYLE
  5
18
102
{ACAD_REACTORS
330
17
102
}
100
AcDbMlineStyle
  2
STANDARD
 70
0
  3

 62
256
 51
90.0
 52
90.0
 71
2
 49
0.5
 62
256
  6
BYLAYER
 49
-0.5
 62
256
  6
BYLAYER
  0
LAYOUT
  5
42D
102
{ACAD_REACTORS
330
1A
102
}
100
AcDbPlotSettings
  1

  2
none_device
  4
ISO_A4_(297.00_x_210.00_MM)
  6

 40
0.0
 41
0.0
 42
0.0
 43
0.0
 44
297.0
 45
210.0
 46
0.0
 47
0.0
 48
0.0
 49
0.0
140
0.0
141
0.0
142
1.0
143
1.0
 70
1024
 72
1
 73
0
 74
0
  7

 75
0
147
1.0
148
0.0
149
0.0
100
AcDbLayout
  1
Model
 70
0
 71
0
 10
0.0
 20
0.0
 11
297.0
 21
210.0
 12
0.0
 22
0.0
 32
0.0
 14
0.0
 24
0.0
 34
0.0
 15
0.0
 25
0.0
 35
0.0
146
0.0
 13
0.0
 23
0.0
 33
0.0
 16
1.0
 26
0.0
 36
0.0
 17
0.0
 27
1.0
 37
0.0
 76
0
330
218
345
0
346
0
  0
LAYOUT
  5
42E
102
{ACAD_REACTORS
330
1A
102
}
100
AcDbPlotSettings
  1

  2
none_device
  4
ISO_A4_(297.00_x_210.00_MM)
  6

 40
0.0
 41
0.0
 42
0.0
 43
0.0
 44
297.0
 45
210.0
 46
0.0
 47
0.0
 48
0.0
 49
0.0
140
0.0
141
0.0
142
1.0
143
1.0
 70
0
 72
1
 73
0
 74
0
  7

 75
0
147
1.0
148
0.0
149
0.0
100
AcDbLayout
  1
Layout1
 70
0
 71
1
 10
0.0
 20
0.0
 11
297.0
 21
210.0
 12
0.0
 22
0.0
 32
0.0
 14
0.0
 24
0.0
 34
0.0
 15
0.0
 25
0.0
 35
0.0
146
0.0
 13
0.0
 23
0.0
 33
0.0
 16
1.0
 26
0.0
 36
0.0
 17
0.0
 27
1.0
 37
0.0
 76
0
330
219
345
0
346
0
  0
ENDSEC
  0
EOF
