  0
SECTION
  2
HEADER
  9
$ACADVER
  1
AC1015
  9
$DWGCODEPAGE
  3
ANSI_1252
  9
$EXTMAX
 10
297.0
 20
210.0
 30
0.0
  9
$EXTMIN
 10
0.0
 20
0.0
 30
0.0
  9
$LIMMIN
 10
0.0
 20
0.0
  9
$LIMMAX
 10
297.0
 20
210.0
  9
$VIEWCTR
 10
148.5
 20
105.0
  9
$VIEWSIZE
 40
210.0
  9
$CLAYER
  8
0
  9
$LTSCALE
 40
16.335
  9
$CELTYPE
  6
BYLAYER
  9
$DIMSCALE
 40
1.0
  9
$DIMASZ
 40
3.0
  9
$DIMEXO
 40
1.85625
  9
$DIMDLI
 40
11.286
  9
$DIMEXE
 40
5.346
  9
$DIMCEN
 40
2.673
  9
$DIMLFAC
 40
1.0
  9
$DIMBLK
  1
_FILLED
  9
$DIMTXT
 40
3.0
  9
$DIMTOL
 70
1
  9
$DIMLIM
 70
0
  9
$DIMTFAC
 40
1.0
  9
$DIMTP
 40
0.01
  9
$DIMTM
 40
0.01
  9
$PDMODE
 70
3
  9
$PDSIZE
 40
3.0
  9
$HANDSEED
  5
4E5
  9
$TILEMODE
 70
1
  9
$MEASUREMENT
 70
1
  9
$INSUNITS
 70
4
  0
ENDSEC
  0
SECTION
  2
CLASSES
  0
CLASS
  1
ACDBDICTIONARYWDFLT
  2
AcDbDictionaryWithDefault
  3
AutoCAD 2000
 90
0
280
0
281
0
  0
CLASS
  1
ACDBPLACEHOLDER
  2
AcDbPlaceHolder
  3
AutoCAD 2000
 90
0
280
0
281
0
  0
CLASS
  1
LAYOUT
  2
AcDbLayout
  3
AutoCAD 2000
 90
0
280
0
281
0
  0
ENDSEC
  0
SECTION
  2
TABLES
  0
TABLE
  2
VPORT
  5
8
100
AcDbSymbolTable
 70
2
  0
VPORT
  5
1F4
100
AcDbSymbolTableRecord
100
AcDbViewportTableRecord
  2
*ACTIVE
 70
0
 10
0.0
 20
0.0
 11
1.0
 21
1.0
 12
148.5
 22
105.0
 13
0.0
 23
0.0
 14
1.0
 24
1.0
 15
0.0
 25
0.0
 16
0.0
 26
0.0
 36
1.0
 17
0.0
 27
0.0
 37
0.0
 40
210.0
 41
1.4142857143
 42
50.0
 43
0.0
 44
0.0
 50
0.0
 51
0.0
 71
0
 72
100
 73
1
 74
1
 75
0
 76
0
 77
0
 78
0
  0
ENDTAB
  0
TABLE
  2
LTYPE
  5
5
100
AcDbSymbolTable
 70
6
  0
LTYPE
  5
14
100
AcDbSymbolTableRecord
100
AcDbLinetypeTableRecord
  2
BYBLOCK
 70
0
  3

 72
65
 73
0
 40
0.0
  0
LTYPE
  5
15
100
AcDbSymbolTableRecord
100
AcDbLinetypeTableRecord
  2
BYLAYER
 70
0
  3

 72
65
 73
0
 40
0.0
  0
LTYPE
  5
16
100
AcDbSymbolTableRecord
100
AcDbLinetypeTableRecord
  2
CONTINUOUS
 70
64
  3
Solid line
 72
65
 73
0
 40
0.0
  0
LTYPE
  5
1F5
100
AcDbSymbolTableRecord
100
AcDbLinetypeTableRecord
  2
CENTER
 70
64
  3
____ _ ____ _ ____ _ ____ _ ____ _ ____ _ ____
 72
65
 73
4
 40
0.6
 49
0.375
 74
0
 49
-0.075
 74
0
 49
0.075
 74
0
 49
-0.075
 74
0
  0
LTYPE
  5
1F6
100
AcDbSymbolTableRecord
100
AcDbLinetypeTableRecord
  2
HIDDEN
 70
64
  3
- - - - - - - - - - - - - - - - - - - -
 72
65
 73
2
 40
0.2
 49
0.1
 74
0
 49
-0.1
 74
0
  0
LTYPE
  5
1F7
100
AcDbSymbolTableRecord
100
AcDbLinetypeTableRecord
  2
PHANTOM
 70
64
  3
_____ _ _ _____ _ _ _____ _ _ _____
 72
65
 73
6
 40
0.8
 49
0.45
 74
0
 49
-0.05
 74
0
 49
0.1
 74
0
 49
-0.05
 74
0
 49
0.1
 74
0
 49
-0.05
 74
0
  0
LTYPE
  5
1F8
100
AcDbSymbolTableRecord
100
AcDbLinetypeTableRecord
  2
DOT
 70
64
  3
. . . . . . . . . . . . . . . . . . . .
 72
65
 73
2
 40
0.2
 49
0.1
 74
0
 49
-0.1
 74
0
  0
LTYPE
  5
1F9
100
AcDbSymbolTableRecord
100
AcDbLinetypeTableRecord
  2
DASHED
 70
64
  3
- - - - - - - - - - - - - - - - - - - -
 72
65
 73
2
 40
0.2
 49
0.1
 74
0
 49
-0.1
 74
0
  0
ENDTAB
  0
TABLE
  2
LAYER
  5
2
100
AcDbSymbolTable
 70
36
  0
LAYER
  5
10
100
AcDbSymbolTableRecord
100
AcDbLayerTableRecord
  2
0
 70
0
 62
7
  6
CONTINUOUS
370
-3
390
F
  0
LAYER
  5
1FA
100
AcDbSymbolTableRecord
100
AcDbLayerTableRecord
  2
DEFAULT_1
 70
0
 62
7
  6
CENTER
370
-3
390
F
  0
LAYER
  5
1FB
100
AcDbSymbolTableRecord
100
AcDbLayerTableRecord
  2
DEFAULT_2
 70
0
 62
7
  6
HIDDEN
370
-3
390
F
  0
LAYER
  5
1FC
100
AcDbSymbolTableRecord
100
AcDbLayerTableRecord
  2
DEFAULT_3
 70
0
 62
7
  6
PHANTOM
370
-3
390
F
  0
LAYER
  5
1FD
100
AcDbSymbolTableRecord
100
AcDbLayerTableRecord
  2
ASSI
 70
0
 62
7
  6
CONTINUOUS
370
-3
390
F
  0
LAYER
  5
1FE
100
AcDbSymbolTableRecord
100
AcDbLayerTableRecord
  2
COLOR5
 70
0
 62
7
  6
CONTINUOUS
370
-3
390
F
  0
LAYER
  5
1FF
100
AcDbSymbolTableRecord
100
AcDbLayerTableRecord
  2
COORDINATE
 70
0
 62
7
  6
CONTINUOUS
370
-3
390
F
  0
LAYER
  5
200
100
AcDbSymbolTableRecord
100
AcDbLayerTableRecord
  2
COORD_ORIGINE
 70
0
 62
7
  6
CONTINUOUS
370
-3
390
F
  0
LAYER
  5
201
100
AcDbSymbolTableRecord
100
AcDbLayerTableRecord
  2
COPY_PUBLISH
 70
0
 62
7
  6
CONTINUOUS
370
-3
390
F
  0
LAYER
  5
202
100
AcDbSymbolTableRecord
100
AcDbLayerTableRecord
  2
COSMETIC
 70
0
 62
7
  6
CONTINUOUS
370
-3
390
F
  0
LAYER
  5
203
100
AcDbSymbolTableRecord
100
AcDbLayerTableRecord
  2
CURVE
 70
0
 62
7
  6
CONTINUOUS
370
-3
390
F
  0
LAYER
  5
204
100
AcDbSymbolTableRecord
100
AcDbLayerTableRecord
  2
DRAFT
 70
0
 62
7
  6
CONTINUOUS
370
-3
390
F
  0
LAYER
  5
205
100
AcDbSymbolTableRecord
100
AcDbLayerTableRecord
  2
IMPORT_IGES
 70
0
 62
7
  6
CONTINUOUS
370
-3
390
F
  0
LAYER
  5
206
100
AcDbSymbolTableRecord
100
AcDbLayerTableRecord
  2
INTF_1
 70
0
 62
7
  6
CONTINUOUS
370
-3
390
F
  0
LAYER
  5
207
100
AcDbSymbolTableRecord
100
AcDbLayerTableRecord
  2
INTF_2
 70
0
 62
7
  6
CONTINUOUS
370
-3
390
F
  0
LAYER
  5
208
100
AcDbSymbolTableRecord
100
AcDbLayerTableRecord
  2
NOTE
 70
0
 62
7
  6
CONTINUOUS
370
-3
390
F
  0
LAYER
  5
209
100
AcDbSymbolTableRecord
100
AcDbLayerTableRecord
  2
PIANI
 70
0
 62
7
  6
CONTINUOUS
370
-3
390
F
  0
LAYER
  5
20A
100
AcDbSymbolTableRecord
100
AcDbLayerTableRecord
  2
PIANI_ORIGINE
 70
0
 62
7
  6
CONTINUOUS
370
-3
390
F
  0
LAYER
  5
20B
100
AcDbSymbolTableRecord
100
AcDbLayerTableRecord
  2
PUNTI
 70
0
 62
7
  6
CONTINUOUS
370
-3
390
F
  0
LAYER
  5
20C
100
AcDbSymbolTableRecord
100
AcDbLayerTableRecord
  2
RACCORDO
 70
0
 62
7
  6
CONTINUOUS
370
-3
390
F
  0
LAYER
  5
20D
100
AcDbSymbolTableRecord
100
AcDbLayerTableRecord
  2
RGB__255__255__255__
 70
0
 62
7
  6
CONTINUOUS
370
-3
390
F
  0
LAYER
  5
20E
100
AcDbSymbolTableRecord
100
AcDbLayerTableRecord
  2
RGB____0____0____0__
 70
0
 62
7
  6
CONTINUOUS
370
-3
390
F
  0
LAYER
  5
20F
100
AcDbSymbolTableRecord
100
AcDbLayerTableRecord
  2
SMUSSO
 70
0
 62
7
  6
CONTINUOUS
370
-3
390
F
  0
LAYER
  5
210
100
AcDbSymbolTableRecord
100
AcDbLayerTableRecord
  2
SNAPLINE
 70
0
 62
7
  6
CONTINUOUS
370
-3
390
F
  0
LAYER
  5
211
100
AcDbSymbolTableRecord
100
AcDbLayerTableRecord
  2
SUPERFICI
 70
0
 62
7
  6
CONTINUOUS
370
-3
390
F
  0
LAYER
  5
212
100
AcDbSymbolTableRecord
100
AcDbLayerTableRecord
  2
TRASH
 70
0
 62
7
  6
CONTINUOUS
370
-3
390
F
  0
LAYER
  5
213
100
AcDbSymbolTableRecord
100
AcDbLayerTableRecord
  2
XSEC_DATUMS
 70
0
 62
7
  6
CONTINUOUS
370
-3
390
F
  0
ENDTAB
  0
TABLE
  2
STYLE
  5
3
100
AcDbSymbolTable
 70
1
  0
STYLE
  5
11
100
AcDbSymbolTableRecord
100
AcDbTextStyleTableRecord
  2
STANDARD
 70
0
 40
0.0
 41
0.8
 50
0.0
 71
0
 42
0.2
  3
txt
  4

  0
STYLE
  5
214
100
AcDbSymbolTableRecord
100
AcDbTextStyleTableRecord
  2
TEXTSTYLE_1
 70
0
 40
0.0
 41
0.8
 50
0.0
 71
0
 42
0.2
  3
gdt
  4

  0
ENDTAB
  0
TABLE
  2
VIEW
  5
6
100
AcDbSymbolTable
 70
0
  0
ENDTAB
  0
TABLE
  2
UCS
  5
7
100
AcDbSymbolTable
 70
0
  0
ENDTAB
  0
TABLE
  2
APPID
  5
9
100
AcDbSymbolTable
 70
1
  0
APPID
  5
215
100
AcDbSymbolTableRecord
100
AcDbRegAppTableRecord
  2
ACAD
 70
0
  0
ENDTAB
  0
TABLE
  2
BLOCK_RECORD
  5
1
100
AcDbSymbolTable
 70
0
  0
BLOCK_RECORD
  5
216
100
AcDbSymbolTableRecord
100
AcDbBlockTableRecord
  2
*Model_Space
  0
BLOCK_RECORD
  5
217
100
AcDbSymbolTableRecord
100
AcDbBlockTableRecord
  2
*Paper_Space
  0
BLOCK_RECORD
  5
218
100
AcDbSymbolTableRecord
100
AcDbBlockTableRecord
  2
_FILLED
  0
BLOCK_RECORD
  5
219
100
AcDbSymbolTableRecord
100
AcDbBlockTableRecord
  2
*D0
  0
BLOCK_RECORD
  5
21A
100
AcDbSymbolTableRecord
100
AcDbBlockTableRecord
  2
*D1
  0
BLOCK_RECORD
  5
21B
100
AcDbSymbolTableRecord
100
AcDbBlockTableRecord
  2
*D2
  0
BLOCK_RECORD
  5
21C
100
AcDbSymbolTableRecord
100
AcDbBlockTableRecord
  2
*D3
  0
BLOCK_RECORD
  5
21D
100
AcDbSymbolTableRecord
100
AcDbBlockTableRecord
  2
*D4
  0
BLOCK_RECORD
  5
21E
100
AcDbSymbolTableRecord
100
AcDbBlockTableRecord
  2
*D5
  0
ENDTAB
  0
TABLE
  2
DIMSTYLE
  5
A
100
AcDbSymbolTable
 70
1
100
AcDbDimStyleTable
 71
0
  0
DIMSTYLE
105
21F
100
AcDbSymbolTableRecord
100
AcDbDimStyleTableRecord
  2
STANDARD
 70
0
  3

  4

 40
1.0
 41
3.0
 42
0.0625
 43
0.38
 44
0.18
 45
0.0
 46
0.0
 47
0.01
 48
0.01
140
3.0
141
0.09
142
0.0
143
25.4
144
1.0
145
0.0
146
1.0
147
0.09
 71
1.0
 72
0.0
 73
0
 74
0
 75
0
 76
0
 77
1
 78
8
170
0
171
2
172
0
173
0
174
0
175
0
176
0
177
0
178
0
270
2
271
2
272
2
273
2
274
2
275
0
280
0
281
0
282
0
283
1
284
8
285
0
286
0
287
3
288
0
340
11
341
218
342
218
343
218
344
218
  0
DIMSTYLE
105
220
100
AcDbSymbolTableRecord
100
AcDbDimStyleTableRecord
  2
DIMSTYLE_1
 70
0
  3

  4

 40
1.0
 41
3.0
 42
0.0625
 43
0.38
 44
0.18
 45
0.0
 46
0.0
 47
0.0
 48
0.0
140
3.0
141
0.09
142
0.0
143
25.4
144
1.0
145
0.0
146
1.0
147
0.09
 71
0.0
 72
0.0
 73
0
 74
0
 75
0
 76
0
 77
1
 78
8
170
0
171
2
172
0
173
0
174
0
175
0
176
0
177
0
178
0
270
2
271
2
272
2
273
2
274
2
275
0
280
0
281
0
282
0
283
1
284
8
285
0
286
0
287
3
288
0
340
11
341
218
342
218
343
218
344
218
  0
DIMSTYLE
105
221
100
AcDbSymbolTableRecord
100
AcDbDimStyleTableRecord
  2
DIMSTYLE_2
 70
0
  3

  4

 40
1.0
 41
3.0
 42
0.0625
 43
0.38
 44
0.18
 45
0.0
 46
0.0
 47
0.0
 48
0.0
140
3.0
141
0.09
142
0.0
143
25.4
144
1.0
145
0.0
146
1.0
147
0.09
 71
0.0
 72
0.0
 73
0
 74
0
 75
0
 76
0
 77
1
 78
8
170
0
171
2
172
0
173
0
174
0
175
0
176
0
177
0
178
0
270
2
271
0
272
0
273
2
274
2
275
0
280
0
281
0
282
0
283
1
284
8
285
0
286
0
287
3
288
0
340
11
341
218
342
218
343
218
344
218
  0
ENDTAB
  0
ENDSEC
  0
SECTION
  2
BLOCKS
  0
BLOCK
  5
20
100
AcDbEntity
  8
0
100
AcDbBlockBegin
  2
*Model_Space
 70
0
 10
0.0
 20
0.0
 30
0.0
  3
*Model_Space
  1

  0
ENDBLK
  5
21
100
AcDbEntity
  8
0
100
AcDbBlockEnd
  0
BLOCK
  5
1C
100
AcDbEntity
  8
0
100
AcDbBlockBegin
  2
*Paper_Space
 70
0
 10
0.0
 20
0.0
 30
0.0
  3
*Paper_Space
  1

  0
ENDBLK
  5
1D
100
AcDbEntity
  8
0
100
AcDbBlockEnd
  0
BLOCK
  5
222
100
AcDbEntity
  8
0
100
AcDbBlockBegin
  2
_FILLED
 70
64
 10
0.0
 20
0.0
  3
_FILLED
  1

  0
SOLID
  5
223
100
AcDbEntity
  8
0
  6
BYBLOCK
 62
0
100
AcDbTrace
 10
0.0
 20
0.0
 11
-1.0
 21
0.3166666667
 12
-1.0
 22
-0.3166666667
 13
-1.0
 23
-0.3166666667
  0
ENDBLK
  5
224
100
AcDbEntity
  8
0
  6
BYBLOCK
 62
0
100
AcDbBlockEnd
  0
BLOCK
  5
225
100
AcDbEntity
  8
0
100
AcDbBlockBegin
 62
7
  6
CONTINUOUS
  2
*D0
 70
65
 10
0.0
 20
0.0
  3
*D0
  1

  0
MTEXT
  5
226
100
AcDbEntity
  8
0
100
AcDbMText
 62
7
  6
CONTINUOUS
  7
STANDARD
 71
2
 72
1
 10
54.25
 20
-5.0213446276
 30
0.0
 11
0.0
 21
1.0
 31
0.0
 44
0.9
  1
83
 40
3.0
 41
4.5
  0
LINE
  5
227
100
AcDbEntity
  8
0
100
AcDbLine
 62
7
  6
CONTINUOUS
 10
48.999311004
 20
36.4779572378
 11
59.5
 21
36.4779572378
  0
LINE
  5
228
100
AcDbEntity
  8
0
100
AcDbLine
 62
7
  6
CONTINUOUS
 10
48.999311004
 20
-46.5206464931
 11
59.5
 21
-46.5206464931
  0
LINE
  5
229
100
AcDbEntity
  8
0
100
AcDbLine
 62
7
  6
CONTINUOUS
 10
58.0
 20
36.4779572378
 11
58.0
 21
-5.0213446276
  0
LINE
  5
22A
100
AcDbEntity
  8
0
100
AcDbLine
 62
7
  6
CONTINUOUS
 10
58.0
 20
-46.5206464931
 11
58.0
 21
-5.0213446276
  0
INSERT
  5
22B
100
AcDbEntity
  8
0
100
AcDbBlockReference
 62
7
  6
CONTINUOUS
  2
_FILLED
 10
58.0
 20
36.4779572378
 41
3.0
 42
3.0
 43
3.0
 50
90.0
  0
INSERT
  5
22C
100
AcDbEntity
  8
0
100
AcDbBlockReference
 62
7
  6
CONTINUOUS
  2
_FILLED
 10
58.0
 20
-46.5206464931
 41
3.0
 42
3.0
 43
3.0
 50
270.0
  0
ENDBLK
  5
22D
100
AcDbEntity
  8
0
  6
BYBLOCK
 62
0
100
AcDbBlockEnd
  0
BLOCK
  5
22E
100
AcDbEntity
  8
0
100
AcDbBlockBegin
 62
7
  6
CONTINUOUS
  2
*D1
 70
65
 10
0.0
 20
0.0
  3
*D1
  1

  0
MTEXT
  5
22F
100
AcDbEntity
  8
0
100
AcDbMText
 62
7
  6
CONTINUOUS
  7
STANDARD
 71
2
 72
1
 10
64.25
 20
0.0355698608
 30
0.0
 11
0.0
 21
1.0
 31
0.0
 44
0.9
  1
93
 40
3.0
 41
4.5
  0
LINE
  5
230
100
AcDbEntity
  8
0
100
AcDbLine
 62
7
  6
CONTINUOUS
 10
1.5
 20
46.5917862147
 11
69.5
 21
46.5917862147
  0
LINE
  5
231
100
AcDbEntity
  8
0
100
AcDbLine
 62
7
  6
CONTINUOUS
 10
48.999311004
 20
-46.5206464931
 11
69.5
 21
-46.5206464931
  0
LINE
  5
232
100
AcDbEntity
  8
0
100
AcDbLine
 62
7
  6
CONTINUOUS
 10
68.0
 20
46.5917862147
 11
68.0
 21
0.0355698608
  0
LINE
  5
233
100
AcDbEntity
  8
0
100
AcDbLine
 62
7
  6
CONTINUOUS
 10
68.0
 20
-46.5206464931
 11
68.0
 21
0.0355698608
  0
INSERT
  5
234
100
AcDbEntity
  8
0
100
AcDbBlockReference
 62
7
  6
CONTINUOUS
  2
_FILLED
 10
68.0
 20
46.5917862147
 41
3.0
 42
3.0
 43
3.0
 50
90.0
  0
INSERT
  5
235
100
AcDbEntity
  8
0
100
AcDbBlockReference
 62
7
  6
CONTINUOUS
  2
_FILLED
 10
68.0
 20
-46.5206464931
 41
3.0
 42
3.0
 43
3.0
 50
270.0
  0
ENDBLK
  5
236
100
AcDbEntity
  8
0
  6
BYBLOCK
 62
0
100
AcDbBlockEnd
  0
BLOCK
  5
237
100
AcDbEntity
  8
0
100
AcDbBlockBegin
 62
7
  6
CONTINUOUS
  2
*D2
 70
65
 10
0.0
 20
0.0
  3
*D2
  1

  0
MTEXT
  5
238
100
AcDbEntity
  8
0
100
AcDbMText
 62
7
  6
CONTINUOUS
  7
STANDARD
 71
2
 72
1
 10
0.0
 20
58.3417862147
 30
0.0
 11
1.0
 21
0.0
 31
0.0
 44
0.9
  1
100
 40
3.0
 41
6.4285714286
  0
LINE
  5
239
100
AcDbEntity
  8
0
100
AcDbLine
 62
7
  6
CONTINUOUS
 10
-49.9993018655
 20
35.4779663763
 11
-49.9993018655
 21
56.0917862147
  0
LINE
  5
23A
100
AcDbEntity
  8
0
100
AcDbLine
 62
7
  6
CONTINUOUS
 10
49.9993018655
 20
35.4779663763
 11
49.9993018655
 21
56.0917862147
  0
LINE
  5
23B
100
AcDbEntity
  8
0
100
AcDbLine
 62
7
  6
CONTINUOUS
 10
-49.9993018655
 20
54.5917862147
 11
0.0
 21
54.5917862147
  0
LINE
  5
23C
100
AcDbEntity
  8
0
100
AcDbLine
 62
7
  6
CONTINUOUS
 10
49.9993018655
 20
54.5917862147
 11
0.0
 21
54.5917862147
  0
INSERT
  5
23D
100
AcDbEntity
  8
0
100
AcDbBlockReference
 62
7
  6
CONTINUOUS
  2
_FILLED
 10
-49.9993018655
 20
54.5917862147
 41
3.0
 42
3.0
 43
3.0
 50
180.0
  0
INSERT
  5
23E
100
AcDbEntity
  8
0
100
AcDbBlockReference
 62
7
  6
CONTINUOUS
  2
_FILLED
 10
49.9993018655
 20
54.5917862147
 41
3.0
 42
3.0
 43
3.0
  0
ENDBLK
  5
23F
100
AcDbEntity
  8
0
  6
BYBLOCK
 62
0
100
AcDbBlockEnd
  0
BLOCK
  5
240
100
AcDbEntity
  8
0
100
AcDbBlockBegin
 62
7
  6
CONTINUOUS
  2
*D3
 70
65
 10
0.0
 20
0.0
  3
*D3
  1

  0
MTEXT
  5
241
100
AcDbEntity
  8
0
100
AcDbMText
 62
7
  6
CONTINUOUS
  7
STANDARD
 71
2
 72
1
 10
-94.2495797922
 20
58.3417862147
 30
0.0
 11
1.0
 21
0.0
 31
0.0
 44
0.9
  1
40
 40
3.0
 41
4.7142857143
  0
LINE
  5
242
100
AcDbEntity
  8
0
100
AcDbLine
 62
7
  6
CONTINUOUS
 10
-74.2495797922
 20
35.341817957
 11
-74.2495797922
 21
56.0917862147
  0
LINE
  5
243
100
AcDbEntity
  8
0
100
AcDbLine
 62
7
  6
CONTINUOUS
 10
-114.2495797922
 20
35.4779663763
 11
-114.2495797922
 21
56.0917862147
  0
LINE
  5
244
100
AcDbEntity
  8
0
100
AcDbLine
 62
7
  6
CONTINUOUS
 10
-74.2495797922
 20
54.5917862147
 11
-94.2495797922
 21
54.5917862147
  0
LINE
  5
245
100
AcDbEntity
  8
0
100
AcDbLine
 62
7
  6
CONTINUOUS
 10
-114.2495797922
 20
54.5917862147
 11
-94.2495797922
 21
54.5917862147
  0
INSERT
  5
246
100
AcDbEntity
  8
0
100
AcDbBlockReference
 62
7
  6
CONTINUOUS
  2
_FILLED
 10
-74.2495797922
 20
54.5917862147
 41
3.0
 42
3.0
 43
3.0
  0
INSERT
  5
247
100
AcDbEntity
  8
0
100
AcDbBlockReference
 62
7
  6
CONTINUOUS
  2
_FILLED
 10
-114.2495797922
 20
54.5917862147
 41
3.0
 42
3.0
 43
3.0
 50
180.0
  0
ENDBLK
  5
248
100
AcDbEntity
  8
0
  6
BYBLOCK
 62
0
100
AcDbBlockEnd
  0
BLOCK
  5
249
100
AcDbEntity
  8
0
100
AcDbBlockBegin
 62
7
  6
CONTINUOUS
  2
*D4
 70
65
 10
0.0
 20
0.0
  3
*D4
  1

  0
MTEXT
  5
24A
100
AcDbEntity
  8
0
100
AcDbMText
 62
7
  6
CONTINUOUS
  7
STANDARD
 71
2
 72
1
 10
-122.2495797922
 20
58.3417862147
 30
0.0
 11
1.0
 21
0.0
 31
0.0
 44
0.9
  1
16
 40
3.0
 41
4.0714285714
  0
LINE
  5
24B
100
AcDbEntity
  8
0
100
AcDbLine
 62
7
  6
CONTINUOUS
 10
-130.2495797922
 20
-4.5213446276
 11
-130.2495797922
 21
56.0917862147
  0
LINE
  5
24C
100
AcDbEntity
  8
0
100
AcDbLine
 62
7
  6
CONTINUOUS
 10
-114.2495797922
 20
35.4779663763
 11
-114.2495797922
 21
56.0917862147
  0
LINE
  5
24D
100
AcDbEntity
  8
0
100
AcDbLine
 62
7
  6
CONTINUOUS
 10
-130.2495797922
 20
54.5917862147
 11
-122.2495797922
 21
54.5917862147
  0
LINE
  5
24E
100
AcDbEntity
  8
0
100
AcDbLine
 62
7
  6
CONTINUOUS
 10
-114.2495797922
 20
54.5917862147
 11
-122.2495797922
 21
54.5917862147
  0
INSERT
  5
24F
100
AcDbEntity
  8
0
100
AcDbBlockReference
 62
7
  6
CONTINUOUS
  2
_FILLED
 10
-130.2495797922
 20
54.5917862147
 41
3.0
 42
3.0
 43
3.0
 50
180.0
  0
INSERT
  5
250
100
AcDbEntity
  8
0
100
AcDbBlockReference
 62
7
  6
CONTINUOUS
  2
_FILLED
 10
-114.2495797922
 20
54.5917862147
 41
3.0
 42
3.0
 43
3.0
  0
ENDBLK
  5
251
100
AcDbEntity
  8
0
  6
BYBLOCK
 62
0
100
AcDbBlockEnd
  0
BLOCK
  5
252
100
AcDbEntity
  8
0
100
AcDbBlockBegin
 62
7
  6
CONTINUOUS
  2
*D5
 70
65
 10
0.0
 20
0.0
  3
*D5
  1

  0
MTEXT
  5
253
100
AcDbEntity
  8
0
100
AcDbMText
 62
7
  6
CONTINUOUS
  7
STANDARD
 71
2
 72
1
 10
-102.2495797922
 20
68.3417862147
 30
0.0
 11
1.0
 21
0.0
 31
0.0
 44
0.9
  1
56
 40
3.0
 41
4.5
  0
LINE
  5
254
100
AcDbEntity
  8
0
100
AcDbLine
 62
7
  6
CONTINUOUS
 10
-74.2495797922
 20
36.3341422529
 11
-74.2495797922
 21
66.0917862147
  0
LINE
  5
255
100
AcDbEntity
  8
0
100
AcDbLine
 62
7
  6
CONTINUOUS
 10
-130.2495797922
 20
-4.5213446276
 11
-130.2495797922
 21
66.0917862147
  0
LINE
  5
256
100
AcDbEntity
  8
0
100
AcDbLine
 62
7
  6
CONTINUOUS
 10
-74.2495797922
 20
64.5917862147
 11
-102.2495797922
 21
64.5917862147
  0
LINE
  5
257
100
AcDbEntity
  8
0
100
AcDbLine
 62
7
  6
CONTINUOUS
 10
-130.2495797922
 20
64.5917862147
 11
-102.2495797922
 21
64.5917862147
  0
INSERT
  5
258
100
AcDbEntity
  8
0
100
AcDbBlockReference
 62
7
  6
CONTINUOUS
  2
_FILLED
 10
-74.2495797922
 20
64.5917862147
 41
3.0
 42
3.0
 43
3.0
  0
INSERT
  5
259
100
AcDbEntity
  8
0
100
AcDbBlockReference
 62
7
  6
CONTINUOUS
  2
_FILLED
 10
-130.2495797922
 20
64.5917862147
 41
3.0
 42
3.0
 43
3.0
 50
180.0
  0
ENDBLK
  5
25A
100
AcDbEntity
  8
0
  6
BYBLOCK
 62
0
100
AcDbBlockEnd
  0
ENDSEC
  0
SECTION
  2
ENTITIES
  0
DIMENSION
  5
25B
100
AcDbEntity
  8
0
100
AcDbDimension
 62
7
  6
CONTINUOUS
  2
*D0
 10
58.0
 20
-46.5206464931
 11
56.7581656363
 21
-7.0328371207
 70
160
 71
2
 42
82.9986037309
  3
DIMSTYLE_1
100
AcDbAlignedDimension
 13
48.999311004
 23
36.4779572378
 14
48.999311004
 24
-46.5206464931
 50
270.0
100
AcDbRotatedDimension
  0
DIMENSION
  5
25C
100
AcDbEntity
  8
0
100
AcDbDimension
 62
7
  6
CONTINUOUS
  2
*D1
 10
68.0
 20
-46.5206464931
 11
66.7581656363
 21
-1.9759226323
 70
160
 71
2
 42
93.1124327078
  3
DIMSTYLE_2
100
AcDbAlignedDimension
 13
1.5
 23
46.5917862147
 14
48.999311004
 24
-46.5206464931
 50
270.0
100
AcDbRotatedDimension
  0
DIMENSION
  5
25D
100
AcDbEntity
  8
0
100
AcDbDimension
 62
7
  6
CONTINUOUS
  2
*D2
 10
49.9993018655
 20
54.5917862147
 11
-3.2142857143
 21
56.8417862147
 70
160
 71
2
 42
99.9986037309
  3
DIMSTYLE_1
100
AcDbAlignedDimension
 13
-49.9993018655
 23
35.4779663763
 14
49.9993018655
 24
35.4779663763
100
AcDbRotatedDimension
  0
DIMENSION
  5
25E
100
AcDbEntity
  8
0
100
AcDbDimension
 62
7
  6
CONTINUOUS
  2
*D3
 10
-114.2495797922
 20
54.5917862147
 11
-96.6067226493
 21
56.8417862147
 70
160
 71
2
 42
40.0
  3
DIMSTYLE_1
100
AcDbAlignedDimension
 13
-74.2495797922
 23
35.341817957
 14
-114.2495797922
 24
35.4779663763
 50
180.0
100
AcDbRotatedDimension
  0
DIMENSION
  5
25F
100
AcDbEntity
  8
0
100
AcDbDimension
 62
7
  6
CONTINUOUS
  2
*D4
 10
-114.2495797922
 20
54.5917862147
 11
-124.2852940779
 21
56.8417862147
 70
160
 71
2
 42
16.0
  3
DIMSTYLE_1
100
AcDbAlignedDimension
 13
-130.2495797922
 23
-4.5213446276
 14
-114.2495797922
 24
35.4779663763
100
AcDbRotatedDimension
  0
DIMENSION
  5
260
100
AcDbEntity
  8
0
100
AcDbDimension
 62
7
  6
CONTINUOUS
  2
*D5
 10
-130.2495797922
 20
64.5917862147
 11
-104.4995797922
 21
66.8417862147
 70
160
 71
2
 42
56.0
  3
DIMSTYLE_1
100
AcDbAlignedDimension
 13
-74.2495797922
 23
36.3341422529
 14
-130.2495797922
 24
-4.5213446276
 50
180.0
100
AcDbRotatedDimension
  0
LINE
  5
261
100
AcDbEntity
  8
RACCORDO
100
AcDbLine
 62
7
  6
CONTINUOUS
 10
-50.0
 20
34.9787124878
 11
-50.0
 21
-45.021401743
  0
LINE
  5
262
100
AcDbEntity
  8
0
100
AcDbLine
 62
7
  6
CONTINUOUS
 10
-42.122106287
 20
-31.7825222551
 11
-42.1716048889
 21
-31.6762719538
  0
LINE
  5
263
100
AcDbEntity
  8
0
100
AcDbLine
 62
7
  6
CONTINUOUS
 10
-39.877893713
 20
-32.2601670002
 11
-39.8283951111
 21
-32.3664173015
  0
LINE
  5
264
100
AcDbEntity
  8
0
100
AcDbLine
 62
7
  6
CONTINUOUS
 10
-42.171604981
 20
21.6335827477
 11
-42.1221062937
 21
21.7398329899
  0
LINE
  5
265
100
AcDbEntity
  8
0
100
AcDbLine
 62
7
  6
CONTINUOUS
 10
-39.828395019
 20
22.323727997
 11
-39.8778937063
 21
22.2174777548
  0
LINE
  5
266
100
AcDbEntity
  8
RACCORDO
100
AcDbLine
 62
7
  6
CONTINUOUS
 10
48.5000571154
 20
-46.5213446276
 11
-48.5000571154
 21
-46.5213446276
  0
LINE
  5
267
100
AcDbEntity
  8
RACCORDO
100
AcDbLine
 62
253
  6
CONTINUOUS
 10
48.4205051795
 20
-46.4417926918
 11
-48.4205051795
 21
-46.4417926918
  0
LINE
  5
268
100
AcDbEntity
  8
0
100
AcDbLine
 62
7
  6
CONTINUOUS
 10
-41.6
 20
-34.8534999493
 11
-41.6
 21
-32.4751519942
  0
LINE
  5
269
100
AcDbEntity
  8
0
100
AcDbLine
 62
7
  6
CONTINUOUS
 10
-41.6
 20
-31.567537261
 11
-41.6
 21
-29.189189306
  0
LINE
  5
26A
100
AcDbEntity
  8
0
100
AcDbLine
 62
7
  6
CONTINUOUS
 10
-41.6
 20
19.1465000507
 11
-41.6
 21
21.5248480058
  0
LINE
  5
26B
100
AcDbEntity
  8
0
100
AcDbLine
 62
7
  6
CONTINUOUS
 10
-41.6
 20
22.432462739
 11
-41.6
 21
24.810810694
  0
LINE
  5
26C
100
AcDbEntity
  8
0
100
AcDbLine
 62
7
  6
CONTINUOUS
 10
-40.4
 20
24.810810694
 11
-40.4
 21
22.432462739
  0
LINE
  5
26D
100
AcDbEntity
  8
0
100
AcDbLine
 62
7
  6
CONTINUOUS
 10
-40.4
 20
21.5248480058
 11
-40.4
 21
19.1465000507
  0
LINE
  5
26E
100
AcDbEntity
  8
0
100
AcDbLine
 62
7
  6
CONTINUOUS
 10
-40.4
 20
-29.189189306
 11
-40.4
 21
-31.567537261
  0
LINE
  5
26F
100
AcDbEntity
  8
0
100
AcDbLine
 62
7
  6
CONTINUOUS
 10
-40.4
 20
-32.4751519942
 11
-40.4
 21
-34.8534999493
  0
LINE
  5
270
100
AcDbEntity
  8
RACCORDO
100
AcDbLine
 62
253
  6
CONTINUOUS
 10
48.3903975267
 20
-41.9697315891
 11
-48.3903975267
 21
-41.9697315869
  0
LINE
  5
271
100
AcDbEntity
  8
RACCORDO
100
AcDbLine
 62
7
  6
CONTINUOUS
 10
-37.5
 20
17.2286934486
 11
-37.5
 21
-27.2713827038
  0
LINE
  5
272
100
AcDbEntity
  8
RACCORDO
100
AcDbLine
 62
253
  6
CONTINUOUS
 10
-37.2938645711
 20
17.7887367063
 11
-37.2938645711
 21
17.5224818673
  0
LINE
  5
273
100
AcDbEntity
  8
RACCORDO
100
AcDbLine
 62
253
  6
CONTINUOUS
 10
-37.2938645711
 20
-27.8314259616
 11
-37.2938645712
 21
-27.5651711226
  0
LINE
  5
274
100
AcDbEntity
  8
ASSI
100
AcDbLine
 62
7
  6
CONTINUOUS
 10
30.963796
 20
-39.5213376276
 11
31.523817
 21
-39.5213306276
  0
LINE
  5
275
100
AcDbEntity
  8
ASSI
100
AcDbLine
 62
7
  6
CONTINUOUS
 10
35.305315
 20
-39.5213306276
 11
35.936092
 21
-39.5213236276
  0
LINE
  5
276
100
AcDbEntity
  8
ASSI
100
AcDbLine
 62
7
  6
CONTINUOUS
 10
28.94095
 20
-39.5213376276
 11
29.500957
 21
-39.5213306276
  0
LINE
  5
277
100
AcDbEntity
  8
ASSI
100
AcDbLine
 62
7
  6
CONTINUOUS
 10
26.731435
 20
-39.5213446276
 11
27.291456
 21
-39.5213376276
  0
LINE
  5
278
100
AcDbEntity
  8
ASSI
100
AcDbLine
 62
7
  6
CONTINUOUS
 10
24.899024
 20
-39.5213446276
 11
25.459066
 21
-39.5213376276
  0
LINE
  5
279
100
AcDbEntity
  8
ASSI
100
AcDbLine
 62
7
  6
CONTINUOUS
 10
27.851463
 20
-39.5213376276
 11
28.411484
 21
-39.5213376276
  0
LINE
  5
27A
100
AcDbEntity
  8
ASSI
100
AcDbLine
 62
7
  6
CONTINUOUS
 10
30.03043
 20
-39.5213376276
 11
30.590451
 21
-39.5213376276
  0
LINE
  5
27B
100
AcDbEntity
  8
ASSI
100
AcDbLine
 62
7
  6
CONTINUOUS
 10
33.695238
 20
-39.5213306276
 11
34.255266
 21
-39.5213306276
  0
LINE
  5
27C
100
AcDbEntity
  8
ASSI
100
AcDbLine
 62
7
  6
CONTINUOUS
 10
32.761865
 20
-39.5213306276
 11
33.321893
 21
-39.5213376276
  0
LINE
  5
27D
100
AcDbEntity
  8
ASSI
100
AcDbLine
 62
7
  6
CONTINUOUS
 10
31.700616
 20
-38.9706686276
 11
32.585073
 21
-38.9706686276
  0
LINE
  5
27E
100
AcDbEntity
  8
ASSI
100
AcDbLine
 62
7
  6
CONTINUOUS
 10
32.414245
 20
-38.4386476276
 11
31.871437
 21
-38.4386476276
  0
LINE
  5
27F
100
AcDbEntity
  8
ASSI
100
AcDbLine
 62
7
  6
CONTINUOUS
 10
34.255329
 20
-38.4386406276
 11
34.744104
 21
-38.4386476276
  0
LINE
  5
280
100
AcDbEntity
  8
ASSI
100
AcDbLine
 62
7
  6
CONTINUOUS
 10
34.928888
 20
-37.9206196276
 11
34.247545
 21
-37.9206196276
  0
LINE
  5
281
100
AcDbEntity
  8
ASSI
100
AcDbLine
 62
7
  6
CONTINUOUS
 10
34.247538
 20
-37.2392256276
 11
34.928888
 21
-37.2392256276
  0
LINE
  5
282
100
AcDbEntity
  8
ASSI
100
AcDbLine
 62
7
  6
CONTINUOUS
 10
30.590451
 20
-36.7212116276
 11
29.74385
 21
-36.7212116276
  0
LINE
  5
283
100
AcDbEntity
  8
ASSI
100
AcDbLine
 62
7
  6
CONTINUOUS
 10
28.698064
 20
-36.7212116276
 11
27.851463
 21
-36.7212116276
  0
LINE
  5
284
100
AcDbEntity
  8
ASSI
100
AcDbLine
 62
7
  6
CONTINUOUS
 10
27.291463
 20
-36.7212116276
 11
26.731442
 21
-36.7212116276
  0
LINE
  5
285
100
AcDbEntity
  8
ASSI
100
AcDbLine
 62
7
  6
CONTINUOUS
 10
26.358097
 20
-36.7212116276
 11
25.798069
 21
-36.7212116276
  0
LINE
  5
286
100
AcDbEntity
  8
ASSI
100
AcDbLine
 62
7
  6
CONTINUOUS
 10
24.560028
 20
-36.7212116276
 11
24.0
 21
-36.7212116276
  0
LINE
  5
287
100
AcDbEntity
  8
ASSI
100
AcDbLine
 62
7
  6
CONTINUOUS
 10
35.006618
 20
-36.7212046276
 11
33.695238
 21
-36.7212046276
  0
LINE
  5
288
100
AcDbEntity
  8
ASSI
100
AcDbLine
 62
7
  6
CONTINUOUS
 10
32.422862
 20
-36.7212046276
 11
31.862813
 21
-36.7212046276
  0
LINE
  5
289
100
AcDbEntity
  8
RACCORDO
100
AcDbLine
 62
253
  6
CONTINUOUS
 10
37.2938645711
 20
-27.8314259616
 11
-37.2938645711
 21
-27.8314259616
  0
LINE
  5
28A
100
AcDbEntity
  8
RACCORDO
100
AcDbLine
 62
253
  6
CONTINUOUS
 10
37.2938565368
 20
-27.5651711226
 11
-37.2938580081
 21
-27.5651711226
  0
LINE
  5
28B
100
AcDbEntity
  8
RACCORDO
100
AcDbLine
 62
7
  6
CONTINUOUS
 10
-37.2500380762
 20
-27.5213446276
 11
37.2500380762
 21
-27.5213446276
  0
LINE
  5
28C
100
AcDbEntity
  8
0
100
AcDbLine
 62
7
  6
CONTINUOUS
 10
-42.122106287
 20
22.2174777449
 11
-42.1716048889
 21
22.3237280462
  0
LINE
  5
28D
100
AcDbEntity
  8
0
100
AcDbLine
 62
7
  6
CONTINUOUS
 10
-39.877893713
 20
21.7398329998
 11
-39.8283951111
 21
21.6335826985
  0
LINE
  5
28E
100
AcDbEntity
  8
0
100
AcDbLine
 62
7
  6
CONTINUOUS
 10
-42.171604981
 20
-32.3664172523
 11
-42.1221062937
 21
-32.2601670101
  0
LINE
  5
28F
100
AcDbEntity
  8
0
100
AcDbLine
 62
7
  6
CONTINUOUS
 10
-39.828395019
 20
-31.676272003
 11
-39.8778937063
 21
-31.7825222452
  0
LINE
  5
290
100
AcDbEntity
  8
0
100
AcDbLine
 62
7
  6
CONTINUOUS
 10
-14.0
 20
37.8143938668
 11
-14.0
 21
36.4786553724
  0
LINE
  5
291
100
AcDbEntity
  8
RACCORDO
100
AcDbLine
 62
7
  6
CONTINUOUS
 10
-14.0
 20
36.4786553724
 11
-14.0
 21
37.8143938668
  0
LINE
  5
292
100
AcDbEntity
  8
RACCORDO
100
AcDbLine
 62
253
  6
CONTINUOUS
 10
-37.5443895091
 20
17.2730770415
 11
-37.5
 21
17.2286934486
  0
LINE
  5
293
100
AcDbEntity
  8
RACCORDO
100
AcDbLine
 62
253
  6
CONTINUOUS
 10
-37.2938721045
 20
17.5224818673
 11
-37.2500380762
 21
17.4786553724
  0
LINE
  5
294
100
AcDbEntity
  8
0
100
AcDbLine
 62
7
  6
CONTINUOUS
 10
-11.85
 20
40.2185100565
 11
-11.85
 21
39.7917862147
  0
LINE
  5
295
100
AcDbEntity
  8
RACCORDO
100
AcDbLine
 62
7
  6
CONTINUOUS
 10
-11.85
 20
39.7917862147
 11
-11.85
 21
40.2185100565
  0
LINE
  5
296
100
AcDbEntity
  8
0
100
AcDbLine
 62
7
  6
CONTINUOUS
 10
-11.35
 20
39.7917862147
 11
-11.35
 21
39.2917862147
  0
LINE
  5
297
100
AcDbEntity
  8
0
100
AcDbLine
 62
7
  6
CONTINUOUS
 10
-10.1
 20
42.0587024353
 11
-10.1
 21
41.5917862147
  0
LINE
  5
298
100
AcDbEntity
  8
RACCORDO
100
AcDbLine
 62
7
  6
CONTINUOUS
 10
-10.1
 20
41.5917862147
 11
-10.1
 21
42.0587024353
  0
LINE
  5
299
100
AcDbEntity
  8
0
100
AcDbLine
 62
7
  6
CONTINUOUS
 10
-9.45
 20
41.5917862147
 11
-9.45
 21
41.0917862147
  0
LINE
  5
29A
100
AcDbEntity
  8
RACCORDO
100
AcDbLine
 62
7
  6
CONTINUOUS
 10
37.5
 20
-9.0213446276
 11
36.0
 21
-9.0213446276
  0
LINE
  5
29B
100
AcDbEntity
  8
RACCORDO
100
AcDbLine
 62
7
  6
CONTINUOUS
 10
-36.0
 20
-9.0213446276
 11
-37.5
 21
-9.0213446276
  0
LINE
  5
29C
100
AcDbEntity
  8
RACCORDO
100
AcDbLine
 62
253
  6
CONTINUOUS
 10
-50.0
 20
34.9787124878
 11
-49.9204472986
 21
34.8991597864
  0
LINE
  5
29D
100
AcDbEntity
  8
0
100
AcDbLine
 62
7
  6
CONTINUOUS
 10
-8.35
 20
43.8319075161
 11
-8.35
 21
43.3917862147
  0
LINE
  5
29E
100
AcDbEntity
  8
RACCORDO
100
AcDbLine
 62
7
  6
CONTINUOUS
 10
-8.35
 20
43.3917862147
 11
-8.35
 21
43.8319075161
  0
LINE
  5
29F
100
AcDbEntity
  8
0
100
AcDbLine
 62
7
  6
CONTINUOUS
 10
-7.85
 20
43.3917862147
 11
-7.85
 21
42.8917862147
  0
LINE
  5
2A0
100
AcDbEntity
  8
0
100
AcDbLine
 62
7
  6
CONTINUOUS
 10
-4.1
 20
45.5309456218
 11
-4.1
 21
45.1917862147
  0
LINE
  5
2A1
100
AcDbEntity
  8
RACCORDO
100
AcDbLine
 62
7
  6
CONTINUOUS
 10
-4.1
 20
45.1917862147
 11
-4.1
 21
45.5309456218
  0
LINE
  5
2A2
100
AcDbEntity
  8
RACCORDO
100
AcDbLine
 62
253
  6
CONTINUOUS
 10
-37.5443894982
 20
-27.3157792312
 11
-37.5
 21
-27.2713827038
  0
LINE
  5
2A3
100
AcDbEntity
  8
RACCORDO
100
AcDbLine
 62
253
  6
CONTINUOUS
 10
-37.2938580081
 20
-27.5651711226
 11
-37.2500380762
 21
-27.5213446276
  0
LINE
  5
2A4
100
AcDbEntity
  8
RACCORDO
100
AcDbLine
 62
253
  6
CONTINUOUS
 10
-48.5000571154
 20
36.4786553724
 11
-48.420505153
 21
36.39910341
  0
LINE
  5
2A5
100
AcDbEntity
  8
0
100
AcDbLine
 62
7
  6
CONTINUOUS
 10
-3.6
 20
45.1917862147
 11
-3.6
 21
44.6917862147
  0
LINE
  5
2A6
100
AcDbEntity
  8
RACCORDO
100
AcDbLine
 62
253
  6
CONTINUOUS
 10
-49.9204472986
 20
-44.9418490416
 11
-50.0
 21
-45.021401743
  0
LINE
  5
2A7
100
AcDbEntity
  8
RACCORDO
100
AcDbLine
 62
253
  6
CONTINUOUS
 10
-48.4205051795
 20
-46.4417926918
 11
-48.5000571154
 21
-46.5213446276
  0
LINE
  5
2A8
100
AcDbEntity
  8
RACCORDO
100
AcDbLine
 62
7
  6
CONTINUOUS
 10
-37.5
 20
-1.0213446276
 11
-36.0
 21
-1.0213446276
  0
LINE
  5
2A9
100
AcDbEntity
  8
RACCORDO
100
AcDbLine
 62
7
  6
CONTINUOUS
 10
36.0
 20
-1.0213446276
 11
37.5
 21
-1.0213446276
  0
LINE
  5
2AA
100
AcDbEntity
  8
0
100
AcDbLine
 62
7
  6
CONTINUOUS
 10
3.6
 20
45.1917862147
 11
3.6
 21
44.6917862147
  0
LINE
  5
2AB
100
AcDbEntity
  8
0
100
AcDbLine
 62
7
  6
CONTINUOUS
 10
4.1
 20
45.5309456218
 11
4.1
 21
45.1917862147
  0
LINE
  5
2AC
100
AcDbEntity
  8
RACCORDO
100
AcDbLine
 62
7
  6
CONTINUOUS
 10
4.1
 20
45.1917862147
 11
4.1
 21
45.5309456218
  0
LINE
  5
2AD
100
AcDbEntity
  8
RACCORDO
100
AcDbLine
 62
253
  6
CONTINUOUS
 10
48.5000571154
 20
-46.5213446276
 11
48.4205051795
 21
-46.4417926918
  0
LINE
  5
2AE
100
AcDbEntity
  8
RACCORDO
100
AcDbLine
 62
253
  6
CONTINUOUS
 10
50.0
 20
-45.021401743
 11
49.9204472986
 21
-44.9418490416
  0
LINE
  5
2AF
100
AcDbEntity
  8
0
100
AcDbLine
 62
7
  6
CONTINUOUS
 10
7.85
 20
43.3917862147
 11
7.85
 21
42.8917862147
  0
LINE
  5
2B0
100
AcDbEntity
  8
0
100
AcDbLine
 62
7
  6
CONTINUOUS
 10
8.35
 20
43.8319075161
 11
8.35
 21
43.3917862147
  0
LINE
  5
2B1
100
AcDbEntity
  8
RACCORDO
100
AcDbLine
 62
7
  6
CONTINUOUS
 10
8.35
 20
43.3917862147
 11
8.35
 21
43.8319075161
  0
LINE
  5
2B2
100
AcDbEntity
  8
0
100
AcDbLine
 62
7
  6
CONTINUOUS
 10
9.45
 20
41.5917862147
 11
9.45
 21
41.0917862147
  0
LINE
  5
2B3
100
AcDbEntity
  8
RACCORDO
100
AcDbLine
 62
253
  6
CONTINUOUS
 10
48.420505153
 20
36.3991034099
 11
48.5000571154
 21
36.4786553724
  0
LINE
  5
2B4
100
AcDbEntity
  8
RACCORDO
100
AcDbLine
 62
253
  6
CONTINUOUS
 10
37.2500380762
 20
-27.5213446276
 11
37.2938565368
 21
-27.5651711226
  0
LINE
  5
2B5
100
AcDbEntity
  8
RACCORDO
100
AcDbLine
 62
253
  6
CONTINUOUS
 10
37.5
 20
-27.2713827038
 11
37.5443894991
 21
-27.3157781752
  0
LINE
  5
2B6
100
AcDbEntity
  8
RACCORDO
100
AcDbLine
 62
7
  6
CONTINUOUS
 10
10.1
 20
41.5917862147
 11
10.1
 21
42.0587024353
  0
LINE
  5
2B7
100
AcDbEntity
  8
0
100
AcDbLine
 62
7
  6
CONTINUOUS
 10
11.35
 20
39.7917862147
 11
11.35
 21
39.2917862147
  0
LINE
  5
2B8
100
AcDbEntity
  8
0
100
AcDbLine
 62
7
  6
CONTINUOUS
 10
11.85
 20
40.2185100565
 11
11.85
 21
39.7917862147
  0
LINE
  5
2B9
100
AcDbEntity
  8
RACCORDO
100
AcDbLine
 62
7
  6
CONTINUOUS
 10
11.85
 20
39.7917862147
 11
11.85
 21
40.2185100565
  0
LINE
  5
2BA
100
AcDbEntity
  8
0
100
AcDbLine
 62
7
  6
CONTINUOUS
 10
14.0
 20
37.8143938668
 11
14.0
 21
36.4786553724
  0
LINE
  5
2BB
100
AcDbEntity
  8
RACCORDO
100
AcDbLine
 62
7
  6
CONTINUOUS
 10
14.0
 20
36.4786553724
 11
14.0
 21
37.8143938668
  0
LINE
  5
2BC
100
AcDbEntity
  8
RACCORDO
100
AcDbLine
 62
253
  6
CONTINUOUS
 10
49.9204472986
 20
34.8991597864
 11
50.0
 21
34.9787124878
  0
LINE
  5
2BD
100
AcDbEntity
  8
RACCORDO
100
AcDbLine
 62
253
  6
CONTINUOUS
 10
37.2938580081
 20
17.5224818673
 11
37.2500380762
 21
17.4786553724
  0
LINE
  5
2BE
100
AcDbEntity
  8
ASSI
100
AcDbLine
 62
7
  6
CONTINUOUS
 10
34.744104
 20
-38.4386476276
 11
35.305315
 21
-39.5213306276
  0
LINE
  5
2BF
100
AcDbEntity
  8
ASSI
100
AcDbLine
 62
7
  6
CONTINUOUS
 10
35.936092
 20
-39.5213236276
 11
35.3399777907
 21
-38.3712982946
  0
LINE
  5
2C0
100
AcDbEntity
  8
ASSI
100
AcDbLine
 62
7
  6
CONTINUOUS
 10
24.0
 20
-36.7212116276
 11
24.899024
 21
-39.5213446276
  0
LINE
  5
2C1
100
AcDbEntity
  8
ASSI
100
AcDbLine
 62
7
  6
CONTINUOUS
 10
25.179052
 20
-38.6492496276
 11
24.560028
 21
-36.7212116276
  0
LINE
  5
2C2
100
AcDbEntity
  8
RACCORDO
100
AcDbLine
 62
253
  6
CONTINUOUS
 10
37.5443894982
 20
17.2730899759
 11
37.5
 21
17.2286934486
  0
LINE
  5
2C3
100
AcDbEntity
  8
RACCORDO
100
AcDbLine
 62
7
  6
CONTINUOUS
 10
37.2500380762
 20
17.4786553724
 11
-37.2500380762
 21
17.4786553724
  0
LINE
  5
2C4
100
AcDbEntity
  8
RACCORDO
100
AcDbLine
 62
253
  6
CONTINUOUS
 10
-37.2938721045
 20
17.5224818673
 11
37.2938580081
 21
17.5224818673
  0
LINE
  5
2C5
100
AcDbEntity
  8
RACCORDO
100
AcDbLine
 62
253
  6
CONTINUOUS
 10
-37.2938645711
 20
17.7887367063
 11
37.2938645711
 21
17.7887367063
  0
LINE
  5
2C6
100
AcDbEntity
  8
ASSI
100
AcDbLine
 62
7
  6
CONTINUOUS
 10
28.411484
 20
-37.6748426276
 11
28.94095
 21
-39.5213376276
  0
LINE
  5
2C7
100
AcDbEntity
  8
ASSI
100
AcDbLine
 62
7
  6
CONTINUOUS
 10
29.220957
 20
-38.5447536276
 11
28.698064
 21
-36.7212116276
  0
LINE
  5
2C8
100
AcDbEntity
  8
0
100
AcDbLine
 62
7
  6
CONTINUOUS
 10
39.877893713
 20
-31.7825222551
 11
39.8283951111
 21
-31.6762719538
  0
LINE
  5
2C9
100
AcDbEntity
  8
ASSI
100
AcDbLine
 62
7
  6
CONTINUOUS
 10
32.142834
 20
-37.5932996276
 11
32.414245
 21
-38.4386476276
  0
LINE
  5
2CA
100
AcDbEntity
  8
ASSI
100
AcDbLine
 62
7
  6
CONTINUOUS
 10
32.585073
 20
-38.9706686276
 11
32.761865
 21
-39.5213306276
  0
LINE
  5
2CB
100
AcDbEntity
  8
ASSI
100
AcDbLine
 62
7
  6
CONTINUOUS
 10
33.321893
 20
-39.5213376276
 11
32.422862
 21
-36.7212046276
  0
LINE
  5
2CC
100
AcDbEntity
  8
ASSI
100
AcDbLine
 62
7
  6
CONTINUOUS
 10
26.731442
 20
-36.7212116276
 11
26.731435
 21
-39.5213446276
  0
LINE
  5
2CD
100
AcDbEntity
  8
ASSI
100
AcDbLine
 62
7
  6
CONTINUOUS
 10
27.291456
 20
-39.5213376276
 11
27.291463
 21
-36.7212116276
  0
LINE
  5
2CE
100
AcDbEntity
  8
ASSI
100
AcDbLine
 62
7
  6
CONTINUOUS
 10
27.851463
 20
-36.7212116276
 11
27.851463
 21
-39.5213376276
  0
LINE
  5
2CF
100
AcDbEntity
  8
0
100
AcDbLine
 62
7
  6
CONTINUOUS
 10
39.828395019
 20
21.6335827477
 11
39.8778937063
 21
21.7398329899
  0
LINE
  5
2D0
100
AcDbEntity
  8
0
100
AcDbLine
 62
7
  6
CONTINUOUS
 10
42.122106287
 20
-32.2601670002
 11
42.1716048889
 21
-32.3664173015
  0
LINE
  5
2D1
100
AcDbEntity
  8
ASSI
100
AcDbLine
 62
7
  6
CONTINUOUS
 10
28.411484
 20
-39.5213376276
 11
28.411484
 21
-37.6748426276
  0
LINE
  5
2D2
100
AcDbEntity
  8
ASSI
100
AcDbLine
 62
7
  6
CONTINUOUS
 10
30.030423
 20
-37.6748426276
 11
30.03043
 21
-39.5213376276
  0
LINE
  5
2D3
100
AcDbEntity
  8
ASSI
100
AcDbLine
 62
7
  6
CONTINUOUS
 10
30.590451
 20
-39.5213376276
 11
30.590451
 21
-36.7212116276
  0
LINE
  5
2D4
100
AcDbEntity
  8
0
100
AcDbLine
 62
7
  6
CONTINUOUS
 10
42.171604981
 20
22.323727997
 11
42.1221062937
 21
22.2174777548
  0
LINE
  5
2D5
100
AcDbEntity
  8
RACCORDO
100
AcDbLine
 62
253
  6
CONTINUOUS
 10
48.3903975012
 20
31.9270392547
 11
-48.3903975012
 21
31.9270392567
  0
LINE
  5
2D6
100
AcDbEntity
  8
ASSI
100
AcDbLine
 62
7
  6
CONTINUOUS
 10
33.695238
 20
-36.7212046276
 11
33.695238
 21
-39.5213306276
  0
LINE
  5
2D7
100
AcDbEntity
  8
ASSI
100
AcDbLine
 62
7
  6
CONTINUOUS
 10
34.247545
 20
-37.9206196276
 11
34.247538
 21
-37.2392256276
  0
LINE
  5
2D8
100
AcDbEntity
  8
ASSI
100
AcDbLine
 62
7
  6
CONTINUOUS
 10
34.255266
 20
-39.5213306276
 11
34.255329
 21
-38.4386406276
  0
LINE
  5
2D9
100
AcDbEntity
  8
ASSI
100
AcDbLine
 62
7
  6
CONTINUOUS
 10
25.798069
 20
-36.7212116276
 11
25.179052
 21
-38.6492496276
  0
LINE
  5
2DA
100
AcDbEntity
  8
ASSI
100
AcDbLine
 62
7
  6
CONTINUOUS
 10
25.459066
 20
-39.5213376276
 11
26.358097
 21
-36.7212116276
  0
LINE
  5
2DB
100
AcDbEntity
  8
RACCORDO
100
AcDbLine
 62
253
  6
CONTINUOUS
 10
48.420505153
 20
36.3991034099
 11
-48.420505153
 21
36.39910341
  0
LINE
  5
2DC
100
AcDbEntity
  8
RACCORDO
100
AcDbLine
 62
7
  6
CONTINUOUS
 10
48.5000571154
 20
36.4786553724
 11
-48.5000571154
 21
36.4786553724
  0
LINE
  5
2DD
100
AcDbEntity
  8
RACCORDO
100
AcDbLine
 62
253
  6
CONTINUOUS
 10
37.2938645711
 20
17.7887367063
 11
37.2938645712
 21
17.5224818673
  0
LINE
  5
2DE
100
AcDbEntity
  8
RACCORDO
100
AcDbLine
 62
253
  6
CONTINUOUS
 10
37.2938645711
 20
-27.8314259616
 11
37.2938645711
 21
-27.5651711226
  0
LINE
  5
2DF
100
AcDbEntity
  8
RACCORDO
100
AcDbLine
 62
7
  6
CONTINUOUS
 10
37.5
 20
-27.2713827038
 11
37.5
 21
17.2286934486
  0
LINE
  5
2E0
100
AcDbEntity
  8
0
100
AcDbLine
 62
7
  6
CONTINUOUS
 10
40.4
 20
-34.8534999493
 11
40.4
 21
-32.4751519942
  0
LINE
  5
2E1
100
AcDbEntity
  8
0
100
AcDbLine
 62
7
  6
CONTINUOUS
 10
40.4
 20
-31.567537261
 11
40.4
 21
-29.189189306
  0
LINE
  5
2E2
100
AcDbEntity
  8
0
100
AcDbLine
 62
7
  6
CONTINUOUS
 10
40.4
 20
19.1465000507
 11
40.4
 21
21.5248480058
  0
LINE
  5
2E3
100
AcDbEntity
  8
0
100
AcDbLine
 62
7
  6
CONTINUOUS
 10
40.4
 20
22.432462739
 11
40.4
 21
24.810810694
  0
LINE
  5
2E4
100
AcDbEntity
  8
0
100
AcDbLine
 62
7
  6
CONTINUOUS
 10
41.6
 20
24.810810694
 11
41.6
 21
22.432462739
  0
LINE
  5
2E5
100
AcDbEntity
  8
0
100
AcDbLine
 62
7
  6
CONTINUOUS
 10
41.6
 20
21.5248480058
 11
41.6
 21
19.1465000507
  0
LINE
  5
2E6
100
AcDbEntity
  8
0
100
AcDbLine
 62
7
  6
CONTINUOUS
 10
41.6
 20
-29.189189306
 11
41.6
 21
-31.567537261
  0
LINE
  5
2E7
100
AcDbEntity
  8
0
100
AcDbLine
 62
7
  6
CONTINUOUS
 10
41.6
 20
-32.4751519942
 11
41.6
 21
-34.8534999493
  0
LINE
  5
2E8
100
AcDbEntity
  8
ASSI
100
AcDbLine
 62
7
  6
CONTINUOUS
 10
29.74385
 20
-36.7212116276
 11
29.220957
 21
-38.5447536276
  0
LINE
  5
2E9
100
AcDbEntity
  8
ASSI
100
AcDbLine
 62
7
  6
CONTINUOUS
 10
29.500957
 20
-39.5213306276
 11
30.030423
 21
-37.6748426276
  0
LINE
  5
2EA
100
AcDbEntity
  8
ASSI
100
AcDbLine
 62
7
  6
CONTINUOUS
 10
31.862813
 20
-36.7212046276
 11
30.963796
 21
-39.5213376276
  0
LINE
  5
2EB
100
AcDbEntity
  8
0
100
AcDbLine
 62
7
  6
CONTINUOUS
 10
-11.35
 20
39.2917862147
 11
-13.2588190451
 21
38.7803196931
  0
LINE
  5
2EC
100
AcDbEntity
  8
RACCORDO
100
AcDbLine
 62
7
  6
CONTINUOUS
 10
-13.2588190451
 20
38.7803196931
 11
-11.35
 21
39.2917862147
  0
LINE
  5
2ED
100
AcDbEntity
  8
RACCORDO
100
AcDbLine
 62
253
  6
CONTINUOUS
 10
-14.0
 20
37.8143938668
 11
14.0
 21
37.8143938668
  0
LINE
  5
2EE
100
AcDbEntity
  8
RACCORDO
100
AcDbLine
 62
253
  6
CONTINUOUS
 10
-13.2588190451
 20
38.7803196931
 11
13.2588190451
 21
38.7803196931
  0
LINE
  5
2EF
100
AcDbEntity
  8
0
100
AcDbLine
 62
7
  6
CONTINUOUS
 10
11.35
 20
39.2917862147
 11
-11.35
 21
39.2917862147
  0
LINE
  5
2F0
100
AcDbEntity
  8
0
100
AcDbLine
 62
7
  6
CONTINUOUS
 10
11.85
 20
39.7917862147
 11
-11.85
 21
39.7917862147
  0
LINE
  5
2F1
100
AcDbEntity
  8
RACCORDO
100
AcDbLine
 62
253
  6
CONTINUOUS
 10
-11.85
 20
40.2185100565
 11
11.85
 21
40.2185100565
  0
LINE
  5
2F2
100
AcDbEntity
  8
RACCORDO
100
AcDbLine
 62
253
  6
CONTINUOUS
 10
-11.6276457135
 20
40.5082878044
 11
11.6276457135
 21
40.5082878044
  0
LINE
  5
2F3
100
AcDbEntity
  8
0
100
AcDbLine
 62
7
  6
CONTINUOUS
 10
9.45
 20
41.0917862147
 11
-9.45
 21
41.0917862147
  0
LINE
  5
2F4
100
AcDbEntity
  8
0
100
AcDbLine
 62
7
  6
CONTINUOUS
 10
10.1
 20
41.5917862147
 11
-10.1
 21
41.5917862147
  0
LINE
  5
2F5
100
AcDbEntity
  8
0
100
AcDbLine
 62
7
  6
CONTINUOUS
 10
11.35
 20
39.2917862147
 11
13.2588190451
 21
38.7803196931
  0
LINE
  5
2F6
100
AcDbEntity
  8
RACCORDO
100
AcDbLine
 62
7
  6
CONTINUOUS
 10
13.2588190451
 20
38.7803196931
 11
11.35
 21
39.2917862147
  0
LINE
  5
2F7
100
AcDbEntity
  8
ASSI
100
AcDbLine
 62
7
  6
CONTINUOUS
 10
31.871437
 20
-38.4386476276
 11
32.142834
 21
-37.5932996276
  0
LINE
  5
2F8
100
AcDbEntity
  8
ASSI
100
AcDbLine
 62
7
  6
CONTINUOUS
 10
31.523817
 20
-39.5213306276
 11
31.700616
 21
-38.9706686276
  0
LINE
  5
2F9
100
AcDbEntity
  8
0
100
AcDbLine
 62
7
  6
CONTINUOUS
 10
-9.45
 20
41.0917862147
 11
-11.6276457135
 21
40.5082878044
  0
LINE
  5
2FA
100
AcDbEntity
  8
RACCORDO
100
AcDbLine
 62
7
  6
CONTINUOUS
 10
-11.6276457135
 20
40.5082878044
 11
-9.45
 21
41.0917862147
  0
LINE
  5
2FB
100
AcDbEntity
  8
0
100
AcDbLine
 62
7
  6
CONTINUOUS
 10
-7.85
 20
42.8917862147
 11
-9.8776457135
 21
42.3484801832
  0
LINE
  5
2FC
100
AcDbEntity
  8
RACCORDO
100
AcDbLine
 62
7
  6
CONTINUOUS
 10
-9.8776457135
 20
42.3484801832
 11
-7.85
 21
42.8917862147
  0
LINE
  5
2FD
100
AcDbEntity
  8
0
100
AcDbLine
 62
7
  6
CONTINUOUS
 10
-6.0
 20
44.6917862147
 11
-8.1276457135
 21
44.121685264
  0
LINE
  5
2FE
100
AcDbEntity
  8
RACCORDO
100
AcDbLine
 62
7
  6
CONTINUOUS
 10
-8.1276457135
 20
44.121685264
 11
-6.0
 21
44.6917862147
  0
LINE
  5
2FF
100
AcDbEntity
  8
0
100
AcDbLine
 62
7
  6
CONTINUOUS
 10
-1.0
 20
46.5917862147
 11
-3.8776457135
 21
45.8207233697
  0
LINE
  5
300
100
AcDbEntity
  8
RACCORDO
100
AcDbLine
 62
7
  6
CONTINUOUS
 10
-3.8776457135
 20
45.8207233697
 11
-1.0
 21
46.5917862147
  0
LINE
  5
301
100
AcDbEntity
  8
RACCORDO
100
AcDbLine
 62
253
  6
CONTINUOUS
 10
-10.1
 20
42.0587024353
 11
10.1
 21
42.0587024353
  0
LINE
  5
302
100
AcDbEntity
  8
RACCORDO
100
AcDbLine
 62
253
  6
CONTINUOUS
 10
-9.8776457135
 20
42.3484801832
 11
9.8776457135
 21
42.3484801832
  0
LINE
  5
303
100
AcDbEntity
  8
0
100
AcDbLine
 62
7
  6
CONTINUOUS
 10
7.85
 20
42.8917862147
 11
-7.85
 21
42.8917862147
  0
LINE
  5
304
100
AcDbEntity
  8
0
100
AcDbLine
 62
7
  6
CONTINUOUS
 10
8.35
 20
43.3917862147
 11
-8.35
 21
43.3917862147
  0
LINE
  5
305
100
AcDbEntity
  8
RACCORDO
100
AcDbLine
 62
253
  6
CONTINUOUS
 10
-8.35
 20
43.8319075161
 11
8.35
 21
43.8319075161
  0
LINE
  5
306
100
AcDbEntity
  8
RACCORDO
100
AcDbLine
 62
253
  6
CONTINUOUS
 10
-8.1276457135
 20
44.121685264
 11
8.1276457135
 21
44.121685264
  0
LINE
  5
307
100
AcDbEntity
  8
0
100
AcDbLine
 62
7
  6
CONTINUOUS
 10
6.0
 20
44.6917862147
 11
-6.0
 21
44.6917862147
  0
LINE
  5
308
100
AcDbEntity
  8
0
100
AcDbLine
 62
7
  6
CONTINUOUS
 10
4.1
 20
45.1917862147
 11
-4.1
 21
45.1917862147
  0
LINE
  5
309
100
AcDbEntity
  8
RACCORDO
100
AcDbLine
 62
253
  6
CONTINUOUS
 10
-4.1
 20
45.5309456218
 11
4.1
 21
45.5309456218
  0
LINE
  5
30A
100
AcDbEntity
  8
RACCORDO
100
AcDbLine
 62
253
  6
CONTINUOUS
 10
-3.8776457135
 20
45.8207233697
 11
3.8776457135
 21
45.8207233697
  0
LINE
  5
30B
100
AcDbEntity
  8
0
100
AcDbLine
 62
7
  6
CONTINUOUS
 10
9.45
 20
41.0917862147
 11
11.6276457135
 21
40.5082878044
  0
LINE
  5
30C
100
AcDbEntity
  8
RACCORDO
100
AcDbLine
 62
7
  6
CONTINUOUS
 10
11.6276457135
 20
40.5082878044
 11
9.45
 21
41.0917862147
  0
LINE
  5
30D
100
AcDbEntity
  8
0
100
AcDbLine
 62
7
  6
CONTINUOUS
 10
7.85
 20
42.8917862147
 11
9.8776457135
 21
42.3484801832
  0
LINE
  5
30E
100
AcDbEntity
  8
RACCORDO
100
AcDbLine
 62
7
  6
CONTINUOUS
 10
9.8776457135
 20
42.3484801832
 11
7.85
 21
42.8917862147
  0
LINE
  5
30F
100
AcDbEntity
  8
0
100
AcDbLine
 62
7
  6
CONTINUOUS
 10
6.0
 20
44.6917862147
 11
8.1276457135
 21
44.121685264
  0
LINE
  5
310
100
AcDbEntity
  8
RACCORDO
100
AcDbLine
 62
7
  6
CONTINUOUS
 10
8.1276457135
 20
44.121685264
 11
6.0
 21
44.6917862147
  0
LINE
  5
311
100
AcDbEntity
  8
0
100
AcDbLine
 62
7
  6
CONTINUOUS
 10
1.0
 20
46.5917862147
 11
3.8776457135
 21
45.8207233697
  0
LINE
  5
312
100
AcDbEntity
  8
RACCORDO
100
AcDbLine
 62
7
  6
CONTINUOUS
 10
3.8776457135
 20
45.8207233697
 11
1.0
 21
46.5917862147
  0
LINE
  5
313
100
AcDbEntity
  8
0
100
AcDbLine
 62
7
  6
CONTINUOUS
 10
39.877893713
 20
22.2174777449
 11
39.8283951111
 21
22.3237280462
  0
LINE
  5
314
100
AcDbEntity
  8
RACCORDO
100
AcDbLine
 62
7
  6
CONTINUOUS
 10
50.0
 20
34.9787124878
 11
50.0
 21
-45.021401743
  0
LINE
  5
315
100
AcDbEntity
  8
0
100
AcDbLine
 62
7
  6
CONTINUOUS
 10
39.828395019
 20
-32.3664172523
 11
39.8778937063
 21
-32.2601670101
  0
LINE
  5
316
100
AcDbEntity
  8
0
100
AcDbLine
 62
7
  6
CONTINUOUS
 10
1.0
 20
46.5917862147
 11
-1.0
 21
46.5917862147
  0
LINE
  5
317
100
AcDbEntity
  8
0
100
AcDbLine
 62
7
  6
CONTINUOUS
 10
42.122106287
 20
21.7398329998
 11
42.1716048889
 21
21.6335826985
  0
LINE
  5
318
100
AcDbEntity
  8
0
100
AcDbLine
 62
7
  6
CONTINUOUS
 10
42.171604981
 20
-31.676272003
 11
42.1221062937
 21
-31.7825222452
  0
LINE
  5
319
100
AcDbEntity
  8
RACCORDO
100
AcDbLine
 62
7
  6
CONTINUOUS
 10
-114.2495797922
 20
-46.5206464931
 11
-75.2460891407
 21
-46.3844980738
  0
LINE
  5
31A
100
AcDbEntity
  8
RACCORDO
100
AcDbLine
 62
253
  6
CONTINUOUS
 10
-114.2495797922
 20
-45.0206556316
 11
-75.2460891407
 21
-44.8845009446
  0
LINE
  5
31B
100
AcDbEntity
  8
RACCORDO
100
AcDbLine
 62
253
  6
CONTINUOUS
 10
-74.2495797922
 20
-44.8845072123
 11
-75.2460891407
 21
-44.8845072123
  0
LINE
  5
31C
100
AcDbEntity
  8
RACCORDO
100
AcDbLine
 62
7
  6
CONTINUOUS
 10
-114.2495797922
 20
-46.5213446276
 11
-123.3653287376
 21
-46.4417926918
  0
LINE
  5
31D
100
AcDbEntity
  8
RACCORDO
100
AcDbLine
 62
253
  6
CONTINUOUS
 10
-114.2495797922
 20
-45.021401743
 11
-123.3654164599
 21
-44.9418490416
  0
LINE
  5
31E
100
AcDbEntity
  8
ASSI
100
AcDbLine
 62
7
  6
CONTINUOUS
 10
-128.6958079953
 20
-39.5213236276
 11
-128.5450742347
 21
-39.5213236276
  0
LINE
  5
31F
100
AcDbEntity
  8
RACCORDO
100
AcDbLine
 62
253
  6
CONTINUOUS
 10
-128.2938446948
 20
-41.9698176381
 11
-126.8153162349
 21
-41.811467041
  0
LINE
  5
320
100
AcDbEntity
  8
ASSI
100
AcDbLine
 62
7
  6
CONTINUOUS
 10
-128.8077572754
 20
-38.3712982946
 11
-128.6570719481
 21
-38.3712982946
  0
LINE
  5
321
100
AcDbEntity
  8
ASSI
100
AcDbLine
 62
7
  6
CONTINUOUS
 10
-128.8110792094
 20
-36.7212046276
 11
-128.9616982143
 21
-36.7212046276
  0
LINE
  5
322
100
AcDbEntity
  8
RACCORDO
100
AcDbLine
 62
7
  6
CONTINUOUS
 10
-114.2495797922
 20
36.4786553724
 11
-114.2495797922
 21
-46.5213446276
  0
LINE
  5
323
100
AcDbEntity
  8
0
100
AcDbLine
 62
7
  6
CONTINUOUS
 10
-104.2495797922
 20
37.8143938669
 11
-104.2495797922
 21
36.443050511
  0
LINE
  5
324
100
AcDbEntity
  8
0
100
AcDbLine
 62
7
  6
CONTINUOUS
 10
-102.0995797922
 20
40.2185100565
 11
-102.0995797922
 21
39.7917862147
  0
LINE
  5
325
100
AcDbEntity
  8
0
100
AcDbLine
 62
7
  6
CONTINUOUS
 10
-101.5995797922
 20
39.7917862147
 11
-101.5995797922
 21
39.2917862147
  0
LINE
  5
326
100
AcDbEntity
  8
0
100
AcDbLine
 62
7
  6
CONTINUOUS
 10
-100.3495797922
 20
42.0587024353
 11
-100.3495797922
 21
41.5917862147
  0
LINE
  5
327
100
AcDbEntity
  8
0
100
AcDbLine
 62
7
  6
CONTINUOUS
 10
-99.6995797922
 20
41.5917862147
 11
-99.6995797922
 21
41.0917862147
  0
LINE
  5
328
100
AcDbEntity
  8
0
100
AcDbLine
 62
7
  6
CONTINUOUS
 10
-98.5995797922
 20
43.8319075161
 11
-98.5995797922
 21
43.3917862147
  0
LINE
  5
329
100
AcDbEntity
  8
0
100
AcDbLine
 62
7
  6
CONTINUOUS
 10
-98.0995797922
 20
43.3917862147
 11
-98.0995797922
 21
42.8917862147
  0
LINE
  5
32A
100
AcDbEntity
  8
0
100
AcDbLine
 62
7
  6
CONTINUOUS
 10
-94.3495797922
 20
45.5309456242
 11
-94.3495797922
 21
45.1917862147
  0
LINE
  5
32B
100
AcDbEntity
  8
0
100
AcDbLine
 62
7
  6
CONTINUOUS
 10
-93.8495797922
 20
45.1917862147
 11
-93.8495797922
 21
44.6917862147
  0
LINE
  5
32C
100
AcDbEntity
  8
0
100
AcDbLine
 62
7
  6
CONTINUOUS
 10
-86.6495797922
 20
45.1917862147
 11
-86.6495797922
 21
44.6917862147
  0
LINE
  5
32D
100
AcDbEntity
  8
0
100
AcDbLine
 62
7
  6
CONTINUOUS
 10
-86.1495797922
 20
45.5309456242
 11
-86.1495797922
 21
45.1917862147
  0
LINE
  5
32E
100
AcDbEntity
  8
0
100
AcDbLine
 62
7
  6
CONTINUOUS
 10
-82.3995797922
 20
43.3917862147
 11
-82.3995797922
 21
42.8917862147
  0
LINE
  5
32F
100
AcDbEntity
  8
0
100
AcDbLine
 62
7
  6
CONTINUOUS
 10
-81.8995797922
 20
43.8319075161
 11
-81.8995797922
 21
43.3917862147
  0
LINE
  5
330
100
AcDbEntity
  8
0
100
AcDbLine
 62
7
  6
CONTINUOUS
 10
-80.7995797922
 20
41.5917862147
 11
-80.7995797922
 21
41.0917862147
  0
LINE
  5
331
100
AcDbEntity
  8
0
100
AcDbLine
 62
7
  6
CONTINUOUS
 10
-80.1495797922
 20
42.0587024353
 11
-80.1495797922
 21
41.5917862147
  0
LINE
  5
332
100
AcDbEntity
  8
0
100
AcDbLine
 62
7
  6
CONTINUOUS
 10
-78.8995797922
 20
39.7917862147
 11
-78.8995797922
 21
39.2917862147
  0
LINE
  5
333
100
AcDbEntity
  8
0
100
AcDbLine
 62
7
  6
CONTINUOUS
 10
-78.7495797922
 20
36.3917862147
 11
-78.7495797922
 21
36.3540383576
  0
LINE
  5
334
100
AcDbEntity
  8
0
100
AcDbLine
 62
7
  6
CONTINUOUS
 10
-78.3995797922
 20
40.2185100565
 11
-78.3995797922
 21
39.7917862147
  0
LINE
  5
335
100
AcDbEntity
  8
0
100
AcDbLine
 62
7
  6
CONTINUOUS
 10
-76.2495797922
 20
37.8143938669
 11
-76.2495797922
 21
36.3917862147
  0
LINE
  5
336
100
AcDbEntity
  8
RACCORDO
100
AcDbLine
 62
253
  6
CONTINUOUS
 10
-75.2460891407
 20
34.8418105823
 11
-75.2460891407
 21
-44.8845009446
  0
LINE
  5
337
100
AcDbEntity
  8
RACCORDO
100
AcDbLine
 62
7
  6
CONTINUOUS
 10
-74.2495797922
 20
35.3418149109
 11
-74.2495797922
 21
-45.3845041661
  0
LINE
  5
338
100
AcDbEntity
  8
RACCORDO
100
AcDbLine
 62
253
  6
CONTINUOUS
 10
-128.2938427582
 20
31.9271281771
 11
-126.8153162349
 21
31.7687777858
  0
LINE
  5
339
100
AcDbEntity
  8
RACCORDO
100
AcDbLine
 62
253
  6
CONTINUOUS
 10
-123.3654164599
 20
34.8991597864
 11
-114.2495797922
 21
34.9787124878
  0
LINE
  5
33A
100
AcDbEntity
  8
RACCORDO
100
AcDbLine
 62
7
  6
CONTINUOUS
 10
-123.3653317816
 20
36.3991034099
 11
-114.2495797922
 21
36.4786553724
  0
LINE
  5
33B
100
AcDbEntity
  8
RACCORDO
100
AcDbLine
 62
253
  6
CONTINUOUS
 10
-74.2495797922
 20
34.841817957
 11
-75.2460891407
 21
34.841817957
  0
LINE
  5
33C
100
AcDbEntity
  8
0
100
AcDbLine
 62
7
  6
CONTINUOUS
 10
-89.5635003475
 20
36.3917862147
 11
-76.2495797922
 21
36.3917862147
  0
LINE
  5
33D
100
AcDbEntity
  8
RACCORDO
100
AcDbLine
 62
253
  6
CONTINUOUS
 10
-114.2495797922
 20
34.9779663763
 11
-75.2460891407
 21
34.8418105823
  0
LINE
  5
33E
100
AcDbEntity
  8
RACCORDO
100
AcDbLine
 62
7
  6
CONTINUOUS
 10
-114.2495797922
 20
36.4779572378
 11
-75.2460891407
 21
36.3418088185
  0
LINE
  5
33F
100
AcDbEntity
  8
0
100
AcDbLine
 62
7
  6
CONTINUOUS
 10
-101.5995797922
 20
39.2917862147
 11
-103.5083988345
 21
38.7803196938
  0
LINE
  5
340
100
AcDbEntity
  8
0
100
AcDbLine
 62
7
  6
CONTINUOUS
 10
-99.6995797922
 20
41.0917862147
 11
-101.8772255002
 21
40.5082878058
  0
LINE
  5
341
100
AcDbEntity
  8
0
100
AcDbLine
 62
7
  6
CONTINUOUS
 10
-98.0995797922
 20
42.8917862147
 11
-100.127225508
 21
42.3484801826
  0
LINE
  5
342
100
AcDbEntity
  8
RACCORDO
100
AcDbLine
 62
253
  6
CONTINUOUS
 10
-104.2495797922
 20
37.8143938669
 11
-76.2495797922
 21
37.8143938669
  0
LINE
  5
343
100
AcDbEntity
  8
RACCORDO
100
AcDbLine
 62
253
  6
CONTINUOUS
 10
-103.5083988339
 20
38.780319694
 11
-76.9907607505
 21
38.780319694
  0
LINE
  5
344
100
AcDbEntity
  8
0
100
AcDbLine
 62
7
  6
CONTINUOUS
 10
-78.8995797922
 20
39.2917862147
 11
-101.5995797922
 21
39.2917862147
  0
LINE
  5
345
100
AcDbEntity
  8
0
100
AcDbLine
 62
7
  6
CONTINUOUS
 10
-78.3995797922
 20
39.7917862147
 11
-102.0995797922
 21
39.7917862147
  0
LINE
  5
346
100
AcDbEntity
  8
RACCORDO
100
AcDbLine
 62
253
  6
CONTINUOUS
 10
-102.0995797922
 20
40.2185100566
 11
-78.3995797922
 21
40.2185100566
  0
LINE
  5
347
100
AcDbEntity
  8
0
100
AcDbLine
 62
7
  6
CONTINUOUS
 10
-96.2495797922
 20
44.6917862147
 11
-98.3772255062
 21
44.1216852638
  0
LINE
  5
348
100
AcDbEntity
  8
0
100
AcDbLine
 62
7
  6
CONTINUOUS
 10
-91.2495797922
 20
46.5917862147
 11
-94.1272254492
 21
45.8207233848
  0
LINE
  5
349
100
AcDbEntity
  8
RACCORDO
100
AcDbLine
 62
253
  6
CONTINUOUS
 10
-101.8772254995
 20
40.508287806
 11
-78.6219340848
 21
40.508287806
  0
LINE
  5
34A
100
AcDbEntity
  8
0
100
AcDbLine
 62
7
  6
CONTINUOUS
 10
-80.7995797922
 20
41.0917862147
 11
-99.6995797922
 21
41.0917862147
  0
LINE
  5
34B
100
AcDbEntity
  8
0
100
AcDbLine
 62
7
  6
CONTINUOUS
 10
-80.1495797922
 20
41.5917862147
 11
-100.3495797922
 21
41.5917862147
  0
LINE
  5
34C
100
AcDbEntity
  8
RACCORDO
100
AcDbLine
 62
253
  6
CONTINUOUS
 10
-100.3495797922
 20
42.0587024352
 11
-80.1495797922
 21
42.0587024352
  0
LINE
  5
34D
100
AcDbEntity
  8
RACCORDO
100
AcDbLine
 62
253
  6
CONTINUOUS
 10
-100.1272255132
 20
42.3484801812
 11
-80.3719340712
 21
42.3484801812
  0
LINE
  5
34E
100
AcDbEntity
  8
0
100
AcDbLine
 62
7
  6
CONTINUOUS
 10
-82.3995797922
 20
42.8917862147
 11
-98.0995797922
 21
42.8917862147
  0
LINE
  5
34F
100
AcDbEntity
  8
0
100
AcDbLine
 62
7
  6
CONTINUOUS
 10
-81.8996478081
 20
43.3917862147
 11
-98.5995117762
 21
43.3917862147
  0
LINE
  5
350
100
AcDbEntity
  8
RACCORDO
100
AcDbLine
 62
253
  6
CONTINUOUS
 10
-98.5995797922
 20
43.831907516
 11
-81.8995797922
 21
43.831907516
  0
LINE
  5
351
100
AcDbEntity
  8
RACCORDO
100
AcDbLine
 62
253
  6
CONTINUOUS
 10
-98.3772255121
 20
44.1216852623
 11
-82.1219340722
 21
44.1216852623
  0
LINE
  5
352
100
AcDbEntity
  8
0
100
AcDbLine
 62
7
  6
CONTINUOUS
 10
-84.2496500953
 20
44.6917862147
 11
-96.249509489
 21
44.6917862147
  0
LINE
  5
353
100
AcDbEntity
  8
0
100
AcDbLine
 62
7
  6
CONTINUOUS
 10
-86.1496514545
 20
45.1917862147
 11
-94.3495081299
 21
45.1917862147
  0
LINE
  5
354
100
AcDbEntity
  8
RACCORDO
100
AcDbLine
 62
253
  6
CONTINUOUS
 10
-94.3495797922
 20
45.5309456242
 11
-86.1495797922
 21
45.5309456242
  0
LINE
  5
355
100
AcDbEntity
  8
RACCORDO
100
AcDbLine
 62
253
  6
CONTINUOUS
 10
-94.1272254492
 20
45.8207233848
 11
-86.3719341351
 21
45.8207233848
  0
LINE
  5
356
100
AcDbEntity
  8
0
100
AcDbLine
 62
7
  6
CONTINUOUS
 10
-89.2496593391
 20
46.5917862147
 11
-91.2495002452
 21
46.5917862147
  0
LINE
  5
357
100
AcDbEntity
  8
0
100
AcDbLine
 62
7
  6
CONTINUOUS
 10
-78.8995797922
 20
39.2917862147
 11
-76.9907607498
 21
38.7803196938
  0
LINE
  5
358
100
AcDbEntity
  8
0
100
AcDbLine
 62
7
  6
CONTINUOUS
 10
-80.7995797922
 20
41.0917862147
 11
-78.6219340841
 21
40.5082878058
  0
LINE
  5
359
100
AcDbEntity
  8
0
100
AcDbLine
 62
7
  6
CONTINUOUS
 10
-82.3995797922
 20
42.8917862147
 11
-80.3719340763
 21
42.3484801826
  0
LINE
  5
35A
100
AcDbEntity
  8
0
100
AcDbLine
 62
7
  6
CONTINUOUS
 10
-84.2495797922
 20
44.6917862147
 11
-82.1219340782
 21
44.1216852638
  0
LINE
  5
35B
100
AcDbEntity
  8
0
100
AcDbLine
 62
7
  6
CONTINUOUS
 10
-89.2495797922
 20
46.5917862147
 11
-86.3719341351
 21
45.8207233848
  0
ARC
  5
35C
100
AcDbEntity
  8
RACCORDO
100
AcDbCircle
 62
253
  6
CONTINUOUS
 10
-20007.6147093987
 20
-5.0213446276
 40
20045.4214773895
100
AcDbArc
 50
359.9362303289
 51
0.0637696711
  0
ARC
  5
35D
100
AcDbEntity
  8
RACCORDO
100
AcDbCircle
 62
253
  6
CONTINUOUS
 10
-19979.241503151
 20
-5.0213444958
 40
20016.7983092179
100
AcDbArc
 50
359.9361847384
 51
0.0638152639
  0
ARC
  5
35E
100
AcDbEntity
  8
0
100
AcDbCircle
 62
7
  6
CONTINUOUS
 10
-54.0098389156
 20
-98.3611123953
 40
68.1675678911
100
AcDbArc
 50
77.5622418143
 51
77.9769604184
  0
ARC
  5
35F
100
AcDbEntity
  8
0
100
AcDbCircle
 62
7
  6
CONTINUOUS
 10
-29.5972347453
 20
-91.1199409448
 40
60.7503985823
100
AcDbArc
 50
101.9634542625
 51
102.4284885029
  0
ARC
  5
360
100
AcDbEntity
  8
0
100
AcDbCircle
 62
7
  6
CONTINUOUS
 10
-54.0098389156
 20
-44.3611123954
 40
68.1675678913
100
AcDbArc
 50
77.5622418143
 51
77.9769604184
  0
ARC
  5
361
100
AcDbEntity
  8
0
100
AcDbCircle
 62
7
  6
CONTINUOUS
 10
-47.6512172133
 20
-46.182193738
 40
16.3392586137
100
AcDbArc
 50
63.8020617908
 51
63.9650284022
  0
ARC
  5
362
100
AcDbEntity
  8
0
100
AcDbCircle
 62
7
  6
CONTINUOUS
 10
-55.1604077297
 20
-38.6723467032
 40
16.3387675934
100
AcDbArc
 50
26.0349730838
 51
26.1979446202
  0
ARC
  5
363
100
AcDbEntity
  8
0
100
AcDbCircle
 62
7
  6
CONTINUOUS
 10
-53.435571294
 20
-26.1507417438
 40
14.5897650643
100
AcDbArc
 50
333.3130487244
 51
333.5527387092
  0
ARC
  5
364
100
AcDbEntity
  8
0
100
AcDbCircle
 62
7
  6
CONTINUOUS
 10
-53.395303675
 20
-37.8717671999
 40
14.5447241002
100
AcDbArc
 50
26.4467334955
 51
26.6871679444
  0
ARC
  5
365
100
AcDbEntity
  8
RACCORDO
100
AcDbCircle
 62
253
  6
CONTINUOUS
 10
-41.0003278936
 20
-32.0165513986
 40
3.2969553883
100
AcDbArc
 50
89.9943018207
 51
270.0056981793
  0
ARC
  5
366
100
AcDbEntity
  8
RACCORDO
100
AcDbCircle
 62
253
  6
CONTINUOUS
 10
-48.4203673967
 20
-44.9417120243
 40
1.5000807793
100
AcDbArc
 50
180.0052333974
 51
269.9947666026
  0
ARC
  5
367
100
AcDbEntity
  8
0
100
AcDbCircle
 62
7
  6
CONTINUOUS
 10
-55.1259263177
 20
-25.3871748137
 40
16.3003971269
100
AcDbArc
 50
333.8016338065
 51
333.9649905686
  0
ARC
  5
368
100
AcDbEntity
  8
0
100
AcDbCircle
 62
7
  6
CONTINUOUS
 10
-47.6325196491
 20
-17.8988439351
 40
16.2965948228
100
AcDbArc
 50
296.0350827721
 51
296.1984782953
  0
ARC
  5
369
100
AcDbEntity
  8
0
100
AcDbCircle
 62
7
  6
CONTINUOUS
 10
-29.5972347455
 20
-37.1199409441
 40
60.7503985816
100
AcDbArc
 50
101.9634542625
 51
102.4284885029
  0
ARC
  5
36A
100
AcDbEntity
  8
0
100
AcDbCircle
 62
7
  6
CONTINUOUS
 10
-26.8740736827
 20
-38.6555144414
 40
16.3003971265
100
AcDbArc
 50
153.8016338065
 51
153.9649905686
  0
ARC
  5
36B
100
AcDbEntity
  8
0
100
AcDbCircle
 62
7
  6
CONTINUOUS
 10
-34.3674640508
 20
-46.1438785682
 40
16.2966318515
100
AcDbArc
 50
116.0350829578
 51
116.1984781096
  0
ARC
  5
36C
100
AcDbEntity
  8
0
100
AcDbCircle
 62
7
  6
CONTINUOUS
 10
-28.5644287062
 20
-37.8919475113
 40
14.5897650641
100
AcDbArc
 50
153.3130487244
 51
153.5527387092
  0
ARC
  5
36D
100
AcDbEntity
  8
0
100
AcDbCircle
 62
7
  6
CONTINUOUS
 10
-28.6046963198
 20
-26.1709220528
 40
14.544724106
100
AcDbArc
 50
206.4467334955
 51
206.6871679444
  0
ARC
  5
36E
100
AcDbEntity
  8
RACCORDO
100
AcDbCircle
 62
253
  6
CONTINUOUS
 10
-40.9996721062
 20
-32.0165514405
 40
3.296955383
100
AcDbArc
 50
269.994301818
 51
90.0056981819
  0
CIRCLE
  5
36F
100
AcDbEntity
  8
DRAFT
100
AcDbCircle
 62
7
  6
CONTINUOUS
 10
-41.0
 20
-32.0213446276
 40
3.25
  0
CIRCLE
  5
370
100
AcDbEntity
  8
0
100
AcDbCircle
 62
7
  6
CONTINUOUS
 10
-41.0
 20
-32.0213446276
 40
3.0
  0
ARC
  5
371
100
AcDbEntity
  8
0
100
AcDbCircle
 62
7
  6
CONTINUOUS
 10
-41.0
 20
-32.0213446276
 40
2.8950136038
100
AcDbArc
 50
258.0385857315
 51
281.9614142685
  0
ARC
  5
372
100
AcDbEntity
  8
0
100
AcDbCircle
 62
7
  6
CONTINUOUS
 10
-41.0
 20
-32.0213446276
 40
2.8950136038
100
AcDbArc
 50
78.0385857315
 51
101.9614142685
  0
ARC
  5
373
100
AcDbEntity
  8
0
100
AcDbCircle
 62
7
  6
CONTINUOUS
 10
-41.0
 20
-32.0213446276
 40
2.8155023425
100
AcDbArc
 50
102.3044249574
 51
257.6955750426
  0
ARC
  5
374
100
AcDbEntity
  8
0
100
AcDbCircle
 62
7
  6
CONTINUOUS
 10
-41.0
 20
-32.0213446276
 40
2.8155023425
100
AcDbArc
 50
282.3044249574
 51
77.6955750426
  0
ARC
  5
375
100
AcDbEntity
  8
0
100
AcDbCircle
 62
7
  6
CONTINUOUS
 10
-41.0
 20
-32.0213446276
 40
1.6874840352
100
AcDbArc
 50
172.230101045
 51
187.7632444202
  0
ARC
  5
376
100
AcDbEntity
  8
0
100
AcDbCircle
 62
7
  6
CONTINUOUS
 10
-41.0
 20
-32.0213446276
 40
1.6874840352
100
AcDbArc
 50
352.2301010241
 51
7.7632444202
  0
ARC
  5
377
100
AcDbEntity
  8
TRASH
100
AcDbCircle
 62
7
  6
CONTINUOUS
 10
-41.0
 20
-32.0213446276
 40
1.1472328625
100
AcDbArc
 50
347.9845776281
 51
12.0153200785
  0
ARC
  5
378
100
AcDbEntity
  8
TRASH
100
AcDbCircle
 62
7
  6
CONTINUOUS
 10
-41.0
 20
-32.0213446276
 40
1.1472328625
100
AcDbArc
 50
167.9845776281
 51
192.0153200785
  0
ARC
  5
379
100
AcDbEntity
  8
0
100
AcDbCircle
 62
7
  6
CONTINUOUS
 10
-41.0
 20
-32.0213446276
 40
0.7522905861
100
AcDbArc
 50
138.3509867785
 51
142.8981211086
  0
ARC
  5
37A
100
AcDbEntity
  8
0
100
AcDbCircle
 62
7
  6
CONTINUOUS
 10
-41.0
 20
-32.0213446276
 40
0.7522905861
100
AcDbArc
 50
48.3509342563
 51
131.6490283615
  0
ARC
  5
37B
100
AcDbEntity
  8
0
100
AcDbCircle
 62
7
  6
CONTINUOUS
 10
-41.0
 20
-32.0213446276
 40
0.7522905861
100
AcDbArc
 50
37.1018788914
 51
41.6490663885
  0
ARC
  5
37C
100
AcDbEntity
  8
0
100
AcDbCircle
 62
7
  6
CONTINUOUS
 10
-41.0
 20
-32.0213446276
 40
0.7522905861
100
AcDbArc
 50
318.3509867785
 51
322.8981211086
  0
ARC
  5
37D
100
AcDbEntity
  8
0
100
AcDbCircle
 62
7
  6
CONTINUOUS
 10
-41.0
 20
-32.0213446276
 40
0.7522905861
100
AcDbArc
 50
228.3509342563
 51
311.6490283615
  0
ARC
  5
37E
100
AcDbEntity
  8
0
100
AcDbCircle
 62
7
  6
CONTINUOUS
 10
-41.0
 20
-32.0213446276
 40
0.7522905861
100
AcDbArc
 50
217.1018788914
 51
221.6490663885
  0
ARC
  5
37F
100
AcDbEntity
  8
RACCORDO
100
AcDbCircle
 62
253
  6
CONTINUOUS
 10
-37.2938929706
 20
-27.3309477217
 40
0.5004706534
100
AcDbArc
 50
180.0870624263
 51
270.0032512237
  0
ARC
  5
380
100
AcDbEntity
  8
0
100
AcDbCircle
 62
7
  6
CONTINUOUS
 10
-26.8395922703
 20
-25.3703425521
 40
16.3387675934
100
AcDbArc
 50
206.0349730838
 51
206.1979446202
  0
ARC
  5
381
100
AcDbEntity
  8
0
100
AcDbCircle
 62
7
  6
CONTINUOUS
 10
-34.3493565224
 20
-17.8616658067
 40
16.337955254
100
AcDbArc
 50
243.8020552904
 51
243.9650349025
  0
ARC
  5
382
100
AcDbEntity
  8
0
100
AcDbCircle
 62
7
  6
CONTINUOUS
 10
-36.0
 20
-5.0213446276
 40
4.0
100
AcDbArc
 50
270.0
 51
90.0
  0
CIRCLE
  5
383
100
AcDbEntity
  8
0
100
AcDbCircle
 62
7
  6
CONTINUOUS
 10
-36.0
 20
-5.0213446276
 40
1.2124355653
  0
ARC
  5
384
100
AcDbEntity
  8
0
100
AcDbCircle
 62
7
  6
CONTINUOUS
 10
-52.402765534
 20
27.0772532232
 40
60.7504001409
100
AcDbArc
 50
281.9634542192
 51
282.4284884486
  0
ARC
  5
385
100
AcDbEntity
  8
0
100
AcDbCircle
 62
7
  6
CONTINUOUS
 10
-47.6512172145
 20
7.8178062594
 40
16.3392586165
100
AcDbArc
 50
63.8020617908
 51
63.9650284022
  0
ARC
  5
386
100
AcDbEntity
  8
0
100
AcDbCircle
 62
7
  6
CONTINUOUS
 10
-55.1604077314
 20
15.327653296
 40
16.3387675952
100
AcDbArc
 50
26.0349730838
 51
26.1979446202
  0
ARC
  5
387
100
AcDbEntity
  8
0
100
AcDbCircle
 62
7
  6
CONTINUOUS
 10
-34.349356522
 20
36.1383341942
 40
16.337955255
100
AcDbArc
 50
243.8020552904
 51
243.9650349025
  0
ARC
  5
388
100
AcDbEntity
  8
0
100
AcDbCircle
 62
7
  6
CONTINUOUS
 10
-55.1259263177
 20
28.6128251863
 40
16.3003971269
100
AcDbArc
 50
333.8016338065
 51
333.9649905686
  0
ARC
  5
389
100
AcDbEntity
  8
0
100
AcDbCircle
 62
7
  6
CONTINUOUS
 10
-34.36746405
 20
7.8561214301
 40
16.2966318534
100
AcDbArc
 50
116.0350829578
 51
116.1984781096
  0
ARC
  5
38A
100
AcDbEntity
  8
0
100
AcDbCircle
 62
7
  6
CONTINUOUS
 10
-47.6325196507
 20
36.1011560683
 40
16.2965948266
100
AcDbArc
 50
296.0350827721
 51
296.1984782953
  0
ARC
  5
38B
100
AcDbEntity
  8
0
100
AcDbCircle
 62
7
  6
CONTINUOUS
 10
-53.4355712947
 20
27.8492582565
 40
14.5897650651
100
AcDbArc
 50
333.3130487244
 51
333.5527387092
  0
ARC
  5
38C
100
AcDbEntity
  8
0
100
AcDbCircle
 62
7
  6
CONTINUOUS
 10
-53.395303675
 20
16.1282328001
 40
14.5447241002
100
AcDbArc
 50
26.4467334954
 51
26.6871679444
  0
ARC
  5
38D
100
AcDbEntity
  8
RACCORDO
100
AcDbCircle
 62
253
  6
CONTINUOUS
 10
-40.9996721064
 20
21.9738621433
 40
3.2969553868
100
AcDbArc
 50
269.99430182
 51
90.0056981799
  0
ARC
  5
38E
100
AcDbEntity
  8
RACCORDO
100
AcDbCircle
 62
253
  6
CONTINUOUS
 10
-41.0003278938
 20
21.9738621853
 40
3.2969553845
100
AcDbArc
 50
89.9943018177
 51
270.0056981822
  0
CIRCLE
  5
38F
100
AcDbEntity
  8
DRAFT
100
AcDbCircle
 62
7
  6
CONTINUOUS
 10
-41.0
 20
21.9786553724
 40
3.25
  0
CIRCLE
  5
390
100
AcDbEntity
  8
0
100
AcDbCircle
 62
7
  6
CONTINUOUS
 10
-41.0
 20
21.9786553724
 40
3.0
  0
ARC
  5
391
100
AcDbEntity
  8
0
100
AcDbCircle
 62
7
  6
CONTINUOUS
 10
-41.0
 20
21.9786553724
 40
2.8950136038
100
AcDbArc
 50
258.0385857315
 51
281.9614142685
  0
ARC
  5
392
100
AcDbEntity
  8
0
100
AcDbCircle
 62
7
  6
CONTINUOUS
 10
-41.0
 20
21.9786553724
 40
2.8950136038
100
AcDbArc
 50
78.0385857315
 51
101.9614142685
  0
ARC
  5
393
100
AcDbEntity
  8
0
100
AcDbCircle
 62
7
  6
CONTINUOUS
 10
-41.0
 20
21.9786553724
 40
2.8155023425
100
AcDbArc
 50
102.3044249574
 51
257.6955750426
  0
ARC
  5
394
100
AcDbEntity
  8
0
100
AcDbCircle
 62
7
  6
CONTINUOUS
 10
-41.0
 20
21.9786553724
 40
2.8155023425
100
AcDbArc
 50
282.3044249574
 51
77.6955750426
  0
ARC
  5
395
100
AcDbEntity
  8
0
100
AcDbCircle
 62
7
  6
CONTINUOUS
 10
-41.0
 20
21.9786553724
 40
1.6874840352
100
AcDbArc
 50
172.230101045
 51
187.7632444202
  0
ARC
  5
396
100
AcDbEntity
  8
0
100
AcDbCircle
 62
7
  6
CONTINUOUS
 10
-41.0
 20
21.9786553724
 40
1.6874840352
100
AcDbArc
 50
352.2301010241
 51
7.7632444202
  0
ARC
  5
397
100
AcDbEntity
  8
RACCORDO
100
AcDbCircle
 62
253
  6
CONTINUOUS
 10
-48.4203673966
 20
34.8990227689
 40
1.5000807794
100
AcDbArc
 50
90.0052334012
 51
179.9947665988
  0
ARC
  5
398
100
AcDbEntity
  8
TRASH
100
AcDbCircle
 62
7
  6
CONTINUOUS
 10
-41.0
 20
21.9786553724
 40
1.1472328625
100
AcDbArc
 50
347.9845776281
 51
12.0153200785
  0
ARC
  5
399
100
AcDbEntity
  8
TRASH
100
AcDbCircle
 62
7
  6
CONTINUOUS
 10
-41.0
 20
21.9786553724
 40
1.1472328625
100
AcDbArc
 50
167.9845776281
 51
192.0153200785
  0
ARC
  5
39A
100
AcDbEntity
  8
0
100
AcDbCircle
 62
7
  6
CONTINUOUS
 10
-41.0
 20
21.9786553724
 40
0.7522905861
100
AcDbArc
 50
138.3509867785
 51
142.8981211086
  0
ARC
  5
39B
100
AcDbEntity
  8
0
100
AcDbCircle
 62
7
  6
CONTINUOUS
 10
-41.0
 20
21.9786553724
 40
0.7522905861
100
AcDbArc
 50
48.3509342563
 51
131.6490283615
  0
ARC
  5
39C
100
AcDbEntity
  8
0
100
AcDbCircle
 62
7
  6
CONTINUOUS
 10
-41.0
 20
21.9786553724
 40
0.7522905861
100
AcDbArc
 50
37.1018788914
 51
41.6490663885
  0
ARC
  5
39D
100
AcDbEntity
  8
0
100
AcDbCircle
 62
7
  6
CONTINUOUS
 10
-41.0
 20
21.9786553724
 40
0.7522905861
100
AcDbArc
 50
318.3509867785
 51
322.8981211086
  0
ARC
  5
39E
100
AcDbEntity
  8
0
100
AcDbCircle
 62
7
  6
CONTINUOUS
 10
-41.0
 20
21.9786553724
 40
0.7522905861
100
AcDbArc
 50
228.3509342563
 51
311.6490283615
  0
ARC
  5
39F
100
AcDbEntity
  8
0
100
AcDbCircle
 62
7
  6
CONTINUOUS
 10
-41.0
 20
21.9786553724
 40
0.7522905861
100
AcDbArc
 50
217.1018788914
 51
221.6490663885
  0
ARC
  5
3A0
100
AcDbEntity
  8
RACCORDO
100
AcDbCircle
 62
253
  6
CONTINUOUS
 10
-37.2938798029
 20
17.2882376016
 40
0.5004919741
100
AcDbArc
 50
89.9982563053
 51
179.9105511866
  0
ARC
  5
3A1
100
AcDbEntity
  8
0
100
AcDbCircle
 62
7
  6
CONTINUOUS
 10
-52.4027655341
 20
81.0772532238
 40
60.7504001415
100
AcDbArc
 50
281.9634542192
 51
282.4284884486
  0
ARC
  5
3A2
100
AcDbEntity
  8
0
100
AcDbCircle
 62
7
  6
CONTINUOUS
 10
-27.922624873
 20
34.6299938655
 40
68.4863730364
100
AcDbArc
 50
257.5632077456
 51
257.9759958253
  0
ARC
  5
3A3
100
AcDbEntity
  8
0
100
AcDbCircle
 62
7
  6
CONTINUOUS
 10
-26.8395922686
 20
28.6296574487
 40
16.3387675952
100
AcDbArc
 50
206.0349730838
 51
206.1979446202
  0
ARC
  5
3A4
100
AcDbEntity
  8
0
100
AcDbCircle
 62
7
  6
CONTINUOUS
 10
-26.8740736823
 20
15.3444855584
 40
16.3003971269
100
AcDbArc
 50
153.8016338065
 51
153.9649905686
  0
ARC
  5
3A5
100
AcDbEntity
  8
0
100
AcDbCircle
 62
7
  6
CONTINUOUS
 10
-28.564428706
 20
16.1080524886
 40
14.5897650643
100
AcDbArc
 50
153.3130487244
 51
153.5527387092
  0
ARC
  5
3A6
100
AcDbEntity
  8
0
100
AcDbCircle
 62
7
  6
CONTINUOUS
 10
-28.6046963196
 20
27.8290779473
 40
14.5447241062
100
AcDbArc
 50
206.4467334955
 51
206.6871679444
  0
ARC
  5
3A7
100
AcDbEntity
  8
RACCORDO
100
AcDbCircle
 62
7
  6
CONTINUOUS
 10
-13.0
 20
37.8143938668
 40
1.0
100
AcDbArc
 50
105.0
 51
180.0
  0
ARC
  5
3A8
100
AcDbEntity
  8
RACCORDO
100
AcDbCircle
 62
7
  6
CONTINUOUS
 10
-3.8
 20
45.5309456218
 40
0.3
100
AcDbArc
 50
104.9999999924
 51
180.0
  0
ARC
  5
3A9
100
AcDbEntity
  8
RACCORDO
100
AcDbCircle
 62
7
  6
CONTINUOUS
 10
-11.55
 20
40.2185100565
 40
0.3
100
AcDbArc
 50
104.9999999999
 51
180.0
  0
ARC
  5
3AA
100
AcDbEntity
  8
RACCORDO
100
AcDbCircle
 62
7
  6
CONTINUOUS
 10
-9.8
 20
42.0587024353
 40
0.3
100
AcDbArc
 50
104.9999999999
 51
180.0
  0
ARC
  5
3AB
100
AcDbEntity
  8
RACCORDO
100
AcDbCircle
 62
7
  6
CONTINUOUS
 10
-8.05
 20
43.8319075161
 40
0.3
100
AcDbArc
 50
104.9999999998
 51
180.0
  0
ARC
  5
3AC
100
AcDbEntity
  8
0
100
AcDbCircle
 62
7
  6
CONTINUOUS
 10
-27.9226248731
 20
88.629993865
 40
68.4863730359
100
AcDbArc
 50
257.5632077456
 51
257.9759958253
  0
ARC
  5
3AD
100
AcDbEntity
  8
0
100
AcDbCircle
 62
7
  6
CONTINUOUS
 10
27.9901610844
 20
-98.3611123953
 40
68.1675678911
100
AcDbArc
 50
77.5622418143
 51
77.9769604184
  0
ARC
  5
3AE
100
AcDbEntity
  8
0
100
AcDbCircle
 62
7
  6
CONTINUOUS
 10
52.4027652547
 20
-91.1199409448
 40
60.7503985823
100
AcDbArc
 50
101.9634542625
 51
102.4284885029
  0
ARC
  5
3AF
100
AcDbEntity
  8
0
100
AcDbCircle
 62
7
  6
CONTINUOUS
 10
26.8395922703
 20
-38.6723467032
 40
16.3387675934
100
AcDbArc
 50
26.0349730838
 51
26.1979446202
  0
ARC
  5
3B0
100
AcDbEntity
  8
0
100
AcDbCircle
 62
7
  6
CONTINUOUS
 10
26.8740736823
 20
-25.3871748137
 40
16.3003971269
100
AcDbArc
 50
333.8016338065
 51
333.9649905686
  0
CIRCLE
  5
3B1
100
AcDbEntity
  8
0
100
AcDbCircle
 62
7
  6
CONTINUOUS
 10
0.0
 20
-5.0213446276
 40
13.0
  0
ARC
  5
3B2
100
AcDbEntity
  8
0
100
AcDbCircle
 62
7
  6
CONTINUOUS
 10
27.9901610844
 20
-44.3611123954
 40
68.1675678913
100
AcDbArc
 50
77.5622418143
 51
77.9769604184
  0
ARC
  5
3B3
100
AcDbEntity
  8
0
100
AcDbCircle
 62
7
  6
CONTINUOUS
 10
52.4027652545
 20
-37.1199409441
 40
60.7503985816
100
AcDbArc
 50
101.9634542625
 51
102.4284885029
  0
ARC
  5
3B4
100
AcDbEntity
  8
0
100
AcDbCircle
 62
7
  6
CONTINUOUS
 10
34.3487827867
 20
-46.182193738
 40
16.3392586137
100
AcDbArc
 50
63.8020617908
 51
63.9650284022
  0
ARC
  5
3B5
100
AcDbEntity
  8
0
100
AcDbCircle
 62
7
  6
CONTINUOUS
 10
55.1259263173
 20
-38.6555144414
 40
16.3003971265
100
AcDbArc
 50
153.8016338065
 51
153.9649905686
  0
ARC
  5
3B6
100
AcDbEntity
  8
0
100
AcDbCircle
 62
7
  6
CONTINUOUS
 10
47.6325359492
 20
-46.1438785682
 40
16.2966318515
100
AcDbArc
 50
116.0350829578
 51
116.1984781096
  0
ARC
  5
3B7
100
AcDbEntity
  8
0
100
AcDbCircle
 62
7
  6
CONTINUOUS
 10
53.4355712938
 20
-37.8919475113
 40
14.5897650641
100
AcDbArc
 50
153.3130487244
 51
153.5527387092
  0
ARC
  5
3B8
100
AcDbEntity
  8
0
100
AcDbCircle
 62
7
  6
CONTINUOUS
 10
28.564428706
 20
-26.1507417438
 40
14.5897650643
100
AcDbArc
 50
333.3130487244
 51
333.5527387092
  0
ARC
  5
3B9
100
AcDbEntity
  8
0
100
AcDbCircle
 62
7
  6
CONTINUOUS
 10
53.3953036802
 20
-26.1709220528
 40
14.544724106
100
AcDbArc
 50
206.4467334955
 51
206.6871679444
  0
ARC
  5
3BA
100
AcDbEntity
  8
0
100
AcDbCircle
 62
7
  6
CONTINUOUS
 10
28.604696325
 20
-37.8717671999
 40
14.5447241002
100
AcDbArc
 50
26.4467334955
 51
26.6871679444
  0
ARC
  5
3BB
100
AcDbEntity
  8
RACCORDO
100
AcDbCircle
 62
253
  6
CONTINUOUS
 10
40.9996721064
 20
-32.0165513986
 40
3.2969553883
100
AcDbArc
 50
89.9943018207
 51
270.0056981793
  0
ARC
  5
3BC
100
AcDbEntity
  8
RACCORDO
100
AcDbCircle
 62
253
  6
CONTINUOUS
 10
41.0003278938
 20
-32.0165514405
 40
3.296955383
100
AcDbArc
 50
269.994301818
 51
90.0056981819
  0
CIRCLE
  5
3BD
100
AcDbEntity
  8
DRAFT
100
AcDbCircle
 62
7
  6
CONTINUOUS
 10
41.0
 20
-32.0213446276
 40
3.25
  0
CIRCLE
  5
3BE
100
AcDbEntity
  8
0
100
AcDbCircle
 62
7
  6
CONTINUOUS
 10
41.0
 20
-32.0213446276
 40
3.0
  0
ARC
  5
3BF
100
AcDbEntity
  8
0
100
AcDbCircle
 62
7
  6
CONTINUOUS
 10
41.0
 20
-32.0213446276
 40
2.8950136038
100
AcDbArc
 50
258.0385857315
 51
281.9614142685
  0
ARC
  5
3C0
100
AcDbEntity
  8
0
100
AcDbCircle
 62
7
  6
CONTINUOUS
 10
41.0
 20
-32.0213446276
 40
2.8950136038
100
AcDbArc
 50
78.0385857315
 51
101.9614142685
  0
ARC
  5
3C1
100
AcDbEntity
  8
0
100
AcDbCircle
 62
7
  6
CONTINUOUS
 10
41.0
 20
-32.0213446276
 40
2.8155023425
100
AcDbArc
 50
102.3044249574
 51
257.6955750426
  0
ARC
  5
3C2
100
AcDbEntity
  8
0
100
AcDbCircle
 62
7
  6
CONTINUOUS
 10
41.0
 20
-32.0213446276
 40
2.8155023425
100
AcDbArc
 50
282.3044249574
 51
77.6955750426
  0
ARC
  5
3C3
100
AcDbEntity
  8
0
100
AcDbCircle
 62
7
  6
CONTINUOUS
 10
41.0
 20
-32.0213446276
 40
1.6874840352
100
AcDbArc
 50
172.230101045
 51
187.7632444202
  0
ARC
  5
3C4
100
AcDbEntity
  8
0
100
AcDbCircle
 62
7
  6
CONTINUOUS
 10
41.0
 20
-32.0213446276
 40
1.6874840352
100
AcDbArc
 50
352.2301010241
 51
7.7632444202
  0
ARC
  5
3C5
100
AcDbEntity
  8
RACCORDO
100
AcDbCircle
 62
253
  6
CONTINUOUS
 10
48.4203674548
 20
-44.9417120825
 40
1.5000807794
100
AcDbArc
 50
270.0052311762
 51
359.9947688238
  0
ARC
  5
3C6
100
AcDbEntity
  8
TRASH
100
AcDbCircle
 62
7
  6
CONTINUOUS
 10
41.0
 20
-32.0213446276
 40
1.1472328625
100
AcDbArc
 50
347.9845776281
 51
12.0153200785
  0
ARC
  5
3C7
100
AcDbEntity
  8
TRASH
100
AcDbCircle
 62
7
  6
CONTINUOUS
 10
41.0
 20
-32.0213446276
 40
1.1472328625
100
AcDbArc
 50
167.9845776281
 51
192.0153200785
  0
ARC
  5
3C8
100
AcDbEntity
  8
ASSI
100
AcDbCircle
 62
7
  6
CONTINUOUS
 10
35.006618
 20
-37.5799236276
 40
0.8587214994
100
AcDbArc
 50
292.8428415932
 51
90.0
  0
ARC
  5
3C9
100
AcDbEntity
  8
0
100
AcDbCircle
 62
7
  6
CONTINUOUS
 10
41.0
 20
-32.0213446276
 40
0.7522905861
100
AcDbArc
 50
138.3509867785
 51
142.8981211086
  0
ARC
  5
3CA
100
AcDbEntity
  8
0
100
AcDbCircle
 62
7
  6
CONTINUOUS
 10
41.0
 20
-32.0213446276
 40
0.7522905861
100
AcDbArc
 50
48.3509342563
 51
131.6490283615
  0
ARC
  5
3CB
100
AcDbEntity
  8
0
100
AcDbCircle
 62
7
  6
CONTINUOUS
 10
41.0
 20
-32.0213446276
 40
0.7522905861
100
AcDbArc
 50
37.1018788914
 51
41.6490663885
  0
ARC
  5
3CC
100
AcDbEntity
  8
0
100
AcDbCircle
 62
7
  6
CONTINUOUS
 10
41.0
 20
-32.0213446276
 40
0.7522905861
100
AcDbArc
 50
318.3509867785
 51
322.8981211086
  0
ARC
  5
3CD
100
AcDbEntity
  8
0
100
AcDbCircle
 62
7
  6
CONTINUOUS
 10
41.0
 20
-32.0213446276
 40
0.7522905861
100
AcDbArc
 50
228.3509342563
 51
311.6490283615
  0
ARC
  5
3CE
100
AcDbEntity
  8
0
100
AcDbCircle
 62
7
  6
CONTINUOUS
 10
41.0
 20
-32.0213446276
 40
0.7522905861
100
AcDbArc
 50
217.1018788914
 51
221.6490663885
  0
ARC
  5
3CF
100
AcDbEntity
  8
RACCORDO
100
AcDbCircle
 62
253
  6
CONTINUOUS
 10
37.2938817429
 20
-27.3309371311
 40
0.5004844194
100
AcDbArc
 50
269.9980341891
 51
359.9117270765
  0
ARC
  5
3D0
100
AcDbEntity
  8
ASSI
100
AcDbCircle
 62
7
  6
CONTINUOUS
 10
34.928888
 20
-37.5799236276
 40
0.340698
100
AcDbArc
 50
270.0
 51
90.0
  0
ARC
  5
3D1
100
AcDbEntity
  8
0
100
AcDbCircle
 62
7
  6
CONTINUOUS
 10
55.1604077297
 20
-25.3703425521
 40
16.3387675934
100
AcDbArc
 50
206.0349730838
 51
206.1979446202
  0
ARC
  5
3D2
100
AcDbEntity
  8
0
100
AcDbCircle
 62
7
  6
CONTINUOUS
 10
47.6506434776
 20
-17.8616658067
 40
16.337955254
100
AcDbArc
 50
243.8020552904
 51
243.9650349025
  0
ARC
  5
3D3
100
AcDbEntity
  8
0
100
AcDbCircle
 62
7
  6
CONTINUOUS
 10
34.3674803509
 20
-17.8988439351
 40
16.2965948228
100
AcDbArc
 50
296.0350827721
 51
296.1984782953
  0
ARC
  5
3D4
100
AcDbEntity
  8
0
100
AcDbCircle
 62
7
  6
CONTINUOUS
 10
36.0
 20
-5.0213446276
 40
4.0
100
AcDbArc
 50
90.0
 51
270.0
  0
CIRCLE
  5
3D5
100
AcDbEntity
  8
0
100
AcDbCircle
 62
7
  6
CONTINUOUS
 10
36.0
 20
-5.0213446276
 40
1.2124355653
  0
ARC
  5
3D6
100
AcDbEntity
  8
RACCORDO
100
AcDbCircle
 62
253
  6
CONTINUOUS
 10
20007.6147094123
 20
-5.0213446276
 40
20045.4214774032
100
AcDbArc
 50
179.9362303289
 51
180.0637696711
  0
ARC
  5
3D7
100
AcDbEntity
  8
RACCORDO
100
AcDbCircle
 62
253
  6
CONTINUOUS
 10
19979.2388403342
 20
-5.0213462424
 40
20016.7956464013
100
AcDbArc
 50
179.9361847597
 51
180.0638152681
  0
ARC
  5
3D8
100
AcDbEntity
  8
0
100
AcDbCircle
 62
7
  6
CONTINUOUS
 10
26.8395922686
 20
15.327653296
 40
16.3387675952
100
AcDbArc
 50
26.0349730838
 51
26.1979446202
  0
ARC
  5
3D9
100
AcDbEntity
  8
0
100
AcDbCircle
 62
7
  6
CONTINUOUS
 10
26.8740736823
 20
28.6128251863
 40
16.3003971269
100
AcDbArc
 50
333.8016338065
 51
333.9649905686
  0
ARC
  5
3DA
100
AcDbEntity
  8
0
100
AcDbCircle
 62
7
  6
CONTINUOUS
 10
28.5644287053
 20
27.8492582565
 40
14.5897650651
100
AcDbArc
 50
333.3130487244
 51
333.5527387092
  0
ARC
  5
3DB
100
AcDbEntity
  8
0
100
AcDbCircle
 62
7
  6
CONTINUOUS
 10
28.6046963242
 20
16.1282327997
 40
14.5447241011
100
AcDbArc
 50
26.4467334955
 51
26.6871679444
  0
ARC
  5
3DC
100
AcDbEntity
  8
RACCORDO
100
AcDbCircle
 62
7
  6
CONTINUOUS
 10
13.0
 20
37.8143938668
 40
1.0
100
AcDbArc
 50
0.0
 51
75.0
  0
ARC
  5
3DD
100
AcDbEntity
  8
RACCORDO
100
AcDbCircle
 62
7
  6
CONTINUOUS
 10
3.8
 20
45.5309456218
 40
0.3
100
AcDbArc
 50
0.0
 51
75.0000000076
  0
ARC
  5
3DE
100
AcDbEntity
  8
RACCORDO
100
AcDbCircle
 62
7
  6
CONTINUOUS
 10
11.55
 20
40.2185100565
 40
0.3
100
AcDbArc
 50
0.0
 51
75.0000000001
  0
ARC
  5
3DF
100
AcDbEntity
  8
RACCORDO
100
AcDbCircle
 62
7
  6
CONTINUOUS
 10
9.8
 20
42.0587024353
 40
0.3
100
AcDbArc
 50
0.0
 51
75.0000000001
  0
ARC
  5
3E0
100
AcDbEntity
  8
RACCORDO
100
AcDbCircle
 62
7
  6
CONTINUOUS
 10
8.05
 20
43.8319075161
 40
0.3
100
AcDbArc
 50
0.0
 51
75.0000000002
  0
ARC
  5
3E1
100
AcDbEntity
  8
0
100
AcDbCircle
 62
7
  6
CONTINUOUS
 10
54.077375127
 20
34.6299938655
 40
68.4863730364
100
AcDbArc
 50
257.5632077456
 51
257.9759958253
  0
ARC
  5
3E2
100
AcDbEntity
  8
0
100
AcDbCircle
 62
7
  6
CONTINUOUS
 10
29.597234466
 20
27.0772532232
 40
60.7504001409
100
AcDbArc
 50
281.9634542192
 51
282.4284884486
  0
ARC
  5
3E3
100
AcDbEntity
  8
0
100
AcDbCircle
 62
7
  6
CONTINUOUS
 10
34.3487827855
 20
7.8178062594
 40
16.3392586165
100
AcDbArc
 50
63.8020617908
 51
63.9650284022
  0
ARC
  5
3E4
100
AcDbEntity
  8
0
100
AcDbCircle
 62
7
  6
CONTINUOUS
 10
55.1604077314
 20
28.6296574487
 40
16.3387675952
100
AcDbArc
 50
206.0349730838
 51
206.1979446202
  0
ARC
  5
3E5
100
AcDbEntity
  8
0
100
AcDbCircle
 62
7
  6
CONTINUOUS
 10
47.650643478
 20
36.1383341942
 40
16.337955255
100
AcDbArc
 50
243.8020552904
 51
243.9650349025
  0
ARC
  5
3E6
100
AcDbEntity
  8
0
100
AcDbCircle
 62
7
  6
CONTINUOUS
 10
55.1259263177
 20
15.3444855584
 40
16.3003971269
100
AcDbArc
 50
153.8016338065
 51
153.9649905686
  0
ARC
  5
3E7
100
AcDbEntity
  8
0
100
AcDbCircle
 62
7
  6
CONTINUOUS
 10
47.63253595
 20
7.8561214301
 40
16.2966318534
100
AcDbArc
 50
116.0350829578
 51
116.1984781096
  0
ARC
  5
3E8
100
AcDbEntity
  8
0
100
AcDbCircle
 62
7
  6
CONTINUOUS
 10
34.3674803493
 20
36.1011560683
 40
16.2965948266
100
AcDbArc
 50
296.0350827721
 51
296.1984782953
  0
ARC
  5
3E9
100
AcDbEntity
  8
0
100
AcDbCircle
 62
7
  6
CONTINUOUS
 10
53.435571294
 20
16.1080524886
 40
14.5897650643
100
AcDbArc
 50
153.3130487244
 51
153.5527387092
  0
ARC
  5
3EA
100
AcDbEntity
  8
0
100
AcDbCircle
 62
7
  6
CONTINUOUS
 10
53.3953036804
 20
27.8290779473
 40
14.5447241062
100
AcDbArc
 50
206.4467334955
 51
206.6871679444
  0
ARC
  5
3EB
100
AcDbEntity
  8
RACCORDO
100
AcDbCircle
 62
253
  6
CONTINUOUS
 10
41.0003278937
 20
21.9738621433
 40
3.2969553868
100
AcDbArc
 50
269.9943018187
 51
90.0056981812
  0
ARC
  5
3EC
100
AcDbEntity
  8
RACCORDO
100
AcDbCircle
 62
253
  6
CONTINUOUS
 10
40.9996721062
 20
21.9738621853
 40
3.2969553845
100
AcDbArc
 50
89.9943018172
 51
270.0056981827
  0
CIRCLE
  5
3ED
100
AcDbEntity
  8
DRAFT
100
AcDbCircle
 62
7
  6
CONTINUOUS
 10
41.0
 20
21.9786553724
 40
3.25
  0
CIRCLE
  5
3EE
100
AcDbEntity
  8
0
100
AcDbCircle
 62
7
  6
CONTINUOUS
 10
41.0
 20
21.9786553724
 40
3.0
  0
ARC
  5
3EF
100
AcDbEntity
  8
0
100
AcDbCircle
 62
7
  6
CONTINUOUS
 10
41.0
 20
21.9786553724
 40
2.8950136038
100
AcDbArc
 50
258.0385857315
 51
281.9614142685
  0
ARC
  5
3F0
100
AcDbEntity
  8
0
100
AcDbCircle
 62
7
  6
CONTINUOUS
 10
41.0
 20
21.9786553724
 40
2.8950136038
100
AcDbArc
 50
78.0385857315
 51
101.9614142685
  0
ARC
  5
3F1
100
AcDbEntity
  8
0
100
AcDbCircle
 62
7
  6
CONTINUOUS
 10
41.0
 20
21.9786553724
 40
2.8155023425
100
AcDbArc
 50
102.3044249574
 51
257.6955750426
  0
ARC
  5
3F2
100
AcDbEntity
  8
0
100
AcDbCircle
 62
7
  6
CONTINUOUS
 10
41.0
 20
21.9786553724
 40
2.8155023425
100
AcDbArc
 50
282.3044249574
 51
77.6955750426
  0
ARC
  5
3F3
100
AcDbEntity
  8
0
100
AcDbCircle
 62
7
  6
CONTINUOUS
 10
41.0
 20
21.9786553724
 40
1.6874840352
100
AcDbArc
 50
172.230101045
 51
187.7632444202
  0
ARC
  5
3F4
100
AcDbEntity
  8
0
100
AcDbCircle
 62
7
  6
CONTINUOUS
 10
41.0
 20
21.9786553724
 40
1.6874840352
100
AcDbArc
 50
352.2301010241
 51
7.7632444202
  0
ARC
  5
3F5
100
AcDbEntity
  8
RACCORDO
100
AcDbCircle
 62
253
  6
CONTINUOUS
 10
48.4203674549
 20
34.8990228273
 40
1.5000807793
100
AcDbArc
 50
0.0052311723
 51
89.9947688277
  0
ARC
  5
3F6
100
AcDbEntity
  8
TRASH
100
AcDbCircle
 62
7
  6
CONTINUOUS
 10
41.0
 20
21.9786553724
 40
1.1472328625
100
AcDbArc
 50
347.9845776281
 51
12.0153200785
  0
ARC
  5
3F7
100
AcDbEntity
  8
TRASH
100
AcDbCircle
 62
7
  6
CONTINUOUS
 10
41.0
 20
21.9786553724
 40
1.1472328625
100
AcDbArc
 50
167.9845776281
 51
192.0153200785
  0
ARC
  5
3F8
100
AcDbEntity
  8
0
100
AcDbCircle
 62
7
  6
CONTINUOUS
 10
41.0
 20
21.9786553724
 40
0.7522905861
100
AcDbArc
 50
138.3509867785
 51
142.8981211086
  0
ARC
  5
3F9
100
AcDbEntity
  8
0
100
AcDbCircle
 62
7
  6
CONTINUOUS
 10
41.0
 20
21.9786553724
 40
0.7522905861
100
AcDbArc
 50
48.3509342563
 51
131.6490283615
  0
ARC
  5
3FA
100
AcDbEntity
  8
0
100
AcDbCircle
 62
7
  6
CONTINUOUS
 10
41.0
 20
21.9786553724
 40
0.7522905861
100
AcDbArc
 50
37.1018788914
 51
41.6490663885
  0
ARC
  5
3FB
100
AcDbEntity
  8
0
100
AcDbCircle
 62
7
  6
CONTINUOUS
 10
41.0
 20
21.9786553724
 40
0.7522905861
100
AcDbArc
 50
318.3509867785
 51
322.8981211086
  0
ARC
  5
3FC
100
AcDbEntity
  8
0
100
AcDbCircle
 62
7
  6
CONTINUOUS
 10
41.0
 20
21.9786553724
 40
0.7522905861
100
AcDbArc
 50
228.3509342563
 51
311.6490283615
  0
ARC
  5
3FD
100
AcDbEntity
  8
0
100
AcDbCircle
 62
7
  6
CONTINUOUS
 10
41.0
 20
21.9786553724
 40
0.7522905861
100
AcDbArc
 50
217.1018788914
 51
221.6490663885
  0
ARC
  5
3FE
100
AcDbEntity
  8
RACCORDO
100
AcDbCircle
 62
253
  6
CONTINUOUS
 10
37.2938929163
 20
17.2882585205
 40
0.5004706536
100
AcDbArc
 50
0.0870562232
 51
90.0032450137
  0
ARC
  5
3FF
100
AcDbEntity
  8
0
100
AcDbCircle
 62
7
  6
CONTINUOUS
 10
54.0773751269
 20
88.629993865
 40
68.4863730359
100
AcDbArc
 50
257.5632077456
 51
257.9759958253
  0
ARC
  5
400
100
AcDbEntity
  8
0
100
AcDbCircle
 62
7
  6
CONTINUOUS
 10
29.5972344659
 20
81.0772532238
 40
60.7504001415
100
AcDbArc
 50
281.9634542192
 51
282.4284884486
  0
CIRCLE
  5
401
100
AcDbEntity
  8
DRAFT
100
AcDbCircle
 62
7
  6
CONTINUOUS
 10
-90.2495797922
 20
-5.0213446276
 40
11.5
  0
CIRCLE
  5
402
100
AcDbEntity
  8
0
100
AcDbCircle
 62
7
  6
CONTINUOUS
 10
-90.2495797922
 20
-5.0213446276
 40
11.25
  0
CIRCLE
  5
403
100
AcDbEntity
  8
0
100
AcDbCircle
 62
7
  6
CONTINUOUS
 10
-90.2495797922
 20
-5.0213446276
 40
10.8458548116
  0
ARC
  5
404
100
AcDbEntity
  8
RACCORDO
100
AcDbCircle
 62
7
  6
CONTINUOUS
 10
-123.3217837824
 20
-41.4419823109
 40
5.0
100
AcDbArc
 50
186.0588470103
 51
269.5010052626
  0
ARC
  5
405
100
AcDbEntity
  8
RACCORDO
100
AcDbCircle
 62
253
  6
CONTINUOUS
 10
-123.3348735864
 20
-41.4419823117
 40
3.4999999992
100
AcDbArc
 50
186.0598386069
 51
269.500000011
  0
ARC
  5
406
100
AcDbEntity
  8
RACCORDO
100
AcDbCircle
 62
7
  6
CONTINUOUS
 10
-75.2495797922
 20
-45.3845041661
 40
1.0
100
AcDbArc
 50
270.2
 51
360.0
  0
ARC
  5
407
100
AcDbEntity
  8
RACCORDO
100
AcDbCircle
 62
7
  6
CONTINUOUS
 10
-123.3217837824
 20
31.3992930556
 40
5.0
100
AcDbArc
 50
90.4990296204
 51
173.941188471
  0
ARC
  5
408
100
AcDbEntity
  8
RACCORDO
100
AcDbCircle
 62
253
  6
CONTINUOUS
 10
-123.3348735863
 20
31.3992930564
 40
3.4999999993
100
AcDbArc
 50
90.4999999892
 51
173.9401613928
  0
ARC
  5
409
100
AcDbEntity
  8
RACCORDO
100
AcDbCircle
 62
7
  6
CONTINUOUS
 10
-103.2495797922
 20
37.8143938668
 40
1.0
100
AcDbArc
 50
104.9999998361
 51
180.0
  0
ARC
  5
40A
100
AcDbEntity
  8
RACCORDO
100
AcDbCircle
 62
7
  6
CONTINUOUS
 10
-77.2495797922
 20
37.8143938668
 40
1.0
100
AcDbArc
 50
0.0
 51
75.0000001639
  0
ARC
  5
40B
100
AcDbEntity
  8
RACCORDO
100
AcDbCircle
 62
7
  6
CONTINUOUS
 10
-75.2495797922
 20
35.3418148686
 40
1.0
100
AcDbArc
 50
0.0000024225
 51
89.8000000085
  0
ARC
  5
40C
100
AcDbEntity
  8
RACCORDO
100
AcDbCircle
 62
7
  6
CONTINUOUS
 10
-94.0495797922
 20
45.5309456218
 40
0.3
100
AcDbArc
 50
104.9999888319
 51
180.0
  0
ARC
  5
40D
100
AcDbEntity
  8
RACCORDO
100
AcDbCircle
 62
7
  6
CONTINUOUS
 10
-86.4495797922
 20
45.5309456218
 40
0.3
100
AcDbArc
 50
0.0
 51
75.0000111681
  0
ARC
  5
40E
100
AcDbEntity
  8
RACCORDO
100
AcDbCircle
 62
7
  6
CONTINUOUS
 10
-98.2995797922
 20
43.8319075161
 40
0.3
100
AcDbArc
 50
105.0000000949
 51
180.0
  0
ARC
  5
40F
100
AcDbEntity
  8
RACCORDO
100
AcDbCircle
 62
7
  6
CONTINUOUS
 10
-82.1995797922
 20
43.8319075161
 40
0.3
100
AcDbArc
 50
0.0
 51
74.9999999051
  0
ARC
  5
410
100
AcDbEntity
  8
RACCORDO
100
AcDbCircle
 62
7
  6
CONTINUOUS
 10
-100.0495797922
 20
42.0587024353
 40
0.3
100
AcDbArc
 50
105.0000004607
 51
180.0
  0
ARC
  5
411
100
AcDbEntity
  8
RACCORDO
100
AcDbCircle
 62
7
  6
CONTINUOUS
 10
-80.4495797922
 20
42.0587024353
 40
0.3
100
AcDbArc
 50
0.0
 51
74.9999995393
  0
ARC
  5
412
100
AcDbEntity
  8
RACCORDO
100
AcDbCircle
 62
7
  6
CONTINUOUS
 10
-101.7995797922
 20
40.2185100565
 40
0.3
100
AcDbArc
 50
104.9999989109
 51
180.0
  0
ARC
  5
413
100
AcDbEntity
  8
RACCORDO
100
AcDbCircle
 62
7
  6
CONTINUOUS
 10
-78.6995797922
 20
40.2185100565
 40
0.3
100
AcDbArc
 50
0.0
 51
75.0000010891
  0
ARC
  5
414
100
AcDbEntity
  8
ASSI
100
AcDbCircle
 62
7
  6
CONTINUOUS
 10
219.7504202078
 20
-5.0213446276
 40
350.15
100
AcDbArc
 50
185.194226157
 51
185.6544782134
  0
ARC
  5
415
100
AcDbEntity
  8
RACCORDO
100
AcDbCircle
 62
7
  6
CONTINUOUS
 10
219.7504202078
 20
-5.0213446276
 40
350.0
100
AcDbArc
 50
173.9401760547
 51
186.0598244522
  0
ARC
  5
416
100
AcDbEntity
  8
RACCORDO
100
AcDbCircle
 62
253
  6
CONTINUOUS
 10
219.737330307
 20
-5.0213446276
 40
348.499999903
100
AcDbArc
 50
173.9401613803
 51
186.0598386197
  0
LINE
  5
417
100
AcDbEntity
  8
0
100
AcDbLine
 62
7
  6
CONTINUOUS
 10
-40.4
 20
21.3786555142
 11
-40.3727025934
 21
21.3513581382
  0
LINE
  5
418
100
AcDbEntity
  8
0
100
AcDbLine
 62
7
  6
CONTINUOUS
 10
-40.4802765158
 20
21.4589318882
 11
-40.4795953518
 21
21.4582507242
  0
LINE
  5
419
100
AcDbEntity
  8
0
100
AcDbLine
 62
7
  6
CONTINUOUS
 10
-41.6272975093
 20
21.3513578561
 11
-41.6
 21
21.378655366
  0
LINE
  5
41A
100
AcDbEntity
  8
0
100
AcDbLine
 62
7
  6
CONTINUOUS
 10
-41.5204046482
 20
21.4582507242
 11
-41.5197234842
 21
21.4589318882
  0
LINE
  5
41B
100
AcDbEntity
  8
0
100
AcDbLine
 62
7
  6
CONTINUOUS
 10
-41.519717435
 20
22.4983821546
 11
-41.4999466442
 21
22.5407892345
  0
SPLINE
  5
41C
100
AcDbEntity
  8
0
100
AcDbSpline
 62
7
  6
CONTINUOUS
 70
0
 71
3
 72
9
 73
5
 74
3
 42
0.0000001
 43
0.0000001
 44
0.0000000001
 12
0.0452995647
 22
0.1041126532
 32
0.0
 13
0.0452995647
 23
0.1041126532
 33
0.0
 40
0.0
 40
0.0
 40
0.0
 40
0.0
 40
0.4996939835
 40
1.0
 40
1.0
 40
1.0
 40
1.0
 10
-42.1898066956
 20
21.6461839594
 30
0.0
 10
-42.182261389
 20
21.6635254482
 30
0.0
 10
-42.1669167609
 20
21.6981245289
 30
0.0
 10
-42.1525518251
 20
21.7331444153
 30
0.0
 10
-42.1449972769
 20
21.7505071443
 30
0.0
 11
-42.1898066956
 21
21.6461839594
 31
0.0
 11
-42.1671707757
 21
21.6982084259
 31
0.0
 11
-42.1449972769
 21
21.7505071443
 31
0.0
  0
SPLINE
  5
41D
100
AcDbEntity
  8
0
100
AcDbSpline
 62
7
  6
CONTINUOUS
 70
0
 71
3
 72
9
 73
5
 74
3
 42
0.0000001
 43
0.0000001
 44
0.0000000001
 12
-0.5269772644
 22
0.0010793166
 32
0.0
 13
-0.5269783692
 23
-0.0000227564
 33
0.0
 40
0.0
 40
0.0
 40
0.0
 40
0.0
 40
0.4866884719
 40
1.0
 40
1.0
 40
1.0
 40
1.0
 10
-42.1450395831
 20
21.7503021012
 30
0.0
 10
-42.2305308363
 20
21.7504771982
 30
0.0
 10
-42.406190262
 20
21.750661292
 30
0.0
 10
-42.5818497119
 20
21.7507139665
 30
0.0
 10
-42.6720177359
 20
21.7507100728
 30
0.0
 11
-42.1450395831
 21
21.7503021012
 31
0.0
 11
-42.401513677
 21
21.7506252621
 31
0.0
 11
-42.6720177359
 21
21.7507100728
 31
0.0
  0
LINE
  5
41E
100
AcDbEntity
  8
TRASH
100
AcDbLine
 62
7
  6
CONTINUOUS
 10
-42.1221062937
 20
21.7398329899
 11
-42.1449972769
 21
21.7505071443
  0
LINE
  5
41F
100
AcDbEntity
  8
TRASH
100
AcDbLine
 62
7
  6
CONTINUOUS
 10
-42.1449972701
 20
22.2068035905
 11
-42.122106287
 21
22.2174777449
  0
LINE
  5
420
100
AcDbEntity
  8
0
100
AcDbLine
 62
7
  6
CONTINUOUS
 10
-40.4378660057
 20
21.4787088767
 11
-40.4802732178
 21
21.4589379374
  0
LINE
  5
421
100
AcDbEntity
  8
0
100
AcDbLine
 62
7
  6
CONTINUOUS
 10
-42.6719912503
 20
22.2067948645
 11
-42.1450079232
 21
22.2068481124
  0
LINE
  5
422
100
AcDbEntity
  8
0
100
AcDbLine
 62
7
  6
CONTINUOUS
 10
-42.1449972701
 20
22.2068035905
 11
-42.1900477491
 21
22.3109598305
  0
LINE
  5
423
100
AcDbEntity
  8
0
100
AcDbLine
 62
7
  6
CONTINUOUS
 10
-39.8778971865
 20
21.7398293545
 11
-40.4
 21
21.4963660854
  0
LINE
  5
424
100
AcDbEntity
  8
0
100
AcDbLine
 62
7
  6
CONTINUOUS
 10
-41.6
 20
22.5786552305
 11
-41.6272974066
 21
22.6059526065
  0
LINE
  5
425
100
AcDbEntity
  8
0
100
AcDbLine
 62
7
  6
CONTINUOUS
 10
-40.4
 20
22.4609451795
 11
-39.8778933466
 21
22.2174801133
  0
LINE
  5
426
100
AcDbEntity
  8
0
100
AcDbLine
 62
7
  6
CONTINUOUS
 10
-40.4802765161
 20
22.4983788562
 11
-40.4378664697
 21
22.4786023896
  0
LINE
  5
427
100
AcDbEntity
  8
0
100
AcDbLine
 62
7
  6
CONTINUOUS
 10
-42.1898066956
 20
21.6461839594
 11
-42.171604981
 21
21.6335827477
  0
SPLINE
  5
428
100
AcDbEntity
  8
0
100
AcDbSpline
 62
7
  6
CONTINUOUS
 70
0
 71
3
 72
14
 73
10
 74
8
 42
0.0000001
 43
0.0000001
 44
0.0000000001
 12
-0.5489866675
 22
0.2730585867
 32
0.0
 13
-0.540741044
 23
0.289044073
 33
0.0
 40
0.0
 40
0.0
 40
0.0
 40
0.0
 40
0.1676248277
 40
0.3171576827
 40
0.4562893429
 40
0.5918233207
 40
0.7276155638
 40
0.864047256
 40
1.0
 40
1.0
 40
1.0
 40
1.0
 10
-41.6272975093
 20
21.3513578561
 30
0.0
 10
-41.6579721078
 20
21.3666149889
 30
0.0
 10
-41.7159046577
 20
21.3956958718
 30
0.0
 10
-41.7989942188
 20
21.4380410197
 30
0.0
 10
-41.8760507922
 20
21.4777770934
 30
0.0
 10
-41.9504559263
 20
21.5165257925
 30
0.0
 10
-42.0242360761
 20
21.5552787026
 30
0.0
 10
-42.0979697374
 20
21.5943032181
 30
0.0
 10
-42.1470999047
 20
21.6204839694
 30
0.0
 10
-42.171604981
 20
21.6335827477
 30
0.0
 11
-41.6272975093
 21
21.3513578561
 31
0.0
 11
-41.7191594664
 21
21.3974531996
 31
0.0
 11
-41.8008536937
 21
21.439073677
 31
0.0
 11
-41.8766776316
 21
21.478165569
 31
0.0
 11
-41.9503866032
 21
21.5165444309
 31
0.0
 11
-42.0241000844
 21
21.5552563981
 31
0.0
 11
-42.0980377467
 21
21.5943838596
 31
0.0
 11
-42.171604981
 21
21.6335827477
 31
0.0
  0
LINE
  5
429
100
AcDbEntity
  8
0
100
AcDbLine
 62
7
  6
CONTINUOUS
 10
-41.5197234842
 20
22.4983788565
 11
-41.5204046482
 21
22.4990600205
  0
SPLINE
  5
42A
100
AcDbEntity
  8
0
100
AcDbSpline
 62
7
  6
CONTINUOUS
 70
0
 71
3
 72
14
 73
10
 74
8
 42
0.0000001
 43
0.0000001
 44
0.0000000001
 12
0.5407409237
 22
0.2890440051
 32
0.0
 13
0.5489846067
 23
0.2730624198
 33
0.0
 40
0.0
 40
0.0
 40
0.0
 40
0.0
 40
0.1360891828
 40
0.2724205737
 40
0.4077679873
 40
0.5429185838
 40
0.6821509024
 40
0.8319710672
 40
1.0
 40
1.0
 40
1.0
 40
1.0
 10
-42.1716048889
 20
22.3237280462
 30
0.0
 10
-42.1470752255
 20
22.336839967
 30
0.0
 10
-42.0979384405
 20
22.3630239784
 30
0.0
 10
-42.0242786827
 20
22.4020095249
 30
0.0
 10
-41.9506666198
 20
22.4406743014
 30
0.0
 10
-41.8763940757
 20
22.4793556268
 30
0.0
 10
-41.7993373918
 20
22.5190934834
 30
0.0
 10
-41.7161051984
 20
22.5615152475
 30
0.0
 10
-41.6580458391
 20
22.5906584775
 30
0.0
 10
-41.6272974066
 20
22.6059526065
 30
0.0
 11
-42.1716048889
 21
22.3237280462
 31
0.0
 11
-42.0979637521
 21
22.3629660976
 31
0.0
 11
-42.0240804449
 21
22.4020647494
 31
0.0
 11
-41.9506085972
 21
22.4406501722
 31
0.0
 11
-41.8771087678
 21
22.4789216685
 31
0.0
 11
-41.8012308721
 21
22.5180435444
 31
0.0
 11
-41.7193807836
 21
22.5597461129
 31
0.0
 11
-41.6272974066
 21
22.6059526065
 31
0.0
  0
LINE
  5
42B
100
AcDbEntity
  8
0
100
AcDbLine
 62
7
  6
CONTINUOUS
 10
-42.1900477491
 20
22.3109598305
 11
-42.1716048889
 21
22.3237280462
  0
SPLINE
  5
42C
100
AcDbEntity
  8
0
100
AcDbSpline
 62
7
  6
CONTINUOUS
 70
0
 71
3
 72
14
 73
10
 74
8
 42
0.0000001
 43
0.0000001
 44
0.0000000001
 12
-0.5407409237
 22
-0.2890440051
 32
0.0
 13
-0.5489846067
 23
-0.2730624198
 33
0.0
 40
0.0
 40
0.0
 40
0.0
 40
0.0
 40
0.1360891828
 40
0.2724205737
 40
0.4077679873
 40
0.5429185838
 40
0.6821509024
 40
0.8319710672
 40
1.0
 40
1.0
 40
1.0
 40
1.0
 10
-39.8283951111
 20
21.6335826985
 30
0.0
 10
-39.8529247745
 20
21.6204707777
 30
0.0
 10
-39.9020615595
 20
21.5942867663
 30
0.0
 10
-39.9757213173
 20
21.5553012198
 30
0.0
 10
-40.0493333802
 20
21.5166364433
 30
0.0
 10
-40.1236059243
 20
21.4779551179
 30
0.0
 10
-40.2006626082
 20
21.4382172613
 30
0.0
 10
-40.2838948016
 20
21.3957954972
 30
0.0
 10
-40.3419541609
 20
21.3666522672
 30
0.0
 10
-40.3727025934
 20
21.3513581382
 30
0.0
 11
-39.8283951111
 21
21.6335826985
 31
0.0
 11
-39.9020362479
 21
21.5943446471
 31
0.0
 11
-39.9759195551
 21
21.5552459954
 31
0.0
 11
-40.0493914028
 21
21.5166605725
 31
0.0
 11
-40.1228912322
 21
21.4783890762
 31
0.0
 11
-40.1987691279
 21
21.4392672004
 31
0.0
 11
-40.2806192164
 21
21.3975646319
 31
0.0
 11
-40.3727025934
 21
21.3513581382
 31
0.0
  0
LINE
  5
42D
100
AcDbEntity
  8
0
100
AcDbLine
 62
7
  6
CONTINUOUS
 10
-39.8283951111
 20
21.6335826985
 11
-39.809952252
 21
21.6463509135
  0
LINE
  5
42E
100
AcDbEntity
  8
0
100
AcDbLine
 62
7
  6
CONTINUOUS
 10
-39.828395019
 20
22.323727997
 11
-39.8101933044
 21
22.3111267853
  0
SPLINE
  5
42F
100
AcDbEntity
  8
0
100
AcDbSpline
 62
7
  6
CONTINUOUS
 70
0
 71
3
 72
14
 73
10
 74
8
 42
0.0000001
 43
0.0000001
 44
0.0000000001
 12
0.5489866675
 22
-0.2730585867
 32
0.0
 13
0.540741044
 23
-0.289044073
 33
0.0
 40
0.0
 40
0.0
 40
0.0
 40
0.0
 40
0.1676248277
 40
0.3171576827
 40
0.4562893429
 40
0.5918233207
 40
0.7276155638
 40
0.864047256
 40
1.0
 40
1.0
 40
1.0
 40
1.0
 10
-40.3727024907
 20
22.6059528887
 30
0.0
 10
-40.3420278922
 20
22.5906957558
 30
0.0
 10
-40.2840953423
 20
22.561614873
 30
0.0
 10
-40.2010057812
 20
22.519269725
 30
0.0
 10
-40.1239492078
 20
22.4795336513
 30
0.0
 10
-40.0495440737
 20
22.4407849522
 30
0.0
 10
-39.9757639239
 20
22.4020320421
 30
0.0
 10
-39.9020302626
 20
22.3630075267
 30
0.0
 10
-39.8529000953
 20
22.3368267753
 30
0.0
 10
-39.828395019
 20
22.323727997
 30
0.0
 11
-40.3727024907
 21
22.6059528887
 31
0.0
 11
-40.2808405336
 21
22.5598575451
 31
0.0
 11
-40.1991463063
 21
22.5182370678
 31
0.0
 11
-40.1233223684
 21
22.4791451757
 31
0.0
 11
-40.0496133968
 21
22.4407663139
 31
0.0
 11
-39.9758999156
 21
22.4020543467
 31
0.0
 11
-39.9019622533
 21
22.3629268851
 31
0.0
 11
-39.828395019
 21
22.323727997
 31
0.0
  0
LINE
  5
430
100
AcDbEntity
  8
0
100
AcDbLine
 62
7
  6
CONTINUOUS
 10
-41.4999470109
 20
21.4165218364
 11
-41.5197234839
 21
21.4589318885
  0
LINE
  5
431
100
AcDbEntity
  8
0
100
AcDbLine
 62
7
  6
CONTINUOUS
 10
-41.5197234839
 20
21.4589318885
 11
-41.5621335303
 21
21.4787083551
  0
LINE
  5
432
100
AcDbEntity
  8
0
100
AcDbLine
 62
7
  6
CONTINUOUS
 10
-41.6
 20
21.4963655653
 11
-42.1221066534
 21
21.7398306314
  0
LINE
  5
433
100
AcDbEntity
  8
0
100
AcDbLine
 62
7
  6
CONTINUOUS
 10
-42.1221028135
 20
22.2174813902
 11
-41.6
 21
22.4609446593
  0
LINE
  5
434
100
AcDbEntity
  8
0
100
AcDbLine
 62
7
  6
CONTINUOUS
 10
-41.5621339943
 20
22.478601868
 11
-41.5197267822
 21
22.4983728073
  0
LINE
  5
435
100
AcDbEntity
  8
0
100
AcDbLine
 62
7
  6
CONTINUOUS
 10
-40.480282565
 20
21.4589285901
 11
-40.5000533558
 21
21.4165215102
  0
LINE
  5
436
100
AcDbEntity
  8
0
100
AcDbLine
 62
7
  6
CONTINUOUS
 10
-40.5000529891
 20
22.5407889083
 11
-40.4802765161
 21
22.4983788562
  0
LINE
  5
437
100
AcDbEntity
  8
0
100
AcDbLine
 62
7
  6
CONTINUOUS
 10
-40.4
 20
22.5786553787
 11
-40.3727024907
 21
22.6059528887
  0
LINE
  5
438
100
AcDbEntity
  8
0
100
AcDbLine
 62
7
  6
CONTINUOUS
 10
-40.4802765158
 20
22.4983788565
 11
-40.4795953518
 21
22.4990600205
  0
SPLINE
  5
439
100
AcDbEntity
  8
0
100
AcDbSpline
 62
7
  6
CONTINUOUS
 70
0
 71
3
 72
9
 73
5
 74
3
 42
0.0000001
 43
0.0000001
 44
0.0000000001
 12
-0.0452995647
 22
-0.1041126532
 32
0.0
 13
-0.0452995647
 23
-0.1041126532
 33
0.0
 40
0.0
 40
0.0
 40
0.0
 40
0.0
 40
0.4996939835
 40
1.0
 40
1.0
 40
1.0
 40
1.0
 10
-39.8101933044
 20
22.3111267853
 30
0.0
 10
-39.817738611
 20
22.2937852965
 30
0.0
 10
-39.8330832391
 20
22.2591862158
 30
0.0
 10
-39.8474481749
 20
22.2241663294
 30
0.0
 10
-39.8550027231
 20
22.2068036004
 30
0.0
 11
-39.8101933044
 21
22.3111267853
 31
0.0
 11
-39.8328292243
 21
22.2591023189
 31
0.0
 11
-39.8550027231
 21
22.2068036004
 31
0.0
  0
SPLINE
  5
43A
100
AcDbEntity
  8
0
100
AcDbSpline
 62
7
  6
CONTINUOUS
 70
0
 71
3
 72
9
 73
5
 74
3
 42
0.0000001
 43
0.0000001
 44
0.0000000001
 12
0.5269772644
 22
-0.0010793166
 32
0.0
 13
0.5269783692
 23
0.0000227564
 33
0.0
 40
0.0
 40
0.0
 40
0.0
 40
0.0
 40
0.4866884719
 40
1.0
 40
1.0
 40
1.0
 40
1.0
 10
-39.8549604169
 20
22.2070086435
 30
0.0
 10
-39.7694691637
 20
22.2068335465
 30
0.0
 10
-39.593809738
 20
22.2066494527
 30
0.0
 10
-39.4181502881
 20
22.2065967782
 30
0.0
 10
-39.3279822641
 20
22.2066006719
 30
0.0
 11
-39.8549604169
 21
22.2070086435
 31
0.0
 11
-39.598486323
 21
22.2066854826
 31
0.0
 11
-39.3279822641
 21
22.2066006719
 31
0.0
  0
LINE
  5
43B
100
AcDbEntity
  8
TRASH
100
AcDbLine
 62
7
  6
CONTINUOUS
 10
-39.8778937063
 20
22.2174777548
 11
-39.8550027231
 21
22.2068036004
  0
LINE
  5
43C
100
AcDbEntity
  8
0
100
AcDbLine
 62
7
  6
CONTINUOUS
 10
-39.8549920759
 20
21.7504626275
 11
-39.3280087498
 21
21.7505158797
  0
LINE
  5
43D
100
AcDbEntity
  8
0
100
AcDbLine
 62
7
  6
CONTINUOUS
 10
-39.8550027299
 20
21.7505071542
 11
-39.809952252
 21
21.6463509135
  0
LINE
  5
43E
100
AcDbEntity
  8
TRASH
100
AcDbLine
 62
7
  6
CONTINUOUS
 10
-39.877893713
 20
21.7398329998
 11
-39.8550027299
 21
21.7505071542
  0
LINE
  5
43F
100
AcDbEntity
  8
0
100
AcDbLine
 62
7
  6
CONTINUOUS
 10
41.6
 20
21.3786555142
 11
41.6272974066
 21
21.3513581382
  0
LINE
  5
440
100
AcDbEntity
  8
0
100
AcDbLine
 62
7
  6
CONTINUOUS
 10
41.5197234842
 20
21.4589318882
 11
41.5204046482
 21
21.4582507242
  0
LINE
  5
441
100
AcDbEntity
  8
0
100
AcDbLine
 62
7
  6
CONTINUOUS
 10
40.3727024907
 20
21.3513578561
 11
40.4
 21
21.378655366
  0
LINE
  5
442
100
AcDbEntity
  8
0
100
AcDbLine
 62
7
  6
CONTINUOUS
 10
40.4795953518
 20
21.4582507242
 11
40.4802765158
 21
21.4589318882
  0
LINE
  5
443
100
AcDbEntity
  8
0
100
AcDbLine
 62
7
  6
CONTINUOUS
 10
40.480282565
 20
22.4983821546
 11
40.5000533558
 21
22.5407892345
  0
SPLINE
  5
444
100
AcDbEntity
  8
0
100
AcDbSpline
 62
7
  6
CONTINUOUS
 70
0
 71
3
 72
9
 73
5
 74
3
 42
0.0000001
 43
0.0000001
 44
0.0000000001
 12
0.0452995647
 22
0.1041126532
 32
0.0
 13
0.0452995647
 23
0.1041126532
 33
0.0
 40
0.0
 40
0.0
 40
0.0
 40
0.0
 40
0.4996939835
 40
1.0
 40
1.0
 40
1.0
 40
1.0
 10
39.8101933044
 20
21.6461839594
 30
0.0
 10
39.817738611
 20
21.6635254482
 30
0.0
 10
39.8330832391
 20
21.6981245289
 30
0.0
 10
39.8474481749
 20
21.7331444153
 30
0.0
 10
39.8550027231
 20
21.7505071443
 30
0.0
 11
39.8101933044
 21
21.6461839594
 31
0.0
 11
39.8328292243
 21
21.6982084259
 31
0.0
 11
39.8550027231
 21
21.7505071443
 31
0.0
  0
SPLINE
  5
445
100
AcDbEntity
  8
0
100
AcDbSpline
 62
7
  6
CONTINUOUS
 70
0
 71
3
 72
9
 73
5
 74
3
 42
0.0000001
 43
0.0000001
 44
0.0000000001
 12
-0.5269772644
 22
0.0010793166
 32
0.0
 13
-0.5269783692
 23
-0.0000227564
 33
0.0
 40
0.0
 40
0.0
 40
0.0
 40
0.0
 40
0.4866884719
 40
1.0
 40
1.0
 40
1.0
 40
1.0
 10
39.8549604169
 20
21.7503021012
 30
0.0
 10
39.7694691637
 20
21.7504771982
 30
0.0
 10
39.593809738
 20
21.750661292
 30
0.0
 10
39.4181502881
 20
21.7507139665
 30
0.0
 10
39.3279822641
 20
21.7507100728
 30
0.0
 11
39.8549604169
 21
21.7503021012
 31
0.0
 11
39.598486323
 21
21.7506252621
 31
0.0
 11
39.3279822641
 21
21.7507100728
 31
0.0
  0
LINE
  5
446
100
AcDbEntity
  8
TRASH
100
AcDbLine
 62
7
  6
CONTINUOUS
 10
39.8778937063
 20
21.7398329899
 11
39.8550027231
 21
21.7505071443
  0
LINE
  5
447
100
AcDbEntity
  8
TRASH
100
AcDbLine
 62
7
  6
CONTINUOUS
 10
39.8550027299
 20
22.2068035905
 11
39.877893713
 21
22.2174777449
  0
LINE
  5
448
100
AcDbEntity
  8
0
100
AcDbLine
 62
7
  6
CONTINUOUS
 10
41.5621339943
 20
21.4787088767
 11
41.5197267822
 21
21.4589379374
  0
LINE
  5
449
100
AcDbEntity
  8
0
100
AcDbLine
 62
7
  6
CONTINUOUS
 10
39.3280087497
 20
22.2067948645
 11
39.8549920768
 21
22.2068481124
  0
LINE
  5
44A
100
AcDbEntity
  8
0
100
AcDbLine
 62
7
  6
CONTINUOUS
 10
39.8550027299
 20
22.2068035905
 11
39.8099522509
 21
22.3109598305
  0
LINE
  5
44B
100
AcDbEntity
  8
0
100
AcDbLine
 62
7
  6
CONTINUOUS
 10
42.1221028135
 20
21.7398293545
 11
41.6
 21
21.4963660854
  0
LINE
  5
44C
100
AcDbEntity
  8
0
100
AcDbLine
 62
7
  6
CONTINUOUS
 10
40.4
 20
22.5786552305
 11
40.3727025934
 21
22.6059526065
  0
LINE
  5
44D
100
AcDbEntity
  8
0
100
AcDbLine
 62
7
  6
CONTINUOUS
 10
41.6
 20
22.4609451795
 11
42.1221066534
 21
22.2174801133
  0
LINE
  5
44E
100
AcDbEntity
  8
0
100
AcDbLine
 62
7
  6
CONTINUOUS
 10
41.5197234839
 20
22.4983788562
 11
41.5621335303
 21
22.4786023896
  0
LINE
  5
44F
100
AcDbEntity
  8
0
100
AcDbLine
 62
7
  6
CONTINUOUS
 10
39.8101933044
 20
21.6461839594
 11
39.828395019
 21
21.6335827477
  0
SPLINE
  5
450
100
AcDbEntity
  8
0
100
AcDbSpline
 62
7
  6
CONTINUOUS
 70
0
 71
3
 72
14
 73
10
 74
8
 42
0.0000001
 43
0.0000001
 44
0.0000000001
 12
-0.5489866675
 22
0.2730585867
 32
0.0
 13
-0.540741044
 23
0.289044073
 33
0.0
 40
0.0
 40
0.0
 40
0.0
 40
0.0
 40
0.1676248277
 40
0.3171576827
 40
0.4562893429
 40
0.5918233207
 40
0.7276155638
 40
0.864047256
 40
1.0
 40
1.0
 40
1.0
 40
1.0
 10
40.3727024907
 20
21.3513578561
 30
0.0
 10
40.3420278922
 20
21.3666149889
 30
0.0
 10
40.2840953423
 20
21.3956958718
 30
0.0
 10
40.2010057812
 20
21.4380410197
 30
0.0
 10
40.1239492078
 20
21.4777770934
 30
0.0
 10
40.0495440737
 20
21.5165257925
 30
0.0
 10
39.9757639239
 20
21.5552787026
 30
0.0
 10
39.9020302626
 20
21.5943032181
 30
0.0
 10
39.8529000953
 20
21.6204839694
 30
0.0
 10
39.828395019
 20
21.6335827477
 30
0.0
 11
40.3727024907
 21
21.3513578561
 31
0.0
 11
40.2808405336
 21
21.3974531996
 31
0.0
 11
40.1991463063
 21
21.439073677
 31
0.0
 11
40.1233223684
 21
21.478165569
 31
0.0
 11
40.0496133968
 21
21.5165444309
 31
0.0
 11
39.9758999156
 21
21.5552563981
 31
0.0
 11
39.9019622533
 21
21.5943838596
 31
0.0
 11
39.828395019
 21
21.6335827477
 31
0.0
  0
LINE
  5
451
100
AcDbEntity
  8
0
100
AcDbLine
 62
7
  6
CONTINUOUS
 10
40.4802765158
 20
22.4983788565
 11
40.4795953518
 21
22.4990600205
  0
SPLINE
  5
452
100
AcDbEntity
  8
0
100
AcDbSpline
 62
7
  6
CONTINUOUS
 70
0
 71
3
 72
14
 73
10
 74
8
 42
0.0000001
 43
0.0000001
 44
0.0000000001
 12
0.5407409237
 22
0.2890440051
 32
0.0
 13
0.5489846067
 23
0.2730624198
 33
0.0
 40
0.0
 40
0.0
 40
0.0
 40
0.0
 40
0.1360891828
 40
0.2724205737
 40
0.4077679873
 40
0.5429185838
 40
0.6821509024
 40
0.8319710672
 40
1.0
 40
1.0
 40
1.0
 40
1.0
 10
39.8283951111
 20
22.3237280462
 30
0.0
 10
39.8529247745
 20
22.336839967
 30
0.0
 10
39.9020615595
 20
22.3630239784
 30
0.0
 10
39.9757213173
 20
22.4020095249
 30
0.0
 10
40.0493333802
 20
22.4406743014
 30
0.0
 10
40.1236059243
 20
22.4793556268
 30
0.0
 10
40.2006626082
 20
22.5190934834
 30
0.0
 10
40.2838948016
 20
22.5615152475
 30
0.0
 10
40.3419541609
 20
22.5906584775
 30
0.0
 10
40.3727025934
 20
22.6059526065
 30
0.0
 11
39.8283951111
 21
22.3237280462
 31
0.0
 11
39.9020362479
 21
22.3629660976
 31
0.0
 11
39.9759195551
 21
22.4020647494
 31
0.0
 11
40.0493914028
 21
22.4406501722
 31
0.0
 11
40.1228912322
 21
22.4789216685
 31
0.0
 11
40.1987691279
 21
22.5180435444
 31
0.0
 11
40.2806192164
 21
22.5597461129
 31
0.0
 11
40.3727025934
 21
22.6059526065
 31
0.0
  0
LINE
  5
453
100
AcDbEntity
  8
0
100
AcDbLine
 62
7
  6
CONTINUOUS
 10
39.8099522509
 20
22.3109598305
 11
39.8283951111
 21
22.3237280462
  0
SPLINE
  5
454
100
AcDbEntity
  8
0
100
AcDbSpline
 62
7
  6
CONTINUOUS
 70
0
 71
3
 72
14
 73
10
 74
8
 42
0.0000001
 43
0.0000001
 44
0.0000000001
 12
-0.5407409237
 22
-0.2890440051
 32
0.0
 13
-0.5489846067
 23
-0.2730624198
 33
0.0
 40
0.0
 40
0.0
 40
0.0
 40
0.0
 40
0.1360891828
 40
0.2724205737
 40
0.4077679873
 40
0.5429185838
 40
0.6821509024
 40
0.8319710672
 40
1.0
 40
1.0
 40
1.0
 40
1.0
 10
42.1716048889
 20
21.6335826985
 30
0.0
 10
42.1470752255
 20
21.6204707777
 30
0.0
 10
42.0979384405
 20
21.5942867663
 30
0.0
 10
42.0242786827
 20
21.5553012198
 30
0.0
 10
41.9506666198
 20
21.5166364433
 30
0.0
 10
41.8763940757
 20
21.4779551179
 30
0.0
 10
41.7993373918
 20
21.4382172613
 30
0.0
 10
41.7161051984
 20
21.3957954972
 30
0.0
 10
41.6580458391
 20
21.3666522672
 30
0.0
 10
41.6272974066
 20
21.3513581382
 30
0.0
 11
42.1716048889
 21
21.6335826985
 31
0.0
 11
42.0979637521
 21
21.5943446471
 31
0.0
 11
42.0240804449
 21
21.5552459954
 31
0.0
 11
41.9506085972
 21
21.5166605725
 31
0.0
 11
41.8771087678
 21
21.4783890762
 31
0.0
 11
41.8012308721
 21
21.4392672004
 31
0.0
 11
41.7193807836
 21
21.3975646319
 31
0.0
 11
41.6272974066
 21
21.3513581382
 31
0.0
  0
LINE
  5
455
100
AcDbEntity
  8
0
100
AcDbLine
 62
7
  6
CONTINUOUS
 10
42.1716048889
 20
21.6335826985
 11
42.190047748
 21
21.6463509135
  0
LINE
  5
456
100
AcDbEntity
  8
0
100
AcDbLine
 62
7
  6
CONTINUOUS
 10
42.171604981
 20
22.323727997
 11
42.1898066956
 21
22.3111267853
  0
SPLINE
  5
457
100
AcDbEntity
  8
0
100
AcDbSpline
 62
7
  6
CONTINUOUS
 70
0
 71
3
 72
14
 73
10
 74
8
 42
0.0000001
 43
0.0000001
 44
0.0000000001
 12
0.5489866675
 22
-0.2730585867
 32
0.0
 13
0.540741044
 23
-0.289044073
 33
0.0
 40
0.0
 40
0.0
 40
0.0
 40
0.0
 40
0.1676248277
 40
0.3171576827
 40
0.4562893429
 40
0.5918233207
 40
0.7276155638
 40
0.864047256
 40
1.0
 40
1.0
 40
1.0
 40
1.0
 10
41.6272975093
 20
22.6059528887
 30
0.0
 10
41.6579721078
 20
22.5906957558
 30
0.0
 10
41.7159046577
 20
22.561614873
 30
0.0
 10
41.7989942188
 20
22.519269725
 30
0.0
 10
41.8760507922
 20
22.4795336513
 30
0.0
 10
41.9504559263
 20
22.4407849522
 30
0.0
 10
42.0242360761
 20
22.4020320421
 30
0.0
 10
42.0979697374
 20
22.3630075267
 30
0.0
 10
42.1470999047
 20
22.3368267753
 30
0.0
 10
42.171604981
 20
22.323727997
 30
0.0
 11
41.6272975093
 21
22.6059528887
 31
0.0
 11
41.7191594664
 21
22.5598575451
 31
0.0
 11
41.8008536937
 21
22.5182370678
 31
0.0
 11
41.8766776316
 21
22.4791451757
 31
0.0
 11
41.9503866032
 21
22.4407663139
 31
0.0
 11
42.0241000844
 21
22.4020543467
 31
0.0
 11
42.0980377467
 21
22.3629268851
 31
0.0
 11
42.171604981
 21
22.323727997
 31
0.0
  0
LINE
  5
458
100
AcDbEntity
  8
0
100
AcDbLine
 62
7
  6
CONTINUOUS
 10
40.5000529891
 20
21.4165218364
 11
40.4802765161
 21
21.4589318885
  0
LINE
  5
459
100
AcDbEntity
  8
0
100
AcDbLine
 62
7
  6
CONTINUOUS
 10
40.4802765161
 20
21.4589318885
 11
40.4378664697
 21
21.4787083551
  0
LINE
  5
45A
100
AcDbEntity
  8
0
100
AcDbLine
 62
7
  6
CONTINUOUS
 10
40.4
 20
21.4963655653
 11
39.8778933466
 21
21.7398306314
  0
LINE
  5
45B
100
AcDbEntity
  8
0
100
AcDbLine
 62
7
  6
CONTINUOUS
 10
39.8778971865
 20
22.2174813902
 11
40.4
 21
22.4609446593
  0
LINE
  5
45C
100
AcDbEntity
  8
0
100
AcDbLine
 62
7
  6
CONTINUOUS
 10
40.4378660057
 20
22.478601868
 11
40.4802732178
 21
22.4983728073
  0
LINE
  5
45D
100
AcDbEntity
  8
0
100
AcDbLine
 62
7
  6
CONTINUOUS
 10
41.519717435
 20
21.4589285901
 11
41.4999466442
 21
21.4165215102
  0
LINE
  5
45E
100
AcDbEntity
  8
0
100
AcDbLine
 62
7
  6
CONTINUOUS
 10
41.4999470109
 20
22.5407889083
 11
41.5197234839
 21
22.4983788562
  0
LINE
  5
45F
100
AcDbEntity
  8
0
100
AcDbLine
 62
7
  6
CONTINUOUS
 10
41.6
 20
22.5786553787
 11
41.6272975093
 21
22.6059528887
  0
LINE
  5
460
100
AcDbEntity
  8
0
100
AcDbLine
 62
7
  6
CONTINUOUS
 10
41.5197234842
 20
22.4983788565
 11
41.5204046482
 21
22.4990600205
  0
SPLINE
  5
461
100
AcDbEntity
  8
0
100
AcDbSpline
 62
7
  6
CONTINUOUS
 70
0
 71
3
 72
9
 73
5
 74
3
 42
0.0000001
 43
0.0000001
 44
0.0000000001
 12
-0.0452995647
 22
-0.1041126532
 32
0.0
 13
-0.0452995647
 23
-0.1041126532
 33
0.0
 40
0.0
 40
0.0
 40
0.0
 40
0.0
 40
0.4996939835
 40
1.0
 40
1.0
 40
1.0
 40
1.0
 10
42.1898066956
 20
22.3111267853
 30
0.0
 10
42.182261389
 20
22.2937852965
 30
0.0
 10
42.1669167609
 20
22.2591862158
 30
0.0
 10
42.1525518251
 20
22.2241663294
 30
0.0
 10
42.1449972769
 20
22.2068036004
 30
0.0
 11
42.1898066956
 21
22.3111267853
 31
0.0
 11
42.1671707757
 21
22.2591023189
 31
0.0
 11
42.1449972769
 21
22.2068036004
 31
0.0
  0
SPLINE
  5
462
100
AcDbEntity
  8
0
100
AcDbSpline
 62
7
  6
CONTINUOUS
 70
0
 71
3
 72
9
 73
5
 74
3
 42
0.0000001
 43
0.0000001
 44
0.0000000001
 12
0.5269772644
 22
-0.0010793166
 32
0.0
 13
0.5269783692
 23
0.0000227564
 33
0.0
 40
0.0
 40
0.0
 40
0.0
 40
0.0
 40
0.4866884719
 40
1.0
 40
1.0
 40
1.0
 40
1.0
 10
42.1450395831
 20
22.2070086435
 30
0.0
 10
42.2305308363
 20
22.2068335465
 30
0.0
 10
42.406190262
 20
22.2066494527
 30
0.0
 10
42.5818497119
 20
22.2065967782
 30
0.0
 10
42.6720177359
 20
22.2066006719
 30
0.0
 11
42.1450395831
 21
22.2070086435
 31
0.0
 11
42.401513677
 21
22.2066854826
 31
0.0
 11
42.6720177359
 21
22.2066006719
 31
0.0
  0
LINE
  5
463
100
AcDbEntity
  8
TRASH
100
AcDbLine
 62
7
  6
CONTINUOUS
 10
42.1221062937
 20
22.2174777548
 11
42.1449972769
 21
22.2068036004
  0
LINE
  5
464
100
AcDbEntity
  8
0
100
AcDbLine
 62
7
  6
CONTINUOUS
 10
42.1450079241
 20
21.7504626275
 11
42.6719912502
 21
21.7505158797
  0
LINE
  5
465
100
AcDbEntity
  8
0
100
AcDbLine
 62
7
  6
CONTINUOUS
 10
42.1449972701
 20
21.7505071542
 11
42.190047748
 21
21.6463509135
  0
LINE
  5
466
100
AcDbEntity
  8
TRASH
100
AcDbLine
 62
7
  6
CONTINUOUS
 10
42.122106287
 20
21.7398329998
 11
42.1449972701
 21
21.7505071542
  0
LINE
  5
467
100
AcDbEntity
  8
0
100
AcDbLine
 62
7
  6
CONTINUOUS
 10
41.6
 20
-32.6213444858
 11
41.6272974066
 21
-32.6486418618
  0
LINE
  5
468
100
AcDbEntity
  8
0
100
AcDbLine
 62
7
  6
CONTINUOUS
 10
41.5197234842
 20
-32.5410681118
 11
41.5204046482
 21
-32.5417492758
  0
LINE
  5
469
100
AcDbEntity
  8
0
100
AcDbLine
 62
7
  6
CONTINUOUS
 10
40.3727024907
 20
-32.6486421439
 11
40.4
 21
-32.621344634
  0
LINE
  5
46A
100
AcDbEntity
  8
0
100
AcDbLine
 62
7
  6
CONTINUOUS
 10
40.4795953518
 20
-32.5417492758
 11
40.4802765158
 21
-32.5410681118
  0
LINE
  5
46B
100
AcDbEntity
  8
0
100
AcDbLine
 62
7
  6
CONTINUOUS
 10
40.480282565
 20
-31.5016178454
 11
40.5000533558
 21
-31.4592107655
  0
SPLINE
  5
46C
100
AcDbEntity
  8
0
100
AcDbSpline
 62
7
  6
CONTINUOUS
 70
0
 71
3
 72
9
 73
5
 74
3
 42
0.0000001
 43
0.0000001
 44
0.0000000001
 12
0.0452995647
 22
0.1041126532
 32
0.0
 13
0.0452995647
 23
0.1041126532
 33
0.0
 40
0.0
 40
0.0
 40
0.0
 40
0.0
 40
0.4996939835
 40
1.0
 40
1.0
 40
1.0
 40
1.0
 10
39.8101933044
 20
-32.3538160406
 30
0.0
 10
39.817738611
 20
-32.3364745518
 30
0.0
 10
39.8330832391
 20
-32.3018754711
 30
0.0
 10
39.8474481749
 20
-32.2668555847
 30
0.0
 10
39.8550027231
 20
-32.2494928557
 30
0.0
 11
39.8101933044
 21
-32.3538160406
 31
0.0
 11
39.8328292243
 21
-32.3017915741
 31
0.0
 11
39.8550027231
 21
-32.2494928557
 31
0.0
  0
SPLINE
  5
46D
100
AcDbEntity
  8
0
100
AcDbSpline
 62
7
  6
CONTINUOUS
 70
0
 71
3
 72
9
 73
5
 74
3
 42
0.0000001
 43
0.0000001
 44
0.0000000001
 12
-0.5269772644
 22
0.0010793166
 32
0.0
 13
-0.5269783692
 23
-0.0000227564
 33
0.0
 40
0.0
 40
0.0
 40
0.0
 40
0.0
 40
0.4866884719
 40
1.0
 40
1.0
 40
1.0
 40
1.0
 10
39.8549604169
 20
-32.2496978988
 30
0.0
 10
39.7694691637
 20
-32.2495228018
 30
0.0
 10
39.593809738
 20
-32.249338708
 30
0.0
 10
39.4181502881
 20
-32.2492860335
 30
0.0
 10
39.3279822641
 20
-32.2492899272
 30
0.0
 11
39.8549604169
 21
-32.2496978988
 31
0.0
 11
39.598486323
 21
-32.2493747379
 31
0.0
 11
39.3279822641
 21
-32.2492899272
 31
0.0
  0
LINE
  5
46E
100
AcDbEntity
  8
TRASH
100
AcDbLine
 62
7
  6
CONTINUOUS
 10
39.8778937063
 20
-32.2601670101
 11
39.8550027231
 21
-32.2494928557
  0
LINE
  5
46F
100
AcDbEntity
  8
TRASH
100
AcDbLine
 62
7
  6
CONTINUOUS
 10
39.8550027299
 20
-31.7931964095
 11
39.877893713
 21
-31.7825222551
  0
LINE
  5
470
100
AcDbEntity
  8
0
100
AcDbLine
 62
7
  6
CONTINUOUS
 10
41.5621339943
 20
-32.5212911233
 11
41.5197267822
 21
-32.5410620626
  0
LINE
  5
471
100
AcDbEntity
  8
0
100
AcDbLine
 62
7
  6
CONTINUOUS
 10
39.3280087497
 20
-31.7932051355
 11
39.8549920768
 21
-31.7931518876
  0
LINE
  5
472
100
AcDbEntity
  8
0
100
AcDbLine
 62
7
  6
CONTINUOUS
 10
39.8550027299
 20
-31.7931964095
 11
39.8099522509
 21
-31.6890401695
  0
LINE
  5
473
100
AcDbEntity
  8
0
100
AcDbLine
 62
7
  6
CONTINUOUS
 10
42.1221028135
 20
-32.2601706455
 11
41.6
 21
-32.5036339146
  0
LINE
  5
474
100
AcDbEntity
  8
0
100
AcDbLine
 62
7
  6
CONTINUOUS
 10
40.4
 20
-31.4213447695
 11
40.3727025934
 21
-31.3940473935
  0
LINE
  5
475
100
AcDbEntity
  8
0
100
AcDbLine
 62
7
  6
CONTINUOUS
 10
41.6
 20
-31.5390548205
 11
42.1221066534
 21
-31.7825198867
  0
LINE
  5
476
100
AcDbEntity
  8
0
100
AcDbLine
 62
7
  6
CONTINUOUS
 10
41.5197234839
 20
-31.5016211438
 11
41.5621335303
 21
-31.5213976104
  0
LINE
  5
477
100
AcDbEntity
  8
0
100
AcDbLine
 62
7
  6
CONTINUOUS
 10
39.8101933044
 20
-32.3538160406
 11
39.828395019
 21
-32.3664172523
  0
SPLINE
  5
478
100
AcDbEntity
  8
0
100
AcDbSpline
 62
7
  6
CONTINUOUS
 70
0
 71
3
 72
14
 73
10
 74
8
 42
0.0000001
 43
0.0000001
 44
0.0000000001
 12
-0.5489866675
 22
0.2730585867
 32
0.0
 13
-0.540741044
 23
0.289044073
 33
0.0
 40
0.0
 40
0.0
 40
0.0
 40
0.0
 40
0.1676248277
 40
0.3171576827
 40
0.4562893429
 40
0.5918233207
 40
0.7276155638
 40
0.864047256
 40
1.0
 40
1.0
 40
1.0
 40
1.0
 10
40.3727024907
 20
-32.6486421439
 30
0.0
 10
40.3420278922
 20
-32.6333850111
 30
0.0
 10
40.2840953423
 20
-32.6043041282
 30
0.0
 10
40.2010057812
 20
-32.5619589803
 30
0.0
 10
40.1239492078
 20
-32.5222229066
 30
0.0
 10
40.0495440737
 20
-32.4834742075
 30
0.0
 10
39.9757639239
 20
-32.4447212974
 30
0.0
 10
39.9020302626
 20
-32.4056967819
 30
0.0
 10
39.8529000953
 20
-32.3795160306
 30
0.0
 10
39.828395019
 20
-32.3664172523
 30
0.0
 11
40.3727024907
 21
-32.6486421439
 31
0.0
 11
40.2808405336
 21
-32.6025468004
 31
0.0
 11
40.1991463063
 21
-32.560926323
 31
0.0
 11
40.1233223684
 21
-32.521834431
 31
0.0
 11
40.0496133968
 21
-32.4834555691
 31
0.0
 11
39.9758999156
 21
-32.4447436019
 31
0.0
 11
39.9019622533
 21
-32.4056161404
 31
0.0
 11
39.828395019
 21
-32.3664172523
 31
0.0
  0
LINE
  5
479
100
AcDbEntity
  8
0
100
AcDbLine
 62
7
  6
CONTINUOUS
 10
40.4802765158
 20
-31.5016211435
 11
40.4795953518
 21
-31.5009399795
  0
SPLINE
  5
47A
100
AcDbEntity
  8
0
100
AcDbSpline
 62
7
  6
CONTINUOUS
 70
0
 71
3
 72
14
 73
10
 74
8
 42
0.0000001
 43
0.0000001
 44
0.0000000001
 12
0.5407409237
 22
0.2890440051
 32
0.0
 13
0.5489846067
 23
0.2730624198
 33
0.0
 40
0.0
 40
0.0
 40
0.0
 40
0.0
 40
0.1360891828
 40
0.2724205737
 40
0.4077679873
 40
0.5429185838
 40
0.6821509024
 40
0.8319710672
 40
1.0
 40
1.0
 40
1.0
 40
1.0
 10
39.8283951111
 20
-31.6762719538
 30
0.0
 10
39.8529247745
 20
-31.663160033
 30
0.0
 10
39.9020615595
 20
-31.6369760216
 30
0.0
 10
39.9757213173
 20
-31.5979904751
 30
0.0
 10
40.0493333802
 20
-31.5593256986
 30
0.0
 10
40.1236059243
 20
-31.5206443732
 30
0.0
 10
40.2006626082
 20
-31.4809065166
 30
0.0
 10
40.2838948016
 20
-31.4384847525
 30
0.0
 10
40.3419541609
 20
-31.4093415225
 30
0.0
 10
40.3727025934
 20
-31.3940473935
 30
0.0
 11
39.8283951111
 21
-31.6762719538
 31
0.0
 11
39.9020362479
 21
-31.6370339024
 31
0.0
 11
39.9759195551
 21
-31.5979352506
 31
0.0
 11
40.0493914028
 21
-31.5593498278
 31
0.0
 11
40.1228912322
 21
-31.5210783315
 31
0.0
 11
40.1987691279
 21
-31.4819564556
 31
0.0
 11
40.2806192164
 21
-31.4402538871
 31
0.0
 11
40.3727025934
 21
-31.3940473935
 31
0.0
  0
LINE
  5
47B
100
AcDbEntity
  8
0
100
AcDbLine
 62
7
  6
CONTINUOUS
 10
39.8099522509
 20
-31.6890401695
 11
39.8283951111
 21
-31.6762719538
  0
SPLINE
  5
47C
100
AcDbEntity
  8
0
100
AcDbSpline
 62
7
  6
CONTINUOUS
 70
0
 71
3
 72
14
 73
10
 74
8
 42
0.0000001
 43
0.0000001
 44
0.0000000001
 12
-0.5407409237
 22
-0.2890440051
 32
0.0
 13
-0.5489846067
 23
-0.2730624198
 33
0.0
 40
0.0
 40
0.0
 40
0.0
 40
0.0
 40
0.1360891828
 40
0.2724205737
 40
0.4077679873
 40
0.5429185838
 40
0.6821509024
 40
0.8319710672
 40
1.0
 40
1.0
 40
1.0
 40
1.0
 10
42.1716048889
 20
-32.3664173015
 30
0.0
 10
42.1470752255
 20
-32.3795292223
 30
0.0
 10
42.0979384405
 20
-32.4057132337
 30
0.0
 10
42.0242786827
 20
-32.4446987802
 30
0.0
 10
41.9506666198
 20
-32.4833635567
 30
0.0
 10
41.8763940757
 20
-32.5220448821
 30
0.0
 10
41.7993373918
 20
-32.5617827387
 30
0.0
 10
41.7161051984
 20
-32.6042045028
 30
0.0
 10
41.6580458391
 20
-32.6333477328
 30
0.0
 10
41.6272974066
 20
-32.6486418618
 30
0.0
 11
42.1716048889
 21
-32.3664173015
 31
0.0
 11
42.0979637521
 21
-32.4056553529
 31
0.0
 11
42.0240804449
 21
-32.4447540046
 31
0.0
 11
41.9506085972
 21
-32.4833394275
 31
0.0
 11
41.8771087678
 21
-32.5216109238
 31
0.0
 11
41.8012308721
 21
-32.5607327996
 31
0.0
 11
41.7193807836
 21
-32.6024353681
 31
0.0
 11
41.6272974066
 21
-32.6486418618
 31
0.0
  0
LINE
  5
47D
100
AcDbEntity
  8
0
100
AcDbLine
 62
7
  6
CONTINUOUS
 10
42.1716048889
 20
-32.3664173015
 11
42.190047748
 21
-32.3536490865
  0
LINE
  5
47E
100
AcDbEntity
  8
0
100
AcDbLine
 62
7
  6
CONTINUOUS
 10
42.171604981
 20
-31.676272003
 11
42.1898066956
 21
-31.6888732147
  0
SPLINE
  5
47F
100
AcDbEntity
  8
0
100
AcDbSpline
 62
7
  6
CONTINUOUS
 70
0
 71
3
 72
14
 73
10
 74
8
 42
0.0000001
 43
0.0000001
 44
0.0000000001
 12
0.5489866675
 22
-0.2730585867
 32
0.0
 13
0.540741044
 23
-0.289044073
 33
0.0
 40
0.0
 40
0.0
 40
0.0
 40
0.0
 40
0.1676248277
 40
0.3171576827
 40
0.4562893429
 40
0.5918233207
 40
0.7276155638
 40
0.864047256
 40
1.0
 40
1.0
 40
1.0
 40
1.0
 10
41.6272975093
 20
-31.3940471113
 30
0.0
 10
41.6579721078
 20
-31.4093042442
 30
0.0
 10
41.7159046577
 20
-31.438385127
 30
0.0
 10
41.7989942188
 20
-31.480730275
 30
0.0
 10
41.8760507922
 20
-31.5204663487
 30
0.0
 10
41.9504559263
 20
-31.5592150478
 30
0.0
 10
42.0242360761
 20
-31.5979679579
 30
0.0
 10
42.0979697374
 20
-31.6369924733
 30
0.0
 10
42.1470999047
 20
-31.6631732247
 30
0.0
 10
42.171604981
 20
-31.676272003
 30
0.0
 11
41.6272975093
 21
-31.3940471113
 31
0.0
 11
41.7191594664
 21
-31.4401424549
 31
0.0
 11
41.8008536937
 21
-31.4817629322
 31
0.0
 11
41.8766776316
 21
-31.5208548243
 31
0.0
 11
41.9503866032
 21
-31.5592336861
 31
0.0
 11
42.0241000844
 21
-31.5979456533
 31
0.0
 11
42.0980377467
 21
-31.6370731149
 31
0.0
 11
42.171604981
 21
-31.676272003
 31
0.0
  0
LINE
  5
480
100
AcDbEntity
  8
0
100
AcDbLine
 62
7
  6
CONTINUOUS
 10
40.5000529891
 20
-32.5834781636
 11
40.4802765161
 21
-32.5410681115
  0
LINE
  5
481
100
AcDbEntity
  8
0
100
AcDbLine
 62
7
  6
CONTINUOUS
 10
40.4802765161
 20
-32.5410681115
 11
40.4378664697
 21
-32.5212916449
  0
LINE
  5
482
100
AcDbEntity
  8
0
100
AcDbLine
 62
7
  6
CONTINUOUS
 10
40.4
 20
-32.5036344347
 11
39.8778933466
 21
-32.2601693686
  0
LINE
  5
483
100
AcDbEntity
  8
0
100
AcDbLine
 62
7
  6
CONTINUOUS
 10
39.8778971865
 20
-31.7825186098
 11
40.4
 21
-31.5390553407
  0
LINE
  5
484
100
AcDbEntity
  8
0
100
AcDbLine
 62
7
  6
CONTINUOUS
 10
40.4378660057
 20
-31.521398132
 11
40.4802732178
 21
-31.5016271927
  0
LINE
  5
485
100
AcDbEntity
  8
0
100
AcDbLine
 62
7
  6
CONTINUOUS
 10
41.519717435
 20
-32.5410714099
 11
41.4999466442
 21
-32.5834784898
  0
LINE
  5
486
100
AcDbEntity
  8
0
100
AcDbLine
 62
7
  6
CONTINUOUS
 10
41.4999470109
 20
-31.4592110917
 11
41.5197234839
 21
-31.5016211438
  0
LINE
  5
487
100
AcDbEntity
  8
0
100
AcDbLine
 62
7
  6
CONTINUOUS
 10
41.6
 20
-31.4213446213
 11
41.6272975093
 21
-31.3940471113
  0
LINE
  5
488
100
AcDbEntity
  8
0
100
AcDbLine
 62
7
  6
CONTINUOUS
 10
41.5197234842
 20
-31.5016211435
 11
41.5204046482
 21
-31.5009399795
  0
SPLINE
  5
489
100
AcDbEntity
  8
0
100
AcDbSpline
 62
7
  6
CONTINUOUS
 70
0
 71
3
 72
9
 73
5
 74
3
 42
0.0000001
 43
0.0000001
 44
0.0000000001
 12
-0.0452995647
 22
-0.1041126532
 32
0.0
 13
-0.0452995647
 23
-0.1041126532
 33
0.0
 40
0.0
 40
0.0
 40
0.0
 40
0.0
 40
0.4996939835
 40
1.0
 40
1.0
 40
1.0
 40
1.0
 10
42.1898066956
 20
-31.6888732147
 30
0.0
 10
42.182261389
 20
-31.7062147035
 30
0.0
 10
42.1669167609
 20
-31.7408137842
 30
0.0
 10
42.1525518251
 20
-31.7758336706
 30
0.0
 10
42.1449972769
 20
-31.7931963996
 30
0.0
 11
42.1898066956
 21
-31.6888732147
 31
0.0
 11
42.1671707757
 21
-31.7408976811
 31
0.0
 11
42.1449972769
 21
-31.7931963996
 31
0.0
  0
SPLINE
  5
48A
100
AcDbEntity
  8
0
100
AcDbSpline
 62
7
  6
CONTINUOUS
 70
0
 71
3
 72
9
 73
5
 74
3
 42
0.0000001
 43
0.0000001
 44
0.0000000001
 12
0.5269772644
 22
-0.0010793166
 32
0.0
 13
0.5269783692
 23
0.0000227564
 33
0.0
 40
0.0
 40
0.0
 40
0.0
 40
0.0
 40
0.4866884719
 40
1.0
 40
1.0
 40
1.0
 40
1.0
 10
42.1450395831
 20
-31.7929913565
 30
0.0
 10
42.2305308363
 20
-31.7931664535
 30
0.0
 10
42.406190262
 20
-31.7933505473
 30
0.0
 10
42.5818497119
 20
-31.7934032218
 30
0.0
 10
42.6720177359
 20
-31.7933993281
 30
0.0
 11
42.1450395831
 21
-31.7929913565
 31
0.0
 11
42.401513677
 21
-31.7933145174
 31
0.0
 11
42.6720177359
 21
-31.7933993281
 31
0.0
  0
LINE
  5
48B
100
AcDbEntity
  8
TRASH
100
AcDbLine
 62
7
  6
CONTINUOUS
 10
42.1221062937
 20
-31.7825222452
 11
42.1449972769
 21
-31.7931963996
  0
LINE
  5
48C
100
AcDbEntity
  8
0
100
AcDbLine
 62
7
  6
CONTINUOUS
 10
42.1450079241
 20
-32.2495373725
 11
42.6719912502
 21
-32.2494841203
  0
LINE
  5
48D
100
AcDbEntity
  8
0
100
AcDbLine
 62
7
  6
CONTINUOUS
 10
42.1449972701
 20
-32.2494928458
 11
42.190047748
 21
-32.3536490865
  0
LINE
  5
48E
100
AcDbEntity
  8
TRASH
100
AcDbLine
 62
7
  6
CONTINUOUS
 10
42.122106287
 20
-32.2601670002
 11
42.1449972701
 21
-32.2494928458
  0
LINE
  5
48F
100
AcDbEntity
  8
0
100
AcDbLine
 62
7
  6
CONTINUOUS
 10
-40.4
 20
-32.6213444858
 11
-40.3727025934
 21
-32.6486418618
  0
LINE
  5
490
100
AcDbEntity
  8
0
100
AcDbLine
 62
7
  6
CONTINUOUS
 10
-40.4802765158
 20
-32.5410681118
 11
-40.4795953518
 21
-32.5417492758
  0
LINE
  5
491
100
AcDbEntity
  8
0
100
AcDbLine
 62
7
  6
CONTINUOUS
 10
-41.6272975093
 20
-32.6486421439
 11
-41.6
 21
-32.621344634
  0
LINE
  5
492
100
AcDbEntity
  8
0
100
AcDbLine
 62
7
  6
CONTINUOUS
 10
-41.5204046482
 20
-32.5417492758
 11
-41.5197234842
 21
-32.5410681118
  0
LINE
  5
493
100
AcDbEntity
  8
0
100
AcDbLine
 62
7
  6
CONTINUOUS
 10
-41.519717435
 20
-31.5016178454
 11
-41.4999466442
 21
-31.4592107655
  0
SPLINE
  5
494
100
AcDbEntity
  8
0
100
AcDbSpline
 62
7
  6
CONTINUOUS
 70
0
 71
3
 72
9
 73
5
 74
3
 42
0.0000001
 43
0.0000001
 44
0.0000000001
 12
0.0452995647
 22
0.1041126532
 32
0.0
 13
0.0452995647
 23
0.1041126532
 33
0.0
 40
0.0
 40
0.0
 40
0.0
 40
0.0
 40
0.4996939835
 40
1.0
 40
1.0
 40
1.0
 40
1.0
 10
-42.1898066956
 20
-32.3538160406
 30
0.0
 10
-42.182261389
 20
-32.3364745518
 30
0.0
 10
-42.1669167609
 20
-32.3018754711
 30
0.0
 10
-42.1525518251
 20
-32.2668555847
 30
0.0
 10
-42.1449972769
 20
-32.2494928557
 30
0.0
 11
-42.1898066956
 21
-32.3538160406
 31
0.0
 11
-42.1671707757
 21
-32.3017915741
 31
0.0
 11
-42.1449972769
 21
-32.2494928557
 31
0.0
  0
SPLINE
  5
495
100
AcDbEntity
  8
0
100
AcDbSpline
 62
7
  6
CONTINUOUS
 70
0
 71
3
 72
9
 73
5
 74
3
 42
0.0000001
 43
0.0000001
 44
0.0000000001
 12
-0.5269772644
 22
0.0010793166
 32
0.0
 13
-0.5269783692
 23
-0.0000227564
 33
0.0
 40
0.0
 40
0.0
 40
0.0
 40
0.0
 40
0.4866884719
 40
1.0
 40
1.0
 40
1.0
 40
1.0
 10
-42.1450395831
 20
-32.2496978988
 30
0.0
 10
-42.2305308363
 20
-32.2495228018
 30
0.0
 10
-42.406190262
 20
-32.249338708
 30
0.0
 10
-42.5818497119
 20
-32.2492860335
 30
0.0
 10
-42.6720177359
 20
-32.2492899272
 30
0.0
 11
-42.1450395831
 21
-32.2496978988
 31
0.0
 11
-42.401513677
 21
-32.2493747379
 31
0.0
 11
-42.6720177359
 21
-32.2492899272
 31
0.0
  0
LINE
  5
496
100
AcDbEntity
  8
TRASH
100
AcDbLine
 62
7
  6
CONTINUOUS
 10
-42.1221062937
 20
-32.2601670101
 11
-42.1449972769
 21
-32.2494928557
  0
LINE
  5
497
100
AcDbEntity
  8
TRASH
100
AcDbLine
 62
7
  6
CONTINUOUS
 10
-42.1449972701
 20
-31.7931964095
 11
-42.122106287
 21
-31.7825222551
  0
LINE
  5
498
100
AcDbEntity
  8
0
100
AcDbLine
 62
7
  6
CONTINUOUS
 10
-40.4378660057
 20
-32.5212911233
 11
-40.4802732178
 21
-32.5410620626
  0
LINE
  5
499
100
AcDbEntity
  8
0
100
AcDbLine
 62
7
  6
CONTINUOUS
 10
-42.6719912503
 20
-31.7932051355
 11
-42.1450079232
 21
-31.7931518876
  0
LINE
  5
49A
100
AcDbEntity
  8
0
100
AcDbLine
 62
7
  6
CONTINUOUS
 10
-42.1449972701
 20
-31.7931964095
 11
-42.1900477491
 21
-31.6890401695
  0
LINE
  5
49B
100
AcDbEntity
  8
0
100
AcDbLine
 62
7
  6
CONTINUOUS
 10
-39.8778971865
 20
-32.2601706455
 11
-40.4
 21
-32.5036339146
  0
LINE
  5
49C
100
AcDbEntity
  8
0
100
AcDbLine
 62
7
  6
CONTINUOUS
 10
-41.6
 20
-31.4213447695
 11
-41.6272974066
 21
-31.3940473935
  0
LINE
  5
49D
100
AcDbEntity
  8
0
100
AcDbLine
 62
7
  6
CONTINUOUS
 10
-40.4
 20
-31.5390548205
 11
-39.8778933466
 21
-31.7825198867
  0
LINE
  5
49E
100
AcDbEntity
  8
0
100
AcDbLine
 62
7
  6
CONTINUOUS
 10
-40.4802765161
 20
-31.5016211438
 11
-40.4378664697
 21
-31.5213976104
  0
LINE
  5
49F
100
AcDbEntity
  8
0
100
AcDbLine
 62
7
  6
CONTINUOUS
 10
-42.1898066956
 20
-32.3538160406
 11
-42.171604981
 21
-32.3664172523
  0
SPLINE
  5
4A0
100
AcDbEntity
  8
0
100
AcDbSpline
 62
7
  6
CONTINUOUS
 70
0
 71
3
 72
14
 73
10
 74
8
 42
0.0000001
 43
0.0000001
 44
0.0000000001
 12
-0.5489866675
 22
0.2730585867
 32
0.0
 13
-0.540741044
 23
0.289044073
 33
0.0
 40
0.0
 40
0.0
 40
0.0
 40
0.0
 40
0.1676248277
 40
0.3171576827
 40
0.4562893429
 40
0.5918233207
 40
0.7276155638
 40
0.864047256
 40
1.0
 40
1.0
 40
1.0
 40
1.0
 10
-41.6272975093
 20
-32.6486421439
 30
0.0
 10
-41.6579721078
 20
-32.6333850111
 30
0.0
 10
-41.7159046577
 20
-32.6043041282
 30
0.0
 10
-41.7989942188
 20
-32.5619589803
 30
0.0
 10
-41.8760507922
 20
-32.5222229066
 30
0.0
 10
-41.9504559263
 20
-32.4834742075
 30
0.0
 10
-42.0242360761
 20
-32.4447212974
 30
0.0
 10
-42.0979697374
 20
-32.4056967819
 30
0.0
 10
-42.1470999047
 20
-32.3795160306
 30
0.0
 10
-42.171604981
 20
-32.3664172523
 30
0.0
 11
-41.6272975093
 21
-32.6486421439
 31
0.0
 11
-41.7191594664
 21
-32.6025468004
 31
0.0
 11
-41.8008536937
 21
-32.560926323
 31
0.0
 11
-41.8766776316
 21
-32.521834431
 31
0.0
 11
-41.9503866032
 21
-32.4834555691
 31
0.0
 11
-42.0241000844
 21
-32.4447436019
 31
0.0
 11
-42.0980377467
 21
-32.4056161404
 31
0.0
 11
-42.171604981
 21
-32.3664172523
 31
0.0
  0
LINE
  5
4A1
100
AcDbEntity
  8
0
100
AcDbLine
 62
7
  6
CONTINUOUS
 10
-41.5197234842
 20
-31.5016211435
 11
-41.5204046482
 21
-31.5009399795
  0
SPLINE
  5
4A2
100
AcDbEntity
  8
0
100
AcDbSpline
 62
7
  6
CONTINUOUS
 70
0
 71
3
 72
14
 73
10
 74
8
 42
0.0000001
 43
0.0000001
 44
0.0000000001
 12
0.5407409237
 22
0.2890440051
 32
0.0
 13
0.5489846067
 23
0.2730624198
 33
0.0
 40
0.0
 40
0.0
 40
0.0
 40
0.0
 40
0.1360891828
 40
0.2724205737
 40
0.4077679873
 40
0.5429185838
 40
0.6821509024
 40
0.8319710672
 40
1.0
 40
1.0
 40
1.0
 40
1.0
 10
-42.1716048889
 20
-31.6762719538
 30
0.0
 10
-42.1470752255
 20
-31.663160033
 30
0.0
 10
-42.0979384405
 20
-31.6369760216
 30
0.0
 10
-42.0242786827
 20
-31.5979904751
 30
0.0
 10
-41.9506666198
 20
-31.5593256986
 30
0.0
 10
-41.8763940757
 20
-31.5206443732
 30
0.0
 10
-41.7993373918
 20
-31.4809065166
 30
0.0
 10
-41.7161051984
 20
-31.4384847525
 30
0.0
 10
-41.6580458391
 20
-31.4093415225
 30
0.0
 10
-41.6272974066
 20
-31.3940473935
 30
0.0
 11
-42.1716048889
 21
-31.6762719538
 31
0.0
 11
-42.0979637521
 21
-31.6370339024
 31
0.0
 11
-42.0240804449
 21
-31.5979352506
 31
0.0
 11
-41.9506085972
 21
-31.5593498278
 31
0.0
 11
-41.8771087678
 21
-31.5210783315
 31
0.0
 11
-41.8012308721
 21
-31.4819564556
 31
0.0
 11
-41.7193807836
 21
-31.4402538871
 31
0.0
 11
-41.6272974066
 21
-31.3940473935
 31
0.0
  0
LINE
  5
4A3
100
AcDbEntity
  8
0
100
AcDbLine
 62
7
  6
CONTINUOUS
 10
-42.1900477491
 20
-31.6890401695
 11
-42.1716048889
 21
-31.6762719538
  0
SPLINE
  5
4A4
100
AcDbEntity
  8
0
100
AcDbSpline
 62
7
  6
CONTINUOUS
 70
0
 71
3
 72
14
 73
10
 74
8
 42
0.0000001
 43
0.0000001
 44
0.0000000001
 12
-0.5407409237
 22
-0.2890440051
 32
0.0
 13
-0.5489846067
 23
-0.2730624198
 33
0.0
 40
0.0
 40
0.0
 40
0.0
 40
0.0
 40
0.1360891828
 40
0.2724205737
 40
0.4077679873
 40
0.5429185838
 40
0.6821509024
 40
0.8319710672
 40
1.0
 40
1.0
 40
1.0
 40
1.0
 10
-39.8283951111
 20
-32.3664173015
 30
0.0
 10
-39.8529247745
 20
-32.3795292223
 30
0.0
 10
-39.9020615595
 20
-32.4057132337
 30
0.0
 10
-39.9757213173
 20
-32.4446987802
 30
0.0
 10
-40.0493333802
 20
-32.4833635567
 30
0.0
 10
-40.1236059243
 20
-32.5220448821
 30
0.0
 10
-40.2006626082
 20
-32.5617827387
 30
0.0
 10
-40.2838948016
 20
-32.6042045028
 30
0.0
 10
-40.3419541609
 20
-32.6333477328
 30
0.0
 10
-40.3727025934
 20
-32.6486418618
 30
0.0
 11
-39.8283951111
 21
-32.3664173015
 31
0.0
 11
-39.9020362479
 21
-32.4056553529
 31
0.0
 11
-39.9759195551
 21
-32.4447540046
 31
0.0
 11
-40.0493914028
 21
-32.4833394275
 31
0.0
 11
-40.1228912322
 21
-32.5216109238
 31
0.0
 11
-40.1987691279
 21
-32.5607327996
 31
0.0
 11
-40.2806192164
 21
-32.6024353681
 31
0.0
 11
-40.3727025934
 21
-32.6486418618
 31
0.0
  0
LINE
  5
4A5
100
AcDbEntity
  8
0
100
AcDbLine
 62
7
  6
CONTINUOUS
 10
-39.8283951111
 20
-32.3664173015
 11
-39.809952252
 21
-32.3536490865
  0
LINE
  5
4A6
100
AcDbEntity
  8
0
100
AcDbLine
 62
7
  6
CONTINUOUS
 10
-39.828395019
 20
-31.676272003
 11
-39.8101933044
 21
-31.6888732147
  0
SPLINE
  5
4A7
100
AcDbEntity
  8
0
100
AcDbSpline
 62
7
  6
CONTINUOUS
 70
0
 71
3
 72
14
 73
10
 74
8
 42
0.0000001
 43
0.0000001
 44
0.0000000001
 12
0.5489866675
 22
-0.2730585867
 32
0.0
 13
0.540741044
 23
-0.289044073
 33
0.0
 40
0.0
 40
0.0
 40
0.0
 40
0.0
 40
0.1676248277
 40
0.3171576827
 40
0.4562893429
 40
0.5918233207
 40
0.7276155638
 40
0.864047256
 40
1.0
 40
1.0
 40
1.0
 40
1.0
 10
-40.3727024907
 20
-31.3940471113
 30
0.0
 10
-40.3420278922
 20
-31.4093042442
 30
0.0
 10
-40.2840953423
 20
-31.438385127
 30
0.0
 10
-40.2010057812
 20
-31.480730275
 30
0.0
 10
-40.1239492078
 20
-31.5204663487
 30
0.0
 10
-40.0495440737
 20
-31.5592150478
 30
0.0
 10
-39.9757639239
 20
-31.5979679579
 30
0.0
 10
-39.9020302626
 20
-31.6369924733
 30
0.0
 10
-39.8529000953
 20
-31.6631732247
 30
0.0
 10
-39.828395019
 20
-31.676272003
 30
0.0
 11
-40.3727024907
 21
-31.3940471113
 31
0.0
 11
-40.2808405336
 21
-31.4401424549
 31
0.0
 11
-40.1991463063
 21
-31.4817629322
 31
0.0
 11
-40.1233223684
 21
-31.5208548243
 31
0.0
 11
-40.0496133968
 21
-31.5592336861
 31
0.0
 11
-39.9758999156
 21
-31.5979456533
 31
0.0
 11
-39.9019622533
 21
-31.6370731149
 31
0.0
 11
-39.828395019
 21
-31.676272003
 31
0.0
  0
LINE
  5
4A8
100
AcDbEntity
  8
0
100
AcDbLine
 62
7
  6
CONTINUOUS
 10
-41.4999470109
 20
-32.5834781636
 11
-41.5197234839
 21
-32.5410681115
  0
LINE
  5
4A9
100
AcDbEntity
  8
0
100
AcDbLine
 62
7
  6
CONTINUOUS
 10
-41.5197234839
 20
-32.5410681115
 11
-41.5621335303
 21
-32.5212916449
  0
LINE
  5
4AA
100
AcDbEntity
  8
0
100
AcDbLine
 62
7
  6
CONTINUOUS
 10
-41.6
 20
-32.5036344347
 11
-42.1221066534
 21
-32.2601693686
  0
LINE
  5
4AB
100
AcDbEntity
  8
0
100
AcDbLine
 62
7
  6
CONTINUOUS
 10
-42.1221028135
 20
-31.7825186098
 11
-41.6
 21
-31.5390553407
  0
LINE
  5
4AC
100
AcDbEntity
  8
0
100
AcDbLine
 62
7
  6
CONTINUOUS
 10
-41.5621339943
 20
-31.521398132
 11
-41.5197267822
 21
-31.5016271927
  0
LINE
  5
4AD
100
AcDbEntity
  8
0
100
AcDbLine
 62
7
  6
CONTINUOUS
 10
-40.480282565
 20
-32.5410714099
 11
-40.5000533558
 21
-32.5834784898
  0
LINE
  5
4AE
100
AcDbEntity
  8
0
100
AcDbLine
 62
7
  6
CONTINUOUS
 10
-40.5000529891
 20
-31.4592110917
 11
-40.4802765161
 21
-31.5016211438
  0
LINE
  5
4AF
100
AcDbEntity
  8
0
100
AcDbLine
 62
7
  6
CONTINUOUS
 10
-40.4
 20
-31.4213446213
 11
-40.3727024907
 21
-31.3940471113
  0
LINE
  5
4B0
100
AcDbEntity
  8
0
100
AcDbLine
 62
7
  6
CONTINUOUS
 10
-40.4802765158
 20
-31.5016211435
 11
-40.4795953518
 21
-31.5009399795
  0
SPLINE
  5
4B1
100
AcDbEntity
  8
0
100
AcDbSpline
 62
7
  6
CONTINUOUS
 70
0
 71
3
 72
9
 73
5
 74
3
 42
0.0000001
 43
0.0000001
 44
0.0000000001
 12
-0.0452995647
 22
-0.1041126532
 32
0.0
 13
-0.0452995647
 23
-0.1041126532
 33
0.0
 40
0.0
 40
0.0
 40
0.0
 40
0.0
 40
0.4996939835
 40
1.0
 40
1.0
 40
1.0
 40
1.0
 10
-39.8101933044
 20
-31.6888732147
 30
0.0
 10
-39.817738611
 20
-31.7062147035
 30
0.0
 10
-39.8330832391
 20
-31.7408137842
 30
0.0
 10
-39.8474481749
 20
-31.7758336706
 30
0.0
 10
-39.8550027231
 20
-31.7931963996
 30
0.0
 11
-39.8101933044
 21
-31.6888732147
 31
0.0
 11
-39.8328292243
 21
-31.7408976811
 31
0.0
 11
-39.8550027231
 21
-31.7931963996
 31
0.0
  0
SPLINE
  5
4B2
100
AcDbEntity
  8
0
100
AcDbSpline
 62
7
  6
CONTINUOUS
 70
0
 71
3
 72
9
 73
5
 74
3
 42
0.0000001
 43
0.0000001
 44
0.0000000001
 12
0.5269772644
 22
-0.0010793166
 32
0.0
 13
0.5269783692
 23
0.0000227564
 33
0.0
 40
0.0
 40
0.0
 40
0.0
 40
0.0
 40
0.4866884719
 40
1.0
 40
1.0
 40
1.0
 40
1.0
 10
-39.8549604169
 20
-31.7929913565
 30
0.0
 10
-39.7694691637
 20
-31.7931664535
 30
0.0
 10
-39.593809738
 20
-31.7933505473
 30
0.0
 10
-39.4181502881
 20
-31.7934032218
 30
0.0
 10
-39.3279822641
 20
-31.7933993281
 30
0.0
 11
-39.8549604169
 21
-31.7929913565
 31
0.0
 11
-39.598486323
 21
-31.7933145174
 31
0.0
 11
-39.3279822641
 21
-31.7933993281
 31
0.0
  0
LINE
  5
4B3
100
AcDbEntity
  8
TRASH
100
AcDbLine
 62
7
  6
CONTINUOUS
 10
-39.8778937063
 20
-31.7825222452
 11
-39.8550027231
 21
-31.7931963996
  0
LINE
  5
4B4
100
AcDbEntity
  8
0
100
AcDbLine
 62
7
  6
CONTINUOUS
 10
-39.8549920759
 20
-32.2495373725
 11
-39.3280087498
 21
-32.2494841203
  0
LINE
  5
4B5
100
AcDbEntity
  8
0
100
AcDbLine
 62
7
  6
CONTINUOUS
 10
-39.8550027299
 20
-32.2494928458
 11
-39.809952252
 21
-32.3536490865
  0
LINE
  5
4B6
100
AcDbEntity
  8
TRASH
100
AcDbLine
 62
7
  6
CONTINUOUS
 10
-39.877893713
 20
-32.2601670002
 11
-39.8550027299
 21
-32.2494928458
  0
SPLINE
  5
4B7
100
AcDbEntity
  8
RACCORDO
100
AcDbSpline
 62
253
  6
CONTINUOUS
 70
0
 71
3
 72
14
 73
10
 74
8
 42
0.0000001
 43
0.0000001
 44
0.0000000001
 12
0.0681678608
 22
-73.8967496218
 32
0.0
 13
-0.0681678595
 23
-73.8967496218
 33
0.0
 40
0.0
 40
0.0
 40
0.0
 40
0.0
 40
0.1425298588
 40
0.2853872761
 40
0.4284406429
 40
0.5715593155
 40
0.7146126823
 40
0.8574700995
 40
1.0
 40
1.0
 40
1.0
 40
1.0
 10
-48.3903975243
 20
31.9270392568
 30
0.0
 10
-48.3871588724
 20
28.4162081592
 30
0.0
 10
-48.3816085762
 20
21.3864765674
 30
0.0
 10
-48.3760620866
 20
10.8330164474
 30
0.0
 10
-48.3732875598
 20
0.2650514116
 30
0.0
 10
-48.3732875598
 20
-10.3077406672
 30
0.0
 10
-48.3760620867
 20
-20.875705703
 30
0.0
 10
-48.3816085768
 20
-31.4291668478
 30
0.0
 10
-48.387158874
 20
-38.4588994644
 30
0.0
 10
-48.3903975267
 20
-41.9697315869
 30
0.0
 11
-48.3903975243
 21
31.9270392568
 31
0.0
 11
-48.3820778176
 21
21.3945447684
 31
0.0
 11
-48.3765270767
 21
10.837842945
 31
0.0
 11
-48.3737504385
 21
0.2666599819
 31
0.0
 11
-48.3737504385
 21
-10.3093492377
 31
0.0
 11
-48.3765270768
 21
-20.8805322005
 31
0.0
 11
-48.3820778176
 21
-31.437234024
 31
0.0
 11
-48.3903975267
 21
-41.9697315869
 31
0.0
  0
SPLINE
  5
4B8
100
AcDbEntity
  8
RACCORDO
100
AcDbSpline
 62
253
  6
CONTINUOUS
 70
0
 71
3
 72
14
 73
10
 74
8
 42
0.0000001
 43
0.0000001
 44
0.0000000001
 12
-0.0681678595
 22
73.8967496221
 32
0.0
 13
0.0681678608
 23
73.8967496221
 33
0.0
 40
0.0
 40
0.0
 40
0.0
 40
0.0
 40
0.1425299005
 40
0.2853873177
 40
0.4284406845
 40
0.5715593572
 40
0.714612724
 40
0.8574701412
 40
1.0
 40
1.0
 40
1.0
 40
1.0
 10
48.3903975267
 20
-41.9697315891
 30
0.0
 10
48.387158874
 20
-38.4588994659
 30
0.0
 10
48.3816085768
 20
-31.4291668485
 30
0.0
 10
48.3760620867
 20
-20.875705703
 30
0.0
 10
48.3732875598
 20
-10.3077406672
 30
0.0
 10
48.3732875598
 20
0.2650514116
 30
0.0
 10
48.3760620866
 20
10.8330164474
 30
0.0
 10
48.3816085762
 20
21.3864765667
 30
0.0
 10
48.3871588724
 20
28.4162081578
 30
0.0
 10
48.3903975243
 20
31.9270392548
 30
0.0
 11
48.3903975267
 21
-41.9697315891
 31
0.0
 11
48.3820778176
 21
-31.437234024
 31
0.0
 11
48.3765270768
 21
-20.8805322005
 31
0.0
 11
48.3737504385
 21
-10.3093492377
 31
0.0
 11
48.3737504385
 21
0.2666599819
 31
0.0
 11
48.3765270767
 21
10.837842945
 31
0.0
 11
48.3820778176
 21
21.3945447684
 31
0.0
 11
48.3903975243
 21
31.9270392548
 31
0.0
  0
SPLINE
  5
4B9
100
AcDbEntity
  8
RACCORDO
100
AcDbSpline
 62
253
  6
CONTINUOUS
 70
0
 71
3
 72
29
 73
25
 74
23
 42
0.0000001
 43
0.0000001
 44
0.0000000001
 12
-11.1378234181
 22
0.0001363334
 32
0.0
 13
11.1378234176
 23
0.0001731978
 33
0.0
 40
0.0
 40
0.0
 40
0.0
 40
0.0
 40
0.0340650972
 40
0.0732710117
 40
0.1164042907
 40
0.1623401323
 40
0.2099692068
 40
0.2583944461
 40
0.3070750922
 40
0.3556708448
 40
0.4042340375
 40
0.4528431262
 40
0.5014873872
 40
0.5501398347
 40
0.5987675508
 40
0.6473566633
 40
0.6959965829
 40
0.7447211376
 40
0.7930891746
 40
0.8404688812
 40
0.8859322189
 40
0.9284031891
 40
0.9668099557
 40
1.0
 40
1.0
 40
1.0
 40
1.0
 10
-41.0
 20
18.4436569695
 30
0.0
 10
-41.1264703458
 20
18.4436585175
 30
0.0
 10
-41.3987048392
 20
18.4582382129
 30
0.0
 10
-41.8257814999
 20
18.5309812987
 30
0.0
 10
-42.2824221114
 20
18.6712885671
 30
0.0
 10
-42.7435956859
 20
18.8873427394
 30
0.0
 10
-43.1846891999
 20
19.1796016993
 30
0.0
 10
-43.5844514639
 20
19.5417722667
 30
0.0
 10
-43.9268245177
 20
19.9632941844
 30
0.0
 10
-44.2013201423
 20
20.432441527
 30
0.0
 10
-44.4012418968
 20
20.937599606
 30
0.0
 10
-44.5221286389
 20
21.4674489429
 30
0.0
 10
-44.5610704819
 20
22.0098529003
 30
0.0
 10
-44.5170480485
 20
22.5519385795
 30
0.0
 10
-44.3911388195
 20
23.0808206839
 30
0.0
 10
-44.1863146625
 20
23.5843703489
 30
0.0
 10
-43.9071140468
 20
24.0512326439
 30
0.0
 10
-43.5605804801
 20
24.4694960347
 30
0.0
 10
-43.1580552393
 20
24.8271143055
 30
0.0
 10
-42.7167347753
 20
25.1136969145
 30
0.0
 10
-42.258546782
 20
25.3238448157
 30
0.0
 10
-41.8079705862
 20
25.4591831382
 30
0.0
 10
-41.3892248014
 20
25.528779291
 30
0.0
 10
-41.1232216174
 20
25.5426575625
 30
0.0
 10
-41.0
 20
25.5426594786
 30
0.0
 11
-41.0
 21
18.4436569695
 31
0.0
 11
-41.3788673658
 21
18.4639610205
 31
0.0
 11
-41.8093365725
 21
18.5372800974
 31
0.0
 11
-42.2685561817
 21
18.6783897377
 31
0.0
 11
-42.7318583422
 21
18.8954416855
 31
0.0
 11
-43.1740803211
 21
19.1884489041
 31
0.0
 11
-43.5737916675
 21
19.550569278
 31
0.0
 11
-43.915631365
 21
19.9714286382
 31
0.0
 11
-44.1889691002
 21
20.4385892436
 31
0.0
 11
-44.3880130602
 21
20.941522258
 31
0.0
 11
-44.5084419629
 21
21.4693576878
 31
0.0
 11
-44.5472404605
 21
22.0097578812
 31
0.0
 11
-44.5033783017
 21
22.5498621421
 31
0.0
 11
-44.3779436026
 21
23.076743711
 31
0.0
 11
-44.1740348455
 21
23.5780357565
 31
0.0
 11
-43.8959786256
 21
24.0429766544
 31
0.0
 11
-43.5497490382
 21
24.4608673227
 31
0.0
 11
-43.1470166671
 21
24.8186663121
 31
0.0
 11
-42.7044384628
 21
25.1060667385
 31
0.0
 11
-42.2441777487
 21
25.3171666827
 31
0.0
 11
-41.7911416258
 21
25.4532533972
 31
0.0
 11
-41.3691620471
 21
25.5233855051
 31
0.0
 11
-41.0
 21
25.5426594786
 31
0.0
  0
SPLINE
  5
4BA
100
AcDbEntity
  8
RACCORDO
100
AcDbSpline
 62
253
  6
CONTINUOUS
 70
0
 71
3
 72
29
 73
25
 74
23
 42
0.0000001
 43
0.0000001
 44
0.0000000001
 12
11.1378238237
 22
-0.0001312776
 32
0.0
 13
-11.1378238231
 23
-0.0001781351
 33
0.0
 40
0.0
 40
0.0
 40
0.0
 40
0.0
 40
0.0337692282
 40
0.0726546379
 40
0.1154927839
 40
0.161205238
 40
0.2087230806
 40
0.2571474043
 40
0.3058703099
 40
0.354498167
 40
0.403083502
 40
0.4517108789
 40
0.5003627732
 40
0.5490059858
 40
0.5976141952
 40
0.6461797371
 40
0.6947853792
 40
0.7434672675
 40
0.7918418018
 40
0.8393417796
 40
0.8850336946
 40
0.9277994077
 40
0.966521857
 40
1.0
 40
1.0
 40
1.0
 40
1.0
 10
-41.0
 20
25.5426594786
 30
0.0
 10
-40.8746280952
 20
25.5426580009
 30
0.0
 10
-40.6046873045
 20
25.5283268644
 30
0.0
 10
-40.1808687585
 20
25.4567646667
 30
0.0
 10
-39.7269004831
 20
25.3184718551
 30
0.0
 10
-39.2671769319
 20
25.104899652
 30
0.0
 10
-38.8260442459
 20
24.8149869832
 30
0.0
 10
-38.425058233
 20
24.4545608848
 30
0.0
 10
-38.0808868033
 20
24.034147085
 30
0.0
 10
-37.8044557072
 20
23.5657166153
 30
0.0
 10
-37.6025899027
 20
23.0610389915
 30
0.0
 10
-37.4797626731
 20
22.5314505293
 30
0.0
 10
-37.4388931909
 20
21.9891253181
 30
0.0
 10
-37.4809857954
 20
21.4469661112
 30
0.0
 10
-37.6049487024
 20
20.9178264495
 30
0.0
 10
-37.807819077
 20
20.4137994104
 30
0.0
 10
-38.0850726731
 20
19.9462171317
 30
0.0
 10
-38.4298132138
 20
19.5268196453
 30
0.0
 10
-38.8311619976
 20
19.1674111679
 30
0.0
 10
-39.2725249242
 20
18.8784510148
 30
0.0
 10
-39.7322327572
 20
18.6658299004
 30
0.0
 10
-40.1854969491
 20
18.5285154545
 30
0.0
 10
-40.6074589454
 20
18.4577760746
 30
0.0
 10
-40.8757087806
 20
18.4436589573
 30
0.0
 10
-41.0
 20
18.4436569695
 30
0.0
 11
-41.0
 21
25.5426594786
 31
0.0
 11
-40.6244139073
 21
25.5227065919
 31
0.0
 11
-40.1973597964
 21
25.4505997697
 31
0.0
 11
-39.740946735
 21
25.3115524229
 31
0.0
 11
-39.2792045482
 21
25.0970415788
 31
0.0
 11
-38.8369234513
 21
24.8063732419
 31
0.0
 11
-38.4358027845
 21
24.4458298225
 31
0.0
 11
-38.0920450088
 21
24.0259271972
 31
0.0
 11
-37.8167816323
 21
23.559483367
 31
0.0
 11
-37.6158112291
 21
23.0570514024
 31
0.0
 11
-37.4934438423
 21
22.5294528786
 31
0.0
 11
-37.4527230756
 21
21.9891088542
 31
0.0
 11
-37.4946605596
 21
21.4489548859
 31
0.0
 11
-37.6181514041
 21
20.9218374527
 31
0.0
 11
-37.8201250044
 21
20.4200455568
 31
0.0
 11
-38.0962392252
 21
19.9543925161
 31
0.0
 11
-38.4405447451
 21
19.5355301123
 31
0.0
 11
-38.8419203631
 21
19.1761012758
 31
0.0
 11
-39.2845426793
 21
18.8863159021
 31
0.0
 11
-39.7464389702
 21
18.6726814558
 31
0.0
 11
-40.2022939581
 21
18.5345724639
 31
0.0
 11
-40.6276423604
 21
18.4632669984
 31
0.0
 11
-41.0
 21
18.4436569695
 31
0.0
  0
SPLINE
  5
4BB
100
AcDbEntity
  8
RACCORDO
100
AcDbSpline
 62
253
  6
CONTINUOUS
 70
0
 71
3
 72
29
 73
25
 74
23
 42
0.0000001
 43
0.0000001
 44
0.0000000001
 12
11.1378238237
 22
-0.0001312776
 32
0.0
 13
-11.1378238231
 23
-0.0001781351
 33
0.0
 40
0.0
 40
0.0
 40
0.0
 40
0.0
 40
0.0337692282
 40
0.0726546379
 40
0.1154927839
 40
0.161205238
 40
0.2087230806
 40
0.2571474043
 40
0.3058703099
 40
0.354498167
 40
0.403083502
 40
0.4517108789
 40
0.5003627732
 40
0.5490059858
 40
0.5976141952
 40
0.6461797371
 40
0.6947853792
 40
0.7434672675
 40
0.7918418018
 40
0.8393417796
 40
0.8850336946
 40
0.9277994077
 40
0.966521857
 40
1.0
 40
1.0
 40
1.0
 40
1.0
 10
41.0
 20
25.5426594786
 30
0.0
 10
41.1253719048
 20
25.5426580009
 30
0.0
 10
41.3953126955
 20
25.5283268644
 30
0.0
 10
41.8191312415
 20
25.4567646667
 30
0.0
 10
42.2730995169
 20
25.3184718551
 30
0.0
 10
42.7328230681
 20
25.104899652
 30
0.0
 10
43.1739557541
 20
24.8149869832
 30
0.0
 10
43.574941767
 20
24.4545608848
 30
0.0
 10
43.9191131967
 20
24.0341470849
 30
0.0
 10
44.1955442928
 20
23.5657166153
 30
0.0
 10
44.3974100973
 20
23.0610389915
 30
0.0
 10
44.5202373269
 20
22.5314505293
 30
0.0
 10
44.5611068091
 20
21.9891253181
 30
0.0
 10
44.5190142046
 20
21.4469661112
 30
0.0
 10
44.3950512976
 20
20.9178264495
 30
0.0
 10
44.192180923
 20
20.4137994104
 30
0.0
 10
43.9149273269
 20
19.9462171317
 30
0.0
 10
43.5701867862
 20
19.5268196453
 30
0.0
 10
43.1688380024
 20
19.1674111679
 30
0.0
 10
42.7274750758
 20
18.8784510148
 30
0.0
 10
42.2677672429
 20
18.6658299004
 30
0.0
 10
41.8145030509
 20
18.5285154545
 30
0.0
 10
41.3925410546
 20
18.4577760746
 30
0.0
 10
41.1242912194
 20
18.4436589573
 30
0.0
 10
41.0
 20
18.4436569695
 30
0.0
 11
41.0
 21
25.5426594786
 31
0.0
 11
41.3755860927
 21
25.5227065919
 31
0.0
 11
41.8026402036
 21
25.4505997697
 31
0.0
 11
42.259053265
 21
25.3115524229
 31
0.0
 11
42.7207954518
 21
25.0970415788
 31
0.0
 11
43.1630765487
 21
24.8063732419
 31
0.0
 11
43.5641972155
 21
24.4458298225
 31
0.0
 11
43.9079549912
 21
24.0259271972
 31
0.0
 11
44.1832183677
 21
23.559483367
 31
0.0
 11
44.3841887709
 21
23.0570514024
 31
0.0
 11
44.5065561577
 21
22.5294528786
 31
0.0
 11
44.5472769244
 21
21.9891088542
 31
0.0
 11
44.5053394404
 21
21.4489548859
 31
0.0
 11
44.3818485959
 21
20.9218374527
 31
0.0
 11
44.1798749956
 21
20.4200455568
 31
0.0
 11
43.9037607748
 21
19.9543925161
 31
0.0
 11
43.5594552549
 21
19.5355301123
 31
0.0
 11
43.1580796369
 21
19.1761012758
 31
0.0
 11
42.7154573207
 21
18.8863159021
 31
0.0
 11
42.2535610298
 21
18.6726814558
 31
0.0
 11
41.7977060419
 21
18.5345724639
 31
0.0
 11
41.3723576396
 21
18.4632669984
 31
0.0
 11
41.0
 21
18.4436569695
 31
0.0
  0
SPLINE
  5
4BC
100
AcDbEntity
  8
RACCORDO
100
AcDbSpline
 62
253
  6
CONTINUOUS
 70
0
 71
3
 72
29
 73
25
 74
23
 42
0.0000001
 43
0.0000001
 44
0.0000000001
 12
-11.1378234181
 22
0.0001363334
 32
0.0
 13
11.1378234176
 23
0.0001731978
 33
0.0
 40
0.0
 40
0.0
 40
0.0
 40
0.0
 40
0.0340650972
 40
0.0732710117
 40
0.1164042907
 40
0.1623401323
 40
0.2099692068
 40
0.2583944461
 40
0.3070750922
 40
0.3556708448
 40
0.4042340375
 40
0.4528431262
 40
0.5014873872
 40
0.5501398347
 40
0.5987675508
 40
0.6473566633
 40
0.6959965829
 40
0.7447211376
 40
0.7930891746
 40
0.8404688812
 40
0.8859322189
 40
0.9284031891
 40
0.9668099557
 40
1.0
 40
1.0
 40
1.0
 40
1.0
 10
41.0
 20
18.4436569695
 30
0.0
 10
40.8735296542
 20
18.4436585175
 30
0.0
 10
40.6012951608
 20
18.4582382129
 30
0.0
 10
40.1742185001
 20
18.5309812987
 30
0.0
 10
39.7175778886
 20
18.6712885671
 30
0.0
 10
39.2564043141
 20
18.8873427394
 30
0.0
 10
38.8153108001
 20
19.1796016993
 30
0.0
 10
38.4155485361
 20
19.5417722667
 30
0.0
 10
38.0731754823
 20
19.9632941844
 30
0.0
 10
37.7986798577
 20
20.432441527
 30
0.0
 10
37.5987581032
 20
20.937599606
 30
0.0
 10
37.4778713611
 20
21.4674489429
 30
0.0
 10
37.4389295181
 20
22.0098529003
 30
0.0
 10
37.4829519515
 20
22.5519385795
 30
0.0
 10
37.6088611805
 20
23.0808206839
 30
0.0
 10
37.8136853375
 20
23.5843703489
 30
0.0
 10
38.0928859532
 20
24.0512326439
 30
0.0
 10
38.4394195199
 20
24.4694960347
 30
0.0
 10
38.8419447607
 20
24.8271143055
 30
0.0
 10
39.2832652247
 20
25.1136969145
 30
0.0
 10
39.741453218
 20
25.3238448157
 30
0.0
 10
40.1920294138
 20
25.4591831382
 30
0.0
 10
40.6107751986
 20
25.528779291
 30
0.0
 10
40.8767783826
 20
25.5426575625
 30
0.0
 10
41.0
 20
25.5426594786
 30
0.0
 11
41.0
 21
18.4436569695
 31
0.0
 11
40.6211326342
 21
18.4639610205
 31
0.0
 11
40.1906634275
 21
18.5372800974
 31
0.0
 11
39.7314438183
 21
18.6783897377
 31
0.0
 11
39.2681416578
 21
18.8954416855
 31
0.0
 11
38.8259196789
 21
19.188448904
 31
0.0
 11
38.4262083325
 21
19.550569278
 31
0.0
 11
38.084368635
 21
19.9714286382
 31
0.0
 11
37.8110308998
 21
20.4385892436
 31
0.0
 11
37.6119869398
 21
20.941522258
 31
0.0
 11
37.4915580371
 21
21.4693576878
 31
0.0
 11
37.4527595395
 21
22.0097578812
 31
0.0
 11
37.4966216983
 21
22.5498621421
 31
0.0
 11
37.6220563974
 21
23.076743711
 31
0.0
 11
37.8259651545
 21
23.5780357565
 31
0.0
 11
38.1040213744
 21
24.0429766544
 31
0.0
 11
38.4502509618
 21
24.4608673227
 31
0.0
 11
38.8529833329
 21
24.8186663121
 31
0.0
 11
39.2955615372
 21
25.1060667385
 31
0.0
 11
39.7558222513
 21
25.3171666827
 31
0.0
 11
40.2088583742
 21
25.4532533972
 31
0.0
 11
40.6308379529
 21
25.5233855051
 31
0.0
 11
41.0
 21
25.5426594786
 31
0.0
  0
SPLINE
  5
4BD
100
AcDbEntity
  8
RACCORDO
100
AcDbSpline
 62
253
  6
CONTINUOUS
 70
0
 71
3
 72
29
 73
25
 74
23
 42
0.0000001
 43
0.0000001
 44
0.0000000001
 12
11.1378234181
 22
-0.0001363334
 32
0.0
 13
-11.1378234176
 23
-0.0001731978
 33
0.0
 40
0.0
 40
0.0
 40
0.0
 40
0.0
 40
0.0340650972
 40
0.0732710117
 40
0.1164042907
 40
0.1623401323
 40
0.2099692068
 40
0.2583944461
 40
0.3070750922
 40
0.3556708448
 40
0.4042340375
 40
0.4528431262
 40
0.5014873872
 40
0.5501398347
 40
0.5987675508
 40
0.6473566633
 40
0.6959965829
 40
0.7447211376
 40
0.7930891746
 40
0.8404688812
 40
0.8859322189
 40
0.9284031891
 40
0.9668099557
 40
1.0
 40
1.0
 40
1.0
 40
1.0
 10
41.0
 20
-28.4863462247
 30
0.0
 10
41.1264703458
 20
-28.4863477728
 30
0.0
 10
41.3987048392
 20
-28.5009274682
 30
0.0
 10
41.8257814999
 20
-28.573670554
 30
0.0
 10
42.2824221114
 20
-28.7139778224
 30
0.0
 10
42.7435956859
 20
-28.9300319947
 30
0.0
 10
43.1846891999
 20
-29.2222909545
 30
0.0
 10
43.5844514639
 20
-29.584461522
 30
0.0
 10
43.9268245177
 20
-30.0059834397
 30
0.0
 10
44.2013201423
 20
-30.4751307823
 30
0.0
 10
44.4012418968
 20
-30.9802888613
 30
0.0
 10
44.5221286389
 20
-31.5101381981
 30
0.0
 10
44.5610704819
 20
-32.0525421556
 30
0.0
 10
44.5170480485
 20
-32.5946278348
 30
0.0
 10
44.3911388196
 20
-33.1235099392
 30
0.0
 10
44.1863146625
 20
-33.6270596042
 30
0.0
 10
43.9071140468
 20
-34.0939218991
 30
0.0
 10
43.5605804801
 20
-34.51218529
 30
0.0
 10
43.1580552393
 20
-34.8698035608
 30
0.0
 10
42.7167347753
 20
-35.1563861698
 30
0.0
 10
42.258546782
 20
-35.3665340709
 30
0.0
 10
41.8079705862
 20
-35.5018723934
 30
0.0
 10
41.3892248014
 20
-35.5714685463
 30
0.0
 10
41.1232216174
 20
-35.5853468177
 30
0.0
 10
41.0
 20
-35.5853487339
 30
0.0
 11
41.0
 21
-28.4863462247
 31
0.0
 11
41.3788673658
 21
-28.5066502758
 31
0.0
 11
41.8093365725
 21
-28.5799693527
 31
0.0
 11
42.2685561817
 21
-28.721078993
 31
0.0
 11
42.7318583422
 21
-28.9381309408
 31
0.0
 11
43.1740803211
 21
-29.2311381593
 31
0.0
 11
43.5737916674
 21
-29.5932585333
 31
0.0
 11
43.915631365
 21
-30.0141178934
 31
0.0
 11
44.1889691002
 21
-30.4812784988
 31
0.0
 11
44.3880130602
 21
-30.9842115132
 31
0.0
 11
44.5084419629
 21
-31.5120469431
 31
0.0
 11
44.5472404605
 21
-32.0524471365
 31
0.0
 11
44.5033783017
 21
-32.5925513973
 31
0.0
 11
44.3779436026
 21
-33.1194329662
 31
0.0
 11
44.1740348455
 21
-33.6207250118
 31
0.0
 11
43.8959786256
 21
-34.0856659097
 31
0.0
 11
43.5497490382
 21
-34.503556578
 31
0.0
 11
43.1470166671
 21
-34.8613555674
 31
0.0
 11
42.7044384629
 21
-35.1487559938
 31
0.0
 11
42.2441777487
 21
-35.359855938
 31
0.0
 11
41.7911416258
 21
-35.4959426525
 31
0.0
 11
41.3691620471
 21
-35.5660747604
 31
0.0
 11
41.0
 21
-35.5853487339
 31
0.0
  0
SPLINE
  5
4BE
100
AcDbEntity
  8
RACCORDO
100
AcDbSpline
 62
253
  6
CONTINUOUS
 70
0
 71
3
 72
29
 73
25
 74
23
 42
0.0000001
 43
0.0000001
 44
0.0000000001
 12
-11.1378238237
 22
0.0001312776
 32
0.0
 13
11.1378238231
 23
0.0001781351
 33
0.0
 40
0.0
 40
0.0
 40
0.0
 40
0.0
 40
0.0337692282
 40
0.0726546379
 40
0.1154927839
 40
0.161205238
 40
0.2087230806
 40
0.2571474043
 40
0.3058703099
 40
0.354498167
 40
0.403083502
 40
0.4517108789
 40
0.5003627732
 40
0.5490059858
 40
0.5976141952
 40
0.6461797371
 40
0.6947853792
 40
0.7434672675
 40
0.7918418018
 40
0.8393417796
 40
0.8850336946
 40
0.9277994077
 40
0.966521857
 40
1.0
 40
1.0
 40
1.0
 40
1.0
 10
41.0
 20
-35.5853487339
 30
0.0
 10
40.8746280952
 20
-35.5853472562
 30
0.0
 10
40.6046873045
 20
-35.5710161196
 30
0.0
 10
40.1808687585
 20
-35.499453922
 30
0.0
 10
39.7269004831
 20
-35.3611611104
 30
0.0
 10
39.2671769319
 20
-35.1475889072
 30
0.0
 10
38.8260442459
 20
-34.8576762385
 30
0.0
 10
38.425058233
 20
-34.4972501401
 30
0.0
 10
38.0808868033
 20
-34.0768363402
 30
0.0
 10
37.8044557072
 20
-33.6084058706
 30
0.0
 10
37.6025899027
 20
-33.1037282468
 30
0.0
 10
37.4797626731
 20
-32.5741397846
 30
0.0
 10
37.4388931909
 20
-32.0318145734
 30
0.0
 10
37.4809857954
 20
-31.4896553665
 30
0.0
 10
37.6049487024
 20
-30.9605157048
 30
0.0
 10
37.807819077
 20
-30.4564886657
 30
0.0
 10
38.085072673
 20
-29.988906387
 30
0.0
 10
38.4298132138
 20
-29.5695089006
 30
0.0
 10
38.8311619976
 20
-29.2101004232
 30
0.0
 10
39.2725249241
 20
-28.9211402701
 30
0.0
 10
39.7322327571
 20
-28.7085191557
 30
0.0
 10
40.1854969491
 20
-28.5712047098
 30
0.0
 10
40.6074589454
 20
-28.5004653299
 30
0.0
 10
40.8757087806
 20
-28.4863482126
 30
0.0
 10
41.0
 20
-28.4863462247
 30
0.0
 11
41.0
 21
-35.5853487339
 31
0.0
 11
40.6244139073
 21
-35.5653958472
 31
0.0
 11
40.1973597964
 21
-35.493289025
 31
0.0
 11
39.7409467351
 21
-35.3542416781
 31
0.0
 11
39.2792045482
 21
-35.1397308341
 31
0.0
 11
38.8369234513
 21
-34.8490624972
 31
0.0
 11
38.4358027846
 21
-34.4885190778
 31
0.0
 11
38.0920450088
 21
-34.0686164525
 31
0.0
 11
37.8167816323
 21
-33.6021726223
 31
0.0
 11
37.6158112291
 21
-33.0997406577
 31
0.0
 11
37.4934438423
 21
-32.5721421339
 31
0.0
 11
37.4527230756
 21
-32.0317981095
 31
0.0
 11
37.4946605596
 21
-31.4916441412
 31
0.0
 11
37.6181514041
 21
-30.964526708
 31
0.0
 11
37.8201250044
 21
-30.4627348121
 31
0.0
 11
38.0962392252
 21
-29.9970817714
 31
0.0
 11
38.4405447451
 21
-29.5782193676
 31
0.0
 11
38.841920363
 21
-29.2187905311
 31
0.0
 11
39.2845426792
 21
-28.9290051574
 31
0.0
 11
39.7464389701
 21
-28.7153707111
 31
0.0
 11
40.202293958
 21
-28.5772617192
 31
0.0
 11
40.6276423604
 21
-28.5059562536
 31
0.0
 11
41.0
 21
-28.4863462247
 31
0.0
  0
SPLINE
  5
4BF
100
AcDbEntity
  8
RACCORDO
100
AcDbSpline
 62
253
  6
CONTINUOUS
 70
0
 71
3
 72
29
 73
25
 74
23
 42
0.0000001
 43
0.0000001
 44
0.0000000001
 12
-11.1378238237
 22
0.0001312776
 32
0.0
 13
11.1378238231
 23
0.0001781351
 33
0.0
 40
0.0
 40
0.0
 40
0.0
 40
0.0
 40
0.0337692282
 40
0.0726546379
 40
0.1154927839
 40
0.161205238
 40
0.2087230806
 40
0.2571474043
 40
0.3058703099
 40
0.354498167
 40
0.403083502
 40
0.4517108789
 40
0.5003627732
 40
0.5490059858
 40
0.5976141952
 40
0.6461797371
 40
0.6947853792
 40
0.7434672675
 40
0.7918418018
 40
0.8393417796
 40
0.8850336946
 40
0.9277994077
 40
0.966521857
 40
1.0
 40
1.0
 40
1.0
 40
1.0
 10
-41.0
 20
-35.5853487339
 30
0.0
 10
-41.1253719048
 20
-35.5853472562
 30
0.0
 10
-41.3953126955
 20
-35.5710161196
 30
0.0
 10
-41.8191312415
 20
-35.499453922
 30
0.0
 10
-42.2730995169
 20
-35.3611611104
 30
0.0
 10
-42.7328230681
 20
-35.1475889072
 30
0.0
 10
-43.1739557541
 20
-34.8576762385
 30
0.0
 10
-43.574941767
 20
-34.4972501401
 30
0.0
 10
-43.9191131967
 20
-34.0768363402
 30
0.0
 10
-44.1955442928
 20
-33.6084058706
 30
0.0
 10
-44.3974100973
 20
-33.1037282468
 30
0.0
 10
-44.5202373269
 20
-32.5741397846
 30
0.0
 10
-44.5611068091
 20
-32.0318145734
 30
0.0
 10
-44.5190142046
 20
-31.4896553665
 30
0.0
 10
-44.3950512976
 20
-30.9605157048
 30
0.0
 10
-44.1921809231
 20
-30.4564886657
 30
0.0
 10
-43.914927327
 20
-29.988906387
 30
0.0
 10
-43.5701867862
 20
-29.5695089006
 30
0.0
 10
-43.1688380024
 20
-29.2101004232
 30
0.0
 10
-42.7274750759
 20
-28.9211402701
 30
0.0
 10
-42.2677672429
 20
-28.7085191557
 30
0.0
 10
-41.8145030509
 20
-28.5712047098
 30
0.0
 10
-41.3925410546
 20
-28.5004653299
 30
0.0
 10
-41.1242912194
 20
-28.4863482126
 30
0.0
 10
-41.0
 20
-28.4863462247
 30
0.0
 11
-41.0
 21
-35.5853487339
 31
0.0
 11
-41.3755860927
 21
-35.5653958472
 31
0.0
 11
-41.8026402036
 21
-35.493289025
 31
0.0
 11
-42.259053265
 21
-35.3542416781
 31
0.0
 11
-42.7207954518
 21
-35.1397308341
 31
0.0
 11
-43.1630765487
 21
-34.8490624972
 31
0.0
 11
-43.5641972154
 21
-34.4885190778
 31
0.0
 11
-43.9079549912
 21
-34.0686164525
 31
0.0
 11
-44.1832183677
 21
-33.6021726223
 31
0.0
 11
-44.3841887709
 21
-33.0997406577
 31
0.0
 11
-44.5065561577
 21
-32.5721421339
 31
0.0
 11
-44.5472769244
 21
-32.0317981095
 31
0.0
 11
-44.5053394404
 21
-31.4916441412
 31
0.0
 11
-44.3818485959
 21
-30.964526708
 31
0.0
 11
-44.1798749956
 21
-30.4627348121
 31
0.0
 11
-43.9037607748
 21
-29.9970817714
 31
0.0
 11
-43.5594552549
 21
-29.5782193676
 31
0.0
 11
-43.158079637
 21
-29.2187905311
 31
0.0
 11
-42.7154573208
 21
-28.9290051574
 31
0.0
 11
-42.2535610299
 21
-28.7153707111
 31
0.0
 11
-41.797706042
 21
-28.5772617192
 31
0.0
 11
-41.3723576396
 21
-28.5059562536
 31
0.0
 11
-41.0
 21
-28.4863462247
 31
0.0
  0
SPLINE
  5
4C0
100
AcDbEntity
  8
RACCORDO
100
AcDbSpline
 62
253
  6
CONTINUOUS
 70
0
 71
3
 72
29
 73
25
 74
23
 42
0.0000001
 43
0.0000001
 44
0.0000000001
 12
11.1378234181
 22
-0.0001363334
 32
0.0
 13
-11.1378234176
 23
-0.0001731978
 33
0.0
 40
0.0
 40
0.0
 40
0.0
 40
0.0
 40
0.0340650972
 40
0.0732710117
 40
0.1164042907
 40
0.1623401323
 40
0.2099692068
 40
0.2583944461
 40
0.3070750922
 40
0.3556708448
 40
0.4042340375
 40
0.4528431262
 40
0.5014873872
 40
0.5501398347
 40
0.5987675508
 40
0.6473566633
 40
0.6959965829
 40
0.7447211376
 40
0.7930891746
 40
0.8404688812
 40
0.8859322189
 40
0.9284031891
 40
0.9668099557
 40
1.0
 40
1.0
 40
1.0
 40
1.0
 10
-41.0
 20
-28.4863462247
 30
0.0
 10
-40.8735296542
 20
-28.4863477728
 30
0.0
 10
-40.6012951608
 20
-28.5009274682
 30
0.0
 10
-40.1742185001
 20
-28.573670554
 30
0.0
 10
-39.7175778886
 20
-28.7139778224
 30
0.0
 10
-39.2564043141
 20
-28.9300319947
 30
0.0
 10
-38.8153108001
 20
-29.2222909545
 30
0.0
 10
-38.4155485361
 20
-29.584461522
 30
0.0
 10
-38.0731754823
 20
-30.0059834397
 30
0.0
 10
-37.7986798577
 20
-30.4751307823
 30
0.0
 10
-37.5987581032
 20
-30.9802888613
 30
0.0
 10
-37.4778713611
 20
-31.5101381981
 30
0.0
 10
-37.4389295181
 20
-32.0525421556
 30
0.0
 10
-37.4829519515
 20
-32.5946278348
 30
0.0
 10
-37.6088611804
 20
-33.1235099392
 30
0.0
 10
-37.8136853375
 20
-33.6270596042
 30
0.0
 10
-38.0928859532
 20
-34.0939218991
 30
0.0
 10
-38.4394195199
 20
-34.51218529
 30
0.0
 10
-38.8419447607
 20
-34.8698035608
 30
0.0
 10
-39.2832652247
 20
-35.1563861698
 30
0.0
 10
-39.741453218
 20
-35.3665340709
 30
0.0
 10
-40.1920294138
 20
-35.5018723934
 30
0.0
 10
-40.6107751986
 20
-35.5714685463
 30
0.0
 10
-40.8767783826
 20
-35.5853468177
 30
0.0
 10
-41.0
 20
-35.5853487339
 30
0.0
 11
-41.0
 21
-28.4863462247
 31
0.0
 11
-40.6211326342
 21
-28.5066502758
 31
0.0
 11
-40.1906634275
 21
-28.5799693527
 31
0.0
 11
-39.7314438183
 21
-28.721078993
 31
0.0
 11
-39.2681416578
 21
-28.9381309408
 31
0.0
 11
-38.8259196789
 21
-29.2311381593
 31
0.0
 11
-38.4262083326
 21
-29.5932585333
 31
0.0
 11
-38.084368635
 21
-30.0141178934
 31
0.0
 11
-37.8110308998
 21
-30.4812784988
 31
0.0
 11
-37.6119869398
 21
-30.9842115132
 31
0.0
 11
-37.4915580371
 21
-31.5120469431
 31
0.0
 11
-37.4527595395
 21
-32.0524471365
 31
0.0
 11
-37.4966216983
 21
-32.5925513973
 31
0.0
 11
-37.6220563974
 21
-33.1194329662
 31
0.0
 11
-37.8259651545
 21
-33.6207250118
 31
0.0
 11
-38.1040213744
 21
-34.0856659097
 31
0.0
 11
-38.4502509618
 21
-34.503556578
 31
0.0
 11
-38.8529833329
 21
-34.8613555674
 31
0.0
 11
-39.2955615371
 21
-35.1487559938
 31
0.0
 11
-39.7558222513
 21
-35.359855938
 31
0.0
 11
-40.2088583742
 21
-35.4959426525
 31
0.0
 11
-40.6308379529
 21
-35.5660747604
 31
0.0
 11
-41.0
 21
-35.5853487339
 31
0.0
  0
SPLINE
  5
4C1
100
AcDbEntity
  8
RACCORDO
100
AcDbSpline
 62
253
  6
CONTINUOUS
 70
0
 71
3
 72
12
 73
8
 74
6
 42
0.0000001
 43
0.0000001
 44
0.0000000001
 12
-0.2512499761
 22
-0.0002789857
 32
0.0
 13
-0.0662132374
 23
-0.242368388
 33
0.0
 40
0.0
 40
0.0
 40
0.0
 40
0.0
 40
0.3041995079
 40
0.5794076307
 40
0.7994508743
 40
0.943633745
 40
1.0
 40
1.0
 40
1.0
 40
1.0
 10
37.7943514279
 20
17.2890189251
 30
0.0
 10
37.7688747215
 20
17.288990636
 30
0.0
 10
37.7200828413
 20
17.288616381
 30
0.0
 10
37.6541851605
 20
17.2859651371
 30
0.0
 10
37.5980484711
 20
17.2842483846
 30
0.0
 10
37.5682599809
 20
17.2777929101
 30
0.0
 10
37.5456335682
 20
17.2776367521
 30
0.0
 10
37.5443895041
 20
17.2730829527
 30
0.0
 11
37.7943514279
 21
17.2890189251
 31
0.0
 11
37.7179259635
 21
17.2881711637
 31
0.0
 11
37.6488178967
 21
17.2858787732
 31
0.0
 11
37.593644017
 21
17.2823612398
 31
0.0
 11
37.5576869773
 21
17.2779553515
 31
0.0
 11
37.5443895041
 21
17.2730829527
 31
0.0
  0
SPLINE
  5
4C2
100
AcDbEntity
  8
RACCORDO
100
AcDbSpline
 62
253
  6
CONTINUOUS
 70
0
 71
3
 72
12
 73
8
 74
6
 42
0.0000001
 43
0.0000001
 44
0.0000000001
 12
0.251249532
 22
-0.0002790491
 32
0.0
 13
0.0662127187
 23
-0.2423680694
 33
0.0
 40
0.0
 40
0.0
 40
0.0
 40
0.0
 40
0.3041997608
 40
0.579407901
 40
0.7994510425
 40
0.9436337962
 40
1.0
 40
1.0
 40
1.0
 40
1.0
 10
-37.7943514279
 20
17.2890189646
 30
0.0
 10
-37.7688747454
 20
17.288990669
 30
0.0
 10
-37.7200829281
 20
17.2886164029
 30
0.0
 10
-37.6541853521
 20
17.2859651501
 30
0.0
 10
-37.5980487767
 20
17.284248382
 30
0.0
 10
-37.5682603661
 20
17.2777929227
 30
0.0
 10
-37.5456340063
 20
17.277636742
 30
0.0
 10
-37.5443899531
 20
17.2730829527
 30
0.0
 11
-37.7943514279
 21
17.2890189646
 31
0.0
 11
-37.7179260352
 21
17.2881711858
 31
0.0
 11
-37.6488180867
 21
17.285878783
 31
0.0
 11
-37.593644331
 21
17.2823612427
 31
0.0
 11
-37.5576873858
 21
17.2779553518
 31
0.0
 11
-37.5443899531
 21
17.2730829527
 31
0.0
  0
SPLINE
  5
4C3
100
AcDbEntity
  8
RACCORDO
100
AcDbSpline
 62
253
  6
CONTINUOUS
 70
0
 71
3
 72
14
 73
10
 74
8
 42
0.0000001
 43
0.0000001
 44
0.0000000001
 12
0.0007587615
 22
0.3917062122
 32
0.0
 13
0.3917069271
 23
-0.0001251626
 33
0.0
 40
0.0
 40
0.0
 40
0.0
 40
0.0
 40
0.1432531629
 40
0.2860466693
 40
0.4287810149
 40
0.5716180826
 40
0.714361367
 40
0.8570545521
 40
1.0
 40
1.0
 40
1.0
 40
1.0
 10
-37.5443895158
 20
17.2730770483
 30
0.0
 10
-37.5443532841
 20
17.2917814329
 30
0.0
 10
-37.5400381677
 20
17.329258772
 30
0.0
 10
-37.5212067604
 20
17.3824608367
 30
0.0
 10
-37.4910324184
 20
17.4301186151
 30
0.0
 10
-37.4510314215
 20
17.4698673233
 30
0.0
 10
-37.4032067163
 20
17.499748499
 30
0.0
 10
-37.3499670746
 20
17.5182970309
 30
0.0
 10
-37.3125363489
 20
17.5224878347
 30
0.0
 10
-37.2938721082
 20
17.5224818708
 30
0.0
 11
-37.5443895158
 21
17.2730770483
 31
0.0
 11
-37.5379626975
 21
17.3288210511
 31
0.0
 11
-37.519310166
 21
17.3815525112
 31
0.0
 11
-37.4894023051
 21
17.4287907567
 31
0.0
 11
-37.4497169183
 21
17.468230622
 31
0.0
 11
-37.4023008111
 21
17.4978622995
 31
0.0
 11
-37.3495164455
 21
17.5162454477
 31
0.0
 11
-37.2938721082
 21
17.5224818708
 31
0.0
  0
SPLINE
  5
4C4
100
AcDbEntity
  8
RACCORDO
100
AcDbSpline
 62
253
  6
CONTINUOUS
 70
0
 71
3
 72
14
 73
10
 74
8
 42
0.0000001
 43
0.0000001
 44
0.0000000001
 12
-0.3917081399
 22
-0.0001139209
 32
0.0
 13
-0.0007493625
 23
0.3917074397
 33
0.0
 40
0.0
 40
0.0
 40
0.0
 40
0.0
 40
0.1432824613
 40
0.2860873867
 40
0.4288350257
 40
0.5716679328
 40
0.7144061125
 40
0.8570841356
 40
1.0
 40
1.0
 40
1.0
 40
1.0
 10
-37.2938580049
 20
-27.5651711193
 30
0.0
 10
-37.3125663071
 20
-27.5651765602
 30
0.0
 10
-37.3500569239
 20
-27.5609733817
 30
0.0
 10
-37.4033431302
 20
-27.54237409
 30
0.0
 10
-37.4511609762
 20
-27.5124539656
 30
0.0
 10
-37.4911362983
 20
-27.4726784816
 30
0.0
 10
-37.5212715018
 20
-27.4250135726
 30
0.0
 10
-37.5400515486
 20
-27.3718567848
 30
0.0
 10
-37.5443537915
 20
-27.3344396256
 30
0.0
 10
-37.5443894901
 20
-27.3157792231
 30
0.0
 11
-37.2938580049
 21
-27.5651711193
 31
0.0
 11
-37.3496323923
 21
-27.5589082849
 31
0.0
 11
-37.4024479225
 21
-27.5404810418
 31
0.0
 11
-37.4498462336
 21
-27.5108173656
 31
0.0
 11
-37.4895047031
 21
-27.4713524994
 31
0.0
 11
-37.5193823564
 21
-27.424093161
 31
0.0
 11
-37.5379896652
 21
-27.3713935134
 31
0.0
 11
-37.5443894901
 21
-27.3157792231
 31
0.0
  0
SPLINE
  5
4C5
100
AcDbEntity
  8
RACCORDO
100
AcDbSpline
 62
253
  6
CONTINUOUS
 70
0
 71
3
 72
14
 73
10
 74
8
 42
0.0000001
 43
0.0000001
 44
0.0000000001
 12
0.3917081399
 22
0.0001139209
 32
0.0
 13
0.0007493625
 23
-0.3917074397
 33
0.0
 40
0.0
 40
0.0
 40
0.0
 40
0.0
 40
0.1432824613
 40
0.2860873867
 40
0.4288350257
 40
0.5716679328
 40
0.7144061125
 40
0.8570841356
 40
1.0
 40
1.0
 40
1.0
 40
1.0
 10
37.2938580049
 20
17.522481864
 30
0.0
 10
37.3125663071
 20
17.522487305
 30
0.0
 10
37.3500569239
 20
17.5182841264
 30
0.0
 10
37.4033431302
 20
17.4996848347
 30
0.0
 10
37.4511609762
 20
17.4697647103
 30
0.0
 10
37.4911362983
 20
17.4299892263
 30
0.0
 10
37.5212715018
 20
17.3823243174
 30
0.0
 10
37.5400515486
 20
17.3291675295
 30
0.0
 10
37.5443537915
 20
17.2917503703
 30
0.0
 10
37.5443894901
 20
17.2730899679
 30
0.0
 11
37.2938580049
 21
17.522481864
 31
0.0
 11
37.3496323923
 21
17.5162190296
 31
0.0
 11
37.4024479225
 21
17.4977917865
 31
0.0
 11
37.4498462336
 21
17.4681281103
 31
0.0
 11
37.4895047031
 21
17.4286632441
 31
0.0
 11
37.5193823564
 21
17.3814039057
 31
0.0
 11
37.5379896652
 21
17.3287042581
 31
0.0
 11
37.5443894901
 21
17.2730899679
 31
0.0
  0
SPLINE
  5
4C6
100
AcDbEntity
  8
RACCORDO
100
AcDbSpline
 62
253
  6
CONTINUOUS
 70
0
 71
3
 72
14
 73
10
 74
8
 42
0.0000001
 43
0.0000001
 44
0.0000000001
 12
-0.0007502169
 22
-0.3917099481
 32
0.0
 13
-0.3917106503
 23
0.0001128191
 33
0.0
 40
0.0
 40
0.0
 40
0.0
 40
0.0
 40
0.142903702
 40
0.2856029092
 40
0.4283542708
 40
0.5711783764
 40
0.7138782702
 40
0.8566560447
 40
1.0
 40
1.0
 40
1.0
 40
1.0
 10
37.5443894922
 20
-27.3157781684
 30
0.0
 10
37.5443537559
 20
-27.3344371023
 30
0.0
 10
37.5400520323
 20
-27.3718556631
 30
0.0
 10
37.5212710112
 20
-27.425015797
 30
0.0
 10
37.4911326344
 20
-27.4726832038
 30
0.0
 10
37.4511599722
 20
-27.5124537325
 30
0.0
 10
37.4033518559
 20
-27.542368669
 30
0.0
 10
37.3500685289
 20
-27.5609713723
 30
0.0
 10
37.3125729842
 20
-27.5651765092
 30
0.0
 10
37.2938565329
 20
-27.5651711185
 30
0.0
 11
37.5443894922
 21
-27.3157781684
 31
0.0
 11
37.5379909029
 21
-27.3713881663
 31
0.0
 11
37.5193809522
 21
-27.424096061
 31
0.0
 11
37.4894992129
 21
-27.4713593489
 31
0.0
 11
37.4498417929
 21
-27.5108208903
 31
0.0
 11
37.4024594511
 21
-27.5404755051
 31
0.0
 11
37.3496549445
 21
-27.5589031467
 31
0.0
 11
37.2938565329
 21
-27.5651711185
 31
0.0
  0
SPLINE
  5
4C7
100
AcDbEntity
  8
RACCORDO
100
AcDbSpline
 62
253
  6
CONTINUOUS
 70
0
 71
3
 72
18
 73
14
 74
12
 42
0.0000001
 43
0.0000001
 44
0.0000000001
 12
-0.0029016006
 22
-3.1308306995
 32
0.0
 13
-2.2088748279
 23
-2.2187792325
 33
0.0
 40
0.0
 40
0.0
 40
0.0
 40
0.0
 40
0.1456203189
 40
0.2867347203
 40
0.4207733305
 40
0.5453755632
 40
0.6583699985
 40
0.7577751167
 40
0.8418475005
 40
0.9091160709
 40
0.9584102375
 40
0.9888695827
 40
1.0
 40
1.0
 40
1.0
 40
1.0
 10
-49.8903404794
 20
-41.811467041
 30
0.0
 10
-49.8904813234
 20
-41.963437896
 30
0.0
 10
-49.8909298689
 20
-42.2626774791
 30
0.0
 10
-49.8921250821
 20
-42.701797698
 30
0.0
 10
-49.8937956375
 20
-43.1189894366
 30
0.0
 10
-49.8959705807
 20
-43.5068057572
 30
0.0
 10
-49.8984097456
 20
-43.8585612435
 30
0.0
 10
-49.9016858985
 20
-44.1677465839
 30
0.0
 10
-49.903874857
 20
-44.4299952281
 30
0.0
 10
-49.9100690887
 20
-44.6377872655
 30
0.0
 10
-49.9071514522
 20
-44.7948499677
 30
0.0
 10
-49.9223150849
 20
-44.8829407277
 30
0.0
 10
-49.9122520657
 20
-44.933617062
 30
0.0
 10
-49.9204472986
 20
-44.9418490416
 30
0.0
 11
-49.8903404794
 21
-41.811467041
 31
0.0
 11
-49.8910312976
 21
-42.2673792783
 31
0.0
 11
-49.8922420453
 21
-42.7091831092
 31
0.0
 11
-49.8939513144
 21
-43.1288320042
 31
0.0
 11
-49.8961290477
 21
-43.5189345885
 31
0.0
 11
-49.8987372871
 21
-43.8726915722
 31
0.0
 11
-49.9017303495
 21
-44.1838979088
 31
0.0
 11
-49.9050557239
 21
-44.4470934155
 31
0.0
 11
-49.9086551003
 21
-44.6576692514
 31
0.0
 11
-49.912465744
 21
-44.8119539557
 31
0.0
 11
-49.9164205408
 21
-44.9072350099
 31
0.0
 11
-49.9204472986
 21
-44.9418490416
 31
0.0
  0
SPLINE
  5
4C8
100
AcDbEntity
  8
RACCORDO
100
AcDbSpline
 62
253
  6
CONTINUOUS
 70
0
 71
3
 72
14
 73
10
 74
8
 42
0.0000001
 43
0.0000001
 44
0.0000000001
 12
0.0681680218
 22
-73.5802235136
 32
0.0
 13
-0.0681680204
 23
-73.5802235136
 33
0.0
 40
0.0
 40
0.0
 40
0.0
 40
0.0
 40
0.1425304104
 40
0.2853876231
 40
0.4284407859
 40
0.5715592548
 40
0.7146124174
 40
0.8574696298
 40
1.0
 40
1.0
 40
1.0
 40
1.0
 10
-49.8903404794
 20
31.7687777858
 30
0.0
 10
-49.8871018073
 20
28.2729713008
 30
0.0
 10
-49.8815514869
 20
21.273342035
 30
0.0
 10
-49.8760049752
 20
10.7650826107
 30
0.0
 10
-49.8732304441
 20
0.2423989155
 30
0.0
 10
-49.8732304445
 20
-10.2850911567
 30
0.0
 10
-49.8760049764
 20
-20.8077748408
 30
0.0
 10
-49.8815514883
 20
-31.3160332681
 30
0.0
 10
-49.8871018083
 20
-38.315661542
 30
0.0
 10
-49.8903404794
 20
-41.811467041
 30
0.0
 11
-49.8903404794
 21
31.7687777858
 31
0.0
 11
-49.8820207176
 21
21.2813571303
 31
0.0
 11
-49.8764699667
 21
10.7698884452
 31
0.0
 11
-49.8736933236
 21
0.2440006026
 31
0.0
 11
-49.873693324
 21
-10.2866928491
 31
0.0
 11
-49.8764699679
 21
-20.8125806759
 31
0.0
 11
-49.8820207195
 21
-31.3240493435
 31
0.0
 11
-49.8903404794
 21
-41.811467041
 31
0.0
  0
SPLINE
  5
4C9
100
AcDbEntity
  8
RACCORDO
100
AcDbSpline
 62
253
  6
CONTINUOUS
 70
0
 71
3
 72
18
 73
14
 74
12
 42
0.0000001
 43
0.0000001
 44
0.0000000001
 12
2.2090043401
 22
-2.2186502835
 32
0.0
 13
0.0029016289
 23
-3.1308306942
 33
0.0
 40
0.0
 40
0.0
 40
0.0
 40
0.0
 40
0.0111316179
 40
0.0415921403
 40
0.0908876425
 40
0.1581575837
 40
0.2422313704
 40
0.3416375146
 40
0.4546324401
 40
0.5792349297
 40
0.7132736035
 40
0.8543879168
 40
1.0
 40
1.0
 40
1.0
 40
1.0
 10
-49.9204472986
 20
34.8991597864
 30
0.0
 10
-49.9122507012
 20
34.8909273973
 30
0.0
 10
-49.922315981
 20
34.8402469343
 30
0.0
 10
-49.907150689
 20
34.7521535239
 30
0.0
 10
-49.9100690837
 20
34.5950861683
 30
0.0
 10
-49.9038745486
 20
34.3872900839
 30
0.0
 10
-49.9016857099
 20
34.1250373875
 30
0.0
 10
-49.8984095479
 20
33.8158490291
 30
0.0
 10
-49.8959704268
 20
33.4640916839
 30
0.0
 10
-49.8937955155
 20
33.0762745202
 30
0.0
 10
-49.8921249977
 20
32.659082539
 30
0.0
 10
-49.8909298367
 20
32.2199709414
 30
0.0
 10
-49.8904813168
 20
31.9207400456
 30
0.0
 10
-49.8903404794
 20
31.7687777858
 30
0.0
 11
-49.9204472986
 21
34.8991597864
 31
0.0
 11
-49.9164203115
 21
34.8645419973
 31
0.0
 11
-49.9124655091
 21
34.7692572548
 31
0.0
 11
-49.9086548636
 21
34.6149683676
 31
0.0
 11
-49.9050554906
 21
34.4043882398
 31
0.0
 11
-49.9017301259
 21
34.1411883409
 31
0.0
 11
-49.898737089
 21
33.829978792
 31
0.0
 11
-49.8961288868
 21
33.4762202738
 31
0.0
 11
-49.8939511905
 21
33.0861168856
 31
0.0
 11
-49.8922419579
 21
32.6664677919
 31
0.0
 11
-49.8910312428
 21
32.2246642379
 31
0.0
 11
-49.8903404794
 21
31.7687777858
 31
0.0
  0
SPLINE
  5
4CA
100
AcDbEntity
  8
RACCORDO
100
AcDbSpline
 62
253
  6
CONTINUOUS
 70
0
 71
3
 72
18
 73
14
 74
12
 42
0.0000001
 43
0.0000001
 44
0.0000000001
 12
0.0029016289
 22
3.1308306942
 32
0.0
 13
2.2090045291
 23
2.2186500953
 33
0.0
 40
0.0
 40
0.0
 40
0.0
 40
0.0
 40
0.1456120832
 40
0.2867263965
 40
0.4207650703
 40
0.5453675599
 40
0.6583624854
 40
0.7577686296
 40
0.8418424163
 40
0.9091123575
 40
0.9584078597
 40
0.9888683821
 40
1.0
 40
1.0
 40
1.0
 40
1.0
 10
49.8903404794
 20
31.7687777858
 30
0.0
 10
49.8904813168
 20
31.9207400456
 30
0.0
 10
49.8909298367
 20
32.2199709414
 30
0.0
 10
49.8921249977
 20
32.659082539
 30
0.0
 10
49.8937955155
 20
33.0762745202
 30
0.0
 10
49.8959704268
 20
33.4640916839
 30
0.0
 10
49.8984095479
 20
33.8158490291
 30
0.0
 10
49.90168571
 20
34.1250373875
 30
0.0
 10
49.9038745485
 20
34.387290084
 30
0.0
 10
49.9100690839
 20
34.595086168
 30
0.0
 10
49.9071506884
 20
34.7521535244
 30
0.0
 10
49.9223159819
 20
34.8402469333
 30
0.0
 10
49.9122507005
 20
34.890927398
 30
0.0
 10
49.9204472986
 20
34.8991597864
 30
0.0
 11
49.8903404794
 21
31.7687777858
 31
0.0
 11
49.8910312428
 21
32.2246642379
 31
0.0
 11
49.8922419579
 21
32.6664677919
 31
0.0
 11
49.8939511905
 21
33.0861168856
 31
0.0
 11
49.8961288868
 21
33.4762202738
 31
0.0
 11
49.898737089
 21
33.829978792
 31
0.0
 11
49.9017301259
 21
34.1411883409
 31
0.0
 11
49.9050554906
 21
34.4043882398
 31
0.0
 11
49.9086548636
 21
34.6149683677
 31
0.0
 11
49.9124655091
 21
34.7692572548
 31
0.0
 11
49.9164203115
 21
34.8645419973
 31
0.0
 11
49.9204472986
 21
34.8991597864
 31
0.0
  0
SPLINE
  5
4CB
100
AcDbEntity
  8
RACCORDO
100
AcDbSpline
 62
253
  6
CONTINUOUS
 70
0
 71
3
 72
14
 73
10
 74
8
 42
0.0000001
 43
0.0000001
 44
0.0000000001
 12
-0.0681680204
 22
73.5802235136
 32
0.0
 13
0.0681680218
 23
73.5802235136
 33
0.0
 40
0.0
 40
0.0
 40
0.0
 40
0.0
 40
0.1425303702
 40
0.2853875826
 40
0.4284407452
 40
0.5715592141
 40
0.7146123769
 40
0.8574695896
 40
1.0
 40
1.0
 40
1.0
 40
1.0
 10
49.8903404794
 20
-41.811467041
 30
0.0
 10
49.8871018083
 20
-38.315661542
 30
0.0
 10
49.8815514883
 20
-31.3160332681
 30
0.0
 10
49.8760049764
 20
-20.8077748408
 30
0.0
 10
49.8732304445
 20
-10.2850911567
 30
0.0
 10
49.8732304441
 20
0.2423989155
 30
0.0
 10
49.8760049752
 20
10.7650826107
 30
0.0
 10
49.8815514869
 20
21.273342035
 30
0.0
 10
49.8871018073
 20
28.2729713008
 30
0.0
 10
49.8903404794
 20
31.7687777858
 30
0.0
 11
49.8903404794
 21
-41.811467041
 31
0.0
 11
49.8820207195
 21
-31.3240493435
 31
0.0
 11
49.8764699679
 21
-20.8125806759
 31
0.0
 11
49.873693324
 21
-10.2866928491
 31
0.0
 11
49.8736933236
 21
0.2440006026
 31
0.0
 11
49.8764699667
 21
10.7698884452
 31
0.0
 11
49.8820207176
 21
21.2813571303
 31
0.0
 11
49.8903404794
 21
31.7687777858
 31
0.0
  0
SPLINE
  5
4CC
100
AcDbEntity
  8
RACCORDO
100
AcDbSpline
 62
253
  6
CONTINUOUS
 70
0
 71
3
 72
18
 73
14
 74
12
 42
0.0000001
 43
0.0000001
 44
0.0000000001
 12
-2.2088746535
 22
2.2187794062
 32
0.0
 13
-0.0029016006
 23
3.1308306995
 33
0.0
 40
0.0
 40
0.0
 40
0.0
 40
0.0
 40
0.0111304173
 40
0.0415897625
 40
0.0908839291
 40
0.1581524995
 40
0.2422248833
 40
0.3416300015
 40
0.4546244368
 40
0.5792266695
 40
0.7132652797
 40
0.8543796811
 40
1.0
 40
1.0
 40
1.0
 40
1.0
 10
49.9204472986
 20
-44.9418490416
 30
0.0
 10
49.9122520664
 20
-44.9336170614
 30
0.0
 10
49.922315084
 20
-44.8829407286
 30
0.0
 10
49.9071514527
 20
-44.7948499672
 30
0.0
 10
49.9100690885
 20
-44.6377872657
 30
0.0
 10
49.9038748571
 20
-44.429995228
 30
0.0
 10
49.9016858985
 20
-44.1677465839
 30
0.0
 10
49.8984097456
 20
-43.8585612435
 30
0.0
 10
49.8959705807
 20
-43.5068057572
 30
0.0
 10
49.8937956375
 20
-43.1189894366
 30
0.0
 10
49.892125082
 20
-42.701797698
 30
0.0
 10
49.8909298689
 20
-42.2626774791
 30
0.0
 10
49.8904813234
 20
-41.963437896
 30
0.0
 10
49.8903404794
 20
-41.811467041
 30
0.0
 11
49.9204472986
 21
-44.9418490416
 31
0.0
 11
49.9164205408
 21
-44.9072350099
 31
0.0
 11
49.912465744
 21
-44.8119539557
 31
0.0
 11
49.9086551003
 21
-44.6576692514
 31
0.0
 11
49.9050557239
 21
-44.4470934155
 31
0.0
 11
49.9017303495
 21
-44.1838979088
 31
0.0
 11
49.8987372871
 21
-43.8726915722
 31
0.0
 11
49.8961290477
 21
-43.5189345885
 31
0.0
 11
49.8939513144
 21
-43.1288320042
 31
0.0
 11
49.8922420453
 21
-42.7091831092
 31
0.0
 11
49.8910312976
 21
-42.2673792783
 31
0.0
 11
49.8903404794
 21
-41.811467041
 31
0.0
  0
SPLINE
  5
4CD
100
AcDbEntity
  8
RACCORDO
100
AcDbSpline
 62
253
  6
CONTINUOUS
 70
0
 71
3
 72
18
 73
14
 74
12
 42
0.0000001
 43
0.0000001
 44
0.0000000001
 12
2.5628536304
 22
-3.6652366103
 32
0.0
 13
0.0029016502
 23
-4.4723785306
 33
0.0
 40
0.0
 40
0.0
 40
0.0
 40
0.0
 40
0.0111084832
 40
0.0415639274
 40
0.090855406
 40
0.1581184257
 40
0.2421815317
 40
0.3415733574
 40
0.4545519482
 40
0.5791371172
 40
0.7131583711
 40
0.8542564207
 40
1.0
 40
1.0
 40
1.0
 40
1.0
 10
-48.4205049295
 20
36.3991034092
 30
0.0
 10
-48.411015124
 20
36.3855316695
 30
0.0
 10
-48.4240674406
 20
36.3170418014
 30
0.0
 10
-48.4061692346
 20
36.1876388737
 30
0.0
 10
-48.4105872212
 20
35.9652170983
 30
0.0
 10
-48.4037535821
 20
35.6675601311
 30
0.0
 10
-48.4018049751
 20
35.2932792038
 30
0.0
 10
-48.3984465621
 20
34.8515490306
 30
0.0
 10
-48.3960346507
 20
34.3491652429
 30
0.0
 10
-48.39385156
 20
33.7952312263
 30
0.0
 10
-48.3921835062
 20
33.1993513006
 30
0.0
 10
-48.3909870858
 20
32.5719344786
 30
0.0
 10
-48.3905384668
 20
32.1443127417
 30
0.0
 10
-48.3903975012
 20
31.9270392567
 30
0.0
 11
-48.4205049295
 21
36.3991034092
 31
0.0
 11
-48.4164747386
 21
36.349585793
 31
0.0
 11
-48.4125206683
 21
36.2134348943
 31
0.0
 11
-48.4087106123
 21
35.9930176243
 31
0.0
 11
-48.4051118829
 21
35.6922134021
 31
0.0
 11
-48.4017870863
 21
35.316265994
 31
0.0
 11
-48.3987945332
 21
34.8717581065
 31
0.0
 11
-48.3961866581
 21
34.3664817059
 31
0.0
 11
-48.3940091428
 21
33.8092938085
 31
0.0
 11
-48.3922998994
 21
33.2099023409
 31
0.0
 11
-48.3910890479
 21
32.578859482
 31
0.0
 11
-48.3903975012
 21
31.9270392567
 31
0.0
  0
SPLINE
  5
4CE
100
AcDbEntity
  8
RACCORDO
100
AcDbSpline
 62
253
  6
CONTINUOUS
 70
0
 71
3
 72
18
 73
14
 74
12
 42
0.0000001
 43
0.0000001
 44
0.0000000001
 12
0.0029016502
 22
4.4723785325
 32
0.0
 13
2.5628536601
 23
3.6652365919
 33
0.0
 40
0.0
 40
0.0
 40
0.0
 40
0.0
 40
0.1457435797
 40
0.2868416292
 40
0.420862883
 40
0.545448052
 40
0.6584266428
 40
0.7578184684
 40
0.8418815744
 40
0.9091445941
 40
0.9584360727
 40
0.9888915168
 40
1.0
 40
1.0
 40
1.0
 40
1.0
 10
48.3903975012
 20
31.9270392547
 30
0.0
 10
48.3905384668
 20
32.1443127404
 30
0.0
 10
48.3909870858
 20
32.571934478
 30
0.0
 10
48.3921835062
 20
33.1993513006
 30
0.0
 10
48.39385156
 20
33.7952312263
 30
0.0
 10
48.3960346507
 20
34.3491652429
 30
0.0
 10
48.3984465621
 20
34.8515490306
 30
0.0
 10
48.4018049751
 20
35.2932792038
 30
0.0
 10
48.4037535821
 20
35.6675601311
 30
0.0
 10
48.4105872212
 20
35.9652170983
 30
0.0
 10
48.4061692345
 20
36.1876388738
 30
0.0
 10
48.4240674407
 20
36.3170418013
 30
0.0
 10
48.4110151239
 20
36.3855316695
 30
0.0
 10
48.4205049295
 20
36.3991034092
 30
0.0
 11
48.3903975012
 21
31.9270392547
 31
0.0
 11
48.3910890479
 21
32.578859482
 31
0.0
 11
48.3922998994
 21
33.2099023409
 31
0.0
 11
48.3940091428
 21
33.8092938085
 31
0.0
 11
48.3961866581
 21
34.3664817059
 31
0.0
 11
48.3987945332
 21
34.8717581065
 31
0.0
 11
48.4017870863
 21
35.316265994
 31
0.0
 11
48.4051118829
 21
35.6922134021
 31
0.0
 11
48.4087106123
 21
35.9930176243
 31
0.0
 11
48.4125206683
 21
36.2134348943
 31
0.0
 11
48.4164747386
 21
36.349585793
 31
0.0
 11
48.4205049295
 21
36.3991034092
 31
0.0
  0
SPLINE
  5
4CF
100
AcDbEntity
  8
RACCORDO
100
AcDbSpline
 62
253
  6
CONTINUOUS
 70
0
 71
3
 72
15
 73
11
 74
9
 42
0.0000001
 43
0.0000001
 44
0.0000000001
 12
1.5230844146
 22
0.001395331
 32
0.0
 13
0.1247744686
 23
1.5179655507
 33
0.0
 40
0.0
 40
0.0
 40
0.0
 40
0.0
 40
0.1910975242
 40
0.3750188605
 40
0.5448673745
 40
0.6943074483
 40
0.8178378092
 40
0.911089003
 40
0.9713291432
 40
1.0
 40
1.0
 40
1.0
 40
1.0
 10
48.3903975948
 20
-41.9698176381
 30
0.0
 10
48.487416815
 20
-41.9697287566
 30
0.0
 10
48.6778059269
 20
-41.9676281523
 30
0.0
 10
48.9543553529
 20
-41.9587222893
 30
0.0
 10
49.2093224267
 20
-41.9446012799
 30
0.0
 10
49.4338204964
 20
-41.9254508968
 30
0.0
 10
49.6171988208
 20
-41.9034569223
 30
0.0
 10
49.7586777686
 20
-41.8765006855
 30
0.0
 10
49.8417879218
 20
-41.8538279806
 30
0.0
 10
49.8891480157
 20
-41.8259741653
 30
0.0
 10
49.8903404794
 20
-41.811467041
 30
0.0
 11
48.3903975948
 21
-41.9698176381
 31
0.0
 11
48.681436942
 21
-41.9665417672
 31
0.0
 11
48.9614146549
 21
-41.9573719169
 31
0.0
 11
49.2196895225
 21
-41.9426566088
 31
0.0
 11
49.4464452014
 21
-41.9229551328
 31
0.0
 11
49.6330633092
 21
-41.8990162898
 31
0.0
 11
49.772450986
 21
-41.8717499318
 31
0.0
 11
49.8593104758
 21
-41.8421923808
 31
0.0
 11
49.8903404794
 21
-41.811467041
 31
0.0
  0
SPLINE
  5
4D0
100
AcDbEntity
  8
RACCORDO
100
AcDbSpline
 62
253
  6
CONTINUOUS
 70
0
 71
3
 72
15
 73
11
 74
9
 42
0.0000001
 43
0.0000001
 44
0.0000000001
 12
1.523084276
 22
-0.0013953205
 32
0.0
 13
0.1247901857
 23
-1.5179641196
 33
0.0
 40
0.0
 40
0.0
 40
0.0
 40
0.0
 40
0.19109741
 40
0.3750186468
 40
0.544867089
 40
0.6943071303
 40
0.8178375065
 40
0.9110887677
 40
0.9713290242
 40
1.0
 40
1.0
 40
1.0
 40
1.0
 10
48.3903975948
 20
31.9271281771
 30
0.0
 10
48.4874167482
 20
31.9270392964
 30
0.0
 10
48.6778057344
 20
31.9249386961
 30
0.0
 10
48.9543549903
 20
31.9160328489
 30
0.0
 10
49.2093219393
 20
31.9019118579
 30
0.0
 10
49.4338199422
 20
31.8827615121
 30
0.0
 10
49.6171982864
 20
31.8607675374
 30
0.0
 10
49.7586773111
 20
31.8338113965
 30
0.0
 10
49.8417876443
 20
31.811138579
 30
0.0
 10
49.8891478606
 20
31.7832849566
 30
0.0
 10
49.8903404794
 20
31.7687777858
 30
0.0
 11
48.3903975948
 21
31.9271281771
 31
0.0
 11
48.6814367417
 21
31.9238523131
 31
0.0
 11
48.9614142779
 21
31.9146824784
 31
0.0
 11
49.2196890137
 21
31.8999671937
 31
0.0
 11
49.4464446247
 21
31.8802657471
 31
0.0
 11
49.6330627429
 21
31.8563269374
 31
0.0
 11
49.772450518
 21
31.8290606141
 31
0.0
 11
49.8593101973
 21
31.7995030964
 31
0.0
 11
49.8903404794
 21
31.7687777858
 31
0.0
  0
SPLINE
  5
4D1
100
AcDbEntity
  8
RACCORDO
100
AcDbSpline
 62
253
  6
CONTINUOUS
 70
0
 71
3
 72
15
 73
11
 74
9
 42
0.0000001
 43
0.0000001
 44
0.0000000001
 12
-1.5230844148
 22
-0.001395331
 32
0.0
 13
-0.124774456
 23
-1.5179655518
 33
0.0
 40
0.0
 40
0.0
 40
0.0
 40
0.0
 40
0.1910975243
 40
0.3750188607
 40
0.5448673747
 40
0.6943074485
 40
0.8178378095
 40
0.9110890032
 40
0.9713291433
 40
1.0
 40
1.0
 40
1.0
 40
1.0
 10
-48.3903975948
 20
31.9271283829
 30
0.0
 10
-48.4874168151
 20
31.9270395015
 30
0.0
 10
-48.6778059271
 20
31.9249388972
 30
0.0
 10
-48.9543553532
 20
31.9160330341
 30
0.0
 10
-49.2093224271
 20
31.9019120248
 30
0.0
 10
-49.4338204969
 20
31.8827616416
 30
0.0
 10
-49.6171988212
 20
31.8607676671
 30
0.0
 10
-49.7586777689
 20
31.8338114302
 30
0.0
 10
-49.841787922
 20
31.8111387254
 30
0.0
 10
-49.8891480159
 20
31.78328491
 30
0.0
 10
-49.8903404794
 20
31.7687777858
 30
0.0
 11
-48.3903975948
 21
31.9271283829
 31
0.0
 11
-48.6814369422
 21
31.9238525121
 31
0.0
 11
-48.9614146552
 21
31.9146826617
 31
0.0
 11
-49.2196895229
 21
31.8999673536
 31
0.0
 11
-49.4464452018
 21
31.8802658776
 31
0.0
 11
-49.6330633096
 21
31.8563270346
 31
0.0
 11
-49.7724509864
 21
31.8290606766
 31
0.0
 11
-49.859310476
 21
31.7995031256
 31
0.0
 11
-49.8903404794
 21
31.7687777858
 31
0.0
  0
SPLINE
  5
4D2
100
AcDbEntity
  8
RACCORDO
100
AcDbSpline
 62
253
  6
CONTINUOUS
 70
0
 71
3
 72
15
 73
11
 74
9
 42
0.0000001
 43
0.0000001
 44
0.0000000001
 12
-1.5230842917
 22
0.0013953209
 32
0.0
 13
-0.1247884706
 23
1.5179642763
 33
0.0
 40
0.0
 40
0.0
 40
0.0
 40
0.0
 40
0.1910974224
 40
0.3750186699
 40
0.5448671199
 40
0.6943071647
 40
0.8178375392
 40
0.9110887931
 40
0.9713290369
 40
1.0
 40
1.0
 40
1.0
 40
1.0
 10
-48.3903975948
 20
-41.9698174567
 30
0.0
 10
-48.4874167555
 20
-41.969728576
 30
0.0
 10
-48.6778057554
 20
-41.9676279753
 30
0.0
 10
-48.9543550298
 20
-41.9587221264
 30
0.0
 10
-49.2093219924
 20
-41.9446011332
 30
0.0
 10
-49.4338200026
 20
-41.9254507831
 30
0.0
 10
-49.6171983447
 20
-41.9034568081
 30
0.0
 10
-49.7586773609
 20
-41.8765006564
 30
0.0
 10
-49.8417876748
 20
-41.8538278508
 30
0.0
 10
-49.8891478775
 20
-41.8259742069
 30
0.0
 10
-49.8903404794
 20
-41.811467041
 30
0.0
 11
-48.3903975948
 21
-41.9698174567
 31
0.0
 11
-48.6814367636
 21
-41.966541592
 31
0.0
 11
-48.961414319
 21
-41.9573717556
 31
0.0
 11
-49.2196890692
 21
-41.9426564682
 31
0.0
 11
-49.4464446876
 21
-41.9229550182
 31
0.0
 11
-49.6330628046
 21
-41.8990162045
 31
0.0
 11
-49.772450569
 21
-41.8717498771
 31
0.0
 11
-49.8593102277
 21
-41.8421923553
 31
0.0
 11
-49.8903404794
 21
-41.811467041
 31
0.0
  0
SPLINE
  5
4D3
100
AcDbEntity
  8
RACCORDO
100
AcDbSpline
 62
253
  6
CONTINUOUS
 70
0
 71
3
 72
12
 73
8
 74
6
 42
0.0000001
 43
0.0000001
 44
0.0000000001
 12
0.2512499761
 22
0.0002789857
 32
0.0
 13
0.0662132374
 23
0.242368388
 33
0.0
 40
0.0
 40
0.0
 40
0.0
 40
0.0
 40
0.3041995079
 40
0.5794076307
 40
0.7994508743
 40
0.943633745
 40
1.0
 40
1.0
 40
1.0
 40
1.0
 10
-37.7943514279
 20
-27.3317081804
 30
0.0
 10
-37.7688747215
 20
-27.3316798913
 30
0.0
 10
-37.7200828413
 20
-27.3313056362
 30
0.0
 10
-37.6541851605
 20
-27.3286543924
 30
0.0
 10
-37.5980484711
 20
-27.3269376399
 30
0.0
 10
-37.5682599809
 20
-27.3204821653
 30
0.0
 10
-37.5456335682
 20
-27.3203260074
 30
0.0
 10
-37.5443895041
 20
-27.315772208
 30
0.0
 11
-37.7943514279
 21
-27.3317081804
 31
0.0
 11
-37.7179259635
 21
-27.330860419
 31
0.0
 11
-37.6488178967
 21
-27.3285680285
 31
0.0
 11
-37.593644017
 21
-27.3250504951
 31
0.0
 11
-37.5576869773
 21
-27.3206446068
 31
0.0
 11
-37.5443895041
 21
-27.315772208
 31
0.0
  0
SPLINE
  5
4D4
100
AcDbEntity
  8
RACCORDO
100
AcDbSpline
 62
253
  6
CONTINUOUS
 70
0
 71
3
 72
12
 73
8
 74
6
 42
0.0000001
 43
0.0000001
 44
0.0000000001
 12
-0.251250446
 22
0.0002789192
 32
0.0
 13
-0.066213557
 23
0.2423687878
 33
0.0
 40
0.0
 40
0.0
 40
0.0
 40
0.0
 40
0.3041992626
 40
0.579407385
 40
0.7994507432
 40
0.9436337267
 40
1.0
 40
1.0
 40
1.0
 40
1.0
 10
37.7943514279
 20
-27.3317081056
 30
0.0
 10
37.7688746944
 20
-27.3316798233
 30
0.0
 10
37.7200827434
 20
-27.3313055814
 30
0.0
 10
37.6541849505
 20
-27.3286543492
 30
0.0
 10
37.5980481322
 20
-27.3269376248
 30
0.0
 10
37.5682595727
 20
-27.320482133
 30
0.0
 10
37.5456330946
 20
-27.3203260164
 30
0.0
 10
37.5443890241
 20
-27.315772208
 30
0.0
 11
37.7943514279
 21
-27.3317081056
 31
0.0
 11
37.717925882
 21
-27.3308603642
 31
0.0
 11
37.6488176853
 21
-27.3285679912
 31
0.0
 11
37.5936436722
 21
-27.3250504724
 31
0.0
 11
37.5576865343
 21
-27.3206445963
 31
0.0
 11
37.5443890241
 21
-27.315772208
 31
0.0
  0
SPLINE
  5
4D5
100
AcDbEntity
  8
RACCORDO
100
AcDbSpline
 62
253
  6
CONTINUOUS
 70
0
 71
3
 72
18
 73
14
 74
12
 42
0.0000001
 43
0.0000001
 44
0.0000000001
 12
-0.0029015428
 22
-4.4723754834
 32
0.0
 13
-2.5628172085
 23
-3.6652583591
 33
0.0
 40
0.0
 40
0.0
 40
0.0
 40
0.0
 40
0.1457431197
 40
0.2868412354
 40
0.4208625888
 40
0.5454478337
 40
0.6584264688
 40
0.7578183534
 40
0.8418815231
 40
0.9091445747
 40
0.9584360672
 40
0.988891522
 40
1.0
 40
1.0
 40
1.0
 40
1.0
 10
-48.3903975044
 20
-41.9697315868
 30
0.0
 10
-48.3905384644
 20
-42.1870042386
 30
0.0
 10
-48.3909870938
 20
-42.6146250976
 30
0.0
 10
-48.3921835047
 20
-43.2420410538
 30
0.0
 10
-48.3938515655
 20
-43.8379209334
 30
0.0
 10
-48.3960346546
 20
-44.3918549004
 30
0.0
 10
-48.3984465715
 20
-44.8942386111
 30
0.0
 10
-48.4018049769
 20
-45.3359687377
 30
0.0
 10
-48.4037536086
 20
-45.7102496242
 30
0.0
 10
-48.410587181
 20
-46.0079065954
 30
0.0
 10
-48.4061693535
 20
-46.2303282002
 30
0.0
 10
-48.4240672617
 20
-46.3597312572
 30
0.0
 10
-48.4110152818
 20
-46.428220877
 30
0.0
 10
-48.420504948
 20
-46.441792691
 30
0.0
 11
-48.3903975044
 21
-41.9697315868
 31
0.0
 11
-48.3910890504
 21
-42.6215493126
 31
0.0
 11
-48.3922999003
 21
-43.2525920372
 31
0.0
 11
-48.394009147
 21
-43.8519835412
 31
0.0
 11
-48.3961866634
 21
-44.4091713985
 31
0.0
 11
-48.39879454
 21
-44.9144476525
 31
0.0
 11
-48.4017870942
 21
-45.3589555011
 31
0.0
 11
-48.4051118915
 21
-45.7349029379
 31
0.0
 11
-48.4087106211
 21
-46.0357070975
 31
0.0
 11
-48.412520675
 21
-46.2561242796
 31
0.0
 11
-48.4164747479
 21
-46.3922751326
 31
0.0
 11
-48.420504948
 21
-46.441792691
 31
0.0
  0
SPLINE
  5
4D6
100
AcDbEntity
  8
RACCORDO
100
AcDbSpline
 62
253
  6
CONTINUOUS
 70
0
 71
3
 72
18
 73
14
 74
12
 42
0.0000001
 43
0.0000001
 44
0.0000000001
 12
-2.5628171824
 22
3.6652583746
 32
0.0
 13
-0.0029015427
 23
4.4723754811
 33
0.0
 40
0.0
 40
0.0
 40
0.0
 40
0.0
 40
0.011108478
 40
0.0415639328
 40
0.0908554254
 40
0.1581184769
 40
0.2421816467
 40
0.3415735314
 40
0.4545521665
 40
0.5791374115
 40
0.7131587649
 40
0.8542568807
 40
1.0
 40
1.0
 40
1.0
 40
1.0
 10
48.420504948
 20
-46.441792691
 30
0.0
 10
48.4110152819
 20
-46.4282208769
 30
0.0
 10
48.4240672615
 20
-46.3597312573
 30
0.0
 10
48.4061693536
 20
-46.2303282002
 30
0.0
 10
48.410587181
 20
-46.0079065954
 30
0.0
 10
48.4037536086
 20
-45.7102496242
 30
0.0
 10
48.4018049769
 20
-45.3359687377
 30
0.0
 10
48.3984465715
 20
-44.8942386111
 30
0.0
 10
48.3960346546
 20
-44.3918549004
 30
0.0
 10
48.3938515655
 20
-43.8379209334
 30
0.0
 10
48.3921835047
 20
-43.2420410538
 30
0.0
 10
48.3909870938
 20
-42.6146250983
 30
0.0
 10
48.3905384643
 20
-42.1870042401
 30
0.0
 10
48.3903975044
 20
-41.969731589
 30
0.0
 11
48.420504948
 21
-46.441792691
 31
0.0
 11
48.4164747479
 21
-46.3922751326
 31
0.0
 11
48.412520675
 21
-46.2561242796
 31
0.0
 11
48.4087106211
 21
-46.0357070975
 31
0.0
 11
48.4051118915
 21
-45.7349029379
 31
0.0
 11
48.4017870942
 21
-45.3589555011
 31
0.0
 11
48.39879454
 21
-44.9144476525
 31
0.0
 11
48.3961866634
 21
-44.4091713985
 31
0.0
 11
48.394009147
 21
-43.8519835412
 31
0.0
 11
48.3922999003
 21
-43.2525920372
 31
0.0
 11
48.3910890504
 21
-42.6215493126
 31
0.0
 11
48.3903975044
 21
-41.969731589
 31
0.0
  0
SPLINE
  5
4D7
100
AcDbEntity
  8
RACCORDO
100
AcDbSpline
 62
253
  6
CONTINUOUS
 70
0
 71
3
 72
15
 73
11
 74
9
 42
0.0000001
 43
0.0000001
 44
0.0000000001
 12
-1.500015627
 22
0.0130904381
 32
0.0
 13
0.0130894491
 23
1.5000156357
 33
0.0
 40
0.0
 40
0.0
 40
0.0
 40
0.0
 40
0.0192872175
 40
0.0762083773
 40
0.1686176293
 40
0.292970472
 40
0.4444909421
 40
0.6173580239
 40
0.8049300181
 40
1.0
 40
1.0
 40
1.0
 40
1.0
 10
-123.3654164599
 20
-46.4417919262
 30
0.0
 10
-123.3750601691
 20
-46.4417077669
 30
0.0
 10
-123.3571666726
 20
-46.3807662148
 30
0.0
 10
-123.3768295959
 20
-46.318139734
 30
0.0
 10
-123.3675923762
 20
-46.1693432143
 30
0.0
 10
-123.372097355
 20
-45.9902019386
 30
0.0
 10
-123.3701629637
 20
-45.7640080523
 30
0.0
 10
-123.3695987967
 20
-45.5086135243
 30
0.0
 10
-123.3677389774
 20
-45.2306659767
 30
0.0
 10
-123.3662675795
 20
-45.0393850493
 30
0.0
 10
-123.3654164599
 20
-44.9418490416
 30
0.0
 11
-123.3654164599
 21
-46.4417919262
 31
0.0
 11
-123.3677183472
 21
-46.4129514129
 31
0.0
 11
-123.3694287966
 21
-46.3275826661
 31
0.0
 11
-123.3704820828
 21
-46.1889660674
 31
0.0
 11
-123.3708377326
 21
-46.0024280963
 31
0.0
 11
-123.3704820805
 21
-45.775136647
 31
0.0
 11
-123.3694287931
 21
-45.5158255882
 31
0.0
 11
-123.3677183444
 21
-45.2344591509
 31
0.0
 11
-123.3654164599
 21
-44.9418490416
 31
0.0
  0
SPLINE
  5
4D8
100
AcDbEntity
  8
RACCORDO
100
AcDbSpline
 62
253
  6
CONTINUOUS
 70
0
 71
3
 72
15
 73
11
 74
9
 42
0.0000001
 43
0.0000001
 44
0.0000000001
 12
-1.5000156269
 22
-0.0130904381
 32
0.0
 13
0.0130894413
 23
-1.5000156356
 33
0.0
 40
0.0
 40
0.0
 40
0.0
 40
0.0
 40
0.0192871949
 40
0.0762082942
 40
0.1686174673
 40
0.2929702397
 40
0.4444906759
 40
0.6173577812
 40
0.8049298659
 40
1.0
 40
1.0
 40
1.0
 40
1.0
 10
-123.3654164599
 20
36.399102671
 30
0.0
 10
-123.3750601578
 20
36.3990185117
 30
0.0
 10
-123.3571666811
 20
36.3380770265
 30
0.0
 10
-123.3768295858
 20
36.2754506056
 30
0.0
 10
-123.3675923733
 20
36.1266541993
 30
0.0
 10
-123.3720973515
 20
35.9475130135
 30
0.0
 10
-123.3701629614
 20
35.7213191673
 30
0.0
 10
-123.3695987962
 20
35.4659245998
 30
0.0
 10
-123.3677389774
 20
35.1879769188
 30
0.0
 10
-123.3662675796
 20
34.9966958701
 30
0.0
 10
-123.3654164599
 20
34.8991597864
 30
0.0
 11
-123.3654164599
 21
36.399102671
 31
0.0
 11
-123.3677183445
 21
36.3702621915
 31
0.0
 11
-123.3694287925
 21
36.2848935353
 31
0.0
 11
-123.3704820784
 21
36.146277055
 31
0.0
 11
-123.3708377291
 21
35.9597391894
 31
0.0
 11
-123.3704820784
 21
35.7324477911
 31
0.0
 11
-123.3694287925
 21
35.473136697
 31
0.0
 11
-123.3677183446
 21
35.1917701239
 31
0.0
 11
-123.3654164599
 21
34.8991597864
 31
0.0
  0
SPLINE
  5
4D9
100
AcDbEntity
  8
RACCORDO
100
AcDbSpline
 62
253
  6
CONTINUOUS
 70
0
 71
3
 72
25
 73
21
 74
19
 42
0.0000001
 43
0.0000001
 44
0.0000000001
 12
1.4999847139
 22
-0.0065957311
 32
0.0
 13
-0.0034912277
 23
-1.5000067191
 33
0.0
 40
0.0
 40
0.0
 40
0.0
 40
0.0
 40
0.0038102399
 40
0.0151984507
 40
0.0340809959
 40
0.0603144473
 40
0.0936993524
 40
0.133981779
 40
0.1808550897
 40
0.2339625496
 40
0.2929000553
 40
0.3572190461
 40
0.4264299909
 40
0.5000062462
 40
0.5773878618
 40
0.6579856963
 40
0.7411864645
 40
0.8263572572
 40
0.9128490637
 40
1.0
 40
1.0
 40
1.0
 40
1.0
 10
-75.2460891411
 20
36.3418088185
 30
0.0
 10
-75.2441840406
 20
36.3418004414
 30
0.0
 10
-75.2481336556
 20
36.3296103789
 30
0.0
 10
-75.243926623
 20
36.316990992
 30
0.0
 10
-75.2459765086
 20
36.2862357763
 30
0.0
 10
-75.2447998204
 20
36.2480813393
 30
0.0
 10
-75.2450227501
 20
36.1977094641
 30
0.0
 10
-75.2447630602
 20
36.1375885124
 30
0.0
 10
-75.2447188528
 20
36.0674060881
 30
0.0
 10
-75.2446504998
 20
35.987962684
 30
0.0
 10
-75.2446382124
 20
35.8997749629
 30
0.0
 10
-75.2446569582
 20
35.8035421122
 30
0.0
 10
-75.244714556
 20
35.6999878189
 30
0.0
 10
-75.2448082712
 20
35.5899027957
 30
0.0
 10
-75.2449381532
 20
35.4741241426
 30
0.0
 10
-75.2451030407
 20
35.3535332896
 30
0.0
 10
-75.2453017813
 20
35.2290478516
 30
0.0
 10
-75.2455328256
 20
35.1016154613
 30
0.0
 10
-75.2457945093
 20
34.9722080268
 30
0.0
 10
-75.245987737
 20
34.8853862457
 30
0.0
 10
-75.2460891583
 20
34.8418105824
 30
0.0
 11
-75.2460891411
 21
36.3418088185
 31
0.0
 11
-75.2457982228
 21
36.3361008126
 31
0.0
 11
-75.2455360436
 21
36.3190203857
 31
0.0
 11
-75.2453046598
 21
36.2906973094
 31
0.0
 11
-75.2451058046
 21
36.2513473519
 31
0.0
 11
-75.2449410018
 21
36.2012699055
 31
0.0
 11
-75.2448115019
 21
36.1408459699
 31
0.0
 11
-75.2447182918
 21
36.0705355604
 31
0.0
 11
-75.2446620805
 21
35.9908738178
 31
0.0
 11
-75.2446432956
 21
35.9024669258
 31
0.0
 11
-75.2446620804
 21
35.8059877479
 31
0.0
 11
-75.2447182917
 21
35.7021705996
 31
0.0
 11
-75.2448115019
 21
35.5918054628
 31
0.0
 11
-75.2449410021
 21
35.4757322773
 31
0.0
 11
-75.2451058054
 21
35.3548347689
 31
0.0
 11
-75.2453046609
 21
35.230032878
 31
0.0
 11
-75.245536046
 21
35.1022759801
 31
0.0
 11
-75.2457982243
 21
34.9725376027
 31
0.0
 11
-75.2460891583
 21
34.8418105824
 31
0.0
  0
SPLINE
  5
4DA
100
AcDbEntity
  8
RACCORDO
100
AcDbSpline
 62
253
  6
CONTINUOUS
 70
0
 71
3
 72
25
 73
21
 74
19
 42
0.0000001
 43
0.0000001
 44
0.0000000001
 12
0.0034917482
 22
-1.5000056086
 32
0.0
 13
-1.4999804905
 23
-0.0068353815
 33
0.0
 40
0.0
 40
0.0
 40
0.0
 40
0.0
 40
0.0871517836
 40
0.1736436255
 40
0.2588144533
 40
0.3420152465
 40
0.4226130836
 40
0.4999946939
 40
0.5735709355
 40
0.6427818516
 40
0.7071008001
 40
0.7660382525
 40
0.8191456465
 40
0.8660188787
 40
0.906301219
 40
0.9396860293
 40
0.9659193727
 40
0.9848018027
 40
0.9961898918
 40
1.0
 40
1.0
 40
1.0
 40
1.0
 10
-75.2460891557
 20
-44.8845009446
 30
0.0
 10
-75.2459877183
 20
-44.9280769993
 30
0.0
 10
-75.245794518
 20
-45.0148991576
 30
0.0
 10
-75.24553282
 20
-45.1443069553
 30
0.0
 10
-75.2453017815
 20
-45.2717392991
 30
0.0
 10
-75.2451030395
 20
-45.3962246765
 30
0.0
 10
-75.244938153
 20
-45.5168154515
 30
0.0
 10
-75.2448082712
 20
-45.6325940108
 30
0.0
 10
-75.2447145561
 20
-45.7426789287
 30
0.0
 10
-75.2446569583
 20
-45.846233103
 30
0.0
 10
-75.2446382124
 20
-45.9424658206
 30
0.0
 10
-75.2446504997
 20
-46.0306533949
 30
0.0
 10
-75.2447188526
 20
-46.110096644
 30
0.0
 10
-75.2447630603
 20
-46.1802788934
 30
0.0
 10
-75.24502275
 20
-46.2403996939
 30
0.0
 10
-75.2447998223
 20
-46.290771322
 30
0.0
 10
-75.245976505
 20
-46.3289257433
 30
0.0
 10
-75.2439266388
 20
-46.3596803644
 30
0.0
 10
-75.2481336134
 20
-46.3723002926
 30
0.0
 10
-75.2441841119
 20
-46.3844893926
 30
0.0
 10
-75.2460891412
 20
-46.3844980738
 30
0.0
 11
-75.2460891557
 21
-44.8845009446
 31
0.0
 11
-75.2457982228
 21
-45.0152291392
 31
0.0
 11
-75.2455360436
 21
-45.1449674738
 31
0.0
 11
-75.2453046598
 21
-45.2727243298
 31
0.0
 11
-75.2451058046
 21
-45.397526166
 31
0.0
 11
-75.2449410018
 21
-45.5184235889
 31
0.0
 11
-75.2448115019
 21
-45.6344966806
 31
0.0
 11
-75.2447182918
 21
-45.7448617154
 31
0.0
 11
-75.2446620805
 21
-45.8486787437
 31
0.0
 11
-75.2446432956
 21
-45.9451577867
 31
0.0
 11
-75.2446620804
 21
-46.0335645335
 31
0.0
 11
-75.2447182917
 21
-46.1132261184
 31
0.0
 11
-75.2448115019
 21
-46.1835363583
 31
0.0
 11
-75.2449410021
 21
-46.2439601196
 31
0.0
 11
-75.2451058054
 21
-46.2940373867
 31
0.0
 11
-75.2453046609
 21
-46.3333871532
 31
0.0
 11
-75.245536046
 21
-46.3617100357
 31
0.0
 11
-75.2457982243
 21
-46.3787902674
 31
0.0
 11
-75.2460891412
 21
-46.3844980738
 31
0.0
  0
ELLIPSE
  5
4DB
100
AcDbEntity
  8
RACCORDO
100
AcDbEllipse
 62
7
  6
CONTINUOUS
 10
-48.4999428824
 20
-45.0212875101
 30
0.0
 11
1.0607409467
 21
1.0607409467
 31
0.0
 40
0.9999238505
 41
2.3562325664
 42
3.9269527408
  0
ELLIPSE
  5
4DC
100
AcDbEntity
  8
RACCORDO
100
AcDbEllipse
 62
7
  6
CONTINUOUS
 10
48.4999428824
 20
-45.0212875101
 30
0.0
 11
1.0607409467
 21
-1.0607409467
 31
0.0
 40
0.9999238505
 41
-0.7853600872
 42
0.7853600872
  0
ELLIPSE
  5
4DD
100
AcDbEntity
  8
RACCORDO
100
AcDbEllipse
 62
7
  6
CONTINUOUS
 10
48.4999428824
 20
34.9785982548
 30
0.0
 11
1.0607409467
 21
1.0607409467
 31
0.0
 40
0.9999238505
 41
-0.7853600872
 42
0.7853600872
  0
ELLIPSE
  5
4DE
100
AcDbEntity
  8
RACCORDO
100
AcDbEllipse
 62
7
  6
CONTINUOUS
 10
-48.4999428824
 20
34.9785982548
 30
0.0
 11
1.0607409467
 21
-1.0607409467
 31
0.0
 40
0.9999238505
 41
2.3562325664
 42
3.9269527408
  0
ELLIPSE
  5
4DF
100
AcDbEntity
  8
RACCORDO
100
AcDbEllipse
 62
7
  6
CONTINUOUS
 10
-37.249961918
 20
17.2286172904
 30
0.0
 11
-0.1768305473
 21
0.1768305473
 31
0.0
 40
0.9996954599
 41
-0.7852458701
 42
0.7852458701
  0
ELLIPSE
  5
4E0
100
AcDbEntity
  8
RACCORDO
100
AcDbEllipse
 62
7
  6
CONTINUOUS
 10
-37.249961918
 20
-27.2713065456
 30
0.0
 11
-0.1768305473
 21
-0.1768305473
 31
0.0
 40
0.9996954599
 41
-0.7852458701
 42
0.7852458701
  0
ELLIPSE
  5
4E1
100
AcDbEntity
  8
RACCORDO
100
AcDbEllipse
 62
7
  6
CONTINUOUS
 10
37.249961918
 20
17.2286172904
 30
0.0
 11
0.1768305473
 21
0.1768305473
 31
0.0
 40
0.9996954599
 41
-0.7852458701
 42
0.7852458701
  0
ELLIPSE
  5
4E2
100
AcDbEntity
  8
RACCORDO
100
AcDbEllipse
 62
7
  6
CONTINUOUS
 10
37.249961918
 20
-27.2713065456
 30
0.0
 11
-0.1768305473
 21
0.1768305473
 31
0.0
 40
0.9996954599
 41
2.3563467834
 42
3.9268385237
  0
ENDSEC
  0
SECTION
  2
OBJECTS
  0
DICTIONARY
  5
C
100
AcDbDictionary
280
0
281
1
  3
ACAD_GROUP
350
D
  3
ACAD_MLINESTYLE
350
17
  3
ACAD_LAYOUT
350
1A
  3
ACAD_PLOTSETTINGS
350
19
  3
ACAD_PLOTSTYLENAME
350
E
  0
DICTIONARY
  5
D
102
{ACAD_REACTORS
330
C
102
}
100
AcDbDictionary
280
0
281
1
  0
ACDBDICTIONARYWDFLT
  5
E
102
{ACAD_REACTORS
330
C
102
}
100
AcDbDictionary
281
1
  3
Normal
350
F
100
AcDbDictionaryWithDefault
340
F
  0
DICTIONARY
  5
17
102
{ACAD_REACTORS
330
C
102
}
100
AcDbDictionary
280
0
281
1
  3
Standard
350
18
  0
DICTIONARY
  5
19
102
{ACAD_REACTORS
330
C
102
}
100
AcDbDictionary
281
1
  0
DICTIONARY
  5
1A
102
{ACAD_REACTORS
330
C
102
}
100
AcDbDictionary
281
1
  3
Model
350
4E3
  3
Layout1
350
4E4
  0
ACDBPLACEHOLDER
  5
F
102
{ACAD_REACTORS
330
E
102
}
  0
MLINESTYLE
  5
18
102
{ACAD_REACTORS
330
17
102
}
100
AcDbMlineStyle
  2
STANDARD
 70
0
  3

 62
256
 51
90.0
 52
90.0
 71
2
 49
0.5
 62
256
  6
BYLAYER
 49
-0.5
 62
256
  6
BYLAYER
  0
LAYOUT
  5
4E3
102
{ACAD_REACTORS
330
1A
102
}
100
AcDbPlotSettings
  1

  2
none_device
  4
ISO_A4_(297.00_x_210.00_MM)
  6

 40
0.0
 41
0.0
 42
0.0
 43
0.0
 44
297.0
 45
210.0
 46
0.0
 47
0.0
 48
0.0
 49
0.0
140
0.0
141
0.0
142
1.0
143
1.0
 70
1024
 72
1
 73
0
 74
0
  7

 75
0
147
1.0
148
0.0
149
0.0
100
AcDbLayout
  1
Model
 70
0
 71
0
 10
0.0
 20
0.0
 11
297.0
 21
210.0
 12
0.0
 22
0.0
 32
0.0
 14
0.0
 24
0.0
 34
0.0
 15
0.0
 25
0.0
 35
0.0
146
0.0
 13
0.0
 23
0.0
 33
0.0
 16
1.0
 26
0.0
 36
0.0
 17
0.0
 27
1.0
 37
0.0
 76
0
330
216
345
0
346
0
  0
LAYOUT
  5
4E4
102
{ACAD_REACTORS
330
1A
102
}
100
AcDbPlotSettings
  1

  2
none_device
  4
ISO_A4_(297.00_x_210.00_MM)
  6

 40
0.0
 41
0.0
 42
0.0
 43
0.0
 44
297.0
 45
210.0
 46
0.0
 47
0.0
 48
0.0
 49
0.0
140
0.0
141
0.0
142
1.0
143
1.0
 70
0
 72
1
 73
0
 74
0
  7

 75
0
147
1.0
148
0.0
149
0.0
100
AcDbLayout
  1
Layout1
 70
0
 71
1
 10
0.0
 20
0.0
 11
297.0
 21
210.0
 12
0.0
 22
0.0
 32
0.0
 14
0.0
 24
0.0
 34
0.0
 15
0.0
 25
0.0
 35
0.0
146
0.0
 13
0.0
 23
0.0
 33
0.0
 16
1.0
 26
0.0
 36
0.0
 17
0.0
 27
1.0
 37
0.0
 76
0
330
217
345
0
346
0
  0
ENDSEC
  0
EOF
