  0
SECTION
  2
HEADER
  9
$ACADVER
  1
AC1015
  9
$DWGCODEPAGE
  3
ANSI_1252
  9
$EXTMAX
 10
297.0
 20
210.0
 30
0.0
  9
$EXTMIN
 10
0.0
 20
0.0
 30
0.0
  9
$LIMMIN
 10
0.0
 20
0.0
  9
$LIMMAX
 10
297.0
 20
210.0
  9
$VIEWCTR
 10
148.5
 20
105.0
  9
$VIEWSIZE
 40
210.0
  9
$CLAYER
  8
0
  9
$LTSCALE
 40
16.335
  9
$CELTYPE
  6
BYLAYER
  9
$DIMSCALE
 40
1.0
  9
$DIMASZ
 40
3.0
  9
$DIMEXO
 40
1.85625
  9
$DIMDLI
 40
11.286
  9
$DIMEXE
 40
5.346
  9
$DIMCEN
 40
2.673
  9
$DIMLFAC
 40
1.0
  9
$DIMBLK
  1
_FILLED
  9
$DIMTXT
 40
3.0
  9
$DIMTOL
 70
1
  9
$DIMLIM
 70
0
  9
$DIMTFAC
 40
1.0
  9
$DIMTP
 40
0.01
  9
$DIMTM
 40
0.01
  9
$PDMODE
 70
3
  9
$PDSIZE
 40
3.0
  9
$HANDSEED
  5
493
  9
$TILEMODE
 70
1
  9
$MEASUREMENT
 70
1
  9
$INSUNITS
 70
4
  0
ENDSEC
  0
SECTION
  2
CLASSES
  0
CLASS
  1
ACDBDICTIONARYWDFLT
  2
AcDbDictionaryWithDefault
  3
AutoCAD 2000
 90
0
280
0
281
0
  0
CLASS
  1
ACDBPLACEHOLDER
  2
AcDbPlaceHolder
  3
AutoCAD 2000
 90
0
280
0
281
0
  0
CLASS
  1
LAYOUT
  2
AcDbLayout
  3
AutoCAD 2000
 90
0
280
0
281
0
  0
ENDSEC
  0
SECTION
  2
TABLES
  0
TABLE
  2
VPORT
  5
8
100
AcDbSymbolTable
 70
2
  0
VPORT
  5
1F4
100
AcDbSymbolTableRecord
100
AcDbViewportTableRecord
  2
*ACTIVE
 70
0
 10
0.0
 20
0.0
 11
1.0
 21
1.0
 12
148.5
 22
105.0
 13
0.0
 23
0.0
 14
1.0
 24
1.0
 15
0.0
 25
0.0
 16
0.0
 26
0.0
 36
1.0
 17
0.0
 27
0.0
 37
0.0
 40
210.0
 41
1.4142857143
 42
50.0
 43
0.0
 44
0.0
 50
0.0
 51
0.0
 71
0
 72
100
 73
1
 74
1
 75
0
 76
0
 77
0
 78
0
  0
ENDTAB
  0
TABLE
  2
LTYPE
  5
5
100
AcDbSymbolTable
 70
6
  0
LTYPE
  5
14
100
AcDbSymbolTableRecord
100
AcDbLinetypeTableRecord
  2
BYBLOCK
 70
0
  3

 72
65
 73
0
 40
0.0
  0
LTYPE
  5
15
100
AcDbSymbolTableRecord
100
AcDbLinetypeTableRecord
  2
BYLAYER
 70
0
  3

 72
65
 73
0
 40
0.0
  0
LTYPE
  5
16
100
AcDbSymbolTableRecord
100
AcDbLinetypeTableRecord
  2
CONTINUOUS
 70
64
  3
Solid line
 72
65
 73
0
 40
0.0
  0
LTYPE
  5
1F5
100
AcDbSymbolTableRecord
100
AcDbLinetypeTableRecord
  2
CENTER
 70
64
  3
____ _ ____ _ ____ _ ____ _ ____ _ ____ _ ____
 72
65
 73
4
 40
0.6
 49
0.375
 74
0
 49
-0.075
 74
0
 49
0.075
 74
0
 49
-0.075
 74
0
  0
LTYPE
  5
1F6
100
AcDbSymbolTableRecord
100
AcDbLinetypeTableRecord
  2
HIDDEN
 70
64
  3
- - - - - - - - - - - - - - - - - - - -
 72
65
 73
2
 40
0.2
 49
0.1
 74
0
 49
-0.1
 74
0
  0
LTYPE
  5
1F7
100
AcDbSymbolTableRecord
100
AcDbLinetypeTableRecord
  2
PHANTOM
 70
64
  3
_____ _ _ _____ _ _ _____ _ _ _____
 72
65
 73
6
 40
0.8
 49
0.45
 74
0
 49
-0.05
 74
0
 49
0.1
 74
0
 49
-0.05
 74
0
 49
0.1
 74
0
 49
-0.05
 74
0
  0
LTYPE
  5
1F8
100
AcDbSymbolTableRecord
100
AcDbLinetypeTableRecord
  2
DOT
 70
64
  3
. . . . . . . . . . . . . . . . . . . .
 72
65
 73
2
 40
0.2
 49
0.1
 74
0
 49
-0.1
 74
0
  0
LTYPE
  5
1F9
100
AcDbSymbolTableRecord
100
AcDbLinetypeTableRecord
  2
DASHED
 70
64
  3
- - - - - - - - - - - - - - - - - - - -
 72
65
 73
2
 40
0.2
 49
0.1
 74
0
 49
-0.1
 74
0
  0
ENDTAB
  0
TABLE
  2
LAYER
  5
2
100
AcDbSymbolTable
 70
36
  0
LAYER
  5
10
100
AcDbSymbolTableRecord
100
AcDbLayerTableRecord
  2
0
 70
0
 62
7
  6
CONTINUOUS
370
-3
390
F
  0
LAYER
  5
1FA
100
AcDbSymbolTableRecord
100
AcDbLayerTableRecord
  2
DEFAULT_1
 70
0
 62
7
  6
CENTER
370
-3
390
F
  0
LAYER
  5
1FB
100
AcDbSymbolTableRecord
100
AcDbLayerTableRecord
  2
DEFAULT_2
 70
0
 62
7
  6
HIDDEN
370
-3
390
F
  0
LAYER
  5
1FC
100
AcDbSymbolTableRecord
100
AcDbLayerTableRecord
  2
DEFAULT_3
 70
0
 62
7
  6
PHANTOM
370
-3
390
F
  0
LAYER
  5
1FD
100
AcDbSymbolTableRecord
100
AcDbLayerTableRecord
  2
ASSI
 70
0
 62
7
  6
CONTINUOUS
370
-3
390
F
  0
LAYER
  5
1FE
100
AcDbSymbolTableRecord
100
AcDbLayerTableRecord
  2
COLOR5
 70
0
 62
7
  6
CONTINUOUS
370
-3
390
F
  0
LAYER
  5
1FF
100
AcDbSymbolTableRecord
100
AcDbLayerTableRecord
  2
COORDINATE
 70
0
 62
7
  6
CONTINUOUS
370
-3
390
F
  0
LAYER
  5
200
100
AcDbSymbolTableRecord
100
AcDbLayerTableRecord
  2
COORD_ORIGINE
 70
0
 62
7
  6
CONTINUOUS
370
-3
390
F
  0
LAYER
  5
201
100
AcDbSymbolTableRecord
100
AcDbLayerTableRecord
  2
COPY_PUBLISH
 70
0
 62
7
  6
CONTINUOUS
370
-3
390
F
  0
LAYER
  5
202
100
AcDbSymbolTableRecord
100
AcDbLayerTableRecord
  2
COSMETIC
 70
0
 62
7
  6
CONTINUOUS
370
-3
390
F
  0
LAYER
  5
203
100
AcDbSymbolTableRecord
100
AcDbLayerTableRecord
  2
CURVE
 70
0
 62
7
  6
CONTINUOUS
370
-3
390
F
  0
LAYER
  5
204
100
AcDbSymbolTableRecord
100
AcDbLayerTableRecord
  2
DRAFT
 70
0
 62
7
  6
CONTINUOUS
370
-3
390
F
  0
LAYER
  5
205
100
AcDbSymbolTableRecord
100
AcDbLayerTableRecord
  2
IMPORT_IGES
 70
0
 62
7
  6
CONTINUOUS
370
-3
390
F
  0
LAYER
  5
206
100
AcDbSymbolTableRecord
100
AcDbLayerTableRecord
  2
INTF_1
 70
0
 62
7
  6
CONTINUOUS
370
-3
390
F
  0
LAYER
  5
207
100
AcDbSymbolTableRecord
100
AcDbLayerTableRecord
  2
INTF_2
 70
0
 62
7
  6
CONTINUOUS
370
-3
390
F
  0
LAYER
  5
208
100
AcDbSymbolTableRecord
100
AcDbLayerTableRecord
  2
NOTE
 70
0
 62
7
  6
CONTINUOUS
370
-3
390
F
  0
LAYER
  5
209
100
AcDbSymbolTableRecord
100
AcDbLayerTableRecord
  2
PIANI
 70
0
 62
7
  6
CONTINUOUS
370
-3
390
F
  0
LAYER
  5
20A
100
AcDbSymbolTableRecord
100
AcDbLayerTableRecord
  2
PIANI_ORIGINE
 70
0
 62
7
  6
CONTINUOUS
370
-3
390
F
  0
LAYER
  5
20B
100
AcDbSymbolTableRecord
100
AcDbLayerTableRecord
  2
PUNTI
 70
0
 62
7
  6
CONTINUOUS
370
-3
390
F
  0
LAYER
  5
20C
100
AcDbSymbolTableRecord
100
AcDbLayerTableRecord
  2
RACCORDO
 70
0
 62
7
  6
CONTINUOUS
370
-3
390
F
  0
LAYER
  5
20D
100
AcDbSymbolTableRecord
100
AcDbLayerTableRecord
  2
RGB__255__255__255__
 70
0
 62
7
  6
CONTINUOUS
370
-3
390
F
  0
LAYER
  5
20E
100
AcDbSymbolTableRecord
100
AcDbLayerTableRecord
  2
RGB____0____0____0__
 70
0
 62
7
  6
CONTINUOUS
370
-3
390
F
  0
LAYER
  5
20F
100
AcDbSymbolTableRecord
100
AcDbLayerTableRecord
  2
SMUSSO
 70
0
 62
7
  6
CONTINUOUS
370
-3
390
F
  0
LAYER
  5
210
100
AcDbSymbolTableRecord
100
AcDbLayerTableRecord
  2
SNAPLINE
 70
0
 62
7
  6
CONTINUOUS
370
-3
390
F
  0
LAYER
  5
211
100
AcDbSymbolTableRecord
100
AcDbLayerTableRecord
  2
SUPERFICI
 70
0
 62
7
  6
CONTINUOUS
370
-3
390
F
  0
LAYER
  5
212
100
AcDbSymbolTableRecord
100
AcDbLayerTableRecord
  2
TRASH
 70
0
 62
7
  6
CONTINUOUS
370
-3
390
F
  0
LAYER
  5
213
100
AcDbSymbolTableRecord
100
AcDbLayerTableRecord
  2
XSEC_DATUMS
 70
0
 62
7
  6
CONTINUOUS
370
-3
390
F
  0
ENDTAB
  0
TABLE
  2
STYLE
  5
3
100
AcDbSymbolTable
 70
1
  0
STYLE
  5
11
100
AcDbSymbolTableRecord
100
AcDbTextStyleTableRecord
  2
STANDARD
 70
0
 40
0.0
 41
0.8
 50
0.0
 71
0
 42
0.2
  3
txt
  4

  0
STYLE
  5
214
100
AcDbSymbolTableRecord
100
AcDbTextStyleTableRecord
  2
TEXTSTYLE_1
 70
0
 40
0.0
 41
0.8
 50
0.0
 71
0
 42
0.2
  3
gdt
  4

  0
ENDTAB
  0
TABLE
  2
VIEW
  5
6
100
AcDbSymbolTable
 70
0
  0
ENDTAB
  0
TABLE
  2
UCS
  5
7
100
AcDbSymbolTable
 70
0
  0
ENDTAB
  0
TABLE
  2
APPID
  5
9
100
AcDbSymbolTable
 70
1
  0
APPID
  5
215
100
AcDbSymbolTableRecord
100
AcDbRegAppTableRecord
  2
ACAD
 70
0
  0
ENDTAB
  0
TABLE
  2
BLOCK_RECORD
  5
1
100
AcDbSymbolTable
 70
0
  0
BLOCK_RECORD
  5
216
100
AcDbSymbolTableRecord
100
AcDbBlockTableRecord
  2
*Model_Space
  0
BLOCK_RECORD
  5
217
100
AcDbSymbolTableRecord
100
AcDbBlockTableRecord
  2
*Paper_Space
  0
BLOCK_RECORD
  5
218
100
AcDbSymbolTableRecord
100
AcDbBlockTableRecord
  2
_FILLED
  0
BLOCK_RECORD
  5
219
100
AcDbSymbolTableRecord
100
AcDbBlockTableRecord
  2
*D0
  0
BLOCK_RECORD
  5
21A
100
AcDbSymbolTableRecord
100
AcDbBlockTableRecord
  2
*D1
  0
BLOCK_RECORD
  5
21B
100
AcDbSymbolTableRecord
100
AcDbBlockTableRecord
  2
*D2
  0
BLOCK_RECORD
  5
21C
100
AcDbSymbolTableRecord
100
AcDbBlockTableRecord
  2
*D3
  0
BLOCK_RECORD
  5
21D
100
AcDbSymbolTableRecord
100
AcDbBlockTableRecord
  2
*D4
  0
ENDTAB
  0
TABLE
  2
DIMSTYLE
  5
A
100
AcDbSymbolTable
 70
1
100
AcDbDimStyleTable
 71
0
  0
DIMSTYLE
105
21E
100
AcDbSymbolTableRecord
100
AcDbDimStyleTableRecord
  2
STANDARD
 70
0
  3

  4

 40
1.0
 41
3.0
 42
0.0625
 43
0.38
 44
0.18
 45
0.0
 46
0.0
 47
0.01
 48
0.01
140
3.0
141
0.09
142
0.0
143
25.4
144
1.0
145
0.0
146
1.0
147
0.09
 71
1.0
 72
0.0
 73
0
 74
0
 75
0
 76
0
 77
1
 78
8
170
0
171
2
172
0
173
0
174
0
175
0
176
0
177
0
178
0
270
2
271
2
272
2
273
2
274
2
275
0
280
0
281
0
282
0
283
1
284
8
285
0
286
0
287
3
288
0
340
11
341
218
342
218
343
218
344
218
  0
DIMSTYLE
105
21F
100
AcDbSymbolTableRecord
100
AcDbDimStyleTableRecord
  2
DIMSTYLE_1
 70
0
  3

  4

 40
1.0
 41
3.0
 42
0.0625
 43
0.38
 44
0.18
 45
0.0
 46
0.0
 47
0.0
 48
0.0
140
3.0
141
0.09
142
0.0
143
25.4
144
1.0
145
0.0
146
1.0
147
0.09
 71
0.0
 72
0.0
 73
0
 74
0
 75
0
 76
0
 77
1
 78
8
170
0
171
2
172
0
173
0
174
0
175
0
176
0
177
0
178
0
270
2
271
2
272
2
273
2
274
2
275
0
280
0
281
0
282
0
283
1
284
8
285
0
286
0
287
3
288
0
340
11
341
218
342
218
343
218
344
218
  0
ENDTAB
  0
ENDSEC
  0
SECTION
  2
BLOCKS
  0
BLOCK
  5
20
100
AcDbEntity
  8
0
100
AcDbBlockBegin
  2
*Model_Space
 70
0
 10
0.0
 20
0.0
 30
0.0
  3
*Model_Space
  1

  0
ENDBLK
  5
21
100
AcDbEntity
  8
0
100
AcDbBlockEnd
  0
BLOCK
  5
1C
100
AcDbEntity
  8
0
100
AcDbBlockBegin
  2
*Paper_Space
 70
0
 10
0.0
 20
0.0
 30
0.0
  3
*Paper_Space
  1

  0
ENDBLK
  5
1D
100
AcDbEntity
  8
0
100
AcDbBlockEnd
  0
BLOCK
  5
220
100
AcDbEntity
  8
0
100
AcDbBlockBegin
  2
_FILLED
 70
64
 10
0.0
 20
0.0
  3
_FILLED
  1

  0
SOLID
  5
221
100
AcDbEntity
  8
0
  6
BYBLOCK
 62
0
100
AcDbTrace
 10
0.0
 20
0.0
 11
-1.0
 21
0.3166666667
 12
-1.0
 22
-0.3166666667
 13
-1.0
 23
-0.3166666667
  0
ENDBLK
  5
222
100
AcDbEntity
  8
0
  6
BYBLOCK
 62
0
100
AcDbBlockEnd
  0
BLOCK
  5
223
100
AcDbEntity
  8
0
100
AcDbBlockBegin
 62
7
  6
CONTINUOUS
  2
*D0
 70
65
 10
0.0
 20
0.0
  3
*D0
  1

  0
MTEXT
  5
224
100
AcDbEntity
  8
0
100
AcDbMText
 62
7
  6
CONTINUOUS
  7
STANDARD
 71
2
 72
1
 10
72.25
 20
0.0
 30
0.0
 11
0.0
 21
1.0
 31
0.0
 44
0.9
  1
83
 40
3.0
 41
4.5
  0
LINE
  5
225
100
AcDbEntity
  8
0
100
AcDbLine
 62
7
  6
CONTINUOUS
 10
67.0000571154
 20
41.5
 11
77.5
 21
41.5
  0
LINE
  5
226
100
AcDbEntity
  8
0
100
AcDbLine
 62
7
  6
CONTINUOUS
 10
67.0000571154
 20
-41.5
 11
77.5
 21
-41.5
  0
LINE
  5
227
100
AcDbEntity
  8
0
100
AcDbLine
 62
7
  6
CONTINUOUS
 10
76.0
 20
41.5
 11
76.0
 21
0.0
  0
LINE
  5
228
100
AcDbEntity
  8
0
100
AcDbLine
 62
7
  6
CONTINUOUS
 10
76.0
 20
-41.5
 11
76.0
 21
0.0
  0
INSERT
  5
229
100
AcDbEntity
  8
0
100
AcDbBlockReference
 62
7
  6
CONTINUOUS
  2
_FILLED
 10
76.0
 20
41.5
 41
3.0
 42
3.0
 43
3.0
 50
90.0
  0
INSERT
  5
22A
100
AcDbEntity
  8
0
100
AcDbBlockReference
 62
7
  6
CONTINUOUS
  2
_FILLED
 10
76.0
 20
-41.5
 41
3.0
 42
3.0
 43
3.0
 50
270.0
  0
ENDBLK
  5
22B
100
AcDbEntity
  8
0
  6
BYBLOCK
 62
0
100
AcDbBlockEnd
  0
BLOCK
  5
22C
100
AcDbEntity
  8
0
100
AcDbBlockBegin
 62
7
  6
CONTINUOUS
  2
*D1
 70
65
 10
0.0
 20
0.0
  3
*D1
  1

  0
MTEXT
  5
22D
100
AcDbEntity
  8
0
100
AcDbMText
 62
7
  6
CONTINUOUS
  7
STANDARD
 71
2
 72
1
 10
0.0
 20
53.3204415871
 30
0.0
 11
1.0
 21
0.0
 31
0.0
 44
0.9
  1
136
 40
3.0
 41
6.2142857143
  0
LINE
  5
22E
100
AcDbEntity
  8
0
100
AcDbLine
 62
7
  6
CONTINUOUS
 10
68.0
 20
40.5000571154
 11
68.0
 21
51.0704415871
  0
LINE
  5
22F
100
AcDbEntity
  8
0
100
AcDbLine
 62
7
  6
CONTINUOUS
 10
-68.0
 20
40.5000571154
 11
-68.0
 21
51.0704415871
  0
LINE
  5
230
100
AcDbEntity
  8
0
100
AcDbLine
 62
7
  6
CONTINUOUS
 10
68.0
 20
49.5704415871
 11
0.0
 21
49.5704415871
  0
LINE
  5
231
100
AcDbEntity
  8
0
100
AcDbLine
 62
7
  6
CONTINUOUS
 10
-68.0
 20
49.5704415871
 11
0.0
 21
49.5704415871
  0
INSERT
  5
232
100
AcDbEntity
  8
0
100
AcDbBlockReference
 62
7
  6
CONTINUOUS
  2
_FILLED
 10
68.0
 20
49.5704415871
 41
3.0
 42
3.0
 43
3.0
  0
INSERT
  5
233
100
AcDbEntity
  8
0
100
AcDbBlockReference
 62
7
  6
CONTINUOUS
  2
_FILLED
 10
-68.0
 20
49.5704415871
 41
3.0
 42
3.0
 43
3.0
 50
180.0
  0
ENDBLK
  5
234
100
AcDbEntity
  8
0
  6
BYBLOCK
 62
0
100
AcDbBlockEnd
  0
BLOCK
  5
235
100
AcDbEntity
  8
0
100
AcDbBlockBegin
 62
7
  6
CONTINUOUS
  2
*D2
 70
65
 10
0.0
 20
0.0
  3
*D2
  1

  0
MTEXT
  5
236
100
AcDbEntity
  8
0
100
AcDbMText
 62
7
  6
CONTINUOUS
  7
STANDARD
 71
2
 72
1
 10
-121.5563800089
 20
53.3204415871
 30
0.0
 11
1.0
 21
0.0
 31
0.0
 44
0.9
  1
40
 40
3.0
 41
4.7142857143
  0
LINE
  5
237
100
AcDbEntity
  8
0
100
AcDbLine
 62
7
  6
CONTINUOUS
 10
-101.5563800089
 20
40.1596331162
 11
-101.5563800089
 21
51.0704415871
  0
LINE
  5
238
100
AcDbEntity
  8
0
100
AcDbLine
 62
7
  6
CONTINUOUS
 10
-141.5563800089
 20
40.5000571154
 11
-141.5563800089
 21
51.0704415871
  0
LINE
  5
239
100
AcDbEntity
  8
0
100
AcDbLine
 62
7
  6
CONTINUOUS
 10
-101.5563800089
 20
49.5704415871
 11
-121.5563800089
 21
49.5704415871
  0
LINE
  5
23A
100
AcDbEntity
  8
0
100
AcDbLine
 62
7
  6
CONTINUOUS
 10
-141.5563800089
 20
49.5704415871
 11
-121.5563800089
 21
49.5704415871
  0
INSERT
  5
23B
100
AcDbEntity
  8
0
100
AcDbBlockReference
 62
7
  6
CONTINUOUS
  2
_FILLED
 10
-101.5563800089
 20
49.5704415871
 41
3.0
 42
3.0
 43
3.0
  0
INSERT
  5
23C
100
AcDbEntity
  8
0
100
AcDbBlockReference
 62
7
  6
CONTINUOUS
  2
_FILLED
 10
-141.5563800089
 20
49.5704415871
 41
3.0
 42
3.0
 43
3.0
 50
180.0
  0
ENDBLK
  5
23D
100
AcDbEntity
  8
0
  6
BYBLOCK
 62
0
100
AcDbBlockEnd
  0
BLOCK
  5
23E
100
AcDbEntity
  8
0
100
AcDbBlockBegin
 62
7
  6
CONTINUOUS
  2
*D3
 70
65
 10
0.0
 20
0.0
  3
*D3
  1

  0
MTEXT
  5
23F
100
AcDbEntity
  8
0
100
AcDbMText
 62
7
  6
CONTINUOUS
  7
STANDARD
 71
2
 72
1
 10
-149.5563800089
 20
53.3204415871
 30
0.0
 11
1.0
 21
0.0
 31
0.0
 44
0.9
  1
16
 40
3.0
 41
4.0714285714
  0
LINE
  5
240
100
AcDbEntity
  8
0
100
AcDbLine
 62
7
  6
CONTINUOUS
 10
-157.5563800089
 20
0.5
 11
-157.5563800089
 21
51.0704415871
  0
LINE
  5
241
100
AcDbEntity
  8
0
100
AcDbLine
 62
7
  6
CONTINUOUS
 10
-141.5563800089
 20
40.5000571154
 11
-141.5563800089
 21
51.0704415871
  0
LINE
  5
242
100
AcDbEntity
  8
0
100
AcDbLine
 62
7
  6
CONTINUOUS
 10
-157.5563800089
 20
49.5704415871
 11
-149.5563800089
 21
49.5704415871
  0
LINE
  5
243
100
AcDbEntity
  8
0
100
AcDbLine
 62
7
  6
CONTINUOUS
 10
-141.5563800089
 20
49.5704415871
 11
-149.5563800089
 21
49.5704415871
  0
INSERT
  5
244
100
AcDbEntity
  8
0
100
AcDbBlockReference
 62
7
  6
CONTINUOUS
  2
_FILLED
 10
-157.5563800089
 20
49.5704415871
 41
3.0
 42
3.0
 43
3.0
 50
180.0
  0
INSERT
  5
245
100
AcDbEntity
  8
0
100
AcDbBlockReference
 62
7
  6
CONTINUOUS
  2
_FILLED
 10
-141.5563800089
 20
49.5704415871
 41
3.0
 42
3.0
 43
3.0
  0
ENDBLK
  5
246
100
AcDbEntity
  8
0
  6
BYBLOCK
 62
0
100
AcDbBlockEnd
  0
BLOCK
  5
247
100
AcDbEntity
  8
0
100
AcDbBlockBegin
 62
7
  6
CONTINUOUS
  2
*D4
 70
65
 10
0.0
 20
0.0
  3
*D4
  1

  0
MTEXT
  5
248
100
AcDbEntity
  8
0
100
AcDbMText
 62
7
  6
CONTINUOUS
  7
STANDARD
 71
2
 72
1
 10
-129.5563800089
 20
63.3204415871
 30
0.0
 11
1.0
 21
0.0
 31
0.0
 44
0.9
  1
56
 40
3.0
 41
4.5
  0
LINE
  5
249
100
AcDbEntity
  8
0
100
AcDbLine
 62
7
  6
CONTINUOUS
 10
-101.5563800089
 20
41.0736289098
 11
-101.5563800089
 21
61.0704415871
  0
LINE
  5
24A
100
AcDbEntity
  8
0
100
AcDbLine
 62
7
  6
CONTINUOUS
 10
-157.5563800089
 20
0.5
 11
-157.5563800089
 21
61.0704415871
  0
LINE
  5
24B
100
AcDbEntity
  8
0
100
AcDbLine
 62
7
  6
CONTINUOUS
 10
-101.5563800089
 20
59.5704415871
 11
-129.5563800089
 21
59.5704415871
  0
LINE
  5
24C
100
AcDbEntity
  8
0
100
AcDbLine
 62
7
  6
CONTINUOUS
 10
-157.5563800089
 20
59.5704415871
 11
-129.5563800089
 21
59.5704415871
  0
INSERT
  5
24D
100
AcDbEntity
  8
0
100
AcDbBlockReference
 62
7
  6
CONTINUOUS
  2
_FILLED
 10
-101.5563800089
 20
59.5704415871
 41
3.0
 42
3.0
 43
3.0
  0
INSERT
  5
24E
100
AcDbEntity
  8
0
100
AcDbBlockReference
 62
7
  6
CONTINUOUS
  2
_FILLED
 10
-157.5563800089
 20
59.5704415871
 41
3.0
 42
3.0
 43
3.0
 50
180.0
  0
ENDBLK
  5
24F
100
AcDbEntity
  8
0
  6
BYBLOCK
 62
0
100
AcDbBlockEnd
  0
ENDSEC
  0
SECTION
  2
ENTITIES
  0
DIMENSION
  5
250
100
AcDbEntity
  8
0
100
AcDbDimension
 62
7
  6
CONTINUOUS
  2
*D0
 10
76.0
 20
-41.5
 11
74.7581656363
 21
-2.0114924931
 70
160
 71
2
 42
83.0
  3
DIMSTYLE_1
100
AcDbAlignedDimension
 13
67.0000571154
 23
41.5
 14
67.0000571154
 24
-41.5
 50
270.0
100
AcDbRotatedDimension
  0
DIMENSION
  5
251
100
AcDbEntity
  8
0
100
AcDbDimension
 62
7
  6
CONTINUOUS
  2
*D1
 10
-68.0
 20
49.5704415871
 11
-3.1071428571
 21
51.8204415871
 70
160
 71
2
 42
136.0
  3
DIMSTYLE_1
100
AcDbAlignedDimension
 13
68.0
 23
40.5000571154
 14
-68.0
 24
40.5000571154
 50
180.0
100
AcDbRotatedDimension
  0
DIMENSION
  5
252
100
AcDbEntity
  8
0
100
AcDbDimension
 62
7
  6
CONTINUOUS
  2
*D2
 10
-141.5563800089
 20
49.5704415871
 11
-123.913522866
 21
51.8204415871
 70
160
 71
2
 42
40.0
  3
DIMSTYLE_1
100
AcDbAlignedDimension
 13
-101.5563800089
 23
40.1596331162
 14
-141.5563800089
 24
40.5000571154
 50
180.0
100
AcDbRotatedDimension
  0
DIMENSION
  5
253
100
AcDbEntity
  8
0
100
AcDbDimension
 62
7
  6
CONTINUOUS
  2
*D3
 10
-141.5563800089
 20
49.5704415871
 11
-151.5920942946
 21
51.8204415871
 70
160
 71
2
 42
16.0
  3
DIMSTYLE_1
100
AcDbAlignedDimension
 13
-157.5563800089
 23
0.5
 14
-141.5563800089
 24
40.5000571154
100
AcDbRotatedDimension
  0
DIMENSION
  5
254
100
AcDbEntity
  8
0
100
AcDbDimension
 62
7
  6
CONTINUOUS
  2
*D4
 10
-157.5563800089
 20
59.5704415871
 11
-131.8063800089
 21
61.8204415871
 70
160
 71
2
 42
56.0
  3
DIMSTYLE_1
100
AcDbAlignedDimension
 13
-101.5563800089
 23
41.0736289098
 14
-157.5563800089
 24
0.5
 50
180.0
100
AcDbRotatedDimension
  0
LINE
  5
255
100
AcDbEntity
  8
RACCORDO
100
AcDbLine
 62
7
  6
CONTINUOUS
 10
-68.0
 20
40.0000571154
 11
-68.0
 21
-40.0000571154
  0
LINE
  5
256
100
AcDbEntity
  8
0
100
AcDbLine
 62
7
  6
CONTINUOUS
 10
-60.171604981
 20
26.6549273753
 11
-60.1221062937
 21
26.7611776175
  0
LINE
  5
257
100
AcDbEntity
  8
0
100
AcDbLine
 62
7
  6
CONTINUOUS
 10
-57.828395019
 20
27.3450726247
 11
-57.8778937063
 21
27.2388223825
  0
LINE
  5
258
100
AcDbEntity
  8
0
100
AcDbLine
 62
7
  6
CONTINUOUS
 10
-60.122106287
 20
-26.7611776274
 11
-60.1716048889
 21
-26.6549273261
  0
LINE
  5
259
100
AcDbEntity
  8
0
100
AcDbLine
 62
7
  6
CONTINUOUS
 10
-57.877893713
 20
-27.2388223726
 11
-57.8283951111
 21
-27.3450726739
  0
LINE
  5
25A
100
AcDbEntity
  8
0
100
AcDbLine
 62
7
  6
CONTINUOUS
 10
-59.6
 20
-29.8321553217
 11
-59.6
 21
-27.4538073666
  0
LINE
  5
25B
100
AcDbEntity
  8
0
100
AcDbLine
 62
7
  6
CONTINUOUS
 10
-59.6
 20
-26.5461926334
 11
-59.6
 21
-24.1678446783
  0
LINE
  5
25C
100
AcDbEntity
  8
0
100
AcDbLine
 62
7
  6
CONTINUOUS
 10
-59.6
 20
24.1678446783
 11
-59.6
 21
26.5461926334
  0
LINE
  5
25D
100
AcDbEntity
  8
0
100
AcDbLine
 62
7
  6
CONTINUOUS
 10
-59.6
 20
27.4538073666
 11
-59.6
 21
29.8321553217
  0
LINE
  5
25E
100
AcDbEntity
  8
0
100
AcDbLine
 62
7
  6
CONTINUOUS
 10
-58.4
 20
29.8321553217
 11
-58.4
 21
27.4538073666
  0
LINE
  5
25F
100
AcDbEntity
  8
0
100
AcDbLine
 62
7
  6
CONTINUOUS
 10
-58.4
 20
26.5461926334
 11
-58.4
 21
24.1678446783
  0
LINE
  5
260
100
AcDbEntity
  8
0
100
AcDbLine
 62
7
  6
CONTINUOUS
 10
-58.4
 20
-24.1678446783
 11
-58.4
 21
-26.5461926334
  0
LINE
  5
261
100
AcDbEntity
  8
0
100
AcDbLine
 62
7
  6
CONTINUOUS
 10
-58.4
 20
-27.4538073666
 11
-58.4
 21
-29.8321553217
  0
LINE
  5
262
100
AcDbEntity
  8
RACCORDO
100
AcDbLine
 62
7
  6
CONTINUOUS
 10
-50.0
 20
22.2500380762
 11
-50.0
 21
-22.2500380762
  0
LINE
  5
263
100
AcDbEntity
  8
RACCORDO
100
AcDbLine
 62
253
  6
CONTINUOUS
 10
-49.7938645711
 20
22.810081334
 11
-49.7938645711
 21
22.5438264949
  0
LINE
  5
264
100
AcDbEntity
  8
RACCORDO
100
AcDbLine
 62
253
  6
CONTINUOUS
 10
-49.7938645711
 20
-22.810081334
 11
-49.7938645711
 21
-22.5438264949
  0
LINE
  5
265
100
AcDbEntity
  8
0
100
AcDbLine
 62
7
  6
CONTINUOUS
 10
-60.171604981
 20
-27.3450726247
 11
-60.1221062937
 21
-27.2388223825
  0
LINE
  5
266
100
AcDbEntity
  8
0
100
AcDbLine
 62
7
  6
CONTINUOUS
 10
-60.122106287
 20
27.2388223726
 11
-60.1716048889
 21
27.3450726739
  0
LINE
  5
267
100
AcDbEntity
  8
0
100
AcDbLine
 62
7
  6
CONTINUOUS
 10
-57.828395019
 20
-26.6549273753
 11
-57.8778937063
 21
-26.7611776175
  0
LINE
  5
268
100
AcDbEntity
  8
RACCORDO
100
AcDbLine
 62
7
  6
CONTINUOUS
 10
-66.5000571154
 20
-41.5
 11
66.5000571154
 21
-41.5
  0
LINE
  5
269
100
AcDbEntity
  8
RACCORDO
100
AcDbLine
 62
253
  6
CONTINUOUS
 10
66.4205051795
 20
-41.4204480641
 11
-66.4205051795
 21
-41.4204480641
  0
LINE
  5
26A
100
AcDbEntity
  8
RACCORDO
100
AcDbLine
 62
253
  6
CONTINUOUS
 10
66.3903975267
 20
-36.9483869615
 11
-66.3903975267
 21
-36.9483869592
  0
LINE
  5
26B
100
AcDbEntity
  8
0
100
AcDbLine
 62
7
  6
CONTINUOUS
 10
-57.877893713
 20
26.7611776274
 11
-57.8283951111
 21
26.6549273261
  0
LINE
  5
26C
100
AcDbEntity
  8
ASSI
100
AcDbLine
 62
7
  6
CONTINUOUS
 10
48.963796
 20
-34.499993
 11
49.523817
 21
-34.499986
  0
LINE
  5
26D
100
AcDbEntity
  8
ASSI
100
AcDbLine
 62
7
  6
CONTINUOUS
 10
46.94095
 20
-34.499993
 11
47.500957
 21
-34.499986
  0
LINE
  5
26E
100
AcDbEntity
  8
ASSI
100
AcDbLine
 62
7
  6
CONTINUOUS
 10
53.305315
 20
-34.499986
 11
53.936092
 21
-34.499979
  0
LINE
  5
26F
100
AcDbEntity
  8
ASSI
100
AcDbLine
 62
7
  6
CONTINUOUS
 10
44.731435
 20
-34.5
 11
45.291456
 21
-34.499993
  0
LINE
  5
270
100
AcDbEntity
  8
ASSI
100
AcDbLine
 62
7
  6
CONTINUOUS
 10
42.899024
 20
-34.5
 11
43.459066
 21
-34.499993
  0
LINE
  5
271
100
AcDbEntity
  8
ASSI
100
AcDbLine
 62
7
  6
CONTINUOUS
 10
45.851463
 20
-34.499993
 11
46.411484
 21
-34.499993
  0
LINE
  5
272
100
AcDbEntity
  8
ASSI
100
AcDbLine
 62
7
  6
CONTINUOUS
 10
48.03043
 20
-34.499993
 11
48.590451
 21
-34.499993
  0
LINE
  5
273
100
AcDbEntity
  8
ASSI
100
AcDbLine
 62
7
  6
CONTINUOUS
 10
51.695238
 20
-34.499986
 11
52.255266
 21
-34.499986
  0
LINE
  5
274
100
AcDbEntity
  8
ASSI
100
AcDbLine
 62
7
  6
CONTINUOUS
 10
50.761865
 20
-34.499986
 11
51.321893
 21
-34.499993
  0
LINE
  5
275
100
AcDbEntity
  8
ASSI
100
AcDbLine
 62
7
  6
CONTINUOUS
 10
49.700616
 20
-33.949324
 11
50.585073
 21
-33.949324
  0
LINE
  5
276
100
AcDbEntity
  8
ASSI
100
AcDbLine
 62
7
  6
CONTINUOUS
 10
50.414245
 20
-33.417303
 11
49.871437
 21
-33.417303
  0
LINE
  5
277
100
AcDbEntity
  8
ASSI
100
AcDbLine
 62
7
  6
CONTINUOUS
 10
52.255329
 20
-33.417296
 11
52.744104
 21
-33.417303
  0
LINE
  5
278
100
AcDbEntity
  8
ASSI
100
AcDbLine
 62
7
  6
CONTINUOUS
 10
52.928888
 20
-32.899275
 11
52.247545
 21
-32.899275
  0
LINE
  5
279
100
AcDbEntity
  8
ASSI
100
AcDbLine
 62
7
  6
CONTINUOUS
 10
52.247538
 20
-32.217881
 11
52.928888
 21
-32.217881
  0
LINE
  5
27A
100
AcDbEntity
  8
ASSI
100
AcDbLine
 62
7
  6
CONTINUOUS
 10
48.590451
 20
-31.699867
 11
47.74385
 21
-31.699867
  0
LINE
  5
27B
100
AcDbEntity
  8
ASSI
100
AcDbLine
 62
7
  6
CONTINUOUS
 10
46.698064
 20
-31.699867
 11
45.851463
 21
-31.699867
  0
LINE
  5
27C
100
AcDbEntity
  8
ASSI
100
AcDbLine
 62
7
  6
CONTINUOUS
 10
45.291463
 20
-31.699867
 11
44.731442
 21
-31.699867
  0
LINE
  5
27D
100
AcDbEntity
  8
ASSI
100
AcDbLine
 62
7
  6
CONTINUOUS
 10
44.358097
 20
-31.699867
 11
43.798069
 21
-31.699867
  0
LINE
  5
27E
100
AcDbEntity
  8
ASSI
100
AcDbLine
 62
7
  6
CONTINUOUS
 10
42.560028
 20
-31.699867
 11
42.0
 21
-31.699867
  0
LINE
  5
27F
100
AcDbEntity
  8
ASSI
100
AcDbLine
 62
7
  6
CONTINUOUS
 10
53.006618
 20
-31.69986
 11
51.695238
 21
-31.69986
  0
LINE
  5
280
100
AcDbEntity
  8
ASSI
100
AcDbLine
 62
7
  6
CONTINUOUS
 10
50.422862
 20
-31.69986
 11
49.862813
 21
-31.69986
  0
LINE
  5
281
100
AcDbEntity
  8
RACCORDO
100
AcDbLine
 62
253
  6
CONTINUOUS
 10
49.7938645711
 20
-22.810081334
 11
-49.7938645711
 21
-22.810081334
  0
LINE
  5
282
100
AcDbEntity
  8
RACCORDO
100
AcDbLine
 62
253
  6
CONTINUOUS
 10
49.7938579583
 20
-22.5438264949
 11
-49.793857971
 21
-22.5438264949
  0
LINE
  5
283
100
AcDbEntity
  8
RACCORDO
100
AcDbLine
 62
7
  6
CONTINUOUS
 10
-49.7500380762
 20
-22.5
 11
49.7500380762
 21
-22.5
  0
LINE
  5
284
100
AcDbEntity
  8
0
100
AcDbLine
 62
7
  6
CONTINUOUS
 10
3.0
 20
-22.0
 11
1.5
 21
-22.0
  0
LINE
  5
285
100
AcDbEntity
  8
0
100
AcDbLine
 62
7
  6
CONTINUOUS
 10
-1.5
 20
-22.0
 11
-3.0
 21
-22.0
  0
LINE
  5
286
100
AcDbEntity
  8
RACCORDO
100
AcDbLine
 62
253
  6
CONTINUOUS
 10
-67.9204472986
 20
-39.920504414
 11
-68.0
 21
-40.0000571154
  0
LINE
  5
287
100
AcDbEntity
  8
RACCORDO
100
AcDbLine
 62
253
  6
CONTINUOUS
 10
-50.0443895021
 20
-22.2944300027
 11
-50.0
 21
-22.2500380762
  0
LINE
  5
288
100
AcDbEntity
  8
RACCORDO
100
AcDbLine
 62
253
  6
CONTINUOUS
 10
-49.793857971
 20
-22.5438264949
 11
-49.7500380762
 21
-22.5
  0
LINE
  5
289
100
AcDbEntity
  8
RACCORDO
100
AcDbLine
 62
253
  6
CONTINUOUS
 10
-66.4205051795
 20
-41.4204480641
 11
-66.5000571154
 21
-41.5
  0
LINE
  5
28A
100
AcDbEntity
  8
0
100
AcDbLine
 62
7
  6
CONTINUOUS
 10
-2.5
 20
22.5
 11
-3.0
 21
22.0
  0
LINE
  5
28B
100
AcDbEntity
  8
ASSI
100
AcDbLine
 62
7
  6
CONTINUOUS
 10
46.425177
 20
-20.529254
 11
46.780825
 21
-20.529254
  0
LINE
  5
28C
100
AcDbEntity
  8
ASSI
100
AcDbLine
 62
7
  6
CONTINUOUS
 10
47.224704
 20
-20.529254
 11
47.580209
 21
-20.529254
  0
LINE
  5
28D
100
AcDbEntity
  8
ASSI
100
AcDbLine
 62
7
  6
CONTINUOUS
 10
47.580209
 20
-20.110297
 11
46.425177
 21
-20.110297
  0
LINE
  5
28E
100
AcDbEntity
  8
0
100
AcDbLine
 62
7
  6
CONTINUOUS
 10
1.5
 20
-17.0
 11
-1.5
 21
-17.0
  0
LINE
  5
28F
100
AcDbEntity
  8
RACCORDO
100
AcDbLine
 62
253
  6
CONTINUOUS
 10
-68.0
 20
40.0000571154
 11
-67.9204472986
 21
39.920504414
  0
LINE
  5
290
100
AcDbEntity
  8
RACCORDO
100
AcDbLine
 62
253
  6
CONTINUOUS
 10
-50.0443895095
 20
22.2944211788
 11
-50.0
 21
22.2500380762
  0
LINE
  5
291
100
AcDbEntity
  8
RACCORDO
100
AcDbLine
 62
253
  6
CONTINUOUS
 10
-49.7938670696
 20
22.5438264949
 11
-49.7500380762
 21
22.5
  0
LINE
  5
292
100
AcDbEntity
  8
RACCORDO
100
AcDbLine
 62
253
  6
CONTINUOUS
 10
-66.5000571154
 20
41.5
 11
-66.420505153
 21
41.4204480376
  0
LINE
  5
293
100
AcDbEntity
  8
0
100
AcDbLine
 62
7
  6
CONTINUOUS
 10
-3.0
 20
-22.0
 11
-2.5
 21
-22.5
  0
LINE
  5
294
100
AcDbEntity
  8
0
100
AcDbLine
 62
7
  6
CONTINUOUS
 10
-1.5
 20
22.0
 11
-1.5
 21
17.0
  0
LINE
  5
295
100
AcDbEntity
  8
0
100
AcDbLine
 62
7
  6
CONTINUOUS
 10
-1.5
 20
-17.0
 11
-1.5
 21
-22.0
  0
LINE
  5
296
100
AcDbEntity
  8
0
100
AcDbLine
 62
7
  6
CONTINUOUS
 10
1.5
 20
-22.0
 11
1.5
 21
-17.0
  0
LINE
  5
297
100
AcDbEntity
  8
0
100
AcDbLine
 62
7
  6
CONTINUOUS
 10
1.5
 20
17.0
 11
1.5
 21
22.0
  0
LINE
  5
298
100
AcDbEntity
  8
ASSI
100
AcDbLine
 62
7
  6
CONTINUOUS
 10
45.660464
 20
-21.163833
 11
46.780825
 21
-22.107969
  0
LINE
  5
299
100
AcDbEntity
  8
ASSI
100
AcDbLine
 62
7
  6
CONTINUOUS
 10
46.780825
 20
-21.591613
 11
45.608751
 21
-20.6039
  0
LINE
  5
29A
100
AcDbEntity
  8
0
100
AcDbLine
 62
7
  6
CONTINUOUS
 10
2.5
 20
-22.5
 11
3.0
 21
-22.0
  0
LINE
  5
29B
100
AcDbEntity
  8
RACCORDO
100
AcDbLine
 62
253
  6
CONTINUOUS
 10
66.420505153
 20
41.4204480376
 11
66.5000571154
 21
41.5
  0
LINE
  5
29C
100
AcDbEntity
  8
RACCORDO
100
AcDbLine
 62
253
  6
CONTINUOUS
 10
49.793857971
 20
22.5438264949
 11
49.7500380762
 21
22.5
  0
LINE
  5
29D
100
AcDbEntity
  8
RACCORDO
100
AcDbLine
 62
253
  6
CONTINUOUS
 10
50.0443895021
 20
22.2944300027
 11
50.0
 21
22.2500380762
  0
LINE
  5
29E
100
AcDbEntity
  8
RACCORDO
100
AcDbLine
 62
253
  6
CONTINUOUS
 10
67.9204472986
 20
39.920504414
 11
68.0
 21
40.0000571154
  0
LINE
  5
29F
100
AcDbEntity
  8
0
100
AcDbLine
 62
7
  6
CONTINUOUS
 10
-1.5
 20
17.0
 11
1.5
 21
17.0
  0
LINE
  5
2A0
100
AcDbEntity
  8
0
100
AcDbLine
 62
7
  6
CONTINUOUS
 10
3.0
 20
22.0
 11
2.5
 21
22.5
  0
LINE
  5
2A1
100
AcDbEntity
  8
RACCORDO
100
AcDbLine
 62
253
  6
CONTINUOUS
 10
66.5000571154
 20
-41.5
 11
66.4205051795
 21
-41.4204480641
  0
LINE
  5
2A2
100
AcDbEntity
  8
RACCORDO
100
AcDbLine
 62
253
  6
CONTINUOUS
 10
50.0
 20
-22.2500380762
 11
50.0443895021
 21
-22.2944299833
  0
LINE
  5
2A3
100
AcDbEntity
  8
RACCORDO
100
AcDbLine
 62
253
  6
CONTINUOUS
 10
68.0
 20
-40.0000571154
 11
67.9204472986
 21
-39.920504414
  0
LINE
  5
2A4
100
AcDbEntity
  8
RACCORDO
100
AcDbLine
 62
253
  6
CONTINUOUS
 10
49.7500380762
 20
-22.5
 11
49.7938579583
 21
-22.5438264949
  0
LINE
  5
2A5
100
AcDbEntity
  8
0
100
AcDbLine
 62
7
  6
CONTINUOUS
 10
-3.0
 20
22.0
 11
-1.5
 21
22.0
  0
LINE
  5
2A6
100
AcDbEntity
  8
0
100
AcDbLine
 62
7
  6
CONTINUOUS
 10
1.5
 20
22.0
 11
3.0
 21
22.0
  0
LINE
  5
2A7
100
AcDbEntity
  8
RACCORDO
100
AcDbLine
 62
7
  6
CONTINUOUS
 10
49.7500380762
 20
22.5
 11
-49.7500380762
 21
22.5
  0
LINE
  5
2A8
100
AcDbEntity
  8
RACCORDO
100
AcDbLine
 62
253
  6
CONTINUOUS
 10
-49.7938670696
 20
22.5438264949
 11
49.793857971
 21
22.5438264949
  0
LINE
  5
2A9
100
AcDbEntity
  8
RACCORDO
100
AcDbLine
 62
253
  6
CONTINUOUS
 10
-49.7938645711
 20
22.810081334
 11
49.7938645711
 21
22.810081334
  0
LINE
  5
2AA
100
AcDbEntity
  8
ASSI
100
AcDbLine
 62
7
  6
CONTINUOUS
 10
52.744104
 20
-33.417303
 11
53.305315
 21
-34.499986
  0
LINE
  5
2AB
100
AcDbEntity
  8
ASSI
100
AcDbLine
 62
7
  6
CONTINUOUS
 10
53.936092
 20
-34.499979
 11
53.3399777907
 21
-33.3499536669
  0
LINE
  5
2AC
100
AcDbEntity
  8
ASSI
100
AcDbLine
 62
7
  6
CONTINUOUS
 10
42.0
 20
-31.699867
 11
42.899024
 21
-34.5
  0
LINE
  5
2AD
100
AcDbEntity
  8
ASSI
100
AcDbLine
 62
7
  6
CONTINUOUS
 10
43.179052
 20
-33.627905
 11
42.560028
 21
-31.699867
  0
LINE
  5
2AE
100
AcDbEntity
  8
RACCORDO
100
AcDbLine
 62
253
  6
CONTINUOUS
 10
66.3903975012
 20
36.9483838823
 11
-66.3903975012
 21
36.9483838844
  0
LINE
  5
2AF
100
AcDbEntity
  8
ASSI
100
AcDbLine
 62
7
  6
CONTINUOUS
 10
50.142834
 20
-32.571955
 11
50.414245
 21
-33.417303
  0
LINE
  5
2B0
100
AcDbEntity
  8
ASSI
100
AcDbLine
 62
7
  6
CONTINUOUS
 10
50.585073
 20
-33.949324
 11
50.761865
 21
-34.499986
  0
LINE
  5
2B1
100
AcDbEntity
  8
ASSI
100
AcDbLine
 62
7
  6
CONTINUOUS
 10
46.411484
 20
-32.653498
 11
46.94095
 21
-34.499993
  0
LINE
  5
2B2
100
AcDbEntity
  8
ASSI
100
AcDbLine
 62
7
  6
CONTINUOUS
 10
47.220957
 20
-33.523409
 11
46.698064
 21
-31.699867
  0
LINE
  5
2B3
100
AcDbEntity
  8
0
100
AcDbLine
 62
7
  6
CONTINUOUS
 10
57.828395019
 20
26.6549273753
 11
57.8778937063
 21
26.7611776175
  0
LINE
  5
2B4
100
AcDbEntity
  8
0
100
AcDbLine
 62
7
  6
CONTINUOUS
 10
60.171604981
 20
27.3450726247
 11
60.1221062937
 21
27.2388223825
  0
LINE
  5
2B5
100
AcDbEntity
  8
RACCORDO
100
AcDbLine
 62
253
  6
CONTINUOUS
 10
66.420505153
 20
41.4204480376
 11
-66.420505153
 21
41.4204480376
  0
LINE
  5
2B6
100
AcDbEntity
  8
RACCORDO
100
AcDbLine
 62
7
  6
CONTINUOUS
 10
-66.5000571154
 20
41.5
 11
66.5000571154
 21
41.5
  0
LINE
  5
2B7
100
AcDbEntity
  8
0
100
AcDbLine
 62
7
  6
CONTINUOUS
 10
57.877893713
 20
-26.7611776274
 11
57.8283951111
 21
-26.6549273261
  0
LINE
  5
2B8
100
AcDbEntity
  8
0
100
AcDbLine
 62
7
  6
CONTINUOUS
 10
60.122106287
 20
-27.2388223726
 11
60.1716048889
 21
-27.3450726739
  0
LINE
  5
2B9
100
AcDbEntity
  8
ASSI
100
AcDbLine
 62
7
  6
CONTINUOUS
 10
51.321893
 20
-34.499993
 11
50.422862
 21
-31.69986
  0
LINE
  5
2BA
100
AcDbEntity
  8
ASSI
100
AcDbLine
 62
7
  6
CONTINUOUS
 10
44.731442
 20
-31.699867
 11
44.731435
 21
-34.5
  0
LINE
  5
2BB
100
AcDbEntity
  8
ASSI
100
AcDbLine
 62
7
  6
CONTINUOUS
 10
45.291456
 20
-34.499993
 11
45.291463
 21
-31.699867
  0
LINE
  5
2BC
100
AcDbEntity
  8
ASSI
100
AcDbLine
 62
7
  6
CONTINUOUS
 10
45.851463
 20
-31.699867
 11
45.851463
 21
-34.499993
  0
LINE
  5
2BD
100
AcDbEntity
  8
ASSI
100
AcDbLine
 62
7
  6
CONTINUOUS
 10
46.411484
 20
-34.499993
 11
46.411484
 21
-32.653498
  0
LINE
  5
2BE
100
AcDbEntity
  8
ASSI
100
AcDbLine
 62
7
  6
CONTINUOUS
 10
46.425177
 20
-20.110297
 11
46.425177
 21
-20.529254
  0
LINE
  5
2BF
100
AcDbEntity
  8
ASSI
100
AcDbLine
 62
7
  6
CONTINUOUS
 10
46.780825
 20
-20.529254
 11
46.780825
 21
-21.591613
  0
LINE
  5
2C0
100
AcDbEntity
  8
ASSI
100
AcDbLine
 62
7
  6
CONTINUOUS
 10
46.780825
 20
-22.107969
 11
46.780825
 21
-22.5
  0
LINE
  5
2C1
100
AcDbEntity
  8
ASSI
100
AcDbLine
 62
7
  6
CONTINUOUS
 10
47.224704
 20
-22.5
 11
47.224704
 21
-22.103309
  0
LINE
  5
2C2
100
AcDbEntity
  8
ASSI
100
AcDbLine
 62
7
  6
CONTINUOUS
 10
47.224704
 20
-21.591613
 11
47.224704
 21
-20.529254
  0
LINE
  5
2C3
100
AcDbEntity
  8
ASSI
100
AcDbLine
 62
7
  6
CONTINUOUS
 10
47.580209
 20
-20.529254
 11
47.580209
 21
-20.110297
  0
LINE
  5
2C4
100
AcDbEntity
  8
ASSI
100
AcDbLine
 62
7
  6
CONTINUOUS
 10
48.030423
 20
-32.653498
 11
48.03043
 21
-34.499993
  0
LINE
  5
2C5
100
AcDbEntity
  8
ASSI
100
AcDbLine
 62
7
  6
CONTINUOUS
 10
48.3937793911
 20
-20.6064256704
 11
47.224704
 21
-21.591613
  0
LINE
  5
2C6
100
AcDbEntity
  8
ASSI
100
AcDbLine
 62
7
  6
CONTINUOUS
 10
47.224704
 20
-22.103309
 11
48.3395358991
 21
-21.163833085
  0
LINE
  5
2C7
100
AcDbEntity
  8
ASSI
100
AcDbLine
 62
7
  6
CONTINUOUS
 10
48.590451
 20
-34.499993
 11
48.590451
 21
-31.699867
  0
LINE
  5
2C8
100
AcDbEntity
  8
RACCORDO
100
AcDbLine
 62
253
  6
CONTINUOUS
 10
49.7938645711
 20
22.810081334
 11
49.7938645711
 21
22.5438264949
  0
LINE
  5
2C9
100
AcDbEntity
  8
RACCORDO
100
AcDbLine
 62
253
  6
CONTINUOUS
 10
49.7938645711
 20
-22.810081334
 11
49.7938645711
 21
-22.5438264949
  0
LINE
  5
2CA
100
AcDbEntity
  8
RACCORDO
100
AcDbLine
 62
7
  6
CONTINUOUS
 10
50.0
 20
-22.2500380762
 11
50.0
 21
22.2500380762
  0
LINE
  5
2CB
100
AcDbEntity
  8
ASSI
100
AcDbLine
 62
7
  6
CONTINUOUS
 10
51.695238
 20
-31.69986
 11
51.695238
 21
-34.499986
  0
LINE
  5
2CC
100
AcDbEntity
  8
ASSI
100
AcDbLine
 62
7
  6
CONTINUOUS
 10
52.247545
 20
-32.899275
 11
52.247538
 21
-32.217881
  0
LINE
  5
2CD
100
AcDbEntity
  8
ASSI
100
AcDbLine
 62
7
  6
CONTINUOUS
 10
52.255266
 20
-34.499986
 11
52.255329
 21
-33.417296
  0
LINE
  5
2CE
100
AcDbEntity
  8
ASSI
100
AcDbLine
 62
7
  6
CONTINUOUS
 10
43.798069
 20
-31.699867
 11
43.179052
 21
-33.627905
  0
LINE
  5
2CF
100
AcDbEntity
  8
ASSI
100
AcDbLine
 62
7
  6
CONTINUOUS
 10
43.459066
 20
-34.499993
 11
44.358097
 21
-31.699867
  0
LINE
  5
2D0
100
AcDbEntity
  8
0
100
AcDbLine
 62
7
  6
CONTINUOUS
 10
58.4
 20
-29.8321553217
 11
58.4
 21
-27.4538073666
  0
LINE
  5
2D1
100
AcDbEntity
  8
0
100
AcDbLine
 62
7
  6
CONTINUOUS
 10
58.4
 20
-26.5461926334
 11
58.4
 21
-24.1678446783
  0
LINE
  5
2D2
100
AcDbEntity
  8
0
100
AcDbLine
 62
7
  6
CONTINUOUS
 10
58.4
 20
24.1678446783
 11
58.4
 21
26.5461926334
  0
LINE
  5
2D3
100
AcDbEntity
  8
0
100
AcDbLine
 62
7
  6
CONTINUOUS
 10
58.4
 20
27.4538073666
 11
58.4
 21
29.8321553217
  0
LINE
  5
2D4
100
AcDbEntity
  8
ASSI
100
AcDbLine
 62
7
  6
CONTINUOUS
 10
47.74385
 20
-31.699867
 11
47.220957
 21
-33.523409
  0
LINE
  5
2D5
100
AcDbEntity
  8
ASSI
100
AcDbLine
 62
7
  6
CONTINUOUS
 10
47.500957
 20
-34.499986
 11
48.030423
 21
-32.653498
  0
LINE
  5
2D6
100
AcDbEntity
  8
ASSI
100
AcDbLine
 62
7
  6
CONTINUOUS
 10
49.862813
 20
-31.69986
 11
48.963796
 21
-34.499993
  0
LINE
  5
2D7
100
AcDbEntity
  8
ASSI
100
AcDbLine
 62
7
  6
CONTINUOUS
 10
49.871437
 20
-33.417303
 11
50.142834
 21
-32.571955
  0
LINE
  5
2D8
100
AcDbEntity
  8
ASSI
100
AcDbLine
 62
7
  6
CONTINUOUS
 10
49.523817
 20
-34.499986
 11
49.700616
 21
-33.949324
  0
LINE
  5
2D9
100
AcDbEntity
  8
0
100
AcDbLine
 62
7
  6
CONTINUOUS
 10
59.6
 20
29.8321553217
 11
59.6
 21
27.4538073666
  0
LINE
  5
2DA
100
AcDbEntity
  8
0
100
AcDbLine
 62
7
  6
CONTINUOUS
 10
59.6
 20
26.5461926334
 11
59.6
 21
24.1678446783
  0
LINE
  5
2DB
100
AcDbEntity
  8
0
100
AcDbLine
 62
7
  6
CONTINUOUS
 10
59.6
 20
-24.1678446783
 11
59.6
 21
-26.5461926334
  0
LINE
  5
2DC
100
AcDbEntity
  8
0
100
AcDbLine
 62
7
  6
CONTINUOUS
 10
59.6
 20
-27.4538073666
 11
59.6
 21
-29.8321553217
  0
LINE
  5
2DD
100
AcDbEntity
  8
0
100
AcDbLine
 62
7
  6
CONTINUOUS
 10
57.828395019
 20
-27.3450726247
 11
57.8778937063
 21
-27.2388223825
  0
LINE
  5
2DE
100
AcDbEntity
  8
0
100
AcDbLine
 62
7
  6
CONTINUOUS
 10
57.877893713
 20
27.2388223726
 11
57.8283951111
 21
27.3450726739
  0
LINE
  5
2DF
100
AcDbEntity
  8
RACCORDO
100
AcDbLine
 62
7
  6
CONTINUOUS
 10
68.0
 20
40.0000571154
 11
68.0
 21
-40.0000571154
  0
LINE
  5
2E0
100
AcDbEntity
  8
0
100
AcDbLine
 62
7
  6
CONTINUOUS
 10
60.171604981
 20
-26.6549273753
 11
60.1221062937
 21
-26.7611776175
  0
LINE
  5
2E1
100
AcDbEntity
  8
0
100
AcDbLine
 62
7
  6
CONTINUOUS
 10
60.122106287
 20
26.7611776274
 11
60.1716048889
 21
26.6549273261
  0
LINE
  5
2E2
100
AcDbEntity
  8
RACCORDO
100
AcDbLine
 62
7
  6
CONTINUOUS
 10
-141.5563800089
 20
-41.5
 11
-102.5476534734
 21
-41.1595760008
  0
LINE
  5
2E3
100
AcDbEntity
  8
RACCORDO
100
AcDbLine
 62
253
  6
CONTINUOUS
 10
-141.5563800089
 20
-40.0000571154
 11
-102.5476534734
 21
-39.6596276269
  0
LINE
  5
2E4
100
AcDbEntity
  8
RACCORDO
100
AcDbLine
 62
7
  6
CONTINUOUS
 10
-141.5563800089
 20
-41.5
 11
-150.6722166767
 21
-41.4204472986
  0
LINE
  5
2E5
100
AcDbEntity
  8
RACCORDO
100
AcDbLine
 62
253
  6
CONTINUOUS
 10
-141.5563800089
 20
-40.0000571154
 11
-150.6722166767
 21
-39.920504414
  0
LINE
  5
2E6
100
AcDbEntity
  8
RACCORDO
100
AcDbLine
 62
253
  6
CONTINUOUS
 10
-101.5563800089
 20
-39.6596331162
 11
-102.5476534734
 21
-39.6596331162
  0
LINE
  5
2E7
100
AcDbEntity
  8
RACCORDO
100
AcDbLine
 62
253
  6
CONTINUOUS
 10
-155.6006449116
 20
-36.9484730104
 11
-154.1221164516
 21
-36.7901224134
  0
LINE
  5
2E8
100
AcDbEntity
  8
ASSI
100
AcDbLine
 62
7
  6
CONTINUOUS
 10
-156.0026082121
 20
-34.499979
 11
-155.8518744515
 21
-34.499979
  0
LINE
  5
2E9
100
AcDbEntity
  8
ASSI
100
AcDbLine
 62
7
  6
CONTINUOUS
 10
-156.1145574921
 20
-33.3499536669
 11
-155.9638721649
 21
-33.3499536669
  0
LINE
  5
2EA
100
AcDbEntity
  8
ASSI
100
AcDbLine
 62
7
  6
CONTINUOUS
 10
-156.1178794261
 20
-31.69986
 11
-156.268498431
 21
-31.69986
  0
LINE
  5
2EB
100
AcDbEntity
  8
RACCORDO
100
AcDbLine
 62
7
  6
CONTINUOUS
 10
-141.5563800089
 20
-41.5
 11
-141.5563800089
 21
41.5
  0
LINE
  5
2EC
100
AcDbEntity
  8
RACCORDO
100
AcDbLine
 62
253
  6
CONTINUOUS
 10
-102.5476534734
 20
39.6596267385
 11
-102.5476534734
 21
-39.6596276269
  0
LINE
  5
2ED
100
AcDbEntity
  8
0
100
AcDbLine
 62
7
  6
CONTINUOUS
 10
-101.5563800089
 20
-39.8
 11
-101.5563800089
 21
-39.6596331162
  0
LINE
  5
2EE
100
AcDbEntity
  8
RACCORDO
100
AcDbLine
 62
7
  6
CONTINUOUS
 10
-101.5563800089
 20
40.1596140778
 11
-101.5563800089
 21
-40.1596140778
  0
LINE
  5
2EF
100
AcDbEntity
  8
RACCORDO
100
AcDbLine
 62
253
  6
CONTINUOUS
 10
-155.6006429749
 20
36.9484728048
 11
-154.1221164516
 21
36.7901224134
  0
LINE
  5
2F0
100
AcDbEntity
  8
RACCORDO
100
AcDbLine
 62
253
  6
CONTINUOUS
 10
-150.6722166767
 20
39.920504414
 11
-141.5563800089
 21
40.0000571154
  0
LINE
  5
2F1
100
AcDbEntity
  8
RACCORDO
100
AcDbLine
 62
253
  6
CONTINUOUS
 10
-101.5563800089
 20
39.6596331162
 11
-102.5476534734
 21
39.6596331162
  0
LINE
  5
2F2
100
AcDbEntity
  8
RACCORDO
100
AcDbLine
 62
253
  6
CONTINUOUS
 10
-141.5563800089
 20
40.0000571154
 11
-102.5476534734
 21
39.6596267385
  0
LINE
  5
2F3
100
AcDbEntity
  8
RACCORDO
100
AcDbLine
 62
7
  6
CONTINUOUS
 10
-150.6722166767
 20
41.4204472986
 11
-141.5563800089
 21
41.5
  0
LINE
  5
2F4
100
AcDbEntity
  8
RACCORDO
100
AcDbLine
 62
7
  6
CONTINUOUS
 10
-141.5563800089
 20
41.5
 11
-102.5476534734
 21
41.1595760008
  0
ARC
  5
2F5
100
AcDbEntity
  8
RACCORDO
100
AcDbCircle
 62
253
  6
CONTINUOUS
 10
-19995.1147094056
 20
-0.0
 40
20045.4214773965
100
AcDbArc
 50
359.9362303289
 51
0.0637696711
  0
ARC
  5
2F6
100
AcDbEntity
  8
RACCORDO
100
AcDbCircle
 62
253
  6
CONTINUOUS
 10
-19966.7396727687
 20
0.0000000024
 40
20016.7964788357
100
AcDbArc
 50
359.9361847431
 51
0.0638152569
  0
ARC
  5
2F7
100
AcDbEntity
  8
0
100
AcDbCircle
 62
7
  6
CONTINUOUS
 10
-72.0098389156
 20
-93.3397677679
 40
68.1675678913
100
AcDbArc
 50
77.5622418143
 51
77.9769604184
  0
ARC
  5
2F8
100
AcDbEntity
  8
0
100
AcDbCircle
 62
7
  6
CONTINUOUS
 10
-47.5972347453
 20
-86.098596317
 40
60.7503985822
100
AcDbArc
 50
101.9634542625
 51
102.4284885029
  0
ARC
  5
2F9
100
AcDbEntity
  8
0
100
AcDbCircle
 62
7
  6
CONTINUOUS
 10
-72.0098389156
 20
-39.3397677678
 40
68.1675678913
100
AcDbArc
 50
77.5622418143
 51
77.9769604184
  0
ARC
  5
2FA
100
AcDbEntity
  8
0
100
AcDbCircle
 62
7
  6
CONTINUOUS
 10
-47.5972347455
 20
-32.0985963165
 40
60.7503985816
100
AcDbArc
 50
101.9634542625
 51
102.4284885029
  0
ARC
  5
2FB
100
AcDbEntity
  8
0
100
AcDbCircle
 62
7
  6
CONTINUOUS
 10
-65.6512172139
 20
-41.1608491117
 40
16.3392586151
100
AcDbArc
 50
63.8020617908
 51
63.9650284022
  0
ARC
  5
2FC
100
AcDbEntity
  8
0
100
AcDbCircle
 62
7
  6
CONTINUOUS
 10
-73.1604077295
 20
-33.6510020754
 40
16.3387675932
100
AcDbArc
 50
26.0349730838
 51
26.1979446202
  0
ARC
  5
2FD
100
AcDbEntity
  8
0
100
AcDbCircle
 62
7
  6
CONTINUOUS
 10
-44.8740736823
 20
-33.6341698139
 40
16.3003971269
100
AcDbArc
 50
153.8016338065
 51
153.9649905686
  0
ARC
  5
2FE
100
AcDbEntity
  8
0
100
AcDbCircle
 62
7
  6
CONTINUOUS
 10
-52.3674640502
 20
-41.1225339419
 40
16.2966318529
100
AcDbArc
 50
116.0350829578
 51
116.1984781096
  0
ARC
  5
2FF
100
AcDbEntity
  8
0
100
AcDbCircle
 62
7
  6
CONTINUOUS
 10
-46.5644287062
 20
-32.8706028837
 40
14.5897650641
100
AcDbArc
 50
153.3130487244
 51
153.5527387092
  0
ARC
  5
300
100
AcDbEntity
  8
0
100
AcDbCircle
 62
7
  6
CONTINUOUS
 10
-71.435571294
 20
-21.1293971162
 40
14.5897650643
100
AcDbArc
 50
333.3130487244
 51
333.5527387092
  0
ARC
  5
301
100
AcDbEntity
  8
0
100
AcDbCircle
 62
7
  6
CONTINUOUS
 10
-46.6046963196
 20
-21.149577425
 40
14.5447241062
100
AcDbArc
 50
206.4467334955
 51
206.6871679444
  0
ARC
  5
302
100
AcDbEntity
  8
0
100
AcDbCircle
 62
7
  6
CONTINUOUS
 10
-71.3953036752
 20
-32.8504225724
 40
14.5447241005
100
AcDbArc
 50
26.4467334955
 51
26.6871679444
  0
ARC
  5
303
100
AcDbEntity
  8
RACCORDO
100
AcDbCircle
 62
253
  6
CONTINUOUS
 10
-59.0003291512
 20
-26.9952067712
 40
3.2969545478
100
AcDbArc
 50
89.9942799654
 51
270.0057200346
  0
ARC
  5
304
100
AcDbEntity
  8
RACCORDO
100
AcDbCircle
 62
253
  6
CONTINUOUS
 10
-58.9996708489
 20
-26.9952068169
 40
3.2969545441
100
AcDbArc
 50
269.9942799684
 51
90.0057200315
  0
CIRCLE
  5
305
100
AcDbEntity
  8
DRAFT
100
AcDbCircle
 62
7
  6
CONTINUOUS
 10
-59.0
 20
-27.0
 40
3.25
  0
CIRCLE
  5
306
100
AcDbEntity
  8
0
100
AcDbCircle
 62
7
  6
CONTINUOUS
 10
-59.0
 20
-27.0
 40
3.0
  0
ARC
  5
307
100
AcDbEntity
  8
0
100
AcDbCircle
 62
7
  6
CONTINUOUS
 10
-59.0
 20
-27.0
 40
2.8950136038
100
AcDbArc
 50
258.0385857315
 51
281.9614142685
  0
ARC
  5
308
100
AcDbEntity
  8
0
100
AcDbCircle
 62
7
  6
CONTINUOUS
 10
-59.0
 20
-27.0
 40
2.8950136038
100
AcDbArc
 50
78.0385857315
 51
101.9614142685
  0
ARC
  5
309
100
AcDbEntity
  8
0
100
AcDbCircle
 62
7
  6
CONTINUOUS
 10
-59.0
 20
-27.0
 40
2.8155023425
100
AcDbArc
 50
102.3044249574
 51
257.6955750426
  0
ARC
  5
30A
100
AcDbEntity
  8
0
100
AcDbCircle
 62
7
  6
CONTINUOUS
 10
-59.0
 20
-27.0
 40
2.8155023425
100
AcDbArc
 50
282.3044249574
 51
77.6955750426
  0
ARC
  5
30B
100
AcDbEntity
  8
0
100
AcDbCircle
 62
7
  6
CONTINUOUS
 10
-59.0
 20
-27.0
 40
1.6874840352
100
AcDbArc
 50
172.230101045
 51
187.7632444202
  0
ARC
  5
30C
100
AcDbEntity
  8
0
100
AcDbCircle
 62
7
  6
CONTINUOUS
 10
-59.0
 20
-27.0
 40
1.6874840352
100
AcDbArc
 50
352.2301010241
 51
7.7632444202
  0
ARC
  5
30D
100
AcDbEntity
  8
RACCORDO
100
AcDbCircle
 62
253
  6
CONTINUOUS
 10
-66.4203673967
 20
-39.9203673967
 40
1.5000807793
100
AcDbArc
 50
180.0052333974
 51
269.9947666026
  0
ARC
  5
30E
100
AcDbEntity
  8
TRASH
100
AcDbCircle
 62
7
  6
CONTINUOUS
 10
-59.0
 20
-27.0
 40
1.1472328625
100
AcDbArc
 50
347.9845776281
 51
12.0153200785
  0
ARC
  5
30F
100
AcDbEntity
  8
TRASH
100
AcDbCircle
 62
7
  6
CONTINUOUS
 10
-59.0
 20
-27.0
 40
1.1472328625
100
AcDbArc
 50
167.9845776281
 51
192.0153200785
  0
ARC
  5
310
100
AcDbEntity
  8
0
100
AcDbCircle
 62
7
  6
CONTINUOUS
 10
-59.0
 20
-27.0
 40
0.7522905861
100
AcDbArc
 50
138.3509867785
 51
142.8981211086
  0
ARC
  5
311
100
AcDbEntity
  8
0
100
AcDbCircle
 62
7
  6
CONTINUOUS
 10
-59.0
 20
-27.0
 40
0.7522905861
100
AcDbArc
 50
48.3509342563
 51
131.6490283615
  0
ARC
  5
312
100
AcDbEntity
  8
0
100
AcDbCircle
 62
7
  6
CONTINUOUS
 10
-59.0
 20
-27.0
 40
0.7522905861
100
AcDbArc
 50
37.1018788914
 51
41.6490663885
  0
ARC
  5
313
100
AcDbEntity
  8
0
100
AcDbCircle
 62
7
  6
CONTINUOUS
 10
-59.0
 20
-27.0
 40
0.7522905861
100
AcDbArc
 50
318.3509867785
 51
322.8981211086
  0
ARC
  5
314
100
AcDbEntity
  8
0
100
AcDbCircle
 62
7
  6
CONTINUOUS
 10
-59.0
 20
-27.0
 40
0.7522905861
100
AcDbArc
 50
228.3509342563
 51
311.6490283615
  0
ARC
  5
315
100
AcDbEntity
  8
0
100
AcDbCircle
 62
7
  6
CONTINUOUS
 10
-59.0
 20
-27.0
 40
0.7522905861
100
AcDbArc
 50
217.1018788914
 51
221.6490663885
  0
ARC
  5
316
100
AcDbEntity
  8
RACCORDO
100
AcDbCircle
 62
253
  6
CONTINUOUS
 10
-49.7938985614
 20
-22.3096036407
 40
0.5004678745
100
AcDbArc
 50
180.0870008218
 51
270.0038912734
  0
ARC
  5
317
100
AcDbEntity
  8
0
100
AcDbCircle
 62
7
  6
CONTINUOUS
 10
-44.8395922705
 20
-20.3489979246
 40
16.3387675932
100
AcDbArc
 50
206.0349730838
 51
206.1979446202
  0
ARC
  5
318
100
AcDbEntity
  8
0
100
AcDbCircle
 62
7
  6
CONTINUOUS
 10
-52.3493565218
 20
-12.8403211778
 40
16.3379552554
100
AcDbArc
 50
243.8020552904
 51
243.9650349025
  0
ARC
  5
319
100
AcDbEntity
  8
0
100
AcDbCircle
 62
7
  6
CONTINUOUS
 10
-73.1259263175
 20
-20.3658301862
 40
16.3003971267
100
AcDbArc
 50
333.8016338065
 51
333.9649905686
  0
ARC
  5
31A
100
AcDbEntity
  8
0
100
AcDbCircle
 62
7
  6
CONTINUOUS
 10
-65.6325196493
 20
-12.877499307
 40
16.2965948233
100
AcDbArc
 50
296.0350827721
 51
296.1984782953
  0
ARC
  5
31B
100
AcDbEntity
  8
RACCORDO
100
AcDbCircle
 62
253
  6
CONTINUOUS
 10
-5.0
 20
0.0
 40
3.1989546259
100
AcDbArc
 50
62.0504407298
 51
297.9495592702
  0
CIRCLE
  5
31C
100
AcDbEntity
  8
RACCORDO
100
AcDbCircle
 62
253
  6
CONTINUOUS
 10
-25.0
 20
0.0
 40
3.1989546196
  0
ARC
  5
31D
100
AcDbEntity
  8
RACCORDO
100
AcDbCircle
 62
7
  6
CONTINUOUS
 10
-5.0120338679
 20
-0.0006755539
 40
2.9058220682
100
AcDbArc
 50
0.01332056
 51
57.8433533017
  0
ARC
  5
31E
100
AcDbEntity
  8
RACCORDO
100
AcDbCircle
 62
7
  6
CONTINUOUS
 10
-5.0120338671
 20
0.0006755533
 40
2.9058220674
100
AcDbArc
 50
302.1566466922
 51
359.9866794519
  0
CIRCLE
  5
31F
100
AcDbEntity
  8
RACCORDO
100
AcDbCircle
 62
253
  6
CONTINUOUS
 10
-25.0
 20
0.0
 40
2.8989564536
  0
ARC
  5
320
100
AcDbEntity
  8
RACCORDO
100
AcDbCircle
 62
253
  6
CONTINUOUS
 10
-5.0
 20
0.0
 40
2.8989564536
100
AcDbArc
 50
58.0376023672
 51
301.9623976328
  0
CIRCLE
  5
321
100
AcDbEntity
  8
RACCORDO
100
AcDbCircle
 62
253
  6
CONTINUOUS
 10
-25.0
 20
0.0
 40
2.8724200304
  0
CIRCLE
  5
322
100
AcDbEntity
  8
RACCORDO
100
AcDbCircle
 62
253
  6
CONTINUOUS
 10
-5.0
 20
0.0
 40
2.8724200304
  0
CIRCLE
  5
323
100
AcDbEntity
  8
RACCORDO
100
AcDbCircle
 62
253
  6
CONTINUOUS
 10
-25.0
 20
0.0
 40
2.5724218529
  0
CIRCLE
  5
324
100
AcDbEntity
  8
RACCORDO
100
AcDbCircle
 62
253
  6
CONTINUOUS
 10
-5.0
 20
0.0
 40
2.5724218529
  0
CIRCLE
  5
325
100
AcDbEntity
  8
SMUSSO
100
AcDbCircle
 62
7
  6
CONTINUOUS
 10
-5.0
 20
0.0
 40
1.7499999672
  0
CIRCLE
  5
326
100
AcDbEntity
  8
SMUSSO
100
AcDbCircle
 62
7
  6
CONTINUOUS
 10
-25.0
 20
0.0
 40
1.7499999672
  0
CIRCLE
  5
327
100
AcDbEntity
  8
SMUSSO
100
AcDbCircle
 62
7
  6
CONTINUOUS
 10
-5.0
 20
0.0
 40
1.2482546745
  0
CIRCLE
  5
328
100
AcDbEntity
  8
SMUSSO
100
AcDbCircle
 62
7
  6
CONTINUOUS
 10
-25.0
 20
0.0
 40
1.2482546745
  0
CIRCLE
  5
329
100
AcDbEntity
  8
DRAFT
100
AcDbCircle
 62
7
  6
CONTINUOUS
 10
-5.0
 20
0.0
 40
1.2175367441
  0
CIRCLE
  5
32A
100
AcDbEntity
  8
DRAFT
100
AcDbCircle
 62
7
  6
CONTINUOUS
 10
-25.0
 20
0.0
 40
1.2175367441
  0
ARC
  5
32B
100
AcDbEntity
  8
0
100
AcDbCircle
 62
7
  6
CONTINUOUS
 10
-70.402765534
 20
32.098597851
 40
60.750400141
100
AcDbArc
 50
281.9634542192
 51
282.4284884486
  0
ARC
  5
32C
100
AcDbEntity
  8
0
100
AcDbCircle
 62
7
  6
CONTINUOUS
 10
-65.6512172145
 20
12.8391508871
 40
16.3392586165
100
AcDbArc
 50
63.8020617908
 51
63.9650284022
  0
ARC
  5
32D
100
AcDbEntity
  8
0
100
AcDbCircle
 62
7
  6
CONTINUOUS
 10
-73.1604077314
 20
20.3489979237
 40
16.3387675952
100
AcDbArc
 50
26.0349730838
 51
26.1979446202
  0
ARC
  5
32E
100
AcDbEntity
  8
0
100
AcDbCircle
 62
7
  6
CONTINUOUS
 10
-73.1259263177
 20
33.6341698139
 40
16.3003971269
100
AcDbArc
 50
333.8016338065
 51
333.9649905686
  0
ARC
  5
32F
100
AcDbEntity
  8
0
100
AcDbCircle
 62
7
  6
CONTINUOUS
 10
-65.6325196507
 20
41.1225006959
 40
16.2965948266
100
AcDbArc
 50
296.0350827721
 51
296.1984782953
  0
ARC
  5
330
100
AcDbEntity
  8
0
100
AcDbCircle
 62
7
  6
CONTINUOUS
 10
-71.4355712947
 20
32.8706028842
 40
14.5897650651
100
AcDbArc
 50
333.3130487244
 51
333.5527387092
  0
ARC
  5
331
100
AcDbEntity
  8
0
100
AcDbCircle
 62
7
  6
CONTINUOUS
 10
-71.395303675
 20
21.1495774277
 40
14.5447241002
100
AcDbArc
 50
26.4467334954
 51
26.6871679444
  0
ARC
  5
332
100
AcDbEntity
  8
RACCORDO
100
AcDbCircle
 62
253
  6
CONTINUOUS
 10
-59.0003291511
 20
26.9952068169
 40
3.2969545447
100
AcDbArc
 50
89.9942799675
 51
270.0057200324
  0
ARC
  5
333
100
AcDbEntity
  8
RACCORDO
100
AcDbCircle
 62
253
  6
CONTINUOUS
 10
-66.4203673966
 20
39.9203673966
 40
1.5000807794
100
AcDbArc
 50
90.0052334012
 51
179.9947665988
  0
ARC
  5
334
100
AcDbEntity
  8
0
100
AcDbCircle
 62
7
  6
CONTINUOUS
 10
-70.4027655341
 20
86.0985978515
 40
60.7504001415
100
AcDbArc
 50
281.9634542192
 51
282.4284884486
  0
ARC
  5
335
100
AcDbEntity
  8
0
100
AcDbCircle
 62
7
  6
CONTINUOUS
 10
-45.922624873
 20
39.6513384933
 40
68.4863730365
100
AcDbArc
 50
257.5632077456
 51
257.9759958253
  0
ARC
  5
336
100
AcDbEntity
  8
0
100
AcDbCircle
 62
7
  6
CONTINUOUS
 10
-44.8395922686
 20
33.6510020763
 40
16.3387675952
100
AcDbArc
 50
206.0349730838
 51
206.1979446202
  0
ARC
  5
337
100
AcDbEntity
  8
0
100
AcDbCircle
 62
7
  6
CONTINUOUS
 10
-52.349356522
 20
41.1596788218
 40
16.337955255
100
AcDbArc
 50
243.8020552904
 51
243.9650349025
  0
ARC
  5
338
100
AcDbEntity
  8
0
100
AcDbCircle
 62
7
  6
CONTINUOUS
 10
-44.8740736823
 20
20.3658301861
 40
16.3003971269
100
AcDbArc
 50
153.8016338065
 51
153.9649905686
  0
ARC
  5
339
100
AcDbEntity
  8
0
100
AcDbCircle
 62
7
  6
CONTINUOUS
 10
-52.36746405
 20
12.8774660577
 40
16.2966318534
100
AcDbArc
 50
116.0350829578
 51
116.1984781096
  0
ARC
  5
33A
100
AcDbEntity
  8
0
100
AcDbCircle
 62
7
  6
CONTINUOUS
 10
-46.564428706
 20
21.1293971162
 40
14.5897650643
100
AcDbArc
 50
153.3130487244
 51
153.5527387092
  0
ARC
  5
33B
100
AcDbEntity
  8
0
100
AcDbCircle
 62
7
  6
CONTINUOUS
 10
-46.6046963196
 20
32.850422575
 40
14.5447241062
100
AcDbArc
 50
206.4467334955
 51
206.6871679444
  0
ARC
  5
33C
100
AcDbEntity
  8
RACCORDO
100
AcDbCircle
 62
253
  6
CONTINUOUS
 10
-58.9996708488
 20
26.9952067712
 40
3.2969545472
100
AcDbArc
 50
269.9942799659
 51
90.005720034
  0
CIRCLE
  5
33D
100
AcDbEntity
  8
DRAFT
100
AcDbCircle
 62
7
  6
CONTINUOUS
 10
-59.0
 20
27.0
 40
3.25
  0
CIRCLE
  5
33E
100
AcDbEntity
  8
0
100
AcDbCircle
 62
7
  6
CONTINUOUS
 10
-59.0
 20
27.0
 40
3.0
  0
ARC
  5
33F
100
AcDbEntity
  8
0
100
AcDbCircle
 62
7
  6
CONTINUOUS
 10
-59.0
 20
27.0
 40
2.8950136038
100
AcDbArc
 50
258.0385857315
 51
281.9614142685
  0
ARC
  5
340
100
AcDbEntity
  8
0
100
AcDbCircle
 62
7
  6
CONTINUOUS
 10
-59.0
 20
27.0
 40
2.8950136038
100
AcDbArc
 50
78.0385857315
 51
101.9614142685
  0
ARC
  5
341
100
AcDbEntity
  8
0
100
AcDbCircle
 62
7
  6
CONTINUOUS
 10
-59.0
 20
27.0
 40
2.8155023425
100
AcDbArc
 50
102.3044249574
 51
257.6955750426
  0
ARC
  5
342
100
AcDbEntity
  8
0
100
AcDbCircle
 62
7
  6
CONTINUOUS
 10
-59.0
 20
27.0
 40
2.8155023425
100
AcDbArc
 50
282.3044249574
 51
77.6955750426
  0
ARC
  5
343
100
AcDbEntity
  8
0
100
AcDbCircle
 62
7
  6
CONTINUOUS
 10
-59.0
 20
27.0
 40
1.6874840352
100
AcDbArc
 50
172.230101045
 51
187.7632444202
  0
ARC
  5
344
100
AcDbEntity
  8
0
100
AcDbCircle
 62
7
  6
CONTINUOUS
 10
-59.0
 20
27.0
 40
1.6874840352
100
AcDbArc
 50
352.2301010241
 51
7.7632444202
  0
ARC
  5
345
100
AcDbEntity
  8
TRASH
100
AcDbCircle
 62
7
  6
CONTINUOUS
 10
-59.0
 20
27.0
 40
1.1472328625
100
AcDbArc
 50
347.9845776281
 51
12.0153200785
  0
ARC
  5
346
100
AcDbEntity
  8
TRASH
100
AcDbCircle
 62
7
  6
CONTINUOUS
 10
-59.0
 20
27.0
 40
1.1472328625
100
AcDbArc
 50
167.9845776281
 51
192.0153200785
  0
ARC
  5
347
100
AcDbEntity
  8
0
100
AcDbCircle
 62
7
  6
CONTINUOUS
 10
-59.0
 20
27.0
 40
0.7522905861
100
AcDbArc
 50
138.3509867785
 51
142.8981211086
  0
ARC
  5
348
100
AcDbEntity
  8
0
100
AcDbCircle
 62
7
  6
CONTINUOUS
 10
-59.0
 20
27.0
 40
0.7522905861
100
AcDbArc
 50
48.3509342563
 51
131.6490283615
  0
ARC
  5
349
100
AcDbEntity
  8
0
100
AcDbCircle
 62
7
  6
CONTINUOUS
 10
-59.0
 20
27.0
 40
0.7522905861
100
AcDbArc
 50
37.1018788914
 51
41.6490663885
  0
ARC
  5
34A
100
AcDbEntity
  8
0
100
AcDbCircle
 62
7
  6
CONTINUOUS
 10
-59.0
 20
27.0
 40
0.7522905861
100
AcDbArc
 50
318.3509867785
 51
322.8981211086
  0
ARC
  5
34B
100
AcDbEntity
  8
0
100
AcDbCircle
 62
7
  6
CONTINUOUS
 10
-59.0
 20
27.0
 40
0.7522905861
100
AcDbArc
 50
228.3509342563
 51
311.6490283615
  0
ARC
  5
34C
100
AcDbEntity
  8
0
100
AcDbCircle
 62
7
  6
CONTINUOUS
 10
-59.0
 20
27.0
 40
0.7522905861
100
AcDbArc
 50
217.1018788914
 51
221.6490663885
  0
ARC
  5
34D
100
AcDbEntity
  8
RACCORDO
100
AcDbCircle
 62
253
  6
CONTINUOUS
 10
-49.7938842771
 20
22.3095915031
 40
0.5004844108
100
AcDbArc
 50
89.9977440787
 51
179.9116121024
  0
ARC
  5
34E
100
AcDbEntity
  8
0
100
AcDbCircle
 62
7
  6
CONTINUOUS
 10
-45.9226248731
 20
93.6513384927
 40
68.4863730359
100
AcDbArc
 50
257.5632077456
 51
257.9759958253
  0
ARC
  5
34F
100
AcDbEntity
  8
0
100
AcDbCircle
 62
7
  6
CONTINUOUS
 10
45.9901610844
 20
-93.3397677679
 40
68.1675678913
100
AcDbArc
 50
77.5622418143
 51
77.9769604184
  0
ARC
  5
350
100
AcDbEntity
  8
0
100
AcDbCircle
 62
7
  6
CONTINUOUS
 10
70.4027652547
 20
-86.098596317
 40
60.7503985822
100
AcDbArc
 50
101.9634542625
 51
102.4284885029
  0
ARC
  5
351
100
AcDbEntity
  8
RACCORDO
100
AcDbCircle
 62
7
  6
CONTINUOUS
 10
0.0
 20
0.0
 40
4.4988887517
100
AcDbArc
 50
218.9113642581
 51
321.0886357419
  0
ARC
  5
352
100
AcDbEntity
  8
RACCORDO
100
AcDbCircle
 62
7
  6
CONTINUOUS
 10
0.0
 20
0.0
 40
4.4988887517
100
AcDbArc
 50
38.9113642581
 51
141.0886357419
  0
ARC
  5
353
100
AcDbEntity
  8
RACCORDO
100
AcDbCircle
 62
253
  6
CONTINUOUS
 10
5.0
 20
0.0
 40
3.1989546259
100
AcDbArc
 50
242.0504407298
 51
117.9495592702
  0
CIRCLE
  5
354
100
AcDbEntity
  8
RACCORDO
100
AcDbCircle
 62
253
  6
CONTINUOUS
 10
25.0
 20
0.0
 40
3.1989546196
  0
ARC
  5
355
100
AcDbEntity
  8
RACCORDO
100
AcDbCircle
 62
7
  6
CONTINUOUS
 10
5.0120338677
 20
0.0006755539
 40
2.905822068
100
AcDbArc
 50
180.0133205594
 51
237.8433533039
  0
ARC
  5
356
100
AcDbEntity
  8
RACCORDO
100
AcDbCircle
 62
7
  6
CONTINUOUS
 10
5.0120338661
 20
-0.0006755527
 40
2.9058220663
100
AcDbArc
 50
122.1566466807
 51
179.9866794637
  0
CIRCLE
  5
357
100
AcDbEntity
  8
RACCORDO
100
AcDbCircle
 62
253
  6
CONTINUOUS
 10
25.0
 20
0.0
 40
2.8989564536
  0
ARC
  5
358
100
AcDbEntity
  8
RACCORDO
100
AcDbCircle
 62
253
  6
CONTINUOUS
 10
5.0
 20
0.0
 40
2.8989564536
100
AcDbArc
 50
238.0376023672
 51
121.9623976328
  0
CIRCLE
  5
359
100
AcDbEntity
  8
RACCORDO
100
AcDbCircle
 62
253
  6
CONTINUOUS
 10
25.0
 20
0.0
 40
2.8724200304
  0
CIRCLE
  5
35A
100
AcDbEntity
  8
RACCORDO
100
AcDbCircle
 62
253
  6
CONTINUOUS
 10
5.0
 20
0.0
 40
2.8724200304
  0
CIRCLE
  5
35B
100
AcDbEntity
  8
RACCORDO
100
AcDbCircle
 62
253
  6
CONTINUOUS
 10
25.0
 20
0.0
 40
2.5724218529
  0
CIRCLE
  5
35C
100
AcDbEntity
  8
RACCORDO
100
AcDbCircle
 62
253
  6
CONTINUOUS
 10
5.0
 20
0.0
 40
2.5724218529
  0
CIRCLE
  5
35D
100
AcDbEntity
  8
SMUSSO
100
AcDbCircle
 62
7
  6
CONTINUOUS
 10
25.0
 20
-0.0
 40
1.7499999672
  0
CIRCLE
  5
35E
100
AcDbEntity
  8
SMUSSO
100
AcDbCircle
 62
7
  6
CONTINUOUS
 10
5.0
 20
0.0
 40
1.7499999672
  0
CIRCLE
  5
35F
100
AcDbEntity
  8
SMUSSO
100
AcDbCircle
 62
7
  6
CONTINUOUS
 10
5.0
 20
0.0
 40
1.2482546745
  0
CIRCLE
  5
360
100
AcDbEntity
  8
SMUSSO
100
AcDbCircle
 62
7
  6
CONTINUOUS
 10
25.0
 20
0.0
 40
1.2482546745
  0
CIRCLE
  5
361
100
AcDbEntity
  8
DRAFT
100
AcDbCircle
 62
7
  6
CONTINUOUS
 10
5.0
 20
0.0
 40
1.2175367441
  0
CIRCLE
  5
362
100
AcDbEntity
  8
DRAFT
100
AcDbCircle
 62
7
  6
CONTINUOUS
 10
25.0
 20
0.0
 40
1.2175367441
  0
ARC
  5
363
100
AcDbEntity
  8
0
100
AcDbCircle
 62
7
  6
CONTINUOUS
 10
45.9901610844
 20
-39.3397677678
 40
68.1675678913
100
AcDbArc
 50
77.5622418143
 51
77.9769604184
  0
ARC
  5
364
100
AcDbEntity
  8
0
100
AcDbCircle
 62
7
  6
CONTINUOUS
 10
52.3487827861
 20
-41.1608491117
 40
16.3392586151
100
AcDbArc
 50
63.8020617908
 51
63.9650284022
  0
ARC
  5
365
100
AcDbEntity
  8
0
100
AcDbCircle
 62
7
  6
CONTINUOUS
 10
44.8395922705
 20
-33.6510020754
 40
16.3387675932
100
AcDbArc
 50
26.0349730838
 51
26.1979446202
  0
ARC
  5
366
100
AcDbEntity
  8
0
100
AcDbCircle
 62
7
  6
CONTINUOUS
 10
46.6046963248
 20
-32.8504225724
 40
14.5447241005
100
AcDbArc
 50
26.4467334955
 51
26.6871679444
  0
ARC
  5
367
100
AcDbEntity
  8
ASSI
100
AcDbCircle
 62
7
  6
CONTINUOUS
 10
53.006618
 20
-32.558579
 40
0.8587214994
100
AcDbArc
 50
292.8428415932
 51
90.0
  0
ARC
  5
368
100
AcDbEntity
  8
ASSI
100
AcDbCircle
 62
7
  6
CONTINUOUS
 10
52.928888
 20
-32.558579
 40
0.340698
100
AcDbArc
 50
270.0
 51
90.0
  0
ARC
  5
369
100
AcDbEntity
  8
0
100
AcDbCircle
 62
7
  6
CONTINUOUS
 10
46.564428706
 20
-21.1293971162
 40
14.5897650643
100
AcDbArc
 50
333.3130487244
 51
333.5527387092
  0
ARC
  5
36A
100
AcDbEntity
  8
ASSI
100
AcDbCircle
 62
7
  6
CONTINUOUS
 10
47.0
 20
-22.0
 40
2.6237424326
100
AcDbArc
 50
349.0140062387
 51
190.9860465866
  0
ARC
  5
36B
100
AcDbEntity
  8
ASSI
100
AcDbCircle
 62
7
  6
CONTINUOUS
 10
47.0
 20
-22.0
 40
2.20376
100
AcDbArc
 50
346.8851830596
 51
193.1148169404
  0
ARC
  5
36C
100
AcDbEntity
  8
ASSI
100
AcDbCircle
 62
7
  6
CONTINUOUS
 10
47.0
 20
-22.0
 40
1.9709567246
100
AcDbArc
 50
345.3041923
 51
44.9957848337
  0
ARC
  5
36D
100
AcDbEntity
  8
ASSI
100
AcDbCircle
 62
7
  6
CONTINUOUS
 10
47.0
 20
-22.0
 40
1.9709563643
100
AcDbArc
 50
134.9002846268
 51
194.6956262357
  0
ARC
  5
36E
100
AcDbEntity
  8
ASSI
100
AcDbCircle
 62
7
  6
CONTINUOUS
 10
47.0
 20
-22.0
 40
1.5790921275
100
AcDbArc
 50
148.0267086216
 51
198.4598838109
  0
ARC
  5
36F
100
AcDbEntity
  8
ASSI
100
AcDbCircle
 62
7
  6
CONTINUOUS
 10
47.0
 20
-22.0
 40
1.5790919977
100
AcDbArc
 50
341.5401146092
 51
31.9732906998
  0
ARC
  5
370
100
AcDbEntity
  8
RACCORDO
100
AcDbCircle
 62
253
  6
CONTINUOUS
 10
49.7938985604
 20
-22.3096036403
 40
0.5004678752
100
AcDbArc
 50
269.9961088302
 51
359.9129991426
  0
ARC
  5
371
100
AcDbEntity
  8
0
100
AcDbCircle
 62
7
  6
CONTINUOUS
 10
70.4027652545
 20
-32.0985963165
 40
60.7503985816
100
AcDbArc
 50
101.9634542625
 51
102.4284885029
  0
ARC
  5
372
100
AcDbEntity
  8
0
100
AcDbCircle
 62
7
  6
CONTINUOUS
 10
73.1259263177
 20
-33.6341698139
 40
16.3003971269
100
AcDbArc
 50
153.8016338065
 51
153.9649905686
  0
ARC
  5
373
100
AcDbEntity
  8
0
100
AcDbCircle
 62
7
  6
CONTINUOUS
 10
65.6325359498
 20
-41.1225339419
 40
16.2966318529
100
AcDbArc
 50
116.0350829578
 51
116.1984781096
  0
ARC
  5
374
100
AcDbEntity
  8
0
100
AcDbCircle
 62
7
  6
CONTINUOUS
 10
71.4355712938
 20
-32.8706028837
 40
14.5897650641
100
AcDbArc
 50
153.3130487244
 51
153.5527387092
  0
ARC
  5
375
100
AcDbEntity
  8
RACCORDO
100
AcDbCircle
 62
253
  6
CONTINUOUS
 10
66.4203674548
 20
-39.9203674548
 40
1.5000807794
100
AcDbArc
 50
270.0052311762
 51
359.9947688238
  0
ARC
  5
376
100
AcDbEntity
  8
0
100
AcDbCircle
 62
7
  6
CONTINUOUS
 10
71.3953036804
 20
-21.149577425
 40
14.5447241062
100
AcDbArc
 50
206.4467334955
 51
206.6871679444
  0
ARC
  5
377
100
AcDbEntity
  8
RACCORDO
100
AcDbCircle
 62
253
  6
CONTINUOUS
 10
58.9996708487
 20
-26.9952067712
 40
3.2969545478
100
AcDbArc
 50
89.994279965
 51
270.005720035
  0
ARC
  5
378
100
AcDbEntity
  8
RACCORDO
100
AcDbCircle
 62
253
  6
CONTINUOUS
 10
59.0003291511
 20
-26.9952068169
 40
3.2969545441
100
AcDbArc
 50
269.9942799673
 51
90.0057200326
  0
CIRCLE
  5
379
100
AcDbEntity
  8
DRAFT
100
AcDbCircle
 62
7
  6
CONTINUOUS
 10
59.0
 20
-27.0
 40
3.25
  0
CIRCLE
  5
37A
100
AcDbEntity
  8
0
100
AcDbCircle
 62
7
  6
CONTINUOUS
 10
59.0
 20
-27.0
 40
3.0
  0
ARC
  5
37B
100
AcDbEntity
  8
0
100
AcDbCircle
 62
7
  6
CONTINUOUS
 10
59.0
 20
-27.0
 40
2.8950136038
100
AcDbArc
 50
258.0385857315
 51
281.9614142685
  0
ARC
  5
37C
100
AcDbEntity
  8
0
100
AcDbCircle
 62
7
  6
CONTINUOUS
 10
59.0
 20
-27.0
 40
2.8950136038
100
AcDbArc
 50
78.0385857315
 51
101.9614142685
  0
ARC
  5
37D
100
AcDbEntity
  8
0
100
AcDbCircle
 62
7
  6
CONTINUOUS
 10
59.0
 20
-27.0
 40
2.8155023425
100
AcDbArc
 50
102.3044249574
 51
257.6955750426
  0
ARC
  5
37E
100
AcDbEntity
  8
0
100
AcDbCircle
 62
7
  6
CONTINUOUS
 10
59.0
 20
-27.0
 40
2.8155023425
100
AcDbArc
 50
282.3044249574
 51
77.6955750426
  0
ARC
  5
37F
100
AcDbEntity
  8
0
100
AcDbCircle
 62
7
  6
CONTINUOUS
 10
59.0
 20
-27.0
 40
1.6874840352
100
AcDbArc
 50
172.230101045
 51
187.7632444202
  0
ARC
  5
380
100
AcDbEntity
  8
0
100
AcDbCircle
 62
7
  6
CONTINUOUS
 10
59.0
 20
-27.0
 40
1.6874840352
100
AcDbArc
 50
352.2301010241
 51
7.7632444202
  0
ARC
  5
381
100
AcDbEntity
  8
TRASH
100
AcDbCircle
 62
7
  6
CONTINUOUS
 10
59.0
 20
-27.0
 40
1.1472328625
100
AcDbArc
 50
347.9845776281
 51
12.0153200785
  0
ARC
  5
382
100
AcDbEntity
  8
TRASH
100
AcDbCircle
 62
7
  6
CONTINUOUS
 10
59.0
 20
-27.0
 40
1.1472328625
100
AcDbArc
 50
167.9845776281
 51
192.0153200785
  0
ARC
  5
383
100
AcDbEntity
  8
0
100
AcDbCircle
 62
7
  6
CONTINUOUS
 10
59.0
 20
-27.0
 40
0.7522905861
100
AcDbArc
 50
138.3509867785
 51
142.8981211086
  0
ARC
  5
384
100
AcDbEntity
  8
0
100
AcDbCircle
 62
7
  6
CONTINUOUS
 10
59.0
 20
-27.0
 40
0.7522905861
100
AcDbArc
 50
48.3509342563
 51
131.6490283615
  0
ARC
  5
385
100
AcDbEntity
  8
0
100
AcDbCircle
 62
7
  6
CONTINUOUS
 10
59.0
 20
-27.0
 40
0.7522905861
100
AcDbArc
 50
37.1018788914
 51
41.6490663885
  0
ARC
  5
386
100
AcDbEntity
  8
0
100
AcDbCircle
 62
7
  6
CONTINUOUS
 10
59.0
 20
-27.0
 40
0.7522905861
100
AcDbArc
 50
318.3509867785
 51
322.8981211086
  0
ARC
  5
387
100
AcDbEntity
  8
0
100
AcDbCircle
 62
7
  6
CONTINUOUS
 10
59.0
 20
-27.0
 40
0.7522905861
100
AcDbArc
 50
228.3509342563
 51
311.6490283615
  0
ARC
  5
388
100
AcDbEntity
  8
0
100
AcDbCircle
 62
7
  6
CONTINUOUS
 10
59.0
 20
-27.0
 40
0.7522905861
100
AcDbArc
 50
217.1018788914
 51
221.6490663885
  0
ARC
  5
389
100
AcDbEntity
  8
0
100
AcDbCircle
 62
7
  6
CONTINUOUS
 10
73.1604077295
 20
-20.3489979246
 40
16.3387675932
100
AcDbArc
 50
206.0349730838
 51
206.1979446202
  0
ARC
  5
38A
100
AcDbEntity
  8
0
100
AcDbCircle
 62
7
  6
CONTINUOUS
 10
65.6506434782
 20
-12.8403211778
 40
16.3379552554
100
AcDbArc
 50
243.8020552904
 51
243.9650349025
  0
ARC
  5
38B
100
AcDbEntity
  8
0
100
AcDbCircle
 62
7
  6
CONTINUOUS
 10
44.8740736825
 20
-20.3658301862
 40
16.3003971267
100
AcDbArc
 50
333.8016338065
 51
333.9649905686
  0
ARC
  5
38C
100
AcDbEntity
  8
0
100
AcDbCircle
 62
7
  6
CONTINUOUS
 10
52.3674803507
 20
-12.877499307
 40
16.2965948233
100
AcDbArc
 50
296.0350827721
 51
296.1984782953
  0
ARC
  5
38D
100
AcDbEntity
  8
RACCORDO
100
AcDbCircle
 62
253
  6
CONTINUOUS
 10
19995.1147094123
 20
-0.0
 40
20045.4214774032
100
AcDbArc
 50
179.9362303289
 51
180.0637696711
  0
ARC
  5
38E
100
AcDbEntity
  8
RACCORDO
100
AcDbCircle
 62
253
  6
CONTINUOUS
 10
19966.7376990475
 20
-0.0000011016
 40
20016.7945051146
100
AcDbArc
 50
179.9361847589
 51
180.0638152601
  0
ARC
  5
38F
100
AcDbEntity
  8
0
100
AcDbCircle
 62
7
  6
CONTINUOUS
 10
47.597234466
 20
32.098597851
 40
60.750400141
100
AcDbArc
 50
281.9634542192
 51
282.4284884486
  0
ARC
  5
390
100
AcDbEntity
  8
0
100
AcDbCircle
 62
7
  6
CONTINUOUS
 10
52.3487827855
 20
12.8391508871
 40
16.3392586165
100
AcDbArc
 50
63.8020617908
 51
63.9650284022
  0
ARC
  5
391
100
AcDbEntity
  8
0
100
AcDbCircle
 62
7
  6
CONTINUOUS
 10
44.8395922686
 20
20.3489979237
 40
16.3387675952
100
AcDbArc
 50
26.0349730838
 51
26.1979446202
  0
ARC
  5
392
100
AcDbEntity
  8
0
100
AcDbCircle
 62
7
  6
CONTINUOUS
 10
44.8740736823
 20
33.6341698139
 40
16.3003971269
100
AcDbArc
 50
333.8016338065
 51
333.9649905686
  0
ARC
  5
393
100
AcDbEntity
  8
0
100
AcDbCircle
 62
7
  6
CONTINUOUS
 10
52.3674803493
 20
41.1225006959
 40
16.2965948266
100
AcDbArc
 50
296.0350827721
 51
296.1984782953
  0
ARC
  5
394
100
AcDbEntity
  8
0
100
AcDbCircle
 62
7
  6
CONTINUOUS
 10
46.5644287053
 20
32.8706028842
 40
14.5897650651
100
AcDbArc
 50
333.3130487244
 51
333.5527387092
  0
ARC
  5
395
100
AcDbEntity
  8
0
100
AcDbCircle
 62
7
  6
CONTINUOUS
 10
46.604696325
 20
21.1495774277
 40
14.5447241002
100
AcDbArc
 50
26.4467334954
 51
26.6871679444
  0
ARC
  5
396
100
AcDbEntity
  8
RACCORDO
100
AcDbCircle
 62
253
  6
CONTINUOUS
 10
58.9996708489
 20
26.9952068169
 40
3.2969545447
100
AcDbArc
 50
89.9942799676
 51
270.0057200323
  0
ARC
  5
397
100
AcDbEntity
  8
RACCORDO
100
AcDbCircle
 62
253
  6
CONTINUOUS
 10
49.7938985613
 20
22.3096036406
 40
0.5004678746
100
AcDbArc
 50
0.087000827
 51
90.003891267
  0
ARC
  5
398
100
AcDbEntity
  8
0
100
AcDbCircle
 62
7
  6
CONTINUOUS
 10
47.5972344659
 20
86.0985978515
 40
60.7504001415
100
AcDbArc
 50
281.9634542192
 51
282.4284884486
  0
ARC
  5
399
100
AcDbEntity
  8
0
100
AcDbCircle
 62
7
  6
CONTINUOUS
 10
72.077375127
 20
39.6513384933
 40
68.4863730365
100
AcDbArc
 50
257.5632077456
 51
257.9759958253
  0
ARC
  5
39A
100
AcDbEntity
  8
0
100
AcDbCircle
 62
7
  6
CONTINUOUS
 10
73.1604077314
 20
33.6510020763
 40
16.3387675952
100
AcDbArc
 50
206.0349730838
 51
206.1979446202
  0
ARC
  5
39B
100
AcDbEntity
  8
0
100
AcDbCircle
 62
7
  6
CONTINUOUS
 10
65.650643478
 20
41.1596788218
 40
16.337955255
100
AcDbArc
 50
243.8020552904
 51
243.9650349025
  0
ARC
  5
39C
100
AcDbEntity
  8
0
100
AcDbCircle
 62
7
  6
CONTINUOUS
 10
73.1259263177
 20
20.3658301861
 40
16.3003971269
100
AcDbArc
 50
153.8016338065
 51
153.9649905686
  0
ARC
  5
39D
100
AcDbEntity
  8
0
100
AcDbCircle
 62
7
  6
CONTINUOUS
 10
65.63253595
 20
12.8774660577
 40
16.2966318534
100
AcDbArc
 50
116.0350829578
 51
116.1984781096
  0
ARC
  5
39E
100
AcDbEntity
  8
0
100
AcDbCircle
 62
7
  6
CONTINUOUS
 10
71.435571294
 20
21.1293971162
 40
14.5897650643
100
AcDbArc
 50
153.3130487244
 51
153.5527387092
  0
ARC
  5
39F
100
AcDbEntity
  8
0
100
AcDbCircle
 62
7
  6
CONTINUOUS
 10
71.3953036804
 20
32.850422575
 40
14.5447241062
100
AcDbArc
 50
206.4467334955
 51
206.6871679444
  0
ARC
  5
3A0
100
AcDbEntity
  8
RACCORDO
100
AcDbCircle
 62
253
  6
CONTINUOUS
 10
59.0003291512
 20
26.9952067712
 40
3.2969545472
100
AcDbArc
 50
269.9942799659
 51
90.005720034
  0
CIRCLE
  5
3A1
100
AcDbEntity
  8
DRAFT
100
AcDbCircle
 62
7
  6
CONTINUOUS
 10
59.0
 20
27.0
 40
3.25
  0
CIRCLE
  5
3A2
100
AcDbEntity
  8
0
100
AcDbCircle
 62
7
  6
CONTINUOUS
 10
59.0
 20
27.0
 40
3.0
  0
ARC
  5
3A3
100
AcDbEntity
  8
0
100
AcDbCircle
 62
7
  6
CONTINUOUS
 10
59.0
 20
27.0
 40
2.8950136038
100
AcDbArc
 50
258.0385857315
 51
281.9614142685
  0
ARC
  5
3A4
100
AcDbEntity
  8
0
100
AcDbCircle
 62
7
  6
CONTINUOUS
 10
59.0
 20
27.0
 40
2.8950136038
100
AcDbArc
 50
78.0385857315
 51
101.9614142685
  0
ARC
  5
3A5
100
AcDbEntity
  8
0
100
AcDbCircle
 62
7
  6
CONTINUOUS
 10
59.0
 20
27.0
 40
2.8155023425
100
AcDbArc
 50
102.3044249574
 51
257.6955750426
  0
ARC
  5
3A6
100
AcDbEntity
  8
0
100
AcDbCircle
 62
7
  6
CONTINUOUS
 10
59.0
 20
27.0
 40
2.8155023425
100
AcDbArc
 50
282.3044249574
 51
77.6955750426
  0
ARC
  5
3A7
100
AcDbEntity
  8
0
100
AcDbCircle
 62
7
  6
CONTINUOUS
 10
59.0
 20
27.0
 40
1.6874840352
100
AcDbArc
 50
172.230101045
 51
187.7632444202
  0
ARC
  5
3A8
100
AcDbEntity
  8
0
100
AcDbCircle
 62
7
  6
CONTINUOUS
 10
59.0
 20
27.0
 40
1.6874840352
100
AcDbArc
 50
352.2301010241
 51
7.7632444202
  0
ARC
  5
3A9
100
AcDbEntity
  8
RACCORDO
100
AcDbCircle
 62
253
  6
CONTINUOUS
 10
66.4203674549
 20
39.9203674549
 40
1.5000807793
100
AcDbArc
 50
0.0052311723
 51
89.9947688277
  0
ARC
  5
3AA
100
AcDbEntity
  8
TRASH
100
AcDbCircle
 62
7
  6
CONTINUOUS
 10
59.0
 20
27.0
 40
1.1472328625
100
AcDbArc
 50
347.9845776281
 51
12.0153200785
  0
ARC
  5
3AB
100
AcDbEntity
  8
TRASH
100
AcDbCircle
 62
7
  6
CONTINUOUS
 10
59.0
 20
27.0
 40
1.1472328625
100
AcDbArc
 50
167.9845776281
 51
192.0153200785
  0
ARC
  5
3AC
100
AcDbEntity
  8
0
100
AcDbCircle
 62
7
  6
CONTINUOUS
 10
59.0
 20
27.0
 40
0.7522905861
100
AcDbArc
 50
138.3509867785
 51
142.8981211086
  0
ARC
  5
3AD
100
AcDbEntity
  8
0
100
AcDbCircle
 62
7
  6
CONTINUOUS
 10
59.0
 20
27.0
 40
0.7522905861
100
AcDbArc
 50
48.3509342563
 51
131.6490283615
  0
ARC
  5
3AE
100
AcDbEntity
  8
0
100
AcDbCircle
 62
7
  6
CONTINUOUS
 10
59.0
 20
27.0
 40
0.7522905861
100
AcDbArc
 50
37.1018788914
 51
41.6490663885
  0
ARC
  5
3AF
100
AcDbEntity
  8
0
100
AcDbCircle
 62
7
  6
CONTINUOUS
 10
59.0
 20
27.0
 40
0.7522905861
100
AcDbArc
 50
318.3509867785
 51
322.8981211086
  0
ARC
  5
3B0
100
AcDbEntity
  8
0
100
AcDbCircle
 62
7
  6
CONTINUOUS
 10
59.0
 20
27.0
 40
0.7522905861
100
AcDbArc
 50
228.3509342563
 51
311.6490283615
  0
ARC
  5
3B1
100
AcDbEntity
  8
0
100
AcDbCircle
 62
7
  6
CONTINUOUS
 10
59.0
 20
27.0
 40
0.7522905861
100
AcDbArc
 50
217.1018788914
 51
221.6490663885
  0
ARC
  5
3B2
100
AcDbEntity
  8
0
100
AcDbCircle
 62
7
  6
CONTINUOUS
 10
72.0773751269
 20
93.6513384927
 40
68.4863730359
100
AcDbArc
 50
257.5632077456
 51
257.9759958253
  0
ARC
  5
3B3
100
AcDbEntity
  8
RACCORDO
100
AcDbCircle
 62
7
  6
CONTINUOUS
 10
-150.6285839992
 20
-36.4206376833
 40
5.0
100
AcDbArc
 50
186.0588470103
 51
269.5010052626
  0
ARC
  5
3B4
100
AcDbEntity
  8
RACCORDO
100
AcDbCircle
 62
253
  6
CONTINUOUS
 10
-150.6416738031
 20
-36.420637684
 40
3.4999999992
100
AcDbArc
 50
186.0598386069
 51
269.500000011
  0
ARC
  5
3B5
100
AcDbEntity
  8
RACCORDO
100
AcDbCircle
 62
7
  6
CONTINUOUS
 10
-102.5563800089
 20
-40.1596140778
 40
1.0
100
AcDbArc
 50
270.5
 51
360.0
  0
CIRCLE
  5
3B6
100
AcDbEntity
  8
DRAFT
100
AcDbCircle
 62
7
  6
CONTINUOUS
 10
-117.5563800089
 20
-0.0
 40
11.5
  0
CIRCLE
  5
3B7
100
AcDbEntity
  8
0
100
AcDbCircle
 62
7
  6
CONTINUOUS
 10
-117.5563800089
 20
-0.0
 40
11.25
  0
CIRCLE
  5
3B8
100
AcDbEntity
  8
0
100
AcDbCircle
 62
7
  6
CONTINUOUS
 10
-117.5563800089
 20
-0.0
 40
10.8458548116
  0
ARC
  5
3B9
100
AcDbEntity
  8
RACCORDO
100
AcDbCircle
 62
7
  6
CONTINUOUS
 10
-150.6285839992
 20
36.4206376833
 40
5.0
100
AcDbArc
 50
90.4990296204
 51
173.941188471
  0
ARC
  5
3BA
100
AcDbEntity
  8
RACCORDO
100
AcDbCircle
 62
253
  6
CONTINUOUS
 10
-150.6416738031
 20
36.420637684
 40
3.4999999993
100
AcDbArc
 50
90.4999999892
 51
173.9401613928
  0
ARC
  5
3BB
100
AcDbEntity
  8
RACCORDO
100
AcDbCircle
 62
7
  6
CONTINUOUS
 10
-102.5563800089
 20
40.1596140412
 40
1.0
100
AcDbArc
 50
0.0000020959
 51
89.5000000183
  0
ARC
  5
3BC
100
AcDbEntity
  8
ASSI
100
AcDbCircle
 62
7
  6
CONTINUOUS
 10
192.4436199911
 20
-0.0
 40
350.15
100
AcDbArc
 50
185.194226157
 51
185.6544782134
  0
ARC
  5
3BD
100
AcDbEntity
  8
RACCORDO
100
AcDbCircle
 62
7
  6
CONTINUOUS
 10
192.4436199911
 20
-0.0
 40
350.0
100
AcDbArc
 50
173.9401760547
 51
186.0598244522
  0
ARC
  5
3BE
100
AcDbEntity
  8
RACCORDO
100
AcDbCircle
 62
253
  6
CONTINUOUS
 10
192.4305300903
 20
0.0
 40
348.499999903
100
AcDbArc
 50
173.9401613803
 51
186.0598386197
  0
LINE
  5
3BF
100
AcDbEntity
  8
0
100
AcDbLine
 62
7
  6
CONTINUOUS
 10
59.6
 20
26.4000001418
 11
59.6272974066
 21
26.3727027659
  0
LINE
  5
3C0
100
AcDbEntity
  8
0
100
AcDbLine
 62
7
  6
CONTINUOUS
 10
59.5197234842
 20
26.4802765158
 11
59.5204046482
 21
26.4795953519
  0
LINE
  5
3C1
100
AcDbEntity
  8
0
100
AcDbLine
 62
7
  6
CONTINUOUS
 10
58.3727024907
 20
26.3727024837
 11
58.4
 21
26.3999999936
  0
LINE
  5
3C2
100
AcDbEntity
  8
0
100
AcDbLine
 62
7
  6
CONTINUOUS
 10
58.4795953518
 20
26.4795953518
 11
58.4802765158
 21
26.4802765158
  0
LINE
  5
3C3
100
AcDbEntity
  8
0
100
AcDbLine
 62
7
  6
CONTINUOUS
 10
58.480282565
 20
27.5197267822
 11
58.5000533558
 21
27.5621338622
  0
SPLINE
  5
3C4
100
AcDbEntity
  8
0
100
AcDbSpline
 62
7
  6
CONTINUOUS
 70
0
 71
3
 72
9
 73
5
 74
3
 42
0.0000001
 43
0.0000001
 44
0.0000000001
 12
0.0452995647
 22
0.1041126532
 32
0.0
 13
0.0452995647
 23
0.1041126532
 33
0.0
 40
0.0
 40
0.0
 40
0.0
 40
0.0
 40
0.4996939835
 40
1.0
 40
1.0
 40
1.0
 40
1.0
 10
57.8101933044
 20
26.6675285871
 30
0.0
 10
57.817738611
 20
26.6848700759
 30
0.0
 10
57.8330832391
 20
26.7194691566
 30
0.0
 10
57.8474481749
 20
26.754489043
 30
0.0
 10
57.8550027231
 20
26.7718517719
 30
0.0
 11
57.8101933044
 21
26.6675285871
 31
0.0
 11
57.8328292243
 21
26.7195530535
 31
0.0
 11
57.8550027231
 21
26.7718517719
 31
0.0
  0
SPLINE
  5
3C5
100
AcDbEntity
  8
0
100
AcDbSpline
 62
7
  6
CONTINUOUS
 70
0
 71
3
 72
9
 73
5
 74
3
 42
0.0000001
 43
0.0000001
 44
0.0000000001
 12
-0.5269772644
 22
0.0010793166
 32
0.0
 13
-0.5269783692
 23
-0.0000227564
 33
0.0
 40
0.0
 40
0.0
 40
0.0
 40
0.0
 40
0.4866884719
 40
1.0
 40
1.0
 40
1.0
 40
1.0
 10
57.8549604169
 20
26.7716467289
 30
0.0
 10
57.7694691637
 20
26.7718218259
 30
0.0
 10
57.593809738
 20
26.7720059196
 30
0.0
 10
57.4181502881
 20
26.7720585941
 30
0.0
 10
57.3279822641
 20
26.7720547004
 30
0.0
 11
57.8549604169
 21
26.7716467289
 31
0.0
 11
57.598486323
 21
26.7719698898
 31
0.0
 11
57.3279822641
 21
26.7720547004
 31
0.0
  0
LINE
  5
3C6
100
AcDbEntity
  8
TRASH
100
AcDbLine
 62
7
  6
CONTINUOUS
 10
57.8778937063
 20
26.7611776175
 11
57.8550027231
 21
26.7718517719
  0
LINE
  5
3C7
100
AcDbEntity
  8
TRASH
100
AcDbLine
 62
7
  6
CONTINUOUS
 10
57.8550027299
 20
27.2281482181
 11
57.877893713
 21
27.2388223726
  0
LINE
  5
3C8
100
AcDbEntity
  8
0
100
AcDbLine
 62
7
  6
CONTINUOUS
 10
59.5621339943
 20
26.5000535044
 11
59.5197267822
 21
26.480282565
  0
LINE
  5
3C9
100
AcDbEntity
  8
0
100
AcDbLine
 62
7
  6
CONTINUOUS
 10
57.3280087497
 20
27.2281394921
 11
57.8549920768
 21
27.22819274
  0
LINE
  5
3CA
100
AcDbEntity
  8
0
100
AcDbLine
 62
7
  6
CONTINUOUS
 10
57.8550027299
 20
27.2281482181
 11
57.8099522509
 21
27.3323044581
  0
LINE
  5
3CB
100
AcDbEntity
  8
0
100
AcDbLine
 62
7
  6
CONTINUOUS
 10
60.1221028135
 20
26.7611739822
 11
59.6
 21
26.517710713
  0
LINE
  5
3CC
100
AcDbEntity
  8
0
100
AcDbLine
 62
7
  6
CONTINUOUS
 10
58.4
 20
27.5999998582
 11
58.3727025934
 21
27.6272972341
  0
LINE
  5
3CD
100
AcDbEntity
  8
0
100
AcDbLine
 62
7
  6
CONTINUOUS
 10
59.6
 20
27.4822898071
 11
60.1221066534
 21
27.238824741
  0
LINE
  5
3CE
100
AcDbEntity
  8
0
100
AcDbLine
 62
7
  6
CONTINUOUS
 10
59.5197234839
 20
27.5197234839
 11
59.5621335303
 21
27.4999470172
  0
LINE
  5
3CF
100
AcDbEntity
  8
0
100
AcDbLine
 62
7
  6
CONTINUOUS
 10
57.8101933044
 20
26.6675285871
 11
57.828395019
 21
26.6549273753
  0
SPLINE
  5
3D0
100
AcDbEntity
  8
0
100
AcDbSpline
 62
7
  6
CONTINUOUS
 70
0
 71
3
 72
14
 73
10
 74
8
 42
0.0000001
 43
0.0000001
 44
0.0000000001
 12
-0.5489866675
 22
0.2730585867
 32
0.0
 13
-0.540741044
 23
0.289044073
 33
0.0
 40
0.0
 40
0.0
 40
0.0
 40
0.0
 40
0.1676248277
 40
0.3171576827
 40
0.4562893429
 40
0.5918233207
 40
0.7276155638
 40
0.864047256
 40
1.0
 40
1.0
 40
1.0
 40
1.0
 10
58.3727024907
 20
26.3727024837
 30
0.0
 10
58.3420278922
 20
26.3879596165
 30
0.0
 10
58.2840953423
 20
26.4170404994
 30
0.0
 10
58.2010057812
 20
26.4593856473
 30
0.0
 10
58.1239492078
 20
26.4991217211
 30
0.0
 10
58.0495440737
 20
26.5378704201
 30
0.0
 10
57.9757639239
 20
26.5766233302
 30
0.0
 10
57.9020302626
 20
26.6156478457
 30
0.0
 10
57.8529000953
 20
26.641828597
 30
0.0
 10
57.828395019
 20
26.6549273753
 30
0.0
 11
58.3727024907
 21
26.3727024837
 31
0.0
 11
58.2808405336
 21
26.4187978272
 31
0.0
 11
58.1991463063
 21
26.4604183046
 31
0.0
 11
58.1233223684
 21
26.4995101966
 31
0.0
 11
58.0496133968
 21
26.5378890585
 31
0.0
 11
57.9758999156
 21
26.5766010257
 31
0.0
 11
57.9019622533
 21
26.6157284872
 31
0.0
 11
57.828395019
 21
26.6549273753
 31
0.0
  0
LINE
  5
3D1
100
AcDbEntity
  8
0
100
AcDbLine
 62
7
  6
CONTINUOUS
 10
58.4802765158
 20
27.5197234842
 11
58.4795953518
 21
27.5204046481
  0
SPLINE
  5
3D2
100
AcDbEntity
  8
0
100
AcDbSpline
 62
7
  6
CONTINUOUS
 70
0
 71
3
 72
14
 73
10
 74
8
 42
0.0000001
 43
0.0000001
 44
0.0000000001
 12
0.5407409237
 22
0.2890440051
 32
0.0
 13
0.5489846067
 23
0.2730624198
 33
0.0
 40
0.0
 40
0.0
 40
0.0
 40
0.0
 40
0.1360891828
 40
0.2724205737
 40
0.4077679873
 40
0.5429185838
 40
0.6821509024
 40
0.8319710672
 40
1.0
 40
1.0
 40
1.0
 40
1.0
 10
57.8283951111
 20
27.3450726739
 30
0.0
 10
57.8529247745
 20
27.3581845947
 30
0.0
 10
57.9020615595
 20
27.384368606
 30
0.0
 10
57.9757213173
 20
27.4233541525
 30
0.0
 10
58.0493333802
 20
27.4620189291
 30
0.0
 10
58.1236059243
 20
27.5007002545
 30
0.0
 10
58.2006626082
 20
27.540438111
 30
0.0
 10
58.2838948016
 20
27.5828598752
 30
0.0
 10
58.3419541609
 20
27.6120031051
 30
0.0
 10
58.3727025934
 20
27.6272972341
 30
0.0
 11
57.8283951111
 21
27.3450726739
 31
0.0
 11
57.9020362479
 21
27.3843107253
 31
0.0
 11
57.9759195551
 21
27.423409377
 31
0.0
 11
58.0493914028
 21
27.4619947999
 31
0.0
 11
58.1228912322
 21
27.5002662962
 31
0.0
 11
58.1987691279
 21
27.539388172
 31
0.0
 11
58.2806192164
 21
27.5810907405
 31
0.0
 11
58.3727025934
 21
27.6272972341
 31
0.0
  0
LINE
  5
3D3
100
AcDbEntity
  8
0
100
AcDbLine
 62
7
  6
CONTINUOUS
 10
57.8099522509
 20
27.3323044581
 11
57.8283951111
 21
27.3450726739
  0
SPLINE
  5
3D4
100
AcDbEntity
  8
0
100
AcDbSpline
 62
7
  6
CONTINUOUS
 70
0
 71
3
 72
14
 73
10
 74
8
 42
0.0000001
 43
0.0000001
 44
0.0000000001
 12
-0.5407409237
 22
-0.2890440051
 32
0.0
 13
-0.5489846067
 23
-0.2730624198
 33
0.0
 40
0.0
 40
0.0
 40
0.0
 40
0.0
 40
0.1360891828
 40
0.2724205737
 40
0.4077679873
 40
0.5429185838
 40
0.6821509024
 40
0.8319710672
 40
1.0
 40
1.0
 40
1.0
 40
1.0
 10
60.1716048889
 20
26.6549273261
 30
0.0
 10
60.1470752255
 20
26.6418154053
 30
0.0
 10
60.0979384405
 20
26.615631394
 30
0.0
 10
60.0242786827
 20
26.5766458475
 30
0.0
 10
59.9506666198
 20
26.5379810709
 30
0.0
 10
59.8763940757
 20
26.4992997455
 30
0.0
 10
59.7993373918
 20
26.459561889
 30
0.0
 10
59.7161051984
 20
26.4171401248
 30
0.0
 10
59.6580458391
 20
26.3879968949
 30
0.0
 10
59.6272974066
 20
26.3727027659
 30
0.0
 11
60.1716048889
 21
26.6549273261
 31
0.0
 11
60.0979637521
 21
26.6156892747
 31
0.0
 11
60.0240804449
 21
26.576590623
 31
0.0
 11
59.9506085972
 21
26.5380052001
 31
0.0
 11
59.8771087678
 21
26.4997337038
 31
0.0
 11
59.8012308721
 21
26.460611828
 31
0.0
 11
59.7193807836
 21
26.4189092595
 31
0.0
 11
59.6272974066
 21
26.3727027659
 31
0.0
  0
LINE
  5
3D5
100
AcDbEntity
  8
0
100
AcDbLine
 62
7
  6
CONTINUOUS
 10
60.1716048889
 20
26.6549273261
 11
60.190047748
 21
26.6676955411
  0
LINE
  5
3D6
100
AcDbEntity
  8
0
100
AcDbLine
 62
7
  6
CONTINUOUS
 10
60.171604981
 20
27.3450726247
 11
60.1898066956
 21
27.3324714129
  0
SPLINE
  5
3D7
100
AcDbEntity
  8
0
100
AcDbSpline
 62
7
  6
CONTINUOUS
 70
0
 71
3
 72
14
 73
10
 74
8
 42
0.0000001
 43
0.0000001
 44
0.0000000001
 12
0.5489866675
 22
-0.2730585867
 32
0.0
 13
0.540741044
 23
-0.289044073
 33
0.0
 40
0.0
 40
0.0
 40
0.0
 40
0.0
 40
0.1676248277
 40
0.3171576827
 40
0.4562893429
 40
0.5918233207
 40
0.7276155638
 40
0.864047256
 40
1.0
 40
1.0
 40
1.0
 40
1.0
 10
59.6272975093
 20
27.6272975163
 30
0.0
 10
59.6579721078
 20
27.6120403835
 30
0.0
 10
59.7159046577
 20
27.5829595006
 30
0.0
 10
59.7989942188
 20
27.5406143527
 30
0.0
 10
59.8760507922
 20
27.5008782789
 30
0.0
 10
59.9504559263
 20
27.4621295799
 30
0.0
 10
60.0242360761
 20
27.4233766698
 30
0.0
 10
60.0979697374
 20
27.3843521543
 30
0.0
 10
60.1470999047
 20
27.358171403
 30
0.0
 10
60.171604981
 20
27.3450726247
 30
0.0
 11
59.6272975093
 21
27.6272975163
 31
0.0
 11
59.7191594664
 21
27.5812021728
 31
0.0
 11
59.8008536937
 21
27.5395816954
 31
0.0
 11
59.8766776316
 21
27.5004898034
 31
0.0
 11
59.9503866032
 21
27.4621109415
 31
0.0
 11
60.0241000844
 21
27.4233989743
 31
0.0
 11
60.0980377467
 21
27.3842715128
 31
0.0
 11
60.171604981
 21
27.3450726247
 31
0.0
  0
LINE
  5
3D8
100
AcDbEntity
  8
0
100
AcDbLine
 62
7
  6
CONTINUOUS
 10
58.5000529891
 20
26.437866464
 11
58.4802765161
 21
26.4802765161
  0
LINE
  5
3D9
100
AcDbEntity
  8
0
100
AcDbLine
 62
7
  6
CONTINUOUS
 10
58.4802765161
 20
26.4802765161
 11
58.4378664697
 21
26.5000529828
  0
LINE
  5
3DA
100
AcDbEntity
  8
0
100
AcDbLine
 62
7
  6
CONTINUOUS
 10
58.4
 20
26.5177101929
 11
57.8778933466
 21
26.761175259
  0
LINE
  5
3DB
100
AcDbEntity
  8
0
100
AcDbLine
 62
7
  6
CONTINUOUS
 10
57.8778971865
 20
27.2388260178
 11
58.4
 21
27.482289287
  0
LINE
  5
3DC
100
AcDbEntity
  8
0
100
AcDbLine
 62
7
  6
CONTINUOUS
 10
58.4378660057
 20
27.4999464956
 11
58.4802732178
 21
27.519717435
  0
LINE
  5
3DD
100
AcDbEntity
  8
0
100
AcDbLine
 62
7
  6
CONTINUOUS
 10
59.519717435
 20
26.4802732178
 11
59.4999466442
 21
26.4378661378
  0
LINE
  5
3DE
100
AcDbEntity
  8
0
100
AcDbLine
 62
7
  6
CONTINUOUS
 10
59.4999470109
 20
27.562133536
 11
59.5197234839
 21
27.5197234839
  0
LINE
  5
3DF
100
AcDbEntity
  8
0
100
AcDbLine
 62
7
  6
CONTINUOUS
 10
59.6
 20
27.6000000064
 11
59.6272975093
 21
27.6272975163
  0
LINE
  5
3E0
100
AcDbEntity
  8
0
100
AcDbLine
 62
7
  6
CONTINUOUS
 10
59.5197234842
 20
27.5197234842
 11
59.5204046482
 21
27.5204046482
  0
SPLINE
  5
3E1
100
AcDbEntity
  8
0
100
AcDbSpline
 62
7
  6
CONTINUOUS
 70
0
 71
3
 72
9
 73
5
 74
3
 42
0.0000001
 43
0.0000001
 44
0.0000000001
 12
-0.0452995647
 22
-0.1041126532
 32
0.0
 13
-0.0452995647
 23
-0.1041126532
 33
0.0
 40
0.0
 40
0.0
 40
0.0
 40
0.0
 40
0.4996939835
 40
1.0
 40
1.0
 40
1.0
 40
1.0
 10
60.1898066956
 20
27.3324714129
 30
0.0
 10
60.182261389
 20
27.3151299241
 30
0.0
 10
60.1669167609
 20
27.2805308434
 30
0.0
 10
60.1525518251
 20
27.245510957
 30
0.0
 10
60.1449972769
 20
27.2281482281
 30
0.0
 11
60.1898066956
 21
27.3324714129
 31
0.0
 11
60.1671707757
 21
27.2804469465
 31
0.0
 11
60.1449972769
 21
27.2281482281
 31
0.0
  0
SPLINE
  5
3E2
100
AcDbEntity
  8
0
100
AcDbSpline
 62
7
  6
CONTINUOUS
 70
0
 71
3
 72
9
 73
5
 74
3
 42
0.0000001
 43
0.0000001
 44
0.0000000001
 12
0.5269772644
 22
-0.0010793166
 32
0.0
 13
0.5269783692
 23
0.0000227564
 33
0.0
 40
0.0
 40
0.0
 40
0.0
 40
0.0
 40
0.4866884719
 40
1.0
 40
1.0
 40
1.0
 40
1.0
 10
60.1450395831
 20
27.2283532711
 30
0.0
 10
60.2305308363
 20
27.2281781741
 30
0.0
 10
60.406190262
 20
27.2279940804
 30
0.0
 10
60.5818497119
 20
27.2279414059
 30
0.0
 10
60.6720177359
 20
27.2279452996
 30
0.0
 11
60.1450395831
 21
27.2283532711
 31
0.0
 11
60.401513677
 21
27.2280301102
 31
0.0
 11
60.6720177359
 21
27.2279452996
 31
0.0
  0
LINE
  5
3E3
100
AcDbEntity
  8
TRASH
100
AcDbLine
 62
7
  6
CONTINUOUS
 10
60.1221062937
 20
27.2388223825
 11
60.1449972769
 21
27.2281482281
  0
LINE
  5
3E4
100
AcDbEntity
  8
0
100
AcDbLine
 62
7
  6
CONTINUOUS
 10
60.1450079241
 20
26.7718072551
 11
60.6719912502
 21
26.7718605073
  0
LINE
  5
3E5
100
AcDbEntity
  8
0
100
AcDbLine
 62
7
  6
CONTINUOUS
 10
60.1449972701
 20
26.7718517819
 11
60.190047748
 21
26.6676955411
  0
LINE
  5
3E6
100
AcDbEntity
  8
TRASH
100
AcDbLine
 62
7
  6
CONTINUOUS
 10
60.122106287
 20
26.7611776274
 11
60.1449972701
 21
26.7718517819
  0
LINE
  5
3E7
100
AcDbEntity
  8
0
100
AcDbLine
 62
7
  6
CONTINUOUS
 10
-58.4
 20
26.4000001418
 11
-58.3727025934
 21
26.3727027659
  0
LINE
  5
3E8
100
AcDbEntity
  8
0
100
AcDbLine
 62
7
  6
CONTINUOUS
 10
-58.4802765158
 20
26.4802765158
 11
-58.4795953518
 21
26.4795953519
  0
LINE
  5
3E9
100
AcDbEntity
  8
0
100
AcDbLine
 62
7
  6
CONTINUOUS
 10
-59.6272975093
 20
26.3727024837
 11
-59.6
 21
26.3999999936
  0
LINE
  5
3EA
100
AcDbEntity
  8
0
100
AcDbLine
 62
7
  6
CONTINUOUS
 10
-59.5204046482
 20
26.4795953518
 11
-59.5197234842
 21
26.4802765158
  0
LINE
  5
3EB
100
AcDbEntity
  8
0
100
AcDbLine
 62
7
  6
CONTINUOUS
 10
-59.519717435
 20
27.5197267822
 11
-59.4999466442
 21
27.5621338622
  0
SPLINE
  5
3EC
100
AcDbEntity
  8
0
100
AcDbSpline
 62
7
  6
CONTINUOUS
 70
0
 71
3
 72
9
 73
5
 74
3
 42
0.0000001
 43
0.0000001
 44
0.0000000001
 12
0.0452995647
 22
0.1041126532
 32
0.0
 13
0.0452995647
 23
0.1041126532
 33
0.0
 40
0.0
 40
0.0
 40
0.0
 40
0.0
 40
0.4996939835
 40
1.0
 40
1.0
 40
1.0
 40
1.0
 10
-60.1898066956
 20
26.6675285871
 30
0.0
 10
-60.182261389
 20
26.6848700759
 30
0.0
 10
-60.1669167609
 20
26.7194691566
 30
0.0
 10
-60.1525518251
 20
26.754489043
 30
0.0
 10
-60.1449972769
 20
26.7718517719
 30
0.0
 11
-60.1898066956
 21
26.6675285871
 31
0.0
 11
-60.1671707757
 21
26.7195530535
 31
0.0
 11
-60.1449972769
 21
26.7718517719
 31
0.0
  0
SPLINE
  5
3ED
100
AcDbEntity
  8
0
100
AcDbSpline
 62
7
  6
CONTINUOUS
 70
0
 71
3
 72
9
 73
5
 74
3
 42
0.0000001
 43
0.0000001
 44
0.0000000001
 12
-0.5269772644
 22
0.0010793166
 32
0.0
 13
-0.5269783692
 23
-0.0000227564
 33
0.0
 40
0.0
 40
0.0
 40
0.0
 40
0.0
 40
0.4866884719
 40
1.0
 40
1.0
 40
1.0
 40
1.0
 10
-60.1450395831
 20
26.7716467289
 30
0.0
 10
-60.2305308363
 20
26.7718218259
 30
0.0
 10
-60.406190262
 20
26.7720059196
 30
0.0
 10
-60.5818497119
 20
26.7720585941
 30
0.0
 10
-60.6720177359
 20
26.7720547004
 30
0.0
 11
-60.1450395831
 21
26.7716467289
 31
0.0
 11
-60.401513677
 21
26.7719698898
 31
0.0
 11
-60.6720177359
 21
26.7720547004
 31
0.0
  0
LINE
  5
3EE
100
AcDbEntity
  8
TRASH
100
AcDbLine
 62
7
  6
CONTINUOUS
 10
-60.1221062937
 20
26.7611776175
 11
-60.1449972769
 21
26.7718517719
  0
LINE
  5
3EF
100
AcDbEntity
  8
TRASH
100
AcDbLine
 62
7
  6
CONTINUOUS
 10
-60.1449972701
 20
27.2281482181
 11
-60.122106287
 21
27.2388223726
  0
LINE
  5
3F0
100
AcDbEntity
  8
0
100
AcDbLine
 62
7
  6
CONTINUOUS
 10
-58.4378660057
 20
26.5000535044
 11
-58.4802732178
 21
26.480282565
  0
LINE
  5
3F1
100
AcDbEntity
  8
0
100
AcDbLine
 62
7
  6
CONTINUOUS
 10
-60.6719912503
 20
27.2281394921
 11
-60.1450079232
 21
27.22819274
  0
LINE
  5
3F2
100
AcDbEntity
  8
0
100
AcDbLine
 62
7
  6
CONTINUOUS
 10
-60.1449972701
 20
27.2281482181
 11
-60.1900477491
 21
27.3323044581
  0
LINE
  5
3F3
100
AcDbEntity
  8
0
100
AcDbLine
 62
7
  6
CONTINUOUS
 10
-57.8778971865
 20
26.7611739822
 11
-58.4
 21
26.517710713
  0
LINE
  5
3F4
100
AcDbEntity
  8
0
100
AcDbLine
 62
7
  6
CONTINUOUS
 10
-59.6
 20
27.5999998582
 11
-59.6272974066
 21
27.6272972341
  0
LINE
  5
3F5
100
AcDbEntity
  8
0
100
AcDbLine
 62
7
  6
CONTINUOUS
 10
-58.4
 20
27.4822898071
 11
-57.8778933466
 21
27.238824741
  0
LINE
  5
3F6
100
AcDbEntity
  8
0
100
AcDbLine
 62
7
  6
CONTINUOUS
 10
-58.4802765161
 20
27.5197234839
 11
-58.4378664697
 21
27.4999470172
  0
LINE
  5
3F7
100
AcDbEntity
  8
0
100
AcDbLine
 62
7
  6
CONTINUOUS
 10
-60.1898066956
 20
26.6675285871
 11
-60.171604981
 21
26.6549273753
  0
SPLINE
  5
3F8
100
AcDbEntity
  8
0
100
AcDbSpline
 62
7
  6
CONTINUOUS
 70
0
 71
3
 72
14
 73
10
 74
8
 42
0.0000001
 43
0.0000001
 44
0.0000000001
 12
-0.5489866675
 22
0.2730585867
 32
0.0
 13
-0.540741044
 23
0.289044073
 33
0.0
 40
0.0
 40
0.0
 40
0.0
 40
0.0
 40
0.1676248277
 40
0.3171576827
 40
0.4562893429
 40
0.5918233207
 40
0.7276155638
 40
0.864047256
 40
1.0
 40
1.0
 40
1.0
 40
1.0
 10
-59.6272975093
 20
26.3727024837
 30
0.0
 10
-59.6579721078
 20
26.3879596165
 30
0.0
 10
-59.7159046577
 20
26.4170404994
 30
0.0
 10
-59.7989942188
 20
26.4593856473
 30
0.0
 10
-59.8760507922
 20
26.4991217211
 30
0.0
 10
-59.9504559263
 20
26.5378704201
 30
0.0
 10
-60.0242360761
 20
26.5766233302
 30
0.0
 10
-60.0979697374
 20
26.6156478457
 30
0.0
 10
-60.1470999047
 20
26.641828597
 30
0.0
 10
-60.171604981
 20
26.6549273753
 30
0.0
 11
-59.6272975093
 21
26.3727024837
 31
0.0
 11
-59.7191594664
 21
26.4187978272
 31
0.0
 11
-59.8008536937
 21
26.4604183046
 31
0.0
 11
-59.8766776316
 21
26.4995101966
 31
0.0
 11
-59.9503866032
 21
26.5378890585
 31
0.0
 11
-60.0241000844
 21
26.5766010257
 31
0.0
 11
-60.0980377467
 21
26.6157284872
 31
0.0
 11
-60.171604981
 21
26.6549273753
 31
0.0
  0
LINE
  5
3F9
100
AcDbEntity
  8
0
100
AcDbLine
 62
7
  6
CONTINUOUS
 10
-59.5197234842
 20
27.5197234842
 11
-59.5204046482
 21
27.5204046481
  0
SPLINE
  5
3FA
100
AcDbEntity
  8
0
100
AcDbSpline
 62
7
  6
CONTINUOUS
 70
0
 71
3
 72
14
 73
10
 74
8
 42
0.0000001
 43
0.0000001
 44
0.0000000001
 12
0.5407409237
 22
0.2890440051
 32
0.0
 13
0.5489846067
 23
0.2730624198
 33
0.0
 40
0.0
 40
0.0
 40
0.0
 40
0.0
 40
0.1360891828
 40
0.2724205737
 40
0.4077679873
 40
0.5429185838
 40
0.6821509024
 40
0.8319710672
 40
1.0
 40
1.0
 40
1.0
 40
1.0
 10
-60.1716048889
 20
27.3450726739
 30
0.0
 10
-60.1470752255
 20
27.3581845947
 30
0.0
 10
-60.0979384405
 20
27.384368606
 30
0.0
 10
-60.0242786827
 20
27.4233541525
 30
0.0
 10
-59.9506666198
 20
27.4620189291
 30
0.0
 10
-59.8763940757
 20
27.5007002545
 30
0.0
 10
-59.7993373918
 20
27.540438111
 30
0.0
 10
-59.7161051984
 20
27.5828598752
 30
0.0
 10
-59.6580458391
 20
27.6120031051
 30
0.0
 10
-59.6272974066
 20
27.6272972341
 30
0.0
 11
-60.1716048889
 21
27.3450726739
 31
0.0
 11
-60.0979637521
 21
27.3843107253
 31
0.0
 11
-60.0240804449
 21
27.423409377
 31
0.0
 11
-59.9506085972
 21
27.4619947999
 31
0.0
 11
-59.8771087678
 21
27.5002662962
 31
0.0
 11
-59.8012308721
 21
27.539388172
 31
0.0
 11
-59.7193807836
 21
27.5810907405
 31
0.0
 11
-59.6272974066
 21
27.6272972341
 31
0.0
  0
LINE
  5
3FB
100
AcDbEntity
  8
0
100
AcDbLine
 62
7
  6
CONTINUOUS
 10
-60.1900477491
 20
27.3323044581
 11
-60.1716048889
 21
27.3450726739
  0
SPLINE
  5
3FC
100
AcDbEntity
  8
0
100
AcDbSpline
 62
7
  6
CONTINUOUS
 70
0
 71
3
 72
14
 73
10
 74
8
 42
0.0000001
 43
0.0000001
 44
0.0000000001
 12
-0.5407409237
 22
-0.2890440051
 32
0.0
 13
-0.5489846067
 23
-0.2730624198
 33
0.0
 40
0.0
 40
0.0
 40
0.0
 40
0.0
 40
0.1360891828
 40
0.2724205737
 40
0.4077679873
 40
0.5429185838
 40
0.6821509024
 40
0.8319710672
 40
1.0
 40
1.0
 40
1.0
 40
1.0
 10
-57.8283951111
 20
26.6549273261
 30
0.0
 10
-57.8529247745
 20
26.6418154053
 30
0.0
 10
-57.9020615595
 20
26.615631394
 30
0.0
 10
-57.9757213173
 20
26.5766458475
 30
0.0
 10
-58.0493333802
 20
26.5379810709
 30
0.0
 10
-58.1236059243
 20
26.4992997455
 30
0.0
 10
-58.2006626082
 20
26.459561889
 30
0.0
 10
-58.2838948016
 20
26.4171401248
 30
0.0
 10
-58.3419541609
 20
26.3879968949
 30
0.0
 10
-58.3727025934
 20
26.3727027659
 30
0.0
 11
-57.8283951111
 21
26.6549273261
 31
0.0
 11
-57.9020362479
 21
26.6156892747
 31
0.0
 11
-57.9759195551
 21
26.576590623
 31
0.0
 11
-58.0493914028
 21
26.5380052001
 31
0.0
 11
-58.1228912322
 21
26.4997337038
 31
0.0
 11
-58.1987691279
 21
26.460611828
 31
0.0
 11
-58.2806192164
 21
26.4189092595
 31
0.0
 11
-58.3727025934
 21
26.3727027659
 31
0.0
  0
LINE
  5
3FD
100
AcDbEntity
  8
0
100
AcDbLine
 62
7
  6
CONTINUOUS
 10
-57.8283951111
 20
26.6549273261
 11
-57.809952252
 21
26.6676955411
  0
LINE
  5
3FE
100
AcDbEntity
  8
0
100
AcDbLine
 62
7
  6
CONTINUOUS
 10
-57.828395019
 20
27.3450726247
 11
-57.8101933044
 21
27.3324714129
  0
SPLINE
  5
3FF
100
AcDbEntity
  8
0
100
AcDbSpline
 62
7
  6
CONTINUOUS
 70
0
 71
3
 72
14
 73
10
 74
8
 42
0.0000001
 43
0.0000001
 44
0.0000000001
 12
0.5489866675
 22
-0.2730585867
 32
0.0
 13
0.540741044
 23
-0.289044073
 33
0.0
 40
0.0
 40
0.0
 40
0.0
 40
0.0
 40
0.1676248277
 40
0.3171576827
 40
0.4562893429
 40
0.5918233207
 40
0.7276155638
 40
0.864047256
 40
1.0
 40
1.0
 40
1.0
 40
1.0
 10
-58.3727024907
 20
27.6272975163
 30
0.0
 10
-58.3420278922
 20
27.6120403835
 30
0.0
 10
-58.2840953423
 20
27.5829595006
 30
0.0
 10
-58.2010057812
 20
27.5406143527
 30
0.0
 10
-58.1239492078
 20
27.5008782789
 30
0.0
 10
-58.0495440737
 20
27.4621295799
 30
0.0
 10
-57.9757639239
 20
27.4233766698
 30
0.0
 10
-57.9020302626
 20
27.3843521543
 30
0.0
 10
-57.8529000953
 20
27.358171403
 30
0.0
 10
-57.828395019
 20
27.3450726247
 30
0.0
 11
-58.3727024907
 21
27.6272975163
 31
0.0
 11
-58.2808405336
 21
27.5812021728
 31
0.0
 11
-58.1991463063
 21
27.5395816954
 31
0.0
 11
-58.1233223684
 21
27.5004898034
 31
0.0
 11
-58.0496133968
 21
27.4621109415
 31
0.0
 11
-57.9758999156
 21
27.4233989743
 31
0.0
 11
-57.9019622533
 21
27.3842715128
 31
0.0
 11
-57.828395019
 21
27.3450726247
 31
0.0
  0
LINE
  5
400
100
AcDbEntity
  8
0
100
AcDbLine
 62
7
  6
CONTINUOUS
 10
-59.4999470109
 20
26.437866464
 11
-59.5197234839
 21
26.4802765161
  0
LINE
  5
401
100
AcDbEntity
  8
0
100
AcDbLine
 62
7
  6
CONTINUOUS
 10
-59.5197234839
 20
26.4802765161
 11
-59.5621335303
 21
26.5000529828
  0
LINE
  5
402
100
AcDbEntity
  8
0
100
AcDbLine
 62
7
  6
CONTINUOUS
 10
-59.6
 20
26.5177101929
 11
-60.1221066534
 21
26.761175259
  0
LINE
  5
403
100
AcDbEntity
  8
0
100
AcDbLine
 62
7
  6
CONTINUOUS
 10
-60.1221028135
 20
27.2388260178
 11
-59.6
 21
27.482289287
  0
LINE
  5
404
100
AcDbEntity
  8
0
100
AcDbLine
 62
7
  6
CONTINUOUS
 10
-59.5621339943
 20
27.4999464956
 11
-59.5197267822
 21
27.519717435
  0
LINE
  5
405
100
AcDbEntity
  8
0
100
AcDbLine
 62
7
  6
CONTINUOUS
 10
-58.480282565
 20
26.4802732178
 11
-58.5000533558
 21
26.4378661378
  0
LINE
  5
406
100
AcDbEntity
  8
0
100
AcDbLine
 62
7
  6
CONTINUOUS
 10
-58.5000529891
 20
27.562133536
 11
-58.4802765161
 21
27.5197234839
  0
LINE
  5
407
100
AcDbEntity
  8
0
100
AcDbLine
 62
7
  6
CONTINUOUS
 10
-58.4
 20
27.6000000064
 11
-58.3727024907
 21
27.6272975163
  0
LINE
  5
408
100
AcDbEntity
  8
0
100
AcDbLine
 62
7
  6
CONTINUOUS
 10
-58.4802765158
 20
27.5197234842
 11
-58.4795953518
 21
27.5204046482
  0
SPLINE
  5
409
100
AcDbEntity
  8
0
100
AcDbSpline
 62
7
  6
CONTINUOUS
 70
0
 71
3
 72
9
 73
5
 74
3
 42
0.0000001
 43
0.0000001
 44
0.0000000001
 12
-0.0452995647
 22
-0.1041126532
 32
0.0
 13
-0.0452995647
 23
-0.1041126532
 33
0.0
 40
0.0
 40
0.0
 40
0.0
 40
0.0
 40
0.4996939835
 40
1.0
 40
1.0
 40
1.0
 40
1.0
 10
-57.8101933044
 20
27.3324714129
 30
0.0
 10
-57.817738611
 20
27.3151299241
 30
0.0
 10
-57.8330832391
 20
27.2805308434
 30
0.0
 10
-57.8474481749
 20
27.245510957
 30
0.0
 10
-57.8550027231
 20
27.2281482281
 30
0.0
 11
-57.8101933044
 21
27.3324714129
 31
0.0
 11
-57.8328292243
 21
27.2804469465
 31
0.0
 11
-57.8550027231
 21
27.2281482281
 31
0.0
  0
SPLINE
  5
40A
100
AcDbEntity
  8
0
100
AcDbSpline
 62
7
  6
CONTINUOUS
 70
0
 71
3
 72
9
 73
5
 74
3
 42
0.0000001
 43
0.0000001
 44
0.0000000001
 12
0.5269772644
 22
-0.0010793166
 32
0.0
 13
0.5269783692
 23
0.0000227564
 33
0.0
 40
0.0
 40
0.0
 40
0.0
 40
0.0
 40
0.4866884719
 40
1.0
 40
1.0
 40
1.0
 40
1.0
 10
-57.8549604169
 20
27.2283532711
 30
0.0
 10
-57.7694691637
 20
27.2281781741
 30
0.0
 10
-57.593809738
 20
27.2279940804
 30
0.0
 10
-57.4181502881
 20
27.2279414059
 30
0.0
 10
-57.3279822641
 20
27.2279452996
 30
0.0
 11
-57.8549604169
 21
27.2283532711
 31
0.0
 11
-57.598486323
 21
27.2280301102
 31
0.0
 11
-57.3279822641
 21
27.2279452996
 31
0.0
  0
LINE
  5
40B
100
AcDbEntity
  8
TRASH
100
AcDbLine
 62
7
  6
CONTINUOUS
 10
-57.8778937063
 20
27.2388223825
 11
-57.8550027231
 21
27.2281482281
  0
LINE
  5
40C
100
AcDbEntity
  8
0
100
AcDbLine
 62
7
  6
CONTINUOUS
 10
-57.8549920759
 20
26.7718072551
 11
-57.3280087498
 21
26.7718605073
  0
LINE
  5
40D
100
AcDbEntity
  8
0
100
AcDbLine
 62
7
  6
CONTINUOUS
 10
-57.8550027299
 20
26.7718517819
 11
-57.809952252
 21
26.6676955411
  0
LINE
  5
40E
100
AcDbEntity
  8
TRASH
100
AcDbLine
 62
7
  6
CONTINUOUS
 10
-57.877893713
 20
26.7611776274
 11
-57.8550027299
 21
26.7718517819
  0
LINE
  5
40F
100
AcDbEntity
  8
0
100
AcDbLine
 62
7
  6
CONTINUOUS
 10
-58.4
 20
-27.5999998582
 11
-58.3727025934
 21
-27.6272972341
  0
LINE
  5
410
100
AcDbEntity
  8
0
100
AcDbLine
 62
7
  6
CONTINUOUS
 10
-58.4802765158
 20
-27.5197234842
 11
-58.4795953518
 21
-27.5204046481
  0
LINE
  5
411
100
AcDbEntity
  8
0
100
AcDbLine
 62
7
  6
CONTINUOUS
 10
-59.6272975093
 20
-27.6272975163
 11
-59.6
 21
-27.6000000064
  0
LINE
  5
412
100
AcDbEntity
  8
0
100
AcDbLine
 62
7
  6
CONTINUOUS
 10
-59.5204046482
 20
-27.5204046482
 11
-59.5197234842
 21
-27.5197234842
  0
LINE
  5
413
100
AcDbEntity
  8
0
100
AcDbLine
 62
7
  6
CONTINUOUS
 10
-59.519717435
 20
-26.4802732178
 11
-59.4999466442
 21
-26.4378661378
  0
SPLINE
  5
414
100
AcDbEntity
  8
0
100
AcDbSpline
 62
7
  6
CONTINUOUS
 70
0
 71
3
 72
9
 73
5
 74
3
 42
0.0000001
 43
0.0000001
 44
0.0000000001
 12
0.0452995647
 22
0.1041126532
 32
0.0
 13
0.0452995647
 23
0.1041126532
 33
0.0
 40
0.0
 40
0.0
 40
0.0
 40
0.0
 40
0.4996939835
 40
1.0
 40
1.0
 40
1.0
 40
1.0
 10
-60.1898066956
 20
-27.3324714129
 30
0.0
 10
-60.182261389
 20
-27.3151299241
 30
0.0
 10
-60.1669167609
 20
-27.2805308434
 30
0.0
 10
-60.1525518251
 20
-27.245510957
 30
0.0
 10
-60.1449972769
 20
-27.2281482281
 30
0.0
 11
-60.1898066956
 21
-27.3324714129
 31
0.0
 11
-60.1671707757
 21
-27.2804469465
 31
0.0
 11
-60.1449972769
 21
-27.2281482281
 31
0.0
  0
SPLINE
  5
415
100
AcDbEntity
  8
0
100
AcDbSpline
 62
7
  6
CONTINUOUS
 70
0
 71
3
 72
9
 73
5
 74
3
 42
0.0000001
 43
0.0000001
 44
0.0000000001
 12
-0.5269772644
 22
0.0010793166
 32
0.0
 13
-0.5269783692
 23
-0.0000227564
 33
0.0
 40
0.0
 40
0.0
 40
0.0
 40
0.0
 40
0.4866884719
 40
1.0
 40
1.0
 40
1.0
 40
1.0
 10
-60.1450395831
 20
-27.2283532711
 30
0.0
 10
-60.2305308363
 20
-27.2281781741
 30
0.0
 10
-60.406190262
 20
-27.2279940804
 30
0.0
 10
-60.5818497119
 20
-27.2279414059
 30
0.0
 10
-60.6720177359
 20
-27.2279452996
 30
0.0
 11
-60.1450395831
 21
-27.2283532711
 31
0.0
 11
-60.401513677
 21
-27.2280301102
 31
0.0
 11
-60.6720177359
 21
-27.2279452996
 31
0.0
  0
LINE
  5
416
100
AcDbEntity
  8
TRASH
100
AcDbLine
 62
7
  6
CONTINUOUS
 10
-60.1221062937
 20
-27.2388223825
 11
-60.1449972769
 21
-27.2281482281
  0
LINE
  5
417
100
AcDbEntity
  8
TRASH
100
AcDbLine
 62
7
  6
CONTINUOUS
 10
-60.1449972701
 20
-26.7718517819
 11
-60.122106287
 21
-26.7611776274
  0
LINE
  5
418
100
AcDbEntity
  8
0
100
AcDbLine
 62
7
  6
CONTINUOUS
 10
-58.4378660057
 20
-27.4999464956
 11
-58.4802732178
 21
-27.519717435
  0
LINE
  5
419
100
AcDbEntity
  8
0
100
AcDbLine
 62
7
  6
CONTINUOUS
 10
-60.6719912503
 20
-26.7718605079
 11
-60.1450079232
 21
-26.77180726
  0
LINE
  5
41A
100
AcDbEntity
  8
0
100
AcDbLine
 62
7
  6
CONTINUOUS
 10
-60.1449972701
 20
-26.7718517819
 11
-60.1900477491
 21
-26.6676955419
  0
LINE
  5
41B
100
AcDbEntity
  8
0
100
AcDbLine
 62
7
  6
CONTINUOUS
 10
-57.8778971865
 20
-27.2388260178
 11
-58.4
 21
-27.482289287
  0
LINE
  5
41C
100
AcDbEntity
  8
0
100
AcDbLine
 62
7
  6
CONTINUOUS
 10
-59.6
 20
-26.4000001418
 11
-59.6272974066
 21
-26.3727027659
  0
LINE
  5
41D
100
AcDbEntity
  8
0
100
AcDbLine
 62
7
  6
CONTINUOUS
 10
-58.4
 20
-26.5177101929
 11
-57.8778933466
 21
-26.761175259
  0
LINE
  5
41E
100
AcDbEntity
  8
0
100
AcDbLine
 62
7
  6
CONTINUOUS
 10
-58.4802765161
 20
-26.4802765161
 11
-58.4378664697
 21
-26.5000529828
  0
LINE
  5
41F
100
AcDbEntity
  8
0
100
AcDbLine
 62
7
  6
CONTINUOUS
 10
-60.1898066956
 20
-27.3324714129
 11
-60.171604981
 21
-27.3450726247
  0
SPLINE
  5
420
100
AcDbEntity
  8
0
100
AcDbSpline
 62
7
  6
CONTINUOUS
 70
0
 71
3
 72
14
 73
10
 74
8
 42
0.0000001
 43
0.0000001
 44
0.0000000001
 12
-0.5489866675
 22
0.2730585867
 32
0.0
 13
-0.540741044
 23
0.289044073
 33
0.0
 40
0.0
 40
0.0
 40
0.0
 40
0.0
 40
0.1676248277
 40
0.3171576827
 40
0.4562893429
 40
0.5918233207
 40
0.7276155638
 40
0.864047256
 40
1.0
 40
1.0
 40
1.0
 40
1.0
 10
-59.6272975093
 20
-27.6272975163
 30
0.0
 10
-59.6579721078
 20
-27.6120403835
 30
0.0
 10
-59.7159046577
 20
-27.5829595006
 30
0.0
 10
-59.7989942188
 20
-27.5406143527
 30
0.0
 10
-59.8760507922
 20
-27.5008782789
 30
0.0
 10
-59.9504559263
 20
-27.4621295799
 30
0.0
 10
-60.0242360761
 20
-27.4233766698
 30
0.0
 10
-60.0979697374
 20
-27.3843521543
 30
0.0
 10
-60.1470999047
 20
-27.358171403
 30
0.0
 10
-60.171604981
 20
-27.3450726247
 30
0.0
 11
-59.6272975093
 21
-27.6272975163
 31
0.0
 11
-59.7191594664
 21
-27.5812021728
 31
0.0
 11
-59.8008536937
 21
-27.5395816954
 31
0.0
 11
-59.8766776316
 21
-27.5004898034
 31
0.0
 11
-59.9503866032
 21
-27.4621109415
 31
0.0
 11
-60.0241000844
 21
-27.4233989743
 31
0.0
 11
-60.0980377467
 21
-27.3842715128
 31
0.0
 11
-60.171604981
 21
-27.3450726247
 31
0.0
  0
LINE
  5
421
100
AcDbEntity
  8
0
100
AcDbLine
 62
7
  6
CONTINUOUS
 10
-59.5197234842
 20
-26.4802765158
 11
-59.5204046482
 21
-26.4795953519
  0
SPLINE
  5
422
100
AcDbEntity
  8
0
100
AcDbSpline
 62
7
  6
CONTINUOUS
 70
0
 71
3
 72
14
 73
10
 74
8
 42
0.0000001
 43
0.0000001
 44
0.0000000001
 12
0.5407409237
 22
0.2890440051
 32
0.0
 13
0.5489846067
 23
0.2730624198
 33
0.0
 40
0.0
 40
0.0
 40
0.0
 40
0.0
 40
0.1360891828
 40
0.2724205737
 40
0.4077679873
 40
0.5429185838
 40
0.6821509024
 40
0.8319710672
 40
1.0
 40
1.0
 40
1.0
 40
1.0
 10
-60.1716048889
 20
-26.6549273261
 30
0.0
 10
-60.1470752255
 20
-26.6418154053
 30
0.0
 10
-60.0979384405
 20
-26.615631394
 30
0.0
 10
-60.0242786827
 20
-26.5766458475
 30
0.0
 10
-59.9506666198
 20
-26.5379810709
 30
0.0
 10
-59.8763940757
 20
-26.4992997455
 30
0.0
 10
-59.7993373918
 20
-26.459561889
 30
0.0
 10
-59.7161051984
 20
-26.4171401248
 30
0.0
 10
-59.6580458391
 20
-26.3879968949
 30
0.0
 10
-59.6272974066
 20
-26.3727027659
 30
0.0
 11
-60.1716048889
 21
-26.6549273261
 31
0.0
 11
-60.0979637521
 21
-26.6156892747
 31
0.0
 11
-60.0240804449
 21
-26.576590623
 31
0.0
 11
-59.9506085972
 21
-26.5380052001
 31
0.0
 11
-59.8771087678
 21
-26.4997337038
 31
0.0
 11
-59.8012308721
 21
-26.460611828
 31
0.0
 11
-59.7193807836
 21
-26.4189092595
 31
0.0
 11
-59.6272974066
 21
-26.3727027659
 31
0.0
  0
LINE
  5
423
100
AcDbEntity
  8
0
100
AcDbLine
 62
7
  6
CONTINUOUS
 10
-60.1900477491
 20
-26.6676955419
 11
-60.1716048889
 21
-26.6549273261
  0
SPLINE
  5
424
100
AcDbEntity
  8
0
100
AcDbSpline
 62
7
  6
CONTINUOUS
 70
0
 71
3
 72
14
 73
10
 74
8
 42
0.0000001
 43
0.0000001
 44
0.0000000001
 12
-0.5407409237
 22
-0.2890440051
 32
0.0
 13
-0.5489846067
 23
-0.2730624198
 33
0.0
 40
0.0
 40
0.0
 40
0.0
 40
0.0
 40
0.1360891828
 40
0.2724205737
 40
0.4077679873
 40
0.5429185838
 40
0.6821509024
 40
0.8319710672
 40
1.0
 40
1.0
 40
1.0
 40
1.0
 10
-57.8283951111
 20
-27.3450726739
 30
0.0
 10
-57.8529247745
 20
-27.3581845947
 30
0.0
 10
-57.9020615595
 20
-27.384368606
 30
0.0
 10
-57.9757213173
 20
-27.4233541525
 30
0.0
 10
-58.0493333802
 20
-27.4620189291
 30
0.0
 10
-58.1236059243
 20
-27.5007002545
 30
0.0
 10
-58.2006626082
 20
-27.540438111
 30
0.0
 10
-58.2838948016
 20
-27.5828598752
 30
0.0
 10
-58.3419541609
 20
-27.6120031051
 30
0.0
 10
-58.3727025934
 20
-27.6272972341
 30
0.0
 11
-57.8283951111
 21
-27.3450726739
 31
0.0
 11
-57.9020362479
 21
-27.3843107253
 31
0.0
 11
-57.9759195551
 21
-27.423409377
 31
0.0
 11
-58.0493914028
 21
-27.4619947999
 31
0.0
 11
-58.1228912322
 21
-27.5002662962
 31
0.0
 11
-58.1987691279
 21
-27.539388172
 31
0.0
 11
-58.2806192164
 21
-27.5810907405
 31
0.0
 11
-58.3727025934
 21
-27.6272972341
 31
0.0
  0
LINE
  5
425
100
AcDbEntity
  8
0
100
AcDbLine
 62
7
  6
CONTINUOUS
 10
-57.8283951111
 20
-27.3450726739
 11
-57.809952252
 21
-27.3323044589
  0
LINE
  5
426
100
AcDbEntity
  8
0
100
AcDbLine
 62
7
  6
CONTINUOUS
 10
-57.828395019
 20
-26.6549273753
 11
-57.8101933044
 21
-26.6675285871
  0
SPLINE
  5
427
100
AcDbEntity
  8
0
100
AcDbSpline
 62
7
  6
CONTINUOUS
 70
0
 71
3
 72
14
 73
10
 74
8
 42
0.0000001
 43
0.0000001
 44
0.0000000001
 12
0.5489866675
 22
-0.2730585867
 32
0.0
 13
0.540741044
 23
-0.289044073
 33
0.0
 40
0.0
 40
0.0
 40
0.0
 40
0.0
 40
0.1676248277
 40
0.3171576827
 40
0.4562893429
 40
0.5918233207
 40
0.7276155638
 40
0.864047256
 40
1.0
 40
1.0
 40
1.0
 40
1.0
 10
-58.3727024907
 20
-26.3727024837
 30
0.0
 10
-58.3420278922
 20
-26.3879596165
 30
0.0
 10
-58.2840953423
 20
-26.4170404994
 30
0.0
 10
-58.2010057812
 20
-26.4593856473
 30
0.0
 10
-58.1239492078
 20
-26.4991217211
 30
0.0
 10
-58.0495440737
 20
-26.5378704201
 30
0.0
 10
-57.9757639239
 20
-26.5766233302
 30
0.0
 10
-57.9020302626
 20
-26.6156478457
 30
0.0
 10
-57.8529000953
 20
-26.641828597
 30
0.0
 10
-57.828395019
 20
-26.6549273753
 30
0.0
 11
-58.3727024907
 21
-26.3727024837
 31
0.0
 11
-58.2808405336
 21
-26.4187978272
 31
0.0
 11
-58.1991463063
 21
-26.4604183046
 31
0.0
 11
-58.1233223684
 21
-26.4995101966
 31
0.0
 11
-58.0496133968
 21
-26.5378890585
 31
0.0
 11
-57.9758999156
 21
-26.5766010257
 31
0.0
 11
-57.9019622533
 21
-26.6157284872
 31
0.0
 11
-57.828395019
 21
-26.6549273753
 31
0.0
  0
LINE
  5
428
100
AcDbEntity
  8
0
100
AcDbLine
 62
7
  6
CONTINUOUS
 10
-59.4999470109
 20
-27.562133536
 11
-59.5197234839
 21
-27.5197234839
  0
LINE
  5
429
100
AcDbEntity
  8
0
100
AcDbLine
 62
7
  6
CONTINUOUS
 10
-59.5197234839
 20
-27.5197234839
 11
-59.5621335303
 21
-27.4999470172
  0
LINE
  5
42A
100
AcDbEntity
  8
0
100
AcDbLine
 62
7
  6
CONTINUOUS
 10
-59.6
 20
-27.4822898071
 11
-60.1221066534
 21
-27.238824741
  0
LINE
  5
42B
100
AcDbEntity
  8
0
100
AcDbLine
 62
7
  6
CONTINUOUS
 10
-60.1221028135
 20
-26.7611739822
 11
-59.6
 21
-26.517710713
  0
LINE
  5
42C
100
AcDbEntity
  8
0
100
AcDbLine
 62
7
  6
CONTINUOUS
 10
-59.5621339943
 20
-26.5000535044
 11
-59.5197267822
 21
-26.480282565
  0
LINE
  5
42D
100
AcDbEntity
  8
0
100
AcDbLine
 62
7
  6
CONTINUOUS
 10
-58.480282565
 20
-27.5197267822
 11
-58.5000533558
 21
-27.5621338622
  0
LINE
  5
42E
100
AcDbEntity
  8
0
100
AcDbLine
 62
7
  6
CONTINUOUS
 10
-58.5000529891
 20
-26.437866464
 11
-58.4802765161
 21
-26.4802765161
  0
LINE
  5
42F
100
AcDbEntity
  8
0
100
AcDbLine
 62
7
  6
CONTINUOUS
 10
-58.4
 20
-26.3999999936
 11
-58.3727024907
 21
-26.3727024837
  0
LINE
  5
430
100
AcDbEntity
  8
0
100
AcDbLine
 62
7
  6
CONTINUOUS
 10
-58.4802765158
 20
-26.4802765158
 11
-58.4795953518
 21
-26.4795953518
  0
SPLINE
  5
431
100
AcDbEntity
  8
0
100
AcDbSpline
 62
7
  6
CONTINUOUS
 70
0
 71
3
 72
9
 73
5
 74
3
 42
0.0000001
 43
0.0000001
 44
0.0000000001
 12
-0.0452995647
 22
-0.1041126532
 32
0.0
 13
-0.0452995647
 23
-0.1041126532
 33
0.0
 40
0.0
 40
0.0
 40
0.0
 40
0.0
 40
0.4996939835
 40
1.0
 40
1.0
 40
1.0
 40
1.0
 10
-57.8101933044
 20
-26.6675285871
 30
0.0
 10
-57.817738611
 20
-26.6848700759
 30
0.0
 10
-57.8330832391
 20
-26.7194691566
 30
0.0
 10
-57.8474481749
 20
-26.754489043
 30
0.0
 10
-57.8550027231
 20
-26.7718517719
 30
0.0
 11
-57.8101933044
 21
-26.6675285871
 31
0.0
 11
-57.8328292243
 21
-26.7195530535
 31
0.0
 11
-57.8550027231
 21
-26.7718517719
 31
0.0
  0
SPLINE
  5
432
100
AcDbEntity
  8
0
100
AcDbSpline
 62
7
  6
CONTINUOUS
 70
0
 71
3
 72
9
 73
5
 74
3
 42
0.0000001
 43
0.0000001
 44
0.0000000001
 12
0.5269772644
 22
-0.0010793166
 32
0.0
 13
0.5269783692
 23
0.0000227564
 33
0.0
 40
0.0
 40
0.0
 40
0.0
 40
0.0
 40
0.4866884719
 40
1.0
 40
1.0
 40
1.0
 40
1.0
 10
-57.8549604169
 20
-26.7716467289
 30
0.0
 10
-57.7694691637
 20
-26.7718218259
 30
0.0
 10
-57.593809738
 20
-26.7720059196
 30
0.0
 10
-57.4181502881
 20
-26.7720585941
 30
0.0
 10
-57.3279822641
 20
-26.7720547004
 30
0.0
 11
-57.8549604169
 21
-26.7716467289
 31
0.0
 11
-57.598486323
 21
-26.7719698898
 31
0.0
 11
-57.3279822641
 21
-26.7720547004
 31
0.0
  0
LINE
  5
433
100
AcDbEntity
  8
TRASH
100
AcDbLine
 62
7
  6
CONTINUOUS
 10
-57.8778937063
 20
-26.7611776175
 11
-57.8550027231
 21
-26.7718517719
  0
LINE
  5
434
100
AcDbEntity
  8
0
100
AcDbLine
 62
7
  6
CONTINUOUS
 10
-57.8549920759
 20
-27.2281927449
 11
-57.3280087498
 21
-27.2281394927
  0
LINE
  5
435
100
AcDbEntity
  8
0
100
AcDbLine
 62
7
  6
CONTINUOUS
 10
-57.8550027299
 20
-27.2281482181
 11
-57.809952252
 21
-27.3323044589
  0
LINE
  5
436
100
AcDbEntity
  8
TRASH
100
AcDbLine
 62
7
  6
CONTINUOUS
 10
-57.877893713
 20
-27.2388223726
 11
-57.8550027299
 21
-27.2281482181
  0
LINE
  5
437
100
AcDbEntity
  8
0
100
AcDbLine
 62
7
  6
CONTINUOUS
 10
59.6
 20
-27.5999998582
 11
59.6272974066
 21
-27.6272972341
  0
LINE
  5
438
100
AcDbEntity
  8
0
100
AcDbLine
 62
7
  6
CONTINUOUS
 10
59.5197234842
 20
-27.5197234842
 11
59.5204046482
 21
-27.5204046481
  0
LINE
  5
439
100
AcDbEntity
  8
0
100
AcDbLine
 62
7
  6
CONTINUOUS
 10
58.3727024907
 20
-27.6272975163
 11
58.4
 21
-27.6000000064
  0
LINE
  5
43A
100
AcDbEntity
  8
0
100
AcDbLine
 62
7
  6
CONTINUOUS
 10
58.4795953518
 20
-27.5204046482
 11
58.4802765158
 21
-27.5197234842
  0
LINE
  5
43B
100
AcDbEntity
  8
0
100
AcDbLine
 62
7
  6
CONTINUOUS
 10
58.480282565
 20
-26.4802732178
 11
58.5000533558
 21
-26.4378661378
  0
SPLINE
  5
43C
100
AcDbEntity
  8
0
100
AcDbSpline
 62
7
  6
CONTINUOUS
 70
0
 71
3
 72
9
 73
5
 74
3
 42
0.0000001
 43
0.0000001
 44
0.0000000001
 12
0.0452995647
 22
0.1041126532
 32
0.0
 13
0.0452995647
 23
0.1041126532
 33
0.0
 40
0.0
 40
0.0
 40
0.0
 40
0.0
 40
0.4996939835
 40
1.0
 40
1.0
 40
1.0
 40
1.0
 10
57.8101933044
 20
-27.3324714129
 30
0.0
 10
57.817738611
 20
-27.3151299241
 30
0.0
 10
57.8330832391
 20
-27.2805308434
 30
0.0
 10
57.8474481749
 20
-27.245510957
 30
0.0
 10
57.8550027231
 20
-27.2281482281
 30
0.0
 11
57.8101933044
 21
-27.3324714129
 31
0.0
 11
57.8328292243
 21
-27.2804469465
 31
0.0
 11
57.8550027231
 21
-27.2281482281
 31
0.0
  0
SPLINE
  5
43D
100
AcDbEntity
  8
0
100
AcDbSpline
 62
7
  6
CONTINUOUS
 70
0
 71
3
 72
9
 73
5
 74
3
 42
0.0000001
 43
0.0000001
 44
0.0000000001
 12
-0.5269772644
 22
0.0010793166
 32
0.0
 13
-0.5269783692
 23
-0.0000227564
 33
0.0
 40
0.0
 40
0.0
 40
0.0
 40
0.0
 40
0.4866884719
 40
1.0
 40
1.0
 40
1.0
 40
1.0
 10
57.8549604169
 20
-27.2283532711
 30
0.0
 10
57.7694691637
 20
-27.2281781741
 30
0.0
 10
57.593809738
 20
-27.2279940804
 30
0.0
 10
57.4181502881
 20
-27.2279414059
 30
0.0
 10
57.3279822641
 20
-27.2279452996
 30
0.0
 11
57.8549604169
 21
-27.2283532711
 31
0.0
 11
57.598486323
 21
-27.2280301102
 31
0.0
 11
57.3279822641
 21
-27.2279452996
 31
0.0
  0
LINE
  5
43E
100
AcDbEntity
  8
TRASH
100
AcDbLine
 62
7
  6
CONTINUOUS
 10
57.8778937063
 20
-27.2388223825
 11
57.8550027231
 21
-27.2281482281
  0
LINE
  5
43F
100
AcDbEntity
  8
TRASH
100
AcDbLine
 62
7
  6
CONTINUOUS
 10
57.8550027299
 20
-26.7718517819
 11
57.877893713
 21
-26.7611776274
  0
LINE
  5
440
100
AcDbEntity
  8
0
100
AcDbLine
 62
7
  6
CONTINUOUS
 10
59.5621339943
 20
-27.4999464956
 11
59.5197267822
 21
-27.519717435
  0
LINE
  5
441
100
AcDbEntity
  8
0
100
AcDbLine
 62
7
  6
CONTINUOUS
 10
57.3280087497
 20
-26.7718605079
 11
57.8549920768
 21
-26.77180726
  0
LINE
  5
442
100
AcDbEntity
  8
0
100
AcDbLine
 62
7
  6
CONTINUOUS
 10
57.8550027299
 20
-26.7718517819
 11
57.8099522509
 21
-26.6676955419
  0
LINE
  5
443
100
AcDbEntity
  8
0
100
AcDbLine
 62
7
  6
CONTINUOUS
 10
60.1221028135
 20
-27.2388260178
 11
59.6
 21
-27.482289287
  0
LINE
  5
444
100
AcDbEntity
  8
0
100
AcDbLine
 62
7
  6
CONTINUOUS
 10
58.4
 20
-26.4000001418
 11
58.3727025934
 21
-26.3727027659
  0
LINE
  5
445
100
AcDbEntity
  8
0
100
AcDbLine
 62
7
  6
CONTINUOUS
 10
59.6
 20
-26.5177101929
 11
60.1221066534
 21
-26.761175259
  0
LINE
  5
446
100
AcDbEntity
  8
0
100
AcDbLine
 62
7
  6
CONTINUOUS
 10
59.5197234839
 20
-26.4802765161
 11
59.5621335303
 21
-26.5000529828
  0
LINE
  5
447
100
AcDbEntity
  8
0
100
AcDbLine
 62
7
  6
CONTINUOUS
 10
57.8101933044
 20
-27.3324714129
 11
57.828395019
 21
-27.3450726247
  0
SPLINE
  5
448
100
AcDbEntity
  8
0
100
AcDbSpline
 62
7
  6
CONTINUOUS
 70
0
 71
3
 72
14
 73
10
 74
8
 42
0.0000001
 43
0.0000001
 44
0.0000000001
 12
-0.5489866675
 22
0.2730585867
 32
0.0
 13
-0.540741044
 23
0.289044073
 33
0.0
 40
0.0
 40
0.0
 40
0.0
 40
0.0
 40
0.1676248277
 40
0.3171576827
 40
0.4562893429
 40
0.5918233207
 40
0.7276155638
 40
0.864047256
 40
1.0
 40
1.0
 40
1.0
 40
1.0
 10
58.3727024907
 20
-27.6272975163
 30
0.0
 10
58.3420278922
 20
-27.6120403835
 30
0.0
 10
58.2840953423
 20
-27.5829595006
 30
0.0
 10
58.2010057812
 20
-27.5406143527
 30
0.0
 10
58.1239492078
 20
-27.5008782789
 30
0.0
 10
58.0495440737
 20
-27.4621295799
 30
0.0
 10
57.9757639239
 20
-27.4233766698
 30
0.0
 10
57.9020302626
 20
-27.3843521543
 30
0.0
 10
57.8529000953
 20
-27.358171403
 30
0.0
 10
57.828395019
 20
-27.3450726247
 30
0.0
 11
58.3727024907
 21
-27.6272975163
 31
0.0
 11
58.2808405336
 21
-27.5812021728
 31
0.0
 11
58.1991463063
 21
-27.5395816954
 31
0.0
 11
58.1233223684
 21
-27.5004898034
 31
0.0
 11
58.0496133968
 21
-27.4621109415
 31
0.0
 11
57.9758999156
 21
-27.4233989743
 31
0.0
 11
57.9019622533
 21
-27.3842715128
 31
0.0
 11
57.828395019
 21
-27.3450726247
 31
0.0
  0
LINE
  5
449
100
AcDbEntity
  8
0
100
AcDbLine
 62
7
  6
CONTINUOUS
 10
58.4802765158
 20
-26.4802765158
 11
58.4795953518
 21
-26.4795953519
  0
SPLINE
  5
44A
100
AcDbEntity
  8
0
100
AcDbSpline
 62
7
  6
CONTINUOUS
 70
0
 71
3
 72
14
 73
10
 74
8
 42
0.0000001
 43
0.0000001
 44
0.0000000001
 12
0.5407409237
 22
0.2890440051
 32
0.0
 13
0.5489846067
 23
0.2730624198
 33
0.0
 40
0.0
 40
0.0
 40
0.0
 40
0.0
 40
0.1360891828
 40
0.2724205737
 40
0.4077679873
 40
0.5429185838
 40
0.6821509024
 40
0.8319710672
 40
1.0
 40
1.0
 40
1.0
 40
1.0
 10
57.8283951111
 20
-26.6549273261
 30
0.0
 10
57.8529247745
 20
-26.6418154053
 30
0.0
 10
57.9020615595
 20
-26.615631394
 30
0.0
 10
57.9757213173
 20
-26.5766458475
 30
0.0
 10
58.0493333802
 20
-26.5379810709
 30
0.0
 10
58.1236059243
 20
-26.4992997455
 30
0.0
 10
58.2006626082
 20
-26.459561889
 30
0.0
 10
58.2838948016
 20
-26.4171401248
 30
0.0
 10
58.3419541609
 20
-26.3879968949
 30
0.0
 10
58.3727025934
 20
-26.3727027659
 30
0.0
 11
57.8283951111
 21
-26.6549273261
 31
0.0
 11
57.9020362479
 21
-26.6156892747
 31
0.0
 11
57.9759195551
 21
-26.576590623
 31
0.0
 11
58.0493914028
 21
-26.5380052001
 31
0.0
 11
58.1228912322
 21
-26.4997337038
 31
0.0
 11
58.1987691279
 21
-26.460611828
 31
0.0
 11
58.2806192164
 21
-26.4189092595
 31
0.0
 11
58.3727025934
 21
-26.3727027659
 31
0.0
  0
LINE
  5
44B
100
AcDbEntity
  8
0
100
AcDbLine
 62
7
  6
CONTINUOUS
 10
57.8099522509
 20
-26.6676955419
 11
57.8283951111
 21
-26.6549273261
  0
SPLINE
  5
44C
100
AcDbEntity
  8
0
100
AcDbSpline
 62
7
  6
CONTINUOUS
 70
0
 71
3
 72
14
 73
10
 74
8
 42
0.0000001
 43
0.0000001
 44
0.0000000001
 12
-0.5407409237
 22
-0.2890440051
 32
0.0
 13
-0.5489846067
 23
-0.2730624198
 33
0.0
 40
0.0
 40
0.0
 40
0.0
 40
0.0
 40
0.1360891828
 40
0.2724205737
 40
0.4077679873
 40
0.5429185838
 40
0.6821509024
 40
0.8319710672
 40
1.0
 40
1.0
 40
1.0
 40
1.0
 10
60.1716048889
 20
-27.3450726739
 30
0.0
 10
60.1470752255
 20
-27.3581845947
 30
0.0
 10
60.0979384405
 20
-27.384368606
 30
0.0
 10
60.0242786827
 20
-27.4233541525
 30
0.0
 10
59.9506666198
 20
-27.4620189291
 30
0.0
 10
59.8763940757
 20
-27.5007002545
 30
0.0
 10
59.7993373918
 20
-27.540438111
 30
0.0
 10
59.7161051984
 20
-27.5828598752
 30
0.0
 10
59.6580458391
 20
-27.6120031051
 30
0.0
 10
59.6272974066
 20
-27.6272972341
 30
0.0
 11
60.1716048889
 21
-27.3450726739
 31
0.0
 11
60.0979637521
 21
-27.3843107253
 31
0.0
 11
60.0240804449
 21
-27.423409377
 31
0.0
 11
59.9506085972
 21
-27.4619947999
 31
0.0
 11
59.8771087678
 21
-27.5002662962
 31
0.0
 11
59.8012308721
 21
-27.539388172
 31
0.0
 11
59.7193807836
 21
-27.5810907405
 31
0.0
 11
59.6272974066
 21
-27.6272972341
 31
0.0
  0
LINE
  5
44D
100
AcDbEntity
  8
0
100
AcDbLine
 62
7
  6
CONTINUOUS
 10
60.1716048889
 20
-27.3450726739
 11
60.190047748
 21
-27.3323044589
  0
LINE
  5
44E
100
AcDbEntity
  8
0
100
AcDbLine
 62
7
  6
CONTINUOUS
 10
60.171604981
 20
-26.6549273753
 11
60.1898066956
 21
-26.6675285871
  0
SPLINE
  5
44F
100
AcDbEntity
  8
0
100
AcDbSpline
 62
7
  6
CONTINUOUS
 70
0
 71
3
 72
14
 73
10
 74
8
 42
0.0000001
 43
0.0000001
 44
0.0000000001
 12
0.5489866675
 22
-0.2730585867
 32
0.0
 13
0.540741044
 23
-0.289044073
 33
0.0
 40
0.0
 40
0.0
 40
0.0
 40
0.0
 40
0.1676248277
 40
0.3171576827
 40
0.4562893429
 40
0.5918233207
 40
0.7276155638
 40
0.864047256
 40
1.0
 40
1.0
 40
1.0
 40
1.0
 10
59.6272975093
 20
-26.3727024837
 30
0.0
 10
59.6579721078
 20
-26.3879596165
 30
0.0
 10
59.7159046577
 20
-26.4170404994
 30
0.0
 10
59.7989942188
 20
-26.4593856473
 30
0.0
 10
59.8760507922
 20
-26.4991217211
 30
0.0
 10
59.9504559263
 20
-26.5378704201
 30
0.0
 10
60.0242360761
 20
-26.5766233302
 30
0.0
 10
60.0979697374
 20
-26.6156478457
 30
0.0
 10
60.1470999047
 20
-26.641828597
 30
0.0
 10
60.171604981
 20
-26.6549273753
 30
0.0
 11
59.6272975093
 21
-26.3727024837
 31
0.0
 11
59.7191594664
 21
-26.4187978272
 31
0.0
 11
59.8008536937
 21
-26.4604183046
 31
0.0
 11
59.8766776316
 21
-26.4995101966
 31
0.0
 11
59.9503866032
 21
-26.5378890585
 31
0.0
 11
60.0241000844
 21
-26.5766010257
 31
0.0
 11
60.0980377467
 21
-26.6157284872
 31
0.0
 11
60.171604981
 21
-26.6549273753
 31
0.0
  0
LINE
  5
450
100
AcDbEntity
  8
0
100
AcDbLine
 62
7
  6
CONTINUOUS
 10
58.5000529891
 20
-27.562133536
 11
58.4802765161
 21
-27.5197234839
  0
LINE
  5
451
100
AcDbEntity
  8
0
100
AcDbLine
 62
7
  6
CONTINUOUS
 10
58.4802765161
 20
-27.5197234839
 11
58.4378664697
 21
-27.4999470172
  0
LINE
  5
452
100
AcDbEntity
  8
0
100
AcDbLine
 62
7
  6
CONTINUOUS
 10
58.4
 20
-27.4822898071
 11
57.8778933466
 21
-27.238824741
  0
LINE
  5
453
100
AcDbEntity
  8
0
100
AcDbLine
 62
7
  6
CONTINUOUS
 10
57.8778971865
 20
-26.7611739822
 11
58.4
 21
-26.517710713
  0
LINE
  5
454
100
AcDbEntity
  8
0
100
AcDbLine
 62
7
  6
CONTINUOUS
 10
58.4378660057
 20
-26.5000535044
 11
58.4802732178
 21
-26.480282565
  0
LINE
  5
455
100
AcDbEntity
  8
0
100
AcDbLine
 62
7
  6
CONTINUOUS
 10
59.519717435
 20
-27.5197267822
 11
59.4999466442
 21
-27.5621338622
  0
LINE
  5
456
100
AcDbEntity
  8
0
100
AcDbLine
 62
7
  6
CONTINUOUS
 10
59.4999470109
 20
-26.437866464
 11
59.5197234839
 21
-26.4802765161
  0
LINE
  5
457
100
AcDbEntity
  8
0
100
AcDbLine
 62
7
  6
CONTINUOUS
 10
59.6
 20
-26.3999999936
 11
59.6272975093
 21
-26.3727024837
  0
LINE
  5
458
100
AcDbEntity
  8
0
100
AcDbLine
 62
7
  6
CONTINUOUS
 10
59.5197234842
 20
-26.4802765158
 11
59.5204046482
 21
-26.4795953518
  0
SPLINE
  5
459
100
AcDbEntity
  8
0
100
AcDbSpline
 62
7
  6
CONTINUOUS
 70
0
 71
3
 72
9
 73
5
 74
3
 42
0.0000001
 43
0.0000001
 44
0.0000000001
 12
-0.0452995647
 22
-0.1041126532
 32
0.0
 13
-0.0452995647
 23
-0.1041126532
 33
0.0
 40
0.0
 40
0.0
 40
0.0
 40
0.0
 40
0.4996939835
 40
1.0
 40
1.0
 40
1.0
 40
1.0
 10
60.1898066956
 20
-26.6675285871
 30
0.0
 10
60.182261389
 20
-26.6848700759
 30
0.0
 10
60.1669167609
 20
-26.7194691566
 30
0.0
 10
60.1525518251
 20
-26.754489043
 30
0.0
 10
60.1449972769
 20
-26.7718517719
 30
0.0
 11
60.1898066956
 21
-26.6675285871
 31
0.0
 11
60.1671707757
 21
-26.7195530535
 31
0.0
 11
60.1449972769
 21
-26.7718517719
 31
0.0
  0
SPLINE
  5
45A
100
AcDbEntity
  8
0
100
AcDbSpline
 62
7
  6
CONTINUOUS
 70
0
 71
3
 72
9
 73
5
 74
3
 42
0.0000001
 43
0.0000001
 44
0.0000000001
 12
0.5269772644
 22
-0.0010793166
 32
0.0
 13
0.5269783692
 23
0.0000227564
 33
0.0
 40
0.0
 40
0.0
 40
0.0
 40
0.0
 40
0.4866884719
 40
1.0
 40
1.0
 40
1.0
 40
1.0
 10
60.1450395831
 20
-26.7716467289
 30
0.0
 10
60.2305308363
 20
-26.7718218259
 30
0.0
 10
60.406190262
 20
-26.7720059196
 30
0.0
 10
60.5818497119
 20
-26.7720585941
 30
0.0
 10
60.6720177359
 20
-26.7720547004
 30
0.0
 11
60.1450395831
 21
-26.7716467289
 31
0.0
 11
60.401513677
 21
-26.7719698898
 31
0.0
 11
60.6720177359
 21
-26.7720547004
 31
0.0
  0
LINE
  5
45B
100
AcDbEntity
  8
TRASH
100
AcDbLine
 62
7
  6
CONTINUOUS
 10
60.1221062937
 20
-26.7611776175
 11
60.1449972769
 21
-26.7718517719
  0
LINE
  5
45C
100
AcDbEntity
  8
0
100
AcDbLine
 62
7
  6
CONTINUOUS
 10
60.1450079241
 20
-27.2281927449
 11
60.6719912502
 21
-27.2281394927
  0
LINE
  5
45D
100
AcDbEntity
  8
0
100
AcDbLine
 62
7
  6
CONTINUOUS
 10
60.1449972701
 20
-27.2281482181
 11
60.190047748
 21
-27.3323044589
  0
LINE
  5
45E
100
AcDbEntity
  8
TRASH
100
AcDbLine
 62
7
  6
CONTINUOUS
 10
60.122106287
 20
-27.2388223726
 11
60.1449972701
 21
-27.2281482181
  0
SPLINE
  5
45F
100
AcDbEntity
  8
RACCORDO
100
AcDbSpline
 62
7
  6
CONTINUOUS
 70
0
 71
3
 72
21
 73
17
 74
15
 42
0.0000001
 43
0.0000001
 44
0.0000000001
 12
-0.3558758597
 22
-0.2239835963
 32
0.0
 13
0.2641204029
 23
-0.327195189
 33
0.0
 40
0.0
 40
0.0
 40
0.0
 40
0.0
 40
0.0869081008
 40
0.1694713598
 40
0.2473005626
 40
0.3211438643
 40
0.391893239
 40
0.460028875
 40
0.5265804012
 40
0.5928392229
 40
0.6588579647
 40
0.7247068834
 40
0.7913332233
 40
0.8595810768
 40
0.929295924
 40
1.0
 40
1.0
 40
1.0
 40
1.0
 10
-3.4654009069
 20
-2.4594621655
 30
0.0
 10
-3.4757104052
 20
-2.4659508284
 30
0.0
 10
-3.4949647646
 20
-2.4800315577
 30
0.0
 10
-3.5196853356
 20
-2.5045114496
 30
0.0
 10
-3.5393099894
 20
-2.5309935445
 30
0.0
 10
-3.5539144292
 20
-2.5586701001
 30
0.0
 10
-3.5638165056
 20
-2.5869060406
 30
0.0
 10
-3.5694502907
 20
-2.6152354107
 30
0.0
 10
-3.5712729525
 20
-2.6434175337
 30
0.0
 10
-3.5696519687
 20
-2.6713043982
 30
0.0
 10
-3.5648936803
 20
-2.6987202274
 30
0.0
 10
-3.5572771338
 20
-2.725528207
 30
0.0
 10
-3.5469738892
 20
-2.7517528552
 30
0.0
 10
-3.5340590166
 20
-2.7774000313
 30
0.0
 10
-3.5186431883
 20
-2.8022960225
 30
0.0
 10
-3.5068937265
 20
-2.8181189833
 30
0.0
 10
-3.5006689301
 20
-2.8258303278
 30
0.0
 11
-3.4654009069
 21
-2.4594621655
 31
0.0
 11
-3.4948499303
 21
-2.4811012864
 31
0.0
 11
-3.5194709077
 21
-2.5055780006
 31
0.0
 11
-3.5389202457
 21
-2.5318984773
 31
0.0
 11
-3.5533967964
 21
-2.5593680815
 31
0.0
 11
-3.5632489144
 21
-2.5874391531
 31
0.0
 11
-3.5688611295
 21
-2.6155348184
 31
0.0
 11
-3.570701234
 21
-2.6434588581
 31
0.0
 11
-3.5691235002
 21
-2.6712756722
 31
0.0
 11
-3.5644151337
 21
-2.6986340436
 31
0.0
 11
-3.5568828018
 21
-2.7252789967
 31
0.0
 11
-3.5466689081
 21
-2.7513668496
 31
0.0
 11
-3.5337886293
 21
-2.7770118859
 31
0.0
 11
-3.5183771912
 21
-2.8019486653
 31
0.0
 11
-3.5006689301
 21
-2.8258303278
 31
0.0
  0
SPLINE
  5
460
100
AcDbEntity
  8
RACCORDO
100
AcDbSpline
 62
7
  6
CONTINUOUS
 70
0
 71
3
 72
21
 73
17
 74
15
 42
0.0000001
 43
0.0000001
 44
0.0000000001
 12
-0.2641204029
 22
-0.327195189
 32
0.0
 13
0.3558758597
 23
-0.2239835963
 33
0.0
 40
0.0
 40
0.0
 40
0.0
 40
0.0
 40
0.0707040761
 40
0.140418923
 40
0.208666776
 40
0.2752931158
 40
0.3411420347
 40
0.4071607768
 40
0.4734195986
 40
0.5399711249
 40
0.608106761
 40
0.6788561357
 40
0.7526994374
 40
0.8305286402
 40
0.9130918992
 40
1.0
 40
1.0
 40
1.0
 40
1.0
 10
-3.5006689301
 20
2.8258303278
 30
0.0
 10
-3.5068937265
 20
2.8181189833
 30
0.0
 10
-3.5186431883
 20
2.8022960225
 30
0.0
 10
-3.5340590165
 20
2.7774000314
 30
0.0
 10
-3.5469738892
 20
2.7517528554
 30
0.0
 10
-3.5572771337
 20
2.7255282072
 30
0.0
 10
-3.5648936803
 20
2.6987202276
 30
0.0
 10
-3.5696519687
 20
2.6713043983
 30
0.0
 10
-3.5712729525
 20
2.6434175338
 30
0.0
 10
-3.5694502907
 20
2.6152354107
 30
0.0
 10
-3.5638165056
 20
2.5869060406
 30
0.0
 10
-3.5539144292
 20
2.5586701001
 30
0.0
 10
-3.5393099893
 20
2.5309935445
 30
0.0
 10
-3.5196853356
 20
2.5045114496
 30
0.0
 10
-3.4949647646
 20
2.4800315577
 30
0.0
 10
-3.4757104052
 20
2.4659508284
 30
0.0
 10
-3.4654009069
 20
2.4594621655
 30
0.0
 11
-3.5006689301
 21
2.8258303278
 31
0.0
 11
-3.5183771912
 21
2.8019486653
 31
0.0
 11
-3.5337886293
 21
2.777011886
 31
0.0
 11
-3.5466689079
 21
2.7513668498
 31
0.0
 11
-3.5568828017
 21
2.725278997
 31
0.0
 11
-3.5644151336
 21
2.6986340439
 31
0.0
 11
-3.5691235002
 21
2.6712756723
 31
0.0
 11
-3.570701234
 21
2.6434588582
 31
0.0
 11
-3.5688611295
 21
2.6155348185
 31
0.0
 11
-3.5632489144
 21
2.5874391531
 31
0.0
 11
-3.5533967964
 21
2.5593680815
 31
0.0
 11
-3.5389202457
 21
2.5318984773
 31
0.0
 11
-3.5194709077
 21
2.5055780006
 31
0.0
 11
-3.4948499303
 21
2.4811012864
 31
0.0
 11
-3.4654009069
 21
2.4594621655
 31
0.0
  0
SPLINE
  5
461
100
AcDbEntity
  8
RACCORDO
100
AcDbSpline
 62
7
  6
CONTINUOUS
 70
0
 71
3
 72
21
 73
17
 74
15
 42
0.0000001
 43
0.0000001
 44
0.0000000001
 12
0.3558758597
 22
0.2239835963
 32
0.0
 13
-0.2641204029
 23
0.327195189
 33
0.0
 40
0.0
 40
0.0
 40
0.0
 40
0.0
 40
0.0869081008
 40
0.1694713598
 40
0.2473005626
 40
0.3211438643
 40
0.391893239
 40
0.460028875
 40
0.5265804012
 40
0.5928392229
 40
0.6588579647
 40
0.7247068834
 40
0.7913332234
 40
0.8595810768
 40
0.929295924
 40
1.0
 40
1.0
 40
1.0
 40
1.0
 10
3.4654009069
 20
2.4594621655
 30
0.0
 10
3.4757104052
 20
2.4659508284
 30
0.0
 10
3.4949647646
 20
2.4800315577
 30
0.0
 10
3.5196853356
 20
2.5045114496
 30
0.0
 10
3.5393099894
 20
2.5309935445
 30
0.0
 10
3.5539144292
 20
2.5586701001
 30
0.0
 10
3.5638165056
 20
2.5869060406
 30
0.0
 10
3.5694502907
 20
2.6152354107
 30
0.0
 10
3.5712729525
 20
2.6434175337
 30
0.0
 10
3.5696519687
 20
2.6713043982
 30
0.0
 10
3.5648936803
 20
2.6987202274
 30
0.0
 10
3.5572771338
 20
2.725528207
 30
0.0
 10
3.5469738892
 20
2.7517528552
 30
0.0
 10
3.5340590166
 20
2.7774000313
 30
0.0
 10
3.5186431883
 20
2.8022960225
 30
0.0
 10
3.5068937265
 20
2.8181189833
 30
0.0
 10
3.5006689301
 20
2.8258303278
 30
0.0
 11
3.4654009069
 21
2.4594621655
 31
0.0
 11
3.4948499303
 21
2.4811012864
 31
0.0
 11
3.5194709077
 21
2.5055780006
 31
0.0
 11
3.5389202457
 21
2.5318984773
 31
0.0
 11
3.5533967964
 21
2.5593680815
 31
0.0
 11
3.5632489144
 21
2.5874391531
 31
0.0
 11
3.5688611295
 21
2.6155348184
 31
0.0
 11
3.570701234
 21
2.6434588581
 31
0.0
 11
3.5691235002
 21
2.6712756722
 31
0.0
 11
3.5644151337
 21
2.6986340436
 31
0.0
 11
3.5568828018
 21
2.7252789967
 31
0.0
 11
3.5466689081
 21
2.7513668496
 31
0.0
 11
3.5337886293
 21
2.7770118859
 31
0.0
 11
3.5183771912
 21
2.8019486653
 31
0.0
 11
3.5006689301
 21
2.8258303278
 31
0.0
  0
SPLINE
  5
462
100
AcDbEntity
  8
RACCORDO
100
AcDbSpline
 62
7
  6
CONTINUOUS
 70
0
 71
3
 72
21
 73
17
 74
15
 42
0.0000001
 43
0.0000001
 44
0.0000000001
 12
0.2641204029
 22
0.327195189
 32
0.0
 13
-0.3558758597
 23
0.2239835963
 33
0.0
 40
0.0
 40
0.0
 40
0.0
 40
0.0
 40
0.0707040761
 40
0.140418923
 40
0.208666776
 40
0.2752931158
 40
0.3411420347
 40
0.4071607768
 40
0.4734195986
 40
0.5399711249
 40
0.608106761
 40
0.6788561357
 40
0.7526994374
 40
0.8305286402
 40
0.9130918992
 40
1.0
 40
1.0
 40
1.0
 40
1.0
 10
3.5006689301
 20
-2.8258303278
 30
0.0
 10
3.5068937265
 20
-2.8181189833
 30
0.0
 10
3.5186431883
 20
-2.8022960225
 30
0.0
 10
3.5340590165
 20
-2.7774000314
 30
0.0
 10
3.5469738892
 20
-2.7517528554
 30
0.0
 10
3.5572771337
 20
-2.7255282072
 30
0.0
 10
3.5648936803
 20
-2.6987202276
 30
0.0
 10
3.5696519687
 20
-2.6713043983
 30
0.0
 10
3.5712729525
 20
-2.6434175338
 30
0.0
 10
3.5694502907
 20
-2.6152354107
 30
0.0
 10
3.5638165056
 20
-2.5869060406
 30
0.0
 10
3.5539144292
 20
-2.5586701001
 30
0.0
 10
3.5393099893
 20
-2.5309935445
 30
0.0
 10
3.5196853356
 20
-2.5045114496
 30
0.0
 10
3.4949647646
 20
-2.4800315577
 30
0.0
 10
3.4757104052
 20
-2.4659508284
 30
0.0
 10
3.4654009069
 20
-2.4594621655
 30
0.0
 11
3.5006689301
 21
-2.8258303278
 31
0.0
 11
3.5183771912
 21
-2.8019486653
 31
0.0
 11
3.5337886293
 21
-2.777011886
 31
0.0
 11
3.5466689079
 21
-2.7513668498
 31
0.0
 11
3.5568828017
 21
-2.725278997
 31
0.0
 11
3.5644151336
 21
-2.6986340439
 31
0.0
 11
3.5691235002
 21
-2.6712756723
 31
0.0
 11
3.570701234
 21
-2.6434588582
 31
0.0
 11
3.5688611295
 21
-2.6155348185
 31
0.0
 11
3.5632489144
 21
-2.5874391531
 31
0.0
 11
3.5533967964
 21
-2.5593680815
 31
0.0
 11
3.5389202457
 21
-2.5318984773
 31
0.0
 11
3.5194709077
 21
-2.5055780006
 31
0.0
 11
3.4948499303
 21
-2.4811012864
 31
0.0
 11
3.4654009069
 21
-2.4594621655
 31
0.0
  0
SPLINE
  5
463
100
AcDbEntity
  8
RACCORDO
100
AcDbSpline
 62
253
  6
CONTINUOUS
 70
0
 71
3
 72
18
 73
14
 74
12
 42
0.0000001
 43
0.0000001
 44
0.0000000001
 12
0.0029016502
 22
4.4723785325
 32
0.0
 13
2.5628536601
 23
3.6652365919
 33
0.0
 40
0.0
 40
0.0
 40
0.0
 40
0.0
 40
0.1457435797
 40
0.2868416292
 40
0.420862883
 40
0.545448052
 40
0.6584266428
 40
0.7578184684
 40
0.8418815744
 40
0.9091445941
 40
0.9584360727
 40
0.9888915168
 40
1.0
 40
1.0
 40
1.0
 40
1.0
 10
66.3903975012
 20
36.9483838823
 30
0.0
 10
66.3905384668
 20
37.165657368
 30
0.0
 10
66.3909870858
 20
37.5932791056
 30
0.0
 10
66.3921835062
 20
38.2206959282
 30
0.0
 10
66.39385156
 20
38.8165758539
 30
0.0
 10
66.3960346507
 20
39.3705098705
 30
0.0
 10
66.3984465621
 20
39.8728936583
 30
0.0
 10
66.4018049751
 20
40.3146238315
 30
0.0
 10
66.4037535821
 20
40.6889047587
 30
0.0
 10
66.4105872212
 20
40.9865617259
 30
0.0
 10
66.4061692345
 20
41.2089835014
 30
0.0
 10
66.4240674407
 20
41.3383864289
 30
0.0
 10
66.4110151239
 20
41.4068762972
 30
0.0
 10
66.4205049295
 20
41.4204480369
 30
0.0
 11
66.3903975012
 21
36.9483838823
 31
0.0
 11
66.3910890479
 21
37.6002041097
 31
0.0
 11
66.3922998994
 21
38.2312469686
 31
0.0
 11
66.3940091428
 21
38.8306384361
 31
0.0
 11
66.3961866581
 21
39.3878263335
 31
0.0
 11
66.3987945332
 21
39.8931027342
 31
0.0
 11
66.4017870863
 21
40.3376106216
 31
0.0
 11
66.4051118829
 21
40.7135580297
 31
0.0
 11
66.4087106123
 21
41.014362252
 31
0.0
 11
66.4125206683
 21
41.2347795219
 31
0.0
 11
66.4164747386
 21
41.3709304207
 31
0.0
 11
66.4205049295
 21
41.4204480369
 31
0.0
  0
SPLINE
  5
464
100
AcDbEntity
  8
RACCORDO
100
AcDbSpline
 62
253
  6
CONTINUOUS
 70
0
 71
3
 72
18
 73
14
 74
12
 42
0.0000001
 43
0.0000001
 44
0.0000000001
 12
-0.0029016006
 22
-3.1308306995
 32
0.0
 13
-2.2088748279
 23
-2.2187792325
 33
0.0
 40
0.0
 40
0.0
 40
0.0
 40
0.0
 40
0.1456203189
 40
0.2867347203
 40
0.4207733305
 40
0.5453755632
 40
0.6583699985
 40
0.7577751167
 40
0.8418475005
 40
0.9091160709
 40
0.9584102375
 40
0.9888695827
 40
1.0
 40
1.0
 40
1.0
 40
1.0
 10
-67.8903404794
 20
-36.7901224134
 30
0.0
 10
-67.8904813234
 20
-36.9420932684
 30
0.0
 10
-67.8909298689
 20
-37.2413328515
 30
0.0
 10
-67.8921250821
 20
-37.6804530703
 30
0.0
 10
-67.8937956375
 20
-38.0976448089
 30
0.0
 10
-67.8959705807
 20
-38.4854611295
 30
0.0
 10
-67.8984097456
 20
-38.8372166158
 30
0.0
 10
-67.9016858985
 20
-39.1464019563
 30
0.0
 10
-67.903874857
 20
-39.4086506005
 30
0.0
 10
-67.9100690887
 20
-39.6164426379
 30
0.0
 10
-67.9071514522
 20
-39.77350534
 30
0.0
 10
-67.9223150849
 20
-39.8615961001
 30
0.0
 10
-67.9122520657
 20
-39.9122724344
 30
0.0
 10
-67.9204472986
 20
-39.920504414
 30
0.0
 11
-67.8903404794
 21
-36.7901224134
 31
0.0
 11
-67.8910312976
 21
-37.2460346507
 31
0.0
 11
-67.8922420453
 21
-37.6878384816
 31
0.0
 11
-67.8939513144
 21
-38.1074873766
 31
0.0
 11
-67.8961290477
 21
-38.4975899609
 31
0.0
 11
-67.8987372871
 21
-38.8513469446
 31
0.0
 11
-67.9017303495
 21
-39.1625532812
 31
0.0
 11
-67.9050557239
 21
-39.4257487879
 31
0.0
 11
-67.9086551003
 21
-39.6363246237
 31
0.0
 11
-67.912465744
 21
-39.7906093281
 31
0.0
 11
-67.9164205408
 21
-39.8858903823
 31
0.0
 11
-67.9204472986
 21
-39.920504414
 31
0.0
  0
SPLINE
  5
465
100
AcDbEntity
  8
RACCORDO
100
AcDbSpline
 62
253
  6
CONTINUOUS
 70
0
 71
3
 72
14
 73
10
 74
8
 42
0.0000001
 43
0.0000001
 44
0.0000000001
 12
0.0681680218
 22
-73.5802235136
 32
0.0
 13
-0.0681680204
 23
-73.5802235136
 33
0.0
 40
0.0
 40
0.0
 40
0.0
 40
0.0
 40
0.1425304104
 40
0.2853876231
 40
0.4284407859
 40
0.5715592548
 40
0.7146124174
 40
0.8574696298
 40
1.0
 40
1.0
 40
1.0
 40
1.0
 10
-67.8903404794
 20
36.7901224134
 30
0.0
 10
-67.8871018073
 20
33.2943159285
 30
0.0
 10
-67.8815514869
 20
26.2946866626
 30
0.0
 10
-67.8760049752
 20
15.7864272383
 30
0.0
 10
-67.8732304441
 20
5.2637435431
 30
0.0
 10
-67.8732304445
 20
-5.2637465291
 30
0.0
 10
-67.8760049764
 20
-15.7864302132
 30
0.0
 10
-67.8815514883
 20
-26.2946886404
 30
0.0
 10
-67.8871018083
 20
-33.2943169144
 30
0.0
 10
-67.8903404794
 20
-36.7901224134
 30
0.0
 11
-67.8903404794
 21
36.7901224134
 31
0.0
 11
-67.8820207176
 21
26.302701758
 31
0.0
 11
-67.8764699667
 21
15.7912330728
 31
0.0
 11
-67.8736933236
 21
5.2653452303
 31
0.0
 11
-67.873693324
 21
-5.2653482215
 31
0.0
 11
-67.8764699679
 21
-15.7912360483
 31
0.0
 11
-67.8820207195
 21
-26.3027047158
 31
0.0
 11
-67.8903404794
 21
-36.7901224134
 31
0.0
  0
SPLINE
  5
466
100
AcDbEntity
  8
RACCORDO
100
AcDbSpline
 62
253
  6
CONTINUOUS
 70
0
 71
3
 72
18
 73
14
 74
12
 42
0.0000001
 43
0.0000001
 44
0.0000000001
 12
2.2090043401
 22
-2.2186502835
 32
0.0
 13
0.0029016289
 23
-3.1308306942
 33
0.0
 40
0.0
 40
0.0
 40
0.0
 40
0.0
 40
0.0111316179
 40
0.0415921403
 40
0.0908876425
 40
0.1581575837
 40
0.2422313704
 40
0.3416375146
 40
0.4546324401
 40
0.5792349297
 40
0.7132736035
 40
0.8543879168
 40
1.0
 40
1.0
 40
1.0
 40
1.0
 10
-67.9204472986
 20
39.920504414
 30
0.0
 10
-67.9122507012
 20
39.912272025
 30
0.0
 10
-67.922315981
 20
39.8615915619
 30
0.0
 10
-67.907150689
 20
39.7734981515
 30
0.0
 10
-67.9100690837
 20
39.6164307959
 30
0.0
 10
-67.9038745486
 20
39.4086347116
 30
0.0
 10
-67.9016857099
 20
39.1463820152
 30
0.0
 10
-67.8984095479
 20
38.8371936567
 30
0.0
 10
-67.8959704268
 20
38.4854363115
 30
0.0
 10
-67.8937955155
 20
38.0976191479
 30
0.0
 10
-67.8921249977
 20
37.6804271666
 30
0.0
 10
-67.8909298367
 20
37.241315569
 30
0.0
 10
-67.8904813168
 20
36.9420846733
 30
0.0
 10
-67.8903404794
 20
36.7901224134
 30
0.0
 11
-67.9204472986
 21
39.920504414
 31
0.0
 11
-67.9164203115
 21
39.8858866249
 31
0.0
 11
-67.9124655091
 21
39.7906018824
 31
0.0
 11
-67.9086548636
 21
39.6363129953
 31
0.0
 11
-67.9050554906
 21
39.4257328674
 31
0.0
 11
-67.9017301259
 21
39.1625329685
 31
0.0
 11
-67.898737089
 21
38.8513234196
 31
0.0
 11
-67.8961288868
 21
38.4975649014
 31
0.0
 11
-67.8939511905
 21
38.1074615132
 31
0.0
 11
-67.8922419579
 21
37.6878124196
 31
0.0
 11
-67.8910312428
 21
37.2460088655
 31
0.0
 11
-67.8903404794
 21
36.7901224134
 31
0.0
  0
SPLINE
  5
467
100
AcDbEntity
  8
RACCORDO
100
AcDbSpline
 62
253
  6
CONTINUOUS
 70
0
 71
3
 72
18
 73
14
 74
12
 42
0.0000001
 43
0.0000001
 44
0.0000000001
 12
0.0029016289
 22
3.1308306942
 32
0.0
 13
2.2090045291
 23
2.2186500953
 33
0.0
 40
0.0
 40
0.0
 40
0.0
 40
0.0
 40
0.1456120832
 40
0.2867263965
 40
0.4207650703
 40
0.5453675599
 40
0.6583624854
 40
0.7577686296
 40
0.8418424163
 40
0.9091123575
 40
0.9584078597
 40
0.9888683821
 40
1.0
 40
1.0
 40
1.0
 40
1.0
 10
67.8903404794
 20
36.7901224134
 30
0.0
 10
67.8904813168
 20
36.9420846733
 30
0.0
 10
67.8909298367
 20
37.241315569
 30
0.0
 10
67.8921249977
 20
37.6804271666
 30
0.0
 10
67.8937955155
 20
38.0976191479
 30
0.0
 10
67.8959704268
 20
38.4854363115
 30
0.0
 10
67.8984095479
 20
38.8371936567
 30
0.0
 10
67.90168571
 20
39.1463820151
 30
0.0
 10
67.9038745485
 20
39.4086347117
 30
0.0
 10
67.9100690839
 20
39.6164307957
 30
0.0
 10
67.9071506884
 20
39.7734981521
 30
0.0
 10
67.9223159819
 20
39.861591561
 30
0.0
 10
67.9122507005
 20
39.9122720257
 30
0.0
 10
67.9204472986
 20
39.920504414
 30
0.0
 11
67.8903404794
 21
36.7901224134
 31
0.0
 11
67.8910312428
 21
37.2460088655
 31
0.0
 11
67.8922419579
 21
37.6878124196
 31
0.0
 11
67.8939511905
 21
38.1074615132
 31
0.0
 11
67.8961288868
 21
38.4975649014
 31
0.0
 11
67.898737089
 21
38.8513234196
 31
0.0
 11
67.9017301259
 21
39.1625329685
 31
0.0
 11
67.9050554906
 21
39.4257328674
 31
0.0
 11
67.9086548636
 21
39.6363129953
 31
0.0
 11
67.9124655091
 21
39.7906018824
 31
0.0
 11
67.9164203115
 21
39.8858866249
 31
0.0
 11
67.9204472986
 21
39.920504414
 31
0.0
  0
SPLINE
  5
468
100
AcDbEntity
  8
RACCORDO
100
AcDbSpline
 62
253
  6
CONTINUOUS
 70
0
 71
3
 72
14
 73
10
 74
8
 42
0.0000001
 43
0.0000001
 44
0.0000000001
 12
-0.0681680204
 22
73.5802235136
 32
0.0
 13
0.0681680218
 23
73.5802235136
 33
0.0
 40
0.0
 40
0.0
 40
0.0
 40
0.0
 40
0.1425303702
 40
0.2853875826
 40
0.4284407452
 40
0.5715592141
 40
0.7146123769
 40
0.8574695896
 40
1.0
 40
1.0
 40
1.0
 40
1.0
 10
67.8903404794
 20
-36.7901224134
 30
0.0
 10
67.8871018083
 20
-33.2943169144
 30
0.0
 10
67.8815514883
 20
-26.2946886404
 30
0.0
 10
67.8760049764
 20
-15.7864302132
 30
0.0
 10
67.8732304445
 20
-5.2637465291
 30
0.0
 10
67.8732304441
 20
5.2637435431
 30
0.0
 10
67.8760049752
 20
15.7864272383
 30
0.0
 10
67.8815514869
 20
26.2946866626
 30
0.0
 10
67.8871018073
 20
33.2943159285
 30
0.0
 10
67.8903404794
 20
36.7901224134
 30
0.0
 11
67.8903404794
 21
-36.7901224134
 31
0.0
 11
67.8820207195
 21
-26.3027047158
 31
0.0
 11
67.8764699679
 21
-15.7912360483
 31
0.0
 11
67.873693324
 21
-5.2653482215
 31
0.0
 11
67.8736933236
 21
5.2653452303
 31
0.0
 11
67.8764699667
 21
15.7912330728
 31
0.0
 11
67.8820207176
 21
26.302701758
 31
0.0
 11
67.8903404794
 21
36.7901224134
 31
0.0
  0
SPLINE
  5
469
100
AcDbEntity
  8
RACCORDO
100
AcDbSpline
 62
253
  6
CONTINUOUS
 70
0
 71
3
 72
18
 73
14
 74
12
 42
0.0000001
 43
0.0000001
 44
0.0000000001
 12
-2.2088746535
 22
2.2187794062
 32
0.0
 13
-0.0029016006
 23
3.1308306995
 33
0.0
 40
0.0
 40
0.0
 40
0.0
 40
0.0
 40
0.0111304173
 40
0.0415897625
 40
0.0908839291
 40
0.1581524995
 40
0.2422248833
 40
0.3416300015
 40
0.4546244368
 40
0.5792266695
 40
0.7132652797
 40
0.8543796811
 40
1.0
 40
1.0
 40
1.0
 40
1.0
 10
67.9204472986
 20
-39.920504414
 30
0.0
 10
67.9122520664
 20
-39.9122724338
 30
0.0
 10
67.922315084
 20
-39.861596101
 30
0.0
 10
67.9071514527
 20
-39.7735053395
 30
0.0
 10
67.9100690885
 20
-39.6164426381
 30
0.0
 10
67.9038748571
 20
-39.4086506004
 30
0.0
 10
67.9016858985
 20
-39.1464019563
 30
0.0
 10
67.8984097456
 20
-38.8372166158
 30
0.0
 10
67.8959705807
 20
-38.4854611295
 30
0.0
 10
67.8937956375
 20
-38.0976448089
 30
0.0
 10
67.892125082
 20
-37.6804530703
 30
0.0
 10
67.8909298689
 20
-37.2413328515
 30
0.0
 10
67.8904813234
 20
-36.9420932684
 30
0.0
 10
67.8903404794
 20
-36.7901224134
 30
0.0
 11
67.9204472986
 21
-39.920504414
 31
0.0
 11
67.9164205408
 21
-39.8858903823
 31
0.0
 11
67.912465744
 21
-39.7906093281
 31
0.0
 11
67.9086551003
 21
-39.6363246237
 31
0.0
 11
67.9050557239
 21
-39.4257487879
 31
0.0
 11
67.9017303495
 21
-39.1625532812
 31
0.0
 11
67.8987372871
 21
-38.8513469446
 31
0.0
 11
67.8961290477
 21
-38.4975899609
 31
0.0
 11
67.8939513144
 21
-38.1074873766
 31
0.0
 11
67.8922420453
 21
-37.6878384816
 31
0.0
 11
67.8910312976
 21
-37.2460346507
 31
0.0
 11
67.8903404794
 21
-36.7901224134
 31
0.0
  0
SPLINE
  5
46A
100
AcDbEntity
  8
RACCORDO
100
AcDbSpline
 62
253
  6
CONTINUOUS
 70
0
 71
3
 72
15
 73
11
 74
9
 42
0.0000001
 43
0.0000001
 44
0.0000000001
 12
-1.5230844148
 22
-0.001395331
 32
0.0
 13
-0.124774456
 23
-1.5179655518
 33
0.0
 40
0.0
 40
0.0
 40
0.0
 40
0.0
 40
0.1910975243
 40
0.3750188607
 40
0.5448673747
 40
0.6943074485
 40
0.8178378095
 40
0.9110890032
 40
0.9713291433
 40
1.0
 40
1.0
 40
1.0
 40
1.0
 10
-66.3903975948
 20
36.9484730106
 30
0.0
 10
-66.4874168151
 20
36.9483841291
 30
0.0
 10
-66.6778059271
 20
36.9462835248
 30
0.0
 10
-66.9543553532
 20
36.9373776617
 30
0.0
 10
-67.2093224271
 20
36.9232566524
 30
0.0
 10
-67.4338204969
 20
36.9041062692
 30
0.0
 10
-67.6171988212
 20
36.8821122947
 30
0.0
 10
-67.7586777689
 20
36.8551560579
 30
0.0
 10
-67.841787922
 20
36.8324833531
 30
0.0
 10
-67.8891480159
 20
36.8046295377
 30
0.0
 10
-67.8903404794
 20
36.7901224134
 30
0.0
 11
-66.3903975948
 21
36.9484730106
 31
0.0
 11
-66.6814369422
 21
36.9451971397
 31
0.0
 11
-66.9614146552
 21
36.9360272894
 31
0.0
 11
-67.2196895229
 21
36.9213119813
 31
0.0
 11
-67.4464452018
 21
36.9016105053
 31
0.0
 11
-67.6330633096
 21
36.8776716623
 31
0.0
 11
-67.7724509864
 21
36.8504053042
 31
0.0
 11
-67.859310476
 21
36.8208477532
 31
0.0
 11
-67.8903404794
 21
36.7901224134
 31
0.0
  0
SPLINE
  5
46B
100
AcDbEntity
  8
RACCORDO
100
AcDbSpline
 62
253
  6
CONTINUOUS
 70
0
 71
3
 72
18
 73
14
 74
12
 42
0.0000001
 43
0.0000001
 44
0.0000000001
 12
-0.0029015428
 22
-4.4723754834
 32
0.0
 13
-2.5628172085
 23
-3.6652583591
 33
0.0
 40
0.0
 40
0.0
 40
0.0
 40
0.0
 40
0.1457431197
 40
0.2868412354
 40
0.4208625888
 40
0.5454478337
 40
0.6584264688
 40
0.7578183534
 40
0.8418815231
 40
0.9091445747
 40
0.9584360672
 40
0.988891522
 40
1.0
 40
1.0
 40
1.0
 40
1.0
 10
-66.3903975044
 20
-36.9483869592
 30
0.0
 10
-66.3905384644
 20
-37.165659611
 30
0.0
 10
-66.3909870938
 20
-37.59328047
 30
0.0
 10
-66.3921835047
 20
-38.2206964262
 30
0.0
 10
-66.3938515655
 20
-38.8165763057
 30
0.0
 10
-66.3960346546
 20
-39.3705102728
 30
0.0
 10
-66.3984465715
 20
-39.8728939835
 30
0.0
 10
-66.4018049769
 20
-40.3146241101
 30
0.0
 10
-66.4037536086
 20
-40.6889049965
 30
0.0
 10
-66.410587181
 20
-40.9865619677
 30
0.0
 10
-66.4061693535
 20
-41.2089835726
 30
0.0
 10
-66.4240672617
 20
-41.3383866296
 30
0.0
 10
-66.4110152818
 20
-41.4068762494
 30
0.0
 10
-66.420504948
 20
-41.4204480634
 30
0.0
 11
-66.3903975044
 21
-36.9483869592
 31
0.0
 11
-66.3910890504
 21
-37.600204685
 31
0.0
 11
-66.3922999003
 21
-38.2312474096
 31
0.0
 11
-66.394009147
 21
-38.8306389136
 31
0.0
 11
-66.3961866634
 21
-39.3878267709
 31
0.0
 11
-66.39879454
 21
-39.8931030248
 31
0.0
 11
-66.4017870942
 21
-40.3376108734
 31
0.0
 11
-66.4051118915
 21
-40.7135583102
 31
0.0
 11
-66.4087106211
 21
-41.0143624699
 31
0.0
 11
-66.412520675
 21
-41.234779652
 31
0.0
 11
-66.4164747479
 21
-41.370930505
 31
0.0
 11
-66.420504948
 21
-41.4204480634
 31
0.0
  0
SPLINE
  5
46C
100
AcDbEntity
  8
RACCORDO
100
AcDbSpline
 62
253
  6
CONTINUOUS
 70
0
 71
3
 72
18
 73
14
 74
12
 42
0.0000001
 43
0.0000001
 44
0.0000000001
 12
-2.5628171824
 22
3.6652583746
 32
0.0
 13
-0.0029015427
 23
4.4723754811
 33
0.0
 40
0.0
 40
0.0
 40
0.0
 40
0.0
 40
0.011108478
 40
0.0415639328
 40
0.0908554254
 40
0.1581184769
 40
0.2421816467
 40
0.3415735314
 40
0.4545521665
 40
0.5791374115
 40
0.7131587649
 40
0.8542568807
 40
1.0
 40
1.0
 40
1.0
 40
1.0
 10
66.420504948
 20
-41.4204480634
 30
0.0
 10
66.4110152819
 20
-41.4068762493
 30
0.0
 10
66.4240672615
 20
-41.3383866297
 30
0.0
 10
66.4061693536
 20
-41.2089835726
 30
0.0
 10
66.410587181
 20
-40.9865619677
 30
0.0
 10
66.4037536086
 20
-40.6889049965
 30
0.0
 10
66.4018049769
 20
-40.3146241101
 30
0.0
 10
66.3984465715
 20
-39.8728939835
 30
0.0
 10
66.3960346546
 20
-39.3705102728
 30
0.0
 10
66.3938515655
 20
-38.8165763057
 30
0.0
 10
66.3921835047
 20
-38.2206964262
 30
0.0
 10
66.3909870938
 20
-37.5932804707
 30
0.0
 10
66.3905384643
 20
-37.1656596125
 30
0.0
 10
66.3903975044
 20
-36.9483869614
 30
0.0
 11
66.420504948
 21
-41.4204480634
 31
0.0
 11
66.4164747479
 21
-41.370930505
 31
0.0
 11
66.412520675
 21
-41.234779652
 31
0.0
 11
66.4087106211
 21
-41.0143624699
 31
0.0
 11
66.4051118915
 21
-40.7135583102
 31
0.0
 11
66.4017870942
 21
-40.3376108734
 31
0.0
 11
66.39879454
 21
-39.8931030248
 31
0.0
 11
66.3961866634
 21
-39.3878267709
 31
0.0
 11
66.394009147
 21
-38.8306389136
 31
0.0
 11
66.3922999003
 21
-38.2312474096
 31
0.0
 11
66.3910890504
 21
-37.600204685
 31
0.0
 11
66.3903975044
 21
-36.9483869614
 31
0.0
  0
SPLINE
  5
46D
100
AcDbEntity
  8
RACCORDO
100
AcDbSpline
 62
253
  6
CONTINUOUS
 70
0
 71
3
 72
14
 73
10
 74
8
 42
0.0000001
 43
0.0000001
 44
0.0000000001
 12
0.0681678608
 22
-73.8967496218
 32
0.0
 13
-0.0681678595
 23
-73.8967496218
 33
0.0
 40
0.0
 40
0.0
 40
0.0
 40
0.0
 40
0.1425298588
 40
0.2853872761
 40
0.4284406429
 40
0.5715593155
 40
0.7146126823
 40
0.8574700995
 40
1.0
 40
1.0
 40
1.0
 40
1.0
 10
-66.3903975243
 20
36.9483838844
 30
0.0
 10
-66.3871588724
 20
33.4375527868
 30
0.0
 10
-66.3816085762
 20
26.407821195
 30
0.0
 10
-66.3760620866
 20
15.854361075
 30
0.0
 10
-66.3732875598
 20
5.2863960392
 30
0.0
 10
-66.3732875598
 20
-5.2863960396
 30
0.0
 10
-66.3760620867
 20
-15.8543610753
 30
0.0
 10
-66.3816085768
 20
-26.4078222201
 30
0.0
 10
-66.387158874
 20
-33.4375548368
 30
0.0
 10
-66.3903975267
 20
-36.9483869592
 30
0.0
 11
-66.3903975243
 21
36.9483838844
 31
0.0
 11
-66.3820778176
 21
26.4158893961
 31
0.0
 11
-66.3765270767
 21
15.8591875726
 31
0.0
 11
-66.3737504385
 21
5.2880046096
 31
0.0
 11
-66.3737504385
 21
-5.28800461
 31
0.0
 11
-66.3765270768
 21
-15.8591875728
 31
0.0
 11
-66.3820778176
 21
-26.4158893964
 31
0.0
 11
-66.3903975267
 21
-36.9483869592
 31
0.0
  0
SPLINE
  5
46E
100
AcDbEntity
  8
RACCORDO
100
AcDbSpline
 62
253
  6
CONTINUOUS
 70
0
 71
3
 72
14
 73
10
 74
8
 42
0.0000001
 43
0.0000001
 44
0.0000000001
 12
-0.0681678595
 22
73.8967496221
 32
0.0
 13
0.0681678608
 23
73.8967496221
 33
0.0
 40
0.0
 40
0.0
 40
0.0
 40
0.0
 40
0.1425299005
 40
0.2853873177
 40
0.4284406845
 40
0.5715593572
 40
0.714612724
 40
0.8574701412
 40
1.0
 40
1.0
 40
1.0
 40
1.0
 10
66.3903975267
 20
-36.9483869615
 30
0.0
 10
66.387158874
 20
-33.4375548382
 30
0.0
 10
66.3816085768
 20
-26.4078222209
 30
0.0
 10
66.3760620867
 20
-15.8543610753
 30
0.0
 10
66.3732875598
 20
-5.2863960396
 30
0.0
 10
66.3732875598
 20
5.2863960392
 30
0.0
 10
66.3760620866
 20
15.854361075
 30
0.0
 10
66.3816085762
 20
26.4078211944
 30
0.0
 10
66.3871588724
 20
33.4375527855
 30
0.0
 10
66.3903975243
 20
36.9483838824
 30
0.0
 11
66.3903975267
 21
-36.9483869615
 31
0.0
 11
66.3820778176
 21
-26.4158893964
 31
0.0
 11
66.3765270768
 21
-15.8591875728
 31
0.0
 11
66.3737504385
 21
-5.28800461
 31
0.0
 11
66.3737504385
 21
5.2880046096
 31
0.0
 11
66.3765270767
 21
15.8591875726
 31
0.0
 11
66.3820778176
 21
26.4158893961
 31
0.0
 11
66.3903975243
 21
36.9483838824
 31
0.0
  0
SPLINE
  5
46F
100
AcDbEntity
  8
RACCORDO
100
AcDbSpline
 62
253
  6
CONTINUOUS
 70
0
 71
3
 72
30
 73
26
 74
24
 42
0.0000001
 43
0.0000001
 44
0.0000000001
 12
-11.1387437835
 22
0.0001341667
 32
0.0
 13
11.138743783
 23
0.0001709668
 33
0.0
 40
0.0
 40
0.0
 40
0.0
 40
0.0
 40
0.0338533697
 40
0.0725662689
 40
0.1147716149
 40
0.1592000488
 40
0.2046087027
 40
0.2501360381
 40
0.2957094749
 40
0.3413557723
 40
0.3870500284
 40
0.4327540453
 40
0.4784630453
 40
0.5241775883
 40
0.5699021286
 40
0.6156284037
 40
0.6613467687
 40
0.707025587
 40
0.7526351221
 40
0.7981461063
 40
0.8433924179
 40
0.8874321287
 40
0.9290445058
 40
0.9670055754
 40
1.0
 40
1.0
 40
1.0
 40
1.0
 10
-59.0
 20
23.4650015971
 30
0.0
 10
-59.1256946703
 20
23.4650031111
 30
0.0
 10
-59.3953311481
 20
23.4793550161
 30
0.0
 10
-59.8165284996
 20
23.5504782855
 30
0.0
 10
-60.2632212612
 20
23.6859457842
 30
0.0
 10
-60.7101720936
 20
23.8912777983
 30
0.0
 10
-61.1342494126
 20
24.1641998975
 30
0.0
 10
-61.5183632129
 20
24.4975303658
 30
0.0
 10
-61.8515921733
 20
24.8829075493
 30
0.0
 10
-62.1267256708
 20
25.3124394061
 30
0.0
 10
-62.3378475961
 20
25.7773298881
 30
0.0
 10
-62.4803941455
 20
26.2678547754
 30
0.0
 10
-62.5513488892
 20
26.773796325
 30
0.0
 10
-62.5492292648
 20
27.2847614202
 30
0.0
 10
-62.4740460469
 20
27.790235553
 30
0.0
 10
-62.3273263751
 20
28.2797710621
 30
0.0
 10
-62.1121562947
 20
28.7431279306
 30
0.0
 10
-61.8331714089
 20
29.1705839397
 30
0.0
 10
-61.4964879843
 20
29.5532102854
 30
0.0
 10
-61.1098965075
 20
29.8828444215
 30
0.0
 10
-60.6853355321
 20
30.151054126
 30
0.0
 10
-60.2407585786
 20
30.3512455895
 30
0.0
 10
-59.7994864858
 20
30.4821824903
 30
0.0
 10
-59.3861460949
 20
30.5503272309
 30
0.0
 10
-59.1225054807
 20
30.5640022259
 30
0.0
 10
-59.0
 20
30.5640041063
 30
0.0
 11
-59.0
 21
23.4650015971
 31
0.0
 11
-59.3765502878
 21
23.4850573233
 31
0.0
 11
-59.8017444437
 21
23.556853131
 31
0.0
 11
-60.2516235143
 21
23.6932954204
 31
0.0
 11
-60.70131622
 21
23.8998859753
 31
0.0
 11
-61.1266436849
 21
24.1736111944
 31
0.0
 11
-61.5096559512
 21
24.5059808442
 31
0.0
 11
-61.8416858249
 21
24.8899668195
 31
0.0
 11
-62.1159308471
 21
25.3181062276
 31
0.0
 11
-62.3263904984
 21
25.7815325177
 31
0.0
 11
-62.4684554823
 21
26.2703938661
 31
0.0
 11
-62.5391678007
 21
26.7746003343
 31
0.0
 11
-62.5370554585
 21
27.2837985341
 31
0.0
 11
-62.4621244448
 21
27.78757034
 31
0.0
 11
-62.3158957644
 21
28.2754612549
 31
0.0
 11
-62.1014117356
 21
28.7373348616
 31
0.0
 11
-61.8233193693
 21
29.1634179649
 31
0.0
 11
-61.4877120299
 21
29.5448169249
 31
0.0
 11
-61.1019642694
 21
29.8737271785
 31
0.0
 11
-60.675878187
 21
30.1428992773
 31
0.0
 11
-60.2285873433
 21
30.3443125717
 31
0.0
 11
-59.7842294759
 21
30.4761732579
 31
0.0
 11
-59.3670223573
 21
30.544953529
 31
0.0
 11
-59.0
 21
30.5640041063
 31
0.0
  0
SPLINE
  5
470
100
AcDbEntity
  8
RACCORDO
100
AcDbSpline
 62
253
  6
CONTINUOUS
 70
0
 71
3
 72
30
 73
26
 74
24
 42
0.0000001
 43
0.0000001
 44
0.0000000001
 12
11.138744155
 22
-0.0001288433
 32
0.0
 13
-11.1387441544
 23
-0.0001761793
 33
0.0
 40
0.0
 40
0.0
 40
0.0
 40
0.0
 40
0.0335549865
 40
0.0719597854
 40
0.1138882758
 40
0.1581091745
 40
0.2034128752
 40
0.2489359495
 40
0.2945474844
 40
0.3402262756
 40
0.3859426348
 40
0.4316656886
 40
0.4773875583
 40
0.5231012615
 40
0.5688114893
 40
0.6145175536
 40
0.660212134
 40
0.7058562662
 40
0.751427573
 40
0.7969477665
 40
0.8423067301
 40
0.8865584873
 40
0.9284476141
 40
0.9667130854
 40
1.0
 40
1.0
 40
1.0
 40
1.0
 10
-59.0
 20
30.5640041063
 30
0.0
 10
-58.8754131968
 20
30.5640026651
 30
0.0
 10
-58.608033877
 20
30.5498964905
 30
0.0
 10
-58.1899940907
 20
30.4799185922
 30
0.0
 10
-57.745828512
 20
30.3463535507
 30
0.0
 10
-57.3002532237
 20
30.1433275236
 30
0.0
 10
-56.8761979934
 20
29.8725722582
 30
0.0
 10
-56.4910314754
 20
29.5408647117
 30
0.0
 10
-56.1562090765
 20
29.1565391573
 30
0.0
 10
-55.8793414812
 20
28.7277088792
 30
0.0
 10
-55.6664715461
 20
28.2633125298
 30
0.0
 10
-55.5221762012
 20
27.7730878933
 30
0.0
 10
-55.449485245
 20
27.2672748848
 30
0.0
 10
-55.4498774989
 20
26.7563140966
 30
0.0
 10
-55.5233202709
 20
26.250718422
 30
0.0
 10
-55.6682835586
 20
25.7608881073
 30
0.0
 10
-55.88169385
 20
25.2970427276
 30
0.0
 10
-56.1589315403
 20
24.8688837743
 30
0.0
 10
-56.4940244014
 20
24.4851828875
 30
0.0
 10
-56.8796023048
 20
24.1538847179
 30
0.0
 10
-57.3042531778
 20
23.8834782856
 30
0.0
 10
-57.7502645449
 20
23.6809846376
 30
0.0
 10
-58.1940793079
 20
23.5481753012
 30
0.0
 10
-58.6105466295
 20
23.4789161571
 30
0.0
 10
-58.8764085249
 20
23.4650035519
 30
0.0
 10
-59.0
 20
23.4650015971
 30
0.0
 11
-59.0
 21
30.5640041063
 31
0.0
 11
-58.6267593186
 21
30.5443003584
 31
0.0
 11
-58.2048481178
 21
30.4736765769
 31
0.0
 11
-57.7576036077
 21
30.3391773269
 31
0.0
 11
-57.3093749433
 21
30.1349431069
 31
0.0
 11
-56.8840508612
 21
29.8633788238
 31
0.0
 11
-56.4998247762
 21
29.5324858245
 31
0.0
 11
-56.1660922477
 21
29.149415722
 31
0.0
 11
-55.8901104515
 21
28.7219628778
 31
0.0
 11
-55.6779203283
 21
28.2590554995
 31
0.0
 11
-55.5341096258
 21
27.7704837839
 31
0.0
 11
-55.4616631661
 21
27.2663787197
 31
0.0
 11
-55.4620540524
 21
26.757185625
 31
0.0
 11
-55.5352465593
 21
26.2533193773
 31
0.0
 11
-55.6797227341
 21
25.7651413871
 31
0.0
 11
-55.8924647288
 21
25.3027543975
 31
0.0
 11
-56.1688021089
 21
24.8759911953
 31
0.0
 11
-56.5027015787
 21
24.4936613117
 31
0.0
 11
-56.8872797855
 21
24.1632268664
 31
0.0
 11
-57.3134543946
 21
23.8918515349
 31
0.0
 11
-57.7622728799
 21
23.6880838936
 31
0.0
 11
-58.2092777235
 21
23.5543116503
 31
0.0
 11
-58.6297329221
 21
23.4843914249
 31
0.0
 11
-59.0
 21
23.4650015971
 31
0.0
  0
SPLINE
  5
471
100
AcDbEntity
  8
RACCORDO
100
AcDbSpline
 62
253
  6
CONTINUOUS
 70
0
 71
3
 72
30
 73
26
 74
24
 42
0.0000001
 43
0.0000001
 44
0.0000000001
 12
11.138744155
 22
-0.0001288433
 32
0.0
 13
-11.1387441544
 23
-0.0001761793
 33
0.0
 40
0.0
 40
0.0
 40
0.0
 40
0.0
 40
0.0335549865
 40
0.0719597854
 40
0.1138882758
 40
0.1581091745
 40
0.2034128752
 40
0.2489359495
 40
0.2945474844
 40
0.3402262756
 40
0.3859426348
 40
0.4316656886
 40
0.4773875583
 40
0.5231012615
 40
0.5688114893
 40
0.6145175536
 40
0.660212134
 40
0.7058562662
 40
0.751427573
 40
0.7969477665
 40
0.8423067301
 40
0.8865584873
 40
0.9284476141
 40
0.9667130854
 40
1.0
 40
1.0
 40
1.0
 40
1.0
 10
59.0
 20
30.5640041063
 30
0.0
 10
59.1245868033
 20
30.5640026651
 30
0.0
 10
59.391966123
 20
30.5498964905
 30
0.0
 10
59.8100059093
 20
30.4799185922
 30
0.0
 10
60.254171488
 20
30.3463535507
 30
0.0
 10
60.6997467763
 20
30.1433275236
 30
0.0
 10
61.1238020066
 20
29.8725722582
 30
0.0
 10
61.5089685246
 20
29.5408647117
 30
0.0
 10
61.8437909235
 20
29.1565391573
 30
0.0
 10
62.1206585188
 20
28.7277088791
 30
0.0
 10
62.3335284539
 20
28.2633125298
 30
0.0
 10
62.4778237988
 20
27.7730878932
 30
0.0
 10
62.550514755
 20
27.2672748848
 30
0.0
 10
62.5501225011
 20
26.7563140966
 30
0.0
 10
62.4766797291
 20
26.250718422
 30
0.0
 10
62.3317164414
 20
25.7608881073
 30
0.0
 10
62.11830615
 20
25.2970427276
 30
0.0
 10
61.8410684597
 20
24.8688837743
 30
0.0
 10
61.5059755986
 20
24.4851828875
 30
0.0
 10
61.1203976952
 20
24.1538847179
 30
0.0
 10
60.6957468222
 20
23.8834782856
 30
0.0
 10
60.2497354551
 20
23.6809846376
 30
0.0
 10
59.8059206921
 20
23.5481753012
 30
0.0
 10
59.3894533705
 20
23.4789161571
 30
0.0
 10
59.1235914751
 20
23.4650035519
 30
0.0
 10
59.0
 20
23.4650015971
 30
0.0
 11
59.0
 21
30.5640041063
 31
0.0
 11
59.3732406814
 21
30.5443003584
 31
0.0
 11
59.7951518823
 21
30.4736765769
 31
0.0
 11
60.2423963923
 21
30.3391773269
 31
0.0
 11
60.6906250567
 21
30.1349431069
 31
0.0
 11
61.1159491389
 21
29.8633788238
 31
0.0
 11
61.5001752238
 21
29.5324858245
 31
0.0
 11
61.8339077524
 21
29.149415722
 31
0.0
 11
62.1098895485
 21
28.7219628778
 31
0.0
 11
62.3220796717
 21
28.2590554995
 31
0.0
 11
62.4658903742
 21
27.7704837838
 31
0.0
 11
62.5383368339
 21
27.2663787197
 31
0.0
 11
62.5379459476
 21
26.757185625
 31
0.0
 11
62.4647534407
 21
26.2533193773
 31
0.0
 11
62.3202772659
 21
25.7651413871
 31
0.0
 11
62.1075352712
 21
25.3027543975
 31
0.0
 11
61.8311978911
 21
24.8759911953
 31
0.0
 11
61.4972984213
 21
24.4936613117
 31
0.0
 11
61.1127202145
 21
24.1632268664
 31
0.0
 11
60.6865456054
 21
23.8918515349
 31
0.0
 11
60.2377271201
 21
23.6880838936
 31
0.0
 11
59.7907222765
 21
23.5543116503
 31
0.0
 11
59.3702670779
 21
23.4843914249
 31
0.0
 11
59.0
 21
23.4650015971
 31
0.0
  0
SPLINE
  5
472
100
AcDbEntity
  8
RACCORDO
100
AcDbSpline
 62
253
  6
CONTINUOUS
 70
0
 71
3
 72
30
 73
26
 74
24
 42
0.0000001
 43
0.0000001
 44
0.0000000001
 12
-11.1387437835
 22
0.0001341667
 32
0.0
 13
11.138743783
 23
0.0001709668
 33
0.0
 40
0.0
 40
0.0
 40
0.0
 40
0.0
 40
0.0338533697
 40
0.0725662689
 40
0.1147716149
 40
0.1592000488
 40
0.2046087027
 40
0.2501360381
 40
0.2957094749
 40
0.3413557723
 40
0.3870500284
 40
0.4327540453
 40
0.4784630453
 40
0.5241775883
 40
0.5699021286
 40
0.6156284037
 40
0.6613467687
 40
0.707025587
 40
0.7526351221
 40
0.7981461063
 40
0.8433924179
 40
0.8874321287
 40
0.9290445058
 40
0.9670055754
 40
1.0
 40
1.0
 40
1.0
 40
1.0
 10
59.0
 20
23.4650015971
 30
0.0
 10
58.8743053297
 20
23.4650031111
 30
0.0
 10
58.6046688519
 20
23.4793550161
 30
0.0
 10
58.1834715004
 20
23.5504782855
 30
0.0
 10
57.7367787388
 20
23.6859457842
 30
0.0
 10
57.2898279064
 20
23.8912777983
 30
0.0
 10
56.8657505874
 20
24.1641998975
 30
0.0
 10
56.4816367871
 20
24.4975303658
 30
0.0
 10
56.1484078267
 20
24.8829075493
 30
0.0
 10
55.8732743292
 20
25.3124394061
 30
0.0
 10
55.6621524039
 20
25.7773298881
 30
0.0
 10
55.5196058545
 20
26.2678547754
 30
0.0
 10
55.4486511108
 20
26.773796325
 30
0.0
 10
55.4507707352
 20
27.2847614202
 30
0.0
 10
55.5259539531
 20
27.790235553
 30
0.0
 10
55.6726736249
 20
28.2797710621
 30
0.0
 10
55.8878437053
 20
28.7431279306
 30
0.0
 10
56.1668285911
 20
29.1705839397
 30
0.0
 10
56.5035120157
 20
29.5532102854
 30
0.0
 10
56.8901034924
 20
29.8828444215
 30
0.0
 10
57.3146644679
 20
30.151054126
 30
0.0
 10
57.7592414213
 20
30.3512455895
 30
0.0
 10
58.2005135142
 20
30.4821824903
 30
0.0
 10
58.6138539051
 20
30.5503272309
 30
0.0
 10
58.8774945193
 20
30.5640022259
 30
0.0
 10
59.0
 20
30.5640041063
 30
0.0
 11
59.0
 21
23.4650015971
 31
0.0
 11
58.6234497122
 21
23.4850573233
 31
0.0
 11
58.1982555563
 21
23.556853131
 31
0.0
 11
57.7483764857
 21
23.6932954204
 31
0.0
 11
57.29868378
 21
23.8998859753
 31
0.0
 11
56.8733563152
 21
24.1736111944
 31
0.0
 11
56.4903440488
 21
24.5059808442
 31
0.0
 11
56.1583141751
 21
24.8899668195
 31
0.0
 11
55.8840691529
 21
25.3181062276
 31
0.0
 11
55.6736095016
 21
25.7815325177
 31
0.0
 11
55.5315445177
 21
26.2703938661
 31
0.0
 11
55.4608321993
 21
26.7746003343
 31
0.0
 11
55.4629445415
 21
27.2837985341
 31
0.0
 11
55.5378755552
 21
27.78757034
 31
0.0
 11
55.6841042356
 21
28.2754612549
 31
0.0
 11
55.8985882644
 21
28.7373348616
 31
0.0
 11
56.1766806307
 21
29.1634179649
 31
0.0
 11
56.5122879701
 21
29.5448169249
 31
0.0
 11
56.8980357306
 21
29.8737271784
 31
0.0
 11
57.324121813
 21
30.1428992773
 31
0.0
 11
57.7714126567
 21
30.3443125717
 31
0.0
 11
58.215770524
 21
30.4761732579
 31
0.0
 11
58.6329776427
 21
30.544953529
 31
0.0
 11
59.0
 21
30.5640041063
 31
0.0
  0
SPLINE
  5
473
100
AcDbEntity
  8
RACCORDO
100
AcDbSpline
 62
253
  6
CONTINUOUS
 70
0
 71
3
 72
30
 73
26
 74
24
 42
0.0000001
 43
0.0000001
 44
0.0000000001
 12
11.1387437835
 22
-0.0001341667
 32
0.0
 13
-11.138743783
 23
-0.0001709668
 33
0.0
 40
0.0
 40
0.0
 40
0.0
 40
0.0
 40
0.0338533697
 40
0.0725662689
 40
0.1147716149
 40
0.1592000488
 40
0.2046087027
 40
0.2501360381
 40
0.2957094749
 40
0.3413557723
 40
0.3870500284
 40
0.4327540453
 40
0.4784630453
 40
0.5241775883
 40
0.5699021286
 40
0.6156284037
 40
0.6613467687
 40
0.707025587
 40
0.7526351221
 40
0.7981461063
 40
0.8433924179
 40
0.8874321287
 40
0.9290445058
 40
0.9670055754
 40
1.0
 40
1.0
 40
1.0
 40
1.0
 10
59.0
 20
-23.4650015971
 30
0.0
 10
59.1256946703
 20
-23.4650031111
 30
0.0
 10
59.3953311481
 20
-23.4793550161
 30
0.0
 10
59.8165284996
 20
-23.5504782855
 30
0.0
 10
60.2632212612
 20
-23.6859457842
 30
0.0
 10
60.7101720936
 20
-23.8912777983
 30
0.0
 10
61.1342494126
 20
-24.1641998975
 30
0.0
 10
61.5183632129
 20
-24.4975303658
 30
0.0
 10
61.8515921733
 20
-24.8829075493
 30
0.0
 10
62.1267256708
 20
-25.3124394061
 30
0.0
 10
62.3378475961
 20
-25.7773298881
 30
0.0
 10
62.4803941455
 20
-26.2678547755
 30
0.0
 10
62.5513488892
 20
-26.773796325
 30
0.0
 10
62.5492292648
 20
-27.2847614202
 30
0.0
 10
62.4740460469
 20
-27.790235553
 30
0.0
 10
62.3273263751
 20
-28.2797710621
 30
0.0
 10
62.1121562947
 20
-28.7431279306
 30
0.0
 10
61.8331714089
 20
-29.1705839397
 30
0.0
 10
61.4964879843
 20
-29.5532102854
 30
0.0
 10
61.1098965076
 20
-29.8828444215
 30
0.0
 10
60.6853355321
 20
-30.151054126
 30
0.0
 10
60.2407585787
 20
-30.3512455895
 30
0.0
 10
59.7994864858
 20
-30.4821824903
 30
0.0
 10
59.3861460949
 20
-30.5503272309
 30
0.0
 10
59.1225054807
 20
-30.5640022259
 30
0.0
 10
59.0
 20
-30.5640041063
 30
0.0
 11
59.0
 21
-23.4650015971
 31
0.0
 11
59.3765502878
 21
-23.4850573233
 31
0.0
 11
59.8017444437
 21
-23.556853131
 31
0.0
 11
60.2516235143
 21
-23.6932954204
 31
0.0
 11
60.70131622
 21
-23.8998859753
 31
0.0
 11
61.1266436849
 21
-24.1736111944
 31
0.0
 11
61.5096559512
 21
-24.5059808442
 31
0.0
 11
61.8416858249
 21
-24.8899668195
 31
0.0
 11
62.1159308471
 21
-25.3181062276
 31
0.0
 11
62.3263904984
 21
-25.7815325177
 31
0.0
 11
62.4684554823
 21
-26.2703938661
 31
0.0
 11
62.5391678007
 21
-26.7746003343
 31
0.0
 11
62.5370554585
 21
-27.2837985341
 31
0.0
 11
62.4621244448
 21
-27.78757034
 31
0.0
 11
62.3158957644
 21
-28.2754612549
 31
0.0
 11
62.1014117356
 21
-28.7373348616
 31
0.0
 11
61.8233193693
 21
-29.1634179649
 31
0.0
 11
61.4877120299
 21
-29.5448169249
 31
0.0
 11
61.1019642694
 21
-29.8737271785
 31
0.0
 11
60.675878187
 21
-30.1428992773
 31
0.0
 11
60.2285873433
 21
-30.3443125717
 31
0.0
 11
59.784229476
 21
-30.4761732579
 31
0.0
 11
59.3670223573
 21
-30.544953529
 31
0.0
 11
59.0
 21
-30.5640041063
 31
0.0
  0
SPLINE
  5
474
100
AcDbEntity
  8
RACCORDO
100
AcDbSpline
 62
253
  6
CONTINUOUS
 70
0
 71
3
 72
30
 73
26
 74
24
 42
0.0000001
 43
0.0000001
 44
0.0000000001
 12
-11.138744155
 22
0.0001288433
 32
0.0
 13
11.1387441544
 23
0.0001761793
 33
0.0
 40
0.0
 40
0.0
 40
0.0
 40
0.0
 40
0.0335549865
 40
0.0719597854
 40
0.1138882758
 40
0.1581091745
 40
0.2034128752
 40
0.2489359495
 40
0.2945474844
 40
0.3402262756
 40
0.3859426348
 40
0.4316656886
 40
0.4773875583
 40
0.5231012615
 40
0.5688114893
 40
0.6145175536
 40
0.660212134
 40
0.7058562662
 40
0.751427573
 40
0.7969477665
 40
0.8423067301
 40
0.8865584873
 40
0.9284476141
 40
0.9667130854
 40
1.0
 40
1.0
 40
1.0
 40
1.0
 10
59.0
 20
-30.5640041063
 30
0.0
 10
58.8754131967
 20
-30.5640026651
 30
0.0
 10
58.608033877
 20
-30.5498964905
 30
0.0
 10
58.1899940907
 20
-30.4799185922
 30
0.0
 10
57.745828512
 20
-30.3463535507
 30
0.0
 10
57.3002532237
 20
-30.1433275236
 30
0.0
 10
56.8761979934
 20
-29.8725722582
 30
0.0
 10
56.4910314754
 20
-29.5408647116
 30
0.0
 10
56.1562090764
 20
-29.1565391573
 30
0.0
 10
55.8793414812
 20
-28.7277088791
 30
0.0
 10
55.6664715461
 20
-28.2633125298
 30
0.0
 10
55.5221762012
 20
-27.7730878932
 30
0.0
 10
55.449485245
 20
-27.2672748848
 30
0.0
 10
55.4498774989
 20
-26.7563140966
 30
0.0
 10
55.5233202709
 20
-26.250718422
 30
0.0
 10
55.6682835586
 20
-25.7608881073
 30
0.0
 10
55.88169385
 20
-25.2970427276
 30
0.0
 10
56.1589315403
 20
-24.8688837743
 30
0.0
 10
56.4940244014
 20
-24.4851828875
 30
0.0
 10
56.8796023048
 20
-24.1538847179
 30
0.0
 10
57.3042531778
 20
-23.8834782856
 30
0.0
 10
57.7502645449
 20
-23.6809846376
 30
0.0
 10
58.1940793079
 20
-23.5481753012
 30
0.0
 10
58.6105466295
 20
-23.4789161571
 30
0.0
 10
58.8764085249
 20
-23.4650035519
 30
0.0
 10
59.0
 20
-23.4650015971
 30
0.0
 11
59.0
 21
-30.5640041063
 31
0.0
 11
58.6267593186
 21
-30.5443003584
 31
0.0
 11
58.2048481177
 21
-30.4736765769
 31
0.0
 11
57.7576036076
 21
-30.3391773269
 31
0.0
 11
57.3093749433
 21
-30.1349431069
 31
0.0
 11
56.8840508611
 21
-29.8633788237
 31
0.0
 11
56.4998247762
 21
-29.5324858245
 31
0.0
 11
56.1660922476
 21
-29.149415722
 31
0.0
 11
55.8901104515
 21
-28.7219628778
 31
0.0
 11
55.6779203282
 21
-28.2590554994
 31
0.0
 11
55.5341096258
 21
-27.7704837838
 31
0.0
 11
55.4616631661
 21
-27.2663787197
 31
0.0
 11
55.4620540524
 21
-26.757185625
 31
0.0
 11
55.5352465593
 21
-26.2533193772
 31
0.0
 11
55.6797227341
 21
-25.7651413871
 31
0.0
 11
55.8924647288
 21
-25.3027543975
 31
0.0
 11
56.1688021089
 21
-24.8759911953
 31
0.0
 11
56.5027015787
 21
-24.4936613117
 31
0.0
 11
56.8872797855
 21
-24.1632268664
 31
0.0
 11
57.3134543946
 21
-23.8918515349
 31
0.0
 11
57.7622728799
 21
-23.6880838936
 31
0.0
 11
58.2092777235
 21
-23.5543116503
 31
0.0
 11
58.6297329221
 21
-23.4843914249
 31
0.0
 11
59.0
 21
-23.4650015971
 31
0.0
  0
SPLINE
  5
475
100
AcDbEntity
  8
RACCORDO
100
AcDbSpline
 62
253
  6
CONTINUOUS
 70
0
 71
3
 72
30
 73
26
 74
24
 42
0.0000001
 43
0.0000001
 44
0.0000000001
 12
-11.138744155
 22
0.0001288433
 32
0.0
 13
11.1387441544
 23
0.0001761793
 33
0.0
 40
0.0
 40
0.0
 40
0.0
 40
0.0
 40
0.0335549865
 40
0.0719597854
 40
0.1138882758
 40
0.1581091745
 40
0.2034128752
 40
0.2489359495
 40
0.2945474844
 40
0.3402262756
 40
0.3859426348
 40
0.4316656886
 40
0.4773875583
 40
0.5231012615
 40
0.5688114893
 40
0.6145175536
 40
0.660212134
 40
0.7058562662
 40
0.751427573
 40
0.7969477665
 40
0.8423067301
 40
0.8865584873
 40
0.9284476141
 40
0.9667130854
 40
1.0
 40
1.0
 40
1.0
 40
1.0
 10
-59.0
 20
-30.5640041063
 30
0.0
 10
-59.1245868033
 20
-30.5640026651
 30
0.0
 10
-59.391966123
 20
-30.5498964905
 30
0.0
 10
-59.8100059093
 20
-30.4799185922
 30
0.0
 10
-60.254171488
 20
-30.3463535507
 30
0.0
 10
-60.6997467763
 20
-30.1433275236
 30
0.0
 10
-61.1238020066
 20
-29.8725722582
 30
0.0
 10
-61.5089685246
 20
-29.5408647117
 30
0.0
 10
-61.8437909235
 20
-29.1565391573
 30
0.0
 10
-62.1206585188
 20
-28.7277088791
 30
0.0
 10
-62.3335284539
 20
-28.2633125298
 30
0.0
 10
-62.4778237988
 20
-27.7730878932
 30
0.0
 10
-62.550514755
 20
-27.2672748848
 30
0.0
 10
-62.5501225011
 20
-26.7563140966
 30
0.0
 10
-62.4766797291
 20
-26.250718422
 30
0.0
 10
-62.3317164414
 20
-25.7608881073
 30
0.0
 10
-62.11830615
 20
-25.2970427276
 30
0.0
 10
-61.8410684597
 20
-24.8688837743
 30
0.0
 10
-61.5059755986
 20
-24.4851828875
 30
0.0
 10
-61.1203976952
 20
-24.1538847179
 30
0.0
 10
-60.6957468222
 20
-23.8834782856
 30
0.0
 10
-60.2497354551
 20
-23.6809846376
 30
0.0
 10
-59.8059206921
 20
-23.5481753012
 30
0.0
 10
-59.3894533705
 20
-23.4789161571
 30
0.0
 10
-59.1235914751
 20
-23.4650035519
 30
0.0
 10
-59.0
 20
-23.4650015971
 30
0.0
 11
-59.0
 21
-30.5640041063
 31
0.0
 11
-59.3732406814
 21
-30.5443003584
 31
0.0
 11
-59.7951518823
 21
-30.4736765769
 31
0.0
 11
-60.2423963923
 21
-30.3391773269
 31
0.0
 11
-60.6906250567
 21
-30.1349431069
 31
0.0
 11
-61.1159491389
 21
-29.8633788237
 31
0.0
 11
-61.5001752238
 21
-29.5324858245
 31
0.0
 11
-61.8339077524
 21
-29.149415722
 31
0.0
 11
-62.1098895485
 21
-28.7219628778
 31
0.0
 11
-62.3220796717
 21
-28.2590554994
 31
0.0
 11
-62.4658903742
 21
-27.7704837838
 31
0.0
 11
-62.5383368339
 21
-27.2663787197
 31
0.0
 11
-62.5379459476
 21
-26.757185625
 31
0.0
 11
-62.4647534407
 21
-26.2533193773
 31
0.0
 11
-62.3202772659
 21
-25.7651413871
 31
0.0
 11
-62.1075352712
 21
-25.3027543975
 31
0.0
 11
-61.8311978911
 21
-24.8759911953
 31
0.0
 11
-61.4972984213
 21
-24.4936613117
 31
0.0
 11
-61.1127202145
 21
-24.1632268664
 31
0.0
 11
-60.6865456054
 21
-23.8918515349
 31
0.0
 11
-60.2377271201
 21
-23.6880838936
 31
0.0
 11
-59.7907222765
 21
-23.5543116503
 31
0.0
 11
-59.3702670779
 21
-23.4843914249
 31
0.0
 11
-59.0
 21
-23.4650015971
 31
0.0
  0
SPLINE
  5
476
100
AcDbEntity
  8
RACCORDO
100
AcDbSpline
 62
253
  6
CONTINUOUS
 70
0
 71
3
 72
30
 73
26
 74
24
 42
0.0000001
 43
0.0000001
 44
0.0000000001
 12
11.1387437835
 22
-0.0001341667
 32
0.0
 13
-11.138743783
 23
-0.0001709668
 33
0.0
 40
0.0
 40
0.0
 40
0.0
 40
0.0
 40
0.0338533697
 40
0.0725662689
 40
0.1147716149
 40
0.1592000488
 40
0.2046087027
 40
0.2501360381
 40
0.2957094749
 40
0.3413557723
 40
0.3870500284
 40
0.4327540453
 40
0.4784630453
 40
0.5241775883
 40
0.5699021286
 40
0.6156284037
 40
0.6613467687
 40
0.707025587
 40
0.7526351221
 40
0.7981461063
 40
0.8433924179
 40
0.8874321287
 40
0.9290445058
 40
0.9670055754
 40
1.0
 40
1.0
 40
1.0
 40
1.0
 10
-59.0
 20
-23.4650015971
 30
0.0
 10
-58.8743053297
 20
-23.4650031111
 30
0.0
 10
-58.6046688519
 20
-23.4793550161
 30
0.0
 10
-58.1834715004
 20
-23.5504782855
 30
0.0
 10
-57.7367787388
 20
-23.6859457842
 30
0.0
 10
-57.2898279064
 20
-23.8912777983
 30
0.0
 10
-56.8657505874
 20
-24.1641998975
 30
0.0
 10
-56.4816367871
 20
-24.4975303658
 30
0.0
 10
-56.1484078267
 20
-24.8829075493
 30
0.0
 10
-55.8732743292
 20
-25.3124394061
 30
0.0
 10
-55.6621524039
 20
-25.7773298881
 30
0.0
 10
-55.5196058545
 20
-26.2678547754
 30
0.0
 10
-55.4486511108
 20
-26.773796325
 30
0.0
 10
-55.4507707352
 20
-27.2847614202
 30
0.0
 10
-55.5259539531
 20
-27.790235553
 30
0.0
 10
-55.6726736249
 20
-28.2797710621
 30
0.0
 10
-55.8878437053
 20
-28.7431279306
 30
0.0
 10
-56.1668285911
 20
-29.1705839397
 30
0.0
 10
-56.5035120157
 20
-29.5532102854
 30
0.0
 10
-56.8901034924
 20
-29.8828444215
 30
0.0
 10
-57.3146644679
 20
-30.151054126
 30
0.0
 10
-57.7592414213
 20
-30.3512455895
 30
0.0
 10
-58.2005135142
 20
-30.4821824903
 30
0.0
 10
-58.6138539051
 20
-30.5503272309
 30
0.0
 10
-58.8774945193
 20
-30.5640022259
 30
0.0
 10
-59.0
 20
-30.5640041063
 30
0.0
 11
-59.0
 21
-23.4650015971
 31
0.0
 11
-58.6234497122
 21
-23.4850573233
 31
0.0
 11
-58.1982555563
 21
-23.556853131
 31
0.0
 11
-57.7483764857
 21
-23.6932954204
 31
0.0
 11
-57.29868378
 21
-23.8998859753
 31
0.0
 11
-56.8733563151
 21
-24.1736111944
 31
0.0
 11
-56.4903440488
 21
-24.5059808442
 31
0.0
 11
-56.1583141751
 21
-24.8899668195
 31
0.0
 11
-55.8840691529
 21
-25.3181062276
 31
0.0
 11
-55.6736095016
 21
-25.7815325177
 31
0.0
 11
-55.5315445177
 21
-26.2703938661
 31
0.0
 11
-55.4608321993
 21
-26.7746003343
 31
0.0
 11
-55.4629445415
 21
-27.2837985341
 31
0.0
 11
-55.5378755552
 21
-27.78757034
 31
0.0
 11
-55.6841042356
 21
-28.2754612549
 31
0.0
 11
-55.8985882644
 21
-28.7373348616
 31
0.0
 11
-56.1766806307
 21
-29.1634179649
 31
0.0
 11
-56.5122879701
 21
-29.5448169249
 31
0.0
 11
-56.8980357306
 21
-29.8737271785
 31
0.0
 11
-57.324121813
 21
-30.1428992773
 31
0.0
 11
-57.7714126567
 21
-30.3443125717
 31
0.0
 11
-58.215770524
 21
-30.4761732579
 31
0.0
 11
-58.6329776427
 21
-30.544953529
 31
0.0
 11
-59.0
 21
-30.5640041063
 31
0.0
  0
SPLINE
  5
477
100
AcDbEntity
  8
RACCORDO
100
AcDbSpline
 62
253
  6
CONTINUOUS
 70
0
 71
3
 72
15
 73
11
 74
9
 42
0.0000001
 43
0.0000001
 44
0.0000000001
 12
-1.5230842917
 22
0.0013953209
 32
0.0
 13
-0.1247884706
 23
1.5179642763
 33
0.0
 40
0.0
 40
0.0
 40
0.0
 40
0.0
 40
0.1910974224
 40
0.3750186699
 40
0.5448671199
 40
0.6943071647
 40
0.8178375392
 40
0.9110887931
 40
0.9713290369
 40
1.0
 40
1.0
 40
1.0
 40
1.0
 10
-66.3903975948
 20
-36.9484728291
 30
0.0
 10
-66.4874167555
 20
-36.9483839483
 30
0.0
 10
-66.6778057554
 20
-36.9462833477
 30
0.0
 10
-66.9543550298
 20
-36.9373774987
 30
0.0
 10
-67.2093219924
 20
-36.9232565056
 30
0.0
 10
-67.4338200026
 20
-36.9041061554
 30
0.0
 10
-67.6171983447
 20
-36.8821121805
 30
0.0
 10
-67.7586773609
 20
-36.8551560288
 30
0.0
 10
-67.8417876748
 20
-36.8324832232
 30
0.0
 10
-67.8891478775
 20
-36.8046295793
 30
0.0
 10
-67.8903404794
 20
-36.7901224134
 30
0.0
 11
-66.3903975948
 21
-36.9484728291
 31
0.0
 11
-66.6814367636
 21
-36.9451969644
 31
0.0
 11
-66.961414319
 21
-36.936027128
 31
0.0
 11
-67.2196890692
 21
-36.9213118406
 31
0.0
 11
-67.4464446876
 21
-36.9016103905
 31
0.0
 11
-67.6330628046
 21
-36.8776715769
 31
0.0
 11
-67.772450569
 21
-36.8504052494
 31
0.0
 11
-67.8593102277
 21
-36.8208477277
 31
0.0
 11
-67.8903404794
 21
-36.7901224134
 31
0.0
  0
SPLINE
  5
478
100
AcDbEntity
  8
RACCORDO
100
AcDbSpline
 62
253
  6
CONTINUOUS
 70
0
 71
3
 72
12
 73
8
 74
6
 42
0.0000001
 43
0.0000001
 44
0.0000000001
 12
0.2512499761
 22
0.0002789857
 32
0.0
 13
0.0662132374
 23
0.242368388
 33
0.0
 40
0.0
 40
0.0
 40
0.0
 40
0.0
 40
0.3041995079
 40
0.5794076307
 40
0.7994508743
 40
0.943633745
 40
1.0
 40
1.0
 40
1.0
 40
1.0
 10
-50.2943514279
 20
-22.3103635528
 30
0.0
 10
-50.2688747215
 20
-22.3103352636
 30
0.0
 10
-50.2200828413
 20
-22.3099610086
 30
0.0
 10
-50.1541851605
 20
-22.3073097648
 30
0.0
 10
-50.0980484711
 20
-22.3055930122
 30
0.0
 10
-50.0682599809
 20
-22.2991375377
 30
0.0
 10
-50.0456335682
 20
-22.2989813798
 30
0.0
 10
-50.0443895041
 20
-22.2944275803
 30
0.0
 11
-50.2943514279
 21
-22.3103635528
 31
0.0
 11
-50.2179259635
 21
-22.3095157914
 31
0.0
 11
-50.1488178967
 21
-22.3072234009
 31
0.0
 11
-50.093644017
 21
-22.3037058674
 31
0.0
 11
-50.0576869773
 21
-22.2992999792
 31
0.0
 11
-50.0443895041
 21
-22.2944275803
 31
0.0
  0
SPLINE
  5
479
100
AcDbEntity
  8
RACCORDO
100
AcDbSpline
 62
253
  6
CONTINUOUS
 70
0
 71
3
 72
12
 73
8
 74
6
 42
0.0000001
 43
0.0000001
 44
0.0000000001
 12
-0.2512499057
 22
0.0002789929
 32
0.0
 13
-0.0662128756
 23
0.2423684139
 33
0.0
 40
0.0
 40
0.0
 40
0.0
 40
0.0
 40
0.3041995619
 40
0.5794076967
 40
0.7994509257
 40
0.9436337698
 40
1.0
 40
1.0
 40
1.0
 40
1.0
 10
50.2943514279
 20
-22.31036356
 30
0.0
 10
50.2688747242
 20
-22.3103352701
 30
0.0
 10
50.2200828514
 20
-22.3099610137
 30
0.0
 10
50.154185187
 20
-22.3073097687
 30
0.0
 10
50.0980485108
 20
-22.3055930133
 30
0.0
 10
50.0682600438
 20
-22.2991375414
 30
0.0
 10
50.0456336326
 20
-22.2989813783
 30
0.0
 10
50.0443895759
 20
-22.2944275803
 30
0.0
 11
50.2943514279
 21
-22.31036356
 31
0.0
 11
50.2179259714
 21
-22.3095157964
 31
0.0
 11
50.148817921
 21
-22.3072234041
 31
0.0
 11
50.0936440605
 21
-22.3037058692
 31
0.0
 11
50.057687038
 21
-22.2992999799
 31
0.0
 11
50.0443895759
 21
-22.2944275803
 31
0.0
  0
SPLINE
  5
47A
100
AcDbEntity
  8
RACCORDO
100
AcDbSpline
 62
253
  6
CONTINUOUS
 70
0
 71
3
 72
12
 73
8
 74
6
 42
0.0000001
 43
0.0000001
 44
0.0000000001
 12
-0.2512499761
 22
-0.0002789857
 32
0.0
 13
-0.0662132374
 23
-0.242368388
 33
0.0
 40
0.0
 40
0.0
 40
0.0
 40
0.0
 40
0.3041995079
 40
0.5794076307
 40
0.7994508743
 40
0.943633745
 40
1.0
 40
1.0
 40
1.0
 40
1.0
 10
50.2943514279
 20
22.3103635528
 30
0.0
 10
50.2688747215
 20
22.3103352636
 30
0.0
 10
50.2200828413
 20
22.3099610086
 30
0.0
 10
50.1541851605
 20
22.3073097648
 30
0.0
 10
50.0980484711
 20
22.3055930122
 30
0.0
 10
50.0682599809
 20
22.2991375377
 30
0.0
 10
50.0456335682
 20
22.2989813798
 30
0.0
 10
50.0443895041
 20
22.2944275803
 30
0.0
 11
50.2943514279
 21
22.3103635528
 31
0.0
 11
50.2179259635
 21
22.3095157914
 31
0.0
 11
50.1488178967
 21
22.3072234009
 31
0.0
 11
50.093644017
 21
22.3037058674
 31
0.0
 11
50.0576869773
 21
22.2992999792
 31
0.0
 11
50.0443895041
 21
22.2944275803
 31
0.0
  0
SPLINE
  5
47B
100
AcDbEntity
  8
RACCORDO
100
AcDbSpline
 62
253
  6
CONTINUOUS
 70
0
 71
3
 72
12
 73
8
 74
6
 42
0.0000001
 43
0.0000001
 44
0.0000000001
 12
0.2512500958
 22
-0.0002789729
 32
0.0
 13
0.0662132084
 23
-0.2423685201
 33
0.0
 40
0.0
 40
0.0
 40
0.0
 40
0.0
 40
0.3041994553
 40
0.5794075858
 40
0.7994508613
 40
0.9436337559
 40
1.0
 40
1.0
 40
1.0
 40
1.0
 10
-50.2943514279
 20
22.3103635228
 30
0.0
 10
-50.2688747138
 20
22.310335235
 30
0.0
 10
-50.2200828137
 20
22.3099609832
 30
0.0
 10
-50.1541851038
 20
22.3073097427
 30
0.0
 10
-50.098048378
 20
22.3055930015
 30
0.0
 10
-50.0682598768
 20
22.2991375219
 30
0.0
 10
-50.0456334432
 20
22.2989813814
 30
0.0
 10
-50.0443893799
 20
22.2944275803
 30
0.0
 11
-50.2943514279
 21
22.3103635228
 31
0.0
 11
-50.2179259403
 21
22.3095157661
 31
0.0
 11
-50.1488178384
 21
22.3072233812
 31
0.0
 11
-50.0936439238
 21
22.303705854
 31
0.0
 11
-50.0576868599
 21
22.2992999724
 31
0.0
 11
-50.0443893799
 21
22.2944275803
 31
0.0
  0
SPLINE
  5
47C
100
AcDbEntity
  8
RACCORDO
100
AcDbSpline
 62
253
  6
CONTINUOUS
 70
0
 71
3
 72
14
 73
10
 74
8
 42
0.0000001
 43
0.0000001
 44
0.0000000001
 12
0.0007598099
 22
0.3917117498
 32
0.0
 13
0.3917124681
 23
-0.0001209642
 33
0.0
 40
0.0
 40
0.0
 40
0.0
 40
0.0
 40
0.1430952261
 40
0.2858108484
 40
0.428702887
 40
0.5715844746
 40
0.7144615793
 40
0.8573010934
 40
1.0
 40
1.0
 40
1.0
 40
1.0
 10
-50.0443895167
 20
22.2944211862
 30
0.0
 10
-50.044353275
 20
22.3131052133
 30
0.0
 10
-50.0400465068
 20
22.3505518808
 30
0.0
 10
-50.0212350157
 20
22.4037503469
 30
0.0
 10
-49.9910623391
 20
22.4514309827
 30
0.0
 10
-49.9510323701
 20
22.4912147186
 30
0.0
 10
-49.9031680626
 20
22.5211162979
 30
0.0
 10
-49.8499169251
 20
22.5396518364
 30
0.0
 10
-49.8124993844
 20
22.54383225
 30
0.0
 10
-49.7938670708
 20
22.5438264961
 30
0.0
 11
-50.0443895167
 21
22.2944211862
 31
0.0
 11
-50.0379766603
 21
22.3501053214
 31
0.0
 11
-50.0193503474
 21
22.4028145314
 31
0.0
 11
-49.9894204591
 21
22.4501128745
 31
0.0
 11
-49.9497252484
 21
22.4895687164
 31
0.0
 11
-49.9022620868
 21
22.5192255023
 31
0.0
 11
-49.8494175428
 21
22.5376125319
 31
0.0
 11
-49.7938670708
 21
22.5438264961
 31
0.0
  0
SPLINE
  5
47D
100
AcDbEntity
  8
RACCORDO
100
AcDbSpline
 62
253
  6
CONTINUOUS
 70
0
 71
3
 72
14
 73
10
 74
8
 42
0.0000001
 43
0.0000001
 44
0.0000000001
 12
-0.3917127013
 22
-0.0001141671
 32
0.0
 13
-0.0007522
 23
0.3917119957
 33
0.0
 40
0.0
 40
0.0
 40
0.0
 40
0.0
 40
0.1431252731
 40
0.2858560548
 40
0.4287559453
 40
0.571636053
 40
0.7145010645
 40
0.8573218744
 40
1.0
 40
1.0
 40
1.0
 40
1.0
 10
-49.7938579678
 20
-22.5438264916
 30
0.0
 10
-49.8125459636
 20
-22.5438319384
 30
0.0
 10
-49.8500063969
 20
-22.5396367756
 30
0.0
 10
-49.9032885083
 20
-22.5210569597
 30
0.0
 10
-49.9511290218
 20
-22.4911384758
 30
0.0
 10
-49.9911385075
 20
-22.451335175
 30
0.0
 10
-50.0212938999
 20
-22.4036319464
 30
0.0
 10
-50.0400614404
 20
-22.3504641802
 30
0.0
 10
-50.0443537251
 20
-22.3130595777
 30
0.0
 10
-50.0443894993
 20
-22.29443
 30
0.0
 11
-49.7938579678
 21
-22.5438264916
 31
0.0
 11
-49.8495725827
 21
-22.537577281
 31
0.0
 11
-49.9023668415
 21
-22.5191752639
 31
0.0
 11
-49.9498233042
 21
-22.4894908632
 31
0.0
 11
-49.9894984263
 21
-22.4500155963
 31
0.0
 11
-50.0194000874
 21
-22.4027118881
 31
0.0
 11
-50.0380116296
 21
-22.3499537319
 31
0.0
 11
-50.0443894993
 21
-22.29443
 31
0.0
  0
SPLINE
  5
47E
100
AcDbEntity
  8
RACCORDO
100
AcDbSpline
 62
253
  6
CONTINUOUS
 70
0
 71
3
 72
14
 73
10
 74
8
 42
0.0000001
 43
0.0000001
 44
0.0000000001
 12
0.3917127013
 22
0.0001141671
 32
0.0
 13
0.0007522
 23
-0.3917119957
 33
0.0
 40
0.0
 40
0.0
 40
0.0
 40
0.0
 40
0.1431252731
 40
0.2858560548
 40
0.4287559453
 40
0.571636053
 40
0.7145010645
 40
0.8573218744
 40
1.0
 40
1.0
 40
1.0
 40
1.0
 10
49.7938579678
 20
22.5438264916
 30
0.0
 10
49.8125459636
 20
22.5438319384
 30
0.0
 10
49.8500063969
 20
22.5396367756
 30
0.0
 10
49.9032885083
 20
22.5210569597
 30
0.0
 10
49.9511290218
 20
22.4911384758
 30
0.0
 10
49.9911385075
 20
22.451335175
 30
0.0
 10
50.0212938999
 20
22.4036319464
 30
0.0
 10
50.0400614404
 20
22.3504641802
 30
0.0
 10
50.0443537251
 20
22.3130595777
 30
0.0
 10
50.0443894993
 20
22.29443
 30
0.0
 11
49.7938579678
 21
22.5438264916
 31
0.0
 11
49.8495725827
 21
22.537577281
 31
0.0
 11
49.9023668415
 21
22.5191752639
 31
0.0
 11
49.9498233042
 21
22.4894908632
 31
0.0
 11
49.9894984263
 21
22.4500155963
 31
0.0
 11
50.0194000874
 21
22.4027118881
 31
0.0
 11
50.0380116296
 21
22.3499537319
 31
0.0
 11
50.0443894993
 21
22.29443
 31
0.0
  0
SPLINE
  5
47F
100
AcDbEntity
  8
RACCORDO
100
AcDbSpline
 62
253
  6
CONTINUOUS
 70
0
 71
3
 72
14
 73
10
 74
8
 42
0.0000001
 43
0.0000001
 44
0.0000000001
 12
-0.0007522153
 22
-0.3917120277
 32
0.0
 13
-0.3917127333
 23
0.0001141574
 33
0.0
 40
0.0
 40
0.0
 40
0.0
 40
0.0
 40
0.1426781629
 40
0.2854989616
 40
0.4283639612
 40
0.5712440573
 40
0.7141439361
 40
0.8568747062
 40
1.0
 40
1.0
 40
1.0
 40
1.0
 10
50.0443894993
 20
-22.2944299805
 30
0.0
 10
50.0443537244
 20
-22.3130595647
 30
0.0
 10
50.0400614435
 20
-22.3504641741
 30
0.0
 10
50.0212938997
 20
-22.4036319464
 30
0.0
 10
49.9911385076
 20
-22.451335175
 30
0.0
 10
49.9511290218
 20
-22.4911384759
 30
0.0
 10
49.9032885083
 20
-22.5210569595
 30
0.0
 10
49.8500063929
 20
-22.5396367777
 30
0.0
 10
49.8125459551
 20
-22.5438319379
 30
0.0
 10
49.7938579551
 20
-22.5438264916
 30
0.0
 11
50.0443894993
 21
-22.2944299805
 31
0.0
 11
50.0380116296
 21
-22.3499537318
 31
0.0
 11
50.0194000874
 21
-22.4027118882
 31
0.0
 11
49.9894984263
 21
-22.4500155962
 31
0.0
 11
49.9498233042
 21
-22.4894908632
 31
0.0
 11
49.9023668415
 21
-22.5191752639
 31
0.0
 11
49.8495725827
 21
-22.537577281
 31
0.0
 11
49.7938579551
 21
-22.5438264916
 31
0.0
  0
SPLINE
  5
480
100
AcDbEntity
  8
RACCORDO
100
AcDbSpline
 62
253
  6
CONTINUOUS
 70
0
 71
3
 72
15
 73
11
 74
9
 42
0.0000001
 43
0.0000001
 44
0.0000000001
 12
1.5230844146
 22
0.001395331
 32
0.0
 13
0.1247744686
 23
1.5179655507
 33
0.0
 40
0.0
 40
0.0
 40
0.0
 40
0.0
 40
0.1910975242
 40
0.3750188605
 40
0.5448673745
 40
0.6943074483
 40
0.8178378092
 40
0.911089003
 40
0.9713291432
 40
1.0
 40
1.0
 40
1.0
 40
1.0
 10
66.3903975948
 20
-36.9484730104
 30
0.0
 10
66.487416815
 20
-36.948384129
 30
0.0
 10
66.6778059269
 20
-36.9462835247
 30
0.0
 10
66.9543553529
 20
-36.9373776616
 30
0.0
 10
67.2093224267
 20
-36.9232566523
 30
0.0
 10
67.4338204964
 20
-36.9041062691
 30
0.0
 10
67.6171988208
 20
-36.8821122946
 30
0.0
 10
67.7586777686
 20
-36.8551560579
 30
0.0
 10
67.8417879218
 20
-36.832483353
 30
0.0
 10
67.8891480157
 20
-36.8046295377
 30
0.0
 10
67.8903404794
 20
-36.7901224134
 30
0.0
 11
66.3903975948
 21
-36.9484730104
 31
0.0
 11
66.681436942
 21
-36.9451971396
 31
0.0
 11
66.9614146549
 21
-36.9360272893
 31
0.0
 11
67.2196895225
 21
-36.9213119812
 31
0.0
 11
67.4464452014
 21
-36.9016105052
 31
0.0
 11
67.6330633092
 21
-36.8776716622
 31
0.0
 11
67.772450986
 21
-36.8504053042
 31
0.0
 11
67.8593104758
 21
-36.8208477532
 31
0.0
 11
67.8903404794
 21
-36.7901224134
 31
0.0
  0
SPLINE
  5
481
100
AcDbEntity
  8
RACCORDO
100
AcDbSpline
 62
253
  6
CONTINUOUS
 70
0
 71
3
 72
15
 73
11
 74
9
 42
0.0000001
 43
0.0000001
 44
0.0000000001
 12
1.523084276
 22
-0.0013953205
 32
0.0
 13
0.1247901857
 23
-1.5179641196
 33
0.0
 40
0.0
 40
0.0
 40
0.0
 40
0.0
 40
0.19109741
 40
0.3750186468
 40
0.544867089
 40
0.6943071303
 40
0.8178375065
 40
0.9110887677
 40
0.9713290242
 40
1.0
 40
1.0
 40
1.0
 40
1.0
 10
66.3903975948
 20
36.9484728048
 30
0.0
 10
66.4874167482
 20
36.9483839241
 30
0.0
 10
66.6778057344
 20
36.9462833238
 30
0.0
 10
66.9543549903
 20
36.9373774766
 30
0.0
 10
67.2093219393
 20
36.9232564855
 30
0.0
 10
67.4338199422
 20
36.9041061397
 30
0.0
 10
67.6171982864
 20
36.882112165
 30
0.0
 10
67.7586773111
 20
36.8551560241
 30
0.0
 10
67.8417876443
 20
36.8324832066
 30
0.0
 10
67.8891478606
 20
36.8046295843
 30
0.0
 10
67.8903404794
 20
36.7901224134
 30
0.0
 11
66.3903975948
 21
36.9484728048
 31
0.0
 11
66.6814367417
 21
36.9451969407
 31
0.0
 11
66.9614142779
 21
36.9360271061
 31
0.0
 11
67.2196890137
 21
36.9213118213
 31
0.0
 11
67.4464446247
 21
36.9016103747
 31
0.0
 11
67.6330627429
 21
36.877671565
 31
0.0
 11
67.772450518
 21
36.8504052417
 31
0.0
 11
67.8593101973
 21
36.820847724
 31
0.0
 11
67.8903404794
 21
36.7901224134
 31
0.0
  0
SPLINE
  5
482
100
AcDbEntity
  8
RACCORDO
100
AcDbSpline
 62
253
  6
CONTINUOUS
 70
0
 71
3
 72
18
 73
14
 74
12
 42
0.0000001
 43
0.0000001
 44
0.0000000001
 12
2.5628536304
 22
-3.6652366103
 32
0.0
 13
0.0029016502
 23
-4.4723785306
 33
0.0
 40
0.0
 40
0.0
 40
0.0
 40
0.0
 40
0.0111084832
 40
0.0415639274
 40
0.090855406
 40
0.1581184257
 40
0.2421815317
 40
0.3415733574
 40
0.4545519482
 40
0.5791371172
 40
0.7131583711
 40
0.8542564207
 40
1.0
 40
1.0
 40
1.0
 40
1.0
 10
-66.4205049295
 20
41.4204480369
 30
0.0
 10
-66.411015124
 20
41.4068762971
 30
0.0
 10
-66.4240674406
 20
41.338386429
 30
0.0
 10
-66.4061692346
 20
41.2089835014
 30
0.0
 10
-66.4105872212
 20
40.9865617259
 30
0.0
 10
-66.4037535821
 20
40.6889047587
 30
0.0
 10
-66.4018049751
 20
40.3146238315
 30
0.0
 10
-66.3984465621
 20
39.8728936583
 30
0.0
 10
-66.3960346507
 20
39.3705098705
 30
0.0
 10
-66.39385156
 20
38.8165758539
 30
0.0
 10
-66.3921835062
 20
38.2206959282
 30
0.0
 10
-66.3909870858
 20
37.5932791063
 30
0.0
 10
-66.3905384668
 20
37.1656573694
 30
0.0
 10
-66.3903975012
 20
36.9483838844
 30
0.0
 11
-66.4205049295
 21
41.4204480369
 31
0.0
 11
-66.4164747386
 21
41.3709304207
 31
0.0
 11
-66.4125206683
 21
41.2347795219
 31
0.0
 11
-66.4087106123
 21
41.014362252
 31
0.0
 11
-66.4051118829
 21
40.7135580297
 31
0.0
 11
-66.4017870863
 21
40.3376106216
 31
0.0
 11
-66.3987945332
 21
39.8931027342
 31
0.0
 11
-66.3961866581
 21
39.3878263335
 31
0.0
 11
-66.3940091428
 21
38.8306384361
 31
0.0
 11
-66.3922998994
 21
38.2312469686
 31
0.0
 11
-66.3910890479
 21
37.6002041097
 31
0.0
 11
-66.3903975012
 21
36.9483838844
 31
0.0
  0
SPLINE
  5
483
100
AcDbEntity
  8
RACCORDO
100
AcDbSpline
 62
253
  6
CONTINUOUS
 70
0
 71
3
 72
15
 73
11
 74
9
 42
0.0000001
 43
0.0000001
 44
0.0000000001
 12
-1.500015627
 22
0.0130904381
 32
0.0
 13
0.0130894491
 23
1.5000156357
 33
0.0
 40
0.0
 40
0.0
 40
0.0
 40
0.0
 40
0.0192872175
 40
0.0762083773
 40
0.1686176293
 40
0.292970472
 40
0.4444909421
 40
0.6173580239
 40
0.8049300181
 40
1.0
 40
1.0
 40
1.0
 40
1.0
 10
-150.6722166767
 20
-41.4204472986
 30
0.0
 10
-150.6818603859
 20
-41.4203631392
 30
0.0
 10
-150.6639668893
 20
-41.3594215871
 30
0.0
 10
-150.6836298126
 20
-41.2967951063
 30
0.0
 10
-150.674392593
 20
-41.1479985867
 30
0.0
 10
-150.6788975717
 20
-40.9688573109
 30
0.0
 10
-150.6769631804
 20
-40.7426634246
 30
0.0
 10
-150.6763990135
 20
-40.4872688967
 30
0.0
 10
-150.6745391942
 20
-40.209321349
 30
0.0
 10
-150.6730677962
 20
-40.0180404216
 30
0.0
 10
-150.6722166767
 20
-39.920504414
 30
0.0
 11
-150.6722166767
 21
-41.4204472986
 31
0.0
 11
-150.674518564
 21
-41.3916067853
 31
0.0
 11
-150.6762290134
 21
-41.3062380384
 31
0.0
 11
-150.6772822995
 21
-41.1676214398
 31
0.0
 11
-150.6776379493
 21
-40.9810834687
 31
0.0
 11
-150.6772822972
 21
-40.7537920194
 31
0.0
 11
-150.6762290099
 21
-40.4944809606
 31
0.0
 11
-150.6745185611
 21
-40.2131145233
 31
0.0
 11
-150.6722166767
 21
-39.920504414
 31
0.0
  0
SPLINE
  5
484
100
AcDbEntity
  8
RACCORDO
100
AcDbSpline
 62
253
  6
CONTINUOUS
 70
0
 71
3
 72
15
 73
11
 74
9
 42
0.0000001
 43
0.0000001
 44
0.0000000001
 12
-1.5000156269
 22
-0.0130904381
 32
0.0
 13
0.0130894413
 23
-1.5000156356
 33
0.0
 40
0.0
 40
0.0
 40
0.0
 40
0.0
 40
0.0192871949
 40
0.0762082942
 40
0.1686174673
 40
0.2929702397
 40
0.4444906759
 40
0.6173577812
 40
0.8049298659
 40
1.0
 40
1.0
 40
1.0
 40
1.0
 10
-150.6722166767
 20
41.4204472986
 30
0.0
 10
-150.6818603746
 20
41.4203631393
 30
0.0
 10
-150.6639668978
 20
41.3594216541
 30
0.0
 10
-150.6836298025
 20
41.2967952332
 30
0.0
 10
-150.67439259
 20
41.147998827
 30
0.0
 10
-150.6788975683
 20
40.9688576412
 30
0.0
 10
-150.6769631781
 20
40.742663795
 30
0.0
 10
-150.6763990129
 20
40.4872692274
 30
0.0
 10
-150.6745391942
 20
40.2093215464
 30
0.0
 10
-150.6730677964
 20
40.0180404977
 30
0.0
 10
-150.6722166767
 20
39.920504414
 30
0.0
 11
-150.6722166767
 21
41.4204472986
 31
0.0
 11
-150.6745185613
 21
41.3916068191
 31
0.0
 11
-150.6762290092
 21
41.306238163
 31
0.0
 11
-150.6772822952
 21
41.1676216827
 31
0.0
 11
-150.6776379459
 21
40.981083817
 31
0.0
 11
-150.6772822952
 21
40.7537924187
 31
0.0
 11
-150.6762290092
 21
40.4944813246
 31
0.0
 11
-150.6745185613
 21
40.2131147515
 31
0.0
 11
-150.6722166767
 21
39.920504414
 31
0.0
  0
SPLINE
  5
485
100
AcDbEntity
  8
RACCORDO
100
AcDbSpline
 62
253
  6
CONTINUOUS
 70
0
 71
3
 72
26
 73
22
 74
20
 42
0.0000001
 43
0.0000001
 44
0.0000000001
 12
0.0087283382
 22
-1.5000025707
 32
0.0
 13
-1.4999364145
 23
-0.0136722071
 33
0.0
 40
0.0
 40
0.0
 40
0.0
 40
0.0
 40
0.082571579
 40
0.1645819546
 40
0.2454680752
 40
0.3246769537
 40
0.4016678881
 40
0.475914956
 40
0.5469110017
 40
0.6141710759
 40
0.6772359484
 40
0.7356748067
 40
0.7890886118
 40
0.8371125178
 40
0.8794186979
 40
0.9157182809
 40
0.9457635281
 40
0.9693496143
 40
0.986316394
 40
0.9965504924
 40
1.0
 40
1.0
 40
1.0
 40
1.0
 10
-102.547653506
 20
-39.6596276272
 30
0.0
 10
-102.5474132685
 20
-39.7009134874
 30
0.0
 10
-102.5469543919
 20
-39.7832047233
 30
0.0
 10
-102.5463289952
 20
-39.9059394602
 30
0.0
 10
-102.5457719713
 20
-40.0269931282
 30
0.0
 10
-102.5452868888
 20
-40.1455373171
 30
0.0
 10
-102.5448771253
 20
-40.2607621858
 30
0.0
 10
-102.5445454034
 20
-40.3718807825
 30
0.0
 10
-102.5442938917
 20
-40.4781341029
 30
0.0
 10
-102.5441243637
 20
-40.5787962183
 30
0.0
 10
-102.5440373211
 20
-40.6731802684
 30
0.0
 10
-102.5440349335
 20
-40.7606392916
 30
0.0
 10
-102.5441111383
 20
-40.8405835678
 30
0.0
 10
-102.5442836423
 20
-40.9124423125
 30
0.0
 10
-102.5444922233
 20
-40.9758022484
 30
0.0
 10
-102.5449105675
 20
-41.0299963938
 30
0.0
 10
-102.5450249325
 20
-41.0753305215
 30
0.0
 10
-102.5462050894
 20
-41.1096678256
 30
0.0
 10
-102.5450651771
 20
-41.1372476712
 30
0.0
 10
-102.5484963353
 20
-41.148694985
 30
0.0
 10
-102.5459287936
 20
-41.15956028
 30
0.0
 10
-102.5476534742
 20
-41.1595760008
 30
0.0
 11
-102.547653506
 21
-39.6596276272
 31
0.0
 11
-102.5469627845
 21
-39.7834853788
 31
0.0
 11
-102.54633633
 21
-39.9065016406
 31
0.0
 11
-102.5457785224
 21
-40.0278318012
 31
0.0
 11
-102.5452931113
 21
-40.1466463425
 31
0.0
 11
-102.5448834345
 21
-40.2621341705
 31
0.0
 11
-102.5445522825
 21
-40.3735063563
 31
0.0
 11
-102.5443019197
 21
-40.4800021161
 31
0.0
 11
-102.5441340551
 21
-40.5808939687
 31
0.0
 11
-102.544049835
 21
-40.6754930035
 31
0.0
 11
-102.5440498348
 21
-40.7631529252
 31
0.0
 11
-102.5441340546
 21
-40.8432750823
 31
0.0
 11
-102.5443019192
 21
-40.9153120887
 31
0.0
 11
-102.5445522824
 21
-40.978772048
 31
0.0
 11
-102.5448834349
 21
-41.0332214308
 31
0.0
 11
-102.5452931127
 21
-41.0782882797
 31
0.0
 11
-102.5457785242
 21
-41.1136647384
 31
0.0
 11
-102.5463363349
 21
-41.1391092689
 31
0.0
 11
-102.5469627871
 21
-41.1544479155
 31
0.0
 11
-102.5476534742
 21
-41.1595760008
 31
0.0
  0
SPLINE
  5
486
100
AcDbEntity
  8
RACCORDO
100
AcDbSpline
 62
253
  6
CONTINUOUS
 70
0
 71
3
 72
26
 73
22
 74
20
 42
0.0000001
 43
0.0000001
 44
0.0000000001
 12
1.499942114
 22
-0.0135912619
 32
0.0
 13
-0.0087271265
 23
-1.5000034694
 33
0.0
 40
0.0
 40
0.0
 40
0.0
 40
0.0
 40
0.0034496081
 40
0.0136837986
 40
0.0306506666
 40
0.0542368342
 40
0.0842821551
 40
0.1205818057
 40
0.1628880478
 40
0.210912006
 40
0.2643258549
 40
0.3227647489
 40
0.3858296489
 40
0.4530897418
 40
0.5240857936
 40
0.5983328618
 40
0.67532379
 40
0.7545326507
 40
0.8354187403
 40
0.9174290878
 40
1.0
 40
1.0
 40
1.0
 40
1.0
 10
-102.5476534741
 20
41.1595760008
 30
0.0
 10
-102.5459287366
 20
41.1595603726
 30
0.0
 10
-102.5484963811
 20
41.1486946865
 30
0.0
 10
-102.5450651501
 20
41.1372474572
 30
0.0
 10
-102.5462050982
 20
41.1096673454
 30
0.0
 10
-102.5450249275
 20
41.0753299487
 30
0.0
 10
-102.5449105687
 20
41.0299956642
 30
0.0
 10
-102.5444922231
 20
40.9758013914
 30
0.0
 10
-102.544283643
 20
40.9124413248
 30
0.0
 10
-102.5441111388
 20
40.840582459
 30
0.0
 10
-102.5440349338
 20
40.7606380693
 30
0.0
 10
-102.5440373209
 20
40.6731789406
 30
0.0
 10
-102.5441243631
 20
40.5787947934
 30
0.0
 10
-102.5442938911
 20
40.4781325921
 30
0.0
 10
-102.5445454033
 20
40.371879196
 30
0.0
 10
-102.5448771253
 20
40.2607605332
 30
0.0
 10
-102.5452868911
 20
40.1455356078
 30
0.0
 10
-102.5457719705
 20
40.0269913759
 30
0.0
 10
-102.5463290073
 20
39.9059376745
 30
0.0
 10
-102.5469543723
 20
39.7832032274
 30
0.0
 10
-102.547413309
 20
39.7009122904
 30
0.0
 10
-102.5476535113
 20
39.6596267389
 30
0.0
 11
-102.5476534741
 21
41.1595760008
 31
0.0
 11
-102.5469627845
 21
41.1544477651
 31
0.0
 11
-102.54633633
 21
41.1391089712
 31
0.0
 11
-102.5457785224
 21
41.1136642932
 31
0.0
 11
-102.5452931113
 21
41.0782876911
 31
0.0
 11
-102.5448834345
 21
41.0332207048
 31
0.0
 11
-102.5445522825
 21
40.9787711884
 31
0.0
 11
-102.5443019197
 21
40.9153110983
 31
0.0
 11
-102.5441340551
 21
40.8432739708
 31
0.0
 11
-102.544049835
 21
40.7631517003
 31
0.0
 11
-102.5440498348
 21
40.675491673
 31
0.0
 11
-102.5441340546
 21
40.5808925406
 31
0.0
 11
-102.5443019192
 21
40.4800006
 31
0.0
 11
-102.5445522824
 21
40.3735047679
 31
0.0
 11
-102.5448834349
 21
40.2621325155
 31
0.0
 11
-102.5452931127
 21
40.146644628
 31
0.0
 11
-102.5457785242
 21
40.0278300429
 31
0.0
 11
-102.5463363349
 21
39.9064998565
 31
0.0
 11
-102.5469627871
 21
39.7834835638
 31
0.0
 11
-102.5476535113
 21
39.6596267389
 31
0.0
  0
ELLIPSE
  5
487
100
AcDbEntity
  8
RACCORDO
100
AcDbEllipse
 62
7
  6
CONTINUOUS
 10
66.4999428824
 20
39.9999428824
 30
0.0
 11
-1.0607409467
 21
-1.0607409467
 31
0.0
 40
0.9999238505
 41
8.6394178736
 42
10.210138048
  0
ELLIPSE
  5
488
100
AcDbEntity
  8
RACCORDO
100
AcDbEllipse
 62
7
  6
CONTINUOUS
 10
66.4999428824
 20
-39.9999428824
 30
0.0
 11
-1.0607409467
 21
1.0607409467
 31
0.0
 40
0.9999238505
 41
8.6394178736
 42
10.210138048
  0
ELLIPSE
  5
489
100
AcDbEntity
  8
RACCORDO
100
AcDbEllipse
 62
7
  6
CONTINUOUS
 10
-49.749961918
 20
22.249961918
 30
0.0
 11
-0.1768305473
 21
0.1768305473
 31
0.0
 40
0.9996954599
 41
-0.7852458701
 42
0.7852458701
  0
ELLIPSE
  5
48A
100
AcDbEntity
  8
RACCORDO
100
AcDbEllipse
 62
7
  6
CONTINUOUS
 10
-49.749961918
 20
-22.249961918
 30
0.0
 11
-0.1768305473
 21
-0.1768305473
 31
0.0
 40
0.9996954599
 41
-0.7852458701
 42
0.7852458701
  0
ELLIPSE
  5
48B
100
AcDbEntity
  8
RACCORDO
100
AcDbEllipse
 62
7
  6
CONTINUOUS
 10
49.749961918
 20
22.249961918
 30
0.0
 11
0.1768305473
 21
0.1768305473
 31
0.0
 40
0.9996954599
 41
-0.7852458701
 42
0.7852458701
  0
ELLIPSE
  5
48C
100
AcDbEntity
  8
RACCORDO
100
AcDbEllipse
 62
7
  6
CONTINUOUS
 10
49.749961918
 20
-22.249961918
 30
0.0
 11
-0.1768305473
 21
0.1768305473
 31
0.0
 40
0.9996954599
 41
2.3563467834
 42
3.9268385237
  0
ELLIPSE
  5
48D
100
AcDbEntity
  8
RACCORDO
100
AcDbEllipse
 62
7
  6
CONTINUOUS
 10
-66.4999428824
 20
-39.9999428824
 30
0.0
 11
1.0607409467
 21
1.0607409467
 31
0.0
 40
0.9999238505
 41
2.3562325664
 42
3.9269527408
  0
ELLIPSE
  5
48E
100
AcDbEntity
  8
RACCORDO
100
AcDbEllipse
 62
7
  6
CONTINUOUS
 10
66.4999428824
 20
-39.9999428824
 30
0.0
 11
1.0607409467
 21
-1.0607409467
 31
0.0
 40
0.9999238505
 41
-0.7853600872
 42
0.7853600872
  0
ELLIPSE
  5
48F
100
AcDbEntity
  8
RACCORDO
100
AcDbEllipse
 62
7
  6
CONTINUOUS
 10
66.4999428824
 20
39.9999428824
 30
0.0
 11
1.0607409467
 21
1.0607409467
 31
0.0
 40
0.9999238505
 41
-0.7853600872
 42
0.7853600871
  0
ELLIPSE
  5
490
100
AcDbEntity
  8
RACCORDO
100
AcDbEllipse
 62
7
  6
CONTINUOUS
 10
-66.4999428824
 20
39.9999428824
 30
0.0
 11
1.0607409467
 21
-1.0607409467
 31
0.0
 40
0.9999238505
 41
2.3562325664
 42
3.9269527407
  0
ENDSEC
  0
SECTION
  2
OBJECTS
  0
DICTIONARY
  5
C
100
AcDbDictionary
280
0
281
1
  3
ACAD_GROUP
350
D
  3
ACAD_MLINESTYLE
350
17
  3
ACAD_LAYOUT
350
1A
  3
ACAD_PLOTSETTINGS
350
19
  3
ACAD_PLOTSTYLENAME
350
E
  0
DICTIONARY
  5
D
102
{ACAD_REACTORS
330
C
102
}
100
AcDbDictionary
280
0
281
1
  0
ACDBDICTIONARYWDFLT
  5
E
102
{ACAD_REACTORS
330
C
102
}
100
AcDbDictionary
281
1
  3
Normal
350
F
100
AcDbDictionaryWithDefault
340
F
  0
DICTIONARY
  5
17
102
{ACAD_REACTORS
330
C
102
}
100
AcDbDictionary
280
0
281
1
  3
Standard
350
18
  0
DICTIONARY
  5
19
102
{ACAD_REACTORS
330
C
102
}
100
AcDbDictionary
281
1
  0
DICTIONARY
  5
1A
102
{ACAD_REACTORS
330
C
102
}
100
AcDbDictionary
281
1
  3
Model
350
491
  3
Layout1
350
492
  0
ACDBPLACEHOLDER
  5
F
102
{ACAD_REACTORS
330
E
102
}
  0
MLINESTYLE
  5
18
102
{ACAD_REACTORS
330
17
102
}
100
AcDbMlineStyle
  2
STANDARD
 70
0
  3

 62
256
 51
90.0
 52
90.0
 71
2
 49
0.5
 62
256
  6
BYLAYER
 49
-0.5
 62
256
  6
BYLAYER
  0
LAYOUT
  5
491
102
{ACAD_REACTORS
330
1A
102
}
100
AcDbPlotSettings
  1

  2
none_device
  4
ISO_A4_(297.00_x_210.00_MM)
  6

 40
0.0
 41
0.0
 42
0.0
 43
0.0
 44
297.0
 45
210.0
 46
0.0
 47
0.0
 48
0.0
 49
0.0
140
0.0
141
0.0
142
1.0
143
1.0
 70
1024
 72
1
 73
0
 74
0
  7

 75
0
147
1.0
148
0.0
149
0.0
100
AcDbLayout
  1
Model
 70
0
 71
0
 10
0.0
 20
0.0
 11
297.0
 21
210.0
 12
0.0
 22
0.0
 32
0.0
 14
0.0
 24
0.0
 34
0.0
 15
0.0
 25
0.0
 35
0.0
146
0.0
 13
0.0
 23
0.0
 33
0.0
 16
1.0
 26
0.0
 36
0.0
 17
0.0
 27
1.0
 37
0.0
 76
0
330
216
345
0
346
0
  0
LAYOUT
  5
492
102
{ACAD_REACTORS
330
1A
102
}
100
AcDbPlotSettings
  1

  2
none_device
  4
ISO_A4_(297.00_x_210.00_MM)
  6

 40
0.0
 41
0.0
 42
0.0
 43
0.0
 44
297.0
 45
210.0
 46
0.0
 47
0.0
 48
0.0
 49
0.0
140
0.0
141
0.0
142
1.0
143
1.0
 70
0
 72
1
 73
0
 74
0
  7

 75
0
147
1.0
148
0.0
149
0.0
100
AcDbLayout
  1
Layout1
 70
0
 71
1
 10
0.0
 20
0.0
 11
297.0
 21
210.0
 12
0.0
 22
0.0
 32
0.0
 14
0.0
 24
0.0
 34
0.0
 15
0.0
 25
0.0
 35
0.0
146
0.0
 13
0.0
 23
0.0
 33
0.0
 16
1.0
 26
0.0
 36
0.0
 17
0.0
 27
1.0
 37
0.0
 76
0
330
217
345
0
346
0
  0
ENDSEC
  0
EOF
