0
SECTION
2
HEADER
9
$ACADVER
1
AC1014
9
$HANDSEED
5
       438
9
$EXTMAX
10
297.0000000000
20
210.0000000000
9
$EXTMIN
10
0.0000000000
20
0.0000000000
9
$LIMMIN
10
0.0000000000
20
0.0000000000
9
$LIMMAX
10
297.0000000000
20
210.0000000000
9
$VIEWCTR
10
148.5000000000
20
105.0000000000
9
$VIEWSIZE
40
210.0000000000
9
$CLAYER
8
0
9
$LTSCALE
40
16.3350000000
9
$CELTYPE
6
BYLAYER
9
$DIMSCALE
40
1
9
$DIMASZ
40
3.0000000000
9
$DIMEXO
40
1.8562500000
9
$DIMDLI
40
11.2860000000
9
$DIMEXE
40
5.3460000000
9
$DIMCEN
40
2.6730000000
9
$DIMLFAC
40
1.0000000000
9
$DIMTXT
40
3.0000000000
9
$DIMTOL
70
1
9
$DIMLIM
70
0
9
$DIMTFAC
40
1.0000000000
9
$DIMTP
40
0.0100000000
9
$DIMTM
40
0.0100000000
9
$MEASUREMENT
70
1
0
ENDSEC
0
SECTION
2
CLASSES
0
ENDSEC
0
SECTION
2
TABLES
0
TABLE
2
VPORT
5
8
100
AcDbSymbolTable
70
2
0
VPORT
5
1F4
100
AcDbSymbolTableRecord
100
AcDbViewportTableRecord
2
*ACTIVE
70
0
10
0.0
20
0.0
11
1.0
21
1.0
12
148.5000000000
22
105.0000000000
13
0.0
23
0.0
14
1.0
24
1.0
15
0.0
25
0.0
16
0.0
26
0.0
36
1.0
17
0.0
27
0.0
37
0.0
40
210.0000000000
41
1.4142857143
42
50.0
43
0.0
44
0.0
50
0.0
51
0.0
71
0
72
100
73
1
74
1
75
0
76
0
77
0
78
0
0
ENDTAB
0
TABLE
2
LTYPE
5
5
100
AcDbSymbolTable
70
6
0
LTYPE
5
14
100
AcDbSymbolTableRecord
100
AcDbLinetypeTableRecord
2
BYBLOCK
70
0
3

72
65
73
0
40
0.0
0
LTYPE
5
15
100
AcDbSymbolTableRecord
100
AcDbLinetypeTableRecord
2
BYLAYER
70
0
3

72
65
73
0
40
0.0
0
LTYPE
5
16
100
AcDbSymbolTableRecord
100
AcDbLinetypeTableRecord
2
CONTINUOUS
70
64
3
Solid line
72
65
73
0
40
0
0
LTYPE
5
1F5
100
AcDbSymbolTableRecord
100
AcDbLinetypeTableRecord
2
CENTER
70
64
3
____ _ ____ _ ____ _ ____ _ ____ _ ____ _ ____
72
65
73
4
40
0.6
49
0.375
74
0
49
-0.075
74
0
49
0.075
74
0
49
-0.075
74
0
0
LTYPE
5
1F6
100
AcDbSymbolTableRecord
100
AcDbLinetypeTableRecord
2
HIDDEN
70
64
3
- - - - - - - - - - - - - - - - - - - -
72
65
73
2
40
0.2
49
0.1
74
0
49
-0.1
74
0
0
LTYPE
5
1F7
100
AcDbSymbolTableRecord
100
AcDbLinetypeTableRecord
2
PHANTOM
70
64
3
_____ _ _ _____ _ _ _____ _ _ _____
72
65
73
6
40
0.8
49
0.45
74
0
49
-0.05
74
0
49
0.1
74
0
49
-0.05
74
0
49
0.1
74
0
49
-0.05
74
0
0
LTYPE
5
1F8
100
AcDbSymbolTableRecord
100
AcDbLinetypeTableRecord
2
DOT
70
64
3
. . . . . . . . . . . . . . . . . . . .
72
65
73
2
40
0.2
49
0.1
74
0
49
-0.1
74
0
0
LTYPE
5
1F9
100
AcDbSymbolTableRecord
100
AcDbLinetypeTableRecord
2
DASHED
70
64
3
- - - - - - - - - - - - - - - - - - - -
72
65
73
2
40
0.2
49
0.1
74
0
49
-0.1
74
0
0
ENDTAB
0
TABLE
2
LAYER
5
2
100
AcDbSymbolTable
70
36
0
LAYER
5
10
100
AcDbSymbolTableRecord
100
AcDbLayerTableRecord
2
0
70
0
62
7
6
CONTINUOUS
0
LAYER
5
1FA
100
AcDbSymbolTableRecord
100
AcDbLayerTableRecord
2
DEFAULT_1
70
0
62
7
6
CENTER
0
LAYER
5
1FB
100
AcDbSymbolTableRecord
100
AcDbLayerTableRecord
2
DEFAULT_2
70
0
62
8
6
HIDDEN
0
LAYER
5
1FC
100
AcDbSymbolTableRecord
100
AcDbLayerTableRecord
2
DEFAULT_3
70
0
62
7
6
PHANTOM
0
LAYER
5
1FD
100
AcDbSymbolTableRecord
100
AcDbLayerTableRecord
2
ASSI
70
0
62
7
6
CONTINUOUS
0
LAYER
5
1FE
100
AcDbSymbolTableRecord
100
AcDbLayerTableRecord
2
COLOR5
70
0
62
7
6
CONTINUOUS
0
LAYER
5
1FF
100
AcDbSymbolTableRecord
100
AcDbLayerTableRecord
2
COORDINATE
70
0
62
7
6
CONTINUOUS
0
LAYER
5
200
100
AcDbSymbolTableRecord
100
AcDbLayerTableRecord
2
COORD_ORIGINE
70
0
62
7
6
CONTINUOUS
0
LAYER
5
201
100
AcDbSymbolTableRecord
100
AcDbLayerTableRecord
2
CURVE
70
0
62
7
6
CONTINUOUS
0
LAYER
5
202
100
AcDbSymbolTableRecord
100
AcDbLayerTableRecord
2
DRAFT
70
0
62
7
6
CONTINUOUS
0
LAYER
5
203
100
AcDbSymbolTableRecord
100
AcDbLayerTableRecord
2
IGES_SCRITTE
70
0
62
7
6
CONTINUOUS
0
LAYER
5
204
100
AcDbSymbolTableRecord
100
AcDbLayerTableRecord
2
NOTE
70
0
62
7
6
CONTINUOUS
0
LAYER
5
205
100
AcDbSymbolTableRecord
100
AcDbLayerTableRecord
2
PIANI
70
0
62
7
6
CONTINUOUS
0
LAYER
5
206
100
AcDbSymbolTableRecord
100
AcDbLayerTableRecord
2
PIANI_DI_RIFERIMENTO
70
0
62
7
6
CONTINUOUS
0
LAYER
5
207
100
AcDbSymbolTableRecord
100
AcDbLayerTableRecord
2
PIANI_ORIGINE
70
0
62
7
6
CONTINUOUS
0
LAYER
5
208
100
AcDbSymbolTableRecord
100
AcDbLayerTableRecord
2
PIANI_RIFERIMENTO
70
0
62
7
6
CONTINUOUS
0
LAYER
5
209
100
AcDbSymbolTableRecord
100
AcDbLayerTableRecord
2
PUNTI
70
0
62
7
6
CONTINUOUS
0
LAYER
5
20A
100
AcDbSymbolTableRecord
100
AcDbLayerTableRecord
2
RACCORDO
70
0
62
7
6
CONTINUOUS
0
LAYER
5
20B
100
AcDbSymbolTableRecord
100
AcDbLayerTableRecord
2
SCRITTE
70
0
62
7
6
CONTINUOUS
0
LAYER
5
20C
100
AcDbSymbolTableRecord
100
AcDbLayerTableRecord
2
SMUSSO
70
0
62
7
6
CONTINUOUS
0
LAYER
5
20D
100
AcDbSymbolTableRecord
100
AcDbLayerTableRecord
2
SNAPLINE
70
0
62
7
6
CONTINUOUS
0
LAYER
5
20E
100
AcDbSymbolTableRecord
100
AcDbLayerTableRecord
2
SUPERFICI
70
0
62
7
6
CONTINUOUS
0
LAYER
5
20F
100
AcDbSymbolTableRecord
100
AcDbLayerTableRecord
2
TRASH
70
0
62
7
6
CONTINUOUS
0
ENDTAB
0
TABLE
2
STYLE
5
3
100
AcDbSymbolTable
70
1
0
STYLE
5
11
100
AcDbSymbolTableRecord
100
AcDbTextStyleTableRecord
2
STANDARD
70
0
40
0.0
41
0.8000000000
50
0.0
71
0
42
0.2
3
txt
4

0
ENDTAB
0
TABLE
2
VIEW
5
6
100
AcDbSymbolTable
70
0
0
ENDTAB
0
TABLE
2
UCS
5
7
100
AcDbSymbolTable
70
0
0
ENDTAB
0
TABLE
2
APPID
5
9
100
AcDbSymbolTable
70
1
0
APPID
5
210
100
AcDbSymbolTableRecord
100
AcDbRegAppTableRecord
2
ACAD
70
0
0
ENDTAB
0
TABLE
2
DIMSTYLE
5
A
100
AcDbSymbolTable
70
1
0
DIMSTYLE
105
211
100
AcDbSymbolTableRecord
100
AcDbDimStyleTableRecord
2
STANDARD
70
0
3

4

5

6

7

40
1.0
41
3.0000000000
42
0.0625
43
0.38
44
0.18
45
0.0
46
0.0
47
0.0100000000
48
0.0100000000
140
3.0000000000
141
0.09
142
0.0
143
25.4
144
1.0000000000
145
0.0
146
1.0000000000
147
0.09
71
1
72
0
73
0
74
0
75
0
76
0
77
1
78
8
170
0
171
2
172
0
173
0
174
0
175
0
176
0
177
0
178
0
270
2
271
2
272
2
273
2
274
2
340
11
275
0
280
0
281
0
282
0
283
1
284
8
285
0
286
0
287
3
288
0
0
DIMSTYLE
105
212
100
AcDbSymbolTableRecord
100
AcDbDimStyleTableRecord
2
DIMSTYLE_1
70
0
3

4

5

6

7

40
1.0
41
3.0000000000
42
0.0625
43
0.38
44
0.18
45
0.0
46
0.0
47
0.0000000000
48
0.0000000000
140
3.0000000000
141
0.09
142
0.0
143
25.4
144
1.0000000000
145
0.0
146
1.0000000000
147
0.09
71
0
72
0
73
0
74
0
75
0
76
0
77
1
78
8
170
0
171
2
172
0
173
0
174
0
175
0
176
0
177
0
178
0
270
2
271
2
272
2
273
2
274
2
340
11
275
0
280
0
281
0
282
0
283
1
284
8
285
0
286
0
287
3
288
0
0
DIMSTYLE
105
213
100
AcDbSymbolTableRecord
100
AcDbDimStyleTableRecord
2
DIMSTYLE_2
70
0
3

4

5

6

7

40
1.0
41
3.0000000000
42
0.0625
43
0.38
44
0.18
45
0.0
46
0.0
47
0.0000000000
48
0.0000000000
140
3.0000000000
141
0.09
142
0.0
143
25.4
144
1.0000000000
145
0.0
146
1.0000000000
147
0.09
71
0
72
0
73
0
74
0
75
0
76
0
77
1
78
8
170
0
171
2
172
0
173
0
174
0
175
0
176
0
177
0
178
0
270
2
271
1
272
1
273
2
274
2
340
11
275
0
280
0
281
0
282
0
283
1
284
8
285
0
286
0
287
3
288
0
0
ENDTAB
0
TABLE
2
BLOCK_RECORD
5
1
100
AcDbSymbolTable
70
0
0
BLOCK_RECORD
5
1B
100
AcDbSymbolTableRecord
100
AcDbBlockTableRecord
2
*MODEL_SPACE
0
BLOCK_RECORD
5
1C
100
AcDbSymbolTableRecord
100
AcDbBlockTableRecord
2
*PAPER_SPACE
0
BLOCK_RECORD
5
214
100
AcDbSymbolTableRecord
100
AcDbBlockTableRecord
2
*D0
0
BLOCK_RECORD
5
215
100
AcDbSymbolTableRecord
100
AcDbBlockTableRecord
2
*D1
0
BLOCK_RECORD
5
216
100
AcDbSymbolTableRecord
100
AcDbBlockTableRecord
2
*D2
0
BLOCK_RECORD
5
217
100
AcDbSymbolTableRecord
100
AcDbBlockTableRecord
2
*D3
0
ENDTAB
0
ENDSEC
0
SECTION
2
BLOCKS
0
BLOCK
5
1E
100
AcDbEntity
8
0
100
AcDbBlockBegin
2
*MODEL_SPACE
70
0
10
0.0
20
0.0
30
0.0
3
*MODEL_SPACE
1

0
ENDBLK
5
1F
100
AcDbEntity
8
0
100
AcDbBlockEnd
0
BLOCK
5
20
100
AcDbEntity
8
0
100
AcDbBlockBegin
2
*PAPER_SPACE
70
0
10
0.0
20
0.0
30
0.0
3
*PAPER_SPACE
1

0
ENDBLK
5
21
100
AcDbEntity
8
0
100
AcDbBlockEnd
0
BLOCK
5
218
100
AcDbEntity
8
0
100
AcDbBlockBegin
62
7
6
CONTINUOUS
2
*D0
70
65
10
0.0000000000
20
0.0000000000
3
*D0
1

0
TEXT
5
219
100
AcDbEntity
8
0
100
AcDbText
62
7
6
CONTINUOUS
10
-5.2623992266
20
35.7875167541
7
STANDARD
40
3.0000000000
1
22,3
41
0.7142857300
72
0
100
AcDbText
0
LINE
5
21A
100
AcDbEntity
8
0
100
AcDbLine
62
7
6
CONTINUOUS
10
9.7810224923
20
24.4286946947
11
9.7810224923
21
36.5375167541
0
LINE
5
21B
100
AcDbEntity
8
0
100
AcDbLine
62
7
6
CONTINUOUS
10
-12.5189775077
20
24.4286946947
11
-12.5189775077
21
36.5375167541
0
LINE
5
21C
100
AcDbEntity
8
0
100
AcDbLine
62
7
6
CONTINUOUS
10
9.7810224923
20
35.0375167541
11
-1.3689775077
21
35.0375167541
0
LINE
5
21D
100
AcDbEntity
8
0
100
AcDbLine
62
7
6
CONTINUOUS
10
-12.5189775077
20
35.0375167541
11
-1.3689775077
21
35.0375167541
0
SOLID
5
21E
100
AcDbEntity
8
0
100
AcDbTrace
62
7
6
CONTINUOUS
10
6.7810224923
20
34.0875167541
11
9.7810224923
21
35.0375167541
12
6.7810224923
22
35.9875167541
13
6.7810224923
23
35.9875167541
0
SOLID
5
21F
100
AcDbEntity
8
0
100
AcDbTrace
62
7
6
CONTINUOUS
10
-9.5189775077
20
35.9875167541
11
-12.5189775077
21
35.0375167541
12
-9.5189775077
22
34.0875167541
13
-9.5189775077
23
34.0875167541
0
ENDBLK
5
220
100
AcDbEntity
8
0
100
AcDbBlockEnd
0
BLOCK
5
221
100
AcDbEntity
8
0
100
AcDbBlockBegin
62
7
6
CONTINUOUS
2
*D1
70
65
10
0.0000000000
20
0.0000000000
3
*D1
1

0
TEXT
5
222
100
AcDbEntity
8
0
100
AcDbText
62
7
6
CONTINUOUS
10
22.4691675949
20
-0.2963965699
7
STANDARD
40
3.0000000000
1
49
50
90.0000000000
41
0.7857142857
72
0
100
AcDbText
0
LINE
5
223
100
AcDbEntity
8
0
100
AcDbLine
62
7
6
CONTINUOUS
10
9.5179281444
20
26.5244181753
11
24.7191676114
21
26.5244181753
0
LINE
5
224
100
AcDbEntity
8
0
100
AcDbLine
62
7
6
CONTINUOUS
10
9.5179281444
20
-22.4493846672
11
24.7191676114
21
-22.4493846672
0
LINE
5
225
100
AcDbEntity
8
0
100
AcDbLine
62
7
6
CONTINUOUS
10
23.2191676114
20
26.5244181753
11
23.2191676114
21
2.0375167541
0
LINE
5
226
100
AcDbEntity
8
0
100
AcDbLine
62
7
6
CONTINUOUS
10
23.2191676114
20
-22.4493846672
11
23.2191676114
21
2.0375167541
0
SOLID
5
227
100
AcDbEntity
8
0
100
AcDbTrace
62
7
6
CONTINUOUS
10
24.1691676114
20
23.5244181753
11
23.2191676114
21
26.5244181753
12
22.2691676114
22
23.5244181753
13
22.2691676114
23
23.5244181753
0
SOLID
5
228
100
AcDbEntity
8
0
100
AcDbTrace
62
7
6
CONTINUOUS
10
22.2691676114
20
-19.4493846672
11
23.2191676114
21
-22.4493846672
12
24.1691676114
22
-19.4493846672
13
24.1691676114
23
-19.4493846672
0
ENDBLK
5
229
100
AcDbEntity
8
0
100
AcDbBlockEnd
0
BLOCK
5
22A
100
AcDbEntity
8
0
100
AcDbBlockBegin
62
7
6
CONTINUOUS
2
*D2
70
65
10
0.0000000000
20
0.0000000000
3
*D2
1

0
TEXT
5
22B
100
AcDbEntity
8
0
100
AcDbText
62
7
6
CONTINUOUS
10
-47.2292174581
20
35.7875167541
7
STANDARD
40
3.0000000000
1
19,5
41
0.6607142857
72
0
100
AcDbText
0
LINE
5
22C
100
AcDbEntity
8
0
100
AcDbLine
62
7
6
CONTINUOUS
10
-34.4157668668
20
15.4875167541
11
-34.4157668668
21
36.5375167541
0
LINE
5
22D
100
AcDbEntity
8
0
100
AcDbLine
62
7
6
CONTINUOUS
10
-53.9157668668
20
24.4286946947
11
-53.9157668668
21
36.5375167541
0
LINE
5
22E
100
AcDbEntity
8
0
100
AcDbLine
62
7
6
CONTINUOUS
10
-34.4157668668
20
35.0375167541
11
-44.1657668668
21
35.0375167541
0
LINE
5
22F
100
AcDbEntity
8
0
100
AcDbLine
62
7
6
CONTINUOUS
10
-53.9157668668
20
35.0375167541
11
-44.1657668668
21
35.0375167541
0
SOLID
5
230
100
AcDbEntity
8
0
100
AcDbTrace
62
7
6
CONTINUOUS
10
-37.4157668668
20
34.0875167541
11
-34.4157668668
21
35.0375167541
12
-37.4157668668
22
35.9875167541
13
-37.4157668668
23
35.9875167541
0
SOLID
5
231
100
AcDbEntity
8
0
100
AcDbTrace
62
7
6
CONTINUOUS
10
-50.9157668668
20
35.9875167541
11
-53.9157668668
21
35.0375167541
12
-50.9157668668
22
34.0875167541
13
-50.9157668668
23
34.0875167541
0
ENDBLK
5
232
100
AcDbEntity
8
0
100
AcDbBlockEnd
0
BLOCK
5
233
100
AcDbEntity
8
0
100
AcDbBlockBegin
62
7
6
CONTINUOUS
2
*D3
70
65
10
0.0000000000
20
0.0000000000
3
*D3
1

0
TEXT
5
234
100
AcDbEntity
8
0
100
AcDbText
62
7
6
CONTINUOUS
10
-49.8745448163
20
45.7875167541
7
STANDARD
40
3.0000000000
1
30
41
0.7500000000
72
0
100
AcDbText
0
LINE
5
235
100
AcDbEntity
8
0
100
AcDbLine
62
7
6
CONTINUOUS
10
-34.4157668668
20
15.4875167541
11
-34.4157668668
21
46.5375167541
0
LINE
5
236
100
AcDbEntity
8
0
100
AcDbLine
62
7
6
CONTINUOUS
10
-64.4157668668
20
2.5375167541
11
-64.4157668668
21
46.5375167541
0
LINE
5
237
100
AcDbEntity
8
0
100
AcDbLine
62
7
6
CONTINUOUS
10
-34.4157668668
20
45.0375167541
11
-49.4157668668
21
45.0375167541
0
LINE
5
238
100
AcDbEntity
8
0
100
AcDbLine
62
7
6
CONTINUOUS
10
-64.4157668668
20
45.0375167541
11
-49.4157668668
21
45.0375167541
0
SOLID
5
239
100
AcDbEntity
8
0
100
AcDbTrace
62
7
6
CONTINUOUS
10
-37.4157668668
20
44.0875167541
11
-34.4157668668
21
45.0375167541
12
-37.4157668668
22
45.9875167541
13
-37.4157668668
23
45.9875167541
0
SOLID
5
23A
100
AcDbEntity
8
0
100
AcDbTrace
62
7
6
CONTINUOUS
10
-61.4157668668
20
45.9875167541
11
-64.4157668668
21
45.0375167541
12
-61.4157668668
22
44.0875167541
13
-61.4157668668
23
44.0875167541
0
ENDBLK
5
23B
100
AcDbEntity
8
0
100
AcDbBlockEnd
0
ENDSEC
0
SECTION
2
ENTITIES
0
DIMENSION
5
23C
100
AcDbEntity
8
0
100
AcDbDimension
62
7
6
CONTINUOUS
2
*D0
10
-12.5189775077
20
35.0375167541
11
-0.9766848468
21
37.2875167541
70
160
3
DIMSTYLE_1
100
AcDbAlignedDimension
13
9.7810224923
23
24.4286946947
14
-12.5189775077
24
24.4286946947
50
180.000000
100
AcDbRotatedDimension
0
DIMENSION
5
23D
100
AcDbEntity
8
0
100
AcDbDimension
62
7
6
CONTINUOUS
2
*D1
10
23.2191676114
20
-22.4493846672
11
20.9691675949
21
2.0607462872
70
160
3
DIMSTYLE_2
100
AcDbAlignedDimension
13
9.5179281444
23
26.5244181753
14
9.5179281444
24
-22.4493846672
50
270.000000
100
AcDbRotatedDimension
0
DIMENSION
5
23E
100
AcDbEntity
8
0
100
AcDbDimension
62
7
6
CONTINUOUS
2
*D2
10
-53.9157668668
20
35.0375167541
11
-43.2649317438
21
37.2875167541
70
160
3
DIMSTYLE_1
100
AcDbAlignedDimension
13
-34.4157668668
23
15.4875167541
14
-53.9157668668
24
24.4286946947
50
180.000000
100
AcDbRotatedDimension
0
DIMENSION
5
23F
100
AcDbEntity
8
0
100
AcDbDimension
62
7
6
CONTINUOUS
2
*D3
10
-64.4157668668
20
45.0375167541
11
-47.6245448163
21
47.2875167541
70
160
3
DIMSTYLE_1
100
AcDbAlignedDimension
13
-34.4157668668
23
15.4875167541
14
-64.4157668668
24
2.5375167541
50
180.000000
100
AcDbRotatedDimension
0
LINE
5
240
100
AcDbEntity
8
0
100
AcDbLine
62
7
6
CONTINUOUS
10
-12.2249919171
20
24.3847418880
11
-12.2424945097
21
24.3759912582
0
LINE
5
241
100
AcDbEntity
8
0
100
AcDbLine
62
9
6
CONTINUOUS
10
-12.5015606052
20
23.9374024826
11
-12.5189775077
21
23.9286946947
0
LINE
5
242
100
AcDbEntity
8
0
100
AcDbLine
62
7
6
CONTINUOUS
10
9.0310267231
20
-22.4624832459
11
7.1310182616
21
-22.4624832459
0
LINE
5
243
100
AcDbEntity
8
0
100
AcDbLine
62
7
6
CONTINUOUS
10
-9.8689732769
20
-22.4624832459
11
-11.7689817384
21
-22.4624832459
0
LINE
5
244
100
AcDbEntity
8
0
100
AcDbLine
62
9
6
CONTINUOUS
10
-11.7558831597
20
-22.4493846672
11
-9.8820718556
21
-22.4493846672
0
LINE
5
245
100
AcDbEntity
8
0
100
AcDbLine
62
9
6
CONTINUOUS
10
7.1441168403
20
-22.4493846672
11
9.0179281444
21
-22.4493846672
0
LINE
5
246
100
AcDbEntity
8
0
100
AcDbLine
62
9
6
CONTINUOUS
10
6.8941210711
20
-22.1993888980
11
9.2679239136
21
-22.1993888980
0
LINE
5
247
100
AcDbEntity
8
0
100
AcDbLine
62
9
6
CONTINUOUS
10
-9.6320760864
20
-22.1993888980
11
-12.0058789289
21
-22.1993888980
0
LINE
5
248
100
AcDbEntity
8
0
100
AcDbLine
62
9
6
CONTINUOUS
10
6.8941210711
20
-21.8068208132
11
9.2679239136
21
-21.8068208132
0
LINE
5
249
100
AcDbEntity
8
0
100
AcDbLine
62
9
6
CONTINUOUS
10
-9.6320760864
20
-21.8068208132
11
-12.0058789289
21
-21.8068208132
0
LINE
5
24A
100
AcDbEntity
8
0
100
AcDbLine
62
7
6
CONTINUOUS
10
3.0310224923
20
-21.7624832459
11
-5.7689775077
21
-21.7624832459
0
LINE
5
24B
100
AcDbEntity
8
0
100
AcDbLine
62
9
6
CONTINUOUS
10
-5.6651848213
20
-21.7578222128
11
2.9272298060
21
-21.7578222128
0
LINE
5
24C
100
AcDbEntity
8
0
100
AcDbLine
62
9
6
CONTINUOUS
10
9.0179281444
20
-21.5903144623
11
7.1441168403
21
-21.5903144623
0
LINE
5
24D
100
AcDbEntity
8
0
100
AcDbLine
62
9
6
CONTINUOUS
10
-9.8820718556
20
-21.5903144623
11
-11.7558831597
21
-21.5903144623
0
LINE
5
24E
100
AcDbEntity
8
0
100
AcDbLine
62
9
6
CONTINUOUS
10
-5.2660601310
20
-21.5578255974
11
2.5281051157
21
-21.5578255974
0
LINE
5
24F
100
AcDbEntity
8
0
100
AcDbLine
62
7
6
CONTINUOUS
10
-12.2424945097
20
-20.3009577501
11
-12.2249919171
21
-20.3097083799
0
LINE
5
250
100
AcDbEntity
8
0
100
AcDbLine
62
9
6
CONTINUOUS
10
-12.5189775077
20
-19.8536611865
11
-12.5015606052
21
-19.8623689745
0
LINE
5
251
100
AcDbEntity
8
0
100
AcDbLine
62
9
6
CONTINUOUS
10
-9.8689732769
20
26.5375167541
11
-9.8820718556
21
26.5244181753
0
LINE
5
252
100
AcDbEntity
8
0
100
AcDbLine
62
9
6
CONTINUOUS
10
-9.6189775077
20
26.2875209849
11
-9.6320760864
21
26.2744224061
0
LINE
5
253
100
AcDbEntity
8
0
100
AcDbLine
62
7
6
CONTINUOUS
10
9.0237459742
20
-21.0851329767
11
7.1382990105
21
-21.0851329767
0
LINE
5
254
100
AcDbEntity
8
0
100
AcDbLine
62
7
6
CONTINUOUS
10
-9.8762540258
20
-21.0851329767
11
-11.7617009895
21
-21.0851329767
0
LINE
5
255
100
AcDbEntity
8
0
100
AcDbLine
62
7
6
CONTINUOUS
10
-9.6189775077
20
-20.3624832459
11
-5.7689775077
21
-20.3624832459
0
LINE
5
256
100
AcDbEntity
8
0
100
AcDbLine
62
7
6
CONTINUOUS
10
3.0310224923
20
-20.3624832459
11
6.8810224923
21
-20.3624832459
0
LINE
5
257
100
AcDbEntity
8
0
100
AcDbLine
62
7
6
CONTINUOUS
10
-5.2660601310
20
-20.3100754667
11
2.5281051157
21
-20.3100754667
0
LINE
5
258
100
AcDbEntity
8
0
100
AcDbLine
62
7
6
CONTINUOUS
10
9.0237459742
20
-20.2838715770
11
7.1382990105
21
-20.2838715770
0
LINE
5
259
100
AcDbEntity
8
0
100
AcDbLine
62
7
6
CONTINUOUS
10
-9.8762540258
20
-20.2838715770
11
-11.7617009895
21
-20.2838715770
0
LINE
5
25A
100
AcDbEntity
8
0
100
AcDbLine
62
9
6
CONTINUOUS
10
9.1302984545
20
-19.9612084679
11
-11.8682534698
21
-19.9612084679
0
LINE
5
25B
100
AcDbEntity
8
0
100
AcDbLine
62
9
6
CONTINUOUS
10
-9.8689732769
20
-22.4624832459
11
-9.8820718556
21
-22.4493846672
0
LINE
5
25C
100
AcDbEntity
8
0
100
AcDbLine
62
9
6
CONTINUOUS
10
-9.6189775077
20
-22.2124874767
11
-9.6320760864
21
-22.1993888980
0
LINE
5
25D
100
AcDbEntity
8
0
100
AcDbLine
62
9
6
CONTINUOUS
10
9.1137716839
20
-18.5249515708
11
-11.8517266992
21
-18.5249515708
0
LINE
5
25E
100
AcDbEntity
8
0
100
AcDbLine
62
7
6
CONTINUOUS
10
3.0280966542
20
25.8345909159
11
3.0310224923
21
25.8375167541
0
LINE
5
25F
100
AcDbEntity
8
0
100
AcDbLine
62
7
6
CONTINUOUS
10
3.0280966542
20
-21.7595574077
11
3.0310224923
21
-21.7624832459
0
LINE
5
260
100
AcDbEntity
8
0
100
AcDbLine
62
9
6
CONTINUOUS
10
-12.0058789289
20
-21.8068208132
11
-12.0116967587
21
-21.2294705440
0
LINE
5
261
100
AcDbEntity
8
0
100
AcDbLine
62
7
6
CONTINUOUS
10
-12.5189775077
20
-19.8536611865
11
-12.5189775077
21
23.9286946947
0
LINE
5
262
100
AcDbEntity
8
0
100
AcDbLine
62
9
6
CONTINUOUS
10
-12.0116967587
20
25.3045040522
11
-12.0058789289
21
25.8818543214
0
LINE
5
263
100
AcDbEntity
8
0
100
AcDbLine
62
9
6
CONTINUOUS
10
-11.7558831597
20
-21.5903144623
11
-11.7609737608
21
-21.0851329767
0
LINE
5
264
100
AcDbEntity
8
0
100
AcDbLine
62
7
6
CONTINUOUS
10
-12.0189775077
20
-20.3621732139
11
-12.0189775077
21
-22.2124874767
0
LINE
5
265
100
AcDbEntity
8
0
100
AcDbLine
62
7
6
CONTINUOUS
10
-12.0189775077
20
24.4372067220
11
-12.0189775077
21
26.2875209849
0
LINE
5
266
100
AcDbEntity
8
0
100
AcDbLine
62
9
6
CONTINUOUS
10
-12.0116967587
20
25.3045040522
11
-12.0116967587
21
24.3709277155
0
LINE
5
267
100
AcDbEntity
8
0
100
AcDbLine
62
9
6
CONTINUOUS
10
-12.0116967587
20
-20.2958942073
11
-12.0116967587
21
-21.2294705440
0
LINE
5
268
100
AcDbEntity
8
0
100
AcDbLine
62
9
6
CONTINUOUS
10
-12.0058789289
20
26.2744224061
11
-12.0058789289
21
25.8818543214
0
LINE
5
269
100
AcDbEntity
8
0
100
AcDbLine
62
9
6
CONTINUOUS
10
-12.0058789289
20
-21.8068208132
11
-12.0058789289
21
-22.1993888980
0
LINE
5
26A
100
AcDbEntity
8
0
100
AcDbLine
62
9
6
CONTINUOUS
10
-11.7617009895
20
25.1601664849
11
-11.7617009895
21
24.3589050851
0
LINE
5
26B
100
AcDbEntity
8
0
100
AcDbLine
62
9
6
CONTINUOUS
10
-11.7617009895
20
-20.2838715770
11
-11.7617009895
21
-21.0851329767
0
LINE
5
26C
100
AcDbEntity
8
0
100
AcDbLine
62
9
6
CONTINUOUS
10
-11.7558831597
20
-21.5903144623
11
-11.7558831597
21
-22.4493846672
0
LINE
5
26D
100
AcDbEntity
8
0
100
AcDbLine
62
9
6
CONTINUOUS
10
-11.7558831597
20
25.6653479704
11
-11.7558831597
21
26.5244181753
0
LINE
5
26E
100
AcDbEntity
8
0
100
AcDbLine
62
9
6
CONTINUOUS
10
-11.7609737608
20
25.1601664849
11
-11.7558831597
21
25.6653479704
0
LINE
5
26F
100
AcDbEntity
8
0
100
AcDbLine
62
7
6
CONTINUOUS
10
-9.6189775077
20
24.4375167541
11
-9.6262582566
21
24.3719308064
0
LINE
5
270
100
AcDbEntity
8
0
100
AcDbLine
62
9
6
CONTINUOUS
10
9.0310267231
20
26.5375167541
11
9.0179281444
21
26.5244181753
0
LINE
5
271
100
AcDbEntity
8
0
100
AcDbLine
62
9
6
CONTINUOUS
10
9.2810224923
20
26.2875209849
11
9.2679239136
21
26.2744224061
0
LINE
5
272
100
AcDbEntity
8
0
100
AcDbLine
62
9
6
CONTINUOUS
10
9.0310267231
20
-22.4624832459
11
9.0179281444
21
-22.4493846672
0
LINE
5
273
100
AcDbEntity
8
0
100
AcDbLine
62
9
6
CONTINUOUS
10
9.2810224923
20
-22.2124874767
11
9.2679239136
21
-22.1993888980
0
LINE
5
274
100
AcDbEntity
8
0
100
AcDbLine
62
7
6
CONTINUOUS
10
-9.6189775077
20
-20.3624832459
11
-9.6262582566
21
-20.2968972982
0
LINE
5
275
100
AcDbEntity
8
0
100
AcDbLine
62
9
6
CONTINUOUS
10
-9.8820718556
20
25.6653479704
11
-9.8769812545
21
25.1601664849
0
LINE
5
276
100
AcDbEntity
8
0
100
AcDbLine
62
9
6
CONTINUOUS
10
-9.6320760864
20
25.8818543214
11
-9.6262582566
21
25.3045040522
0
LINE
5
277
100
AcDbEntity
8
0
100
AcDbLine
62
9
6
CONTINUOUS
10
-9.8820718556
20
-21.5903144623
11
-9.8820718556
21
-22.4493846672
0
LINE
5
278
100
AcDbEntity
8
0
100
AcDbLine
62
9
6
CONTINUOUS
10
-9.8820718556
20
25.6653479704
11
-9.8820718556
21
26.5244181753
0
LINE
5
279
100
AcDbEntity
8
0
100
AcDbLine
62
9
6
CONTINUOUS
10
-9.8762540258
20
25.1601664849
11
-9.8762540258
21
24.3589050851
0
LINE
5
27A
100
AcDbEntity
8
0
100
AcDbLine
62
9
6
CONTINUOUS
10
-9.8762540258
20
-20.2838715770
11
-9.8762540258
21
-21.0851329767
0
LINE
5
27B
100
AcDbEntity
8
0
100
AcDbLine
62
9
6
CONTINUOUS
10
-9.6320760864
20
-22.1993888980
11
-9.6320760864
21
-21.8068208132
0
LINE
5
27C
100
AcDbEntity
8
0
100
AcDbLine
62
9
6
CONTINUOUS
10
-9.6320760864
20
25.8818543214
11
-9.6320760864
21
26.2744224061
0
LINE
5
27D
100
AcDbEntity
8
0
100
AcDbLine
62
9
6
CONTINUOUS
10
-9.6262582566
20
25.3045040522
11
-9.6262582566
21
24.3719308064
0
LINE
5
27E
100
AcDbEntity
8
0
100
AcDbLine
62
9
6
CONTINUOUS
10
-9.6262582566
20
-20.2968972982
11
-9.6262582566
21
-21.2294705440
0
LINE
5
27F
100
AcDbEntity
8
0
100
AcDbLine
62
7
6
CONTINUOUS
10
-9.6189775077
20
-20.3624832459
11
-9.6189775077
21
-22.2124874767
0
LINE
5
280
100
AcDbEntity
8
0
100
AcDbLine
62
7
6
CONTINUOUS
10
-9.6189775077
20
24.4375167541
11
-9.6189775077
21
26.2875209849
0
LINE
5
281
100
AcDbEntity
8
0
100
AcDbLine
62
9
6
CONTINUOUS
10
-9.8769812545
20
-21.0851329767
11
-9.8820718556
21
-21.5903144623
0
LINE
5
282
100
AcDbEntity
8
0
100
AcDbLine
62
9
6
CONTINUOUS
10
-9.6262582566
20
-21.2294705440
11
-9.6320760864
21
-21.8068208132
0
LINE
5
283
100
AcDbEntity
8
0
100
AcDbLine
62
7
6
CONTINUOUS
10
-5.7689775077
20
-21.7624832459
11
-5.7689775077
21
-20.3624832459
0
LINE
5
284
100
AcDbEntity
8
0
100
AcDbLine
62
7
6
CONTINUOUS
10
-5.7689775077
20
24.4375167541
11
-5.7689775077
21
25.8375167541
0
LINE
5
285
100
AcDbEntity
8
0
100
AcDbLine
62
9
6
CONTINUOUS
10
-5.7660516695
20
25.8345909159
11
-5.7660516695
21
24.4111604172
0
LINE
5
286
100
AcDbEntity
8
0
100
AcDbLine
62
9
6
CONTINUOUS
10
-5.7660516695
20
-20.3361269091
11
-5.7660516695
21
-21.7595574077
0
LINE
5
287
100
AcDbEntity
8
0
100
AcDbLine
62
9
6
CONTINUOUS
10
-5.2660601310
20
25.6328591055
11
-5.2660601310
21
24.3851089748
0
LINE
5
288
100
AcDbEntity
8
0
100
AcDbLine
62
9
6
CONTINUOUS
10
-5.2660601310
20
-20.3100754667
11
-5.2660601310
21
-21.5578255974
0
LINE
5
289
100
AcDbEntity
8
0
100
AcDbLine
62
9
6
CONTINUOUS
10
-12.5015606052
20
-19.8623689745
11
-12.3681773174
21
-19.4618937005
0
LINE
5
28A
100
AcDbEntity
8
0
100
AcDbLine
62
9
6
CONTINUOUS
10
-12.3681773174
20
23.5369272087
11
-12.5015606052
21
23.9374024826
0
LINE
5
28B
100
AcDbEntity
8
0
100
AcDbLine
62
7
6
CONTINUOUS
10
-5.7689775077
20
-20.3624832459
11
-5.7660516695
21
-20.3361269091
0
LINE
5
28C
100
AcDbEntity
8
0
100
AcDbLine
62
9
6
CONTINUOUS
10
-11.8682534698
20
-19.9612084679
11
-11.9778928476
21
-20.2903940846
0
LINE
5
28D
100
AcDbEntity
8
0
100
AcDbLine
62
9
6
CONTINUOUS
10
-11.9778928476
20
24.3654275927
11
-11.8682534698
21
24.0362419760
0
LINE
5
28E
100
AcDbEntity
8
0
100
AcDbLine
62
7
6
CONTINUOUS
10
-5.7689775077
20
24.4375167541
11
-5.7660516695
21
24.4111604172
0
LINE
5
28F
100
AcDbEntity
8
0
100
AcDbLine
62
7
6
CONTINUOUS
10
-0.9629691883
20
6.2677075451
11
-1.3689775077
21
5.2875167541
0
LINE
5
290
100
AcDbEntity
8
0
100
AcDbLine
62
7
6
CONTINUOUS
10
-3.6670745465
20
-0.2605802848
11
-4.0730828659
21
-1.2407710759
0
LINE
5
291
100
AcDbEntity
8
0
100
AcDbLine
62
7
6
CONTINUOUS
10
1.9093103223
20
4.7416221123
11
0.9291195312
21
4.3356137929
0
LINE
5
292
100
AcDbEntity
8
0
100
AcDbLine
62
7
6
CONTINUOUS
10
-4.6189775077
20
2.0375167541
11
-5.5991682987
21
1.6315084347
0
LINE
5
293
100
AcDbEntity
8
0
100
AcDbLine
62
7
6
CONTINUOUS
10
-5.5991682987
20
2.4435250734
11
-4.6189775077
21
2.0375167541
0
LINE
5
294
100
AcDbEntity
8
0
100
AcDbLine
62
7
6
CONTINUOUS
10
0.9291195312
20
-0.2605802848
11
1.9093103223
21
-0.6665886042
0
LINE
5
295
100
AcDbEntity
8
0
100
AcDbLine
62
7
6
CONTINUOUS
10
-4.0730828659
20
5.3158045840
11
-3.6670745465
21
4.3356137929
0
LINE
5
296
100
AcDbEntity
8
0
100
AcDbLine
62
7
6
CONTINUOUS
10
-1.3689775077
20
-1.2124832459
11
-0.9629691883
21
-2.1926740370
0
LINE
5
297
100
AcDbEntity
8
0
100
AcDbLine
62
7
6
CONTINUOUS
10
3.0310224923
20
24.4375167541
11
3.0280966542
21
24.4111604172
0
LINE
5
298
100
AcDbEntity
8
0
100
AcDbLine
62
7
6
CONTINUOUS
10
-1.7749858270
20
-2.1926740370
11
-1.3689775077
21
-1.2124832459
0
LINE
5
299
100
AcDbEntity
8
0
100
AcDbLine
62
7
6
CONTINUOUS
10
0.9291195312
20
4.3356137929
11
1.3351278506
21
5.3158045840
0
LINE
5
29A
100
AcDbEntity
8
0
100
AcDbLine
62
7
6
CONTINUOUS
10
-4.6472653376
20
-0.6665886042
11
-3.6670745465
21
-0.2605802848
0
LINE
5
29B
100
AcDbEntity
8
0
100
AcDbLine
62
7
6
CONTINUOUS
10
1.8810224923
20
2.0375167541
11
2.8612132834
21
2.4435250734
0
LINE
5
29C
100
AcDbEntity
8
0
100
AcDbLine
62
7
6
CONTINUOUS
10
2.8612132834
20
1.6315084347
11
1.8810224923
21
2.0375167541
0
LINE
5
29D
100
AcDbEntity
8
0
100
AcDbLine
62
7
6
CONTINUOUS
10
-3.6670745465
20
4.3356137929
11
-4.6472653376
21
4.7416221123
0
LINE
5
29E
100
AcDbEntity
8
0
100
AcDbLine
62
7
6
CONTINUOUS
10
1.3351278506
20
-1.2407710759
11
0.9291195312
21
-0.2605802848
0
LINE
5
29F
100
AcDbEntity
8
0
100
AcDbLine
62
7
6
CONTINUOUS
10
-1.3689775077
20
5.2875167541
11
-1.7749858270
21
6.2677075451
0
LINE
5
2A0
100
AcDbEntity
8
0
100
AcDbLine
62
7
6
CONTINUOUS
10
3.0310224923
20
-20.3624832459
11
3.0280966542
21
-20.3361269091
0
LINE
5
2A1
100
AcDbEntity
8
0
100
AcDbLine
62
9
6
CONTINUOUS
10
9.1302984545
20
24.0362419760
11
9.2399378323
21
24.3654275927
0
LINE
5
2A2
100
AcDbEntity
8
0
100
AcDbLine
62
9
6
CONTINUOUS
10
9.7636055899
20
23.9374024826
11
9.6302223021
21
23.5369272087
0
LINE
5
2A3
100
AcDbEntity
8
0
100
AcDbLine
62
9
6
CONTINUOUS
10
9.2399378323
20
-20.2903940846
11
9.1302984545
21
-19.9612084679
0
LINE
5
2A4
100
AcDbEntity
8
0
100
AcDbLine
62
9
6
CONTINUOUS
10
9.6302223021
20
-19.4618937005
11
9.7636055899
21
-19.8623689745
0
LINE
5
2A5
100
AcDbEntity
8
0
100
AcDbLine
62
9
6
CONTINUOUS
10
2.5281051157
20
-21.5578255974
11
2.5281051157
21
-20.3100754667
0
LINE
5
2A6
100
AcDbEntity
8
0
100
AcDbLine
62
9
6
CONTINUOUS
10
2.5281051157
20
24.3851089748
11
2.5281051157
21
25.6328591055
0
LINE
5
2A7
100
AcDbEntity
8
0
100
AcDbLine
62
9
6
CONTINUOUS
10
3.0280966542
20
-21.7595574077
11
3.0280966542
21
-20.3361269091
0
LINE
5
2A8
100
AcDbEntity
8
0
100
AcDbLine
62
9
6
CONTINUOUS
10
3.0280966542
20
24.4111604172
11
3.0280966542
21
25.8345909159
0
LINE
5
2A9
100
AcDbEntity
8
0
100
AcDbLine
62
7
6
CONTINUOUS
10
3.0310224923
20
25.8375167541
11
3.0310224923
21
24.4375167541
0
LINE
5
2AA
100
AcDbEntity
8
0
100
AcDbLine
62
7
6
CONTINUOUS
10
3.0310224923
20
-20.3624832459
11
3.0310224923
21
-21.7624832459
0
LINE
5
2AB
100
AcDbEntity
8
0
100
AcDbLine
62
9
6
CONTINUOUS
10
6.8941210711
20
-21.8068208132
11
6.8883032413
21
-21.2294705440
0
LINE
5
2AC
100
AcDbEntity
8
0
100
AcDbLine
62
9
6
CONTINUOUS
10
7.1441168403
20
-21.5903144623
11
7.1390262392
21
-21.0851329767
0
LINE
5
2AD
100
AcDbEntity
8
0
100
AcDbLine
62
7
6
CONTINUOUS
10
6.8810224923
20
-20.3624832459
11
6.8810224923
21
-22.2124874767
0
LINE
5
2AE
100
AcDbEntity
8
0
100
AcDbLine
62
7
6
CONTINUOUS
10
6.8810224923
20
24.4375167541
11
6.8810224923
21
26.2875209849
0
LINE
5
2AF
100
AcDbEntity
8
0
100
AcDbLine
62
9
6
CONTINUOUS
10
6.8883032413
20
-21.2294705440
11
6.8883032413
21
-20.2968972982
0
LINE
5
2B0
100
AcDbEntity
8
0
100
AcDbLine
62
9
6
CONTINUOUS
10
6.8883032413
20
24.3719308064
11
6.8883032413
21
25.3045040522
0
LINE
5
2B1
100
AcDbEntity
8
0
100
AcDbLine
62
9
6
CONTINUOUS
10
6.8941210711
20
26.2744224061
11
6.8941210711
21
25.8818543214
0
LINE
5
2B2
100
AcDbEntity
8
0
100
AcDbLine
62
9
6
CONTINUOUS
10
6.8941210711
20
-21.8068208132
11
6.8941210711
21
-22.1993888980
0
LINE
5
2B3
100
AcDbEntity
8
0
100
AcDbLine
62
9
6
CONTINUOUS
10
7.1382990105
20
-21.0851329767
11
7.1382990105
21
-20.2838715770
0
LINE
5
2B4
100
AcDbEntity
8
0
100
AcDbLine
62
9
6
CONTINUOUS
10
7.1382990105
20
24.3589050851
11
7.1382990105
21
25.1601664849
0
LINE
5
2B5
100
AcDbEntity
8
0
100
AcDbLine
62
9
6
CONTINUOUS
10
7.1441168403
20
-21.5903144623
11
7.1441168403
21
-22.4493846672
0
LINE
5
2B6
100
AcDbEntity
8
0
100
AcDbLine
62
9
6
CONTINUOUS
10
7.1441168403
20
25.6653479704
11
7.1441168403
21
26.5244181753
0
LINE
5
2B7
100
AcDbEntity
8
0
100
AcDbLine
62
9
6
CONTINUOUS
10
6.8883032413
20
25.3045040522
11
6.8941210711
21
25.8818543214
0
LINE
5
2B8
100
AcDbEntity
8
0
100
AcDbLine
62
9
6
CONTINUOUS
10
7.1390262392
20
25.1601664849
11
7.1441168403
21
25.6653479704
0
LINE
5
2B9
100
AcDbEntity
8
0
100
AcDbLine
62
9
6
CONTINUOUS
10
9.0179281444
20
25.6653479704
11
9.0230187455
21
25.1601664849
0
LINE
5
2BA
100
AcDbEntity
8
0
100
AcDbLine
62
9
6
CONTINUOUS
10
9.2679239136
20
25.8818543214
11
9.2737417434
21
25.3045040522
0
LINE
5
2BB
100
AcDbEntity
8
0
100
AcDbLine
62
9
6
CONTINUOUS
10
9.0179281444
20
-21.5903144623
11
9.0179281444
21
-22.4493846672
0
LINE
5
2BC
100
AcDbEntity
8
0
100
AcDbLine
62
9
6
CONTINUOUS
10
9.0179281444
20
25.6653479704
11
9.0179281444
21
26.5244181753
0
LINE
5
2BD
100
AcDbEntity
8
0
100
AcDbLine
62
9
6
CONTINUOUS
10
9.0237459742
20
-21.0851329767
11
9.0237459742
21
-20.2838715770
0
LINE
5
2BE
100
AcDbEntity
8
0
100
AcDbLine
62
9
6
CONTINUOUS
10
9.0237459742
20
24.3589050851
11
9.0237459742
21
25.1601664849
0
LINE
5
2BF
100
AcDbEntity
8
0
100
AcDbLine
62
9
6
CONTINUOUS
10
9.2679239136
20
-22.1993888980
11
9.2679239136
21
-21.8068208132
0
LINE
5
2C0
100
AcDbEntity
8
0
100
AcDbLine
62
9
6
CONTINUOUS
10
9.2679239136
20
25.8818543214
11
9.2679239136
21
26.2744224061
0
LINE
5
2C1
100
AcDbEntity
8
0
100
AcDbLine
62
9
6
CONTINUOUS
10
9.2737417434
20
-21.2294705440
11
9.2737417434
21
-20.2958942073
0
LINE
5
2C2
100
AcDbEntity
8
0
100
AcDbLine
62
9
6
CONTINUOUS
10
9.2737417434
20
24.3709277155
11
9.2737417434
21
25.3045040522
0
LINE
5
2C3
100
AcDbEntity
8
0
100
AcDbLine
62
7
6
CONTINUOUS
10
9.2810224923
20
-20.3621732139
11
9.2810224923
21
-22.2124874767
0
LINE
5
2C4
100
AcDbEntity
8
0
100
AcDbLine
62
7
6
CONTINUOUS
10
9.2810224923
20
24.4372067220
11
9.2810224923
21
26.2875209849
0
LINE
5
2C5
100
AcDbEntity
8
0
100
AcDbLine
62
7
6
CONTINUOUS
10
9.7810224923
20
-19.8536611865
11
9.7810224923
21
23.9286946947
0
LINE
5
2C6
100
AcDbEntity
8
0
100
AcDbLine
62
9
6
CONTINUOUS
10
9.0230187455
20
-21.0851329767
11
9.0179281444
21
-21.5903144623
0
LINE
5
2C7
100
AcDbEntity
8
0
100
AcDbLine
62
9
6
CONTINUOUS
10
9.2737417434
20
-21.2294705440
11
9.2679239136
21
-21.8068208132
0
LINE
5
2C8
100
AcDbEntity
8
0
100
AcDbLine
62
7
6
CONTINUOUS
10
6.8810224923
20
-20.3624832459
11
6.8883032413
21
-20.2968972982
0
LINE
5
2C9
100
AcDbEntity
8
0
100
AcDbLine
62
9
6
CONTINUOUS
10
-12.0189775077
20
-22.2124874767
11
-12.0058789289
21
-22.1993888980
0
LINE
5
2CA
100
AcDbEntity
8
0
100
AcDbLine
62
9
6
CONTINUOUS
10
-11.7689817384
20
-22.4624832459
11
-11.7558831597
21
-22.4493846672
0
LINE
5
2CB
100
AcDbEntity
8
0
100
AcDbLine
62
9
6
CONTINUOUS
10
-12.0189775077
20
26.2875209849
11
-12.0058789289
21
26.2744224061
0
LINE
5
2CC
100
AcDbEntity
8
0
100
AcDbLine
62
9
6
CONTINUOUS
10
-11.7689817384
20
26.5375167541
11
-11.7558831597
21
26.5244181753
0
LINE
5
2CD
100
AcDbEntity
8
0
100
AcDbLine
62
7
6
CONTINUOUS
10
6.8810224923
20
24.4375167541
11
6.8883032413
21
24.3719308064
0
LINE
5
2CE
100
AcDbEntity
8
0
100
AcDbLine
62
7
6
CONTINUOUS
10
-5.7660516695
20
-21.7595574077
11
-5.7689775077
21
-21.7624832459
0
LINE
5
2CF
100
AcDbEntity
8
0
100
AcDbLine
62
7
6
CONTINUOUS
10
-5.7660516695
20
25.8345909159
11
-5.7689775077
21
25.8375167541
0
LINE
5
2D0
100
AcDbEntity
8
0
100
AcDbLine
62
9
6
CONTINUOUS
10
9.1137716839
20
22.5999850789
11
-11.8517266992
21
22.5999850789
0
LINE
5
2D1
100
AcDbEntity
8
0
100
AcDbLine
62
9
6
CONTINUOUS
10
9.1302984545
20
24.0362419760
11
-11.8682534698
21
24.0362419760
0
LINE
5
2D2
100
AcDbEntity
8
0
100
AcDbLine
62
9
6
CONTINUOUS
10
6.8810224923
20
-22.2124874767
11
6.8941210711
21
-22.1993888980
0
LINE
5
2D3
100
AcDbEntity
8
0
100
AcDbLine
62
9
6
CONTINUOUS
10
7.1310182616
20
-22.4624832459
11
7.1441168403
21
-22.4493846672
0
LINE
5
2D4
100
AcDbEntity
8
0
100
AcDbLine
62
7
6
CONTINUOUS
10
9.0237459742
20
24.3589050851
11
7.1382990105
21
24.3589050851
0
LINE
5
2D5
100
AcDbEntity
8
0
100
AcDbLine
62
7
6
CONTINUOUS
10
-9.8762540258
20
24.3589050851
11
-11.7617009895
21
24.3589050851
0
LINE
5
2D6
100
AcDbEntity
8
0
100
AcDbLine
62
7
6
CONTINUOUS
10
-5.2660601310
20
24.3851089748
11
2.5281051157
21
24.3851089748
0
LINE
5
2D7
100
AcDbEntity
8
0
100
AcDbLine
62
7
6
CONTINUOUS
10
-9.6189775077
20
24.4375167541
11
-5.7689775077
21
24.4375167541
0
LINE
5
2D8
100
AcDbEntity
8
0
100
AcDbLine
62
7
6
CONTINUOUS
10
3.0310224923
20
24.4375167541
11
6.8810224923
21
24.4375167541
0
LINE
5
2D9
100
AcDbEntity
8
0
100
AcDbLine
62
7
6
CONTINUOUS
10
9.0230187455
20
25.1601664849
11
7.1390262392
21
25.1601664849
0
LINE
5
2DA
100
AcDbEntity
8
0
100
AcDbLine
62
7
6
CONTINUOUS
10
-9.8769812545
20
25.1601664849
11
-11.7609737608
21
25.1601664849
0
LINE
5
2DB
100
AcDbEntity
8
0
100
AcDbLine
62
9
6
CONTINUOUS
10
2.5281051157
20
25.6328591055
11
-5.2660601310
21
25.6328591055
0
LINE
5
2DC
100
AcDbEntity
8
0
100
AcDbLine
62
9
6
CONTINUOUS
10
-11.7558831597
20
25.6653479704
11
-9.8820718556
21
25.6653479704
0
LINE
5
2DD
100
AcDbEntity
8
0
100
AcDbLine
62
9
6
CONTINUOUS
10
7.1441168403
20
25.6653479704
11
9.0179281444
21
25.6653479704
0
LINE
5
2DE
100
AcDbEntity
8
0
100
AcDbLine
62
9
6
CONTINUOUS
10
2.9272298060
20
25.8328557209
11
-5.6651848213
21
25.8328557209
0
LINE
5
2DF
100
AcDbEntity
8
0
100
AcDbLine
62
7
6
CONTINUOUS
10
-5.7689775077
20
25.8375167541
11
3.0310224923
21
25.8375167541
0
LINE
5
2E0
100
AcDbEntity
8
0
100
AcDbLine
62
9
6
CONTINUOUS
10
6.8941210711
20
25.8818543214
11
9.2679239136
21
25.8818543214
0
LINE
5
2E1
100
AcDbEntity
8
0
100
AcDbLine
62
9
6
CONTINUOUS
10
-9.6320760864
20
25.8818543214
11
-12.0058789289
21
25.8818543214
0
LINE
5
2E2
100
AcDbEntity
8
0
100
AcDbLine
62
9
6
CONTINUOUS
10
6.8810224923
20
26.2875209849
11
6.8941210711
21
26.2744224061
0
LINE
5
2E3
100
AcDbEntity
8
0
100
AcDbLine
62
9
6
CONTINUOUS
10
7.1310182616
20
26.5375167541
11
7.1441168403
21
26.5244181753
0
LINE
5
2E4
100
AcDbEntity
8
0
100
AcDbLine
62
9
6
CONTINUOUS
10
9.7636055899
20
-19.8623689745
11
9.7810224923
21
-19.8536611865
0
LINE
5
2E5
100
AcDbEntity
8
0
100
AcDbLine
62
7
6
CONTINUOUS
10
9.4870369018
20
-20.3097083799
11
9.5045394944
21
-20.3009577501
0
LINE
5
2E6
100
AcDbEntity
8
0
100
AcDbLine
62
9
6
CONTINUOUS
10
6.8941210711
20
26.2744224061
11
9.2679239136
21
26.2744224061
0
LINE
5
2E7
100
AcDbEntity
8
0
100
AcDbLine
62
9
6
CONTINUOUS
10
-9.6320760864
20
26.2744224061
11
-12.0058789289
21
26.2744224061
0
LINE
5
2E8
100
AcDbEntity
8
0
100
AcDbLine
62
9
6
CONTINUOUS
10
9.0179281444
20
26.5244181753
11
7.1441168403
21
26.5244181753
0
LINE
5
2E9
100
AcDbEntity
8
0
100
AcDbLine
62
9
6
CONTINUOUS
10
-9.8820718556
20
26.5244181753
11
-11.7558831597
21
26.5244181753
0
LINE
5
2EA
100
AcDbEntity
8
0
100
AcDbLine
62
7
6
CONTINUOUS
10
-11.7689817384
20
26.5375167541
11
-9.8689732769
21
26.5375167541
0
LINE
5
2EB
100
AcDbEntity
8
0
100
AcDbLine
62
7
6
CONTINUOUS
10
7.1310182616
20
26.5375167541
11
9.0310267231
21
26.5375167541
0
LINE
5
2EC
100
AcDbEntity
8
0
100
AcDbLine
62
9
6
CONTINUOUS
10
9.7810224923
20
23.9286946947
11
9.7636055899
21
23.9374024826
0
LINE
5
2ED
100
AcDbEntity
8
0
100
AcDbLine
62
7
6
CONTINUOUS
10
9.5045394944
20
24.3759912582
11
9.4870369018
21
24.3847418880
0
LINE
5
2EE
100
AcDbEntity
8
0
100
AcDbLine
62
9
6
CONTINUOUS
10
-54.9157668668
20
25.4480019023
11
-54.1643124340
21
25.8818543214
0
LINE
5
2EF
100
AcDbEntity
8
0
100
AcDbLine
62
7
6
CONTINUOUS
10
-54.1643124340
20
-22.4581114119
11
-54.9157668668
21
-22.4624832459
0
LINE
5
2F0
100
AcDbEntity
8
0
100
AcDbLine
62
9
6
CONTINUOUS
10
-54.1643124340
20
-22.2081156427
11
-54.9157668668
21
-22.2124874767
0
LINE
5
2F1
100
AcDbEntity
8
0
100
AcDbLine
62
9
6
CONTINUOUS
10
-53.9157668668
20
-22.2081156427
11
-54.1643124340
21
-22.2081156427
0
LINE
5
2F2
100
AcDbEntity
8
0
100
AcDbLine
62
9
6
CONTINUOUS
10
-57.4157668668
20
-22.1993888980
11
-57.1672212997
21
-22.1993888980
0
LINE
5
2F3
100
AcDbEntity
8
0
100
AcDbLine
62
9
6
CONTINUOUS
10
-57.4157668668
20
-21.8068208132
11
-57.1672212997
21
-21.8068208132
0
LINE
5
2F4
100
AcDbEntity
8
0
100
AcDbLine
62
9
6
CONTINUOUS
10
-53.9157668668
20
-21.8068208132
11
-54.1643124340
21
-21.8068208132
0
LINE
5
2F5
100
AcDbEntity
8
0
100
AcDbLine
62
7
6
CONTINUOUS
10
-54.9157668668
20
-22.4624832459
11
-57.1672212997
21
-22.4493846672
0
LINE
5
2F6
100
AcDbEntity
8
0
100
AcDbLine
62
9
6
CONTINUOUS
10
-54.9157668668
20
-22.2124874767
11
-57.1672212997
21
-22.1993888980
0
LINE
5
2F7
100
AcDbEntity
8
0
100
AcDbLine
62
9
6
CONTINUOUS
10
-54.1643124340
20
-21.8068208132
11
-54.9157668668
21
-21.3729683941
0
LINE
5
2F8
100
AcDbEntity
8
0
100
AcDbLine
62
7
6
CONTINUOUS
10
-54.9157668668
20
25.1601664849
11
-53.9157668668
21
25.7375167541
0
LINE
5
2F9
100
AcDbEntity
8
0
100
AcDbLine
62
7
6
CONTINUOUS
10
-44.9070403313
20
-20.2751384127
11
-54.9157668668
21
-20.3624832459
0
LINE
5
2FA
100
AcDbEntity
8
0
100
AcDbLine
62
9
6
CONTINUOUS
10
-54.9135805378
20
-19.8623689745
11
-53.9157668668
21
-19.8536611865
0
LINE
5
2FB
100
AcDbEntity
8
0
100
AcDbLine
62
7
6
CONTINUOUS
10
-53.9208582352
20
-21.7566950368
11
-47.4128580011
21
-21.7188325991
0
LINE
5
2FC
100
AcDbEntity
8
0
100
AcDbLine
62
7
6
CONTINUOUS
10
-56.2913100088
20
-20.2903940846
11
-62.5725457557
21
-19.9612084679
0
LINE
5
2FD
100
AcDbEntity
8
0
100
AcDbLine
62
9
6
CONTINUOUS
10
-62.5551039808
20
-19.4618937005
11
-54.9135805378
21
-19.8623689745
0
LINE
5
2FE
100
AcDbEntity
8
0
100
AcDbLine
62
7
6
CONTINUOUS
10
-54.0407668668
20
-21.5903144623
11
-54.9157668668
21
-21.0851329767
0
LINE
5
2FF
100
AcDbEntity
8
0
100
AcDbLine
62
9
6
CONTINUOUS
10
-63.5019220365
20
-18.5043891024
11
-63.9927725643
21
-18.5249515594
0
LINE
5
300
100
AcDbEntity
8
0
100
AcDbLine
62
9
6
CONTINUOUS
10
-43.9157668668
20
-18.0306988470
11
-44.2575827840
21
-18.0307030338
0
LINE
5
301
100
AcDbEntity
8
0
100
AcDbLine
62
7
6
CONTINUOUS
10
-43.9157668668
20
-18.9584787916
11
-53.7159801066
21
-18.8729536264
0
LINE
5
302
100
AcDbEntity
8
0
100
AcDbLine
62
7
6
CONTINUOUS
10
-44.4070406636
20
-19.5284586792
11
-53.9157668668
21
-19.3624832459
0
LINE
5
303
100
AcDbEntity
8
0
100
AcDbLine
62
7
6
CONTINUOUS
10
-53.7159801066
20
-18.8729536264
11
-53.9157668668
21
-18.8624832459
0
LINE
5
304
100
AcDbEntity
8
0
100
AcDbLine
62
7
6
CONTINUOUS
10
-47.9157668668
20
-13.2124832459
11
-34.9070406636
21
-12.9854150854
0
LINE
5
305
100
AcDbEntity
8
0
100
AcDbLine
62
7
6
CONTINUOUS
10
-47.9157668668
20
-11.9604722230
11
-53.9157668668
21
-11.9814162591
0
LINE
5
306
100
AcDbEntity
8
0
100
AcDbLine
62
7
6
CONTINUOUS
10
-57.4157668668
20
-22.1993888980
11
-57.4157668668
21
-21.8068208132
0
LINE
5
307
100
AcDbEntity
8
0
100
AcDbLine
62
7
6
CONTINUOUS
10
-57.4157668668
20
25.8818543214
11
-57.4157668668
21
26.2744224061
0
LINE
5
308
100
AcDbEntity
8
0
100
AcDbLine
62
9
6
CONTINUOUS
10
-57.1672212997
20
-22.1993888980
11
-57.1672212997
21
-21.8068208132
0
LINE
5
309
100
AcDbEntity
8
0
100
AcDbLine
62
9
6
CONTINUOUS
10
-57.1672212997
20
25.8818543214
11
-57.1672212997
21
26.2744224061
0
LINE
5
30A
100
AcDbEntity
8
0
100
AcDbLine
62
7
6
CONTINUOUS
10
-56.4157668668
20
-21.0851329767
11
-56.4157668668
21
-20.2838715770
0
LINE
5
30B
100
AcDbEntity
8
0
100
AcDbLine
62
7
6
CONTINUOUS
10
-56.4157668668
20
24.3589050851
11
-56.4157668668
21
25.1601664849
0
LINE
5
30C
100
AcDbEntity
8
0
100
AcDbLine
62
9
6
CONTINUOUS
10
-56.1672212997
20
-21.2294705440
11
-56.1672212997
21
-20.2958942073
0
LINE
5
30D
100
AcDbEntity
8
0
100
AcDbLine
62
9
6
CONTINUOUS
10
-56.1672212997
20
24.3709277155
11
-56.1672212997
21
25.3045040522
0
LINE
5
30E
100
AcDbEntity
8
0
100
AcDbLine
62
7
6
CONTINUOUS
10
-47.9157668668
20
-6.4644942689
11
-53.9157668668
21
-6.4435502328
0
LINE
5
30F
100
AcDbEntity
8
0
100
AcDbLine
62
7
6
CONTINUOUS
10
-47.9157668668
20
-5.9751499126
11
-47.1480955767
21
-5.9799062888
0
LINE
5
310
100
AcDbEntity
8
0
100
AcDbLine
62
7
6
CONTINUOUS
10
-54.9157668668
20
-20.3621732139
11
-54.9157668668
21
-22.2124874767
0
LINE
5
311
100
AcDbEntity
8
0
100
AcDbLine
62
7
6
CONTINUOUS
10
-54.9157668668
20
24.4372067220
11
-54.9157668668
21
26.2875209849
0
LINE
5
312
100
AcDbEntity
8
0
100
AcDbLine
62
9
6
CONTINUOUS
10
-54.1643124340
20
26.2831491508
11
-54.1643124340
21
25.8818543214
0
LINE
5
313
100
AcDbEntity
8
0
100
AcDbLine
62
9
6
CONTINUOUS
10
-54.1643124340
20
-21.8068208132
11
-54.1643124340
21
-22.2081156427
0
LINE
5
314
100
AcDbEntity
8
0
100
AcDbLine
62
7
6
CONTINUOUS
10
-53.9157668668
20
26.2831491508
11
-53.9157668668
21
25.7375167541
0
LINE
5
315
100
AcDbEntity
8
0
100
AcDbLine
62
7
6
CONTINUOUS
10
-53.9157668668
20
-21.8068208132
11
-53.9157668668
21
-22.2081156427
0
LINE
5
316
100
AcDbEntity
8
0
100
AcDbLine
62
7
6
CONTINUOUS
10
-53.9157668668
20
-20.3537563781
11
-53.9157668668
21
24.4287898863
0
LINE
5
317
100
AcDbEntity
8
0
100
AcDbLine
62
7
6
CONTINUOUS
10
-49.2770451776
20
-4.7152770944
11
-53.9157668668
21
-4.7557586053
0
LINE
5
318
100
AcDbEntity
8
0
100
AcDbLine
62
7
6
CONTINUOUS
10
-34.9157668668
20
-5.4393990900
11
-34.9070406636
21
-5.4395514064
0
LINE
5
319
100
AcDbEntity
8
0
100
AcDbLine
62
7
6
CONTINUOUS
10
-53.2157668668
20
-0.9054828678
11
-53.9157668668
21
-0.9054828678
0
LINE
5
31A
100
AcDbEntity
8
0
100
AcDbLine
62
7
6
CONTINUOUS
10
-48.8198029957
20
-0.2605802848
11
-48.6796371514
21
-0.2605802848
0
LINE
5
31B
100
AcDbEntity
8
0
100
AcDbLine
62
9
6
CONTINUOUS
10
-49.2770451776
20
8.7903106025
11
-49.2770451776
21
8.6455081852
0
LINE
5
31C
100
AcDbEntity
8
0
100
AcDbLine
62
9
6
CONTINUOUS
10
-49.2770451776
20
7.6936052241
11
-49.2770451776
21
5.7265393860
0
LINE
5
31D
100
AcDbEntity
8
0
100
AcDbLine
62
9
6
CONTINUOUS
10
-49.2770451776
20
3.4284423472
11
-49.2770451776
21
0.6465911609
0
LINE
5
31E
100
AcDbEntity
8
0
100
AcDbLine
62
9
6
CONTINUOUS
10
-49.2770451776
20
-1.6515058779
11
-49.2770451776
21
-3.6185717159
0
LINE
5
31F
100
AcDbEntity
8
0
100
AcDbLine
62
9
6
CONTINUOUS
10
-49.2770451776
20
-4.5704746771
11
-49.2770451776
21
-4.7152770944
0
LINE
5
320
100
AcDbEntity
8
0
100
AcDbLine
62
9
6
CONTINUOUS
10
-49.0314084454
20
8.7233423429
11
-49.0314084454
21
8.5825496503
0
LINE
5
321
100
AcDbEntity
8
0
100
AcDbLine
62
9
6
CONTINUOUS
10
-49.0314084454
20
7.6306466892
11
-49.0314084454
21
5.7004611070
0
LINE
5
322
100
AcDbEntity
8
0
100
AcDbLine
62
9
6
CONTINUOUS
10
-49.0314084454
20
3.4023640682
11
-49.0314084454
21
0.6726694400
0
LINE
5
323
100
AcDbEntity
8
0
100
AcDbLine
62
9
6
CONTINUOUS
10
-49.0314084454
20
-1.6254275989
11
-49.0314084454
21
-3.5556131811
0
LINE
5
324
100
AcDbEntity
8
0
100
AcDbLine
62
9
6
CONTINUOUS
10
-49.0314084454
20
-4.5075161422
11
-49.0314084454
21
-4.6483088348
0
LINE
5
325
100
AcDbEntity
8
0
100
AcDbLine
62
7
6
CONTINUOUS
10
-47.9157668668
20
-13.2124832459
11
-47.9157668668
21
17.2875167541
0
LINE
5
326
100
AcDbEntity
8
0
100
AcDbLine
62
9
6
CONTINUOUS
10
-47.3412470401
20
-20.2963814128
11
-47.3412470401
21
-21.7132566706
0
LINE
5
327
100
AcDbEntity
8
0
100
AcDbLine
62
9
6
CONTINUOUS
10
-47.3412470401
20
24.3714149210
11
-47.3412470401
21
25.7882901788
0
LINE
5
328
100
AcDbEntity
8
0
100
AcDbLine
62
7
6
CONTINUOUS
10
-47.1480955767
20
-5.9799062888
11
-47.1480955767
21
10.0549397969
0
LINE
5
329
100
AcDbEntity
8
0
100
AcDbLine
62
7
6
CONTINUOUS
10
-46.9157668668
20
-20.2926786579
11
-46.9157668668
21
-21.2188410606
0
LINE
5
32A
100
AcDbEntity
8
0
100
AcDbLine
62
7
6
CONTINUOUS
10
-46.9157668668
20
24.3677121660
11
-46.9157668668
21
25.2938745688
0
LINE
5
32B
100
AcDbEntity
8
0
100
AcDbLine
62
9
6
CONTINUOUS
10
-44.4070406636
20
23.6034921873
11
-44.4070406636
21
23.0292250183
0
LINE
5
32C
100
AcDbEntity
8
0
100
AcDbLine
62
9
6
CONTINUOUS
10
-44.4070406636
20
-18.9541915102
11
-44.4070406636
21
-19.5284586792
0
LINE
5
32D
100
AcDbEntity
8
0
100
AcDbLine
62
9
6
CONTINUOUS
10
-44.2575827840
20
-18.0710892858
11
-44.2575827840
21
-18.0307030338
0
LINE
5
32E
100
AcDbEntity
8
0
100
AcDbLine
62
9
6
CONTINUOUS
10
-44.2575827840
20
22.1057365419
11
-44.2575827840
21
22.1461227939
0
LINE
5
32F
100
AcDbEntity
8
0
100
AcDbLine
62
7
6
CONTINUOUS
10
-43.9157668668
20
-19.2751764896
11
-43.9157668668
21
-18.0306988470
0
LINE
5
330
100
AcDbEntity
8
0
100
AcDbLine
62
7
6
CONTINUOUS
10
-43.9157668668
20
22.1057365419
11
-43.9157668668
21
23.3502099978
0
LINE
5
331
100
AcDbEntity
8
0
100
AcDbLine
62
7
6
CONTINUOUS
10
-48.8198029957
20
4.3356137929
11
-48.6796371514
21
4.3356137929
0
LINE
5
332
100
AcDbEntity
8
0
100
AcDbLine
62
7
6
CONTINUOUS
10
-53.2157668668
20
4.9805163759
11
-53.9157668668
21
4.9805163759
0
LINE
5
333
100
AcDbEntity
8
0
100
AcDbLine
62
7
6
CONTINUOUS
10
-41.8481761003
20
-4.2049000197
11
-41.8482297392
21
-4.2039540159
0
LINE
5
334
100
AcDbEntity
8
0
100
AcDbLine
62
7
6
CONTINUOUS
10
-41.8482297392
20
-4.2039540172
11
-41.8482297392
21
8.2789875253
0
LINE
5
335
100
AcDbEntity
8
0
100
AcDbLine
62
7
6
CONTINUOUS
10
-41.8481760999
20
8.2799335278
11
-41.8482297392
21
8.2789875240
0
LINE
5
336
100
AcDbEntity
8
0
100
AcDbLine
62
7
6
CONTINUOUS
10
-47.9157668668
20
-4.0041928691
11
-49.0314084454
21
-4.6483088348
0
LINE
5
337
100
AcDbEntity
8
0
100
AcDbLine
62
7
6
CONTINUOUS
10
-47.9157668668
20
8.0792263772
11
-49.0314084454
21
8.7233423429
0
LINE
5
338
100
AcDbEntity
8
0
100
AcDbLine
62
9
6
CONTINUOUS
10
-44.2463075958
20
-17.6367799326
11
-44.3040557906
21
-17.9756390089
0
LINE
5
339
100
AcDbEntity
8
0
100
AcDbLine
62
7
6
CONTINUOUS
10
-34.9157668668
20
9.5144325981
11
-34.9070406636
21
9.5145849146
0
LINE
5
33A
100
AcDbEntity
8
0
100
AcDbLine
62
7
6
CONTINUOUS
10
-47.9157668668
20
10.0501834207
11
-47.1480955767
21
10.0549397969
0
LINE
5
33B
100
AcDbEntity
8
0
100
AcDbLine
62
7
6
CONTINUOUS
10
-49.2770451776
20
8.7903106025
11
-53.9157668668
21
8.8307921134
0
LINE
5
33C
100
AcDbEntity
8
0
100
AcDbLine
62
9
6
CONTINUOUS
10
-44.2463046622
20
21.7118138262
11
-44.3040762130
21
22.0506704443
0
LINE
5
33D
100
AcDbEntity
8
0
100
AcDbLine
62
7
6
CONTINUOUS
10
-47.9157668668
20
10.5395277770
11
-53.9157668668
21
10.5185837409
0
LINE
5
33E
100
AcDbEntity
8
0
100
AcDbLine
62
9
6
CONTINUOUS
10
-35.4070406636
20
-4.1142681214
11
-35.4069843314
21
-4.1151841849
0
LINE
5
33F
100
AcDbEntity
8
0
100
AcDbLine
62
9
6
CONTINUOUS
10
-35.4069843314
20
8.1902176930
11
-35.4070406634
21
8.1893016362
0
LINE
5
340
100
AcDbEntity
8
0
100
AcDbLine
62
9
6
CONTINUOUS
10
-35.4070406636
20
8.1893016295
11
-35.4070406636
21
-4.1142681214
0
LINE
5
341
100
AcDbEntity
8
0
100
AcDbLine
62
7
6
CONTINUOUS
10
-34.9157668668
20
9.7545257973
11
-34.9157668668
21
-5.6794922892
0
LINE
5
342
100
AcDbEntity
8
0
100
AcDbLine
62
9
6
CONTINUOUS
10
-34.9070406636
20
-5.4395514064
11
-34.9070406636
21
-12.9854150854
0
LINE
5
343
100
AcDbEntity
8
0
100
AcDbLine
62
7
6
CONTINUOUS
10
-34.4157668668
20
16.5605247460
11
-34.4157668668
21
10.0145087622
0
LINE
5
344
100
AcDbEntity
8
0
100
AcDbLine
62
7
6
CONTINUOUS
10
-34.4157668668
20
-5.9394752540
11
-34.4157668668
21
-12.4854912378
0
LINE
5
345
100
AcDbEntity
8
0
100
AcDbLine
62
7
6
CONTINUOUS
10
-47.9157668668
20
16.0355057311
11
-53.9157668668
21
16.0564497672
0
LINE
5
346
100
AcDbEntity
8
0
100
AcDbLine
62
7
6
CONTINUOUS
10
-56.4157668668
20
-21.0851329767
11
-57.2907668668
21
-21.5903144623
0
LINE
5
347
100
AcDbEntity
8
0
100
AcDbLine
62
9
6
CONTINUOUS
10
-56.1672212997
20
-21.2294705440
11
-57.1672212997
21
-21.8068208132
0
LINE
5
348
100
AcDbEntity
8
0
100
AcDbLine
62
7
6
CONTINUOUS
10
-47.9157668668
20
17.2875167541
11
-34.9070406636
21
17.0604485936
0
LINE
5
349
100
AcDbEntity
8
0
100
AcDbLine
62
7
6
CONTINUOUS
10
-57.2907668668
20
25.6653479704
11
-56.4157668668
21
25.1601664849
0
LINE
5
34A
100
AcDbEntity
8
0
100
AcDbLine
62
9
6
CONTINUOUS
10
-57.1672212997
20
25.8818543214
11
-56.1672212997
21
25.3045040522
0
LINE
5
34B
100
AcDbEntity
8
0
100
AcDbLine
62
9
6
CONTINUOUS
10
-43.9157668668
20
22.1057365419
11
-44.2575827840
21
22.1057365419
0
LINE
5
34C
100
AcDbEntity
8
0
100
AcDbLine
62
9
6
CONTINUOUS
10
-63.5019220365
20
22.5794226106
11
-63.9927728391
21
22.5999850789
0
LINE
5
34D
100
AcDbEntity
8
0
100
AcDbLine
62
7
6
CONTINUOUS
10
-53.9157668668
20
22.9375167541
11
-53.7159801066
21
22.9479871345
0
LINE
5
34E
100
AcDbEntity
8
0
100
AcDbLine
62
9
6
CONTINUOUS
10
-54.9135805378
20
23.9374024826
11
-62.5551039808
21
23.5369272087
0
LINE
5
34F
100
AcDbEntity
8
0
100
AcDbLine
62
7
6
CONTINUOUS
10
-44.4070406636
20
23.6034921873
11
-53.9157668668
21
23.4375167541
0
LINE
5
350
100
AcDbEntity
8
0
100
AcDbLine
62
7
6
CONTINUOUS
10
-43.9157668668
20
23.0335122998
11
-53.7159801066
21
22.9479871345
0
LINE
5
351
100
AcDbEntity
8
0
100
AcDbLine
62
9
6
CONTINUOUS
10
-53.9157668668
20
23.9286946947
11
-54.9135805378
21
23.9374024826
0
LINE
5
352
100
AcDbEntity
8
0
100
AcDbLine
62
7
6
CONTINUOUS
10
-62.5725457557
20
24.0362419760
11
-56.2913100088
21
24.3654275927
0
LINE
5
353
100
AcDbEntity
8
0
100
AcDbLine
62
9
6
CONTINUOUS
10
-54.9157668668
20
26.2875209849
11
-57.1672212997
21
26.2744224061
0
LINE
5
354
100
AcDbEntity
8
0
100
AcDbLine
62
9
6
CONTINUOUS
10
-57.4157668668
20
25.8818543214
11
-57.1672212997
21
25.8818543214
0
LINE
5
355
100
AcDbEntity
8
0
100
AcDbLine
62
9
6
CONTINUOUS
10
-57.4157668668
20
26.2744224061
11
-57.1672212997
21
26.2744224061
0
LINE
5
356
100
AcDbEntity
8
0
100
AcDbLine
62
9
6
CONTINUOUS
10
-53.9157668668
20
26.2831491508
11
-54.1643124340
21
26.2831491508
0
LINE
5
357
100
AcDbEntity
8
0
100
AcDbLine
62
7
6
CONTINUOUS
10
-53.9157668668
20
25.8316989243
11
-47.4128580011
21
25.7938661072
0
LINE
5
358
100
AcDbEntity
8
0
100
AcDbLine
62
9
6
CONTINUOUS
10
-54.1643124340
20
26.2831491508
11
-54.9157668668
21
26.2875209849
0
LINE
5
359
100
AcDbEntity
8
0
100
AcDbLine
62
7
6
CONTINUOUS
10
-44.9070403313
20
24.3501719208
11
-54.9157668668
21
24.4375167541
0
LINE
5
35A
100
AcDbEntity
8
0
100
AcDbLine
62
7
6
CONTINUOUS
10
-54.9157668668
20
26.5375167541
11
-57.1672212997
21
26.5244181753
0
LINE
5
35B
100
AcDbEntity
8
0
100
AcDbLine
62
7
6
CONTINUOUS
10
-54.1643124340
20
26.5331449201
11
-54.9157668668
21
26.5375167541
0
CIRCLE
5
35C
100
AcDbEntity
8
0
100
AcDbCircle
62
7
6
CONTINUOUS
10
-1.3689775077
20
2.0375167541
40
4.2500000000
0
ARC
5
35D
100
AcDbEntity
8
0
100
AcDbCircle
62
7
6
CONTINUOUS
10
-49.2814084454
20
-4.2152961329
40
0.5000000000
100
AcDbArc
50
270.5000000000
51
300.0000000000
0
ARC
5
35E
100
AcDbEntity
8
0
100
AcDbCircle
62
7
6
CONTINUOUS
10
-49.2814084454
20
8.2903296410
40
0.5000000000
100
AcDbArc
50
60.0000000000
51
89.5000000000
0
ARC
5
35F
100
AcDbEntity
8
0
100
AcDbCircle
62
7
6
CONTINUOUS
10
-34.9157668668
20
-5.9394752540
40
0.5000000000
100
AcDbArc
50
0.0000000000
51
89.0000000000
0
ARC
5
360
100
AcDbEntity
8
0
100
AcDbCircle
62
7
6
CONTINUOUS
10
-34.9157668668
20
-12.4854912378
40
0.5000000000
100
AcDbArc
50
271.0000000000
51
360.0000000000
0
ARC
5
361
100
AcDbEntity
8
0
100
AcDbCircle
62
7
6
CONTINUOUS
10
-34.9157668668
20
16.5605247460
40
0.5000000000
100
AcDbArc
50
0.0000000000
51
89.0000000000
0
ARC
5
362
100
AcDbEntity
8
0
100
AcDbCircle
62
7
6
CONTINUOUS
10
-34.9157668668
20
10.0145087622
40
0.5000000000
100
AcDbArc
50
271.0000000000
51
360.0000000000
0
ARC
5
363
100
AcDbEntity
8
0
100
AcDbCircle
62
7
6
CONTINUOUS
10
-44.9157668668
20
23.3502099978
40
1.0000000000
100
AcDbArc
50
0.0000000000
51
89.5000000000
0
ARC
5
364
100
AcDbEntity
8
0
100
AcDbCircle
62
7
6
CONTINUOUS
10
-44.9157668668
20
-19.2751764896
40
1.0000000000
100
AcDbArc
50
270.5000000000
51
360.0000000000
0
ARC
5
365
100
AcDbEntity
8
0
100
AcDbCircle
62
7
6
CONTINUOUS
10
-44.4157668668
20
22.6204410373
40
0.5000000000
100
AcDbArc
50
288.4434284734
51
360.0000000000
0
ARC
5
366
100
AcDbEntity
8
0
100
AcDbCircle
62
7
6
CONTINUOUS
10
-57.1657668668
20
26.2744224061
40
0.2500000000
100
AcDbArc
50
90.3333333333
51
180.0000000000
0
ARC
5
367
100
AcDbEntity
8
0
100
AcDbCircle
62
7
6
CONTINUOUS
10
-44.4157668668
20
-18.5454075291
40
0.5000000000
100
AcDbArc
50
0.0000000000
51
71.5565715266
0
ARC
5
368
100
AcDbEntity
8
0
100
AcDbCircle
62
7
6
CONTINUOUS
10
-54.1657668668
20
26.2831491508
40
0.2500000000
100
AcDbArc
50
0.0000000000
51
89.6666666667
0
ARC
5
369
100
AcDbEntity
8
0
100
AcDbCircle
62
7
6
CONTINUOUS
10
-57.1657668668
20
25.8818543214
40
0.2500000000
100
AcDbArc
50
180.0000000000
51
240.0000000000
0
ARC
5
36A
100
AcDbEntity
8
0
100
AcDbCircle
62
7
6
CONTINUOUS
10
-54.1657668668
20
-22.2081156427
40
0.2500000000
100
AcDbArc
50
270.3333333333
51
360.0000000000
0
ARC
5
36B
100
AcDbEntity
8
0
100
AcDbCircle
62
7
6
CONTINUOUS
10
-54.1657668668
20
-21.8068208132
40
0.2500000000
100
AcDbArc
50
0.0000000000
51
60.0000000000
0
ARC
5
36C
100
AcDbEntity
8
0
100
AcDbCircle
62
7
6
CONTINUOUS
10
-57.1657668668
20
-22.1993888980
40
0.2500000000
100
AcDbArc
50
180.0000000000
51
269.6666666667
0
ARC
5
36D
100
AcDbEntity
8
0
100
AcDbCircle
62
7
6
CONTINUOUS
10
-57.1657668668
20
-21.8068208132
40
0.2500000000
100
AcDbArc
50
120.0000000000
51
180.0000000000
0
ARC
5
36E
100
AcDbEntity
8
0
100
AcDbCircle
62
7
6
CONTINUOUS
10
-47.4157668668
20
25.2938745688
40
0.5000000000
100
AcDbArc
50
0.0000000000
51
89.6666666667
0
ARC
5
36F
100
AcDbEntity
8
0
100
AcDbCircle
62
7
6
CONTINUOUS
10
-47.4157668668
20
-21.2188410606
40
0.5000000000
100
AcDbArc
50
270.3333333333
51
360.0000000000
0
ARC
5
370
100
AcDbEntity
8
0
100
AcDbCircle
62
7
6
CONTINUOUS
10
-62.4940418213
20
-18.4632641658
40
1.5000000000
100
AcDbArc
50
182.3569499908
51
267.0000000000
0
ARC
5
371
100
AcDbEntity
8
0
100
AcDbCircle
62
7
6
CONTINUOUS
10
435.5842331332
20
2.0375167541
40
500.0000000000
100
AcDbArc
50
177.6430500092
51
182.3569499908
0
ARC
5
372
100
AcDbEntity
8
0
100
AcDbCircle
62
7
6
CONTINUOUS
10
-62.4940418213
20
22.5382976739
40
1.5000000000
100
AcDbArc
50
93.0000000000
51
177.6430500092
0
SPLINE
5
373
100
AcDbEntity
8
0
100
AcDbSpline
62
7
6
CONTINUOUS
70
0
71
3
72
15
73
11
74
9
42
0.0000001000
43
0.0000001000
44
0.0000000001
12
0.4952922600
22
-0.2476022018
32
0.0000000000
13
0.0000000000
23
-0.5532600274
33
0.0000000000
40
0.0000000000
40
0.0000000000
40
0.0000000000
40
0.0000000000
40
0.0973271354
40
0.2260972216
40
0.3552949958
40
0.4840559134
40
0.6132095317
40
0.7420195137
40
0.8710792965
40
1.0000000000
40
1.0000000000
40
1.0000000000
40
1.0000000000
10
9.5045117606
20
24.3760048594
30
0.0000000000
10
9.5205802196
20
24.3679720550
30
0.0000000000
10
9.5569028055
20
24.3473006874
30
0.0000000000
10
9.6095358144
20
24.3079019902
30
0.0000000000
10
9.6601408043
20
24.2572996003
30
0.0000000000
10
9.7030705685
20
24.1999553216
30
0.0000000000
10
9.7373702471
20
24.1371479304
30
0.0000000000
10
9.7623995445
20
24.0700438406
30
0.0000000000
10
9.7776172142
20
24.0001167878
30
0.0000000000
10
9.7810224923
20
23.9524702520
30
0.0000000000
10
9.7810224923
20
23.9286946947
30
0.0000000000
11
9.5045117606
21
24.3760048594
31
0.0000000000
11
9.5513273084
21
24.3493599884
31
0.0000000000
11
9.6083614105
21
24.3066666060
31
0.0000000000
11
9.6589066168
21
24.2561238778
31
0.0000000000
11
9.7015996504
21
24.1990958512
31
0.0000000000
11
9.7358474259
21
24.1363823496
31
0.0000000000
11
9.7607537308
21
24.0696108345
31
0.0000000000
11
9.7759347268
21
23.9998396789
31
0.0000000000
11
9.7810224923
21
23.9286946947
31
0.0000000000
0
SPLINE
5
374
100
AcDbEntity
8
0
100
AcDbSpline
62
7
6
CONTINUOUS
70
0
71
3
72
11
73
7
74
5
42
0.0000001000
43
0.0000001000
44
0.0000000001
12
-0.1916277652
22
-0.0958221412
32
0.0000000000
13
-0.2139705222
23
-0.0075033280
33
0.0000000000
40
0.0000000000
40
0.0000000000
40
0.0000000000
40
0.0000000000
40
0.0922585923
40
0.3945010835
40
0.6980582833
40
1.0000000000
40
1.0000000000
40
1.0000000000
40
1.0000000000
10
9.4870594815
20
-20.3096968779
30
0.0000000000
10
9.4811663789
20
-20.3126436832
30
0.0000000000
10
9.4557181906
20
-20.3247465012
30
0.0000000000
10
9.4089500564
20
-20.3423170083
30
0.0000000000
10
9.3456971847
20
-20.3571013018
30
0.0000000000
10
9.3025571737
20
-20.3614192553
30
0.0000000000
10
9.2810216315
20
-20.3621744446
30
0.0000000000
11
9.4870594815
21
-20.3096968779
31
0.0000000000
11
9.4692099511
21
-20.3181856036
31
0.0000000000
11
9.4086333891
21
-20.3409443224
31
0.0000000000
11
9.3453463793
21
-20.3557342710
31
0.0000000000
11
9.2810216315
21
-20.3621744446
31
0.0000000000
0
SPLINE
5
375
100
AcDbEntity
8
0
100
AcDbSpline
62
7
6
CONTINUOUS
70
0
71
3
72
11
73
7
74
5
42
0.0000001000
43
0.0000001000
44
0.0000000001
12
0.1916277652
22
0.0958221412
32
0.0000000000
13
0.2139705222
23
0.0075033280
33
0.0000000000
40
0.0000000000
40
0.0000000000
40
0.0000000000
40
0.0000000000
40
0.0922585923
40
0.3945010835
40
0.6980582833
40
1.0000000000
40
1.0000000000
40
1.0000000000
40
1.0000000000
10
-12.2250144968
20
24.3847303860
30
0.0000000000
10
-12.2191213942
20
24.3876771913
30
0.0000000000
10
-12.1936732059
20
24.3997800093
30
0.0000000000
10
-12.1469050717
20
24.4173505164
30
0.0000000000
10
-12.0836522000
20
24.4321348099
30
0.0000000000
10
-12.0405121890
20
24.4364527635
30
0.0000000000
10
-12.0189766468
20
24.4372079527
30
0.0000000000
11
-12.2250144968
21
24.3847303860
31
0.0000000000
11
-12.2071649664
21
24.3932191117
31
0.0000000000
11
-12.1465884044
21
24.4159778306
31
0.0000000000
11
-12.0833013946
21
24.4307677792
31
0.0000000000
11
-12.0189766468
21
24.4372079527
31
0.0000000000
0
SPLINE
5
376
100
AcDbEntity
8
0
100
AcDbSpline
62
7
6
CONTINUOUS
70
0
71
3
72
15
73
11
74
9
42
0.0000001000
43
0.0000001000
44
0.0000000001
12
-0.4952922600
22
0.2476022018
32
0.0000000000
13
0.0000000000
23
0.5532600274
33
0.0000000000
40
0.0000000000
40
0.0000000000
40
0.0000000000
40
0.0000000000
40
0.0973271354
40
0.2260972216
40
0.3552949958
40
0.4840559134
40
0.6132095317
40
0.7420195137
40
0.8710792965
40
1.0000000000
40
1.0000000000
40
1.0000000000
40
1.0000000000
10
-12.2424667759
20
-20.3009713512
30
0.0000000000
10
-12.2585352349
20
-20.2929385469
30
0.0000000000
10
-12.2948578209
20
-20.2722671792
30
0.0000000000
10
-12.3474908297
20
-20.2328684821
30
0.0000000000
10
-12.3980958196
20
-20.1822660922
30
0.0000000000
10
-12.4410255838
20
-20.1249218134
30
0.0000000000
10
-12.4753252624
20
-20.0621144223
30
0.0000000000
10
-12.5003545598
20
-19.9950103324
30
0.0000000000
10
-12.5155722295
20
-19.9250832797
30
0.0000000000
10
-12.5189775077
20
-19.8774367439
30
0.0000000000
10
-12.5189775077
20
-19.8536611865
30
0.0000000000
11
-12.2424667759
21
-20.3009713512
31
0.0000000000
11
-12.2892823237
21
-20.2743264803
31
0.0000000000
11
-12.3463164258
21
-20.2316330979
31
0.0000000000
11
-12.3968616321
21
-20.1810903697
31
0.0000000000
11
-12.4395546657
21
-20.1240623430
31
0.0000000000
11
-12.4738024412
21
-20.0613488415
31
0.0000000000
11
-12.4987087461
21
-19.9945773264
31
0.0000000000
11
-12.5138897421
21
-19.9248061707
31
0.0000000000
11
-12.5189775077
21
-19.8536611865
31
0.0000000000
0
SPLINE
5
377
100
AcDbEntity
8
0
100
AcDbSpline
62
7
6
CONTINUOUS
70
0
71
3
72
18
73
14
74
12
42
0.0000001000
43
0.0000001000
44
0.0000000001
12
0.0000000000
22
0.3923594660
32
0.0000000000
13
-0.3923594660
23
0.0000000000
33
0.0000000000
40
0.0000000000
40
0.0000000000
40
0.0000000000
40
0.0000000000
40
0.0909090103
40
0.1818180598
40
0.2727271497
40
0.3636362742
40
0.4545454220
40
0.5454545780
40
0.6363637258
40
0.7272728503
40
0.8181819402
40
0.9090909897
40
1.0000000000
40
1.0000000000
40
1.0000000000
40
1.0000000000
10
-9.6189775077
20
26.2875209849
30
0.0000000000
10
-9.6189775077
20
26.2994106551
30
0.0000000000
10
-9.6206796252
20
26.3232249198
30
0.0000000000
10
-9.6282872574
20
26.3581915576
30
0.0000000000
10
-9.6407945540
20
26.3917270929
30
0.0000000000
10
-9.6579469561
20
26.4231393094
30
0.0000000000
10
-9.6793953332
20
26.4517912521
30
0.0000000000
10
-9.7047030097
20
26.4770989285
30
0.0000000000
10
-9.7333549523
20
26.4985473056
30
0.0000000000
10
-9.7647671688
20
26.5156997078
30
0.0000000000
10
-9.7983027041
20
26.5282070043
30
0.0000000000
10
-9.8332693420
20
26.5358146365
30
0.0000000000
10
-9.8570836066
20
26.5375167541
30
0.0000000000
10
-9.8689732769
20
26.5375167541
30
0.0000000000
11
-9.6189775077
21
26.2875209849
31
0.0000000000
11
-9.6215220335
21
26.3230991202
31
0.0000000000
11
-9.6291038659
21
26.3579530331
31
0.0000000000
11
-9.6415687355
21
26.3913732004
31
0.0000000000
11
-9.6586629495
21
26.4226792600
31
0.0000000000
11
-9.6800385488
21
26.4512338731
31
0.0000000000
11
-9.7052603886
21
26.4764557129
31
0.0000000000
11
-9.7338150017
21
26.4978313122
31
0.0000000000
11
-9.7651210614
21
26.5149255262
31
0.0000000000
11
-9.7985412287
21
26.5273903958
31
0.0000000000
11
-9.8333951415
21
26.5349722282
31
0.0000000000
11
-9.8689732769
21
26.5375167541
31
0.0000000000
0
SPLINE
5
378
100
AcDbEntity
8
0
100
AcDbSpline
62
7
6
CONTINUOUS
70
0
71
3
72
18
73
14
74
12
42
0.0000001000
43
0.0000001000
44
0.0000000001
12
-0.3923594660
22
0.0000000000
32
0.0000000000
13
0.0000000000
23
-0.3923594660
33
0.0000000000
40
0.0000000000
40
0.0000000000
40
0.0000000000
40
0.0000000000
40
0.0909090103
40
0.1818180598
40
0.2727271497
40
0.3636362742
40
0.4545454220
40
0.5454545780
40
0.6363637258
40
0.7272728503
40
0.8181819402
40
0.9090909897
40
1.0000000000
40
1.0000000000
40
1.0000000000
40
1.0000000000
10
-11.7689817384
20
26.5375167541
30
0.0000000000
10
-11.7808714087
20
26.5375167541
30
0.0000000000
10
-11.8046856733
20
26.5358146365
30
0.0000000000
10
-11.8396523112
20
26.5282070043
30
0.0000000000
10
-11.8731878465
20
26.5156997078
30
0.0000000000
10
-11.9046000630
20
26.4985473056
30
0.0000000000
10
-11.9332520056
20
26.4770989285
30
0.0000000000
10
-11.9585596821
20
26.4517912521
30
0.0000000000
10
-11.9800080592
20
26.4231393094
30
0.0000000000
10
-11.9971604614
20
26.3917270929
30
0.0000000000
10
-12.0096677579
20
26.3581915576
30
0.0000000000
10
-12.0172753901
20
26.3232249198
30
0.0000000000
10
-12.0189775077
20
26.2994106551
30
0.0000000000
10
-12.0189775077
20
26.2875209849
30
0.0000000000
11
-11.7689817384
21
26.5375167541
31
0.0000000000
11
-11.8045598738
21
26.5349722282
31
0.0000000000
11
-11.8394137867
21
26.5273903958
31
0.0000000000
11
-11.8728339540
21
26.5149255262
31
0.0000000000
11
-11.9041400136
21
26.4978313122
31
0.0000000000
11
-11.9326946267
21
26.4764557129
31
0.0000000000
11
-11.9579164665
21
26.4512338731
31
0.0000000000
11
-11.9792920658
21
26.4226792600
31
0.0000000000
11
-11.9963862798
21
26.3913732004
31
0.0000000000
11
-12.0088511494
21
26.3579530331
31
0.0000000000
11
-12.0164329818
21
26.3230991202
31
0.0000000000
11
-12.0189775077
21
26.2875209849
31
0.0000000000
0
SPLINE
5
379
100
AcDbEntity
8
0
100
AcDbSpline
62
7
6
CONTINUOUS
70
0
71
3
72
18
73
14
74
12
42
0.0000001000
43
0.0000001000
44
0.0000000001
12
0.0000000000
22
0.3923594660
32
0.0000000000
13
-0.3923594660
23
0.0000000000
33
0.0000000000
40
0.0000000000
40
0.0000000000
40
0.0000000000
40
0.0000000000
40
0.0909090103
40
0.1818180598
40
0.2727271497
40
0.3636362742
40
0.4545454220
40
0.5454545780
40
0.6363637258
40
0.7272728503
40
0.8181819402
40
0.9090909897
40
1.0000000000
40
1.0000000000
40
1.0000000000
40
1.0000000000
10
9.2810224923
20
26.2875209849
30
0.0000000000
10
9.2810224923
20
26.2994106551
30
0.0000000000
10
9.2793203748
20
26.3232249198
30
0.0000000000
10
9.2717127426
20
26.3581915576
30
0.0000000000
10
9.2592054460
20
26.3917270929
30
0.0000000000
10
9.2420530439
20
26.4231393094
30
0.0000000000
10
9.2206046668
20
26.4517912521
30
0.0000000000
10
9.1952969903
20
26.4770989285
30
0.0000000000
10
9.1666450477
20
26.4985473056
30
0.0000000000
10
9.1352328312
20
26.5156997078
30
0.0000000000
10
9.1016972959
20
26.5282070043
30
0.0000000000
10
9.0667306580
20
26.5358146365
30
0.0000000000
10
9.0429163934
20
26.5375167541
30
0.0000000000
10
9.0310267231
20
26.5375167541
30
0.0000000000
11
9.2810224923
21
26.2875209849
31
0.0000000000
11
9.2784779665
21
26.3230991202
31
0.0000000000
11
9.2708961341
21
26.3579530331
31
0.0000000000
11
9.2584312645
21
26.3913732004
31
0.0000000000
11
9.2413370505
21
26.4226792600
31
0.0000000000
11
9.2199614512
21
26.4512338731
31
0.0000000000
11
9.1947396114
21
26.4764557129
31
0.0000000000
11
9.1661849983
21
26.4978313122
31
0.0000000000
11
9.1348789386
21
26.5149255262
31
0.0000000000
11
9.1014587713
21
26.5273903958
31
0.0000000000
11
9.0666048585
21
26.5349722282
31
0.0000000000
11
9.0310267231
21
26.5375167541
31
0.0000000000
0
SPLINE
5
37A
100
AcDbEntity
8
0
100
AcDbSpline
62
7
6
CONTINUOUS
70
0
71
3
72
18
73
14
74
12
42
0.0000001000
43
0.0000001000
44
0.0000000001
12
-0.3923594660
22
0.0000000000
32
0.0000000000
13
-0.0000000000
23
-0.3923594660
33
0.0000000000
40
0.0000000000
40
0.0000000000
40
0.0000000000
40
0.0000000000
40
0.0909090103
40
0.1818180598
40
0.2727271497
40
0.3636362742
40
0.4545454220
40
0.5454545780
40
0.6363637258
40
0.7272728503
40
0.8181819402
40
0.9090909897
40
1.0000000000
40
1.0000000000
40
1.0000000000
40
1.0000000000
10
7.1310182616
20
26.5375167541
30
0.0000000000
10
7.1191285913
20
26.5375167541
30
0.0000000000
10
7.0953143267
20
26.5358146365
30
0.0000000000
10
7.0603476888
20
26.5282070043
30
0.0000000000
10
7.0268121535
20
26.5156997078
30
0.0000000000
10
6.9953999370
20
26.4985473056
30
0.0000000000
10
6.9667479944
20
26.4770989285
30
0.0000000000
10
6.9414403179
20
26.4517912521
30
0.0000000000
10
6.9199919408
20
26.4231393094
30
0.0000000000
10
6.9028395386
20
26.3917270929
30
0.0000000000
10
6.8903322421
20
26.3581915576
30
0.0000000000
10
6.8827246099
20
26.3232249198
30
0.0000000000
10
6.8810224923
20
26.2994106551
30
0.0000000000
10
6.8810224923
20
26.2875209849
30
0.0000000000
11
7.1310182616
21
26.5375167541
31
0.0000000000
11
7.0954401262
21
26.5349722282
31
0.0000000000
11
7.0605862133
21
26.5273903958
31
0.0000000000
11
7.0271660460
21
26.5149255262
31
0.0000000000
11
6.9958599864
21
26.4978313122
31
0.0000000000
11
6.9673053733
21
26.4764557129
31
0.0000000000
11
6.9420835335
21
26.4512338731
31
0.0000000000
11
6.9207079342
21
26.4226792600
31
0.0000000000
11
6.9036137202
21
26.3913732004
31
0.0000000000
11
6.8911488506
21
26.3579530331
31
0.0000000000
11
6.8835670182
21
26.3230991202
31
0.0000000000
11
6.8810224923
21
26.2875209849
31
0.0000000000
0
SPLINE
5
37B
100
AcDbEntity
8
0
100
AcDbSpline
62
7
6
CONTINUOUS
70
0
71
3
72
18
73
14
74
12
42
0.0000001000
43
0.0000001000
44
0.0000000001
12
0.0000000000
22
-0.3923594660
32
0.0000000000
13
0.3923594660
23
0.0000000000
33
0.0000000000
40
0.0000000000
40
0.0000000000
40
0.0000000000
40
0.0000000000
40
0.0909090103
40
0.1818180598
40
0.2727271497
40
0.3636362742
40
0.4545454220
40
0.5454545780
40
0.6363637258
40
0.7272728503
40
0.8181819402
40
0.9090909897
40
1.0000000000
40
1.0000000000
40
1.0000000000
40
1.0000000000
10
-12.0189775077
20
-22.2124874767
30
0.0000000000
10
-12.0189775077
20
-22.2243771470
30
0.0000000000
10
-12.0172753901
20
-22.2481914116
30
0.0000000000
10
-12.0096677579
20
-22.2831580495
30
0.0000000000
10
-11.9971604614
20
-22.3166935848
30
0.0000000000
10
-11.9800080592
20
-22.3481058013
30
0.0000000000
10
-11.9585596821
20
-22.3767577439
30
0.0000000000
10
-11.9332520056
20
-22.4020654203
30
0.0000000000
10
-11.9046000630
20
-22.4235137975
30
0.0000000000
10
-11.8731878465
20
-22.4406661996
30
0.0000000000
10
-11.8396523112
20
-22.4531734962
30
0.0000000000
10
-11.8046856733
20
-22.4607811284
30
0.0000000000
10
-11.7808714087
20
-22.4624832459
30
0.0000000000
10
-11.7689817384
20
-22.4624832459
30
0.0000000000
11
-12.0189775077
21
-22.2124874767
31
0.0000000000
11
-12.0164329818
21
-22.2480656121
31
0.0000000000
11
-12.0088511494
21
-22.2829195249
31
0.0000000000
11
-11.9963862798
21
-22.3163396922
31
0.0000000000
11
-11.9792920658
21
-22.3476457518
31
0.0000000000
11
-11.9579164665
21
-22.3762003650
31
0.0000000000
11
-11.9326946267
21
-22.4014222048
31
0.0000000000
11
-11.9041400136
21
-22.4227978041
31
0.0000000000
11
-11.8728339540
21
-22.4398920181
31
0.0000000000
11
-11.8394137867
21
-22.4523568876
31
0.0000000000
11
-11.8045598738
21
-22.4599387201
31
0.0000000000
11
-11.7689817384
21
-22.4624832459
31
0.0000000000
0
SPLINE
5
37C
100
AcDbEntity
8
0
100
AcDbSpline
62
7
6
CONTINUOUS
70
0
71
3
72
18
73
14
74
12
42
0.0000001000
43
0.0000001000
44
0.0000000001
12
0.3923594660
22
0.0000000000
32
0.0000000000
13
0.0000000000
23
0.3923594660
33
0.0000000000
40
0.0000000000
40
0.0000000000
40
0.0000000000
40
0.0000000000
40
0.0909090103
40
0.1818180598
40
0.2727271497
40
0.3636362742
40
0.4545454220
40
0.5454545780
40
0.6363637258
40
0.7272728503
40
0.8181819402
40
0.9090909897
40
1.0000000000
40
1.0000000000
40
1.0000000000
40
1.0000000000
10
-9.8689732769
20
-22.4624832459
30
0.0000000000
10
-9.8570836066
20
-22.4624832459
30
0.0000000000
10
-9.8332693420
20
-22.4607811284
30
0.0000000000
10
-9.7983027041
20
-22.4531734962
30
0.0000000000
10
-9.7647671688
20
-22.4406661996
30
0.0000000000
10
-9.7333549523
20
-22.4235137975
30
0.0000000000
10
-9.7047030097
20
-22.4020654203
30
0.0000000000
10
-9.6793953332
20
-22.3767577439
30
0.0000000000
10
-9.6579469561
20
-22.3481058013
30
0.0000000000
10
-9.6407945540
20
-22.3166935848
30
0.0000000000
10
-9.6282872574
20
-22.2831580495
30
0.0000000000
10
-9.6206796252
20
-22.2481914116
30
0.0000000000
10
-9.6189775077
20
-22.2243771470
30
0.0000000000
10
-9.6189775077
20
-22.2124874767
30
0.0000000000
11
-9.8689732769
21
-22.4624832459
31
0.0000000000
11
-9.8333951415
21
-22.4599387201
31
0.0000000000
11
-9.7985412287
21
-22.4523568876
31
0.0000000000
11
-9.7651210614
21
-22.4398920181
31
0.0000000000
11
-9.7338150017
21
-22.4227978041
31
0.0000000000
11
-9.7052603886
21
-22.4014222048
31
0.0000000000
11
-9.6800385488
21
-22.3762003650
31
0.0000000000
11
-9.6586629495
21
-22.3476457518
31
0.0000000000
11
-9.6415687355
21
-22.3163396922
31
0.0000000000
11
-9.6291038659
21
-22.2829195249
31
0.0000000000
11
-9.6215220335
21
-22.2480656121
31
0.0000000000
11
-9.6189775077
21
-22.2124874767
31
0.0000000000
0
SPLINE
5
37D
100
AcDbEntity
8
0
100
AcDbSpline
62
7
6
CONTINUOUS
70
0
71
3
72
18
73
14
74
12
42
0.0000001000
43
0.0000001000
44
0.0000000001
12
0.3923594660
22
0.0000000000
32
0.0000000000
13
0.0000000000
23
0.3923594660
33
0.0000000000
40
0.0000000000
40
0.0000000000
40
0.0000000000
40
0.0000000000
40
0.0909090103
40
0.1818180598
40
0.2727271497
40
0.3636362742
40
0.4545454220
40
0.5454545780
40
0.6363637258
40
0.7272728503
40
0.8181819402
40
0.9090909897
40
1.0000000000
40
1.0000000000
40
1.0000000000
40
1.0000000000
10
9.0310267231
20
-22.4624832459
30
0.0000000000
10
9.0429163934
20
-22.4624832459
30
0.0000000000
10
9.0667306580
20
-22.4607811284
30
0.0000000000
10
9.1016972959
20
-22.4531734962
30
0.0000000000
10
9.1352328312
20
-22.4406661996
30
0.0000000000
10
9.1666450477
20
-22.4235137975
30
0.0000000000
10
9.1952969903
20
-22.4020654203
30
0.0000000000
10
9.2206046668
20
-22.3767577439
30
0.0000000000
10
9.2420530439
20
-22.3481058013
30
0.0000000000
10
9.2592054460
20
-22.3166935848
30
0.0000000000
10
9.2717127426
20
-22.2831580495
30
0.0000000000
10
9.2793203748
20
-22.2481914116
30
0.0000000000
10
9.2810224923
20
-22.2243771470
30
0.0000000000
10
9.2810224923
20
-22.2124874767
30
0.0000000000
11
9.0310267231
21
-22.4624832459
31
0.0000000000
11
9.0666048585
21
-22.4599387201
31
0.0000000000
11
9.1014587713
21
-22.4523568876
31
0.0000000000
11
9.1348789386
21
-22.4398920181
31
0.0000000000
11
9.1661849983
21
-22.4227978041
31
0.0000000000
11
9.1947396114
21
-22.4014222048
31
0.0000000000
11
9.2199614512
21
-22.3762003650
31
0.0000000000
11
9.2413370505
21
-22.3476457518
31
0.0000000000
11
9.2584312645
21
-22.3163396922
31
0.0000000000
11
9.2708961341
21
-22.2829195249
31
0.0000000000
11
9.2784779665
21
-22.2480656121
31
0.0000000000
11
9.2810224923
21
-22.2124874767
31
0.0000000000
0
SPLINE
5
37E
100
AcDbEntity
8
0
100
AcDbSpline
62
7
6
CONTINUOUS
70
0
71
3
72
18
73
14
74
12
42
0.0000001000
43
0.0000001000
44
0.0000000001
12
0.0000000000
22
-0.3923594660
32
0.0000000000
13
0.3923594660
23
0.0000000000
33
0.0000000000
40
0.0000000000
40
0.0000000000
40
0.0000000000
40
0.0000000000
40
0.0909090103
40
0.1818180598
40
0.2727271497
40
0.3636362742
40
0.4545454220
40
0.5454545780
40
0.6363637258
40
0.7272728503
40
0.8181819402
40
0.9090909897
40
1.0000000000
40
1.0000000000
40
1.0000000000
40
1.0000000000
10
6.8810224923
20
-22.2124874767
30
0.0000000000
10
6.8810224923
20
-22.2243771470
30
0.0000000000
10
6.8827246099
20
-22.2481914116
30
0.0000000000
10
6.8903322421
20
-22.2831580495
30
0.0000000000
10
6.9028395386
20
-22.3166935848
30
0.0000000000
10
6.9199919408
20
-22.3481058013
30
0.0000000000
10
6.9414403179
20
-22.3767577439
30
0.0000000000
10
6.9667479944
20
-22.4020654203
30
0.0000000000
10
6.9953999370
20
-22.4235137975
30
0.0000000000
10
7.0268121535
20
-22.4406661996
30
0.0000000000
10
7.0603476888
20
-22.4531734962
30
0.0000000000
10
7.0953143267
20
-22.4607811284
30
0.0000000000
10
7.1191285913
20
-22.4624832459
30
0.0000000000
10
7.1310182616
20
-22.4624832459
30
0.0000000000
11
6.8810224923
21
-22.2124874767
31
0.0000000000
11
6.8835670182
21
-22.2480656121
31
0.0000000000
11
6.8911488506
21
-22.2829195249
31
0.0000000000
11
6.9036137202
21
-22.3163396922
31
0.0000000000
11
6.9207079342
21
-22.3476457518
31
0.0000000000
11
6.9420835335
21
-22.3762003650
31
0.0000000000
11
6.9673053733
21
-22.4014222048
31
0.0000000000
11
6.9958599864
21
-22.4227978041
31
0.0000000000
11
7.0271660460
21
-22.4398920181
31
0.0000000000
11
7.0605862133
21
-22.4523568876
31
0.0000000000
11
7.0954401262
21
-22.4599387201
31
0.0000000000
11
7.1310182616
21
-22.4624832459
31
0.0000000000
0
SPLINE
5
37F
100
AcDbEntity
8
0
100
AcDbSpline
62
7
6
CONTINUOUS
70
0
71
3
72
11
73
7
74
5
42
0.0000001000
43
0.0000001000
44
0.0000000001
12
0.2139705222
22
-0.0075033280
32
0.0000000000
13
0.1916277652
23
-0.0958221412
33
0.0000000000
40
0.0000000000
40
0.0000000000
40
0.0000000000
40
0.0000000000
40
0.3019417167
40
0.6054989165
40
0.9077414077
40
1.0000000000
40
1.0000000000
40
1.0000000000
40
1.0000000000
10
9.2810216315
20
24.4372079527
30
0.0000000000
10
9.3025571737
20
24.4364527635
30
0.0000000000
10
9.3456971847
20
24.4321348099
30
0.0000000000
10
9.4089500564
20
24.4173505164
30
0.0000000000
10
9.4557181906
20
24.3997800093
30
0.0000000000
10
9.4811663789
20
24.3876771913
30
0.0000000000
10
9.4870594815
20
24.3847303860
30
0.0000000000
11
9.2810216315
21
24.4372079527
31
0.0000000000
11
9.3453463793
21
24.4307677792
31
0.0000000000
11
9.4086333891
21
24.4159778306
31
0.0000000000
11
9.4692099511
21
24.3932191117
31
0.0000000000
11
9.4870594815
21
24.3847303860
31
0.0000000000
0
SPLINE
5
380
100
AcDbEntity
8
0
100
AcDbSpline
62
7
6
CONTINUOUS
70
0
71
3
72
15
73
11
74
9
42
0.0000001000
43
0.0000001000
44
0.0000000001
12
0.0000000000
22
-0.5532600274
32
0.0000000000
13
-0.4952922600
23
-0.2476022018
33
0.0000000000
40
0.0000000000
40
0.0000000000
40
0.0000000000
40
0.0000000000
40
0.1289207035
40
0.2579804863
40
0.3867904683
40
0.5159440866
40
0.6447050042
40
0.7739027784
40
0.9026728646
40
1.0000000000
40
1.0000000000
40
1.0000000000
40
1.0000000000
10
9.7810224923
20
-19.8536611865
30
0.0000000000
10
9.7810224923
20
-19.8774367439
30
0.0000000000
10
9.7776172142
20
-19.9250832797
30
0.0000000000
10
9.7623995445
20
-19.9950103324
30
0.0000000000
10
9.7373702471
20
-20.0621144223
30
0.0000000000
10
9.7030705685
20
-20.1249218134
30
0.0000000000
10
9.6601408043
20
-20.1822660922
30
0.0000000000
10
9.6095358144
20
-20.2328684821
30
0.0000000000
10
9.5569028055
20
-20.2722671792
30
0.0000000000
10
9.5205802196
20
-20.2929385469
30
0.0000000000
10
9.5045117606
20
-20.3009713512
30
0.0000000000
11
9.7810224923
21
-19.8536611865
31
0.0000000000
11
9.7759347268
21
-19.9248061707
31
0.0000000000
11
9.7607537308
21
-19.9945773264
31
0.0000000000
11
9.7358474259
21
-20.0613488415
31
0.0000000000
11
9.7015996504
21
-20.1240623430
31
0.0000000000
11
9.6589066168
21
-20.1810903697
31
0.0000000000
11
9.6083614105
21
-20.2316330979
31
0.0000000000
11
9.5513273084
21
-20.2743264803
31
0.0000000000
11
9.5045117606
21
-20.3009713512
31
0.0000000000
0
SPLINE
5
381
100
AcDbEntity
8
0
100
AcDbSpline
62
7
6
CONTINUOUS
70
0
71
3
72
15
73
11
74
9
42
0.0000001000
43
0.0000001000
44
0.0000000001
12
0.0000000000
22
0.5532600274
32
0.0000000000
13
0.4952922600
23
0.2476022018
33
0.0000000000
40
0.0000000000
40
0.0000000000
40
0.0000000000
40
0.0000000000
40
0.1289207035
40
0.2579804863
40
0.3867904683
40
0.5159440866
40
0.6447050042
40
0.7739027784
40
0.9026728646
40
1.0000000000
40
1.0000000000
40
1.0000000000
40
1.0000000000
10
-12.5189775077
20
23.9286946947
30
0.0000000000
10
-12.5189775077
20
23.9524702520
30
0.0000000000
10
-12.5155722295
20
24.0001167878
30
0.0000000000
10
-12.5003545598
20
24.0700438406
30
0.0000000000
10
-12.4753252624
20
24.1371479304
30
0.0000000000
10
-12.4410255838
20
24.1999553216
30
0.0000000000
10
-12.3980958196
20
24.2572996003
30
0.0000000000
10
-12.3474908297
20
24.3079019902
30
0.0000000000
10
-12.2948578209
20
24.3473006874
30
0.0000000000
10
-12.2585352349
20
24.3679720550
30
0.0000000000
10
-12.2424667759
20
24.3760048594
30
0.0000000000
11
-12.5189775077
21
23.9286946947
31
0.0000000000
11
-12.5138897421
21
23.9998396789
31
0.0000000000
11
-12.4987087461
21
24.0696108345
31
0.0000000000
11
-12.4738024412
21
24.1363823496
31
0.0000000000
11
-12.4395546657
21
24.1990958512
31
0.0000000000
11
-12.3968616321
21
24.2561238778
31
0.0000000000
11
-12.3463164258
21
24.3066666060
31
0.0000000000
11
-12.2892823237
21
24.3493599884
31
0.0000000000
11
-12.2424667759
21
24.3760048594
31
0.0000000000
0
SPLINE
5
382
100
AcDbEntity
8
0
100
AcDbSpline
62
7
6
CONTINUOUS
70
0
71
3
72
11
73
7
74
5
42
0.0000001000
43
0.0000001000
44
0.0000000001
12
-0.2139705222
22
0.0075033280
32
0.0000000000
13
-0.1916277652
23
0.0958221412
33
0.0000000000
40
0.0000000000
40
0.0000000000
40
0.0000000000
40
0.0000000000
40
0.3019417167
40
0.6054989165
40
0.9077414077
40
1.0000000000
40
1.0000000000
40
1.0000000000
40
1.0000000000
10
-12.0189766468
20
-20.3621744446
30
0.0000000000
10
-12.0405121890
20
-20.3614192553
30
0.0000000000
10
-12.0836522000
20
-20.3571013018
30
0.0000000000
10
-12.1469050717
20
-20.3423170083
30
0.0000000000
10
-12.1936732059
20
-20.3247465012
30
0.0000000000
10
-12.2191213942
20
-20.3126436832
30
0.0000000000
10
-12.2250144968
20
-20.3096968779
30
0.0000000000
11
-12.0189766468
21
-20.3621744446
31
0.0000000000
11
-12.0833013946
21
-20.3557342710
31
0.0000000000
11
-12.1465884044
21
-20.3409443224
31
0.0000000000
11
-12.2071649664
21
-20.3181856036
31
0.0000000000
11
-12.2250144968
21
-20.3096968779
31
0.0000000000
0
SPLINE
5
383
100
AcDbEntity
8
0
100
AcDbSpline
62
7
6
CONTINUOUS
70
0
71
3
72
17
73
13
74
11
42
0.0000001000
43
0.0000001000
44
0.0000000001
12
-0.4499134171
22
0.0034689349
32
0.0000000000
13
-0.3802575409
23
0.2404959853
33
0.0000000000
40
0.0000000000
40
0.0000000000
40
0.0000000000
40
0.0000000000
40
0.0745161516
40
0.1578620335
40
0.2489784530
40
0.3464791953
40
0.4490687639
40
0.5555830270
40
0.6649556765
40
0.7761688910
40
0.8882083217
40
1.0000000000
40
1.0000000000
40
1.0000000000
40
1.0000000000
10
2.9272298060
20
-21.7578222128
30
0.0000000000
10
2.9160545339
20
-21.7577360489
30
0.0000000000
10
2.8924256021
20
-21.7542002718
30
0.0000000000
10
2.8567167848
20
-21.7431144782
30
0.0000000000
10
2.8190006405
20
-21.7274691978
30
0.0000000000
10
2.7797191021
20
-21.7083489565
30
0.0000000000
10
2.7392050526
20
-21.6865799828
30
0.0000000000
10
2.6977669159
20
-21.6628182803
30
0.0000000000
10
2.6556800034
20
-21.6376095415
30
0.0000000000
10
2.6132133359
20
-21.6114323943
30
0.0000000000
10
2.5706460887
20
-21.5847310179
30
0.0000000000
10
2.5422749920
20
-21.5667874140
30
0.0000000000
10
2.5281051157
20
-21.5578255974
30
0.0000000000
11
2.9272298060
21
-21.7578222128
31
0.0000000000
11
2.8939674195
21
-21.7536197339
31
0.0000000000
11
2.8580199844
21
-21.7429427592
31
0.0000000000
11
2.8200527968
21
-21.7274785563
31
0.0000000000
11
2.7805364126
21
-21.7084293042
31
0.0000000000
11
2.7398255320
21
-21.6866769189
31
0.0000000000
11
2.6982148680
21
-21.6629024360
31
0.0000000000
11
2.6559708124
21
-21.6376629257
31
0.0000000000
11
2.6133532565
21
-21.6114422122
31
0.0000000000
11
2.5706312877
21
-21.5846848722
31
0.0000000000
11
2.5281051157
21
-21.5578255974
31
0.0000000000
0
SPLINE
5
384
100
AcDbEntity
8
0
100
AcDbSpline
62
7
6
CONTINUOUS
70
0
71
3
72
15
73
11
74
9
42
0.0000001000
43
0.0000001000
44
0.0000000001
12
0.1008939615
22
-0.0007779154
32
0.0000000000
13
0.0713449249
23
-0.0713449249
33
0.0000000000
40
0.0000000000
40
0.0000000000
40
0.0000000000
40
0.0000000000
40
0.2260892411
40
0.4253808137
40
0.5965983414
40
0.7386457856
40
0.8506149034
40
0.9317923900
40
0.9816698927
40
1.0000000000
40
1.0000000000
40
1.0000000000
40
1.0000000000
10
2.9272298060
20
-21.7578222128
30
0.0000000000
10
2.9348334857
20
-21.7578808389
30
0.0000000000
10
2.9491385291
20
-21.7580014072
30
0.0000000000
10
2.9692064668
20
-21.7581931558
30
0.0000000000
10
2.9864322891
20
-21.7584188107
30
0.0000000000
10
3.0007645330
20
-21.7585757221
30
0.0000000000
10
3.0119518111
20
-21.7589340087
30
0.0000000000
10
3.0203167883
20
-21.7588152443
30
0.0000000000
10
3.0249850009
20
-21.7596151370
30
0.0000000000
10
3.0276607341
20
-21.7591214877
30
0.0000000000
10
3.0280966542
20
-21.7595574077
30
0.0000000000
11
2.9272298060
21
-21.7578222128
31
0.0000000000
11
2.9500407206
21
-21.7580135650
31
0.0000000000
11
2.9701476264
21
-21.7582149192
31
0.0000000000
11
2.9874216772
21
-21.7584249850
31
0.0000000000
11
3.0017521832
21
-21.7586424161
31
0.0000000000
11
3.0130473177
21
-21.7588658192
31
0.0000000000
11
3.0212347069
21
-21.7590937626
31
0.0000000000
11
3.0262618899
21
-21.7593247856
31
0.0000000000
11
3.0280966542
21
-21.7595574077
31
0.0000000000
0
SPLINE
5
385
100
AcDbEntity
8
0
100
AcDbSpline
62
7
6
CONTINUOUS
70
0
71
3
72
18
73
14
74
12
42
0.0000001000
43
0.0000001000
44
0.0000000001
12
0.5022088211
22
0.0000000000
32
0.0000000000
13
0.0554102302
23
-0.4991426714
33
0.0000000000
40
0.0000000000
40
0.0000000000
40
0.0000000000
40
0.0000000000
40
0.1410281680
40
0.2793720340
40
0.4118411820
40
0.5363759289
40
0.6497772069
40
0.7504831705
40
0.8358107888
40
0.9046047785
40
0.9551415459
40
0.9868319704
40
1.0000000000
40
1.0000000000
40
1.0000000000
40
1.0000000000
10
2.5281051157
20
-20.3100754667
30
0.0000000000
10
2.5517136457
20
-20.3100754667
30
0.0000000000
10
2.5984816455
20
-20.3102481992
30
0.0000000000
10
2.6674209100
20
-20.3110224851
30
0.0000000000
10
2.7335934342
20
-20.3122952687
30
0.0000000000
10
2.7955713723
20
-20.3140372195
30
0.0000000000
10
2.8522380732
20
-20.3162136892
30
0.0000000000
10
2.9022461040
20
-20.3187688516
30
0.0000000000
10
2.9449698629
20
-20.3216504490
30
0.0000000000
10
2.9786640024
20
-20.3247579663
30
0.0000000000
10
3.0047590209
20
-20.3280137951
30
0.0000000000
10
3.0185327334
20
-20.3311445709
30
0.0000000000
10
3.0278534396
20
-20.3339360006
30
0.0000000000
10
3.0280966542
20
-20.3361269091
30
0.0000000000
11
2.5281051157
21
-20.3100754667
31
0.0000000000
11
2.5989302129
21
-20.3103396864
31
0.0000000000
11
2.6684032483
21
-20.3111281846
31
0.0000000000
11
2.7349178388
21
-20.3124221000
31
0.0000000000
11
2.7974349559
21
-20.3142019650
31
0.0000000000
11
2.8543427998
21
-20.3164217885
31
0.0000000000
11
2.9048498178
21
-20.3190513457
31
0.0000000000
11
2.9475991122
21
-20.3220205116
31
0.0000000000
11
2.9819932007
21
-20.3252880060
31
0.0000000000
11
3.0071332436
21
-20.3287698404
31
0.0000000000
11
3.0226263706
21
-20.3324108497
31
0.0000000000
11
3.0280966542
21
-20.3361269091
31
0.0000000000
0
SPLINE
5
386
100
AcDbEntity
8
0
100
AcDbSpline
62
7
6
CONTINUOUS
70
0
71
3
72
15
73
11
74
9
42
0.0000001000
43
0.0000001000
44
0.0000000001
12
-0.1008939615
22
0.0007779154
32
0.0000000000
13
-0.0713449249
23
0.0713449249
33
0.0000000000
40
0.0000000000
40
0.0000000000
40
0.0000000000
40
0.0000000000
40
0.2260892411
40
0.4253808137
40
0.5965983414
40
0.7386457856
40
0.8506149034
40
0.9317923900
40
0.9816698927
40
1.0000000000
40
1.0000000000
40
1.0000000000
40
1.0000000000
10
-5.6651848213
20
25.8328557209
30
0.0000000000
10
-5.6727885011
20
25.8329143470
30
0.0000000000
10
-5.6870935444
20
25.8330349154
30
0.0000000000
10
-5.7071614821
20
25.8332266639
30
0.0000000000
10
-5.7243873044
20
25.8334523188
30
0.0000000000
10
-5.7387195483
20
25.8336092303
30
0.0000000000
10
-5.7499068264
20
25.8339675168
30
0.0000000000
10
-5.7582718036
20
25.8338487525
30
0.0000000000
10
-5.7629400162
20
25.8346486452
30
0.0000000000
10
-5.7656157494
20
25.8341549958
30
0.0000000000
10
-5.7660516695
20
25.8345909159
30
0.0000000000
11
-5.6651848213
21
25.8328557209
31
0.0000000000
11
-5.6879957359
21
25.8330470731
31
0.0000000000
11
-5.7081026417
21
25.8332484273
31
0.0000000000
11
-5.7253766926
21
25.8334584931
31
0.0000000000
11
-5.7397071985
21
25.8336759242
31
0.0000000000
11
-5.7510023331
21
25.8338993273
31
0.0000000000
11
-5.7591897223
21
25.8341272707
31
0.0000000000
11
-5.7642169052
21
25.8343582937
31
0.0000000000
11
-5.7660516695
21
25.8345909159
31
0.0000000000
0
SPLINE
5
387
100
AcDbEntity
8
0
100
AcDbSpline
62
7
6
CONTINUOUS
70
0
71
3
72
18
73
14
74
12
42
0.0000001000
43
0.0000001000
44
0.0000000001
12
-0.5022088211
22
0.0000000000
32
0.0000000000
13
-0.0554102302
23
0.4991426714
33
0.0000000000
40
0.0000000000
40
0.0000000000
40
0.0000000000
40
0.0000000000
40
0.1410281680
40
0.2793720340
40
0.4118411820
40
0.5363759289
40
0.6497772069
40
0.7504831705
40
0.8358107888
40
0.9046047785
40
0.9551415459
40
0.9868319704
40
1.0000000000
40
1.0000000000
40
1.0000000000
40
1.0000000000
10
-5.2660601310
20
24.3851089748
30
0.0000000000
10
-5.2896686610
20
24.3851089748
30
0.0000000000
10
-5.3364366608
20
24.3852817073
30
0.0000000000
10
-5.4053759253
20
24.3860559933
30
0.0000000000
10
-5.4715484495
20
24.3873287769
30
0.0000000000
10
-5.5335263876
20
24.3890707276
30
0.0000000000
10
-5.5901930885
20
24.3912471973
30
0.0000000000
10
-5.6402011193
20
24.3938023598
30
0.0000000000
10
-5.6829248782
20
24.3966839572
30
0.0000000000
10
-5.7166190178
20
24.3997914744
30
0.0000000000
10
-5.7427140362
20
24.4030473032
30
0.0000000000
10
-5.7564877487
20
24.4061780790
30
0.0000000000
10
-5.7658084549
20
24.4089695087
30
0.0000000000
10
-5.7660516695
20
24.4111604172
30
0.0000000000
11
-5.2660601310
21
24.3851089748
31
0.0000000000
11
-5.3368852282
21
24.3853731945
31
0.0000000000
11
-5.4063582636
21
24.3861616928
31
0.0000000000
11
-5.4728728541
21
24.3874556081
31
0.0000000000
11
-5.5353899712
21
24.3892354732
31
0.0000000000
11
-5.5922978151
21
24.3914552966
31
0.0000000000
11
-5.6428048331
21
24.3940848538
31
0.0000000000
11
-5.6855541276
21
24.3970540197
31
0.0000000000
11
-5.7199482160
21
24.4003215141
31
0.0000000000
11
-5.7450882589
21
24.4038033485
31
0.0000000000
11
-5.7605813859
21
24.4074443578
31
0.0000000000
11
-5.7660516695
21
24.4111604172
31
0.0000000000
0
SPLINE
5
388
100
AcDbEntity
8
0
100
AcDbSpline
62
7
6
CONTINUOUS
70
0
71
3
72
17
73
13
74
11
42
0.0000001000
43
0.0000001000
44
0.0000000001
12
-0.4499134171
22
-0.0034689349
32
0.0000000000
13
-0.3802575409
23
-0.2404959853
33
0.0000000000
40
0.0000000000
40
0.0000000000
40
0.0000000000
40
0.0000000000
40
0.0745161516
40
0.1578620335
40
0.2489784530
40
0.3464791953
40
0.4490687639
40
0.5555830270
40
0.6649556765
40
0.7761688910
40
0.8882083217
40
1.0000000000
40
1.0000000000
40
1.0000000000
40
1.0000000000
10
2.9272298060
20
25.8328557209
30
0.0000000000
10
2.9160545339
20
25.8327695570
30
0.0000000000
10
2.8924256021
20
25.8292337799
30
0.0000000000
10
2.8567167848
20
25.8181479864
30
0.0000000000
10
2.8190006405
20
25.8025027060
30
0.0000000000
10
2.7797191021
20
25.7833824646
30
0.0000000000
10
2.7392050526
20
25.7616134910
30
0.0000000000
10
2.6977669159
20
25.7378517884
30
0.0000000000
10
2.6556800034
20
25.7126430497
30
0.0000000000
10
2.6132133359
20
25.6864659024
30
0.0000000000
10
2.5706460887
20
25.6597645260
30
0.0000000000
10
2.5422749920
20
25.6418209221
30
0.0000000000
10
2.5281051157
20
25.6328591055
30
0.0000000000
11
2.9272298060
21
25.8328557209
31
0.0000000000
11
2.8939674195
21
25.8286532420
31
0.0000000000
11
2.8580199844
21
25.8179762673
31
0.0000000000
11
2.8200527968
21
25.8025120644
31
0.0000000000
11
2.7805364126
21
25.7834628123
31
0.0000000000
11
2.7398255320
21
25.7617104271
31
0.0000000000
11
2.6982148680
21
25.7379359441
31
0.0000000000
11
2.6559708124
21
25.7126964338
31
0.0000000000
11
2.6133532565
21
25.6864757203
31
0.0000000000
11
2.5706312877
21
25.6597183803
31
0.0000000000
11
2.5281051157
21
25.6328591055
31
0.0000000000
0
SPLINE
5
389
100
AcDbEntity
8
0
100
AcDbSpline
62
7
6
CONTINUOUS
70
0
71
3
72
17
73
13
74
11
42
0.0000001000
43
0.0000001000
44
0.0000000001
12
0.4499134171
22
-0.0034689349
32
0.0000000000
13
0.3802575409
23
-0.2404959853
33
0.0000000000
40
0.0000000000
40
0.0000000000
40
0.0000000000
40
0.0000000000
40
0.0745161516
40
0.1578620335
40
0.2489784530
40
0.3464791953
40
0.4490687639
40
0.5555830270
40
0.6649556765
40
0.7761688910
40
0.8882083217
40
1.0000000000
40
1.0000000000
40
1.0000000000
40
1.0000000000
10
-5.6651848213
20
25.8328557209
30
0.0000000000
10
-5.6540095492
20
25.8327695570
30
0.0000000000
10
-5.6303806174
20
25.8292337799
30
0.0000000000
10
-5.5946718001
20
25.8181479864
30
0.0000000000
10
-5.5569556558
20
25.8025027060
30
0.0000000000
10
-5.5176741174
20
25.7833824646
30
0.0000000000
10
-5.4771600679
20
25.7616134910
30
0.0000000000
10
-5.4357219312
20
25.7378517884
30
0.0000000000
10
-5.3936350187
20
25.7126430497
30
0.0000000000
10
-5.3511683512
20
25.6864659024
30
0.0000000000
10
-5.3086011040
20
25.6597645260
30
0.0000000000
10
-5.2802300073
20
25.6418209221
30
0.0000000000
10
-5.2660601310
20
25.6328591055
30
0.0000000000
11
-5.6651848213
21
25.8328557209
31
0.0000000000
11
-5.6319224348
21
25.8286532420
31
0.0000000000
11
-5.5959749997
21
25.8179762673
31
0.0000000000
11
-5.5580078121
21
25.8025120644
31
0.0000000000
11
-5.5184914280
21
25.7834628123
31
0.0000000000
11
-5.4777805473
21
25.7617104271
31
0.0000000000
11
-5.4361698833
21
25.7379359441
31
0.0000000000
11
-5.3939258278
21
25.7126964338
31
0.0000000000
11
-5.3513082718
21
25.6864757203
31
0.0000000000
11
-5.3085863030
21
25.6597183803
31
0.0000000000
11
-5.2660601310
21
25.6328591055
31
0.0000000000
0
SPLINE
5
38A
100
AcDbEntity
8
0
100
AcDbSpline
62
7
6
CONTINUOUS
70
0
71
3
72
18
73
14
74
12
42
0.0000001000
43
0.0000001000
44
0.0000000001
12
-0.0554102302
22
-0.4991426714
32
0.0000000000
13
-0.5022088211
23
0.0000000000
33
0.0000000000
40
0.0000000000
40
0.0000000000
40
0.0000000000
40
0.0000000000
40
0.0131680296
40
0.0448584541
40
0.0953952215
40
0.1641892112
40
0.2495168295
40
0.3502227931
40
0.4636240711
40
0.5881588180
40
0.7206279660
40
0.8589718320
40
1.0000000000
40
1.0000000000
40
1.0000000000
40
1.0000000000
10
3.0280966542
20
24.4111604172
30
0.0000000000
10
3.0278534396
20
24.4089695087
30
0.0000000000
10
3.0185327334
20
24.4061780790
30
0.0000000000
10
3.0047590209
20
24.4030473032
30
0.0000000000
10
2.9786640024
20
24.3997914744
30
0.0000000000
10
2.9449698629
20
24.3966839572
30
0.0000000000
10
2.9022461040
20
24.3938023598
30
0.0000000000
10
2.8522380732
20
24.3912471973
30
0.0000000000
10
2.7955713723
20
24.3890707276
30
0.0000000000
10
2.7335934342
20
24.3873287769
30
0.0000000000
10
2.6674209100
20
24.3860559933
30
0.0000000000
10
2.5984816455
20
24.3852817073
30
0.0000000000
10
2.5517136457
20
24.3851089748
30
0.0000000000
10
2.5281051157
20
24.3851089748
30
0.0000000000
11
3.0280966542
21
24.4111604172
31
0.0000000000
11
3.0226263706
21
24.4074443578
31
0.0000000000
11
3.0071332436
21
24.4038033485
31
0.0000000000
11
2.9819932007
21
24.4003215141
31
0.0000000000
11
2.9475991122
21
24.3970540197
31
0.0000000000
11
2.9048498178
21
24.3940848538
31
0.0000000000
11
2.8543427998
21
24.3914552966
31
0.0000000000
11
2.7974349559
21
24.3892354732
31
0.0000000000
11
2.7349178388
21
24.3874556081
31
0.0000000000
11
2.6684032483
21
24.3861616928
31
0.0000000000
11
2.5989302129
21
24.3853731945
31
0.0000000000
11
2.5281051157
21
24.3851089748
31
0.0000000000
0
SPLINE
5
38B
100
AcDbEntity
8
0
100
AcDbSpline
62
7
6
CONTINUOUS
70
0
71
3
72
15
73
11
74
9
42
0.0000001000
43
0.0000001000
44
0.0000000001
12
0.1008939615
22
0.0007779154
32
0.0000000000
13
0.0713449249
23
0.0713449249
33
0.0000000000
40
0.0000000000
40
0.0000000000
40
0.0000000000
40
0.0000000000
40
0.2260892411
40
0.4253808137
40
0.5965983414
40
0.7386457856
40
0.8506149034
40
0.9317923900
40
0.9816698927
40
1.0000000000
40
1.0000000000
40
1.0000000000
40
1.0000000000
10
2.9272298060
20
25.8328557209
30
0.0000000000
10
2.9348334857
20
25.8329143470
30
0.0000000000
10
2.9491385291
20
25.8330349154
30
0.0000000000
10
2.9692064668
20
25.8332266639
30
0.0000000000
10
2.9864322891
20
25.8334523188
30
0.0000000000
10
3.0007645330
20
25.8336092303
30
0.0000000000
10
3.0119518111
20
25.8339675168
30
0.0000000000
10
3.0203167883
20
25.8338487525
30
0.0000000000
10
3.0249850009
20
25.8346486452
30
0.0000000000
10
3.0276607341
20
25.8341549958
30
0.0000000000
10
3.0280966542
20
25.8345909159
30
0.0000000000
11
2.9272298060
21
25.8328557209
31
0.0000000000
11
2.9500407206
21
25.8330470731
31
0.0000000000
11
2.9701476264
21
25.8332484273
31
0.0000000000
11
2.9874216772
21
25.8334584931
31
0.0000000000
11
3.0017521832
21
25.8336759242
31
0.0000000000
11
3.0130473177
21
25.8338993273
31
0.0000000000
11
3.0212347069
21
25.8341272707
31
0.0000000000
11
3.0262618899
21
25.8343582937
31
0.0000000000
11
3.0280966542
21
25.8345909159
31
0.0000000000
0
SPLINE
5
38C
100
AcDbEntity
8
0
100
AcDbSpline
62
7
6
CONTINUOUS
70
0
71
3
72
18
73
14
74
12
42
0.0000001000
43
0.0000001000
44
0.0000000001
12
-0.3145151746
22
0.0000000000
32
0.0000000000
13
-0.0031690579
23
0.3144992085
33
0.0000000000
40
0.0000000000
40
0.0000000000
40
0.0000000000
40
0.0000000000
40
0.1233645867
40
0.2431315365
40
0.3566833685
40
0.4629485722
40
0.5612613068
40
0.6513651559
40
0.7334201413
40
0.8080244445
40
0.8762413066
40
0.9395978155
40
1.0000000000
40
1.0000000000
40
1.0000000000
40
1.0000000000
10
-11.7617009895
20
25.1601664849
30
0.0000000000
10
-11.7746343344
20
25.1601664849
30
0.0000000000
10
-11.8001349710
20
25.1614558355
30
0.0000000000
10
-11.8372224664
20
25.1665826535
30
0.0000000000
10
-11.8719335036
20
25.1747407542
30
0.0000000000
10
-11.9035569472
20
25.1855160378
30
0.0000000000
10
-11.9316381031
20
25.1985488298
30
0.0000000000
10
-11.9558376500
20
25.2134700512
30
0.0000000000
10
-11.9759139845
20
25.2299266744
30
0.0000000000
10
-11.9917011991
20
25.2475806008
30
0.0000000000
10
-12.0030867299
20
25.2661109536
30
0.0000000000
10
-12.0099975129
20
25.2851692013
30
0.0000000000
10
-12.0116329527
20
25.2981719058
30
0.0000000000
10
-12.0116967587
20
25.3045040522
30
0.0000000000
11
-11.7617009895
21
25.1601664849
31
0.0000000000
11
-11.8004556353
21
25.1620426812
31
0.0000000000
11
-11.8377603562
21
25.1672652698
31
0.0000000000
11
-11.8725133624
21
25.1754934063
31
0.0000000000
11
-11.9041205331
21
25.1863570211
31
0.0000000000
11
-11.9321217241
21
25.1994731209
31
0.0000000000
11
-11.9561752027
21
25.2144574682
31
0.0000000000
11
-11.9760407481
21
25.2309313605
31
0.0000000000
11
-11.9915657643
21
25.2485251625
31
0.0000000000
11
-12.0026752166
21
25.2668801978
31
0.0000000000
11
-12.0093648928
21
25.2856503060
31
0.0000000000
11
-12.0116967587
21
25.3045040522
31
0.0000000000
0
SPLINE
5
38D
100
AcDbEntity
8
0
100
AcDbSpline
62
7
6
CONTINUOUS
70
0
71
3
72
11
73
7
74
5
42
0.0000001000
43
0.0000001000
44
0.0000000001
12
-0.0344320461
22
0.0031074556
32
0.0000000000
13
-0.0037620475
23
0.0343666856
33
0.0000000000
40
0.0000000000
40
0.0000000000
40
0.0000000000
40
0.0000000000
40
0.4197527525
40
0.7274035190
40
0.9190903351
40
1.0000000000
40
1.0000000000
40
1.0000000000
40
1.0000000000
10
-11.9778928476
20
24.3654275927
30
0.0000000000
10
-11.9827104963
20
24.3658623804
30
0.0000000000
10
-11.9909299224
20
24.3665766624
30
0.0000000000
10
-12.0018725579
20
24.3677467236
30
0.0000000000
10
-12.0077248675
20
24.3687697137
30
0.0000000000
10
-12.0115952967
20
24.3700008498
30
0.0000000000
10
-12.0116967587
20
24.3709277155
30
0.0000000000
11
-11.9778928476
21
24.3654275927
31
0.0000000000
11
-11.9923434883
21
24.3667572535
31
0.0000000000
11
-12.0029082287
21
24.3679872247
31
0.0000000000
11
-12.0093964850
21
24.3693361404
31
0.0000000000
11
-12.0116967587
21
24.3709277155
31
0.0000000000
0
SPLINE
5
38E
100
AcDbEntity
8
0
100
AcDbSpline
62
7
6
CONTINUOUS
70
0
71
3
72
14
73
10
74
8
42
0.0000001000
43
0.0000001000
44
0.0000000001
12
-0.2163437535
22
0.0000000000
32
0.0000000000
13
-0.2154680533
23
0.0194457629
33
0.0000000000
40
0.0000000000
40
0.0000000000
40
0.0000000000
40
0.0000000000
40
0.1716664943
40
0.3398657499
40
0.4999835900
40
0.6496901083
40
0.7844419906
40
0.9022997459
40
1.0000000000
40
1.0000000000
40
1.0000000000
40
1.0000000000
10
-11.7617009895
20
24.3589050851
30
0.0000000000
10
-11.7740806474
20
24.3589050851
30
0.0000000000
10
-11.7985900367
20
24.3589999715
30
0.0000000000
10
-11.8346440175
20
24.3594251185
30
0.0000000000
10
-11.8691098921
20
24.3601230130
30
0.0000000000
10
-11.9011566926
20
24.3610755881
30
0.0000000000
10
-11.9301461464
20
24.3622614316
30
0.0000000000
10
-11.9553712596
20
24.3636485480
30
0.0000000000
10
-11.9708757531
20
24.3647943074
30
0.0000000000
10
-11.9778928476
20
24.3654275927
30
0.0000000000
11
-11.7617009895
21
24.3589050851
31
0.0000000000
11
-11.7988396787
21
24.3590504619
31
0.0000000000
11
-11.8352259481
21
24.3594845225
31
0.0000000000
11
-11.8698591619
21
24.3601947060
31
0.0000000000
11
-11.9022325128
21
24.3611710463
31
0.0000000000
11
-11.9313599970
21
24.3623839825
31
0.0000000000
11
-11.9568175572
21
24.3638157217
31
0.0000000000
11
-11.9778928476
21
24.3654275927
31
0.0000000000
0
SPLINE
5
38F
100
AcDbEntity
8
0
100
AcDbSpline
62
9
6
CONTINUOUS
70
0
71
3
72
17
73
13
74
11
42
0.0000001000
43
0.0000001000
44
0.0000000001
12
0.0012298291
22
-0.3661500354
32
0.0000000000
13
0.3661509389
23
-0.0009224053
33
0.0000000000
40
0.0000000000
40
0.0000000000
40
0.0000000000
40
0.0000000000
40
0.0926637669
40
0.1861959939
40
0.2811621264
40
0.3780472439
40
0.4771141944
40
0.5784104998
40
0.6817687109
40
0.7868361684
40
0.8931123906
40
1.0000000000
40
1.0000000000
40
1.0000000000
40
1.0000000000
10
-12.0058789289
20
25.8818543214
30
0.0000000000
10
-12.0058409421
20
25.8705447075
30
0.0000000000
10
-12.0036928742
20
25.8477739441
30
0.0000000000
10
-11.9943582963
20
25.8145722711
30
0.0000000000
10
-11.9791485482
20
25.7830426137
30
0.0000000000
10
-11.9584626623
20
25.7539848728
30
0.0000000000
10
-11.9328275579
20
25.7280992934
30
0.0000000000
10
-11.9028842939
20
25.7060073423
30
0.0000000000
10
-11.8693713948
20
25.6882337046
30
0.0000000000
10
-11.8331050931
20
25.6751994377
30
0.0000000000
10
-11.7949759098
20
25.6672127824
30
0.0000000000
10
-11.7689288259
20
25.6653808350
30
0.0000000000
10
-11.7558831597
20
25.6653479704
30
0.0000000000
11
-12.0058789289
21
25.8818543214
31
0.0000000000
11
-12.0027038692
21
25.8480741753
31
0.0000000000
11
-11.9934732466
21
25.8150945743
31
0.0000000000
11
-11.9784136225
21
25.7837528591
31
0.0000000000
11
-11.9578927471
21
25.7548159060
31
0.0000000000
11
-11.9324150578
21
25.7289961582
31
0.0000000000
11
-11.9026054842
21
25.7069270245
31
0.0000000000
11
-11.8691956567
21
25.6891502336
31
0.0000000000
11
-11.8330053839
21
25.6761019912
31
0.0000000000
11
-11.7949232249
21
25.6681025459
31
0.0000000000
11
-11.7558831597
21
25.6653479704
31
0.0000000000
0
SPLINE
5
390
100
AcDbEntity
8
0
100
AcDbSpline
62
9
6
CONTINUOUS
70
0
71
3
72
17
73
13
74
11
42
0.0000001000
43
0.0000001000
44
0.0000000001
12
-0.0000132773
22
0.3922846478
32
0.0000000000
13
-0.3922846478
23
0.0000132773
33
0.0000000000
40
0.0000000000
40
0.0000000000
40
0.0000000000
40
0.0000000000
40
0.0998239394
40
0.1998359985
40
0.2998483200
40
0.3998691378
40
0.4998893118
40
0.5999112671
40
0.6999336806
40
0.7999562942
40
0.8999787118
40
1.0000000000
40
1.0000000000
40
1.0000000000
40
1.0000000000
10
-9.6320760864
20
26.2744224061
30
0.0000000000
10
-9.6320765282
20
26.2874755391
30
0.0000000000
10
-9.6341323741
20
26.3136525282
30
0.0000000000
10
-9.6433140310
20
26.3519293441
30
0.0000000000
10
-9.6583820255
20
26.3883320704
30
0.0000000000
10
-9.6789600084
20
26.4219274027
30
0.0000000000
10
-9.7045416496
20
26.4518910902
30
0.0000000000
10
-9.7344966245
20
26.4774832698
30
0.0000000000
10
-9.7680863941
20
26.4980737604
30
0.0000000000
10
-9.8044868244
20
26.5131550817
30
0.0000000000
10
-9.8427884860
20
26.5223556338
30
0.0000000000
10
-9.8689929170
20
26.5244177327
30
0.0000000000
10
-9.8820718556
20
26.5244181753
30
0.0000000000
11
-9.6320760864
21
26.2744224061
31
0.0000000000
11
-9.6351443604
21
26.3134614151
31
0.0000000000
11
-9.6442940437
21
26.3516127836
31
0.0000000000
11
-9.6592997733
21
26.3878630219
31
0.0000000000
11
-9.6797938868
21
26.4213220199
31
0.0000000000
11
-9.7052703478
21
26.4511623174
31
0.0000000000
11
-9.7351023336
21
26.4766495862
31
0.0000000000
11
-9.7685548057
21
26.4971555480
31
0.0000000000
11
-9.8048037447
21
26.5121749668
31
0.0000000000
11
-9.8429561457
21
26.5213377602
31
0.0000000000
11
-9.8820718556
21
26.5244181753
31
0.0000000000
0
SPLINE
5
391
100
AcDbEntity
8
0
100
AcDbSpline
62
9
6
CONTINUOUS
70
0
71
3
72
17
73
13
74
11
42
0.0000001000
43
0.0000001000
44
0.0000000001
12
-0.3922846478
22
-0.0000132773
32
0.0000000000
13
-0.0000132773
23
-0.3922846478
33
0.0000000000
40
0.0000000000
40
0.0000000000
40
0.0000000000
40
0.0000000000
40
0.1000212882
40
0.2000437058
40
0.3000663194
40
0.4000887329
40
0.5001106882
40
0.6001308622
40
0.7001516800
40
0.8001640015
40
0.9001760606
40
1.0000000000
40
1.0000000000
40
1.0000000000
40
1.0000000000
10
-11.7558831597
20
26.5244181753
30
0.0000000000
10
-11.7689620983
20
26.5244177327
30
0.0000000000
10
-11.7951665293
20
26.5223556338
30
0.0000000000
10
-11.8334681909
20
26.5131550817
30
0.0000000000
10
-11.8698686212
20
26.4980737604
30
0.0000000000
10
-11.9034583908
20
26.4774832698
30
0.0000000000
10
-11.9334133657
20
26.4518910902
30
0.0000000000
10
-11.9589950069
20
26.4219274027
30
0.0000000000
10
-11.9795729898
20
26.3883320704
30
0.0000000000
10
-11.9946409843
20
26.3519293441
30
0.0000000000
10
-12.0038226412
20
26.3136525282
30
0.0000000000
10
-12.0058784871
20
26.2874755391
30
0.0000000000
10
-12.0058789289
20
26.2744224061
30
0.0000000000
11
-11.7558831597
21
26.5244181753
31
0.0000000000
11
-11.7949988696
21
26.5213377602
31
0.0000000000
11
-11.8331512706
21
26.5121749668
31
0.0000000000
11
-11.8694002096
21
26.4971555480
31
0.0000000000
11
-11.9028526817
21
26.4766495862
31
0.0000000000
11
-11.9326846675
21
26.4511623174
31
0.0000000000
11
-11.9581611285
21
26.4213220199
31
0.0000000000
11
-11.9786552420
21
26.3878630219
31
0.0000000000
11
-11.9936609716
21
26.3516127836
31
0.0000000000
11
-12.0028106549
21
26.3134614151
31
0.0000000000
11
-12.0058789289
21
26.2744224061
31
0.0000000000
0
SPLINE
5
392
100
AcDbEntity
8
0
100
AcDbSpline
62
7
6
CONTINUOUS
70
0
71
3
72
17
73
13
74
11
42
0.0000001000
43
0.0000001000
44
0.0000000001
12
-0.0277030565
22
-0.2495527920
32
0.0000000000
13
-0.2510857530
23
-0.0000000000
33
0.0000000000
40
0.0000000000
40
0.0000000000
40
0.0000000000
40
0.0000000000
40
0.0153922783
40
0.0534603011
40
0.1140054884
40
0.1963898067
40
0.2980302109
40
0.4167083914
40
0.5499614839
40
0.6933922816
40
0.8450534085
40
1.0000000000
40
1.0000000000
40
1.0000000000
40
1.0000000000
10
-9.6262582566
20
24.3719308064
30
0.0000000000
10
-9.6264003943
20
24.3706504110
30
0.0000000000
10
-9.6321281102
20
24.3692495590
30
0.0000000000
10
-9.6402640380
20
24.3674445616
30
0.0000000000
10
-9.6559882006
20
24.3657395047
30
0.0000000000
10
-9.6761083484
20
24.3640601937
30
0.0000000000
10
-9.7015050023
20
24.3625684780
30
0.0000000000
10
-9.7310345389
20
24.3612770208
30
0.0000000000
10
-9.7641201463
20
24.3602386566
30
0.0000000000
10
-9.7999595648
20
24.3594748675
30
0.0000000000
10
-9.8376242275
20
24.3590091202
30
0.0000000000
10
-9.8632857319
20
24.3589050851
30
0.0000000000
10
-9.8762540258
20
24.3589050851
30
0.0000000000
11
-9.6262582566
21
24.3719308064
31
0.0000000000
11
-9.6295400930
21
24.3698897068
31
0.0000000000
11
-9.6388879072
21
24.3678946634
31
0.0000000000
11
-9.6539727560
21
24.3660107378
31
0.0000000000
11
-9.6745843951
21
24.3642639052
31
0.0000000000
11
-9.7000576378
21
24.3627122428
31
0.0000000000
11
-9.7298265824
21
24.3613876304
31
0.0000000000
11
-9.7632674814
21
24.3603195029
31
0.0000000000
11
-9.7992725110
21
24.3595417048
31
0.0000000000
11
-9.8373494716
21
24.3590647025
31
0.0000000000
11
-9.8762540258
21
24.3589050851
31
0.0000000000
0
SPLINE
5
393
100
AcDbEntity
8
0
100
AcDbSpline
62
9
6
CONTINUOUS
70
0
71
3
72
17
73
13
74
11
42
0.0000001000
43
0.0000001000
44
0.0000000001
12
-0.0012298291
22
-0.3661500354
32
0.0000000000
13
-0.3661509389
23
-0.0009224053
33
0.0000000000
40
0.0000000000
40
0.0000000000
40
0.0000000000
40
0.0000000000
40
0.0926637669
40
0.1861959939
40
0.2811621264
40
0.3780472439
40
0.4771141944
40
0.5784104998
40
0.6817687109
40
0.7868361684
40
0.8931123906
40
1.0000000000
40
1.0000000000
40
1.0000000000
40
1.0000000000
10
-9.6320760864
20
25.8818543214
30
0.0000000000
10
-9.6321140732
20
25.8705447075
30
0.0000000000
10
-9.6342621411
20
25.8477739441
30
0.0000000000
10
-9.6435967190
20
25.8145722711
30
0.0000000000
10
-9.6588064671
20
25.7830426137
30
0.0000000000
10
-9.6794923530
20
25.7539848728
30
0.0000000000
10
-9.7051274574
20
25.7280992934
30
0.0000000000
10
-9.7350707214
20
25.7060073423
30
0.0000000000
10
-9.7685836205
20
25.6882337046
30
0.0000000000
10
-9.8048499222
20
25.6751994377
30
0.0000000000
10
-9.8429791055
20
25.6672127824
30
0.0000000000
10
-9.8690261894
20
25.6653808350
30
0.0000000000
10
-9.8820718556
20
25.6653479704
30
0.0000000000
11
-9.6320760864
21
25.8818543214
31
0.0000000000
11
-9.6352511461
21
25.8480741753
31
0.0000000000
11
-9.6444817687
21
25.8150945743
31
0.0000000000
11
-9.6595413928
21
25.7837528591
31
0.0000000000
11
-9.6800622682
21
25.7548159060
31
0.0000000000
11
-9.7055399575
21
25.7289961582
31
0.0000000000
11
-9.7353495312
21
25.7069270245
31
0.0000000000
11
-9.7687593586
21
25.6891502336
31
0.0000000000
11
-9.8049496314
21
25.6761019912
31
0.0000000000
11
-9.8430317904
21
25.6681025459
31
0.0000000000
11
-9.8820718556
21
25.6653479704
31
0.0000000000
0
SPLINE
5
394
100
AcDbEntity
8
0
100
AcDbSpline
62
7
6
CONTINUOUS
70
0
71
3
72
18
73
14
74
12
42
0.0000001000
43
0.0000001000
44
0.0000000001
12
-0.0031763781
22
-0.3152256661
32
0.0000000000
13
-0.3152416691
23
-0.0000000000
33
0.0000000000
40
0.0000000000
40
0.0000000000
40
0.0000000000
40
0.0000000000
40
0.0600923894
40
0.1232193774
40
0.1912702092
40
0.2657636629
40
0.3477531865
40
0.4378167491
40
0.5360799495
40
0.6422378908
40
0.7555663097
40
0.8749375201
40
1.0000000000
40
1.0000000000
40
1.0000000000
40
1.0000000000
10
-9.6262582566
20
25.3045040522
30
0.0000000000
10
-9.6263218819
20
25.2981898310
30
0.0000000000
10
-9.6279495413
20
25.2852140880
30
0.0000000000
10
-9.6348368084
20
25.2661771138
30
0.0000000000
10
-9.6462072587
20
25.2476411474
30
0.0000000000
10
-9.6619980964
20
25.2299650710
30
0.0000000000
10
-9.6820995862
20
25.2134800395
30
0.0000000000
10
-9.7063416365
20
25.1985332325
30
0.0000000000
10
-9.7344717484
20
25.1854851038
30
0.0000000000
10
-9.7661339197
20
25.1747072746
30
0.0000000000
10
-9.8008536627
20
25.1665634260
30
0.0000000000
10
-9.8381403057
20
25.1614066470
30
0.0000000000
10
-9.8638396195
20
25.1601664849
30
0.0000000000
10
-9.8769812545
20
25.1601664849
30
0.0000000000
11
-9.6262582566
21
25.3045040522
31
0.0000000000
11
-9.6285775971
21
25.2857029460
31
0.0000000000
11
-9.6352451071
21
25.2669528916
31
0.0000000000
11
-9.6463397795
21
25.2485921675
31
0.0000000000
11
-9.6618682764
21
25.2309757612
31
0.0000000000
11
-9.6817596454
21
25.2144719514
31
0.0000000000
11
-9.7058579485
21
25.1994597762
31
0.0000000000
11
-9.7339123114
21
25.1863256261
31
0.0000000000
11
-9.7655640105
21
25.1754580881
31
0.0000000000
11
-9.8003316902
21
25.1672395673
31
0.0000000000
11
-9.8376005669
21
25.1620331866
31
0.0000000000
11
-9.8769812545
21
25.1601664849
31
0.0000000000
0
SPLINE
5
395
100
AcDbEntity
8
0
100
AcDbSpline
62
9
6
CONTINUOUS
70
0
71
3
72
17
73
13
74
11
42
0.0000001000
43
0.0000001000
44
0.0000000001
12
-0.0000132773
22
0.3922846482
32
0.0000000000
13
-0.3922846482
23
0.0000132773
33
0.0000000000
40
0.0000000000
40
0.0000000000
40
0.0000000000
40
0.0000000000
40
0.0999991830
40
0.1999988695
40
0.2999989843
40
0.3999994104
40
0.5000000000
40
0.6000005896
40
0.7000010157
40
0.8000011305
40
0.9000008170
40
1.0000000000
40
1.0000000000
40
1.0000000000
40
1.0000000000
10
9.2679239136
20
26.2744224061
30
0.0000000000
10
9.2679234711
20
26.2874984542
30
0.0000000000
10
9.2658622935
20
26.3136969917
30
0.0000000000
10
9.2566658410
20
26.3519904745
30
0.0000000000
10
9.2415911385
20
26.3883840133
30
0.0000000000
10
9.2210093441
20
26.4219688886
30
0.0000000000
10
9.1954272928
20
26.4519215545
30
0.0000000000
10
9.1654746269
20
26.4775036059
30
0.0000000000
10
9.1318897516
20
26.4980854002
30
0.0000000000
10
9.0954962128
20
26.5131601027
30
0.0000000000
10
9.0572027299
20
26.5223565553
30
0.0000000000
10
9.0310041925
20
26.5244177328
30
0.0000000000
10
9.0179281444
20
26.5244181753
30
0.0000000000
11
9.2679239136
21
26.2744224061
31
0.0000000000
11
9.2648448596
21
26.3135295249
31
0.0000000000
11
9.2556861581
21
26.3516737379
31
0.0000000000
11
9.2406733169
21
26.3879158487
31
0.0000000000
11
9.2201759862
21
26.4213634943
31
0.0000000000
11
9.1946988566
21
26.4511931183
31
0.0000000000
11
9.1648692326
21
26.4766702479
31
0.0000000000
11
9.1314215869
21
26.4971675786
31
0.0000000000
11
9.0951794762
21
26.5121804198
31
0.0000000000
11
9.0570352631
21
26.5213391213
31
0.0000000000
11
9.0179281444
21
26.5244181753
31
0.0000000000
0
SPLINE
5
396
100
AcDbEntity
8
0
100
AcDbSpline
62
7
6
CONTINUOUS
70
0
71
3
72
16
73
12
74
10
42
0.0000001000
43
0.0000001000
44
0.0000000001
12
-0.4952765776
22
0.2476596337
32
0.0000000000
13
-0.0002122239
23
0.5533630193
33
0.0000000000
40
0.0000000000
40
0.0000000000
40
0.0000000000
40
0.0000000000
40
0.0804413773
40
0.1969932421
40
0.3144879399
40
0.4317799303
40
0.5479335400
40
0.6624418273
40
0.7756755659
40
0.8881434792
40
1.0000000000
40
1.0000000000
40
1.0000000000
40
1.0000000000
10
-12.2250144968
20
-20.3096968779
30
0.0000000000
10
-12.2382947402
20
-20.3030561839
30
0.0000000000
10
-12.2700923964
20
-20.2853458744
30
0.0000000000
10
-12.3175282178
20
-20.2516772150
30
0.0000000000
10
-12.3652215652
20
-20.2075306076
30
0.0000000000
10
-12.4067453845
20
-20.1576339409
30
0.0000000000
10
-12.4411982519
20
-20.1032735239
30
0.0000000000
10
-12.4681322499
20
-20.0456555827
30
0.0000000000
10
-12.4874020951
20
-19.9857594965
30
0.0000000000
10
-12.4989708901
20
-19.9244235913
30
0.0000000000
10
-12.5015526924
20
-19.8830013952
30
0.0000000000
10
-12.5015606052
20
-19.8623689745
30
0.0000000000
11
-12.2250144968
21
-20.3096968779
31
0.0000000000
11
-12.2639160975
21
-20.2880287970
31
0.0000000000
11
-12.3165103060
21
-20.2506989390
31
0.0000000000
11
-12.3642244704
21
-20.2065333626
31
0.0000000000
11
-12.4057423393
21
-20.1566441584
31
0.0000000000
11
-12.4401506716
21
-20.1023545893
31
0.0000000000
11
-12.4669839009
21
-20.0449519982
31
0.0000000000
11
-12.4861747101
21
-19.9853037857
31
0.0000000000
11
-12.4977083144
21
-19.9241462476
31
0.0000000000
11
-12.5015606052
21
-19.8623689745
31
0.0000000000
0
SPLINE
5
397
100
AcDbEntity
8
0
100
AcDbSpline
62
9
6
CONTINUOUS
70
0
71
3
72
17
73
13
74
11
42
0.0000001000
43
0.0000001000
44
0.0000000001
12
-0.3922846478
22
-0.0000132773
32
0.0000000000
13
-0.0000132773
23
-0.3922846478
33
0.0000000000
40
0.0000000000
40
0.0000000000
40
0.0000000000
40
0.0000000000
40
0.0998239394
40
0.1998359985
40
0.2998483200
40
0.3998691378
40
0.4998893118
40
0.5999112671
40
0.6999336806
40
0.7999562942
40
0.8999787118
40
1.0000000000
40
1.0000000000
40
1.0000000000
40
1.0000000000
10
7.1441168403
20
26.5244181753
30
0.0000000000
10
7.1310637073
20
26.5244177336
30
0.0000000000
10
7.1048867183
20
26.5223618876
30
0.0000000000
10
7.0666099023
20
26.5131802308
30
0.0000000000
10
7.0302071760
20
26.4981122362
30
0.0000000000
10
6.9966118437
20
26.4775342534
30
0.0000000000
10
6.9666481562
20
26.4519526121
30
0.0000000000
10
6.9410559767
20
26.4219976372
30
0.0000000000
10
6.9204654860
20
26.3884078676
30
0.0000000000
10
6.9053841647
20
26.3520074374
30
0.0000000000
10
6.8961836126
20
26.3137057757
30
0.0000000000
10
6.8941215137
20
26.2875013447
30
0.0000000000
10
6.8941210711
20
26.2744224061
30
0.0000000000
11
7.1441168403
21
26.5244181753
31
0.0000000000
11
7.1050778313
21
26.5213499013
31
0.0000000000
11
7.0669264628
21
26.5122002180
31
0.0000000000
11
7.0306762245
21
26.4971944884
31
0.0000000000
11
6.9972172265
21
26.4767003749
31
0.0000000000
11
6.9673769290
21
26.4512239139
31
0.0000000000
11
6.9418896602
21
26.4213919281
31
0.0000000000
11
6.9213836984
21
26.3879394560
31
0.0000000000
11
6.9063642796
21
26.3516905170
31
0.0000000000
11
6.8972014862
21
26.3135381160
31
0.0000000000
11
6.8941210711
21
26.2744224061
31
0.0000000000
0
SPLINE
5
398
100
AcDbEntity
8
0
100
AcDbSpline
62
7
6
CONTINUOUS
70
0
71
3
72
17
73
13
74
11
42
0.0000001000
43
0.0000001000
44
0.0000000001
12
-0.2510857530
22
0.0000000000
32
0.0000000000
13
-0.0277030565
23
0.2495527920
33
0.0000000000
40
0.0000000000
40
0.0000000000
40
0.0000000000
40
0.0000000000
40
0.1549465915
40
0.3066077184
40
0.4500385161
40
0.5832916086
40
0.7019697891
40
0.8036101933
40
0.8859945116
40
0.9465396989
40
0.9846077217
40
1.0000000000
40
1.0000000000
40
1.0000000000
40
1.0000000000
10
7.1382990105
20
24.3589050851
30
0.0000000000
10
7.1253307166
20
24.3589050851
30
0.0000000000
10
7.0996692121
20
24.3590091202
30
0.0000000000
10
7.0620045495
20
24.3594748675
30
0.0000000000
10
7.0261651310
20
24.3602386566
30
0.0000000000
10
6.9930795235
20
24.3612770208
30
0.0000000000
10
6.9635499870
20
24.3625684780
30
0.0000000000
10
6.9381533331
20
24.3640601937
30
0.0000000000
10
6.9180331853
20
24.3657395047
30
0.0000000000
10
6.9023090226
20
24.3674445616
30
0.0000000000
10
6.8941730949
20
24.3692495590
30
0.0000000000
10
6.8884453790
20
24.3706504110
30
0.0000000000
10
6.8883032413
20
24.3719308064
30
0.0000000000
11
7.1382990105
21
24.3589050851
31
0.0000000000
11
7.0993944563
21
24.3590647025
31
0.0000000000
11
7.0613174957
21
24.3595417048
31
0.0000000000
11
7.0253124661
21
24.3603195029
31
0.0000000000
11
6.9918715671
21
24.3613876304
31
0.0000000000
11
6.9621026225
21
24.3627122428
31
0.0000000000
11
6.9366293798
21
24.3642639052
31
0.0000000000
11
6.9160177406
21
24.3660107378
31
0.0000000000
11
6.9009328919
21
24.3678946634
31
0.0000000000
11
6.8915850777
21
24.3698897068
31
0.0000000000
11
6.8883032413
21
24.3719308064
31
0.0000000000
0
SPLINE
5
399
100
AcDbEntity
8
0
100
AcDbSpline
62
7
6
CONTINUOUS
70
0
71
3
72
18
73
14
74
12
42
0.0000001000
43
0.0000001000
44
0.0000000001
12
0.0031763781
22
-0.3152256661
32
0.0000000000
13
0.3152416691
23
0.0000000000
33
0.0000000000
40
0.0000000000
40
0.0000000000
40
0.0000000000
40
0.0000000000
40
0.0600923894
40
0.1232193774
40
0.1912702092
40
0.2657636629
40
0.3477531865
40
0.4378167491
40
0.5360799495
40
0.6422378908
40
0.7555663097
40
0.8749375201
40
1.0000000000
40
1.0000000000
40
1.0000000000
40
1.0000000000
10
6.8883032413
20
25.3045040522
30
0.0000000000
10
6.8883668666
20
25.2981898310
30
0.0000000000
10
6.8899945260
20
25.2852140880
30
0.0000000000
10
6.8968817931
20
25.2661771138
30
0.0000000000
10
6.9082522433
20
25.2476411474
30
0.0000000000
10
6.9240430811
20
25.2299650710
30
0.0000000000
10
6.9441445709
20
25.2134800395
30
0.0000000000
10
6.9683866212
20
25.1985332325
30
0.0000000000
10
6.9965167331
20
25.1854851038
30
0.0000000000
10
7.0281789044
20
25.1747072746
30
0.0000000000
10
7.0628986474
20
25.1665634260
30
0.0000000000
10
7.1001852904
20
25.1614066470
30
0.0000000000
10
7.1258846042
20
25.1601664849
30
0.0000000000
10
7.1390262392
20
25.1601664849
30
0.0000000000
11
6.8883032413
21
25.3045040522
31
0.0000000000
11
6.8906225818
21
25.2857029460
31
0.0000000000
11
6.8972900918
21
25.2669528916
31
0.0000000000
11
6.9083847642
21
25.2485921675
31
0.0000000000
11
6.9239132611
21
25.2309757612
31
0.0000000000
11
6.9438046301
21
25.2144719514
31
0.0000000000
11
6.9679029332
21
25.1994597762
31
0.0000000000
11
6.9959572960
21
25.1863256261
31
0.0000000000
11
7.0276089952
21
25.1754580881
31
0.0000000000
11
7.0623766749
21
25.1672395673
31
0.0000000000
11
7.0996455516
21
25.1620331866
31
0.0000000000
11
7.1390262392
21
25.1601664849
31
0.0000000000
0
SPLINE
5
39A
100
AcDbEntity
8
0
100
AcDbSpline
62
9
6
CONTINUOUS
70
0
71
3
72
17
73
13
74
11
42
0.0000001000
43
0.0000001000
44
0.0000000001
12
0.0012298291
22
-0.3661500354
32
0.0000000000
13
0.3661509389
23
-0.0009224053
33
0.0000000000
40
0.0000000000
40
0.0000000000
40
0.0000000000
40
0.0000000000
40
0.0926637669
40
0.1861959939
40
0.2811621264
40
0.3780472439
40
0.4771141944
40
0.5784104998
40
0.6817687109
40
0.7868361684
40
0.8931123906
40
1.0000000000
40
1.0000000000
40
1.0000000000
40
1.0000000000
10
6.8941210711
20
25.8818543214
30
0.0000000000
10
6.8941590579
20
25.8705447075
30
0.0000000000
10
6.8963071258
20
25.8477739441
30
0.0000000000
10
6.9056417037
20
25.8145722711
30
0.0000000000
10
6.9208514518
20
25.7830426137
30
0.0000000000
10
6.9415373377
20
25.7539848728
30
0.0000000000
10
6.9671724421
20
25.7280992934
30
0.0000000000
10
6.9971157061
20
25.7060073423
30
0.0000000000
10
7.0306286052
20
25.6882337046
30
0.0000000000
10
7.0668949069
20
25.6751994377
30
0.0000000000
10
7.1050240902
20
25.6672127824
30
0.0000000000
10
7.1310711741
20
25.6653808350
30
0.0000000000
10
7.1441168403
20
25.6653479704
30
0.0000000000
11
6.8941210711
21
25.8818543214
31
0.0000000000
11
6.8972961308
21
25.8480741753
31
0.0000000000
11
6.9065267534
21
25.8150945743
31
0.0000000000
11
6.9215863775
21
25.7837528591
31
0.0000000000
11
6.9421072529
21
25.7548159060
31
0.0000000000
11
6.9675849422
21
25.7289961582
31
0.0000000000
11
6.9973945158
21
25.7069270245
31
0.0000000000
11
7.0308043433
21
25.6891502336
31
0.0000000000
11
7.0669946161
21
25.6761019912
31
0.0000000000
11
7.1050767751
21
25.6681025459
31
0.0000000000
11
7.1441168403
21
25.6653479704
31
0.0000000000
0
SPLINE
5
39B
100
AcDbEntity
8
0
100
AcDbSpline
62
7
6
CONTINUOUS
70
0
71
3
72
14
73
10
74
8
42
0.0000001000
43
0.0000001000
44
0.0000000001
12
-0.2154680533
22
-0.0194457629
32
0.0000000000
13
-0.2163437535
23
0.0000000000
33
0.0000000000
40
0.0000000000
40
0.0000000000
40
0.0000000000
40
0.0000000000
40
0.0977002541
40
0.2155580094
40
0.3503098917
40
0.5000164100
40
0.6601342501
40
0.8283335057
40
1.0000000000
40
1.0000000000
40
1.0000000000
40
1.0000000000
10
9.2399378323
20
24.3654275927
30
0.0000000000
10
9.2329207378
20
24.3647943074
30
0.0000000000
10
9.2174162443
20
24.3636485480
30
0.0000000000
10
9.1921911311
20
24.3622614316
30
0.0000000000
10
9.1632016773
20
24.3610755881
30
0.0000000000
10
9.1311548768
20
24.3601230130
30
0.0000000000
10
9.0966890022
20
24.3594251185
30
0.0000000000
10
9.0606350214
20
24.3589999715
30
0.0000000000
10
9.0361256321
20
24.3589050851
30
0.0000000000
10
9.0237459742
20
24.3589050851
30
0.0000000000
11
9.2399378323
21
24.3654275927
31
0.0000000000
11
9.2188625419
21
24.3638157217
31
0.0000000000
11
9.1934049817
21
24.3623839825
31
0.0000000000
11
9.1642774975
21
24.3611710463
31
0.0000000000
11
9.1319041466
21
24.3601947060
31
0.0000000000
11
9.0972709328
21
24.3594845225
31
0.0000000000
11
9.0608846634
21
24.3590504619
31
0.0000000000
11
9.0237459742
21
24.3589050851
31
0.0000000000
0
SPLINE
5
39C
100
AcDbEntity
8
0
100
AcDbSpline
62
7
6
CONTINUOUS
70
0
71
3
72
11
73
7
74
5
42
0.0000001000
43
0.0000001000
44
0.0000000001
12
-0.0037620475
22
-0.0343666856
32
0.0000000000
13
-0.0344320461
23
-0.0031074556
33
0.0000000000
40
0.0000000000
40
0.0000000000
40
0.0000000000
40
0.0000000000
40
0.0809096649
40
0.2725964810
40
0.5802472475
40
1.0000000000
40
1.0000000000
40
1.0000000000
40
1.0000000000
10
9.2737417434
20
24.3709277155
30
0.0000000000
10
9.2736402814
20
24.3700008498
30
0.0000000000
10
9.2697698522
20
24.3687697137
30
0.0000000000
10
9.2639175426
20
24.3677467236
30
0.0000000000
10
9.2529749071
20
24.3665766624
30
0.0000000000
10
9.2447554810
20
24.3658623804
30
0.0000000000
10
9.2399378323
20
24.3654275927
30
0.0000000000
11
9.2737417434
21
24.3709277155
31
0.0000000000
11
9.2714414697
21
24.3693361404
31
0.0000000000
11
9.2649532134
21
24.3679872247
31
0.0000000000
11
9.2543884730
21
24.3667572535
31
0.0000000000
11
9.2399378323
21
24.3654275927
31
0.0000000000
0
SPLINE
5
39D
100
AcDbEntity
8
0
100
AcDbSpline
62
7
6
CONTINUOUS
70
0
71
3
72
18
73
14
74
12
42
0.0000001000
43
0.0000001000
44
0.0000000001
12
0.3145151746
22
0.0000000000
32
0.0000000000
13
0.0031690579
23
0.3144992085
33
0.0000000000
40
0.0000000000
40
0.0000000000
40
0.0000000000
40
0.0000000000
40
0.1233645867
40
0.2431315365
40
0.3566833685
40
0.4629485722
40
0.5612613068
40
0.6513651559
40
0.7334201413
40
0.8080244445
40
0.8762413066
40
0.9395978155
40
1.0000000000
40
1.0000000000
40
1.0000000000
40
1.0000000000
10
9.0237459742
20
25.1601664849
30
0.0000000000
10
9.0366793191
20
25.1601664849
30
0.0000000000
10
9.0621799557
20
25.1614558355
30
0.0000000000
10
9.0992674511
20
25.1665826535
30
0.0000000000
10
9.1339784883
20
25.1747407542
30
0.0000000000
10
9.1656019319
20
25.1855160378
30
0.0000000000
10
9.1936830878
20
25.1985488298
30
0.0000000000
10
9.2178826347
20
25.2134700512
30
0.0000000000
10
9.2379589691
20
25.2299266744
30
0.0000000000
10
9.2537461838
20
25.2475806008
30
0.0000000000
10
9.2651317145
20
25.2661109536
30
0.0000000000
10
9.2720424976
20
25.2851692013
30
0.0000000000
10
9.2736779374
20
25.2981719058
30
0.0000000000
10
9.2737417434
20
25.3045040522
30
0.0000000000
11
9.0237459742
21
25.1601664849
31
0.0000000000
11
9.0625006200
21
25.1620426812
31
0.0000000000
11
9.0998053409
21
25.1672652698
31
0.0000000000
11
9.1345583471
21
25.1754934063
31
0.0000000000
11
9.1661655177
21
25.1863570211
31
0.0000000000
11
9.1941667088
21
25.1994731209
31
0.0000000000
11
9.2182201874
21
25.2144574682
31
0.0000000000
11
9.2380857328
21
25.2309313605
31
0.0000000000
11
9.2536107490
21
25.2485251625
31
0.0000000000
11
9.2647202013
21
25.2668801978
31
0.0000000000
11
9.2714098775
21
25.2856503060
31
0.0000000000
11
9.2737417434
21
25.3045040522
31
0.0000000000
0
SPLINE
5
39E
100
AcDbEntity
8
0
100
AcDbSpline
62
9
6
CONTINUOUS
70
0
71
3
72
17
73
13
74
11
42
0.0000001000
43
0.0000001000
44
0.0000000001
12
-0.0012298291
22
-0.3661500354
32
0.0000000000
13
-0.3661509389
23
-0.0009224053
33
0.0000000000
40
0.0000000000
40
0.0000000000
40
0.0000000000
40
0.0000000000
40
0.0926637669
40
0.1861959939
40
0.2811621264
40
0.3780472439
40
0.4771141944
40
0.5784104998
40
0.6817687109
40
0.7868361684
40
0.8931123906
40
1.0000000000
40
1.0000000000
40
1.0000000000
40
1.0000000000
10
9.2679239136
20
25.8818543214
30
0.0000000000
10
9.2678859268
20
25.8705447075
30
0.0000000000
10
9.2657378589
20
25.8477739441
30
0.0000000000
10
9.2564032810
20
25.8145722711
30
0.0000000000
10
9.2411935329
20
25.7830426137
30
0.0000000000
10
9.2205076470
20
25.7539848728
30
0.0000000000
10
9.1948725426
20
25.7280992934
30
0.0000000000
10
9.1649292786
20
25.7060073423
30
0.0000000000
10
9.1314163795
20
25.6882337046
30
0.0000000000
10
9.0951500778
20
25.6751994377
30
0.0000000000
10
9.0570208945
20
25.6672127824
30
0.0000000000
10
9.0309738106
20
25.6653808350
30
0.0000000000
10
9.0179281444
20
25.6653479704
30
0.0000000000
11
9.2679239136
21
25.8818543214
31
0.0000000000
11
9.2647488539
21
25.8480741753
31
0.0000000000
11
9.2555182313
21
25.8150945743
31
0.0000000000
11
9.2404586072
21
25.7837528591
31
0.0000000000
11
9.2199377318
21
25.7548159060
31
0.0000000000
11
9.1944600425
21
25.7289961582
31
0.0000000000
11
9.1646504688
21
25.7069270245
31
0.0000000000
11
9.1312406414
21
25.6891502336
31
0.0000000000
11
9.0950503686
21
25.6761019912
31
0.0000000000
11
9.0569682096
21
25.6681025459
31
0.0000000000
11
9.0179281444
21
25.6653479704
31
0.0000000000
0
SPLINE
5
39F
100
AcDbEntity
8
0
100
AcDbSpline
62
7
6
CONTINUOUS
70
0
71
3
72
14
73
10
74
8
42
0.0000001000
43
0.0000001000
44
0.0000000001
12
0.2154680533
22
0.0194457629
32
0.0000000000
13
0.2163437535
23
0.0000000000
33
0.0000000000
40
0.0000000000
40
0.0000000000
40
0.0000000000
40
0.0000000000
40
0.0977002541
40
0.2155580094
40
0.3503098917
40
0.5000164100
40
0.6601342501
40
0.8283335057
40
1.0000000000
40
1.0000000000
40
1.0000000000
40
1.0000000000
10
-11.9778928476
20
-20.2903940846
30
0.0000000000
10
-11.9708757531
20
-20.2897607992
30
0.0000000000
10
-11.9553712596
20
-20.2886150399
30
0.0000000000
10
-11.9301461464
20
-20.2872279234
30
0.0000000000
10
-11.9011566926
20
-20.2860420800
30
0.0000000000
10
-11.8691098921
20
-20.2850895048
30
0.0000000000
10
-11.8346440175
20
-20.2843916104
30
0.0000000000
10
-11.7985900367
20
-20.2839664633
30
0.0000000000
10
-11.7740806474
20
-20.2838715770
30
0.0000000000
10
-11.7617009895
20
-20.2838715770
30
0.0000000000
11
-11.9778928476
21
-20.2903940846
31
0.0000000000
11
-11.9568175572
21
-20.2887822136
31
0.0000000000
11
-11.9313599970
21
-20.2873504744
31
0.0000000000
11
-11.9022325128
21
-20.2861375381
31
0.0000000000
11
-11.8698591619
21
-20.2851611979
31
0.0000000000
11
-11.8352259481
21
-20.2844510144
31
0.0000000000
11
-11.7988396787
21
-20.2840169538
31
0.0000000000
11
-11.7617009895
21
-20.2838715770
31
0.0000000000
0
SPLINE
5
3A0
100
AcDbEntity
8
0
100
AcDbSpline
62
7
6
CONTINUOUS
70
0
71
3
72
11
73
7
74
5
42
0.0000001000
43
0.0000001000
44
0.0000000001
12
0.0037620475
22
0.0343666856
32
0.0000000000
13
0.0344320461
23
0.0031074556
33
0.0000000000
40
0.0000000000
40
0.0000000000
40
0.0000000000
40
0.0000000000
40
0.0809096649
40
0.2725964810
40
0.5802472475
40
1.0000000000
40
1.0000000000
40
1.0000000000
40
1.0000000000
10
-12.0116967587
20
-20.2958942073
30
0.0000000000
10
-12.0115952967
20
-20.2949673417
30
0.0000000000
10
-12.0077248675
20
-20.2937362056
30
0.0000000000
10
-12.0018725579
20
-20.2927132154
30
0.0000000000
10
-11.9909299224
20
-20.2915431542
30
0.0000000000
10
-11.9827104963
20
-20.2908288722
30
0.0000000000
10
-11.9778928476
20
-20.2903940846
30
0.0000000000
11
-12.0116967587
21
-20.2958942073
31
0.0000000000
11
-12.0093964850
21
-20.2943026323
31
0.0000000000
11
-12.0029082287
21
-20.2929537165
31
0.0000000000
11
-11.9923434883
21
-20.2917237453
31
0.0000000000
11
-11.9778928476
21
-20.2903940846
31
0.0000000000
0
SPLINE
5
3A1
100
AcDbEntity
8
0
100
AcDbSpline
62
9
6
CONTINUOUS
70
0
71
3
72
17
73
13
74
11
42
0.0000001000
43
0.0000001000
44
0.0000000001
12
0.0012298290
22
0.3661500177
32
0.0000000000
13
0.3661509212
23
0.0009224053
33
0.0000000000
40
0.0000000000
40
0.0000000000
40
0.0000000000
40
0.0000000000
40
0.0927380474
40
0.1862683312
40
0.2812329042
40
0.3781093545
40
0.4771672798
40
0.5784533210
40
0.6818006960
40
0.7868568096
40
0.8931227640
40
1.0000000000
40
1.0000000000
40
1.0000000000
40
1.0000000000
10
-12.0058789289
20
-21.8068208132
30
0.0000000000
10
-12.0058409116
20
-21.7955021340
30
0.0000000000
10
-12.0036903126
20
-21.7727224253
30
0.0000000000
10
-11.9943487438
20
-21.7395137622
30
0.0000000000
10
-11.9791355480
20
-21.7079874368
30
0.0000000000
10
-11.9584477597
20
-21.6789340100
30
0.0000000000
10
-11.9328127171
20
-21.6530532486
30
0.0000000000
10
-11.9028708769
20
-21.6309656517
30
0.0000000000
10
-11.8693605880
20
-21.6131956480
30
0.0000000000
10
-11.8330975992
20
-21.6001640074
30
0.0000000000
10
-11.7949721132
20
-21.5921789215
30
0.0000000000
10
-11.7689275592
20
-21.5903473237
30
0.0000000000
10
-11.7558831597
20
-21.5903144623
30
0.0000000000
11
-12.0058789289
21
-21.8068208132
31
0.0000000000
11
-12.0026988804
21
-21.7730138200
31
0.0000000000
11
-11.9934638516
21
-21.7400361931
31
0.0000000000
11
-11.9784004000
21
-21.7086969528
31
0.0000000000
11
-11.9578780679
21
-21.6797649256
31
0.0000000000
11
-11.9324003175
21
-21.6539498834
31
0.0000000000
11
-11.9025921788
21
-21.6318851308
31
0.0000000000
11
-11.8691849167
21
-21.6141119692
31
0.0000000000
11
-11.8329980915
21
-21.6010664166
31
0.0000000000
11
-11.7949194524
21
-21.5930685117
31
0.0000000000
11
-11.7558831597
21
-21.5903144623
31
0.0000000000
0
SPLINE
5
3A2
100
AcDbEntity
8
0
100
AcDbSpline
62
7
6
CONTINUOUS
70
0
71
3
72
18
73
14
74
12
42
0.0000001000
43
0.0000001000
44
0.0000000001
12
0.0031763781
22
0.3152256661
32
0.0000000000
13
0.3152416691
23
0.0000000000
33
0.0000000000
40
0.0000000000
40
0.0000000000
40
0.0000000000
40
0.0000000000
40
0.0600923894
40
0.1232193774
40
0.1912702092
40
0.2657636629
40
0.3477531865
40
0.4378167491
40
0.5360799495
40
0.6422378908
40
0.7555663097
40
0.8749375201
40
1.0000000000
40
1.0000000000
40
1.0000000000
40
1.0000000000
10
-12.0116967587
20
-21.2294705440
30
0.0000000000
10
-12.0116331334
20
-21.2231563229
30
0.0000000000
10
-12.0100054740
20
-21.2101805799
30
0.0000000000
10
-12.0031182069
20
-21.1911436057
30
0.0000000000
10
-11.9917477567
20
-21.1726076393
30
0.0000000000
10
-11.9759569189
20
-21.1549315629
30
0.0000000000
10
-11.9558554291
20
-21.1384465313
30
0.0000000000
10
-11.9316133788
20
-21.1234997244
30
0.0000000000
10
-11.9034832669
20
-21.1104515957
30
0.0000000000
10
-11.8718210956
20
-21.0996737665
30
0.0000000000
10
-11.8371013526
20
-21.0915299179
30
0.0000000000
10
-11.7998147096
20
-21.0863731388
30
0.0000000000
10
-11.7741153958
20
-21.0851329767
30
0.0000000000
10
-11.7609737608
20
-21.0851329767
30
0.0000000000
11
-12.0116967587
21
-21.2294705440
31
0.0000000000
11
-12.0093774182
21
-21.2106694379
31
0.0000000000
11
-12.0027099082
21
-21.1919193835
31
0.0000000000
11
-11.9916152358
21
-21.1735586593
31
0.0000000000
11
-11.9760867389
21
-21.1559422530
31
0.0000000000
11
-11.9561953699
21
-21.1394384432
31
0.0000000000
11
-11.9320970668
21
-21.1244262681
31
0.0000000000
11
-11.9040427040
21
-21.1112921179
31
0.0000000000
11
-11.8723910048
21
-21.1004245800
31
0.0000000000
11
-11.8376233251
21
-21.0922060592
31
0.0000000000
11
-11.8003544484
21
-21.0869996785
31
0.0000000000
11
-11.7609737608
21
-21.0851329767
31
0.0000000000
0
SPLINE
5
3A3
100
AcDbEntity
8
0
100
AcDbSpline
62
9
6
CONTINUOUS
70
0
71
3
72
17
73
13
74
11
42
0.0000001000
43
0.0000001000
44
0.0000000001
12
0.0000132773
22
-0.3922846482
32
0.0000000000
13
0.3922846482
23
-0.0000132773
33
0.0000000000
40
0.0000000000
40
0.0000000000
40
0.0000000000
40
0.0000000000
40
0.0999991830
40
0.1999988695
40
0.2999989843
40
0.3999994104
40
0.5000000000
40
0.6000005896
40
0.7000010157
40
0.8000011305
40
0.9000008170
40
1.0000000000
40
1.0000000000
40
1.0000000000
40
1.0000000000
10
-12.0058789289
20
-22.1993888980
30
0.0000000000
10
-12.0058784864
20
-22.2124649461
30
0.0000000000
10
-12.0038173088
20
-22.2386634835
30
0.0000000000
10
-11.9946208563
20
-22.2769569664
30
0.0000000000
10
-11.9795461538
20
-22.3133505052
30
0.0000000000
10
-11.9589643595
20
-22.3469353804
30
0.0000000000
10
-11.9333823081
20
-22.3768880464
30
0.0000000000
10
-11.9034296422
20
-22.4024700977
30
0.0000000000
10
-11.8698447669
20
-22.4230518921
30
0.0000000000
10
-11.8334512281
20
-22.4381265946
30
0.0000000000
10
-11.7951577452
20
-22.4473230471
30
0.0000000000
10
-11.7689592078
20
-22.4493842246
30
0.0000000000
10
-11.7558831597
20
-22.4493846672
30
0.0000000000
11
-12.0058789289
21
-22.1993888980
31
0.0000000000
11
-12.0027998749
21
-22.2384960167
31
0.0000000000
11
-11.9936411734
21
-22.2766402298
31
0.0000000000
11
-11.9786283322
21
-22.3128823405
31
0.0000000000
11
-11.9581310015
21
-22.3463299862
31
0.0000000000
11
-11.9326538719
21
-22.3761596102
31
0.0000000000
11
-11.9028242479
21
-22.4016367398
31
0.0000000000
11
-11.8693766022
21
-22.4221340705
31
0.0000000000
11
-11.8331344915
21
-22.4371469116
31
0.0000000000
11
-11.7949902784
21
-22.4463056132
31
0.0000000000
11
-11.7558831597
21
-22.4493846672
31
0.0000000000
0
SPLINE
5
3A4
100
AcDbEntity
8
0
100
AcDbSpline
62
9
6
CONTINUOUS
70
0
71
3
72
17
73
13
74
11
42
0.0000001000
43
0.0000001000
44
0.0000000001
12
0.3922846478
22
0.0000132773
32
0.0000000000
13
0.0000132773
23
0.3922846478
33
0.0000000000
40
0.0000000000
40
0.0000000000
40
0.0000000000
40
0.0000000000
40
0.1000212882
40
0.2000437058
40
0.3000663194
40
0.4000887329
40
0.5001106882
40
0.6001308622
40
0.7001516800
40
0.8001640015
40
0.9001760606
40
1.0000000000
40
1.0000000000
40
1.0000000000
40
1.0000000000
10
-9.8820718556
20
-22.4493846672
30
0.0000000000
10
-9.8689929170
20
-22.4493842245
30
0.0000000000
10
-9.8427884860
20
-22.4473221257
30
0.0000000000
10
-9.8044868244
20
-22.4381215735
30
0.0000000000
10
-9.7680863941
20
-22.4230402522
30
0.0000000000
10
-9.7344966245
20
-22.4024497616
30
0.0000000000
10
-9.7045416496
20
-22.3768575821
30
0.0000000000
10
-9.6789600084
20
-22.3468938945
30
0.0000000000
10
-9.6583820255
20
-22.3132985623
30
0.0000000000
10
-9.6433140310
20
-22.2768958360
30
0.0000000000
10
-9.6341323741
20
-22.2386190200
30
0.0000000000
10
-9.6320765282
20
-22.2124420310
30
0.0000000000
10
-9.6320760864
20
-22.1993888980
30
0.0000000000
11
-9.8820718556
21
-22.4493846672
31
0.0000000000
11
-9.8429561457
21
-22.4463042521
31
0.0000000000
11
-9.8048037447
21
-22.4371414587
31
0.0000000000
11
-9.7685548057
21
-22.4221220399
31
0.0000000000
11
-9.7351023336
21
-22.4016160781
31
0.0000000000
11
-9.7052703478
21
-22.3761288093
31
0.0000000000
11
-9.6797938868
21
-22.3462885118
31
0.0000000000
11
-9.6592997733
21
-22.3128295138
31
0.0000000000
11
-9.6442940437
21
-22.2765792755
31
0.0000000000
11
-9.6351443604
21
-22.2384279069
31
0.0000000000
11
-9.6320760864
21
-22.1993888980
31
0.0000000000
0
SPLINE
5
3A5
100
AcDbEntity
8
0
100
AcDbSpline
62
7
6
CONTINUOUS
70
0
71
3
72
18
73
14
74
12
42
0.0000001000
43
0.0000001000
44
0.0000000001
12
-0.0031763781
22
0.3152256661
32
0.0000000000
13
-0.3152416691
23
0.0000000000
33
0.0000000000
40
0.0000000000
40
0.0000000000
40
0.0000000000
40
0.0000000000
40
0.0600923894
40
0.1232193774
40
0.1912702092
40
0.2657636629
40
0.3477531865
40
0.4378167491
40
0.5360799495
40
0.6422378908
40
0.7555663097
40
0.8749375201
40
1.0000000000
40
1.0000000000
40
1.0000000000
40
1.0000000000
10
-9.6262582566
20
-21.2294705440
30
0.0000000000
10
-9.6263218819
20
-21.2231563229
30
0.0000000000
10
-9.6279495413
20
-21.2101805799
30
0.0000000000
10
-9.6348368084
20
-21.1911436057
30
0.0000000000
10
-9.6462072587
20
-21.1726076393
30
0.0000000000
10
-9.6619980964
20
-21.1549315629
30
0.0000000000
10
-9.6820995862
20
-21.1384465313
30
0.0000000000
10
-9.7063416365
20
-21.1234997244
30
0.0000000000
10
-9.7344717484
20
-21.1104515957
30
0.0000000000
10
-9.7661339197
20
-21.0996737665
30
0.0000000000
10
-9.8008536627
20
-21.0915299179
30
0.0000000000
10
-9.8381403057
20
-21.0863731388
30
0.0000000000
10
-9.8638396195
20
-21.0851329767
30
0.0000000000
10
-9.8769812545
20
-21.0851329767
30
0.0000000000
11
-9.6262582566
21
-21.2294705440
31
0.0000000000
11
-9.6285775971
21
-21.2106694379
31
0.0000000000
11
-9.6352451071
21
-21.1919193835
31
0.0000000000
11
-9.6463397795
21
-21.1735586593
31
0.0000000000
11
-9.6618682764
21
-21.1559422530
31
0.0000000000
11
-9.6817596454
21
-21.1394384432
31
0.0000000000
11
-9.7058579485
21
-21.1244262681
31
0.0000000000
11
-9.7339123114
21
-21.1112921179
31
0.0000000000
11
-9.7655640105
21
-21.1004245800
31
0.0000000000
11
-9.8003316902
21
-21.0922060592
31
0.0000000000
11
-9.8376005669
21
-21.0869996785
31
0.0000000000
11
-9.8769812545
21
-21.0851329767
31
0.0000000000
0
SPLINE
5
3A6
100
AcDbEntity
8
0
100
AcDbSpline
62
9
6
CONTINUOUS
70
0
71
3
72
17
73
13
74
11
42
0.0000001000
43
0.0000001000
44
0.0000000001
12
-0.0012298290
22
0.3661500177
32
0.0000000000
13
-0.3661509212
23
0.0009224053
33
0.0000000000
40
0.0000000000
40
0.0000000000
40
0.0000000000
40
0.0000000000
40
0.0927380474
40
0.1862683312
40
0.2812329042
40
0.3781093545
40
0.4771672798
40
0.5784533210
40
0.6818006960
40
0.7868568096
40
0.8931227640
40
1.0000000000
40
1.0000000000
40
1.0000000000
40
1.0000000000
10
-9.6320760864
20
-21.8068208132
30
0.0000000000
10
-9.6321141037
20
-21.7955021340
30
0.0000000000
10
-9.6342647027
20
-21.7727224253
30
0.0000000000
10
-9.6436062715
20
-21.7395137622
30
0.0000000000
10
-9.6588194673
20
-21.7079874368
30
0.0000000000
10
-9.6795072556
20
-21.6789340100
30
0.0000000000
10
-9.7051422982
20
-21.6530532486
30
0.0000000000
10
-9.7350841384
20
-21.6309656517
30
0.0000000000
10
-9.7685944273
20
-21.6131956480
30
0.0000000000
10
-9.8048574161
20
-21.6001640074
30
0.0000000000
10
-9.8429829021
20
-21.5921789215
30
0.0000000000
10
-9.8690274561
20
-21.5903473237
30
0.0000000000
10
-9.8820718556
20
-21.5903144623
30
0.0000000000
11
-9.6320760864
21
-21.8068208132
31
0.0000000000
11
-9.6352561349
21
-21.7730138200
31
0.0000000000
11
-9.6444911637
21
-21.7400361931
31
0.0000000000
11
-9.6595546154
21
-21.7086969528
31
0.0000000000
11
-9.6800769474
21
-21.6797649256
31
0.0000000000
11
-9.7055546978
21
-21.6539498834
31
0.0000000000
11
-9.7353628366
21
-21.6318851308
31
0.0000000000
11
-9.7687700986
21
-21.6141119692
31
0.0000000000
11
-9.8049569238
21
-21.6010664166
31
0.0000000000
11
-9.8430355629
21
-21.5930685117
31
0.0000000000
11
-9.8820718556
21
-21.5903144623
31
0.0000000000
0
SPLINE
5
3A7
100
AcDbEntity
8
0
100
AcDbSpline
62
7
6
CONTINUOUS
70
0
71
3
72
17
73
13
74
11
42
0.0000001000
43
0.0000001000
44
0.0000000001
12
0.2510857530
22
0.0000000000
32
0.0000000000
13
0.0277030565
23
-0.2495527920
33
0.0000000000
40
0.0000000000
40
0.0000000000
40
0.0000000000
40
0.0000000000
40
0.1549465915
40
0.3066077184
40
0.4500385161
40
0.5832916086
40
0.7019697891
40
0.8036101933
40
0.8859945116
40
0.9465396989
40
0.9846077217
40
1.0000000000
40
1.0000000000
40
1.0000000000
40
1.0000000000
10
-9.8762540258
20
-20.2838715770
30
0.0000000000
10
-9.8632857319
20
-20.2838715770
30
0.0000000000
10
-9.8376242275
20
-20.2839756121
30
0.0000000000
10
-9.7999595648
20
-20.2844413594
30
0.0000000000
10
-9.7641201463
20
-20.2852051485
30
0.0000000000
10
-9.7310345389
20
-20.2862435127
30
0.0000000000
10
-9.7015050023
20
-20.2875349699
30
0.0000000000
10
-9.6761083484
20
-20.2890266856
30
0.0000000000
10
-9.6559882006
20
-20.2907059966
30
0.0000000000
10
-9.6402640380
20
-20.2924110535
30
0.0000000000
10
-9.6321281102
20
-20.2942160508
30
0.0000000000
10
-9.6264003943
20
-20.2956169029
30
0.0000000000
10
-9.6262582566
20
-20.2968972982
30
0.0000000000
11
-9.8762540258
21
-20.2838715770
31
0.0000000000
11
-9.8373494716
21
-20.2840311944
31
0.0000000000
11
-9.7992725110
21
-20.2845081967
31
0.0000000000
11
-9.7632674814
21
-20.2852859947
31
0.0000000000
11
-9.7298265824
21
-20.2863541223
31
0.0000000000
11
-9.7000576378
21
-20.2876787347
31
0.0000000000
11
-9.6745843951
21
-20.2892303970
31
0.0000000000
11
-9.6539727560
21
-20.2909772297
31
0.0000000000
11
-9.6388879072
21
-20.2928611552
31
0.0000000000
11
-9.6295400930
21
-20.2948561986
31
0.0000000000
11
-9.6262582566
21
-20.2968972982
31
0.0000000000
0
SPLINE
5
3A8
100
AcDbEntity
8
0
100
AcDbSpline
62
7
6
CONTINUOUS
70
0
71
3
72
17
73
13
74
11
42
0.0000001000
43
0.0000001000
44
0.0000000001
12
0.0277030565
22
0.2495527920
32
0.0000000000
13
0.2510857530
23
0.0000000000
33
0.0000000000
40
0.0000000000
40
0.0000000000
40
0.0000000000
40
0.0000000000
40
0.0153922783
40
0.0534603011
40
0.1140054884
40
0.1963898067
40
0.2980302109
40
0.4167083914
40
0.5499614839
40
0.6933922816
40
0.8450534085
40
1.0000000000
40
1.0000000000
40
1.0000000000
40
1.0000000000
10
6.8883032413
20
-20.2968972982
30
0.0000000000
10
6.8884453790
20
-20.2956169029
30
0.0000000000
10
6.8941730949
20
-20.2942160508
30
0.0000000000
10
6.9023090226
20
-20.2924110535
30
0.0000000000
10
6.9180331853
20
-20.2907059966
30
0.0000000000
10
6.9381533331
20
-20.2890266856
30
0.0000000000
10
6.9635499870
20
-20.2875349699
30
0.0000000000
10
6.9930795235
20
-20.2862435127
30
0.0000000000
10
7.0261651310
20
-20.2852051485
30
0.0000000000
10
7.0620045495
20
-20.2844413594
30
0.0000000000
10
7.0996692121
20
-20.2839756121
30
0.0000000000
10
7.1253307166
20
-20.2838715770
30
0.0000000000
10
7.1382990105
20
-20.2838715770
30
0.0000000000
11
6.8883032413
21
-20.2968972982
31
0.0000000000
11
6.8915850777
21
-20.2948561986
31
0.0000000000
11
6.9009328919
21
-20.2928611552
31
0.0000000000
11
6.9160177406
21
-20.2909772297
31
0.0000000000
11
6.9366293798
21
-20.2892303970
31
0.0000000000
11
6.9621026225
21
-20.2876787347
31
0.0000000000
11
6.9918715671
21
-20.2863541223
31
0.0000000000
11
7.0253124661
21
-20.2852859947
31
0.0000000000
11
7.0613174957
21
-20.2845081967
31
0.0000000000
11
7.0993944563
21
-20.2840311944
31
0.0000000000
11
7.1382990105
21
-20.2838715770
31
0.0000000000
0
SPLINE
5
3A9
100
AcDbEntity
8
0
100
AcDbSpline
62
9
6
CONTINUOUS
70
0
71
3
72
17
73
13
74
11
42
0.0000001000
43
0.0000001000
44
0.0000000001
12
0.0012298290
22
0.3661500177
32
0.0000000000
13
0.3661509212
23
0.0009224053
33
0.0000000000
40
0.0000000000
40
0.0000000000
40
0.0000000000
40
0.0000000000
40
0.0927380474
40
0.1862683312
40
0.2812329042
40
0.3781093545
40
0.4771672798
40
0.5784533210
40
0.6818006960
40
0.7868568096
40
0.8931227640
40
1.0000000000
40
1.0000000000
40
1.0000000000
40
1.0000000000
10
6.8941210711
20
-21.8068208132
30
0.0000000000
10
6.8941590884
20
-21.7955021340
30
0.0000000000
10
6.8963096874
20
-21.7727224253
30
0.0000000000
10
6.9056512562
20
-21.7395137622
30
0.0000000000
10
6.9208644520
20
-21.7079874368
30
0.0000000000
10
6.9415522403
20
-21.6789340100
30
0.0000000000
10
6.9671872829
20
-21.6530532486
30
0.0000000000
10
6.9971291231
20
-21.6309656517
30
0.0000000000
10
7.0306394120
20
-21.6131956480
30
0.0000000000
10
7.0669024008
20
-21.6001640074
30
0.0000000000
10
7.1050278868
20
-21.5921789215
30
0.0000000000
10
7.1310724408
20
-21.5903473237
30
0.0000000000
10
7.1441168403
20
-21.5903144623
30
0.0000000000
11
6.8941210711
21
-21.8068208132
31
0.0000000000
11
6.8973011196
21
-21.7730138200
31
0.0000000000
11
6.9065361484
21
-21.7400361931
31
0.0000000000
11
6.9215996000
21
-21.7086969528
31
0.0000000000
11
6.9421219321
21
-21.6797649256
31
0.0000000000
11
6.9675996825
21
-21.6539498834
31
0.0000000000
11
6.9974078212
21
-21.6318851308
31
0.0000000000
11
7.0308150833
21
-21.6141119692
31
0.0000000000
11
7.0670019085
21
-21.6010664166
31
0.0000000000
11
7.1050805476
21
-21.5930685117
31
0.0000000000
11
7.1441168403
21
-21.5903144623
31
0.0000000000
0
SPLINE
5
3AA
100
AcDbEntity
8
0
100
AcDbSpline
62
7
6
CONTINUOUS
70
0
71
3
72
18
73
14
74
12
42
0.0000001000
43
0.0000001000
44
0.0000000001
12
0.0031763781
22
0.3152256661
32
0.0000000000
13
0.3152416691
23
0.0000000000
33
0.0000000000
40
0.0000000000
40
0.0000000000
40
0.0000000000
40
0.0000000000
40
0.0600923894
40
0.1232193774
40
0.1912702092
40
0.2657636629
40
0.3477531865
40
0.4378167491
40
0.5360799495
40
0.6422378908
40
0.7555663097
40
0.8749375201
40
1.0000000000
40
1.0000000000
40
1.0000000000
40
1.0000000000
10
6.8883032413
20
-21.2294705440
30
0.0000000000
10
6.8883668666
20
-21.2231563229
30
0.0000000000
10
6.8899945260
20
-21.2101805799
30
0.0000000000
10
6.8968817931
20
-21.1911436057
30
0.0000000000
10
6.9082522433
20
-21.1726076393
30
0.0000000000
10
6.9240430811
20
-21.1549315629
30
0.0000000000
10
6.9441445709
20
-21.1384465313
30
0.0000000000
10
6.9683866212
20
-21.1234997244
30
0.0000000000
10
6.9965167331
20
-21.1104515957
30
0.0000000000
10
7.0281789044
20
-21.0996737665
30
0.0000000000
10
7.0628986474
20
-21.0915299179
30
0.0000000000
10
7.1001852904
20
-21.0863731388
30
0.0000000000
10
7.1258846042
20
-21.0851329767
30
0.0000000000
10
7.1390262392
20
-21.0851329767
30
0.0000000000
11
6.8883032413
21
-21.2294705440
31
0.0000000000
11
6.8906225818
21
-21.2106694379
31
0.0000000000
11
6.8972900918
21
-21.1919193835
31
0.0000000000
11
6.9083847642
21
-21.1735586593
31
0.0000000000
11
6.9239132611
21
-21.1559422530
31
0.0000000000
11
6.9438046301
21
-21.1394384432
31
0.0000000000
11
6.9679029332
21
-21.1244262681
31
0.0000000000
11
6.9959572960
21
-21.1112921179
31
0.0000000000
11
7.0276089952
21
-21.1004245800
31
0.0000000000
11
7.0623766749
21
-21.0922060592
31
0.0000000000
11
7.0996455516
21
-21.0869996785
31
0.0000000000
11
7.1390262392
21
-21.0851329767
31
0.0000000000
0
SPLINE
5
3AB
100
AcDbEntity
8
0
100
AcDbSpline
62
7
6
CONTINUOUS
70
0
71
3
72
11
73
7
74
5
42
0.0000001000
43
0.0000001000
44
0.0000000001
12
0.0344320461
22
-0.0031074556
32
0.0000000000
13
0.0037620475
23
-0.0343666856
33
0.0000000000
40
0.0000000000
40
0.0000000000
40
0.0000000000
40
0.0000000000
40
0.4197527525
40
0.7274035190
40
0.9190903351
40
1.0000000000
40
1.0000000000
40
1.0000000000
40
1.0000000000
10
9.2399378323
20
-20.2903940846
30
0.0000000000
10
9.2447554810
20
-20.2908288722
30
0.0000000000
10
9.2529749071
20
-20.2915431542
30
0.0000000000
10
9.2639175426
20
-20.2927132154
30
0.0000000000
10
9.2697698522
20
-20.2937362056
30
0.0000000000
10
9.2736402814
20
-20.2949673417
30
0.0000000000
10
9.2737417434
20
-20.2958942073
30
0.0000000000
11
9.2399378323
21
-20.2903940846
31
0.0000000000
11
9.2543884730
21
-20.2917237453
31
0.0000000000
11
9.2649532134
21
-20.2929537165
31
0.0000000000
11
9.2714414697
21
-20.2943026323
31
0.0000000000
11
9.2737417434
21
-20.2958942073
31
0.0000000000
0
SPLINE
5
3AC
100
AcDbEntity
8
0
100
AcDbSpline
62
7
6
CONTINUOUS
70
0
71
3
72
14
73
10
74
8
42
0.0000001000
43
0.0000001000
44
0.0000000001
12
0.2163437535
22
0.0000000000
32
0.0000000000
13
0.2154680533
23
-0.0194457629
33
0.0000000000
40
0.0000000000
40
0.0000000000
40
0.0000000000
40
0.0000000000
40
0.1716664943
40
0.3398657499
40
0.4999835900
40
0.6496901083
40
0.7844419906
40
0.9022997459
40
1.0000000000
40
1.0000000000
40
1.0000000000
40
1.0000000000
10
9.0237459742
20
-20.2838715770
30
0.0000000000
10
9.0361256321
20
-20.2838715770
30
0.0000000000
10
9.0606350214
20
-20.2839664633
30
0.0000000000
10
9.0966890022
20
-20.2843916104
30
0.0000000000
10
9.1311548768
20
-20.2850895048
30
0.0000000000
10
9.1632016773
20
-20.2860420800
30
0.0000000000
10
9.1921911311
20
-20.2872279234
30
0.0000000000
10
9.2174162443
20
-20.2886150399
30
0.0000000000
10
9.2329207378
20
-20.2897607992
30
0.0000000000
10
9.2399378323
20
-20.2903940846
30
0.0000000000
11
9.0237459742
21
-20.2838715770
31
0.0000000000
11
9.0608846634
21
-20.2840169538
31
0.0000000000
11
9.0972709328
21
-20.2844510144
31
0.0000000000
11
9.1319041466
21
-20.2851611979
31
0.0000000000
11
9.1642774975
21
-20.2861375381
31
0.0000000000
11
9.1934049817
21
-20.2873504744
31
0.0000000000
11
9.2188625419
21
-20.2887822136
31
0.0000000000
11
9.2399378323
21
-20.2903940846
31
0.0000000000
0
SPLINE
5
3AD
100
AcDbEntity
8
0
100
AcDbSpline
62
7
6
CONTINUOUS
70
0
71
3
72
18
73
14
74
12
42
0.0000001000
43
0.0000001000
44
0.0000000001
12
-0.0031763781
22
0.3152256661
32
0.0000000000
13
-0.3152416691
23
0.0000000000
33
0.0000000000
40
0.0000000000
40
0.0000000000
40
0.0000000000
40
0.0000000000
40
0.0600923894
40
0.1232193774
40
0.1912702092
40
0.2657636629
40
0.3477531865
40
0.4378167491
40
0.5360799495
40
0.6422378908
40
0.7555663097
40
0.8749375201
40
1.0000000000
40
1.0000000000
40
1.0000000000
40
1.0000000000
10
9.2737417434
20
-21.2294705440
30
0.0000000000
10
9.2736781181
20
-21.2231563229
30
0.0000000000
10
9.2720504587
20
-21.2101805799
30
0.0000000000
10
9.2651631916
20
-21.1911436057
30
0.0000000000
10
9.2537927413
20
-21.1726076393
30
0.0000000000
10
9.2380019036
20
-21.1549315629
30
0.0000000000
10
9.2179004138
20
-21.1384465313
30
0.0000000000
10
9.1936583635
20
-21.1234997244
30
0.0000000000
10
9.1655282516
20
-21.1104515957
30
0.0000000000
10
9.1338660803
20
-21.0996737665
30
0.0000000000
10
9.0991463373
20
-21.0915299179
30
0.0000000000
10
9.0618596943
20
-21.0863731388
30
0.0000000000
10
9.0361603805
20
-21.0851329767
30
0.0000000000
10
9.0230187455
20
-21.0851329767
30
0.0000000000
11
9.2737417434
21
-21.2294705440
31
0.0000000000
11
9.2714224029
21
-21.2106694379
31
0.0000000000
11
9.2647548929
21
-21.1919193835
31
0.0000000000
11
9.2536602205
21
-21.1735586593
31
0.0000000000
11
9.2381317236
21
-21.1559422530
31
0.0000000000
11
9.2182403546
21
-21.1394384432
31
0.0000000000
11
9.1941420515
21
-21.1244262681
31
0.0000000000
11
9.1660876886
21
-21.1112921179
31
0.0000000000
11
9.1344359895
21
-21.1004245800
31
0.0000000000
11
9.0996683098
21
-21.0922060592
31
0.0000000000
11
9.0623994331
21
-21.0869996785
31
0.0000000000
11
9.0230187455
21
-21.0851329767
31
0.0000000000
0
SPLINE
5
3AE
100
AcDbEntity
8
0
100
AcDbSpline
62
9
6
CONTINUOUS
70
0
71
3
72
17
73
13
74
11
42
0.0000001000
43
0.0000001000
44
0.0000000001
12
-0.0012298290
22
0.3661500177
32
0.0000000000
13
-0.3661509212
23
0.0009224053
33
0.0000000000
40
0.0000000000
40
0.0000000000
40
0.0000000000
40
0.0000000000
40
0.0927380474
40
0.1862683312
40
0.2812329042
40
0.3781093545
40
0.4771672798
40
0.5784533210
40
0.6818006960
40
0.7868568096
40
0.8931227640
40
1.0000000000
40
1.0000000000
40
1.0000000000
40
1.0000000000
10
9.2679239136
20
-21.8068208132
30
0.0000000000
10
9.2678858963
20
-21.7955021340
30
0.0000000000
10
9.2657352973
20
-21.7727224253
30
0.0000000000
10
9.2563937285
20
-21.7395137622
30
0.0000000000
10
9.2411805327
20
-21.7079874368
30
0.0000000000
10
9.2204927444
20
-21.6789340100
30
0.0000000000
10
9.1948577018
20
-21.6530532486
30
0.0000000000
10
9.1649158616
20
-21.6309656517
30
0.0000000000
10
9.1314055727
20
-21.6131956480
30
0.0000000000
10
9.0951425839
20
-21.6001640074
30
0.0000000000
10
9.0570170979
20
-21.5921789215
30
0.0000000000
10
9.0309725439
20
-21.5903473237
30
0.0000000000
10
9.0179281444
20
-21.5903144623
30
0.0000000000
11
9.2679239136
21
-21.8068208132
31
0.0000000000
11
9.2647438651
21
-21.7730138200
31
0.0000000000
11
9.2555088363
21
-21.7400361931
31
0.0000000000
11
9.2404453846
21
-21.7086969528
31
0.0000000000
11
9.2199230526
21
-21.6797649256
31
0.0000000000
11
9.1944453022
21
-21.6539498834
31
0.0000000000
11
9.1646371634
21
-21.6318851308
31
0.0000000000
11
9.1312299014
21
-21.6141119692
31
0.0000000000
11
9.0950430762
21
-21.6010664166
31
0.0000000000
11
9.0569644371
21
-21.5930685117
31
0.0000000000
11
9.0179281444
21
-21.5903144623
31
0.0000000000
0
SPLINE
5
3AF
100
AcDbEntity
8
0
100
AcDbSpline
62
9
6
CONTINUOUS
70
0
71
3
72
17
73
13
74
11
42
0.0000001000
43
0.0000001000
44
0.0000000001
12
0.3922846482
22
0.0000132773
32
0.0000000000
13
0.0000132773
23
0.3922846482
33
0.0000000000
40
0.0000000000
40
0.0000000000
40
0.0000000000
40
0.0000000000
40
0.0999991830
40
0.1999988695
40
0.2999989843
40
0.3999994104
40
0.5000000000
40
0.6000005896
40
0.7000010157
40
0.8000011305
40
0.9000008170
40
1.0000000000
40
1.0000000000
40
1.0000000000
40
1.0000000000
10
9.0179281444
20
-22.4493846672
30
0.0000000000
10
9.0310041925
20
-22.4493842246
30
0.0000000000
10
9.0572027299
20
-22.4473230471
30
0.0000000000
10
9.0954962128
20
-22.4381265946
30
0.0000000000
10
9.1318897516
20
-22.4230518921
30
0.0000000000
10
9.1654746269
20
-22.4024700977
30
0.0000000000
10
9.1954272928
20
-22.3768880464
30
0.0000000000
10
9.2210093441
20
-22.3469353804
30
0.0000000000
10
9.2415911385
20
-22.3133505052
30
0.0000000000
10
9.2566658410
20
-22.2769569664
30
0.0000000000
10
9.2658622935
20
-22.2386634835
30
0.0000000000
10
9.2679234711
20
-22.2124649461
30
0.0000000000
10
9.2679239136
20
-22.1993888980
30
0.0000000000
11
9.0179281444
21
-22.4493846672
31
0.0000000000
11
9.0570352631
21
-22.4463056132
31
0.0000000000
11
9.0951794762
21
-22.4371469116
31
0.0000000000
11
9.1314215869
21
-22.4221340705
31
0.0000000000
11
9.1648692326
21
-22.4016367398
31
0.0000000000
11
9.1946988566
21
-22.3761596102
31
0.0000000000
11
9.2201759862
21
-22.3463299862
31
0.0000000000
11
9.2406733169
21
-22.3128823405
31
0.0000000000
11
9.2556861581
21
-22.2766402298
31
0.0000000000
11
9.2648448596
21
-22.2384960167
31
0.0000000000
11
9.2679239136
21
-22.1993888980
31
0.0000000000
0
SPLINE
5
3B0
100
AcDbEntity
8
0
100
AcDbSpline
62
9
6
CONTINUOUS
70
0
71
3
72
17
73
13
74
11
42
0.0000001000
43
0.0000001000
44
0.0000000001
12
0.0000132773
22
-0.3922846478
32
0.0000000000
13
0.3922846478
23
-0.0000132773
33
0.0000000000
40
0.0000000000
40
0.0000000000
40
0.0000000000
40
0.0000000000
40
0.1000212882
40
0.2000437058
40
0.3000663194
40
0.4000887329
40
0.5001106882
40
0.6001308622
40
0.7001516800
40
0.8001640015
40
0.9001760606
40
1.0000000000
40
1.0000000000
40
1.0000000000
40
1.0000000000
10
6.8941210711
20
-22.1993888980
30
0.0000000000
10
6.8941215137
20
-22.2124678366
30
0.0000000000
10
6.8961836126
20
-22.2386722676
30
0.0000000000
10
6.9053841647
20
-22.2769739292
30
0.0000000000
10
6.9204654860
20
-22.3133743595
30
0.0000000000
10
6.9410559767
20
-22.3469641291
30
0.0000000000
10
6.9666481562
20
-22.3769191040
30
0.0000000000
10
6.9966118437
20
-22.4025007452
30
0.0000000000
10
7.0302071760
20
-22.4230787280
30
0.0000000000
10
7.0666099023
20
-22.4381467226
30
0.0000000000
10
7.1048867183
20
-22.4473283795
30
0.0000000000
10
7.1310637073
20
-22.4493842254
30
0.0000000000
10
7.1441168403
20
-22.4493846672
30
0.0000000000
11
6.8941210711
21
-22.1993888980
31
0.0000000000
11
6.8972014862
21
-22.2385046079
31
0.0000000000
11
6.9063642796
21
-22.2766570089
31
0.0000000000
11
6.9213836984
21
-22.3129059479
31
0.0000000000
11
6.9418896602
21
-22.3463584200
31
0.0000000000
11
6.9673769290
21
-22.3761904058
31
0.0000000000
11
6.9972172265
21
-22.4016668668
31
0.0000000000
11
7.0306762245
21
-22.4221609803
31
0.0000000000
11
7.0669264628
21
-22.4371667099
31
0.0000000000
11
7.1050778313
21
-22.4463163932
31
0.0000000000
11
7.1441168403
21
-22.4493846672
31
0.0000000000
0
SPLINE
5
3B1
100
AcDbEntity
8
0
100
AcDbSpline
62
9
6
CONTINUOUS
70
0
71
3
72
18
73
14
74
12
42
0.0000001000
43
0.0000001000
44
0.0000000001
12
-0.0007168851
22
-0.7839071348
32
0.0000000000
13
-0.7839071364
23
-0.0007151393
33
0.0000000000
40
0.0000000000
40
0.0000000000
40
0.0000000000
40
0.0000000000
40
0.0908336768
40
0.1816831379
40
0.2725510601
40
0.3634386252
40
0.4543454254
40
0.5452694970
40
0.6362074801
40
0.7271548910
40
0.8181064844
40
0.9090566773
40
1.0000000000
40
1.0000000000
40
1.0000000000
40
1.0000000000
10
9.6302223021
20
-19.4618937005
30
0.0000000000
10
9.6302005963
20
-19.4856287563
30
0.0000000000
10
9.6267563530
20
-19.5331696223
30
0.0000000000
10
9.6114953883
20
-19.6029700036
30
0.0000000000
10
9.5864499542
20
-19.6699161694
30
0.0000000000
10
9.5521295996
20
-19.7326279069
30
0.0000000000
10
9.5092323708
20
-19.7898353068
30
0.0000000000
10
9.4586307602
20
-19.8403740028
30
0.0000000000
10
9.4013533477
20
-19.8832169975
30
0.0000000000
10
9.3385660664
20
-19.9174932996
30
0.0000000000
10
9.2715403533
20
-19.9425061841
30
0.0000000000
10
9.2016577644
20
-19.9577471395
30
0.0000000000
10
9.1540621611
20
-19.9611867889
30
0.0000000000
10
9.1302984545
20
-19.9612084679
30
0.0000000000
11
9.6302223021
21
-19.4618937005
31
0.0000000000
11
9.6250747572
21
-19.5329125915
31
0.0000000000
11
9.6098666839
21
-19.6024874207
31
0.0000000000
11
9.5849073154
21
-19.6692034891
31
0.0000000000
11
9.5507041627
21
-19.7317042261
31
0.0000000000
11
9.5079526953
21
-19.7887187740
31
0.0000000000
11
9.4575221997
21
-19.8390878278
31
0.0000000000
11
9.4004381037
21
-19.8817872091
31
0.0000000000
11
9.3378611262
21
-19.9159486905
31
0.0000000000
11
9.2710636754
21
-19.9408776499
31
0.0000000000
11
9.2014039766
21
-19.9560671945
31
0.0000000000
11
9.1302984545
21
-19.9612084679
31
0.0000000000
0
SPLINE
5
3B2
100
AcDbEntity
8
0
100
AcDbSpline
62
7
6
CONTINUOUS
70
0
71
3
72
10
73
6
74
4
42
0.0000001000
43
0.0000001000
44
0.0000000001
12
-0.0073039237
22
0.0662945678
32
0.0000000000
13
-0.0072576803
23
0.0662996463
33
0.0000000000
40
0.0000000000
40
0.0000000000
40
0.0000000000
40
0.0000000000
40
0.3329986586
40
0.6663012573
40
1.0000000000
40
1.0000000000
40
1.0000000000
40
1.0000000000
10
9.2810224923
20
-20.3621913231
30
0.0000000000
10
9.2802117601
20
-20.3548326557
30
0.0000000000
10
9.2785912779
20
-20.3401084146
30
0.0000000000
10
9.2761643674
20
-20.3180093748
30
0.0000000000
10
9.2745490364
20
-20.3032689102
30
0.0000000000
10
9.2737417434
20
-20.2958942073
30
0.0000000000
11
9.2810224923
21
-20.3621913231
31
0.0000000000
11
9.2785928735
21
-20.3401150371
31
0.0000000000
11
9.2761661832
21
-20.3180180355
31
0.0000000000
11
9.2737417434
21
-20.2958942073
31
0.0000000000
0
SPLINE
5
3B3
100
AcDbEntity
8
0
100
AcDbSpline
62
9
6
CONTINUOUS
70
0
71
3
72
18
73
14
74
12
42
0.0000001000
43
0.0000001000
44
0.0000000001
12
-0.1956402557
22
-0.4614564316
32
0.0000000000
13
-0.5012155412
23
-0.0003594863
33
0.0000000000
40
0.0000000000
40
0.0000000000
40
0.0000000000
40
0.0000000000
40
0.0136578993
40
0.0461423457
40
0.0973924467
40
0.1665012817
40
0.2521359536
40
0.3526135152
40
0.4659469750
40
0.5898892742
40
0.7219799416
40
0.8595950469
40
1.0000000000
40
1.0000000000
40
1.0000000000
40
1.0000000000
10
9.6136955314
20
-18.5043891024
30
0.0000000000
10
9.6128048531
20
-18.5064899442
30
0.0000000000
10
9.6034663534
20
-18.5078041079
30
0.0000000000
10
9.5889467017
20
-18.5109561403
30
0.0000000000
10
9.5627037695
20
-18.5131339042
30
0.0000000000
10
9.5287192901
20
-18.5157276637
30
0.0000000000
10
9.4860090627
20
-18.5179339662
30
0.0000000000
10
9.4360636602
20
-18.5199710092
30
0.0000000000
10
9.3796461430
20
-18.5216905132
30
0.0000000000
10
9.3179549265
20
-18.5230866504
30
0.0000000000
10
9.2521937525
20
-18.5241186697
30
0.0000000000
10
9.1836788293
20
-18.5247676899
30
0.0000000000
10
9.1372293987
20
-18.5249347349
30
0.0000000000
10
9.1137716839
20
-18.5249515594
30
0.0000000000
11
9.6136955314
21
-18.5043891024
31
0.0000000000
11
9.6074920332
21
-18.5072836158
31
0.0000000000
11
9.5914593709
21
-18.5101205040
31
0.0000000000
11
9.5659167284
21
-18.5128432892
31
0.0000000000
11
9.5313726182
21
-18.5153977651
31
0.0000000000
11
9.4885147567
21
-18.5177330764
31
0.0000000000
11
9.4381963740
21
-18.5198027308
31
0.0000000000
11
9.3814192267
21
-18.5215655248
31
0.0000000000
11
9.3193136548
21
-18.5229863642
31
0.0000000000
11
9.2531160788
21
-18.5240369624
31
0.0000000000
11
9.1841443839
21
-18.5246964036
31
0.0000000000
11
9.1137716839
21
-18.5249515594
31
0.0000000000
0
SPLINE
5
3B4
100
AcDbEntity
8
0
100
AcDbSpline
62
9
6
CONTINUOUS
70
0
71
3
72
21
73
17
74
15
42
0.0000001000
43
0.0000001000
44
0.0000000001
12
0.0006884870
22
-1.4365128185
32
0.0000000000
13
0.3113016259
23
-1.4023768571
33
0.0000000000
40
0.0000000000
40
0.0000000000
40
0.0000000000
40
0.0000000000
40
0.1096476185
40
0.2175908930
40
0.3226426311
40
0.4236265897
40
0.5194224247
40
0.6089655264
40
0.6912580414
40
0.7653854385
40
0.8305238218
40
0.8859478036
40
0.9310427372
40
0.9653101011
40
0.9883726012
40
1.0000000000
40
1.0000000000
40
1.0000000000
40
1.0000000000
10
9.1137716839
20
-18.5249515708
30
0.0000000000
10
9.1137968475
20
-18.5774549739
30
0.0000000000
10
9.1139103648
20
-18.6816456576
30
0.0000000000
10
9.1142716122
20
-18.8361387183
30
0.0000000000
10
9.1148189313
20
-18.9864827222
30
0.0000000000
10
9.1155459729
20
-19.1310092543
30
0.0000000000
10
9.1164444010
20
-19.2681085358
30
0.0000000000
10
9.1175032322
20
-19.3962563162
30
0.0000000000
10
9.1187111933
20
-19.5140263564
30
0.0000000000
10
9.1200489888
20
-19.6201091650
30
0.0000000000
10
9.1215133089
20
-19.7133206143
30
0.0000000000
10
9.1230420009
20
-19.7926349267
30
0.0000000000
10
9.1247276897
20
-19.8571386093
30
0.0000000000
10
9.1262251952
20
-19.9061989086
30
0.0000000000
10
9.1281697748
20
-19.9390929083
30
0.0000000000
10
9.1290919118
20
-19.9557731362
30
0.0000000000
10
9.1302984545
20
-19.9612084679
30
0.0000000000
11
9.1137716839
21
-18.5249515708
31
0.0000000000
11
9.1139442927
21
-18.6824617037
31
0.0000000000
11
9.1143089590
21
-18.8375231903
31
0.0000000000
11
9.1148616733
21
-18.9884303637
31
0.0000000000
11
9.1155962515
21
-19.1334932715
31
0.0000000000
11
9.1165045475
21
-19.2711022347
31
0.0000000000
11
9.1175764715
21
-19.3997275964
31
0.0000000000
11
9.1188000846
21
-19.5179355298
31
0.0000000000
11
9.1201617859
21
-19.6244117913
31
0.0000000000
11
9.1216464399
21
-19.7179721457
31
0.0000000000
11
9.1232375027
21
-19.7975735159
31
0.0000000000
11
9.1249172758
21
-19.8623311910
31
0.0000000000
11
9.1266671516
21
-19.9115255918
31
0.0000000000
11
9.1284674422
21
-19.9446062218
31
0.0000000000
11
9.1302984545
21
-19.9612084679
31
0.0000000000
0
SPLINE
5
3B5
100
AcDbEntity
8
0
100
AcDbSpline
62
9
6
CONTINUOUS
70
0
71
3
72
21
73
17
74
15
42
0.0000001000
43
0.0000001000
44
0.0000000001
12
0.0006885301
22
-0.9578878257
32
0.0000000000
13
0.3025944479
23
-0.9088378078
33
0.0000000000
40
0.0000000000
40
0.0000000000
40
0.0000000000
40
0.0000000000
40
0.1095659492
40
0.2174938642
40
0.3225318738
40
0.4235038677
40
0.5192897568
40
0.6088251479
40
0.6911124643
40
0.7652375262
40
0.8303768291
40
0.8858056334
40
0.9309109284
40
0.9651972227
40
0.9882949678
40
1.0000000000
40
1.0000000000
40
1.0000000000
40
1.0000000000
10
9.6136955314
20
-18.5043891024
30
0.0000000000
10
9.6137206779
20
-18.5393730654
30
0.0000000000
10
9.6138341406
20
-18.6088179456
30
0.0000000000
10
9.6141952567
20
-18.7118005178
30
0.0000000000
10
9.6147425275
20
-18.8120382192
30
0.0000000000
10
9.6154695689
20
-18.9083977886
30
0.0000000000
10
9.6163680071
20
-18.9998057393
30
0.0000000000
10
9.6174269161
20
-19.0852457358
30
0.0000000000
10
9.6186348773
20
-19.1637664346
30
0.0000000000
10
9.6199730443
20
-19.2344954547
30
0.0000000000
10
9.6214367135
20
-19.2966404414
30
0.0000000000
10
9.6229679182
20
-19.3495256244
30
0.0000000000
10
9.6246475011
20
-19.3925195896
30
0.0000000000
10
9.6261612381
20
-19.4252624074
30
0.0000000000
10
9.6280755151
20
-19.4471439236
30
0.0000000000
10
9.6290416762
20
-19.4583477086
30
0.0000000000
10
9.6302223021
20
-19.4618937005
30
0.0000000000
11
9.6136955314
21
-18.5043891024
31
0.0000000000
11
9.6138679992
21
-18.6093408767
31
0.0000000000
11
9.6142326018
21
-18.7127230963
31
0.0000000000
11
9.6147852731
21
-18.8133362351
31
0.0000000000
11
9.6155198433
21
-18.9100533142
31
0.0000000000
11
9.6164281575
21
-19.0018009789
31
0.0000000000
11
9.6175001306
21
-19.0875591625
31
0.0000000000
11
9.6187238204
21
-19.1663717022
31
0.0000000000
11
9.6200856250
21
-19.2373621544
31
0.0000000000
11
9.6215704047
21
-19.2997406473
31
0.0000000000
11
9.6231616016
21
-19.3528113892
31
0.0000000000
11
9.6248415249
21
-19.3959845417
31
0.0000000000
11
9.6265915265
21
-19.4287803167
31
0.0000000000
11
9.6283919998
21
-19.4508319909
31
0.0000000000
11
9.6302223021
21
-19.4618937005
31
0.0000000000
0
SPLINE
5
3B6
100
AcDbEntity
8
0
100
AcDbSpline
62
9
6
CONTINUOUS
70
0
71
3
72
18
73
14
74
12
42
0.0000001000
43
0.0000001000
44
0.0000000001
12
-0.1956360008
22
0.4614582401
32
0.0000000000
13
-0.5012155454
23
0.0003594874
33
0.0000000000
40
0.0000000000
40
0.0000000000
40
0.0000000000
40
0.0000000000
40
0.0136578491
40
0.0461422523
40
0.0973923222
40
0.1665011386
40
0.2521358042
40
0.3526133710
40
0.4659468462
40
0.5898891695
40
0.7219798678
40
0.8595950088
40
1.0000000000
40
1.0000000000
40
1.0000000000
40
1.0000000000
10
9.6136955314
20
22.5794226106
30
0.0000000000
10
9.6128048758
20
22.5815234529
30
0.0000000000
10
9.6034663658
20
22.5828376207
30
0.0000000000
10
9.5889467595
20
22.5859896512
30
0.0000000000
10
9.5627038291
20
22.5881674168
30
0.0000000000
10
9.5287193647
20
22.5907611771
30
0.0000000000
10
9.4860091381
20
22.5929674809
30
0.0000000000
10
9.4360637336
20
22.5950045251
30
0.0000000000
10
9.3796462082
20
22.5967240302
30
0.0000000000
10
9.3179549796
20
22.5981201683
30
0.0000000000
10
9.2521937899
20
22.5991521883
30
0.0000000000
10
9.1836788486
20
22.5998012091
30
0.0000000000
10
9.1372294053
20
22.5999682543
30
0.0000000000
10
9.1137716839
20
22.5999850789
30
0.0000000000
11
9.6136955314
21
22.5794226106
31
0.0000000000
11
9.6074920615
21
22.5823171250
31
0.0000000000
11
9.5914594212
21
22.5851540145
31
0.0000000000
11
9.5659167943
21
22.5878768009
31
0.0000000000
11
9.5313726932
21
22.5904312782
31
0.0000000000
11
9.4885148346
21
22.5927665908
31
0.0000000000
11
9.4381964490
21
22.5948362465
31
0.0000000000
11
9.3814192935
21
22.5965990417
31
0.0000000000
11
9.3193137090
21
22.5980198820
31
0.0000000000
11
9.2531161169
21
22.5990704809
31
0.0000000000
11
9.1841444036
21
22.5997299227
31
0.0000000000
11
9.1137716839
21
22.5999850789
31
0.0000000000
0
SPLINE
5
3B7
100
AcDbEntity
8
0
100
AcDbSpline
62
9
6
CONTINUOUS
70
0
71
3
72
14
73
10
74
8
42
0.0000001000
43
0.0000001000
44
0.0000000001
12
-0.0295164970
22
-41.1249295136
32
0.0000000000
13
0.0295164969
23
-41.1249295136
33
0.0000000000
40
0.0000000000
40
0.0000000000
40
0.0000000000
40
0.0000000000
40
0.1428078204
40
0.2856649617
40
0.4285516989
40
0.5714483011
40
0.7143350383
40
0.8571921796
40
1.0000000000
40
1.0000000000
40
1.0000000000
40
1.0000000000
10
9.1137716839
20
22.5999850789
30
0.0000000000
10
9.1123666217
20
20.6423312301
30
0.0000000000
10
9.1099580536
20
16.7263471245
30
0.0000000000
10
9.1075497357
20
10.8516265954
30
0.0000000000
10
9.1063454935
20
4.9756886450
30
0.0000000000
10
9.1063454935
20
-0.9006551367
30
0.0000000000
10
9.1075497357
20
-6.7765930871
30
0.0000000000
10
9.1099580536
20
-12.6513136162
30
0.0000000000
10
9.1123666217
20
-16.5672977220
30
0.0000000000
10
9.1137716839
20
-18.5249515708
30
0.0000000000
11
9.1137716839
21
22.5999850789
31
0.0000000000
11
9.1101592066
21
16.7270231310
31
0.0000000000
11
9.1077506113
21
10.8520322420
31
0.0000000000
11
9.1065462305
21
4.9758238563
31
0.0000000000
11
9.1065462305
21
-0.9007903480
31
0.0000000000
11
9.1077506113
21
-6.7769987337
31
0.0000000000
11
9.1101592066
21
-12.6519896228
31
0.0000000000
11
9.1137716839
21
-18.5249515708
31
0.0000000000
0
SPLINE
5
3B8
100
AcDbEntity
8
0
100
AcDbSpline
62
9
6
CONTINUOUS
70
0
71
3
72
14
73
10
74
8
42
0.0000001000
43
0.0000001000
44
0.0000000001
12
-0.0295164970
22
-41.0838045698
32
0.0000000000
13
0.0295164969
23
-41.0838045698
33
0.0000000000
40
0.0000000000
40
0.0000000000
40
0.0000000000
40
0.0000000000
40
0.1428078035
40
0.2856649538
40
0.4285516999
40
0.5714483109
40
0.7143350570
40
0.8571922072
40
1.0000000000
40
1.0000000000
40
1.0000000000
40
1.0000000000
10
9.6136955314
20
22.5794226106
30
0.0000000000
10
9.6122904694
20
20.6237266467
30
0.0000000000
10
9.6098819013
20
16.7116586345
30
0.0000000000
10
9.6074735834
20
10.8428128128
30
0.0000000000
10
9.6062693410
20
4.9727504344
30
0.0000000000
10
9.6062693411
20
-0.8977173695
30
0.0000000000
10
9.6074735835
20
-6.7677797473
30
0.0000000000
10
9.6098819015
20
-12.6366254212
30
0.0000000000
10
9.6122904695
20
-16.5486932858
30
0.0000000000
10
9.6136955314
20
-18.5043891024
30
0.0000000000
11
9.6136955314
21
22.5794226106
31
0.0000000000
11
9.6100830546
21
16.7123343169
31
0.0000000000
11
9.6076744590
21
10.8432180537
31
0.0000000000
11
9.6064700781
21
4.9728855103
31
0.0000000000
11
9.6064700782
21
-0.8978524457
31
0.0000000000
11
9.6076744592
21
-6.7681849882
31
0.0000000000
11
9.6100830548
21
-12.6373012506
31
0.0000000000
11
9.6136955314
21
-18.5043891024
31
0.0000000000
0
SPLINE
5
3B9
100
AcDbEntity
8
0
100
AcDbSpline
62
9
6
CONTINUOUS
70
0
71
3
72
18
73
14
74
12
42
0.0000001000
43
0.0000001000
44
0.0000000001
12
-0.0007168851
22
0.7839071348
32
0.0000000000
13
-0.7839071364
23
0.0007151394
33
0.0000000000
40
0.0000000000
40
0.0000000000
40
0.0000000000
40
0.0000000000
40
0.0908336448
40
0.1816830803
40
0.2725509838
40
0.3634385376
40
0.4543453337
40
0.5452694081
40
0.6362074004
40
0.7271548260
40
0.8181064385
40
0.9090566536
40
1.0000000000
40
1.0000000000
40
1.0000000000
40
1.0000000000
10
9.6302223021
20
23.5369272087
30
0.0000000000
10
9.6302005963
20
23.5606622561
30
0.0000000000
10
9.6267563553
20
23.6082031069
30
0.0000000000
10
9.6114953998
20
23.6780034696
30
0.0000000000
10
9.5864499780
20
23.7449496244
30
0.0000000000
10
9.5521296358
20
23.8076613584
30
0.0000000000
10
9.5092324170
20
23.8648687616
30
0.0000000000
10
9.4586308121
20
23.9154074663
30
0.0000000000
10
9.4013533996
20
23.9582504728
30
0.0000000000
10
9.3385661122
20
23.9925267875
30
0.0000000000
10
9.2715403875
20
24.0175396830
30
0.0000000000
10
9.2016577827
20
24.0327806459
30
0.0000000000
10
9.1540621673
20
24.0362202970
30
0.0000000000
10
9.1302984545
20
24.0362419760
30
0.0000000000
11
9.6302223021
21
23.5369272087
31
0.0000000000
11
9.6250747608
21
23.6079460747
31
0.0000000000
11
9.6098666967
21
23.6775208854
31
0.0000000000
11
9.5849073403
21
23.7442369427
31
0.0000000000
11
9.5507042000
21
23.8067376764
31
0.0000000000
11
9.5079527426
21
23.8637522276
31
0.0000000000
11
9.4575222525
21
23.9141212902
31
0.0000000000
11
9.4004381564
21
23.9568206834
31
0.0000000000
11
9.3378611726
21
23.9909821774
31
0.0000000000
11
9.2710637100
21
24.0159111478
31
0.0000000000
11
9.2014039951
21
24.0311006999
31
0.0000000000
11
9.1302984545
21
24.0362419760
31
0.0000000000
0
SPLINE
5
3BA
100
AcDbEntity
8
0
100
AcDbSpline
62
9
6
CONTINUOUS
70
0
71
3
72
21
73
17
74
15
42
0.0000001000
43
0.0000001000
44
0.0000000001
12
-0.3113088231
22
-1.4023752587
32
0.0000000000
13
-0.0006883741
23
-1.4365128178
33
0.0000000000
40
0.0000000000
40
0.0000000000
40
0.0000000000
40
0.0000000000
40
0.0116273329
40
0.0346898061
40
0.0689571398
40
0.1140520285
40
0.1694760030
40
0.2346143665
40
0.3087417298
40
0.3910342353
40
0.4805773113
40
0.5763730913
40
0.6773570638
40
0.7824087775
40
0.8903519822
40
1.0000000000
40
1.0000000000
40
1.0000000000
40
1.0000000000
10
9.1302984545
20
24.0362419760
30
0.0000000000
10
9.1290918907
20
24.0308066814
30
0.0000000000
10
9.1281698204
20
24.0141264852
30
0.0000000000
10
9.1262251865
20
23.9812325543
30
0.0000000000
10
9.1247277122
20
23.9321722989
30
0.0000000000
10
9.1230420099
20
23.8676686578
30
0.0000000000
10
9.1215133233
20
23.7883543792
30
0.0000000000
10
9.1200490010
20
23.6951429594
30
0.0000000000
10
9.1187112052
20
23.5890601809
30
0.0000000000
10
9.1175032419
20
23.4712901739
30
0.0000000000
10
9.1164444091
20
23.3431424367
30
0.0000000000
10
9.1155459778
20
23.2060431874
30
0.0000000000
10
9.1148189368
20
23.0615166867
30
0.0000000000
10
9.1142716110
20
22.9111727213
30
0.0000000000
10
9.1139103703
20
22.7566795146
30
0.0000000000
10
9.1137968435
20
22.6524886732
30
0.0000000000
10
9.1137716839
20
22.5999850789
30
0.0000000000
11
9.1302984545
21
24.0362419760
31
0.0000000000
11
9.1284674572
21
24.0196398236
31
0.0000000000
11
9.1266671624
21
23.9865592325
31
0.0000000000
11
9.1249172890
21
23.9373648749
31
0.0000000000
11
9.1232375159
21
23.8726072644
31
0.0000000000
11
9.1216464529
21
23.7930059049
31
0.0000000000
11
9.1201617984
21
23.6994455789
31
0.0000000000
11
9.1188000963
21
23.5929693660
31
0.0000000000
11
9.1175764813
21
23.4747614463
31
0.0000000000
11
9.1165045552
21
23.3461361216
31
0.0000000000
11
9.1155962572
21
23.2085272376
31
0.0000000000
11
9.1148616776
21
23.0634643099
31
0.0000000000
11
9.1143089600
21
22.9125571716
31
0.0000000000
11
9.1139442951
21
22.7574957854
31
0.0000000000
11
9.1137716839
21
22.5999850789
31
0.0000000000
0
SPLINE
5
3BB
100
AcDbEntity
8
0
100
AcDbSpline
62
9
6
CONTINUOUS
70
0
71
3
72
21
73
17
74
15
42
0.0000001000
43
0.0000001000
44
0.0000000001
12
-0.3025837785
22
-0.9088413634
32
0.0000000000
13
-0.0006884958
23
-0.9578878289
33
0.0000000000
40
0.0000000000
40
0.0000000000
40
0.0000000000
40
0.0000000000
40
0.0117024917
40
0.0347984831
40
0.0690828211
40
0.1141860954
40
0.1696128360
40
0.2347500359
40
0.3088733116
40
0.3911594960
40
0.4806943373
40
0.5764799000
40
0.6774518675
40
0.7824900079
40
0.8904182149
40
1.0000000000
40
1.0000000000
40
1.0000000000
40
1.0000000000
10
9.6302223021
20
23.5369272087
30
0.0000000000
10
9.6290419740
20
23.5333819725
30
0.0000000000
10
9.6280756172
20
23.5221796402
30
0.0000000000
10
9.6261615474
20
23.5003000748
30
0.0000000000
10
9.6246477415
20
23.4675591087
30
0.0000000000
10
9.6229681912
20
23.4245670656
30
0.0000000000
10
9.6214369712
20
23.3716838617
30
0.0000000000
10
9.6199732947
20
23.3095407755
30
0.0000000000
10
9.6186351061
20
23.2388133593
30
0.0000000000
10
9.6174271164
20
23.1602937680
30
0.0000000000
10
9.6163681743
20
23.0748544129
30
0.0000000000
10
9.6154697016
20
22.9834467504
30
0.0000000000
10
9.6147426278
20
22.8870872518
30
0.0000000000
10
9.6141953235
20
22.7868494237
30
0.0000000000
10
9.6138341631
20
22.6838616600
30
0.0000000000
10
9.6137206803
20
22.6144116300
30
0.0000000000
10
9.6136955314
20
22.5794226106
30
0.0000000000
11
9.6302223021
21
23.5369272087
31
0.0000000000
11
9.6283922644
21
23.5258679218
31
0.0000000000
11
9.6265917956
21
23.5038179326
31
0.0000000000
11
9.6248417959
21
23.4710240339
31
0.0000000000
11
9.6231618717
21
23.4278528184
31
0.0000000000
11
9.6215706689
21
23.3747840542
31
0.0000000000
11
9.6200858795
21
23.3124075764
31
0.0000000000
11
9.6187240556
21
23.2414188356
31
0.0000000000
11
9.6175003356
21
23.1626073806
31
0.0000000000
11
9.6164283273
21
23.0768497237
31
0.0000000000
11
9.6155199784
21
22.9851023718
31
0.0000000000
11
9.6147853744
21
22.8883853178
31
0.0000000000
11
9.6142326704
21
22.7877720537
31
0.0000000000
11
9.6138680384
21
22.6843895541
31
0.0000000000
11
9.6136955314
21
22.5794226106
31
0.0000000000
0
SPLINE
5
3BC
100
AcDbEntity
8
0
100
AcDbSpline
62
7
6
CONTINUOUS
70
0
71
3
72
10
73
6
74
4
42
0.0000001000
43
0.0000001000
44
0.0000000001
12
0.0072576803
22
0.0662996463
32
0.0000000000
13
0.0073039237
23
0.0662945678
33
0.0000000000
40
0.0000000000
40
0.0000000000
40
0.0000000000
40
0.0000000000
40
0.3336987427
40
0.6670013414
40
1.0000000000
40
1.0000000000
40
1.0000000000
40
1.0000000000
10
9.2737417434
20
24.3709277155
30
0.0000000000
10
9.2745490364
20
24.3783024183
30
0.0000000000
10
9.2761643674
20
24.3930428829
30
0.0000000000
10
9.2785912779
20
24.4151419227
30
0.0000000000
10
9.2802117601
20
24.4298661638
30
0.0000000000
10
9.2810224923
20
24.4372248312
30
0.0000000000
11
9.2737417434
21
24.3709277155
31
0.0000000000
11
9.2761661832
21
24.3930515436
31
0.0000000000
11
9.2785928735
21
24.4151485452
31
0.0000000000
11
9.2810224923
21
24.4372248312
31
0.0000000000
0
SPLINE
5
3BD
100
AcDbEntity
8
0
100
AcDbSpline
62
7
6
CONTINUOUS
70
0
71
3
72
18
73
14
74
12
42
0.0000001000
43
0.0000001000
44
0.0000000001
12
0.0554102302
22
0.4991426714
32
0.0000000000
13
0.5022088211
23
-0.0000000000
33
0.0000000000
40
0.0000000000
40
0.0000000000
40
0.0000000000
40
0.0000000000
40
0.0131680296
40
0.0448584541
40
0.0953952215
40
0.1641892112
40
0.2495168295
40
0.3502227931
40
0.4636240711
40
0.5881588180
40
0.7206279660
40
0.8589718320
40
1.0000000000
40
1.0000000000
40
1.0000000000
40
1.0000000000
10
-5.7660516695
20
-20.3361269091
30
0.0000000000
10
-5.7658084549
20
-20.3339360006
30
0.0000000000
10
-5.7564877487
20
-20.3311445709
30
0.0000000000
10
-5.7427140362
20
-20.3280137951
30
0.0000000000
10
-5.7166190178
20
-20.3247579663
30
0.0000000000
10
-5.6829248782
20
-20.3216504490
30
0.0000000000
10
-5.6402011193
20
-20.3187688516
30
0.0000000000
10
-5.5901930885
20
-20.3162136892
30
0.0000000000
10
-5.5335263876
20
-20.3140372195
30
0.0000000000
10
-5.4715484495
20
-20.3122952687
30
0.0000000000
10
-5.4053759253
20
-20.3110224851
30
0.0000000000
10
-5.3364366608
20
-20.3102481992
30
0.0000000000
10
-5.2896686610
20
-20.3100754667
30
0.0000000000
10
-5.2660601310
20
-20.3100754667
30
0.0000000000
11
-5.7660516695
21
-20.3361269091
31
0.0000000000
11
-5.7605813859
21
-20.3324108497
31
0.0000000000
11
-5.7450882589
21
-20.3287698404
31
0.0000000000
11
-5.7199482160
21
-20.3252880060
31
0.0000000000
11
-5.6855541276
21
-20.3220205116
31
0.0000000000
11
-5.6428048331
21
-20.3190513457
31
0.0000000000
11
-5.5922978151
21
-20.3164217885
31
0.0000000000
11
-5.5353899712
21
-20.3142019650
31
0.0000000000
11
-5.4728728541
21
-20.3124221000
31
0.0000000000
11
-5.4063582636
21
-20.3111281846
31
0.0000000000
11
-5.3368852282
21
-20.3103396864
31
0.0000000000
11
-5.2660601310
21
-20.3100754667
31
0.0000000000
0
SPLINE
5
3BE
100
AcDbEntity
8
0
100
AcDbSpline
62
7
6
CONTINUOUS
70
0
71
3
72
16
73
12
74
10
42
0.0000001000
43
0.0000001000
44
0.0000000001
12
-0.0002122239
22
-0.5533630193
32
0.0000000000
13
-0.4952765776
23
-0.2476596337
33
0.0000000000
40
0.0000000000
40
0.0000000000
40
0.0000000000
40
0.0000000000
40
0.1118565208
40
0.2243244341
40
0.3375581727
40
0.4520664600
40
0.5682200697
40
0.6855120601
40
0.8030067579
40
0.9195586227
40
1.0000000000
40
1.0000000000
40
1.0000000000
40
1.0000000000
10
9.7636055899
20
-19.8623689745
30
0.0000000000
10
9.7635976771
20
-19.8830013952
30
0.0000000000
10
9.7610158748
20
-19.9244235913
30
0.0000000000
10
9.7494470798
20
-19.9857594965
30
0.0000000000
10
9.7301772346
20
-20.0456555827
30
0.0000000000
10
9.7032432365
20
-20.1032735239
30
0.0000000000
10
9.6687903692
20
-20.1576339409
30
0.0000000000
10
9.6272665499
20
-20.2075306076
30
0.0000000000
10
9.5795732025
20
-20.2516772150
30
0.0000000000
10
9.5321373811
20
-20.2853458744
30
0.0000000000
10
9.5003397249
20
-20.3030561839
30
0.0000000000
10
9.4870594815
20
-20.3096968779
30
0.0000000000
11
9.7636055899
21
-19.8623689745
31
0.0000000000
11
9.7597532991
21
-19.9241462476
31
0.0000000000
11
9.7482196948
21
-19.9853037857
31
0.0000000000
11
9.7290288856
21
-20.0449519982
31
0.0000000000
11
9.7021956563
21
-20.1023545893
31
0.0000000000
11
9.6677873239
21
-20.1566441584
31
0.0000000000
11
9.6262694551
21
-20.2065333626
31
0.0000000000
11
9.5785552907
21
-20.2506989390
31
0.0000000000
11
9.5259610822
21
-20.2880287970
31
0.0000000000
11
9.4870594815
21
-20.3096968779
31
0.0000000000
0
SPLINE
5
3BF
100
AcDbEntity
8
0
100
AcDbSpline
62
7
6
CONTINUOUS
70
0
71
3
72
10
73
6
74
4
42
0.0000001000
43
0.0000001000
44
0.0000000001
12
-0.0072576803
22
-0.0662996463
32
0.0000000000
13
-0.0073039237
23
-0.0662945678
33
0.0000000000
40
0.0000000000
40
0.0000000000
40
0.0000000000
40
0.0000000000
40
0.3336987427
40
0.6670013414
40
1.0000000000
40
1.0000000000
40
1.0000000000
40
1.0000000000
10
-12.0116967587
20
-20.2958942073
30
0.0000000000
10
-12.0125040517
20
-20.3032689102
30
0.0000000000
10
-12.0141193827
20
-20.3180093748
30
0.0000000000
10
-12.0165462932
20
-20.3401084146
30
0.0000000000
10
-12.0181667754
20
-20.3548326557
30
0.0000000000
10
-12.0189775077
20
-20.3621913231
30
0.0000000000
11
-12.0116967587
21
-20.2958942073
31
0.0000000000
11
-12.0141211985
21
-20.3180180355
31
0.0000000000
11
-12.0165478888
21
-20.3401150371
31
0.0000000000
11
-12.0189775077
21
-20.3621913231
31
0.0000000000
0
SPLINE
5
3C0
100
AcDbEntity
8
0
100
AcDbSpline
62
9
6
CONTINUOUS
70
0
71
3
72
18
73
14
74
12
42
0.0000001000
43
0.0000001000
44
0.0000000001
12
0.0007168851
22
-0.7839071348
32
0.0000000000
13
0.7839071364
23
-0.0007151394
33
0.0000000000
40
0.0000000000
40
0.0000000000
40
0.0000000000
40
0.0000000000
40
0.0908336581
40
0.1816831045
40
0.2725510161
40
0.3634385748
40
0.4543453729
40
0.5452694462
40
0.6362074347
40
0.7271548540
40
0.8181064583
40
0.9090566639
40
1.0000000000
40
1.0000000000
40
1.0000000000
40
1.0000000000
10
-12.3681773174
20
-19.4618937005
30
0.0000000000
10
-12.3681556116
20
-19.4856287514
30
0.0000000000
10
-12.3647113697
20
-19.5331696086
30
0.0000000000
10
-12.3494504103
20
-19.6029699792
30
0.0000000000
10
-12.3244049832
20
-19.6699161387
30
0.0000000000
10
-12.2900846357
20
-19.7326278743
30
0.0000000000
10
-12.2471874126
20
-19.7898352762
30
0.0000000000
10
-12.1965858052
20
-19.8403739773
30
0.0000000000
10
-12.1393083926
20
-19.8832169788
30
0.0000000000
10
-12.0765211078
20
-19.9174932881
30
0.0000000000
10
-12.0094953881
20
-19.9425061789
30
0.0000000000
10
-11.9396127901
20
-19.9577471385
30
0.0000000000
10
-11.8920171799
20
-19.9611867889
30
0.0000000000
10
-11.8682534698
20
-19.9612084679
30
0.0000000000
11
-12.3681773174
21
-19.4618937005
31
0.0000000000
11
-12.3630297746
21
-19.5329125770
31
0.0000000000
11
-12.3478217066
21
-19.6024873955
31
0.0000000000
11
-12.3228623451
21
-19.6692034576
31
0.0000000000
11
-12.2886591994
21
-19.7317041928
31
0.0000000000
11
-12.2459077377
21
-19.7887187427
31
0.0000000000
11
-12.1954772451
21
-19.8390878017
31
0.0000000000
11
-12.1383931490
21
-19.8817871898
31
0.0000000000
11
-12.0758161679
21
-19.9159486784
31
0.0000000000
11
-12.0090187104
21
-19.9408776441
31
0.0000000000
11
-11.9393590024
21
-19.9560671930
31
0.0000000000
11
-11.8682534698
21
-19.9612084679
31
0.0000000000
0
SPLINE
5
3C1
100
AcDbEntity
8
0
100
AcDbSpline
62
9
6
CONTINUOUS
70
0
71
3
72
21
73
17
74
15
42
0.0000001000
43
0.0000001000
44
0.0000000001
12
0.3113016268
22
1.4023768569
32
0.0000000000
13
0.0006884870
23
1.4365128185
33
0.0000000000
40
0.0000000000
40
0.0000000000
40
0.0000000000
40
0.0000000000
40
0.0116273988
40
0.0346898989
40
0.0689572628
40
0.1140521964
40
0.1694761782
40
0.2346145615
40
0.3087419586
40
0.3910344736
40
0.4805775753
40
0.5763734103
40
0.6773573689
40
0.7824091070
40
0.8903523815
40
1.0000000000
40
1.0000000000
40
1.0000000000
40
1.0000000000
10
-11.8682534698
20
-19.9612084679
30
0.0000000000
10
-11.8670469271
20
-19.9557731362
30
0.0000000000
10
-11.8661247901
20
-19.9390929083
30
0.0000000000
10
-11.8641802105
20
-19.9061989086
30
0.0000000000
10
-11.8626827050
20
-19.8571386093
30
0.0000000000
10
-11.8609970163
20
-19.7926349267
30
0.0000000000
10
-11.8594683242
20
-19.7133206143
30
0.0000000000
10
-11.8580040041
20
-19.6201091650
30
0.0000000000
10
-11.8566662086
20
-19.5140263564
30
0.0000000000
10
-11.8554582475
20
-19.3962563162
30
0.0000000000
10
-11.8543994163
20
-19.2681085358
30
0.0000000000
10
-11.8535009882
20
-19.1310092543
30
0.0000000000
10
-11.8527739466
20
-18.9864827222
30
0.0000000000
10
-11.8522266276
20
-18.8361387183
30
0.0000000000
10
-11.8518653801
20
-18.6816456576
30
0.0000000000
10
-11.8517518628
20
-18.5774549739
30
0.0000000000
10
-11.8517266992
20
-18.5249515708
30
0.0000000000
11
-11.8682534698
21
-19.9612084679
31
0.0000000000
11
-11.8664224575
21
-19.9446062218
31
0.0000000000
11
-11.8646221669
21
-19.9115255918
31
0.0000000000
11
-11.8628722911
21
-19.8623311910
31
0.0000000000
11
-11.8611925180
21
-19.7975735159
31
0.0000000000
11
-11.8596014552
21
-19.7179721457
31
0.0000000000
11
-11.8581168012
21
-19.6244117913
31
0.0000000000
11
-11.8567550999
21
-19.5179355298
31
0.0000000000
11
-11.8555314868
21
-19.3997275964
31
0.0000000000
11
-11.8544595628
21
-19.2711022347
31
0.0000000000
11
-11.8535512668
21
-19.1334932715
31
0.0000000000
11
-11.8528166886
21
-18.9884303637
31
0.0000000000
11
-11.8522639743
21
-18.8375231903
31
0.0000000000
11
-11.8518993080
21
-18.6824617037
31
0.0000000000
11
-11.8517266992
21
-18.5249515708
31
0.0000000000
0
SPLINE
5
3C2
100
AcDbEntity
8
0
100
AcDbSpline
62
9
6
CONTINUOUS
70
0
71
3
72
21
73
17
74
15
42
0.0000001000
43
0.0000001000
44
0.0000000001
12
0.3025944439
22
0.9088378091
32
0.0000000000
13
0.0006885301
23
0.9578878257
33
0.0000000000
40
0.0000000000
40
0.0000000000
40
0.0000000000
40
0.0000000000
40
0.0117050322
40
0.0348027773
40
0.0690890716
40
0.1141943666
40
0.1696231709
40
0.2347624738
40
0.3088875357
40
0.3911748521
40
0.4807102432
40
0.5764961323
40
0.6774681262
40
0.7825061358
40
0.8904340508
40
1.0000000000
40
1.0000000000
40
1.0000000000
40
1.0000000000
10
-12.3681773174
20
-19.4618937005
30
0.0000000000
10
-12.3669966915
20
-19.4583477086
30
0.0000000000
10
-12.3660305304
20
-19.4471439236
30
0.0000000000
10
-12.3641162534
20
-19.4252624074
30
0.0000000000
10
-12.3626025164
20
-19.3925195896
30
0.0000000000
10
-12.3609229335
20
-19.3495256244
30
0.0000000000
10
-12.3593917288
20
-19.2966404414
30
0.0000000000
10
-12.3579280596
20
-19.2344954547
30
0.0000000000
10
-12.3565898926
20
-19.1637664346
30
0.0000000000
10
-12.3553819314
20
-19.0852457358
30
0.0000000000
10
-12.3543230224
20
-18.9998057393
30
0.0000000000
10
-12.3534245842
20
-18.9083977886
30
0.0000000000
10
-12.3526975428
20
-18.8120382192
30
0.0000000000
10
-12.3521502720
20
-18.7118005178
30
0.0000000000
10
-12.3517891559
20
-18.6088179456
30
0.0000000000
10
-12.3516756932
20
-18.5393730654
30
0.0000000000
10
-12.3516505468
20
-18.5043891024
30
0.0000000000
11
-12.3681773174
21
-19.4618937005
31
0.0000000000
11
-12.3663470151
21
-19.4508319909
31
0.0000000000
11
-12.3645465418
21
-19.4287803167
31
0.0000000000
11
-12.3627965403
21
-19.3959845417
31
0.0000000000
11
-12.3611166169
21
-19.3528113892
31
0.0000000000
11
-12.3595254200
21
-19.2997406473
31
0.0000000000
11
-12.3580406403
21
-19.2373621544
31
0.0000000000
11
-12.3566788357
21
-19.1663717022
31
0.0000000000
11
-12.3554551459
21
-19.0875591625
31
0.0000000000
11
-12.3543831729
21
-19.0018009789
31
0.0000000000
11
-12.3534748586
21
-18.9100533142
31
0.0000000000
11
-12.3527402884
21
-18.8133362351
31
0.0000000000
11
-12.3521876171
21
-18.7127230963
31
0.0000000000
11
-12.3518230145
21
-18.6093408767
31
0.0000000000
11
-12.3516505468
21
-18.5043891024
31
0.0000000000
0
SPLINE
5
3C3
100
AcDbEntity
8
0
100
AcDbSpline
62
9
6
CONTINUOUS
70
0
71
3
72
18
73
14
74
12
42
0.0000001000
43
0.0000001000
44
0.0000000001
12
0.1956360021
22
-0.4614582396
32
0.0000000000
13
0.5012155454
23
-0.0003594874
33
0.0000000000
40
0.0000000000
40
0.0000000000
40
0.0000000000
40
0.0000000000
40
0.0136578491
40
0.0461422523
40
0.0973923222
40
0.1665011386
40
0.2521358042
40
0.3526133710
40
0.4659468462
40
0.5898891695
40
0.7219798678
40
0.8595950088
40
1.0000000000
40
1.0000000000
40
1.0000000000
40
1.0000000000
10
-12.3516505468
20
-18.5043891024
30
0.0000000000
10
-12.3507598911
20
-18.5064899448
30
0.0000000000
10
-12.3414213811
20
-18.5078041125
30
0.0000000000
10
-12.3269017748
20
-18.5109561431
30
0.0000000000
10
-12.3006588444
20
-18.5131339086
30
0.0000000000
10
-12.2666743800
20
-18.5157276690
30
0.0000000000
10
-12.2239641534
20
-18.5179339728
30
0.0000000000
10
-12.1740187489
20
-18.5199710170
30
0.0000000000
10
-12.1176012235
20
-18.5216905220
30
0.0000000000
10
-12.0559099949
20
-18.5230866602
30
0.0000000000
10
-11.9901488052
20
-18.5241186802
30
0.0000000000
10
-11.9216338639
20
-18.5247677010
30
0.0000000000
10
-11.8751844206
20
-18.5249347461
30
0.0000000000
10
-11.8517266992
20
-18.5249515707
30
0.0000000000
11
-12.3516505468
21
-18.5043891024
31
0.0000000000
11
-12.3454470768
21
-18.5072836169
31
0.0000000000
11
-12.3294144365
21
-18.5101205063
31
0.0000000000
11
-12.3038718096
21
-18.5128432928
31
0.0000000000
11
-12.2693277085
21
-18.5153977701
31
0.0000000000
11
-12.2264698499
21
-18.5177330827
31
0.0000000000
11
-12.1761514642
21
-18.5198027383
31
0.0000000000
11
-12.1193743087
21
-18.5215655335
31
0.0000000000
11
-12.0572687243
21
-18.5229863739
31
0.0000000000
11
-11.9910711322
21
-18.5240369728
31
0.0000000000
11
-11.9220994190
21
-18.5246964146
31
0.0000000000
11
-11.8517266992
21
-18.5249515707
31
0.0000000000
0
SPLINE
5
3C4
100
AcDbEntity
8
0
100
AcDbSpline
62
9
6
CONTINUOUS
70
0
71
3
72
14
73
10
74
8
42
0.0000001000
43
0.0000001000
44
0.0000000001
12
0.0295164969
22
41.1249295136
32
0.0000000000
13
-0.0295164970
23
41.1249295136
33
0.0000000000
40
0.0000000000
40
0.0000000000
40
0.0000000000
40
0.0000000000
40
0.1428078204
40
0.2856649617
40
0.4285516989
40
0.5714483011
40
0.7143350383
40
0.8571921796
40
1.0000000000
40
1.0000000000
40
1.0000000000
40
1.0000000000
10
-11.8517266992
20
-18.5249515708
30
0.0000000000
10
-11.8503216370
20
-16.5672977220
30
0.0000000000
10
-11.8479130689
20
-12.6513136162
30
0.0000000000
10
-11.8455047510
20
-6.7765930871
30
0.0000000000
10
-11.8443005088
20
-0.9006551367
30
0.0000000000
10
-11.8443005088
20
4.9756886450
30
0.0000000000
10
-11.8455047510
20
10.8516265954
30
0.0000000000
10
-11.8479130689
20
16.7263471245
30
0.0000000000
10
-11.8503216370
20
20.6423312301
30
0.0000000000
10
-11.8517266992
20
22.5999850789
30
0.0000000000
11
-11.8517266992
21
-18.5249515708
31
0.0000000000
11
-11.8481142219
21
-12.6519896228
31
0.0000000000
11
-11.8457056266
21
-6.7769987337
31
0.0000000000
11
-11.8445012458
21
-0.9007903480
31
0.0000000000
11
-11.8445012458
21
4.9758238563
31
0.0000000000
11
-11.8457056266
21
10.8520322420
31
0.0000000000
11
-11.8481142219
21
16.7270231310
31
0.0000000000
11
-11.8517266992
21
22.5999850789
31
0.0000000000
0
SPLINE
5
3C5
100
AcDbEntity
8
0
100
AcDbSpline
62
9
6
CONTINUOUS
70
0
71
3
72
14
73
10
74
8
42
0.0000001000
43
0.0000001000
44
0.0000000001
12
0.0295164969
22
41.0838045698
32
0.0000000000
13
-0.0295164970
23
41.0838045698
33
0.0000000000
40
0.0000000000
40
0.0000000000
40
0.0000000000
40
0.0000000000
40
0.1428077928
40
0.2856649430
40
0.4285516891
40
0.5714483001
40
0.7143350462
40
0.8571921965
40
1.0000000000
40
1.0000000000
40
1.0000000000
40
1.0000000000
10
-12.3516505468
20
-18.5043891024
30
0.0000000000
10
-12.3502454848
20
-16.5486932858
30
0.0000000000
10
-12.3478369168
20
-12.6366254212
30
0.0000000000
10
-12.3454285988
20
-6.7677797473
30
0.0000000000
10
-12.3442243564
20
-0.8977173695
30
0.0000000000
10
-12.3442243563
20
4.9727504344
30
0.0000000000
10
-12.3454285987
20
10.8428128128
30
0.0000000000
10
-12.3478369167
20
16.7116586345
30
0.0000000000
10
-12.3502454847
20
20.6237266467
30
0.0000000000
10
-12.3516505468
20
22.5794226106
30
0.0000000000
11
-12.3516505468
21
-18.5043891024
31
0.0000000000
11
-12.3480380701
21
-12.6373012506
31
0.0000000000
11
-12.3456294745
21
-6.7681849882
31
0.0000000000
11
-12.3444250935
21
-0.8978524457
31
0.0000000000
11
-12.3444250934
21
4.9728855103
31
0.0000000000
11
-12.3456294743
21
10.8432180537
31
0.0000000000
11
-12.3480380699
21
16.7123343169
31
0.0000000000
11
-12.3516505468
21
22.5794226106
31
0.0000000000
0
SPLINE
5
3C6
100
AcDbEntity
8
0
100
AcDbSpline
62
9
6
CONTINUOUS
70
0
71
3
72
18
73
14
74
12
42
0.0000001000
43
0.0000001000
44
0.0000000001
12
0.1956386718
22
0.4614571049
32
0.0000000000
13
0.5012155428
23
0.0003594864
33
0.0000000000
40
0.0000000000
40
0.0000000000
40
0.0000000000
40
0.0000000000
40
0.0136578807
40
0.0461423111
40
0.0973924006
40
0.1665012286
40
0.2521358982
40
0.3526134618
40
0.4659469272
40
0.5898892354
40
0.7219799142
40
0.8595950328
40
1.0000000000
40
1.0000000000
40
1.0000000000
40
1.0000000000
10
-12.3516505468
20
22.5794226106
30
0.0000000000
10
-12.3507598769
20
22.5815234526
30
0.0000000000
10
-12.3414213734
20
22.5828376179
30
0.0000000000
10
-12.3269017385
20
22.5859896496
30
0.0000000000
10
-12.3006588070
20
22.5881674142
30
0.0000000000
10
-12.2666743331
20
22.5907611740
30
0.0000000000
10
-12.2239641060
20
22.5929674771
30
0.0000000000
10
-12.1740187027
20
22.5950045206
30
0.0000000000
10
-12.1176011825
20
22.5967240250
30
0.0000000000
10
-12.0559099616
20
22.5981201626
30
0.0000000000
10
-11.9901487817
20
22.5991521821
30
0.0000000000
10
-11.9216338518
20
22.5998012025
30
0.0000000000
10
-11.8751844165
20
22.5999682475
30
0.0000000000
10
-11.8517266992
20
22.5999850721
30
0.0000000000
11
-12.3516505468
21
22.5794226106
31
0.0000000000
11
-12.3454470590
21
22.5823171244
31
0.0000000000
11
-12.3294144049
21
22.5851540131
31
0.0000000000
11
-12.3038717682
21
22.5878767989
31
0.0000000000
11
-12.2693276613
21
22.5904312753
31
0.0000000000
11
-12.2264698009
21
22.5927665872
31
0.0000000000
11
-12.1761514171
21
22.5948362420
31
0.0000000000
11
-12.1193742668
21
22.5965990366
31
0.0000000000
11
-12.0572686903
21
22.5980198763
31
0.0000000000
11
-11.9910711083
21
22.5990704748
31
0.0000000000
11
-11.9220994066
21
22.5997299161
31
0.0000000000
11
-11.8517266992
21
22.5999850721
31
0.0000000000
0
SPLINE
5
3C7
100
AcDbEntity
8
0
100
AcDbSpline
62
9
6
CONTINUOUS
70
0
71
3
72
21
73
17
74
15
42
0.0000001000
43
0.0000001000
44
0.0000000001
12
-0.0006883741
22
1.4365128178
32
0.0000000000
13
-0.3113088220
23
1.4023752590
33
0.0000000000
40
0.0000000000
40
0.0000000000
40
0.0000000000
40
0.0000000000
40
0.1096480178
40
0.2175912225
40
0.3226429362
40
0.4236269087
40
0.5194226887
40
0.6089657647
40
0.6912582702
40
0.7653856335
40
0.8305239970
40
0.8859479715
40
0.9310428602
40
0.9653101939
40
0.9883726671
40
1.0000000000
40
1.0000000000
40
1.0000000000
40
1.0000000000
10
-11.8517266992
20
22.5999850789
30
0.0000000000
10
-11.8517518588
20
22.6524886732
30
0.0000000000
10
-11.8518653856
20
22.7566795146
30
0.0000000000
10
-11.8522266264
20
22.9111727213
30
0.0000000000
10
-11.8527739521
20
23.0615166867
30
0.0000000000
10
-11.8535009931
20
23.2060431874
30
0.0000000000
10
-11.8543994244
20
23.3431424367
30
0.0000000000
10
-11.8554582572
20
23.4712901739
30
0.0000000000
10
-11.8566662205
20
23.5890601809
30
0.0000000000
10
-11.8580040163
20
23.6951429594
30
0.0000000000
10
-11.8594683386
20
23.7883543792
30
0.0000000000
10
-11.8609970253
20
23.8676686578
30
0.0000000000
10
-11.8626827275
20
23.9321722989
30
0.0000000000
10
-11.8641802018
20
23.9812325543
30
0.0000000000
10
-11.8661248357
20
24.0141264852
30
0.0000000000
10
-11.8670469061
20
24.0308066814
30
0.0000000000
10
-11.8682534698
20
24.0362419760
30
0.0000000000
11
-11.8517266992
21
22.5999850789
31
0.0000000000
11
-11.8518993104
21
22.7574957854
31
0.0000000000
11
-11.8522639753
21
22.9125571716
31
0.0000000000
11
-11.8528166929
21
23.0634643099
31
0.0000000000
11
-11.8535512726
21
23.2085272376
31
0.0000000000
11
-11.8544595705
21
23.3461361216
31
0.0000000000
11
-11.8555314966
21
23.4747614463
31
0.0000000000
11
-11.8567551117
21
23.5929693660
31
0.0000000000
11
-11.8581168138
21
23.6994455789
31
0.0000000000
11
-11.8596014682
21
23.7930059049
31
0.0000000000
11
-11.8611925312
21
23.8726072644
31
0.0000000000
11
-11.8628723044
21
23.9373648749
31
0.0000000000
11
-11.8646221777
21
23.9865592325
31
0.0000000000
11
-11.8664224725
21
24.0196398236
31
0.0000000000
11
-11.8682534698
21
24.0362419760
31
0.0000000000
0
SPLINE
5
3C8
100
AcDbEntity
8
0
100
AcDbSpline
62
9
6
CONTINUOUS
70
0
71
3
72
21
73
17
74
15
42
0.0000001000
43
0.0000001000
44
0.0000000001
12
-0.0006884958
22
0.9578878289
32
0.0000000000
13
-0.3025837813
23
0.9088413624
33
0.0000000000
40
0.0000000000
40
0.0000000000
40
0.0000000000
40
0.0000000000
40
0.1095817851
40
0.2175099921
40
0.3225481325
40
0.4235201000
40
0.5193056627
40
0.6088405040
40
0.6911266884
40
0.7652499641
40
0.8303871640
40
0.8858139046
40
0.9309171789
40
0.9652015169
40
0.9882975083
40
1.0000000000
40
1.0000000000
40
1.0000000000
40
1.0000000000
10
-12.3516505468
20
22.5794226106
30
0.0000000000
10
-12.3516756956
20
22.6144116300
30
0.0000000000
10
-12.3517891784
20
22.6838616600
30
0.0000000000
10
-12.3521503388
20
22.7868494237
30
0.0000000000
10
-12.3526976431
20
22.8870872518
30
0.0000000000
10
-12.3534247169
20
22.9834467504
30
0.0000000000
10
-12.3543231896
20
23.0748544129
30
0.0000000000
10
-12.3553821317
20
23.1602937680
30
0.0000000000
10
-12.3565901214
20
23.2388133593
30
0.0000000000
10
-12.3579283100
20
23.3095407755
30
0.0000000000
10
-12.3593919865
20
23.3716838617
30
0.0000000000
10
-12.3609232065
20
23.4245670656
30
0.0000000000
10
-12.3626027568
20
23.4675591087
30
0.0000000000
10
-12.3641165627
20
23.5003000748
30
0.0000000000
10
-12.3660306325
20
23.5221796402
30
0.0000000000
10
-12.3669969893
20
23.5333819725
30
0.0000000000
10
-12.3681773174
20
23.5369272087
30
0.0000000000
11
-12.3516505468
21
22.5794226106
31
0.0000000000
11
-12.3518230538
21
22.6843895541
31
0.0000000000
11
-12.3521876857
21
22.7877720537
31
0.0000000000
11
-12.3527403898
21
22.8883853178
31
0.0000000000
11
-12.3534749937
21
22.9851023718
31
0.0000000000
11
-12.3543833426
21
23.0768497237
31
0.0000000000
11
-12.3554553509
21
23.1626073806
31
0.0000000000
11
-12.3566790709
21
23.2414188356
31
0.0000000000
11
-12.3580408948
21
23.3124075764
31
0.0000000000
11
-12.3595256842
21
23.3747840542
31
0.0000000000
11
-12.3611168870
21
23.4278528184
31
0.0000000000
11
-12.3627968112
21
23.4710240339
31
0.0000000000
11
-12.3645468109
21
23.5038179326
31
0.0000000000
11
-12.3663472797
21
23.5258679218
31
0.0000000000
11
-12.3681773174
21
23.5369272087
31
0.0000000000
0
SPLINE
5
3C9
100
AcDbEntity
8
0
100
AcDbSpline
62
9
6
CONTINUOUS
70
0
71
3
72
18
73
14
74
12
42
0.0000001000
43
0.0000001000
44
0.0000000001
12
0.0007168851
22
0.7839071348
32
0.0000000000
13
0.7839071364
23
0.0007151393
33
0.0000000000
40
0.0000000000
40
0.0000000000
40
0.0000000000
40
0.0000000000
40
0.0908336768
40
0.1816831379
40
0.2725510601
40
0.3634386252
40
0.4543454254
40
0.5452694970
40
0.6362074801
40
0.7271548910
40
0.8181064844
40
0.9090566773
40
1.0000000000
40
1.0000000000
40
1.0000000000
40
1.0000000000
10
-12.3681773174
20
23.5369272087
30
0.0000000000
10
-12.3681556116
20
23.5606622644
30
0.0000000000
10
-12.3647113683
20
23.6082031304
30
0.0000000000
10
-12.3494504036
20
23.6780035117
30
0.0000000000
10
-12.3244049696
20
23.7449496775
30
0.0000000000
10
-12.2900846149
20
23.8076614151
30
0.0000000000
10
-12.2471873861
20
23.8648688149
30
0.0000000000
10
-12.1965857755
20
23.9154075109
30
0.0000000000
10
-12.1393083630
20
23.9582505056
30
0.0000000000
10
-12.0765210817
20
23.9925268078
30
0.0000000000
10
-12.0094953686
20
24.0175396923
30
0.0000000000
10
-11.9396127798
20
24.0327806476
30
0.0000000000
10
-11.8920171764
20
24.0362202970
30
0.0000000000
10
-11.8682534698
20
24.0362419760
30
0.0000000000
11
-12.3681773174
21
23.5369272087
31
0.0000000000
11
-12.3630297725
21
23.6079460997
31
0.0000000000
11
-12.3478216992
21
23.6775209288
31
0.0000000000
11
-12.3228623307
21
23.7442369972
31
0.0000000000
11
-12.2886591780
21
23.8067377343
31
0.0000000000
11
-12.2459077106
21
23.8637522821
31
0.0000000000
11
-12.1954772150
21
23.9141213359
31
0.0000000000
11
-12.1383931190
21
23.9568207173
31
0.0000000000
11
-12.0758161415
21
23.9909821986
31
0.0000000000
11
-12.0090186907
21
24.0159111580
31
0.0000000000
11
-11.9393589919
21
24.0311007026
31
0.0000000000
11
-11.8682534698
21
24.0362419760
31
0.0000000000
0
SPLINE
5
3CA
100
AcDbEntity
8
0
100
AcDbSpline
62
7
6
CONTINUOUS
70
0
71
3
72
10
73
6
74
4
42
0.0000001000
43
0.0000001000
44
0.0000000001
12
0.0073039237
22
-0.0662945678
32
0.0000000000
13
0.0072576803
23
-0.0662996463
33
0.0000000000
40
0.0000000000
40
0.0000000000
40
0.0000000000
40
0.0000000000
40
0.3329986586
40
0.6663012573
40
1.0000000000
40
1.0000000000
40
1.0000000000
40
1.0000000000
10
-12.0189775077
20
24.4372248312
30
0.0000000000
10
-12.0181667754
20
24.4298661638
30
0.0000000000
10
-12.0165462932
20
24.4151419227
30
0.0000000000
10
-12.0141193827
20
24.3930428829
30
0.0000000000
10
-12.0125040517
20
24.3783024183
30
0.0000000000
10
-12.0116967587
20
24.3709277155
30
0.0000000000
11
-12.0189775077
21
24.4372248312
31
0.0000000000
11
-12.0165478888
21
24.4151485452
31
0.0000000000
11
-12.0141211985
21
24.3930515436
31
0.0000000000
11
-12.0116967587
21
24.3709277155
31
0.0000000000
0
SPLINE
5
3CB
100
AcDbEntity
8
0
100
AcDbSpline
62
7
6
CONTINUOUS
70
0
71
3
72
16
73
12
74
10
42
0.0000001000
43
0.0000001000
44
0.0000000001
12
0.0002122239
22
0.5533630193
32
0.0000000000
13
0.4952765776
23
0.2476596337
33
0.0000000000
40
0.0000000000
40
0.0000000000
40
0.0000000000
40
0.0000000000
40
0.1118565208
40
0.2243244341
40
0.3375581727
40
0.4520664600
40
0.5682200697
40
0.6855120601
40
0.8030067579
40
0.9195586227
40
1.0000000000
40
1.0000000000
40
1.0000000000
40
1.0000000000
10
-12.5015606052
20
23.9374024826
30
0.0000000000
10
-12.5015526924
20
23.9580349033
30
0.0000000000
10
-12.4989708901
20
23.9994570994
30
0.0000000000
10
-12.4874020951
20
24.0607930046
30
0.0000000000
10
-12.4681322499
20
24.1206890908
30
0.0000000000
10
-12.4411982519
20
24.1783070320
30
0.0000000000
10
-12.4067453845
20
24.2326674490
30
0.0000000000
10
-12.3652215652
20
24.2825641157
30
0.0000000000
10
-12.3175282178
20
24.3267107232
30
0.0000000000
10
-12.2700923964
20
24.3603793825
30
0.0000000000
10
-12.2382947402
20
24.3780896920
30
0.0000000000
10
-12.2250144968
20
24.3847303860
30
0.0000000000
11
-12.5015606052
21
23.9374024826
31
0.0000000000
11
-12.4977083144
21
23.9991797558
31
0.0000000000
11
-12.4861747101
21
24.0603372939
31
0.0000000000
11
-12.4669839009
21
24.1199855063
31
0.0000000000
11
-12.4401506716
21
24.1773880975
31
0.0000000000
11
-12.4057423393
21
24.2316776666
31
0.0000000000
11
-12.3642244704
21
24.2815668707
31
0.0000000000
11
-12.3165103060
21
24.3257324471
31
0.0000000000
11
-12.2639160975
21
24.3630623051
31
0.0000000000
11
-12.2250144968
21
24.3847303860
31
0.0000000000
0
SPLINE
5
3CC
100
AcDbEntity
8
0
100
AcDbSpline
62
7
6
CONTINUOUS
70
0
71
3
72
15
73
11
74
9
42
0.0000001000
43
0.0000001000
44
0.0000000001
12
-0.1008939615
22
-0.0007779154
32
0.0000000000
13
-0.0713449249
23
-0.0713449249
33
0.0000000000
40
0.0000000000
40
0.0000000000
40
0.0000000000
40
0.0000000000
40
0.2260892411
40
0.4253808137
40
0.5965983414
40
0.7386457856
40
0.8506149034
40
0.9317923900
40
0.9816698927
40
1.0000000000
40
1.0000000000
40
1.0000000000
40
1.0000000000
10
-5.6651848213
20
-21.7578222128
30
0.0000000000
10
-5.6727885011
20
-21.7578808389
30
0.0000000000
10
-5.6870935444
20
-21.7580014072
30
0.0000000000
10
-5.7071614821
20
-21.7581931558
30
0.0000000000
10
-5.7243873044
20
-21.7584188107
30
0.0000000000
10
-5.7387195483
20
-21.7585757221
30
0.0000000000
10
-5.7499068264
20
-21.7589340087
30
0.0000000000
10
-5.7582718036
20
-21.7588152443
30
0.0000000000
10
-5.7629400162
20
-21.7596151370
30
0.0000000000
10
-5.7656157494
20
-21.7591214877
30
0.0000000000
10
-5.7660516695
20
-21.7595574077
30
0.0000000000
11
-5.6651848213
21
-21.7578222128
31
0.0000000000
11
-5.6879957359
21
-21.7580135650
31
0.0000000000
11
-5.7081026417
21
-21.7582149192
31
0.0000000000
11
-5.7253766926
21
-21.7584249850
31
0.0000000000
11
-5.7397071985
21
-21.7586424161
31
0.0000000000
11
-5.7510023331
21
-21.7588658192
31
0.0000000000
11
-5.7591897223
21
-21.7590937626
31
0.0000000000
11
-5.7642169052
21
-21.7593247856
31
0.0000000000
11
-5.7660516695
21
-21.7595574077
31
0.0000000000
0
SPLINE
5
3CD
100
AcDbEntity
8
0
100
AcDbSpline
62
7
6
CONTINUOUS
70
0
71
3
72
16
73
12
74
10
42
0.0000001000
43
0.0000001000
44
0.0000000001
12
0.4952765776
22
-0.2476596337
32
0.0000000000
13
0.0002122239
23
-0.5533630193
33
0.0000000000
40
0.0000000000
40
0.0000000000
40
0.0000000000
40
0.0000000000
40
0.0804413773
40
0.1969932421
40
0.3144879399
40
0.4317799303
40
0.5479335400
40
0.6624418273
40
0.7756755659
40
0.8881434792
40
1.0000000000
40
1.0000000000
40
1.0000000000
40
1.0000000000
10
9.4870594815
20
24.3847303860
30
0.0000000000
10
9.5003397249
20
24.3780896920
30
0.0000000000
10
9.5321373811
20
24.3603793825
30
0.0000000000
10
9.5795732025
20
24.3267107232
30
0.0000000000
10
9.6272665499
20
24.2825641157
30
0.0000000000
10
9.6687903692
20
24.2326674490
30
0.0000000000
10
9.7032432365
20
24.1783070320
30
0.0000000000
10
9.7301772346
20
24.1206890908
30
0.0000000000
10
9.7494470798
20
24.0607930046
30
0.0000000000
10
9.7610158748
20
23.9994570994
30
0.0000000000
10
9.7635976771
20
23.9580349033
30
0.0000000000
10
9.7636055899
20
23.9374024826
30
0.0000000000
11
9.4870594815
21
24.3847303860
31
0.0000000000
11
9.5259610822
21
24.3630623051
31
0.0000000000
11
9.5785552907
21
24.3257324471
31
0.0000000000
11
9.6262694551
21
24.2815668707
31
0.0000000000
11
9.6677873239
21
24.2316776666
31
0.0000000000
11
9.7021956563
21
24.1773880974
31
0.0000000000
11
9.7290288856
21
24.1199855063
31
0.0000000000
11
9.7482196948
21
24.0603372939
31
0.0000000000
11
9.7597532991
21
23.9991797558
31
0.0000000000
11
9.7636055899
21
23.9374024826
31
0.0000000000
0
SPLINE
5
3CE
100
AcDbEntity
8
0
100
AcDbSpline
62
7
6
CONTINUOUS
70
0
71
3
72
48
73
44
74
42
42
0.0000001000
43
0.0000001000
44
0.0000000001
12
-19.0243627790
22
0.0000000000
32
0.0000000000
13
19.0243627790
23
0.0000000000
33
0.0000000000
40
0.0000000000
40
0.0000000000
40
0.0000000000
40
0.0000000000
40
0.0245948499
40
0.0491961931
40
0.0737707990
40
0.0983527984
40
0.1228914824
40
0.1474325787
40
0.1719259948
40
0.1964082104
40
0.2208523601
40
0.2452626733
40
0.2696527541
40
0.2939906092
40
0.3183222056
40
0.3425988191
40
0.3668730404
40
0.3911059502
40
0.4153279804
40
0.4395367489
40
0.4637189726
40
0.4879161154
40
0.5120841299
40
0.5362803085
40
0.5604621714
40
0.5846710606
40
0.6088929842
40
0.6331259761
40
0.6574001601
40
0.6816767546
40
0.7060084126
40
0.7303461848
40
0.7547363892
40
0.7791465901
40
0.8035908383
40
0.8280729979
40
0.8525664090
40
0.8771075556
40
0.9016461565
40
0.9262282735
40
0.9508027589
40
0.9754042447
40
1.0000000000
40
1.0000000000
40
1.0000000000
40
1.0000000000
10
-1.3689775077
20
-3.9961250218
30
0.0000000000
10
-1.5249446234
20
-3.9961250218
30
0.0000000000
10
-1.8370512476
20
-3.9842035655
30
0.0000000000
10
-2.3022284462
20
-3.9306685371
30
0.0000000000
10
-2.7619107479
20
-3.8418028357
30
0.0000000000
10
-3.2130780025
20
-3.7182102389
30
0.0000000000
10
-3.6532922818
20
-3.5606022963
30
0.0000000000
10
-4.0796705977
20
-3.3700610715
30
0.0000000000
10
-4.4899274435
20
-3.1476685728
30
0.0000000000
10
-4.8814699715
20
-2.8949023593
30
0.0000000000
10
-5.2521136370
20
-2.6132497732
30
0.0000000000
10
-5.5996873546
20
-2.3044561053
30
0.0000000000
10
-5.9221344205
20
-1.9704456927
30
0.0000000000
10
-6.2177391333
20
-1.6131102865
30
0.0000000000
10
-6.4846832002
20
-1.2347643070
30
0.0000000000
10
-6.7216355631
20
-0.8374186903
30
0.0000000000
10
-6.9271460154
20
-0.4236340673
30
0.0000000000
10
-7.1001780360
20
0.0043747532
30
0.0000000000
10
-7.2397360953
20
0.4440023437
30
0.0000000000
10
-7.3450618435
20
0.8927327674
30
0.0000000000
10
-7.4156083667
20
1.3480672645
30
0.0000000000
10
-7.4509657142
20
1.8072175993
30
0.0000000000
10
-7.4509655340
20
2.2678144624
30
0.0000000000
10
-7.4156091811
20
2.7269563973
30
0.0000000000
10
-7.3450651325
20
3.1822835290
30
0.0000000000
10
-7.2397413383
20
3.6310121574
30
0.0000000000
10
-7.1001845080
20
4.0706407733
30
0.0000000000
10
-6.9271540230
20
4.4986497957
30
0.0000000000
10
-6.7216448112
20
4.9124352156
30
0.0000000000
10
-6.4846937255
20
5.3097816324
30
0.0000000000
10
-6.2177510085
20
5.6881282557
30
0.0000000000
10
-5.9221470326
20
6.0454651084
30
0.0000000000
10
-5.5997013276
20
6.3794762117
30
0.0000000000
10
-5.2521280565
20
6.6882714229
30
0.0000000000
10
-4.8814856226
20
6.9699249063
30
0.0000000000
10
-4.4899436713
20
7.2226924467
30
0.0000000000
10
-4.0796875873
20
7.4450862069
30
0.0000000000
10
-3.6533100751
20
7.6356286472
30
0.0000000000
10
-3.2130957860
20
7.7932381461
30
0.0000000000
10
-2.7619294315
20
7.9168319850
30
0.0000000000
10
-2.3022465366
20
8.0056992654
30
0.0000000000
10
-1.8370636494
20
8.0592363797
30
0.0000000000
10
-1.5249503647
20
8.0711585299
30
0.0000000000
10
-1.3689775077
20
8.0711585299
30
0.0000000000
11
-1.3689775077
21
-3.9961250218
31
0.0000000000
11
-1.8365377429
21
-3.9782617264
31
0.0000000000
11
-2.3014936784
21
-3.9247522500
31
0.0000000000
11
-2.7605102596
21
-3.8360099728
31
0.0000000000
11
-3.2115482481
21
-3.7124474995
31
0.0000000000
11
-3.6510589200
21
-3.5550840442
31
0.0000000000
11
-4.0773081695
21
-3.3645917460
31
0.0000000000
11
-4.4869578744
21
-3.1425181473
31
0.0000000000
11
-4.8782559260
21
-2.8898981490
31
0.0000000000
11
-5.2485101293
21
-2.6085286575
31
0.0000000000
11
-5.5956727540
21
-2.3000861309
31
0.0000000000
11
-5.9179373526
21
-1.9662495544
31
0.0000000000
11
-6.2130592445
21
-1.6094816287
31
0.0000000000
11
-6.4799113370
21
-1.2312488997
31
0.0000000000
11
-6.7164529556
21
-0.8345742115
31
0.0000000000
11
-6.9218637560
21
-0.4209716080
31
0.0000000000
11
-7.0946469562
21
0.0064408528
31
0.0000000000
11
-7.2340666884
21
0.4456524041
31
0.0000000000
11
-7.3393036029
21
0.8940243295
31
0.0000000000
11
-7.4097374697
21
1.3486520434
31
0.0000000000
11
-7.4450798600
21
1.8076285497
31
0.0000000000
11
-7.4450796806
21
2.2674096260
31
0.0000000000
11
-7.4097390442
21
2.7263678687
31
0.0000000000
11
-7.3393075278
21
3.1809889996
31
0.0000000000
11
-7.2340715398
21
3.6293635033
31
0.0000000000
11
-7.0946538321
21
4.0685735687
31
0.0000000000
11
-6.9218714344
21
4.4959880388
31
0.0000000000
11
-6.7164622620
21
4.9095906578
31
0.0000000000
11
-6.4799221201
21
5.3062658062
31
0.0000000000
11
-6.2130705557
21
5.6845003434
31
0.0000000000
11
-5.9179508154
21
6.0412680013
31
0.0000000000
11
-5.5956856330
21
6.3751072821
31
0.0000000000
11
-5.2485255677
21
6.6835494723
31
0.0000000000
11
-4.8782707535
21
6.9649212595
31
0.0000000000
11
-4.4869743715
21
7.2175418782
31
0.0000000000
11
-4.0773254514
21
7.4396167232
31
0.0000000000
11
-3.6510759145
21
7.6301107245
31
0.0000000000
11
-3.2115672240
21
7.7874750204
31
0.0000000000
11
-2.7605274566
21
7.9110394695
31
0.0000000000
11
-2.3015133981
21
7.9997827214
31
0.0000000000
11
-1.8365549290
21
8.0532939193
31
0.0000000000
11
-1.3689775077
21
8.0711585299
31
0.0000000000
0
SPLINE
5
3CF
100
AcDbEntity
8
0
100
AcDbSpline
62
7
6
CONTINUOUS
70
0
71
3
72
48
73
44
74
42
42
0.0000001000
43
0.0000001000
44
0.0000000001
12
19.0243627790
22
0.0000000000
32
0.0000000000
13
-19.0243627790
23
0.0000000000
33
0.0000000000
40
0.0000000000
40
0.0000000000
40
0.0000000000
40
0.0000000000
40
0.0245948500
40
0.0491961933
40
0.0737707993
40
0.0983527988
40
0.1228914829
40
0.1474325793
40
0.1719259956
40
0.1964082113
40
0.2208523611
40
0.2452626744
40
0.2696527553
40
0.2939906107
40
0.3183222071
40
0.3425988205
40
0.3668730416
40
0.3911059521
40
0.4153279838
40
0.4395367513
40
0.4637189349
40
0.4879159359
40
0.5120839475
40
0.5362802683
40
0.5604621702
40
0.5846710603
40
0.6088929826
40
0.6331259740
40
0.6574001584
40
0.6816767533
40
0.7060084113
40
0.7303461836
40
0.7547363880
40
0.7791465891
40
0.8035908374
40
0.8280729971
40
0.8525664083
40
0.8771075551
40
0.9016461560
40
0.9262282731
40
0.9508027587
40
0.9754042446
40
1.0000000000
40
1.0000000000
40
1.0000000000
40
1.0000000000
10
-1.3689775077
20
8.0711585299
30
0.0000000000
10
-1.2130103912
20
8.0711585299
30
0.0000000000
10
-0.9009037656
20
8.0592370735
30
0.0000000000
10
-0.4357265648
20
8.0057020446
30
0.0000000000
10
0.0239557388
20
7.9168363424
30
0.0000000000
10
0.4751229954
20
7.7932437445
30
0.0000000000
10
0.9153372764
20
7.6356358005
30
0.0000000000
10
1.3417155939
20
7.4450945740
30
0.0000000000
10
1.7519724411
20
7.2227020734
30
0.0000000000
10
2.1435149702
20
6.9699358576
30
0.0000000000
10
2.5141586364
20
6.6882832693
30
0.0000000000
10
2.8617323544
20
6.3794895990
30
0.0000000000
10
3.1841794209
20
6.0454791833
30
0.0000000000
10
3.4797841341
20
5.6881437736
30
0.0000000000
10
3.7467282000
20
5.3097977919
30
0.0000000000
10
3.9836805603
20
4.9124521752
30
0.0000000000
10
4.1891910121
20
4.4986675492
30
0.0000000000
10
4.3622230354
20
4.0706587158
30
0.0000000000
10
4.5017810932
20
3.6310311167
30
0.0000000000
10
4.6071067799
20
3.1823009369
30
0.0000000000
10
4.6776531504
20
2.7269675927
30
0.0000000000
10
4.7130105659
20
2.2678184463
30
0.0000000000
10
4.7130106509
20
1.8072215995
30
0.0000000000
10
4.6776543732
20
1.3480785175
30
0.0000000000
10
4.6071101773
20
0.8927502375
30
0.0000000000
10
4.5017863282
20
0.4440213702
30
0.0000000000
10
4.3622295011
20
0.0043927595
30
0.0000000000
10
4.1891990219
20
-0.4236162559
30
0.0000000000
10
3.9836898117
20
-0.8374016788
30
0.0000000000
10
3.7467387252
20
-1.2347481014
30
0.0000000000
10
3.4797960080
20
-1.6130947282
30
0.0000000000
10
3.1841920327
20
-1.9704315830
30
0.0000000000
10
2.8617463279
20
-2.3044426887
30
0.0000000000
10
2.5141730561
20
-2.6132379026
30
0.0000000000
10
2.1435306212
20
-2.8948913884
30
0.0000000000
10
1.7519886688
20
-3.1476589311
30
0.0000000000
10
1.3417325835
20
-3.3700526931
30
0.0000000000
10
0.9153550697
20
-3.5605951352
30
0.0000000000
10
0.4751407789
20
-3.7182046354
30
0.0000000000
10
0.0239744224
20
-3.8417984754
30
0.0000000000
10
-0.4357084744
20
-3.9306657566
30
0.0000000000
10
-0.9008913637
20
-3.9842028715
30
0.0000000000
10
-1.2130046499
20
-3.9961250218
30
0.0000000000
10
-1.3689775077
20
-3.9961250218
30
0.0000000000
11
-1.3689775077
21
8.0711585299
31
0.0000000000
11
-0.9014172703
21
8.0532952343
31
0.0000000000
11
-0.4364613327
21
7.9997857574
31
0.0000000000
11
0.0225552505
21
7.9110434795
31
0.0000000000
11
0.4735932409
21
7.7874810050
31
0.0000000000
11
0.9131039146
21
7.6301175484
31
0.0000000000
11
1.3393531657
21
7.4396252485
31
0.0000000000
11
1.7490028719
21
7.2175516478
31
0.0000000000
11
2.1403009248
21
6.9649316473
31
0.0000000000
11
2.5105551287
21
6.6835621535
31
0.0000000000
11
2.8577177536
21
6.3751196247
31
0.0000000000
11
3.1799823526
21
6.0412830454
31
0.0000000000
11
3.4751042455
21
5.6845151155
31
0.0000000000
11
3.7419563378
21
5.3062823830
31
0.0000000000
11
3.9784979530
21
4.9096076963
31
0.0000000000
11
4.1839087502
21
4.4960050950
31
0.0000000000
11
4.3566919533
21
4.0685926209
31
0.0000000000
11
4.4961116905
21
3.6293810410
31
0.0000000000
11
4.6013485965
21
3.1810091332
31
0.0000000000
11
4.6717823719
21
2.7263821776
31
0.0000000000
11
4.7071247134
21
2.2674083739
31
0.0000000000
11
4.7071247987
21
1.8076273535
31
0.0000000000
11
4.6717841171
21
1.3486664006
31
0.0000000000
11
4.6013525169
21
0.8940445310
31
0.0000000000
11
4.4961165262
21
0.4456700112
31
0.0000000000
11
4.3566988273
21
0.0064599688
31
0.0000000000
11
4.1839164356
21
-0.4209544940
31
0.0000000000
11
3.9785072622
21
-0.8345571211
31
0.0000000000
11
3.7419671187
21
-1.2312322768
31
0.0000000000
11
3.4751155550
21
-1.6094668161
31
0.0000000000
11
3.1799958159
21
-1.9662344755
31
0.0000000000
11
2.8577306334
21
-2.3000737589
31
0.0000000000
11
2.5105705672
21
-2.6085159521
31
0.0000000000
11
2.1403157520
21
-2.8898877416
31
0.0000000000
11
1.7490193689
21
-3.1425083625
31
0.0000000000
11
1.3393704476
21
-3.3645832094
31
0.0000000000
11
0.9131209091
21
-3.5550772123
31
0.0000000000
11
0.4736122169
21
-3.7124415097
31
0.0000000000
11
0.0225724475
21
-3.8360059599
31
0.0000000000
11
-0.4364416129
21
-3.9247492126
31
0.0000000000
11
-0.9014000841
21
-3.9782604110
31
0.0000000000
11
-1.3689775077
21
-3.9961250218
31
0.0000000000
0
SPLINE
5
3D0
100
AcDbEntity
8
0
100
AcDbSpline
62
7
6
CONTINUOUS
70
0
71
3
72
17
73
13
74
11
42
0.0000001000
43
0.0000001000
44
0.0000000001
12
0.4499134171
22
0.0034689349
32
0.0000000000
13
0.3802575409
23
0.2404959853
33
0.0000000000
40
0.0000000000
40
0.0000000000
40
0.0000000000
40
0.0000000000
40
0.0745161516
40
0.1578620335
40
0.2489784530
40
0.3464791953
40
0.4490687639
40
0.5555830270
40
0.6649556765
40
0.7761688910
40
0.8882083217
40
1.0000000000
40
1.0000000000
40
1.0000000000
40
1.0000000000
10
-5.6651848213
20
-21.7578222128
30
0.0000000000
10
-5.6540095492
20
-21.7577360489
30
0.0000000000
10
-5.6303806174
20
-21.7542002718
30
0.0000000000
10
-5.5946718001
20
-21.7431144782
30
0.0000000000
10
-5.5569556558
20
-21.7274691978
30
0.0000000000
10
-5.5176741174
20
-21.7083489565
30
0.0000000000
10
-5.4771600679
20
-21.6865799828
30
0.0000000000
10
-5.4357219312
20
-21.6628182803
30
0.0000000000
10
-5.3936350187
20
-21.6376095415
30
0.0000000000
10
-5.3511683512
20
-21.6114323943
30
0.0000000000
10
-5.3086011040
20
-21.5847310179
30
0.0000000000
10
-5.2802300073
20
-21.5667874140
30
0.0000000000
10
-5.2660601310
20
-21.5578255974
30
0.0000000000
11
-5.6651848213
21
-21.7578222128
31
0.0000000000
11
-5.6319224348
21
-21.7536197339
31
0.0000000000
11
-5.5959749997
21
-21.7429427592
31
0.0000000000
11
-5.5580078121
21
-21.7274785563
31
0.0000000000
11
-5.5184914280
21
-21.7084293042
31
0.0000000000
11
-5.4777805473
21
-21.6866769189
31
0.0000000000
11
-5.4361698833
21
-21.6629024360
31
0.0000000000
11
-5.3939258278
21
-21.6376629257
31
0.0000000000
11
-5.3513082718
21
-21.6114422122
31
0.0000000000
11
-5.3085863030
21
-21.5846848722
31
0.0000000000
11
-5.2660601310
21
-21.5578255974
31
0.0000000000
0
SPLINE
5
3D1
100
AcDbEntity
8
0
100
AcDbSpline
62
7
6
CONTINUOUS
70
0
71
3
72
9
73
5
74
3
42
0.0000001000
43
0.0000001000
44
0.0000000001
12
-4.6387216795
22
0.0157612347
32
0.0000000000
13
-4.6387216870
23
0.0157590181
33
0.0000000000
40
0.0000000000
40
0.0000000000
40
0.0000000000
40
0.0000000000
40
0.8718696907
40
1.0000000000
40
1.0000000000
40
1.0000000000
40
1.0000000000
10
-49.2770451776
20
3.4284423472
30
0.0000000000
10
-50.6251654563
20
3.4330229281
30
0.0000000000
10
-52.1714060226
20
3.4382747678
30
0.0000000000
10
-53.7176465852
20
3.4435276957
30
0.0000000000
10
-53.9157668667
20
3.4442007650
30
0.0000000000
11
-49.2770451776
21
3.4284423472
31
0.0000000000
11
-53.3214060222
21
3.4421815951
31
0.0000000000
11
-53.9157668667
21
3.4442007650
31
0.0000000000
0
SPLINE
5
3D2
100
AcDbEntity
8
0
100
AcDbSpline
62
7
6
CONTINUOUS
70
0
71
3
72
9
73
5
74
3
42
0.0000001000
43
0.0000001000
44
0.0000000001
12
-1.1155273075
22
0.2518617492
32
0.0000000000
13
-1.1157451905
23
0.2508946971
33
0.0000000000
40
0.0000000000
40
0.0000000000
40
0.0000000000
40
0.0000000000
40
0.3765443344
40
1.0000000000
40
1.0000000000
40
1.0000000000
40
1.0000000000
10
-47.9157663680
20
3.1510113611
30
0.0000000000
10
-48.0557815305
20
3.1826237326
30
0.0000000000
10
-48.4276400094
20
3.2665065870
30
0.0000000000
10
-48.7995358919
20
3.3502234947
30
0.0000000000
10
-49.0314084454
20
3.4023640682
30
0.0000000000
11
-47.9157663680
21
3.1510113611
31
0.0000000000
11
-48.3358292407
21
3.2457714309
31
0.0000000000
11
-49.0314084454
21
3.4023640682
31
0.0000000000
0
SPLINE
5
3D3
100
AcDbEntity
8
0
100
AcDbSpline
62
7
6
CONTINUOUS
70
0
71
3
72
9
73
5
74
3
42
0.0000001000
43
0.0000001000
44
0.0000000001
12
-0.7647733285
22
-0.2591767306
32
0.0000000000
13
-0.7627389603
23
-0.2651024707
33
0.0000000000
40
0.0000000000
40
0.0000000000
40
0.0000000000
40
0.0000000000
40
0.3032947718
40
1.0000000000
40
1.0000000000
40
1.0000000000
40
1.0000000000
10
-47.9157734443
20
4.5974548812
30
0.0000000000
10
-47.9930906951
20
4.5712525654
30
0.0000000000
10
-48.2479399420
20
4.4846382680
30
0.0000000000
10
-48.5025024109
20
4.3971798854
30
0.0000000000
10
-48.6796371514
20
4.3356137929
30
0.0000000000
11
-47.9157734443
21
4.5974548812
31
0.0000000000
11
-48.1476532034
21
4.5186355928
31
0.0000000000
11
-48.6796371514
21
4.3356137929
31
0.0000000000
0
SPLINE
5
3D4
100
AcDbEntity
8
0
100
AcDbSpline
62
7
6
CONTINUOUS
70
0
71
3
72
10
73
6
74
4
42
0.0000001000
43
0.0000001000
44
0.0000000001
12
4.3975976727
22
-0.6337118391
32
0.0000000000
13
4.3933753028
23
-0.6623514436
33
0.0000000000
40
0.0000000000
40
0.0000000000
40
0.0000000000
40
0.0000000000
40
0.3598435242
40
0.6930198020
40
1.0000000000
40
1.0000000000
40
1.0000000000
40
1.0000000000
10
-53.2157668668
20
4.9805163759
30
0.0000000000
10
-52.6882845186
20
4.9045040087
30
0.0000000000
10
-51.6724948224
20
4.7575248905
30
0.0000000000
10
-50.2071086837
20
4.5429797657
30
0.0000000000
10
-49.2693627358
20
4.4033900520
30
0.0000000000
10
-48.8198029957
20
4.3356137929
30
0.0000000000
11
-53.2157668668
21
4.9805163759
31
0.0000000000
11
-51.6334743489
21
4.7514095084
31
0.0000000000
11
-50.1688108313
21
4.5367507875
31
0.0000000000
11
-48.8198029957
21
4.3356137929
31
0.0000000000
0
SPLINE
5
3D5
100
AcDbEntity
8
0
100
AcDbSpline
62
7
6
CONTINUOUS
70
0
71
3
72
9
73
5
74
3
42
0.0000001000
43
0.0000001000
44
0.0000000001
12
-4.6387216326
22
0.0380509861
32
0.0000000000
13
-4.6387216764
23
0.0380456351
33
0.0000000000
40
0.0000000000
40
0.0000000000
40
0.0000000000
40
0.0000000000
40
0.8718696907
40
1.0000000000
40
1.0000000000
40
1.0000000000
40
1.0000000000
10
-49.2770451776
20
7.6936052241
30
0.0000000000
10
-50.6251654427
20
7.7046637246
30
0.0000000000
10
-52.1714060246
20
7.7173427874
30
0.0000000000
10
-53.7176465849
20
7.7300244772
30
0.0000000000
10
-53.9157668659
20
7.7316494102
30
0.0000000000
11
-49.2770451776
21
7.6936052241
31
0.0000000000
11
-53.3214060222
21
7.7267747026
31
0.0000000000
11
-53.9157668659
21
7.7316494102
31
0.0000000000
0
SPLINE
5
3D6
100
AcDbEntity
8
0
100
AcDbSpline
62
7
6
CONTINUOUS
70
0
71
3
72
9
73
5
74
3
42
0.0000001000
43
0.0000001000
44
0.0000000001
12
-1.1151018039
22
0.6078161137
32
0.0000000000
13
-1.1161314888
23
0.6059230932
33
0.0000000000
40
0.0000000000
40
0.0000000000
40
0.0000000000
40
0.0000000000
40
0.3766316400
40
1.0000000000
40
1.0000000000
40
1.0000000000
40
1.0000000000
10
-47.9157645120
20
7.0238265612
30
0.0000000000
10
-48.0557587191
20
7.1001341545
30
0.0000000000
10
-48.4275350419
20
7.3026005965
30
0.0000000000
10
-48.7994880935
20
7.5047422609
30
0.0000000000
10
-49.0314084454
20
7.6306466892
30
0.0000000000
11
-47.9157645120
21
7.0238265612
31
0.0000000000
11
-48.3358292407
21
7.2525986205
31
0.0000000000
11
-49.0314084454
21
7.6306466892
31
0.0000000000
0
SPLINE
5
3D7
100
AcDbEntity
8
0
100
AcDbSpline
62
7
6
CONTINUOUS
70
0
71
3
72
10
73
6
74
4
42
0.0000001000
43
0.0000001000
44
0.0000000001
12
0.2558233706
22
-0.0020984944
32
0.0000000000
13
0.2248368565
23
-0.1220589554
33
0.0000000000
40
0.0000000000
40
0.0000000000
40
0.0000000000
40
0.0000000000
40
0.3343559598
40
0.6679117944
40
1.0000000000
40
1.0000000000
40
1.0000000000
40
1.0000000000
10
-49.2770451776
20
7.6936052241
30
0.0000000000
10
-49.2485331547
20
7.6933713427
30
0.0000000000
10
-49.1915040297
20
7.6883058750
30
0.0000000000
10
-49.1085537708
20
7.6671081531
30
0.0000000000
10
-49.0562970014
20
7.6441581357
30
0.0000000000
10
-49.0314084454
20
7.6306466892
30
0.0000000000
11
-49.2770451776
21
7.6936052241
31
0.0000000000
11
-49.1918431031
21
7.6860211721
31
0.0000000000
11
-49.1091749398
21
7.6648573167
31
0.0000000000
11
-49.0314084454
21
7.6306466892
31
0.0000000000
0
SPLINE
5
3D8
100
AcDbEntity
8
0
100
AcDbSpline
62
7
6
CONTINUOUS
70
0
71
3
72
10
73
6
74
4
42
0.0000001000
43
0.0000001000
44
0.0000000001
12
0.2474372238
22
-0.0008407308
32
0.0000000000
13
0.2414104176
23
-0.0542853280
33
0.0000000000
40
0.0000000000
40
0.0000000000
40
0.0000000000
40
0.0000000000
40
0.3445701243
40
0.6805389284
40
1.0000000000
40
1.0000000000
40
1.0000000000
40
1.0000000000
10
-49.2770451776
20
3.4284423472
30
0.0000000000
10
-49.2486253526
20
3.4283457836
30
0.0000000000
10
-49.1924813194
20
3.4263016162
30
0.0000000000
10
-49.1103911325
20
3.4177101366
30
0.0000000000
10
-49.0571155223
20
3.4081447512
30
0.0000000000
10
-49.0314084454
20
3.4023640682
30
0.0000000000
11
-49.2770451776
21
3.4284423472
31
0.0000000000
11
-49.1918431031
21
3.4253009300
31
0.0000000000
11
-49.1091749398
21
3.4165345741
31
0.0000000000
11
-49.0314084454
21
3.4023640682
31
0.0000000000
0
SPLINE
5
3D9
100
AcDbEntity
8
0
100
AcDbSpline
62
7
6
CONTINUOUS
70
0
71
3
72
9
73
5
74
3
42
0.0000001000
43
0.0000001000
44
0.0000000001
12
1.1157451722
22
0.2508946930
32
0.0000000000
13
1.1155272888
23
0.2518617464
33
0.0000000000
40
0.0000000000
40
0.0000000000
40
0.0000000000
40
0.0000000000
40
0.6227950688
40
1.0000000000
40
1.0000000000
40
1.0000000000
40
1.0000000000
10
-49.0314084454
20
0.6726694400
30
0.0000000000
10
-48.7997815816
20
0.7247547658
30
0.0000000000
10
-48.4278856851
20
0.8084715827
30
0.0000000000
10
-48.0560271845
20
0.8923543122
30
0.0000000000
10
-47.9157663864
20
0.9240221431
30
0.0000000000
11
-49.0314084454
21
0.6726694400
31
0.0000000000
11
-48.3365662256
21
0.8290959604
31
0.0000000000
11
-47.9157663864
21
0.9240221431
31
0.0000000000
0
SPLINE
5
3DA
100
AcDbEntity
8
0
100
AcDbSpline
62
7
6
CONTINUOUS
70
0
71
3
72
10
73
6
74
4
42
0.0000001000
43
0.0000001000
44
0.0000000001
12
-0.2414104176
22
-0.0542853280
32
0.0000000000
13
-0.2474372238
23
-0.0008407308
33
0.0000000000
40
0.0000000000
40
0.0000000000
40
0.0000000000
40
0.0000000000
40
0.3194610716
40
0.6554298757
40
1.0000000000
40
1.0000000000
40
1.0000000000
40
1.0000000000
10
-49.0314084454
20
0.6726694400
30
0.0000000000
10
-49.0571155223
20
0.6668887569
30
0.0000000000
10
-49.1103911325
20
0.6573233715
30
0.0000000000
10
-49.1924813194
20
0.6487318919
30
0.0000000000
10
-49.2486253526
20
0.6466877245
30
0.0000000000
10
-49.2770451776
20
0.6465911609
30
0.0000000000
11
-49.0314084454
21
0.6726694400
31
0.0000000000
11
-49.1091749398
21
0.6584989341
31
0.0000000000
11
-49.1918431031
21
0.6497325781
31
0.0000000000
11
-49.2770451776
21
0.6465911609
31
0.0000000000
0
SPLINE
5
3DB
100
AcDbEntity
8
0
100
AcDbSpline
62
7
6
CONTINUOUS
70
0
71
3
72
9
73
5
74
3
42
0.0000001000
43
0.0000001000
44
0.0000000001
12
-4.6387216795
22
-0.0157612347
32
0.0000000000
13
-4.6387216870
23
-0.0157590181
33
0.0000000000
40
0.0000000000
40
0.0000000000
40
0.0000000000
40
0.0000000000
40
0.8718696907
40
1.0000000000
40
1.0000000000
40
1.0000000000
40
1.0000000000
10
-49.2770451776
20
0.6465911609
30
0.0000000000
10
-50.6251654563
20
0.6420105800
30
0.0000000000
10
-52.1714060226
20
0.6367587403
30
0.0000000000
10
-53.7176465852
20
0.6315058124
30
0.0000000000
10
-53.9157668667
20
0.6308327431
30
0.0000000000
11
-49.2770451776
21
0.6465911609
31
0.0000000000
11
-53.3214060222
21
0.6328519131
31
0.0000000000
11
-53.9157668667
21
0.6308327431
31
0.0000000000
0
SPLINE
5
3DC
100
AcDbEntity
8
0
100
AcDbSpline
62
7
6
CONTINUOUS
70
0
71
3
72
10
73
6
74
4
42
0.0000001000
43
0.0000001000
44
0.0000000001
12
-0.2248368565
22
-0.1220589554
32
0.0000000000
13
-0.2558233706
23
-0.0020984944
33
0.0000000000
40
0.0000000000
40
0.0000000000
40
0.0000000000
40
0.0000000000
40
0.3320882056
40
0.6656440402
40
1.0000000000
40
1.0000000000
40
1.0000000000
40
1.0000000000
10
-49.0314084454
20
-3.5556131811
30
0.0000000000
10
-49.0562970014
20
-3.5691246276
30
0.0000000000
10
-49.1085537708
20
-3.5920746449
30
0.0000000000
10
-49.1915040297
20
-3.6132723669
30
0.0000000000
10
-49.2485331547
20
-3.6183378346
30
0.0000000000
10
-49.2770451776
20
-3.6185717159
30
0.0000000000
11
-49.0314084454
21
-3.5556131811
31
0.0000000000
11
-49.1091749398
21
-3.5898238086
31
0.0000000000
11
-49.1918431031
21
-3.6109876639
31
0.0000000000
11
-49.2770451776
21
-3.6185717159
31
0.0000000000
0
SPLINE
5
3DD
100
AcDbEntity
8
0
100
AcDbSpline
62
7
6
CONTINUOUS
70
0
71
3
72
9
73
5
74
3
42
0.0000001000
43
0.0000001000
44
0.0000000001
12
1.1161314020
22
0.6059230461
32
0.0000000000
13
1.1151017160
23
0.6078160689
33
0.0000000000
40
0.0000000000
40
0.0000000000
40
0.0000000000
40
0.0000000000
40
0.6227077488
40
1.0000000000
40
1.0000000000
40
1.0000000000
40
1.0000000000
10
-49.0314084454
20
-3.5556131811
30
0.0000000000
10
-48.7997338878
20
-3.4298421891
30
0.0000000000
10
-48.4277807700
20
-3.2277007158
30
0.0000000000
10
-48.0560043446
20
-3.0252345310
30
0.0000000000
10
-47.9157645990
20
-2.9487931000
30
0.0000000000
11
-49.0314084454
21
-3.5556131811
31
0.0000000000
11
-48.3365662256
21
-3.1779661538
31
0.0000000000
11
-47.9157645990
21
-2.9487931000
31
0.0000000000
0
SPLINE
5
3DE
100
AcDbEntity
8
0
100
AcDbSpline
62
7
6
CONTINUOUS
70
0
71
3
72
9
73
5
74
3
42
0.0000001000
43
0.0000001000
44
0.0000000001
12
-4.6387216326
22
-0.0380509861
32
0.0000000000
13
-4.6387216764
23
-0.0380456351
33
0.0000000000
40
0.0000000000
40
0.0000000000
40
0.0000000000
40
0.0000000000
40
0.8718696907
40
1.0000000000
40
1.0000000000
40
1.0000000000
40
1.0000000000
10
-49.2770451776
20
-3.6185717159
30
0.0000000000
10
-50.6251654427
20
-3.6296302164
30
0.0000000000
10
-52.1714060246
20
-3.6423092793
30
0.0000000000
10
-53.7176465849
20
-3.6549909690
30
0.0000000000
10
-53.9157668659
20
-3.6566159020
30
0.0000000000
11
-49.2770451776
21
-3.6185717159
31
0.0000000000
11
-53.3214060222
21
-3.6517411945
31
0.0000000000
11
-53.9157668659
21
-3.6566159020
31
0.0000000000
0
SPLINE
5
3DF
100
AcDbEntity
8
0
100
AcDbSpline
62
7
6
CONTINUOUS
70
0
71
3
72
10
73
6
74
4
42
0.0000001000
43
0.0000001000
44
0.0000000001
12
-4.3933753038
22
-0.6623514437
32
0.0000000000
13
-4.3975976737
23
-0.6337118392
33
0.0000000000
40
0.0000000000
40
0.0000000000
40
0.0000000000
40
0.0000000000
40
0.3065379648
40
0.6396977111
40
1.0000000000
40
1.0000000000
40
1.0000000000
40
1.0000000000
10
-48.8198029957
20
-0.2605802848
30
0.0000000000
10
-49.2687151038
20
-0.3282589060
30
0.0000000000
10
-50.2057886611
20
-0.4677509751
30
0.0000000000
10
-51.6711742358
20
-0.6822999708
30
0.0000000000
10
-52.6876120309
20
-0.8293735924
30
0.0000000000
10
-53.2157668668
20
-0.9054828678
30
0.0000000000
11
-48.8198029957
21
-0.2605802848
31
0.0000000000
11
-50.1668670615
21
-0.4614302084
31
0.0000000000
11
-51.6314573096
21
-0.6760823463
31
0.0000000000
11
-53.2157668668
21
-0.9054828678
31
0.0000000000
0
SPLINE
5
3E0
100
AcDbEntity
8
0
100
AcDbSpline
62
7
6
CONTINUOUS
70
0
71
3
72
9
73
5
74
3
42
0.0000001000
43
0.0000001000
44
0.0000000001
12
0.7627386739
22
-0.2651023712
32
0.0000000000
13
0.7647730567
23
-0.2591765858
33
0.0000000000
40
0.0000000000
40
0.0000000000
40
0.0000000000
40
0.0000000000
40
0.6951515614
40
1.0000000000
40
1.0000000000
40
1.0000000000
40
1.0000000000
10
-48.6796371514
20
-0.2605802848
30
0.0000000000
10
-48.5028974913
20
-0.3220090606
30
0.0000000000
10
-48.2483357936
20
-0.4094693548
30
0.0000000000
10
-47.9934870310
20
-0.4960847621
30
0.0000000000
10
-47.9157737403
20
-0.5224212880
30
0.0000000000
11
-48.6796371514
21
-0.2605802848
31
0.0000000000
11
-48.1488408480
21
-0.4431971013
31
0.0000000000
11
-47.9157737403
21
-0.5224212880
31
0.0000000000
0
SPLINE
5
3E1
100
AcDbEntity
8
0
100
AcDbSpline
62
7
6
CONTINUOUS
70
0
71
3
72
9
73
5
74
3
42
0.0000001000
43
0.0000001000
44
0.0000000001
12
1.1161314020
22
-0.6059230461
32
0.0000000000
13
1.1151017160
23
-0.6078160689
33
0.0000000000
40
0.0000000000
40
0.0000000000
40
0.0000000000
40
0.0000000000
40
0.6227077488
40
1.0000000000
40
1.0000000000
40
1.0000000000
40
1.0000000000
10
-49.0314084454
20
8.5825496503
30
0.0000000000
10
-48.7997338878
20
8.4567786583
30
0.0000000000
10
-48.4277807700
20
8.2546371851
30
0.0000000000
10
-48.0560043446
20
8.0521710002
30
0.0000000000
10
-47.9157645990
20
7.9757295693
30
0.0000000000
11
-49.0314084454
21
8.5825496503
31
0.0000000000
11
-48.3365662256
21
8.2049026231
31
0.0000000000
11
-47.9157645990
21
7.9757295693
31
0.0000000000
0
SPLINE
5
3E2
100
AcDbEntity
8
0
100
AcDbSpline
62
7
6
CONTINUOUS
70
0
71
3
72
9
73
5
74
3
42
0.0000001000
43
0.0000001000
44
0.0000000001
12
-4.6387216326
22
0.0380509861
32
0.0000000000
13
-4.6387216764
23
0.0380456351
33
0.0000000000
40
0.0000000000
40
0.0000000000
40
0.0000000000
40
0.0000000000
40
0.8718696907
40
1.0000000000
40
1.0000000000
40
1.0000000000
40
1.0000000000
10
-49.2770451776
20
8.6455081852
30
0.0000000000
10
-50.6251654427
20
8.6565666857
30
0.0000000000
10
-52.1714060246
20
8.6692457485
30
0.0000000000
10
-53.7176465849
20
8.6819274383
30
0.0000000000
10
-53.9157668659
20
8.6835523713
30
0.0000000000
11
-49.2770451776
21
8.6455081852
31
0.0000000000
11
-53.3214060222
21
8.6786776638
31
0.0000000000
11
-53.9157668659
21
8.6835523713
31
0.0000000000
0
SPLINE
5
3E3
100
AcDbEntity
8
0
100
AcDbSpline
62
7
6
CONTINUOUS
70
0
71
3
72
9
73
5
74
3
42
0.0000001000
43
0.0000001000
44
0.0000000001
12
1.1157451722
22
-0.2508946930
32
0.0000000000
13
1.1155272888
23
-0.2518617464
33
0.0000000000
40
0.0000000000
40
0.0000000000
40
0.0000000000
40
0.0000000000
40
0.6227950688
40
1.0000000000
40
1.0000000000
40
1.0000000000
40
1.0000000000
10
-49.0314084454
20
5.7004611070
30
0.0000000000
10
-48.7997815816
20
5.6483757812
30
0.0000000000
10
-48.4278856851
20
5.5646589642
30
0.0000000000
10
-48.0560271845
20
5.4807762348
30
0.0000000000
10
-47.9157663864
20
5.4491084039
30
0.0000000000
11
-49.0314084454
21
5.7004611070
31
0.0000000000
11
-48.3365662256
21
5.5440345865
31
0.0000000000
11
-47.9157663864
21
5.4491084039
31
0.0000000000
0
SPLINE
5
3E4
100
AcDbEntity
8
0
100
AcDbSpline
62
7
6
CONTINUOUS
70
0
71
3
72
9
73
5
74
3
42
0.0000001000
43
0.0000001000
44
0.0000000001
12
-4.6387216795
22
0.0157612347
32
0.0000000000
13
-4.6387216870
23
0.0157590181
33
0.0000000000
40
0.0000000000
40
0.0000000000
40
0.0000000000
40
0.0000000000
40
0.8718696907
40
1.0000000000
40
1.0000000000
40
1.0000000000
40
1.0000000000
10
-49.2770451776
20
5.7265393860
30
0.0000000000
10
-50.6251654563
20
5.7311199670
30
0.0000000000
10
-52.1714060226
20
5.7363718067
30
0.0000000000
10
-53.7176465852
20
5.7416247346
30
0.0000000000
10
-53.9157668667
20
5.7422978039
30
0.0000000000
11
-49.2770451776
21
5.7265393860
31
0.0000000000
11
-53.3214060222
21
5.7402786339
31
0.0000000000
11
-53.9157668667
21
5.7422978039
31
0.0000000000
0
SPLINE
5
3E5
100
AcDbEntity
8
0
100
AcDbSpline
62
7
6
CONTINUOUS
70
0
71
3
72
10
73
6
74
4
42
0.0000001000
43
0.0000001000
44
0.0000000001
12
-0.2414104176
22
0.0542853280
32
0.0000000000
13
-0.2474372238
23
0.0008407308
33
0.0000000000
40
0.0000000000
40
0.0000000000
40
0.0000000000
40
0.0000000000
40
0.3194610716
40
0.6554298756
40
1.0000000000
40
1.0000000000
40
1.0000000000
40
1.0000000000
10
-49.0314084454
20
5.7004611070
30
0.0000000000
10
-49.0571155223
20
5.7062417900
30
0.0000000000
10
-49.1103911325
20
5.7158071755
30
0.0000000000
10
-49.1924813194
20
5.7243986551
30
0.0000000000
10
-49.2486253526
20
5.7264428225
30
0.0000000000
10
-49.2770451776
20
5.7265393860
30
0.0000000000
11
-49.0314084454
21
5.7004611070
31
0.0000000000
11
-49.1091749398
21
5.7146316129
31
0.0000000000
11
-49.1918431031
21
5.7233979688
31
0.0000000000
11
-49.2770451776
21
5.7265393860
31
0.0000000000
0
SPLINE
5
3E6
100
AcDbEntity
8
0
100
AcDbSpline
62
7
6
CONTINUOUS
70
0
71
3
72
10
73
6
74
4
42
0.0000001000
43
0.0000001000
44
0.0000000001
12
0.2474372238
22
0.0008407308
32
0.0000000000
13
0.2414104176
23
0.0542853280
33
0.0000000000
40
0.0000000000
40
0.0000000000
40
0.0000000000
40
0.0000000000
40
0.3445701244
40
0.6805389284
40
1.0000000000
40
1.0000000000
40
1.0000000000
40
1.0000000000
10
-49.2770451776
20
-1.6515058779
30
0.0000000000
10
-49.2486253526
20
-1.6514093143
30
0.0000000000
10
-49.1924813194
20
-1.6493651469
30
0.0000000000
10
-49.1103911325
20
-1.6407736673
30
0.0000000000
10
-49.0571155223
20
-1.6312082819
30
0.0000000000
10
-49.0314084454
20
-1.6254275989
30
0.0000000000
11
-49.2770451776
21
-1.6515058779
31
0.0000000000
11
-49.1918431031
21
-1.6483644607
31
0.0000000000
11
-49.1091749398
21
-1.6395981048
31
0.0000000000
11
-49.0314084454
21
-1.6254275989
31
0.0000000000
0
SPLINE
5
3E7
100
AcDbEntity
8
0
100
AcDbSpline
62
7
6
CONTINUOUS
70
0
71
3
72
9
73
5
74
3
42
0.0000001000
43
0.0000001000
44
0.0000000001
12
-4.6387216326
22
-0.0380509861
32
0.0000000000
13
-4.6387216764
23
-0.0380456351
33
0.0000000000
40
0.0000000000
40
0.0000000000
40
0.0000000000
40
0.0000000000
40
0.8718696907
40
1.0000000000
40
1.0000000000
40
1.0000000000
40
1.0000000000
10
-49.2770451776
20
-4.5704746771
30
0.0000000000
10
-50.6251654427
20
-4.5815331776
30
0.0000000000
10
-52.1714060246
20
-4.5942122404
30
0.0000000000
10
-53.7176465849
20
-4.6068939302
30
0.0000000000
10
-53.9157668659
20
-4.6085188632
30
0.0000000000
11
-49.2770451776
21
-4.5704746771
31
0.0000000000
11
-53.3214060222
21
-4.6036441557
31
0.0000000000
11
-53.9157668659
21
-4.6085188632
31
0.0000000000
0
SPLINE
5
3E8
100
AcDbEntity
8
0
100
AcDbSpline
62
7
6
CONTINUOUS
70
0
71
3
72
9
73
5
74
3
42
0.0000001000
43
0.0000001000
44
0.0000000001
12
-1.1151018039
22
-0.6078161137
32
0.0000000000
13
-1.1161314888
23
-0.6059230932
33
0.0000000000
40
0.0000000000
40
0.0000000000
40
0.0000000000
40
0.0000000000
40
0.3766316400
40
1.0000000000
40
1.0000000000
40
1.0000000000
40
1.0000000000
10
-47.9157645120
20
-3.9006960142
30
0.0000000000
10
-48.0557587191
20
-3.9770036075
30
0.0000000000
10
-48.4275350419
20
-4.1794700495
30
0.0000000000
10
-48.7994880935
20
-4.3816117139
30
0.0000000000
10
-49.0314084454
20
-4.5075161422
30
0.0000000000
11
-47.9157645120
21
-3.9006960142
31
0.0000000000
11
-48.3358292407
21
-4.1294680735
31
0.0000000000
11
-49.0314084454
21
-4.5075161422
31
0.0000000000
0
SPLINE
5
3E9
100
AcDbEntity
8
0
100
AcDbSpline
62
7
6
CONTINUOUS
70
0
71
3
72
10
73
6
74
4
42
0.0000001000
43
0.0000001000
44
0.0000000001
12
0.2558233706
22
0.0020984944
32
0.0000000000
13
0.2248368565
23
0.1220589554
33
0.0000000000
40
0.0000000000
40
0.0000000000
40
0.0000000000
40
0.0000000000
40
0.3343559598
40
0.6679117944
40
1.0000000000
40
1.0000000000
40
1.0000000000
40
1.0000000000
10
-49.2770451776
20
-4.5704746771
30
0.0000000000
10
-49.2485331547
20
-4.5702407957
30
0.0000000000
10
-49.1915040297
20
-4.5651753281
30
0.0000000000
10
-49.1085537708
20
-4.5439776061
30
0.0000000000
10
-49.0562970014
20
-4.5210275887
30
0.0000000000
10
-49.0314084454
20
-4.5075161422
30
0.0000000000
11
-49.2770451776
21
-4.5704746771
31
0.0000000000
11
-49.1918431031
21
-4.5628906251
31
0.0000000000
11
-49.1091749398
21
-4.5417267697
31
0.0000000000
11
-49.0314084454
21
-4.5075161422
31
0.0000000000
0
SPLINE
5
3EA
100
AcDbEntity
8
0
100
AcDbSpline
62
7
6
CONTINUOUS
70
0
71
3
72
9
73
5
74
3
42
0.0000001000
43
0.0000001000
44
0.0000000001
12
-4.6387216795
22
-0.0157612347
32
0.0000000000
13
-4.6387216870
23
-0.0157590181
33
0.0000000000
40
0.0000000000
40
0.0000000000
40
0.0000000000
40
0.0000000000
40
0.8718696907
40
1.0000000000
40
1.0000000000
40
1.0000000000
40
1.0000000000
10
-49.2770451776
20
-1.6515058779
30
0.0000000000
10
-50.6251654563
20
-1.6560864588
30
0.0000000000
10
-52.1714060226
20
-1.6613382986
30
0.0000000000
10
-53.7176465852
20
-1.6665912265
30
0.0000000000
10
-53.9157668667
20
-1.6672642958
30
0.0000000000
11
-49.2770451776
21
-1.6515058779
31
0.0000000000
11
-53.3214060222
21
-1.6652451258
31
0.0000000000
11
-53.9157668667
21
-1.6672642958
31
0.0000000000
0
SPLINE
5
3EB
100
AcDbEntity
8
0
100
AcDbSpline
62
7
6
CONTINUOUS
70
0
71
3
72
9
73
5
74
3
42
0.0000001000
43
0.0000001000
44
0.0000000001
12
-1.1155273075
22
-0.2518617492
32
0.0000000000
13
-1.1157451905
23
-0.2508946971
33
0.0000000000
40
0.0000000000
40
0.0000000000
40
0.0000000000
40
0.0000000000
40
0.3765443344
40
1.0000000000
40
1.0000000000
40
1.0000000000
40
1.0000000000
10
-47.9157663680
20
-1.3740748918
30
0.0000000000
10
-48.0557815305
20
-1.4056872634
30
0.0000000000
10
-48.4276400094
20
-1.4895701177
30
0.0000000000
10
-48.7995358919
20
-1.5732870254
30
0.0000000000
10
-49.0314084454
20
-1.6254275989
30
0.0000000000
11
-47.9157663680
21
-1.3740748918
31
0.0000000000
11
-48.3358292407
21
-1.4688349616
31
0.0000000000
11
-49.0314084454
21
-1.6254275989
31
0.0000000000
0
SPLINE
5
3EC
100
AcDbEntity
8
0
100
AcDbSpline
62
7
6
CONTINUOUS
70
0
71
3
72
10
73
6
74
4
42
0.0000001000
43
0.0000001000
44
0.0000000001
12
-0.2248368565
22
0.1220589554
32
0.0000000000
13
-0.2558233706
23
0.0020984944
33
0.0000000000
40
0.0000000000
40
0.0000000000
40
0.0000000000
40
0.0000000000
40
0.3320882056
40
0.6656440402
40
1.0000000000
40
1.0000000000
40
1.0000000000
40
1.0000000000
10
-49.0314084454
20
8.5825496503
30
0.0000000000
10
-49.0562970014
20
8.5960610968
30
0.0000000000
10
-49.1085537708
20
8.6190111142
30
0.0000000000
10
-49.1915040297
20
8.6402088362
30
0.0000000000
10
-49.2485331547
20
8.6452743038
30
0.0000000000
10
-49.2770451776
20
8.6455081852
30
0.0000000000
11
-49.0314084454
21
8.5825496503
31
0.0000000000
11
-49.1091749398
21
8.6167602779
31
0.0000000000
11
-49.1918431031
21
8.6379241332
31
0.0000000000
11
-49.2770451776
21
8.6455081852
31
0.0000000000
0
SPLINE
5
3ED
100
AcDbEntity
8
0
100
AcDbSpline
62
9
6
CONTINUOUS
70
0
71
3
72
23
73
19
74
17
42
0.0000001000
43
0.0000001000
44
0.0000000001
12
0.0000000007
22
-7.3059010752
32
0.0000000000
13
-0.0000016615
23
-7.3059010752
33
0.0000000000
40
0.0000000000
40
0.0000000000
40
0.0000000000
40
0.0000000000
40
0.0063416926
40
0.0269232261
40
0.0628284316
40
0.1132869075
40
0.1760256675
40
0.2489788645
40
0.3302173342
40
0.4172613256
40
0.5073245380
40
0.5976627633
40
0.6855417516
40
0.7681563490
40
0.8429299550
40
0.9078809237
40
0.9610208931
40
1.0000000000
40
1.0000000000
40
1.0000000000
40
1.0000000000
10
-34.9070406636
20
17.0604485936
30
0.0000000000
10
-34.9070406636
20
17.0450046673
30
0.0000000000
10
-34.9070406636
20
16.9794385251
30
0.0000000000
10
-34.9070406636
20
16.8264324230
30
0.0000000000
10
-34.9070406633
20
16.5659887028
30
0.0000000000
10
-34.9070406652
20
16.2028794737
30
0.0000000000
10
-34.9070406554
20
15.7495472579
30
0.0000000000
10
-34.9070407011
20
15.2212565125
30
0.0000000000
10
-34.9070405019
20
14.6337752265
30
0.0000000000
10
-34.9070413220
20
14.0046259213
30
0.0000000000
10
-34.9070381147
20
13.3533159473
30
0.0000000000
10
-34.9070500863
20
12.6999726214
30
0.0000000000
10
-34.9070074292
20
12.0647684920
30
0.0000000000
10
-34.9071519349
20
11.4674703192
30
0.0000000000
10
-34.9066887433
20
10.9260041049
30
0.0000000000
10
-34.9080817670
20
10.4563316840
30
0.0000000000
10
-34.9042636232
20
10.0737896944
30
0.0000000000
10
-34.9114040208
20
9.8495067812
30
0.0000000000
10
-34.9114040424
20
9.7545809483
30
0.0000000000
11
-34.9070406636
21
17.0604485936
31
0.0000000000
11
-34.9070406636
21
17.0141168147
31
0.0000000000
11
-34.9070406636
21
16.8637501670
31
0.0000000000
11
-34.9070406636
21
16.6014302873
31
0.0000000000
11
-34.9070406636
21
16.2327856540
31
0.0000000000
11
-34.9070406636
21
15.7744224799
31
0.0000000000
11
-34.9070406636
21
15.2414336400
31
0.0000000000
11
-34.9070406636
21
14.6479134168
31
0.0000000000
11
-34.9070406636
21
14.0119786262
31
0.0000000000
11
-34.9070406636
21
13.3539857056
31
0.0000000000
11
-34.9070406636
21
12.6939835686
31
0.0000000000
11
-34.9070406636
21
12.0519483735
31
0.0000000000
11
-34.9070406636
21
11.4483742977
31
0.0000000000
11
-34.9070406636
21
10.9020857289
31
0.0000000000
11
-34.9070406636
21
10.4275603770
31
0.0000000000
11
-34.9070406636
21
10.0393250170
31
0.0000000000
11
-34.9114040424
21
9.7545809483
31
0.0000000000
0
SPLINE
5
3EE
100
AcDbEntity
8
0
100
AcDbSpline
62
7
6
CONTINUOUS
70
0
71
3
72
10
73
6
74
4
42
0.0000001000
43
0.0000001000
44
0.0000000001
12
-1.5520304993
22
-0.3814373719
32
0.0000000000
13
-1.5452876220
23
-0.4078961935
33
0.0000000000
40
0.0000000000
40
0.0000000000
40
0.0000000000
40
0.0000000000
40
0.2975611236
40
0.6309803481
40
1.0000000000
40
1.0000000000
40
1.0000000000
40
1.0000000000
10
-45.5994040483
20
-5.5852005601
30
0.0000000000
10
-45.7533453613
20
-5.6230342045
30
0.0000000000
10
-46.0795743067
20
-5.7040959800
30
0.0000000000
10
-46.5958915078
20
-5.8353577848
30
0.0000000000
10
-46.9580150766
20
-5.9297323850
30
0.0000000000
10
-47.1480955767
20
-5.9799062888
30
0.0000000000
11
-45.5994040483
21
-5.5852005601
31
0.0000000000
11
-46.0609364743
21
-5.6998811265
31
0.0000000000
11
-46.5773847428
21
-5.8311739845
31
0.0000000000
11
-47.1480955767
21
-5.9799062888
31
0.0000000000
0
SPLINE
5
3EF
100
AcDbEntity
8
0
100
AcDbSpline
62
7
6
CONTINUOUS
70
0
71
3
72
10
73
6
74
4
42
0.0000001000
43
0.0000001000
44
0.0000000001
12
1.5452876227
22
-0.4078961936
32
0.0000000000
13
1.5520304999
23
-0.3814373721
33
0.0000000000
40
0.0000000000
40
0.0000000000
40
0.0000000000
40
0.0000000000
40
0.3686889264
40
0.7021400991
40
1.0000000000
40
1.0000000000
40
1.0000000000
40
1.0000000000
10
-47.1480955767
20
10.0549397969
30
0.0000000000
10
-46.9581854318
20
10.0048108604
30
0.0000000000
10
-46.5962161599
20
9.9104753872
30
0.0000000000
10
-46.0798996642
20
9.7792108040
30
0.0000000000
10
-45.7534999321
20
9.6981057009
30
0.0000000000
10
-45.5994040485
20
9.6602340683
30
0.0000000000
11
-47.1480955767
21
10.0549397969
31
0.0000000000
11
-46.5778966476
21
9.9063391849
31
0.0000000000
11
-46.0613995994
21
9.7750309677
31
0.0000000000
11
-45.5994040485
21
9.6602340683
31
0.0000000000
0
SPLINE
5
3F0
100
AcDbEntity
8
0
100
AcDbSpline
62
7
6
CONTINUOUS
70
0
71
3
72
12
73
8
74
6
42
0.0000001000
43
0.0000001000
44
0.0000000001
12
0.0000000000
22
-1.0174372477
32
0.0000000000
13
-0.7192728292
23
-0.7196006881
33
0.0000000000
40
0.0000000000
40
0.0000000000
40
0.0000000000
40
0.0000000000
40
0.2151694258
40
0.4217010398
40
0.6215382632
40
0.8147091786
40
1.0000000000
40
1.0000000000
40
1.0000000000
40
1.0000000000
10
-34.9157668668
20
-3.7408746547
30
0.0000000000
10
-34.9157668668
20
-3.8138484509
30
0.0000000000
10
-34.9393695901
20
-3.9574718342
30
0.0000000000
10
-35.0259805613
20
-4.1512895705
30
0.0000000000
10
-35.1420006265
20
-4.3192351603
30
0.0000000000
10
-35.2720688746
20
-4.4663292162
30
0.0000000000
10
-35.3626158022
20
-4.5573219646
30
0.0000000000
10
-35.4070406867
20
-4.6017670988
30
0.0000000000
11
-34.9157668668
21
-3.7408746547
31
0.0000000000
11
-34.9490071091
21
-3.9572577885
31
0.0000000000
11
-35.0325990445
21
-4.1500484727
31
0.0000000000
11
-35.1464813233
21
-4.3184842024
31
0.0000000000
11
-35.2752545740
21
-4.4669602618
31
0.0000000000
11
-35.4070406867
21
-4.6017670988
31
0.0000000000
0
SPLINE
5
3F1
100
AcDbEntity
8
0
100
AcDbSpline
62
9
6
CONTINUOUS
70
0
71
3
72
25
73
21
74
19
42
0.0000001000
43
0.0000001000
44
0.0000000001
12
0.0291721208
22
-0.4857505894
32
0.0000000000
13
-0.0067767651
23
-0.4865785890
33
0.0000000000
40
0.0000000000
40
0.0000000000
40
0.0000000000
40
0.0000000000
40
0.0205126602
40
0.0463709203
40
0.0773820120
40
0.1134667817
40
0.1544974457
40
0.2001525384
40
0.2502743030
40
0.3044934921
40
0.3625661521
40
0.4241490204
40
0.4889345204
40
0.5565900813
40
0.6266574296
40
0.6988216629
40
0.7725997285
40
0.8476582051
40
0.9236312879
40
1.0000000000
40
1.0000000000
40
1.0000000000
40
1.0000000000
10
-35.4069843312
20
-4.1151841929
30
0.0000000000
10
-35.4067848653
20
-4.1185055385
30
0.0000000000
10
-35.4064317154
20
-4.1260195410
30
0.0000000000
10
-35.4060092865
20
-4.1385645894
30
0.0000000000
10
-35.4056370622
20
-4.1536381282
30
0.0000000000
10
-35.4053182857
20
-4.1711743620
30
0.0000000000
10
-35.4050550790
20
-4.1910871245
30
0.0000000000
10
-35.4048495885
20
-4.2132775741
30
0.0000000000
10
-35.4047033518
20
-4.2376078183
30
0.0000000000
10
-35.4046173887
20
-4.2639525900
30
0.0000000000
10
-35.4045923197
20
-4.2921565753
30
0.0000000000
10
-35.4046283857
20
-4.3220744927
30
0.0000000000
10
-35.4047255036
20
-4.3535467081
30
0.0000000000
10
-35.4048832335
20
-4.3863949484
30
0.0000000000
10
-35.4051007680
20
-4.4204397647
30
0.0000000000
10
-35.4053768303
20
-4.4554773103
30
0.0000000000
10
-35.4057099697
20
-4.4913239986
30
0.0000000000
10
-35.4060984155
20
-4.5277879935
30
0.0000000000
10
-35.4065401599
20
-4.5646716363
30
0.0000000000
10
-35.4068681515
20
-4.5893806159
30
0.0000000000
10
-35.4070406625
20
-4.6017670759
30
0.0000000000
11
-35.4069843312
21
-4.1151841929
31
0.0000000000
11
-35.4064919966
21
-4.1251540332
31
0.0000000000
11
-35.4060545188
21
-4.1377297220
31
0.0000000000
11
-35.4056725178
21
-4.1528156830
31
0.0000000000
11
-35.4053464477
21
-4.1703724344
31
0.0000000000
11
-35.4050774586
21
-4.1903372012
31
0.0000000000
11
-35.4048677690
21
-4.2125531567
31
0.0000000000
11
-35.4047180764
21
-4.2369432400
31
0.0000000000
11
-35.4046295101
21
-4.2633275464
31
0.0000000000
11
-35.4046024006
21
-4.2915871868
31
0.0000000000
11
-35.4046369129
21
-4.3215549781
31
0.0000000000
11
-35.4047328876
21
-4.3530811264
31
0.0000000000
11
-35.4048899149
21
-4.3860036918
31
0.0000000000
11
-35.4051069332
21
-4.4200995791
31
0.0000000000
11
-35.4053829537
21
-4.4552154704
31
0.0000000000
11
-35.4057161027
21
-4.4911162333
31
0.0000000000
11
-35.4061048438
21
-4.5276395541
31
0.0000000000
11
-35.4065473635
21
-4.5646073661
31
0.0000000000
11
-35.4070406625
21
-4.6017670759
31
0.0000000000
0
SPLINE
5
3F2
100
AcDbEntity
8
0
100
AcDbSpline
62
9
6
CONTINUOUS
70
0
71
3
72
12
73
8
74
6
42
0.0000001000
43
0.0000001000
44
0.0000000001
12
0.7133675968
22
0.0121424040
32
0.0000000000
13
0.0762665972
23
0.7121613489
33
0.0000000000
40
0.0000000000
40
0.0000000000
40
0.0000000000
40
0.0000000000
40
0.2166845097
40
0.4323733004
40
0.6464904733
40
0.8590421185
40
1.0000000000
40
1.0000000000
40
1.0000000000
40
1.0000000000
10
-35.4070406636
20
-4.1142681214
30
0.0000000000
10
-35.3555154276
20
-4.1133910978
30
0.0000000000
10
-35.2522879918
20
-4.0959078258
30
0.0000000000
10
-35.1133230301
20
-4.0248923782
30
0.0000000000
10
-35.0029565823
20
-3.9156472874
30
0.0000000000
10
-34.9399197226
20
-3.7938378098
30
0.0000000000
10
-34.9220523048
20
-3.7106292607
30
0.0000000000
10
-34.9184688455
20
-3.6771676757
30
0.0000000000
11
-35.4070406636
21
-4.1142681214
31
0.0000000000
11
-35.2546340192
21
-4.0883299883
31
0.0000000000
11
-35.1176544293
21
-4.0182014592
31
0.0000000000
11
-35.0092164863
21
-3.9105967251
31
0.0000000000
11
-34.9397021704
21
-3.7758179938
31
0.0000000000
11
-34.9184688455
21
-3.6771676757
31
0.0000000000
0
SPLINE
5
3F3
100
AcDbEntity
8
0
100
AcDbSpline
62
9
6
CONTINUOUS
70
0
71
3
72
8
73
4
74
2
42
0.0000001000
43
0.0000001000
44
0.0000000001
12
0.0053863531
22
0.0502966253
32
0.0000000000
13
0.0000000000
23
0.0503891148
33
0.0000000000
40
0.0000000000
40
0.0000000000
40
0.0000000000
40
0.0000000000
40
1.0000000000
40
1.0000000000
40
1.0000000000
40
1.0000000000
10
-34.9184688455
20
-3.6771676757
30
0.0000000000
10
-34.9166733945
20
-3.6604021339
30
0.0000000000
10
-34.9157668668
20
-3.6435655160
30
0.0000000000
10
-34.9157668668
20
-3.6267691444
30
0.0000000000
11
-34.9184688455
21
-3.6771676757
31
0.0000000000
11
-34.9157668668
21
-3.6267691444
31
0.0000000000
0
SPLINE
5
3F4
100
AcDbEntity
8
0
100
AcDbSpline
62
9
6
CONTINUOUS
70
0
71
3
72
12
73
8
74
6
42
0.0000001000
43
0.0000001000
44
0.0000000001
12
0.7133675830
22
-0.0121425034
32
0.0000000000
13
0.0762666043
23
-0.7121613364
33
0.0000000000
40
0.0000000000
40
0.0000000000
40
0.0000000000
40
0.0000000000
40
0.2166845149
40
0.4323733136
40
0.6464904899
40
0.8590421281
40
1.0000000000
40
1.0000000000
40
1.0000000000
40
1.0000000000
10
-35.4070406636
20
8.1893016296
30
0.0000000000
10
-35.3555154273
20
8.1884245987
30
0.0000000000
10
-35.2522879930
20
8.1709413152
30
0.0000000000
10
-35.1133230336
20
8.0999258621
30
0.0000000000
10
-35.0029565861
20
7.9906807742
30
0.0000000000
10
-34.9399197236
20
7.8688713045
30
0.0000000000
10
-34.9220523050
20
7.7856627608
30
0.0000000000
10
-34.9184688455
20
7.7522011787
30
0.0000000000
11
-35.4070406636
21
8.1893016296
31
0.0000000000
11
-35.2546340208
21
8.1633634798
31
0.0000000000
11
-35.1176544313
21
8.0932349435
31
0.0000000000
11
-35.0092164875
21
7.9856302102
31
0.0000000000
11
-34.9397021708
21
7.8508514880
31
0.0000000000
11
-34.9184688455
21
7.7522011787
31
0.0000000000
0
SPLINE
5
3F5
100
AcDbEntity
8
0
100
AcDbSpline
62
9
6
CONTINUOUS
70
0
71
3
72
8
73
4
74
2
42
0.0000001000
43
0.0000001000
44
0.0000000001
12
0.0053863531
22
-0.0502966201
32
0.0000000000
13
0.0000000000
23
-0.0503891096
33
0.0000000000
40
0.0000000000
40
0.0000000000
40
0.0000000000
40
0.0000000000
40
1.0000000000
40
1.0000000000
40
1.0000000000
40
1.0000000000
10
-34.9184688455
20
7.7522011787
30
0.0000000000
10
-34.9166733945
20
7.7354356386
30
0.0000000000
10
-34.9157668668
20
7.7185990224
30
0.0000000000
10
-34.9157668668
20
7.7018026525
30
0.0000000000
11
-34.9184688455
21
7.7522011787
31
0.0000000000
11
-34.9157668668
21
7.7018026525
31
0.0000000000
0
SPLINE
5
3F6
100
AcDbEntity
8
0
100
AcDbSpline
62
7
6
CONTINUOUS
70
0
71
3
72
12
73
8
74
6
42
0.0000001000
43
0.0000001000
44
0.0000000001
12
0.7192728264
22
-0.7196006909
32
0.0000000000
13
-0.0000000000
23
-1.0174372477
33
0.0000000000
40
0.0000000000
40
0.0000000000
40
0.0000000000
40
0.0000000000
40
0.1852908214
40
0.3784617368
40
0.5782989602
40
0.7848305742
40
1.0000000000
40
1.0000000000
40
1.0000000000
40
1.0000000000
10
-35.4070406867
20
8.6768006070
30
0.0000000000
10
-35.3626158024
20
8.6323554726
30
0.0000000000
10
-35.2720688745
20
8.5413627244
30
0.0000000000
10
-35.1420006265
20
8.3942686684
30
0.0000000000
10
-35.0259805613
20
8.2263230786
30
0.0000000000
10
-34.9393695901
20
8.0325053424
30
0.0000000000
10
-34.9157668668
20
7.8888819590
30
0.0000000000
10
-34.9157668668
20
7.8159081629
30
0.0000000000
11
-35.4070406867
21
8.6768006070
31
0.0000000000
11
-35.2752545740
21
8.5419937699
31
0.0000000000
11
-35.1464813233
21
8.3935177105
31
0.0000000000
11
-35.0325990445
21
8.2250819808
31
0.0000000000
11
-34.9490071091
21
8.0322912966
31
0.0000000000
11
-34.9157668668
21
7.8159081629
31
0.0000000000
0
SPLINE
5
3F7
100
AcDbEntity
8
0
100
AcDbSpline
62
9
6
CONTINUOUS
70
0
71
3
72
25
73
21
74
19
42
0.0000001000
43
0.0000001000
44
0.0000000001
12
0.0067767652
22
-0.4865785890
32
0.0000000000
13
-0.0291719844
23
-0.4857505977
33
0.0000000000
40
0.0000000000
40
0.0000000000
40
0.0000000000
40
0.0000000000
40
0.0763687122
40
0.1523417945
40
0.2274002700
40
0.3011783333
40
0.3733425652
40
0.4434099113
40
0.5110654721
40
0.5758509720
40
0.6374338394
40
0.6955065008
40
0.7497256917
40
0.7998474580
40
0.8455025535
40
0.8865332184
40
0.9226179888
40
0.9536290813
40
0.9794873404
40
1.0000000000
40
1.0000000000
40
1.0000000000
40
1.0000000000
10
-35.4070406625
20
8.6768005841
30
0.0000000000
10
-35.4068681515
20
8.6644141240
30
0.0000000000
10
-35.4065401599
20
8.6397051445
30
0.0000000000
10
-35.4060984155
20
8.6028215019
30
0.0000000000
10
-35.4057099697
20
8.5663575076
30
0.0000000000
10
-35.4053768304
20
8.5305108202
30
0.0000000000
10
-35.4051007680
20
8.4954732755
30
0.0000000000
10
-35.4048832335
20
8.4614284597
30
0.0000000000
10
-35.4047255036
20
8.4285802199
30
0.0000000000
10
-35.4046283857
20
8.3971080046
30
0.0000000000
10
-35.4045923197
20
8.3671900871
30
0.0000000000
10
-35.4046173886
20
8.3389861015
30
0.0000000000
10
-35.4047033518
20
8.3126413290
30
0.0000000000
10
-35.4048495885
20
8.2883110838
30
0.0000000000
10
-35.4050550790
20
8.2661206333
30
0.0000000000
10
-35.4053182858
20
8.2462078701
30
0.0000000000
10
-35.4056370620
20
8.2286716359
30
0.0000000000
10
-35.4060092870
20
8.2135980970
30
0.0000000000
10
-35.4064317146
20
8.2010530487
30
0.0000000000
10
-35.4067848662
20
8.1935390466
30
0.0000000000
10
-35.4069843312
20
8.1902177010
30
0.0000000000
11
-35.4070406625
21
8.6768005841
31
0.0000000000
11
-35.4065473635
21
8.6396408742
31
0.0000000000
11
-35.4061048438
21
8.6026730624
31
0.0000000000
11
-35.4057161027
21
8.5661497421
31
0.0000000000
11
-35.4053829537
21
8.5302489804
31
0.0000000000
11
-35.4051069332
21
8.4951330897
31
0.0000000000
11
-35.4048899150
21
8.4610372035
31
0.0000000000
11
-35.4047328876
21
8.4281146381
31
0.0000000000
11
-35.4046369129
21
8.3965884899
31
0.0000000000
11
-35.4046024006
21
8.3666206990
31
0.0000000000
11
-35.4046295101
21
8.3383610580
31
0.0000000000
11
-35.4047180764
21
8.3119767507
31
0.0000000000
11
-35.4048677690
21
8.2875866665
31
0.0000000000
11
-35.4050774586
21
8.2653707097
31
0.0000000000
11
-35.4053464477
21
8.2454059425
31
0.0000000000
11
-35.4056725178
21
8.2278491907
31
0.0000000000
11
-35.4060545189
21
8.2127632293
31
0.0000000000
11
-35.4064919965
21
8.2001875410
31
0.0000000000
11
-35.4069843312
21
8.1902177010
31
0.0000000000
0
SPLINE
5
3F8
100
AcDbEntity
8
0
100
AcDbSpline
62
7
6
CONTINUOUS
70
0
71
3
72
10
73
6
74
4
42
0.0000001000
43
0.0000001000
44
0.0000000001
12
-0.1763603243
22
-0.0306125784
32
0.0000000000
13
-0.1738248140
23
-0.0427203462
33
0.0000000000
40
0.0000000000
40
0.0000000000
40
0.0000000000
40
0.0000000000
40
0.3473564831
40
0.6808870907
40
1.0000000000
40
1.0000000000
40
1.0000000000
40
1.0000000000
10
-45.4241171938
20
-5.5490970875
30
0.0000000000
10
-45.4445371612
20
-5.5526415801
30
0.0000000000
10
-45.4845029854
20
-5.5599515094
30
0.0000000000
10
-45.5429607972
20
-5.5719190470
30
0.0000000000
10
-45.5809141343
20
-5.5806563555
30
0.0000000000
10
-45.5994040483
20
-5.5852005601
30
0.0000000000
11
-45.4241171938
21
-5.5490970875
31
0.0000000000
11
-45.4852721867
21
-5.5603181963
31
0.0000000000
11
-45.5437517107
21
-5.5723336343
31
0.0000000000
11
-45.5994040483
21
-5.5852005601
31
0.0000000000
0
SPLINE
5
3F9
100
AcDbEntity
8
0
100
AcDbSpline
62
7
6
CONTINUOUS
70
0
71
3
72
10
73
6
74
4
42
0.0000001000
43
0.0000001000
44
0.0000000001
12
-0.1763603245
22
0.0306125785
32
0.0000000000
13
-0.1738248142
23
0.0427203462
33
0.0000000000
40
0.0000000000
40
0.0000000000
40
0.0000000000
40
0.0000000000
40
0.3473564831
40
0.6808870907
40
1.0000000000
40
1.0000000000
40
1.0000000000
40
1.0000000000
10
-45.4241171939
20
9.6241305957
30
0.0000000000
10
-45.4445371612
20
9.6276750882
30
0.0000000000
10
-45.4845029855
20
9.6349850175
30
0.0000000000
10
-45.5429607974
20
9.6469525551
30
0.0000000000
10
-45.5809141344
20
9.6556898636
30
0.0000000000
10
-45.5994040485
20
9.6602340683
30
0.0000000000
11
-45.4241171939
21
9.6241305957
31
0.0000000000
11
-45.4852721868
21
9.6353517045
31
0.0000000000
11
-45.5437517109
21
9.6473671425
31
0.0000000000
11
-45.5994040485
21
9.6602340683
31
0.0000000000
0
SPLINE
5
3FA
100
AcDbEntity
8
0
100
AcDbSpline
62
9
6
CONTINUOUS
70
0
71
3
72
10
73
6
74
4
42
0.0000001000
43
0.0000001000
44
0.0000000001
12
-0.0000000000
22
-0.2401325985
32
0.0000000000
13
0.0021140227
23
-0.2400821888
33
0.0000000000
40
0.0000000000
40
0.0000000000
40
0.0000000000
40
0.0000000000
40
0.5718036168
40
0.8978433945
40
1.0000000000
40
1.0000000000
40
1.0000000000
40
1.0000000000
10
-34.9135853026
20
9.7545614536
30
0.0000000000
10
-34.9135853026
20
9.7087918908
30
0.0000000000
10
-34.9053282048
20
9.6371216288
30
0.0000000000
10
-34.9070406636
20
9.5570365950
30
0.0000000000
10
-34.9071126507
20
9.5227602417
30
0.0000000000
10
-34.9070406636
20
9.5145849146
30
0.0000000000
11
-34.9135853026
21
9.7545614536
31
0.0000000000
11
-34.9070406636
21
9.6174088247
31
0.0000000000
11
-34.9070406636
21
9.5391160457
31
0.0000000000
11
-34.9070406636
21
9.5145849146
31
0.0000000000
0
SPLINE
5
3FB
100
AcDbEntity
8
0
100
AcDbSpline
62
9
6
CONTINUOUS
70
0
71
3
72
10
73
6
74
4
42
0.0000001000
43
0.0000001000
44
0.0000000001
12
-10.5083259655
22
0.1323480469
32
0.0000000000
13
-10.5083737880
23
0.1284948865
33
0.0000000000
40
0.0000000000
40
0.0000000000
40
0.0000000000
40
0.0000000000
40
0.3359473096
40
0.6692806427
40
1.0000000000
40
1.0000000000
40
1.0000000000
40
1.0000000000
10
-34.9157668668
20
-5.6794922892
30
0.0000000000
10
-36.0925148122
20
-5.6646716324
30
0.0000000000
10
-38.4368564279
20
-5.6352960550
30
0.0000000000
10
-41.9396400094
20
-5.5918401736
30
0.0000000000
10
-44.2656763186
20
-5.5632623363
30
0.0000000000
10
-45.4241171938
20
-5.5490970875
30
0.0000000000
11
-34.9157668668
21
-5.6794922892
31
0.0000000000
11
-38.4460135223
21
-5.6352547437
31
0.0000000000
11
-41.9487970696
21
-5.5917969209
31
0.0000000000
11
-45.4241171938
21
-5.5490970875
31
0.0000000000
0
SPLINE
5
3FC
100
AcDbEntity
8
0
100
AcDbSpline
62
9
6
CONTINUOUS
70
0
71
3
72
9
73
5
74
3
42
0.0000001000
43
0.0000001000
44
0.0000000001
12
8.0007662628
22
0.0945314739
32
0.0000000000
13
8.0007392466
23
0.0967910084
33
0.0000000000
40
0.0000000000
40
0.0000000000
40
0.0000000000
40
0.0000000000
40
0.4977736628
40
1.0000000000
40
1.0000000000
40
1.0000000000
40
1.0000000000
10
-42.9165198409
20
9.1907657760
30
0.0000000000
10
-41.5889962650
20
9.2064508687
30
0.0000000000
10
-38.9220763119
20
9.2381422872
30
0.0000000000
10
-36.2551608558
20
9.2702100093
30
0.0000000000
10
-34.9157668668
20
9.2864136738
30
0.0000000000
11
-42.9165198409
21
9.1907657760
31
0.0000000000
11
-38.9339523525
21
9.2380944156
31
0.0000000000
11
-34.9157668668
21
9.2864136738
31
0.0000000000
0
SPLINE
5
3FD
100
AcDbEntity
8
0
100
AcDbSpline
62
9
6
CONTINUOUS
70
0
71
3
72
10
73
6
74
4
42
0.0000001000
43
0.0000001000
44
0.0000000001
12
10.5127366348
22
0.1285482347
32
0.0000000000
13
10.5126887827
23
0.1324037752
33
0.0000000000
40
0.0000000000
40
0.0000000000
40
0.0000000000
40
0.0000000000
40
0.3305821069
40
0.6637771047
40
1.0000000000
40
1.0000000000
40
1.0000000000
40
1.0000000000
10
-45.4241171939
20
9.6241305957
30
0.0000000000
10
-44.2656763186
20
9.6382958444
30
0.0000000000
10
-41.9396400099
20
9.6668737211
30
0.0000000000
10
-38.4354021470
20
9.7103474654
30
0.0000000000
10
-36.0896062623
20
9.7397418881
30
0.0000000000
10
-34.9114040424
20
9.7545809483
30
0.0000000000
11
-45.4241171939
21
9.6241305957
31
0.0000000000
11
-41.9487970696
21
9.6668304290
31
0.0000000000
11
-38.4460135223
21
9.7102882519
31
0.0000000000
11
-34.9114040424
21
9.7545809483
31
0.0000000000
0
SPLINE
5
3FE
100
AcDbEntity
8
0
100
AcDbSpline
62
9
6
CONTINUOUS
70
0
71
3
72
9
73
5
74
3
42
0.0000001000
43
0.0000001000
44
0.0000000001
12
-1.1518020495
22
0.4263588418
32
0.0000000000
13
-1.1520868083
23
0.4255887796
33
0.0000000000
40
0.0000000000
40
0.0000000000
40
0.0000000000
40
0.0000000000
40
0.4971452845
40
1.0000000000
40
1.0000000000
40
1.0000000000
40
1.0000000000
10
-41.7645711783
20
8.7648032663
30
0.0000000000
10
-41.9554421641
20
8.8354573622
30
0.0000000000
10
-42.3394018619
20
8.9775076066
30
0.0000000000
10
-42.7234090795
20
9.1194293345
30
0.0000000000
10
-42.9165198409
20
9.1907657760
30
0.0000000000
11
-41.7645711783
21
8.7648032663
31
0.0000000000
11
-42.3372214152
21
8.9766648172
31
0.0000000000
11
-42.9165198409
21
9.1907657760
31
0.0000000000
0
SPLINE
5
3FF
100
AcDbEntity
8
0
100
AcDbSpline
62
9
6
CONTINUOUS
70
0
71
3
72
10
73
6
74
4
42
0.0000001000
43
0.0000001000
44
0.0000000001
12
-3.7500961117
22
1.3841720547
32
0.0000000000
13
-3.7520783747
23
1.3787896845
33
0.0000000000
40
0.0000000000
40
0.0000000000
40
0.0000000000
40
0.0000000000
40
0.3253886620
40
0.6586045818
40
1.0000000000
40
1.0000000000
40
1.0000000000
40
1.0000000000
10
-41.8482297392
20
8.2789875253
30
0.0000000000
10
-42.2549759913
20
8.4291188230
30
0.0000000000
10
-43.0783443936
20
8.7327447810
30
0.0000000000
10
-44.3287497073
20
9.1931230225
30
0.0000000000
10
-45.1724232598
20
9.5033299080
30
0.0000000000
10
-45.5994040485
20
9.6602340683
30
0.0000000000
11
-41.8482297392
21
8.2789875253
31
0.0000000000
11
-43.0685966377
21
8.7290340941
31
0.0000000000
11
-44.3185551874
21
9.1892672118
31
0.0000000000
11
-45.5994040485
21
9.6602340683
31
0.0000000000
0
SPLINE
5
400
100
AcDbEntity
8
0
100
AcDbSpline
62
7
6
CONTINUOUS
70
0
71
3
72
12
73
8
74
6
42
0.0000001000
43
0.0000001000
44
0.0000000001
12
2.5072773593
22
-0.4352125407
32
0.0000000000
13
2.5076436987
23
-0.4330967469
33
0.0000000000
40
0.0000000000
40
0.0000000000
40
0.0000000000
40
0.0000000000
40
0.1942626189
40
0.3937837520
40
0.5952387307
40
0.7976169375
40
1.0000000000
40
1.0000000000
40
1.0000000000
40
1.0000000000
10
-45.4241171938
20
9.6241305936
30
0.0000000000
10
-45.2617604385
20
9.5959487510
30
0.0000000000
10
-44.9326179300
20
9.5390190852
30
0.0000000000
10
-44.4350782373
20
9.4530339672
30
0.0000000000
10
-43.9307464942
20
9.3659256657
30
0.0000000000
10
-43.4240209111
20
9.2784135321
30
0.0000000000
10
-43.0856880458
20
9.2199829247
30
0.0000000000
10
-42.9165198420
20
9.1907657760
30
0.0000000000
11
-45.4241171938
21
9.6241305936
31
0.0000000000
11
-44.9370113246
21
9.5397904340
31
0.0000000000
11
-44.4366932727
21
9.4533214084
31
0.0000000000
11
-43.9315179350
21
9.3660605060
31
0.0000000000
11
-43.4240249741
21
9.2784142078
31
0.0000000000
11
-42.9165198420
21
9.1907657760
31
0.0000000000
0
SPLINE
5
401
100
AcDbEntity
8
0
100
AcDbSpline
62
9
6
CONTINUOUS
70
0
71
3
72
10
73
6
74
4
42
0.0000001000
43
0.0000001000
44
0.0000000001
12
-6.4411272719
22
0.0912108341
32
0.0000000000
13
-6.4411434656
23
0.0900600008
33
0.0000000000
40
0.0000000000
40
0.0000000000
40
0.0000000000
40
0.0000000000
40
0.3343160517
40
0.6676493855
40
1.0000000000
40
1.0000000000
40
1.0000000000
40
1.0000000000
10
-35.4070406636
20
8.1893016295
30
0.0000000000
10
-36.1248314097
20
8.1994660448
30
0.0000000000
10
-37.5583035825
20
8.2197213924
30
0.0000000000
10
-39.7053487480
20
8.2499308663
30
0.0000000000
10
-41.1346034370
20
8.2699563623
30
0.0000000000
10
-41.8481760999
20
8.2799335278
30
0.0000000000
11
-35.4070406636
21
8.1893016295
31
0.0000000000
11
-37.5604138246
21
8.2197296403
31
0.0000000000
11
-39.7074589880
21
8.2499393749
31
0.0000000000
11
-41.8481760999
21
8.2799335278
31
0.0000000000
0
SPLINE
5
402
100
AcDbEntity
8
0
100
AcDbSpline
62
7
6
CONTINUOUS
70
0
71
3
72
11
73
7
74
5
42
0.0000001000
43
0.0000001000
44
0.0000000001
12
0.0555751964
22
0.4889114069
32
0.0000000000
13
0.0900703774
23
0.4837461042
33
0.0000000000
40
0.0000000000
40
0.0000000000
40
0.0000000000
40
0.0000000000
40
0.1347611297
40
0.3651230106
40
0.6645977954
40
1.0000000000
40
1.0000000000
40
1.0000000000
40
1.0000000000
10
-41.8481760999
20
8.2799335278
30
0.0000000000
10
-41.8456796412
20
8.3018956123
30
0.0000000000
10
-41.8362113400
20
8.3610592844
30
0.0000000000
10
-41.8182726129
20
8.4685635291
30
0.0000000000
10
-41.7934044678
20
8.6082937697
30
0.0000000000
10
-41.7746409451
20
8.7107200941
30
0.0000000000
10
-41.7645710107
20
8.7648032640
30
0.0000000000
11
-41.8481760999
21
8.2799335278
31
0.0000000000
11
-41.8386377161
21
8.3455544726
31
0.0000000000
11
-41.8199628736
21
8.4573573882
31
0.0000000000
11
-41.7943221928
21
8.6024690323
31
0.0000000000
11
-41.7645710107
21
8.7648032640
31
0.0000000000
0
SPLINE
5
403
100
AcDbEntity
8
0
100
AcDbSpline
62
9
6
CONTINUOUS
70
0
71
3
72
10
73
6
74
4
42
0.0000001000
43
0.0000001000
44
0.0000000001
12
-6.3575224010
22
0.0885857774
32
0.0000000000
13
-6.3575384395
23
0.0874271676
33
0.0000000000
40
0.0000000000
40
0.0000000000
40
0.0000000000
40
0.0000000000
40
0.3343031803
40
0.6676365062
40
1.0000000000
40
1.0000000000
40
1.0000000000
40
1.0000000000
10
-35.4070406867
20
8.6768006070
30
0.0000000000
10
-36.1154873392
20
8.6866721093
30
0.0000000000
10
-37.5303259667
20
8.7063425173
30
0.0000000000
10
-39.6495028179
20
8.7356755153
30
0.0000000000
10
-41.0602332823
20
8.7551174000
30
0.0000000000
10
-41.7645711783
20
8.7648032663
30
0.0000000000
11
-35.4070406867
21
8.6768006070
31
0.0000000000
11
-37.5323815592
21
8.7063493720
31
0.0000000000
11
-39.6515583579
21
8.7356826517
31
0.0000000000
11
-41.7645711783
21
8.7648032663
31
0.0000000000
0
SPLINE
5
404
100
AcDbEntity
8
0
100
AcDbSpline
62
9
6
CONTINUOUS
70
0
71
3
72
10
73
6
74
4
42
0.0000001000
43
0.0000001000
44
0.0000000001
12
6.3575384395
22
0.0874271676
32
0.0000000000
13
6.3575224010
23
0.0885857774
33
0.0000000000
40
0.0000000000
40
0.0000000000
40
0.0000000000
40
0.0000000000
40
0.3323634938
40
0.6656968196
40
1.0000000000
40
1.0000000000
40
1.0000000000
40
1.0000000000
10
-41.7645711783
20
-4.6897697582
30
0.0000000000
10
-41.0602332825
20
-4.6800838919
30
0.0000000000
10
-39.6495028181
20
-4.6606420072
30
0.0000000000
10
-37.5303259669
20
-4.6313090091
30
0.0000000000
10
-36.1154873393
20
-4.6116386012
30
0.0000000000
10
-35.4070406867
20
-4.6017670988
30
0.0000000000
11
-41.7645711783
21
-4.6897697582
31
0.0000000000
11
-39.6515583584
21
-4.6606491436
31
0.0000000000
11
-37.5323815595
21
-4.6313158639
31
0.0000000000
11
-35.4070406867
21
-4.6017670988
31
0.0000000000
0
SPLINE
5
405
100
AcDbEntity
8
0
100
AcDbSpline
62
9
6
CONTINUOUS
70
0
71
3
72
10
73
6
74
4
42
0.0000001000
43
0.0000001000
44
0.0000000001
12
6.4411434660
22
0.0900600008
32
0.0000000000
13
6.4411272722
23
0.0912108341
33
0.0000000000
40
0.0000000000
40
0.0000000000
40
0.0000000000
40
0.0000000000
40
0.3323506140
40
0.6656839474
40
1.0000000000
40
1.0000000000
40
1.0000000000
40
1.0000000000
10
-41.8481761003
20
-4.2049000197
30
0.0000000000
10
-41.1346034383
20
-4.1949228542
30
0.0000000000
10
-39.7053487511
20
-4.1748973582
30
0.0000000000
10
-37.5583035856
20
-4.1446878843
30
0.0000000000
10
-36.1248314117
20
-4.1244325367
30
0.0000000000
10
-35.4070406636
20
-4.1142681214
30
0.0000000000
11
-41.8481761003
21
-4.2049000197
31
0.0000000000
11
-39.7074589912
21
-4.1749058668
31
0.0000000000
11
-37.5604138306
21
-4.1446961323
31
0.0000000000
11
-35.4070406636
21
-4.1142681214
31
0.0000000000
0
SPLINE
5
406
100
AcDbEntity
8
0
100
AcDbSpline
62
9
6
CONTINUOUS
70
0
71
3
72
9
73
5
74
3
42
0.0000001000
43
0.0000001000
44
0.0000000001
12
1.1520868086
22
0.4255887806
32
0.0000000000
13
1.1518020506
23
0.4263588407
33
0.0000000000
40
0.0000000000
40
0.0000000000
40
0.0000000000
40
0.0000000000
40
0.5028547155
40
1.0000000000
40
1.0000000000
40
1.0000000000
40
1.0000000000
10
-42.9165198416
20
-5.1157322679
30
0.0000000000
10
-42.7234090801
20
-5.0443958262
30
0.0000000000
10
-42.3394018625
20
-4.9024740979
30
0.0000000000
10
-41.9554421643
20
-4.7604238539
30
0.0000000000
10
-41.7645711783
20
-4.6897697582
30
0.0000000000
11
-42.9165198416
21
-5.1157322679
31
0.0000000000
11
-42.3372214157
21
-4.9016313087
31
0.0000000000
11
-41.7645711783
21
-4.6897697582
31
0.0000000000
0
SPLINE
5
407
100
AcDbEntity
8
0
100
AcDbSpline
62
7
6
CONTINUOUS
70
0
71
3
72
12
73
8
74
6
42
0.0000001000
43
0.0000001000
44
0.0000000001
12
2.5072773585
22
0.4352125407
32
0.0000000000
13
2.5076436979
23
0.4330967475
33
0.0000000000
40
0.0000000000
40
0.0000000000
40
0.0000000000
40
0.0000000000
40
0.1942626189
40
0.3937837520
40
0.5952387307
40
0.7976169375
40
1.0000000000
40
1.0000000000
40
1.0000000000
40
1.0000000000
10
-45.4241171938
20
-5.5490970855
30
0.0000000000
10
-45.2617604385
20
-5.5209152428
30
0.0000000000
10
-44.9326179301
20
-5.4639855771
30
0.0000000000
10
-44.4350782375
20
-5.3780004592
30
0.0000000000
10
-43.9307464945
20
-5.2908921577
30
0.0000000000
10
-43.4240209116
20
-5.2033800241
30
0.0000000000
10
-43.0856880465
20
-5.1449494166
30
0.0000000000
10
-42.9165198427
20
-5.1157322679
30
0.0000000000
11
-45.4241171938
21
-5.5490970855
31
0.0000000000
11
-44.9370113247
21
-5.4647569259
31
0.0000000000
11
-44.4366932729
21
-5.3782879004
31
0.0000000000
11
-43.9315179353
21
-5.2910269980
31
0.0000000000
11
-43.4240249746
21
-5.2033806997
31
0.0000000000
11
-42.9165198427
21
-5.1157322679
31
0.0000000000
0
SPLINE
5
408
100
AcDbEntity
8
0
100
AcDbSpline
62
9
6
CONTINUOUS
70
0
71
3
72
10
73
6
74
4
42
0.0000001000
43
0.0000001000
44
0.0000000001
12
3.7520783744
22
1.3787896847
32
0.0000000000
13
3.7500961123
23
1.3841720525
33
0.0000000000
40
0.0000000000
40
0.0000000000
40
0.0000000000
40
0.0000000000
40
0.3413954182
40
0.6746113380
40
1.0000000000
40
1.0000000000
40
1.0000000000
40
1.0000000000
10
-45.5994040483
20
-5.5852005601
30
0.0000000000
10
-45.1724232596
20
-5.4282963998
30
0.0000000000
10
-44.3287497072
20
-5.1180895143
30
0.0000000000
10
-43.0783443935
20
-4.6577112729
30
0.0000000000
10
-42.2549759914
20
-4.3540853146
30
0.0000000000
10
-41.8482297392
20
-4.2039540172
30
0.0000000000
11
-45.5994040483
21
-5.5852005601
31
0.0000000000
11
-44.3185551873
21
-5.1142337036
31
0.0000000000
11
-43.0685966377
21
-4.6540005859
31
0.0000000000
11
-41.8482297392
21
-4.2039540172
31
0.0000000000
0
SPLINE
5
409
100
AcDbEntity
8
0
100
AcDbSpline
62
7
6
CONTINUOUS
70
0
71
3
72
11
73
7
74
5
42
0.0000001000
43
0.0000001000
44
0.0000000001
12
0.0555751898
22
-0.4889113506
32
0.0000000000
13
0.0900703667
23
-0.4837460486
33
0.0000000000
40
0.0000000000
40
0.0000000000
40
0.0000000000
40
0.0000000000
40
0.1347611447
40
0.3651230526
40
0.6645978727
40
1.0000000000
40
1.0000000000
40
1.0000000000
40
1.0000000000
10
-41.8481761003
20
-4.2049000197
30
0.0000000000
10
-41.8456796415
20
-4.2268621041
30
0.0000000000
10
-41.8362113403
20
-4.2860257762
30
0.0000000000
10
-41.8182726134
20
-4.3935300210
30
0.0000000000
10
-41.7934044707
20
-4.5332602429
30
0.0000000000
10
-41.7746409530
20
-4.6356865491
30
0.0000000000
10
-41.7645710221
20
-4.6897697004
30
0.0000000000
11
-41.8481761003
21
-4.2049000197
31
0.0000000000
11
-41.8386377164
21
-4.2705209642
31
0.0000000000
11
-41.8199628740
21
-4.3823238800
31
0.0000000000
11
-41.7943221929
21
-4.5274355245
31
0.0000000000
11
-41.7645710221
21
-4.6897697004
31
0.0000000000
0
SPLINE
5
40A
100
AcDbEntity
8
0
100
AcDbSpline
62
9
6
CONTINUOUS
70
0
71
3
72
9
73
5
74
3
42
0.0000001000
43
0.0000001000
44
0.0000000001
12
-8.0007392473
22
0.0967910084
32
0.0000000000
13
-8.0007662635
23
0.0945314739
33
0.0000000000
40
0.0000000000
40
0.0000000000
40
0.0000000000
40
0.0000000000
40
0.5022263372
40
1.0000000000
40
1.0000000000
40
1.0000000000
40
1.0000000000
10
-34.9157668668
20
-5.2113801657
30
0.0000000000
10
-36.2551608559
20
-5.1951765011
30
0.0000000000
10
-38.9220763122
20
-5.1631087791
30
0.0000000000
10
-41.5889962656
20
-5.1314173606
30
0.0000000000
10
-42.9165198416
20
-5.1157322679
30
0.0000000000
11
-34.9157668668
21
-5.2113801657
31
0.0000000000
11
-38.9339523528
21
-5.1630609075
31
0.0000000000
11
-42.9165198416
21
-5.1157322679
31
0.0000000000
0
SPLINE
5
40B
100
AcDbEntity
8
0
100
AcDbSpline
62
7
6
CONTINUOUS
70
0
71
3
72
17
73
13
74
11
42
0.0000001000
43
0.0000001000
44
0.0000000001
12
-0.0000310699
22
0.5583749433
32
0.0000000000
13
-0.5498603583
23
0.0969886341
33
0.0000000000
40
0.0000000000
40
0.0000000000
40
0.0000000000
40
0.0000000000
40
0.0766203927
40
0.1821702984
40
0.2877052708
40
0.3932416934
40
0.4987749588
40
0.6043050796
40
0.7098417813
40
0.8153828644
40
0.9209532532
40
1.0000000000
40
1.0000000000
40
1.0000000000
40
1.0000000000
10
-43.9157672535
20
-18.0306988471
30
0.0000000000
10
-43.9157680471
20
-18.0164378779
30
0.0000000000
10
-43.9175830331
20
-17.9825062910
30
0.0000000000
10
-43.9272349162
20
-17.9296849238
30
0.0000000000
10
-43.9462776718
20
-17.8737310898
30
0.0000000000
10
-43.9733277317
20
-17.8211858585
30
0.0000000000
10
-44.0077984295
20
-17.7731811013
30
0.0000000000
10
-44.0489435465
20
-17.7307573463
30
0.0000000000
10
-44.0958717099
20
-17.6948335189
30
0.0000000000
10
-44.1475753798
20
-17.6661841441
30
0.0000000000
10
-44.1982837126
20
-17.6471760894
30
0.0000000000
10
-44.2318194560
20
-17.6393359566
30
0.0000000000
10
-44.2463076802
20
-17.6367804113
30
0.0000000000
11
-43.9157672535
21
-18.0306988471
31
0.0000000000
11
-43.9180548531
21
-17.9879807558
31
0.0000000000
11
-43.9286391096
21
-17.9300449710
31
0.0000000000
11
-43.9476122940
21
-17.8742989530
31
0.0000000000
11
-43.9745648990
21
-17.8219419799
31
0.0000000000
11
-44.0089111855
21
-17.7741108116
31
0.0000000000
11
-44.0499062796
21
-17.7318416301
31
0.0000000000
11
-44.0966658714
21
-17.6960470153
31
0.0000000000
11
-44.1481761418
21
-17.6675041727
31
0.0000000000
11
-44.2033349054
21
-17.6468295794
31
0.0000000000
11
-44.2463076802
21
-17.6367804113
31
0.0000000000
0
SPLINE
5
40C
100
AcDbEntity
8
0
100
AcDbSpline
62
7
6
CONTINUOUS
70
0
71
3
72
9
73
5
74
3
42
0.0000001000
43
0.0000001000
44
0.0000000001
12
-9.6694592711
22
1.7049865584
32
0.0000000000
13
-9.6694592711
23
1.7049865584
33
0.0000000000
40
0.0000000000
40
0.0000000000
40
0.0000000000
40
0.0000000000
40
0.9601439856
40
1.0000000000
40
1.0000000000
40
1.0000000000
40
1.0000000000
10
-44.2463075958
20
-17.6367799326
30
0.0000000000
10
-47.3409986502
20
-17.0911024027
30
0.0000000000
10
-50.5641517406
20
-16.5227735500
30
0.0000000000
10
-53.7873048309
20
-15.9544446972
30
0.0000000000
10
-53.9157668668
20
-15.9317933742
30
0.0000000000
11
-44.2463075958
21
-17.6367799326
31
0.0000000000
11
-53.5303807591
21
-15.9997473430
31
0.0000000000
11
-53.9157668668
21
-15.9317933742
31
0.0000000000
0
SPLINE
5
40D
100
AcDbEntity
8
0
100
AcDbSpline
62
7
6
CONTINUOUS
70
0
71
3
72
9
73
5
74
3
42
0.0000001000
43
0.0000001000
44
0.0000000001
12
9.6694621821
22
1.7049870716
32
0.0000000000
13
9.6694621821
23
1.7049870716
33
0.0000000000
40
0.0000000000
40
0.0000000000
40
0.0000000000
40
0.0000000000
40
0.0397205295
40
1.0000000000
40
1.0000000000
40
1.0000000000
40
1.0000000000
10
-53.9157668668
20
20.0068268824
30
0.0000000000
10
-53.7877414809
20
20.0294012121
30
0.0000000000
10
-50.5645874203
20
20.5977302360
30
0.0000000000
10
-47.3414333596
20
21.1660592599
30
0.0000000000
10
-44.2463046847
20
21.7118139540
30
0.0000000000
11
-53.9157668668
21
20.0068268824
31
0.0000000000
11
-53.5316907092
21
20.0745498716
31
0.0000000000
11
-44.2463046847
21
21.7118139540
31
0.0000000000
0
SPLINE
5
40E
100
AcDbEntity
8
0
100
AcDbSpline
62
7
6
CONTINUOUS
70
0
71
3
72
17
73
13
74
11
42
0.0000001000
43
0.0000001000
44
0.0000000001
12
0.5498871686
22
0.0969960956
32
0.0000000000
13
0.0000266899
23
0.5583498527
33
0.0000000000
40
0.0000000000
40
0.0000000000
40
0.0000000000
40
0.0000000000
40
0.0766687330
40
0.1822393050
40
0.2877782418
40
0.3933108431
40
0.4988358747
40
0.6043629824
40
0.7098952318
40
0.8154295267
40
0.9209854040
40
1.0000000000
40
1.0000000000
40
1.0000000000
40
1.0000000000
10
-44.2463047793
20
21.7118144898
30
0.0000000000
10
-44.2322517284
20
21.7142933458
30
0.0000000000
10
-44.1991383663
20
21.7219769146
30
0.0000000000
10
-44.1487837570
20
21.7406626220
30
0.0000000000
10
-44.0969862828
20
21.7691399473
30
0.0000000000
10
-44.0499408671
20
21.8049067954
30
0.0000000000
10
-44.0086569293
20
21.8471916131
30
0.0000000000
10
-43.9740281375
20
21.8950790445
30
0.0000000000
10
-43.9468038721
20
21.9475320362
30
0.0000000000
10
-43.9275740406
20
22.0034222169
30
0.0000000000
10
-43.9176641847
20
22.0566515365
30
0.0000000000
10
-43.9157679097
20
22.0910306126
30
0.0000000000
10
-43.9157672067
20
22.1057365420
30
0.0000000000
11
-44.2463047793
21
21.7118144898
31
0.0000000000
11
-44.2046068368
21
21.7214927643
31
0.0000000000
11
-44.1493797192
21
21.7419847407
31
0.0000000000
11
-44.0977760888
21
21.7703562344
31
0.0000000000
11
-44.0508997696
21
21.8059942854
31
0.0000000000
11
-44.0097663399
21
21.8481250760
31
0.0000000000
11
-43.9752628784
21
21.8958389118
31
0.0000000000
11
-43.9481367450
21
21.9481037158
31
0.0000000000
11
-43.9289774788
21
22.0037857936
31
0.0000000000
11
-43.9181994570
21
22.0616893681
31
0.0000000000
11
-43.9157672067
21
22.1057365420
31
0.0000000000
0
SPLINE
5
40F
100
AcDbEntity
8
0
100
AcDbSpline
62
7
6
CONTINUOUS
70
0
71
3
72
18
73
14
74
12
42
0.0000001000
43
0.0000001000
44
0.0000000001
12
-0.2428384228
22
0.1538204419
32
0.0000000000
13
-0.2489103762
23
0.1437121207
33
0.0000000000
40
0.0000000000
40
0.0000000000
40
0.0000000000
40
0.0000000000
40
0.0123761700
40
0.0480657717
40
0.1047134009
40
0.1797548254
40
0.2705332114
40
0.3743809030
40
0.4886669468
40
0.6108219308
40
0.7383513333
40
0.8688464797
40
1.0000000000
40
1.0000000000
40
1.0000000000
40
1.0000000000
10
-53.9157668668
20
25.7375167541
30
0.0000000000
10
-53.9167686700
20
25.7381513234
30
0.0000000000
10
-53.9206832090
20
25.7405766277
30
0.0000000000
10
-53.9293572822
20
25.7456194827
30
0.0000000000
10
-53.9431812405
20
25.7537453255
30
0.0000000000
10
-53.9616026462
20
25.7644664084
30
0.0000000000
10
-53.9839352633
20
25.7774563672
30
0.0000000000
10
-54.0095326433
20
25.7923117620
30
0.0000000000
10
-54.0377381062
20
25.8086619235
30
0.0000000000
10
-54.0679149172
20
25.8261353961
30
0.0000000000
10
-54.0994427980
20
25.8443746323
30
0.0000000000
10
-54.1317236414
20
25.8630339515
30
0.0000000000
10
-54.1534306100
20
25.8755715378
30
0.0000000000
10
-54.1643124340
20
25.8818543214
30
0.0000000000
11
-53.9157668668
21
25.7375167541
31
0.0000000000
11
-53.9187889783
21
25.7393929504
31
0.0000000000
11
-53.9276178111
21
25.7446155390
31
0.0000000000
11
-53.9416672952
21
25.7528436755
31
0.0000000000
11
-53.9602999020
21
25.7637072903
31
0.0000000000
11
-53.9828549393
21
25.7768233901
31
0.0000000000
11
-54.0086688706
21
25.7918077373
31
0.0000000000
11
-54.0370871563
21
25.8082816297
31
0.0000000000
11
-54.0674704512
21
25.8258754317
31
0.0000000000
11
-54.0991979410
21
25.8442304670
31
0.0000000000
11
-54.1316700778
21
25.8630005752
31
0.0000000000
11
-54.1643124340
21
25.8818543214
31
0.0000000000
0
SPLINE
5
410
100
AcDbEntity
8
0
100
AcDbSpline
62
7
6
CONTINUOUS
70
0
71
3
72
18
73
14
74
12
42
0.0000001000
43
0.0000001000
44
0.0000000001
12
0.0000000000
22
0.2499957692
32
0.0000000000
13
0.0000000000
23
0.2499957692
33
0.0000000000
40
0.0000000000
40
0.0000000000
40
0.0000000000
40
0.0000000000
40
0.1423149498
40
0.2817329607
40
0.4154158922
40
0.5406422499
40
0.6548626354
40
0.7557517020
40
0.8412555461
40
0.9096335594
40
0.9594938813
40
0.9898217243
40
1.0000000000
40
1.0000000000
40
1.0000000000
40
1.0000000000
10
-54.9157668668
20
26.2875209849
30
0.0000000000
10
-54.9157668668
20
26.2993803633
30
0.0000000000
10
-54.9157668668
20
26.3228577127
30
0.0000000000
10
-54.9157668668
20
26.3574751179
30
0.0000000000
10
-54.9157668668
20
26.3906684978
30
0.0000000000
10
-54.9157668668
20
26.4217621112
30
0.0000000000
10
-54.9157668668
20
26.4501229487
30
0.0000000000
10
-54.9157668668
20
26.4751736328
30
0.0000000000
10
-54.9157668668
20
26.4964041838
30
0.0000000000
10
-54.9157668668
20
26.5133824114
30
0.0000000000
10
-54.9157668668
20
26.5257627167
30
0.0000000000
10
-54.9157668668
20
26.5332931260
30
0.0000000000
10
-54.9157668668
20
26.5366685788
30
0.0000000000
10
-54.9157668668
20
26.5375167541
30
0.0000000000
11
-54.9157668668
21
26.2875209849
31
0.0000000000
11
-54.9157668668
21
26.3230991202
31
0.0000000000
11
-54.9157668668
21
26.3579530331
31
0.0000000000
11
-54.9157668668
21
26.3913732004
31
0.0000000000
11
-54.9157668668
21
26.4226792600
31
0.0000000000
11
-54.9157668668
21
26.4512338731
31
0.0000000000
11
-54.9157668668
21
26.4764557129
31
0.0000000000
11
-54.9157668668
21
26.4978313122
31
0.0000000000
11
-54.9157668668
21
26.5149255262
31
0.0000000000
11
-54.9157668668
21
26.5273903958
31
0.0000000000
11
-54.9157668668
21
26.5349722282
31
0.0000000000
11
-54.9157668668
21
26.5375167541
31
0.0000000000
0
SPLINE
5
411
100
AcDbEntity
8
0
100
AcDbSpline
62
9
6
CONTINUOUS
70
0
71
3
72
17
73
13
74
11
42
0.0000001000
43
0.0000001000
44
0.0000000001
12
-0.0014544205
22
0.2500021167
32
0.0000000000
13
0.2500021164
23
0.0014544698
33
0.0000000000
40
0.0000000000
40
0.0000000000
40
0.0000000000
40
0.0000000000
40
0.1564267502
40
0.3090012198
40
0.4539668239
40
0.5877543493
40
0.7070698590
40
0.8089758405
40
0.8909636355
40
0.9510155075
40
0.9876555928
40
1.0000000000
40
1.0000000000
40
1.0000000000
40
1.0000000000
10
-57.1672212997
20
26.2744224061
30
0.0000000000
10
-57.1672971364
20
26.2874580790
30
0.0000000000
10
-57.1674348895
20
26.3132079993
30
0.0000000000
10
-57.1676045801
20
26.3510411932
30
0.0000000000
10
-57.1677223288
20
26.3869789910
30
0.0000000000
10
-57.1678186718
20
26.4201747832
30
0.0000000000
10
-57.1677851880
20
26.4496886731
30
0.0000000000
10
-57.1679458332
20
26.4751651677
30
0.0000000000
10
-57.1673925660
20
26.4949342767
30
0.0000000000
10
-57.1684229213
20
26.5111346084
30
0.0000000000
10
-57.1662497969
20
26.5178723475
30
0.0000000000
10
-57.1682500090
20
26.5244121905
30
0.0000000000
10
-57.1672212997
20
26.5244181753
30
0.0000000000
11
-57.1672212997
21
26.2744224061
31
0.0000000000
11
-57.1674309048
21
26.3135295249
31
0.0000000000
11
-57.1675995376
21
26.3516737379
31
0.0000000000
11
-57.1677230459
21
26.3879158487
31
0.0000000000
11
-57.1677983886
21
26.4213634943
31
0.0000000000
11
-57.1678237107
21
26.4511931183
31
0.0000000000
11
-57.1677983886
21
26.4766702479
31
0.0000000000
11
-57.1677230459
21
26.4971675786
31
0.0000000000
11
-57.1675995376
21
26.5121804198
31
0.0000000000
11
-57.1674309048
21
26.5213391213
31
0.0000000000
11
-57.1672212997
21
26.5244181753
31
0.0000000000
0
SPLINE
5
412
100
AcDbEntity
8
0
100
AcDbSpline
62
9
6
CONTINUOUS
70
0
71
3
72
17
73
13
74
11
42
0.0000001000
43
0.0000001000
44
0.0000000001
12
-0.0000018747
22
0.0782480034
32
0.0000000000
13
-0.0771312930
23
0.0131724595
33
0.0000000000
40
0.0000000000
40
0.0000000000
40
0.0000000000
40
0.0000000000
40
0.1000238233
40
0.2002042074
40
0.3003750954
40
0.4005174987
40
0.5006174498
40
0.6006573611
40
0.7006296326
40
0.8005418873
40
0.9004022245
40
1.0000000000
40
1.0000000000
40
1.0000000000
40
1.0000000000
10
-44.2575827840
20
-18.0307030338
30
0.0000000000
10
-44.2575828465
20
-18.0280941456
30
0.0000000000
10
-44.2579483786
20
-18.0228647304
30
0.0000000000
10
-44.2595927919
20
-18.0151794965
30
0.0000000000
10
-44.2622944888
20
-18.0077944611
30
0.0000000000
10
-44.2660038616
20
-18.0008632744
30
0.0000000000
10
-44.2706438023
20
-17.9945215156
30
0.0000000000
10
-44.2761222775
20
-17.9888946122
30
0.0000000000
10
-44.2823286009
20
-17.9840903491
30
0.0000000000
10
-44.2891427726
20
-17.9802052636
30
0.0000000000
10
-44.2964198361
20
-17.9773073474
30
0.0000000000
10
-44.3014950889
20
-17.9760763248
30
0.0000000000
10
-44.3040557906
20
-17.9756390089
30
0.0000000000
11
-44.2575827840
21
-18.0307030338
31
0.0000000000
11
-44.2581304304
21
-18.0228955528
31
0.0000000000
11
-44.2597689858
21
-18.0152298026
31
0.0000000000
11
-44.2624628909
21
-18.0078691087
31
0.0000000000
11
-44.2661598579
21
-18.0009600972
31
0.0000000000
11
-44.2707850537
21
-17.9946389011
31
0.0000000000
11
-44.2762455120
21
-17.9890299993
31
0.0000000000
11
-44.2824318593
21
-17.9842422381
31
0.0000000000
11
-44.2892226370
21
-17.9803685529
31
0.0000000000
11
-44.2964830793
21
-17.9774802015
31
0.0000000000
11
-44.3040557906
21
-17.9756390089
31
0.0000000000
0
SPLINE
5
413
100
AcDbEntity
8
0
100
AcDbSpline
62
9
6
CONTINUOUS
70
0
71
3
72
17
73
13
74
11
42
0.0000001000
43
0.0000001000
44
0.0000000001
12
0.0014544205
22
0.2500021157
32
0.0000000000
13
-0.2500021155
23
0.0014544698
33
0.0000000000
40
0.0000000000
40
0.0000000000
40
0.0000000000
40
0.0000000000
40
0.1561543153
40
0.3087574079
40
0.4537555231
40
0.5875884578
40
0.7069466610
40
0.8088931984
40
0.8909155168
40
0.9509936983
40
0.9876501495
40
1.0000000000
40
1.0000000000
40
1.0000000000
40
1.0000000000
10
-54.1643124340
20
26.2831491508
30
0.0000000000
10
-54.1642367293
20
26.2961621206
30
0.0000000000
10
-54.1640990646
20
26.3218917237
30
0.0000000000
10
-54.1639293914
20
26.3597073078
30
0.0000000000
10
-54.1638115538
20
26.3956539829
30
0.0000000000
10
-54.1637151234
20
26.4288598325
30
0.0000000000
10
-54.1637485642
20
26.4583844205
30
0.0000000000
10
-54.1635877984
20
26.4838708086
30
0.0000000000
10
-54.1641412599
20
26.5036481352
30
0.0000000000
10
-54.1631103666
20
26.5198554718
30
0.0000000000
10
-54.1652844886
20
26.5265961715
30
0.0000000000
10
-54.1632832711
20
26.5331389326
30
0.0000000000
10
-54.1643124340
20
26.5331449201
30
0.0000000000
11
-54.1643124340
21
26.2831491508
31
0.0000000000
11
-54.1641031624
21
26.3221881598
31
0.0000000000
11
-54.1639344355
21
26.3603395283
31
0.0000000000
11
-54.1638108386
21
26.3965897666
31
0.0000000000
11
-54.1637354111
21
26.4300487646
31
0.0000000000
11
-54.1637100230
21
26.4598890621
31
0.0000000000
11
-54.1637352998
21
26.4853763309
31
0.0000000000
11
-54.1638106204
21
26.5058822927
31
0.0000000000
11
-54.1639341302
21
26.5209017115
31
0.0000000000
11
-54.1641027868
21
26.5300645049
31
0.0000000000
11
-54.1643124340
21
26.5331449201
31
0.0000000000
0
SPLINE
5
414
100
AcDbEntity
8
0
100
AcDbSpline
62
9
6
CONTINUOUS
70
0
71
3
72
9
73
5
74
3
42
0.0000001000
43
0.0000001000
44
0.0000000001
12
-9.6117110762
22
1.6380784523
32
0.0000000000
13
-9.6117110762
23
1.6380784523
33
0.0000000000
40
0.0000000000
40
0.0000000000
40
0.0000000000
40
0.0000000000
40
0.9629768794
40
1.0000000000
40
1.0000000000
40
1.0000000000
40
1.0000000000
10
-44.3040557906
20
-17.9756390089
30
0.0000000000
10
-47.3893409700
20
-17.4498284502
30
0.0000000000
10
-50.5932446620
20
-16.9038022994
30
0.0000000000
10
-53.7971483541
20
-16.3577761487
30
0.0000000000
10
-53.9157668668
20
-16.3375605566
30
0.0000000000
11
-44.3040557906
21
-17.9756390089
31
0.0000000000
11
-53.5599113287
21
-16.3982073327
31
0.0000000000
11
-53.9157668668
21
-16.3375605566
31
0.0000000000
0
SPLINE
5
415
100
AcDbEntity
8
0
100
AcDbSpline
62
9
6
CONTINUOUS
70
0
71
3
72
9
73
5
74
3
42
0.0000001000
43
0.0000001000
44
0.0000000001
12
9.6117110762
22
1.6380784523
32
0.0000000000
13
9.6117110762
23
1.6380784523
33
0.0000000000
40
0.0000000000
40
0.0000000000
40
0.0000000000
40
0.0000000000
40
0.0370231206
40
1.0000000000
40
1.0000000000
40
1.0000000000
40
1.0000000000
10
-53.9157668668
20
20.4125940648
30
0.0000000000
10
-53.7971483541
20
20.4328096568
30
0.0000000000
10
-50.5932446620
20
20.9788358076
30
0.0000000000
10
-47.3893409700
20
21.5248619583
30
0.0000000000
10
-44.3040557906
20
22.0506725171
30
0.0000000000
11
-53.9157668668
21
20.4125940648
31
0.0000000000
11
-53.5599113287
21
20.4732408408
31
0.0000000000
11
-44.3040557906
21
22.0506725171
31
0.0000000000
0
SPLINE
5
416
100
AcDbEntity
8
0
100
AcDbSpline
62
9
6
CONTINUOUS
70
0
71
3
72
17
73
13
74
11
42
0.0000001000
43
0.0000001000
44
0.0000000001
12
0.0771360883
22
0.0131443499
32
0.0000000000
13
0.0000320189
23
0.0782479969
33
0.0000000000
40
0.0000000000
40
0.0000000000
40
0.0000000000
40
0.0000000000
40
0.0995977756
40
0.1994581128
40
0.2993703674
40
0.3993426389
40
0.4993825502
40
0.5994825013
40
0.6996249046
40
0.7997957926
40
0.8999761767
40
1.0000000000
40
1.0000000000
40
1.0000000000
40
1.0000000000
10
-44.3040557906
20
22.0506725171
30
0.0000000000
10
-44.3014949297
20
22.0511088997
30
0.0000000000
10
-44.2964199101
20
22.0523412897
30
0.0000000000
10
-44.2891427528
20
22.0552386553
30
0.0000000000
10
-44.2823286060
20
22.0591238885
30
0.0000000000
10
-44.2761222768
20
22.0639281120
30
0.0000000000
10
-44.2706438003
20
22.0695550260
30
0.0000000000
10
-44.2660038705
20
22.0758967820
30
0.0000000000
10
-44.2622944552
20
22.0828279694
30
0.0000000000
10
-44.2595929172
20
22.0902130046
30
0.0000000000
10
-44.2579479114
20
22.0978982384
30
0.0000000000
10
-44.2575838516
20
22.1031276540
30
0.0000000000
10
-44.2575827840
20
22.1057365419
30
0.0000000000
11
-44.3040557906
21
22.0506725171
31
0.0000000000
11
-44.2964830793
21
22.0525137095
31
0.0000000000
11
-44.2892226370
21
22.0554020611
31
0.0000000000
11
-44.2824318593
21
22.0592757462
31
0.0000000000
11
-44.2762455120
21
22.0640635074
31
0.0000000000
11
-44.2707850537
21
22.0696724092
31
0.0000000000
11
-44.2661598579
21
22.0759936053
31
0.0000000000
11
-44.2624628909
21
22.0829026168
31
0.0000000000
11
-44.2597689858
21
22.0902633108
31
0.0000000000
11
-44.2581304303
21
22.0979290609
31
0.0000000000
11
-44.2575827840
21
22.1057365419
31
0.0000000000
0
SPLINE
5
417
100
AcDbEntity
8
0
100
AcDbSpline
62
7
6
CONTINUOUS
70
0
71
3
72
11
73
7
74
5
42
0.0000001000
43
0.0000001000
44
0.0000000001
12
-0.1240362377
22
-0.0065920877
32
0.0000000000
13
-0.1240410600
23
-0.0065007165
33
0.0000000000
40
0.0000000000
40
0.0000000000
40
0.0000000000
40
0.0000000000
40
0.2612576226
40
0.5179302605
40
0.7655923258
40
1.0000000000
40
1.0000000000
40
1.0000000000
40
1.0000000000
10
-56.1672212997
20
24.3709277155
30
0.0000000000
10
-56.1780231038
20
24.3703536378
30
0.0000000000
10
-56.1994420306
20
24.3693058562
30
0.0000000000
10
-56.2311131520
20
24.3679868682
30
0.0000000000
10
-56.2616768170
20
24.3668039446
30
0.0000000000
10
-56.2816179500
20
24.3659355320
30
0.0000000000
10
-56.2913100088
20
24.3654275927
30
0.0000000000
11
-56.1672212997
21
24.3709277155
31
0.0000000000
11
-56.1996333922
21
24.3693361404
31
0.0000000000
11
-56.2314864817
21
24.3679872247
31
0.0000000000
11
-56.2622243069
21
24.3667572535
31
0.0000000000
11
-56.2913100088
21
24.3654275927
31
0.0000000000
0
SPLINE
5
418
100
AcDbEntity
8
0
100
AcDbSpline
62
9
6
CONTINUOUS
70
0
71
3
72
17
73
13
74
11
42
0.0000001000
43
0.0000001000
44
0.0000000001
12
-0.1246387852
22
-0.2158880155
32
0.0000000000
13
0.2158861888
23
-0.1246419492
33
0.0000000000
40
0.0000000000
40
0.0000000000
40
0.0000000000
40
0.0000000000
40
0.1564349741
40
0.3090912049
40
0.4540928199
40
0.5878920034
40
0.7071946998
40
0.8090744096
40
0.8910306741
40
0.9510531999
40
0.9876708992
40
1.0000000000
40
1.0000000000
40
1.0000000000
40
1.0000000000
10
-57.1672212997
20
25.8818543214
30
0.0000000000
10
-57.1737205880
20
25.8705968427
30
0.0000000000
10
-57.1865528923
20
25.8483489985
30
0.0000000000
10
-57.2053823639
20
25.8156479268
30
0.0000000000
10
-57.2232352590
20
25.7845653086
30
0.0000000000
10
-57.2397166084
20
25.7558569312
30
0.0000000000
10
-57.2542673301
20
25.7302800679
30
0.0000000000
10
-57.2669996839
20
25.7083040029
30
0.0000000000
10
-57.2762845836
20
25.6909164520
30
0.0000000000
10
-57.2852143647
20
25.6774184789
30
0.0000000000
10
-57.2866351978
20
25.6705051800
30
0.0000000000
10
-57.2916540943
20
25.6658602115
30
0.0000000000
10
-57.2907668668
20
25.6653479704
30
0.0000000000
11
-57.1672212997
21
25.8818543214
31
0.0000000000
11
-57.1867058042
21
25.8480741753
31
0.0000000000
11
-57.2056928835
21
25.8150945743
31
0.0000000000
11
-57.2237004168
21
25.7837528591
31
0.0000000000
11
-57.2402877875
21
25.7548159060
31
0.0000000000
11
-57.2550466010
21
25.7289961582
31
0.0000000000
11
-57.2676147943
21
25.7069270245
31
0.0000000000
11
-57.2776838566
21
25.6891502336
31
0.0000000000
11
-57.2850067140
21
25.6761019912
31
0.0000000000
11
-57.2894036404
21
25.6681025459
31
0.0000000000
11
-57.2907668668
21
25.6653479704
31
0.0000000000
0
SPLINE
5
419
100
AcDbEntity
8
0
100
AcDbSpline
62
7
6
CONTINUOUS
70
0
71
3
72
11
73
7
74
5
42
0.0000001000
43
0.0000001000
44
0.0000000001
12
0.1240410600
22
-0.0065007165
32
0.0000000000
13
0.1240362377
23
-0.0065920877
33
0.0000000000
40
0.0000000000
40
0.0000000000
40
0.0000000000
40
0.0000000000
40
0.2344076742
40
0.4820697395
40
0.7387423774
40
1.0000000000
40
1.0000000000
40
1.0000000000
40
1.0000000000
10
-56.2913100088
20
-20.2903940846
30
0.0000000000
10
-56.2816179500
20
-20.2909020238
30
0.0000000000
10
-56.2616768170
20
-20.2917704365
30
0.0000000000
10
-56.2311131520
20
-20.2929533601
30
0.0000000000
10
-56.1994420306
20
-20.2942723480
30
0.0000000000
10
-56.1780231038
20
-20.2953201296
30
0.0000000000
10
-56.1672212997
20
-20.2958942073
30
0.0000000000
11
-56.2913100088
21
-20.2903940846
31
0.0000000000
11
-56.2622243069
21
-20.2917237453
31
0.0000000000
11
-56.2314864817
21
-20.2929537165
31
0.0000000000
11
-56.1996333922
21
-20.2943026323
31
0.0000000000
11
-56.1672212997
21
-20.2958942073
31
0.0000000000
0
SPLINE
5
41A
100
AcDbEntity
8
0
100
AcDbSpline
62
7
6
CONTINUOUS
70
0
71
3
72
18
73
14
74
12
42
0.0000001000
43
0.0000001000
44
0.0000000001
12
-0.2489103781
22
0.1437121219
32
0.0000000000
13
-0.2428239465
23
0.1538435530
33
0.0000000000
40
0.0000000000
40
0.0000000000
40
0.0000000000
40
0.0000000000
40
0.1307874416
40
0.2611434307
40
0.3887126772
40
0.5110248916
40
0.6255186635
40
0.7295592100
40
0.8204622685
40
0.8955302131
40
0.9521106755
40
0.9876881245
40
1.0000000000
40
1.0000000000
40
1.0000000000
40
1.0000000000
10
-56.1672212997
20
-21.2294705440
30
0.0000000000
10
-56.1780727502
20
-21.2232052971
30
0.0000000000
10
-56.1997378090
20
-21.2106919302
30
0.0000000000
10
-56.2319800715
20
-21.1920549612
30
0.0000000000
10
-56.2635127816
20
-21.1738129912
30
0.0000000000
10
-56.2937231795
20
-21.1563201269
30
0.0000000000
10
-56.3219748923
20
-21.1399431884
30
0.0000000000
10
-56.3476158037
20
-21.1250625457
30
0.0000000000
10
-56.3699768823
20
-21.1120559620
30
0.0000000000
10
-56.3884052421
20
-21.1013308185
30
0.0000000000
10
-56.4022164393
20
-21.0932121618
30
0.0000000000
10
-56.4108703624
20
-21.0881810743
30
0.0000000000
10
-56.4147703274
20
-21.0857643443
30
0.0000000000
10
-56.4157668668
20
-21.0851329767
30
0.0000000000
11
-56.1672212997
21
-21.2294705440
31
0.0000000000
11
-56.1997725528
21
-21.2106694379
31
0.0000000000
11
-56.2322100841
21
-21.1919193835
31
0.0000000000
11
-56.2639475133
21
-21.1735586593
31
0.0000000000
11
-56.2943699401
21
-21.1559422530
31
0.0000000000
11
-56.3228398945
21
-21.1394384432
31
0.0000000000
11
-56.3487017647
21
-21.1244262681
31
0.0000000000
11
-56.3712877571
21
-21.1112921179
31
0.0000000000
11
-56.3899269001
21
-21.1004245800
31
0.0000000000
11
-56.4039596437
21
-21.0922060592
31
0.0000000000
11
-56.4127606119
21
-21.0869996785
31
0.0000000000
11
-56.4157668668
21
-21.0851329767
31
0.0000000000
0
SPLINE
5
41B
100
AcDbEntity
8
0
100
AcDbSpline
62
9
6
CONTINUOUS
70
0
71
3
72
17
73
13
74
11
42
0.0000001000
43
0.0000001000
44
0.0000000001
12
-0.1246387854
22
0.2158880158
32
0.0000000000
13
0.2158861891
23
0.1246419494
33
0.0000000000
40
0.0000000000
40
0.0000000000
40
0.0000000000
40
0.0000000000
40
0.1565592737
40
0.3092063087
40
0.4541964152
40
0.5879727648
40
0.7072536642
40
0.8091130967
40
0.8910525804
40
0.9510626868
40
0.9876732917
40
1.0000000000
40
1.0000000000
40
1.0000000000
40
1.0000000000
10
-57.1672212997
20
-21.8068208132
30
0.0000000000
10
-57.1737257522
20
-21.7955543896
30
0.0000000000
10
-57.1865628281
20
-21.7732982566
30
0.0000000000
10
-57.2053965741
20
-21.7405897124
30
0.0000000000
10
-57.2232476459
20
-21.7095102185
30
0.0000000000
10
-57.2397266497
20
-21.6808058772
30
0.0000000000
10
-57.2542746911
20
-21.6552336795
30
0.0000000000
10
-57.2670045504
20
-21.6332618695
30
0.0000000000
10
-57.2762875580
20
-21.6158778380
30
0.0000000000
10
-57.2852154844
20
-21.6023825944
30
0.0000000000
10
-57.2866360380
20
-21.5954706919
30
0.0000000000
10
-57.2916539222
20
-21.5908266039
30
0.0000000000
10
-57.2907668668
20
-21.5903144623
30
0.0000000000
11
-57.1672212997
21
-21.8068208132
31
0.0000000000
11
-57.1867212753
21
-21.7730138200
31
0.0000000000
11
-57.2057071893
21
-21.7400361931
31
0.0000000000
11
-57.2237132715
21
-21.7086969528
31
0.0000000000
11
-57.2402977897
21
-21.6797649256
31
0.0000000000
11
-57.2550538861
21
-21.6539498834
31
0.0000000000
11
-57.2676195583
21
-21.6318851308
31
0.0000000000
11
-57.2776865402
21
-21.6141119692
31
0.0000000000
11
-57.2850078647
21
-21.6010664166
31
0.0000000000
11
-57.2894039221
21
-21.5930685117
31
0.0000000000
11
-57.2907668668
21
-21.5903144623
31
0.0000000000
0
SPLINE
5
41C
100
AcDbEntity
8
0
100
AcDbSpline
62
7
6
CONTINUOUS
70
0
71
3
72
18
73
14
74
12
42
0.0000001000
43
0.0000001000
44
0.0000000001
12
0.2428384228
22
0.1538204419
32
0.0000000000
13
0.2489103762
23
0.1437121207
33
0.0000000000
40
0.0000000000
40
0.0000000000
40
0.0000000000
40
0.0000000000
40
0.0123761700
40
0.0480657717
40
0.1047134009
40
0.1797548254
40
0.2705332114
40
0.3743809030
40
0.4886669468
40
0.6108219308
40
0.7383513333
40
0.8688464797
40
1.0000000000
40
1.0000000000
40
1.0000000000
40
1.0000000000
10
-56.4157668668
20
25.1601664849
30
0.0000000000
10
-56.4147650636
20
25.1608010542
30
0.0000000000
10
-56.4108505246
20
25.1632263585
30
0.0000000000
10
-56.4021764515
20
25.1682692135
30
0.0000000000
10
-56.3883524931
20
25.1763950563
30
0.0000000000
10
-56.3699310875
20
25.1871161392
30
0.0000000000
10
-56.3475984703
20
25.2001060980
30
0.0000000000
10
-56.3220010904
20
25.2149614928
30
0.0000000000
10
-56.2937956274
20
25.2313116543
30
0.0000000000
10
-56.2636188165
20
25.2487851269
30
0.0000000000
10
-56.2320909356
20
25.2670243631
30
0.0000000000
10
-56.1998100922
20
25.2856836823
30
0.0000000000
10
-56.1781031237
20
25.2982212687
30
0.0000000000
10
-56.1672212997
20
25.3045040522
30
0.0000000000
11
-56.4157668668
21
25.1601664849
31
0.0000000000
11
-56.4127447554
21
25.1620426812
31
0.0000000000
11
-56.4039159225
21
25.1672652698
31
0.0000000000
11
-56.3898664385
21
25.1754934063
31
0.0000000000
11
-56.3712338316
21
25.1863570211
31
0.0000000000
11
-56.3486787944
21
25.1994731209
31
0.0000000000
11
-56.3228648630
21
25.2144574682
31
0.0000000000
11
-56.2944465774
21
25.2309313605
31
0.0000000000
11
-56.2640632824
21
25.2485251625
31
0.0000000000
11
-56.2323357926
21
25.2668801978
31
0.0000000000
11
-56.1998636559
21
25.2856503060
31
0.0000000000
11
-56.1672212997
21
25.3045040522
31
0.0000000000
0
SPLINE
5
41D
100
AcDbEntity
8
0
100
AcDbSpline
62
7
6
CONTINUOUS
70
0
71
3
72
9
73
5
74
3
42
0.0000001000
43
0.0000001000
44
0.0000000001
12
-5.9999994466
22
-0.0149567108
32
0.0000000000
13
-6.0000005366
23
-0.0145129445
33
0.0000000000
40
0.0000000000
40
0.0000000000
40
0.0000000000
40
0.0000000000
40
0.7020091173
40
1.0000000000
40
1.0000000000
40
1.0000000000
40
1.0000000000
10
-47.9157668577
20
12.9636570180
30
0.0000000000
10
-49.3197849628
20
12.9601571022
30
0.0000000000
10
-51.3197849171
20
12.9552270297
30
0.0000000000
10
-53.3197850461
20
12.9503687534
30
0.0000000000
10
-53.9157668648
20
12.9489271783
30
0.0000000000
11
-47.9157668577
21
12.9636570180
31
0.0000000000
11
-52.1278214539
21
12.9532705729
31
0.0000000000
11
-53.9157668648
21
12.9489271783
31
0.0000000000
0
SPLINE
5
41E
100
AcDbEntity
8
0
100
AcDbSpline
62
7
6
CONTINUOUS
70
0
71
3
72
9
73
5
74
3
42
0.0000001000
43
0.0000001000
44
0.0000000001
12
-5.9999994537
22
0.0149567108
32
0.0000000000
13
-6.0000005438
23
0.0145129446
33
0.0000000000
40
0.0000000000
40
0.0000000000
40
0.0000000000
40
0.0000000000
40
0.7020091173
40
1.0000000000
40
1.0000000000
40
1.0000000000
40
1.0000000000
10
-47.9157668526
20
13.6113764901
30
0.0000000000
10
-49.3197849594
20
13.6148764059
30
0.0000000000
10
-51.3197849161
20
13.6198064784
30
0.0000000000
10
-53.3197850475
20
13.6246647548
30
0.0000000000
10
-53.9157668669
20
13.6261063298
30
0.0000000000
11
-47.9157668526
21
13.6113764901
31
0.0000000000
11
-52.1278214539
21
13.6217629352
31
0.0000000000
11
-53.9157668669
21
13.6261063298
31
0.0000000000
0
SPLINE
5
41F
100
AcDbEntity
8
0
100
AcDbSpline
62
7
6
CONTINUOUS
70
0
71
3
72
9
73
5
74
3
42
0.0000001000
43
0.0000001000
44
0.0000000001
12
-6.0000015425
22
0.0187358923
32
0.0000000000
13
-5.9999986146
23
0.0196427204
33
0.0000000000
40
0.0000000000
40
0.0000000000
40
0.0000000000
40
0.0000000000
40
0.8416663605
40
1.0000000000
40
1.0000000000
40
1.0000000000
40
1.0000000000
10
-47.9157669952
20
15.8147988700
30
0.0000000000
10
-49.5991001489
20
15.8200553268
30
0.0000000000
10
-51.5991016536
20
15.8259882291
30
0.0000000000
10
-53.5991013842
20
15.8324755840
30
0.0000000000
10
-53.9157685901
20
15.8335122852
30
0.0000000000
11
-47.9157669952
21
15.8147988700
31
0.0000000000
11
-52.9657668668
21
15.8304351509
31
0.0000000000
11
-53.9157685901
21
15.8335122852
31
0.0000000000
0
SPLINE
5
420
100
AcDbEntity
8
0
100
AcDbSpline
62
9
6
CONTINUOUS
70
0
71
3
72
17
73
13
74
11
42
0.0000001000
43
0.0000001000
44
0.0000000001
12
0.1246387852
22
0.2158880155
32
0.0000000000
13
-0.2158861888
23
0.1246419492
33
0.0000000000
40
0.0000000000
40
0.0000000000
40
0.0000000000
40
0.0000000000
40
0.1564349741
40
0.3090912049
40
0.4540928199
40
0.5878920034
40
0.7071946998
40
0.8090744096
40
0.8910306741
40
0.9510531999
40
0.9876708992
40
1.0000000000
40
1.0000000000
40
1.0000000000
40
1.0000000000
10
-54.1643124340
20
-21.8068208132
30
0.0000000000
10
-54.1578131456
20
-21.7955633345
30
0.0000000000
10
-54.1449808414
20
-21.7733154903
30
0.0000000000
10
-54.1261513697
20
-21.7406144187
30
0.0000000000
10
-54.1082984747
20
-21.7095318004
30
0.0000000000
10
-54.0918171252
20
-21.6808234231
30
0.0000000000
10
-54.0772664035
20
-21.6552465597
30
0.0000000000
10
-54.0645340498
20
-21.6332704948
30
0.0000000000
10
-54.0552491500
20
-21.6158829438
30
0.0000000000
10
-54.0463193689
20
-21.6023849708
30
0.0000000000
10
-54.0448985358
20
-21.5954716719
30
0.0000000000
10
-54.0398796393
20
-21.5908267033
30
0.0000000000
10
-54.0407668668
20
-21.5903144623
30
0.0000000000
11
-54.1643124340
21
-21.8068208132
31
0.0000000000
11
-54.1448279295
21
-21.7730406671
31
0.0000000000
11
-54.1258408502
21
-21.7400610661
31
0.0000000000
11
-54.1078333168
21
-21.7087193510
31
0.0000000000
11
-54.0912459461
21
-21.6797823979
31
0.0000000000
11
-54.0764871327
21
-21.6539626501
31
0.0000000000
11
-54.0639189394
21
-21.6318935164
31
0.0000000000
11
-54.0538498771
21
-21.6141167255
31
0.0000000000
11
-54.0465270196
21
-21.6010684831
31
0.0000000000
11
-54.0421300932
21
-21.5930690377
31
0.0000000000
11
-54.0407668668
21
-21.5903144623
31
0.0000000000
0
SPLINE
5
421
100
AcDbEntity
8
0
100
AcDbSpline
62
7
6
CONTINUOUS
70
0
71
3
72
9
73
5
74
3
42
0.0000001000
43
0.0000001000
44
0.0000000001
12
-5.9999999995
22
-0.0191986997
32
0.0000000000
13
-5.9999999995
23
-0.0191986997
33
0.0000000000
40
0.0000000000
40
0.0000000000
40
0.0000000000
40
0.0000000000
40
0.7020090978
40
1.0000000000
40
1.0000000000
40
1.0000000000
40
1.0000000000
10
-47.9157668672
20
10.7601935251
30
0.0000000000
10
-49.3197850628
20
10.7557009711
30
0.0000000000
10
-51.3197850626
20
10.7493014046
30
0.0000000000
10
-53.3197850624
20
10.7429018380
30
0.0000000000
10
-53.9157668667
20
10.7409948254
30
0.0000000000
11
-47.9157668672
21
10.7601935251
31
0.0000000000
11
-52.1278214539
21
10.7467158632
31
0.0000000000
11
-53.9157668667
21
10.7409948254
31
0.0000000000
0
SPLINE
5
422
100
AcDbEntity
8
0
100
AcDbSpline
62
7
6
CONTINUOUS
70
0
71
3
72
9
73
5
74
3
42
0.0000001000
43
0.0000001000
44
0.0000000001
12
-5.9999994466
22
-0.0149567108
32
0.0000000000
13
-6.0000005366
23
-0.0145129445
33
0.0000000000
40
0.0000000000
40
0.0000000000
40
0.0000000000
40
0.0000000000
40
0.7020091173
40
1.0000000000
40
1.0000000000
40
1.0000000000
40
1.0000000000
10
-47.9157668577
20
-9.5363429820
30
0.0000000000
10
-49.3197849628
20
-9.5398428978
30
0.0000000000
10
-51.3197849171
20
-9.5447729703
30
0.0000000000
10
-53.3197850461
20
-9.5496312466
30
0.0000000000
10
-53.9157668648
20
-9.5510728217
30
0.0000000000
11
-47.9157668577
21
-9.5363429820
31
0.0000000000
11
-52.1278214539
21
-9.5467294271
31
0.0000000000
11
-53.9157668648
21
-9.5510728217
31
0.0000000000
0
SPLINE
5
423
100
AcDbEntity
8
0
100
AcDbSpline
62
7
6
CONTINUOUS
70
0
71
3
72
9
73
5
74
3
42
0.0000001000
43
0.0000001000
44
0.0000000001
12
-5.9999994537
22
0.0149567108
32
0.0000000000
13
-6.0000005438
23
0.0145129446
33
0.0000000000
40
0.0000000000
40
0.0000000000
40
0.0000000000
40
0.0000000000
40
0.7020091173
40
1.0000000000
40
1.0000000000
40
1.0000000000
40
1.0000000000
10
-47.9157668526
20
-8.8886235099
30
0.0000000000
10
-49.3197849594
20
-8.8851235941
30
0.0000000000
10
-51.3197849161
20
-8.8801935216
30
0.0000000000
10
-53.3197850475
20
-8.8753352452
30
0.0000000000
10
-53.9157668669
20
-8.8738936702
30
0.0000000000
11
-47.9157668526
21
-8.8886235099
31
0.0000000000
11
-52.1278214539
21
-8.8782370648
31
0.0000000000
11
-53.9157668669
21
-8.8738936702
31
0.0000000000
0
SPLINE
5
424
100
AcDbEntity
8
0
100
AcDbSpline
62
7
6
CONTINUOUS
70
0
71
3
72
9
73
5
74
3
42
0.0000001000
43
0.0000001000
44
0.0000000001
12
-6.0000000132
22
0.0191986998
32
0.0000000000
13
-6.0000000132
23
0.0191986998
33
0.0000000000
40
0.0000000000
40
0.0000000000
40
0.0000000000
40
0.0000000000
40
0.7020090979
40
1.0000000000
40
1.0000000000
40
1.0000000000
40
1.0000000000
10
-47.9157668574
20
-6.6851600170
30
0.0000000000
10
-49.3197850562
20
-6.6806674630
30
0.0000000000
10
-51.3197850606
20
-6.6742678964
30
0.0000000000
10
-53.3197850650
20
-6.6678683298
30
0.0000000000
10
-53.9157668706
20
-6.6659613172
30
0.0000000000
11
-47.9157668574
21
-6.6851600170
31
0.0000000000
11
-52.1278214539
21
-6.6716823551
31
0.0000000000
11
-53.9157668706
21
-6.6659613172
31
0.0000000000
0
SPLINE
5
425
100
AcDbEntity
8
0
100
AcDbSpline
62
9
6
CONTINUOUS
70
0
71
3
72
17
73
13
74
11
42
0.0000001000
43
0.0000001000
44
0.0000000001
12
0.2500021233
22
0.0014544698
32
0.0000000000
13
-0.0014544206
23
0.2500021236
33
0.0000000000
40
0.0000000000
40
0.0000000000
40
0.0000000000
40
0.0000000000
40
0.0123012971
40
0.0489053223
40
0.1089287510
40
0.1909036767
40
0.2928069812
40
0.4121319346
40
0.5459387612
40
0.6909316736
40
0.8435388899
40
1.0000000000
40
1.0000000000
40
1.0000000000
40
1.0000000000
10
-54.1643124340
20
-22.4581114119
30
0.0000000000
10
-54.1632873172
20
-22.4581054480
30
0.0000000000
10
-54.1652826144
20
-22.4515771187
30
0.0000000000
10
-54.1631111897
20
-22.4448470767
30
0.0000000000
10
-54.1641413847
20
-22.4286528945
30
0.0000000000
10
-54.1635878845
20
-22.4088878086
30
0.0000000000
10
-54.1637485698
20
-22.3834116426
30
0.0000000000
10
-54.1637150010
20
-22.3538956509
30
0.0000000000
10
-54.1638113395
20
-22.3206951615
30
0.0000000000
10
-54.1639290850
20
-22.2847507575
30
0.0000000000
10
-54.1640988004
20
-22.2469096921
30
0.0000000000
10
-54.1642365806
20
-22.2211541793
30
0.0000000000
10
-54.1643124340
20
-22.2081156427
30
0.0000000000
11
-54.1643124340
21
-22.4581114119
31
0.0000000000
11
-54.1641031624
21
-22.4550431379
31
0.0000000000
11
-54.1639344355
21
-22.4458934546
31
0.0000000000
11
-54.1638108386
21
-22.4308877250
31
0.0000000000
11
-54.1637354111
21
-22.4103936115
31
0.0000000000
11
-54.1637100230
21
-22.3849171505
31
0.0000000000
11
-54.1637352998
21
-22.3550851647
31
0.0000000000
11
-54.1638106204
21
-22.3216326926
31
0.0000000000
11
-54.1639341302
21
-22.2853837536
31
0.0000000000
11
-54.1641027868
21
-22.2472313526
31
0.0000000000
11
-54.1643124340
21
-22.2081156427
31
0.0000000000
0
SPLINE
5
426
100
AcDbEntity
8
0
100
AcDbSpline
62
7
6
CONTINUOUS
70
0
71
3
72
9
73
5
74
3
42
0.0000001000
43
0.0000001000
44
0.0000000001
12
-5.9999998925
22
-0.0192323876
32
0.0000000000
13
-6.0000001036
23
-0.0191663794
33
0.0000000000
40
0.0000000000
40
0.0000000000
40
0.0000000000
40
0.0000000000
40
0.8416666885
40
1.0000000000
40
1.0000000000
40
1.0000000000
40
1.0000000000
10
-47.9157668572
20
-11.7398094675
30
0.0000000000
10
-49.5991002041
20
-11.7452052208
30
0.0000000000
10
-51.5991000955
20
-11.7516387560
30
0.0000000000
10
-53.5991001160
20
-11.7580319324
30
0.0000000000
10
-53.9157667444
20
-11.7590434912
30
0.0000000000
11
-47.9157668572
21
-11.7398094675
31
0.0000000000
11
-52.9657668668
21
-11.7560064151
31
0.0000000000
11
-53.9157667444
21
-11.7590434912
31
0.0000000000
0
SPLINE
5
427
100
AcDbEntity
8
0
100
AcDbSpline
62
7
6
CONTINUOUS
70
0
71
3
72
18
73
14
74
12
42
0.0000001000
43
0.0000001000
44
0.0000000001
12
0.0000000000
22
0.2499957692
32
0.0000000000
13
0.0000000000
23
0.2499957692
33
0.0000000000
40
0.0000000000
40
0.0000000000
40
0.0000000000
40
0.0000000000
40
0.0101782757
40
0.0405061187
40
0.0903664406
40
0.1587444539
40
0.2442482980
40
0.3451373646
40
0.4593577501
40
0.5845841078
40
0.7182670393
40
0.8576850502
40
1.0000000000
40
1.0000000000
40
1.0000000000
40
1.0000000000
10
-54.9157668668
20
-22.4624832459
30
0.0000000000
10
-54.9157668668
20
-22.4616350707
30
0.0000000000
10
-54.9157668668
20
-22.4582596179
30
0.0000000000
10
-54.9157668668
20
-22.4507292086
30
0.0000000000
10
-54.9157668668
20
-22.4383489033
30
0.0000000000
10
-54.9157668668
20
-22.4213706757
30
0.0000000000
10
-54.9157668668
20
-22.4001401246
30
0.0000000000
10
-54.9157668668
20
-22.3750894405
30
0.0000000000
10
-54.9157668668
20
-22.3467286030
30
0.0000000000
10
-54.9157668668
20
-22.3156349897
30
0.0000000000
10
-54.9157668668
20
-22.2824416097
30
0.0000000000
10
-54.9157668668
20
-22.2478242046
30
0.0000000000
10
-54.9157668668
20
-22.2243468552
30
0.0000000000
10
-54.9157668668
20
-22.2124874767
30
0.0000000000
11
-54.9157668668
21
-22.4624832459
31
0.0000000000
11
-54.9157668668
21
-22.4599387201
31
0.0000000000
11
-54.9157668668
21
-22.4523568876
31
0.0000000000
11
-54.9157668668
21
-22.4398920181
31
0.0000000000
11
-54.9157668668
21
-22.4227978041
31
0.0000000000
11
-54.9157668668
21
-22.4014222048
31
0.0000000000
11
-54.9157668668
21
-22.3762003650
31
0.0000000000
11
-54.9157668668
21
-22.3476457518
31
0.0000000000
11
-54.9157668668
21
-22.3163396922
31
0.0000000000
11
-54.9157668668
21
-22.2829195249
31
0.0000000000
11
-54.9157668668
21
-22.2480656121
31
0.0000000000
11
-54.9157668668
21
-22.2124874767
31
0.0000000000
0
SPLINE
5
428
100
AcDbEntity
8
0
100
AcDbSpline
62
9
6
CONTINUOUS
70
0
71
3
72
17
73
13
74
11
42
0.0000001000
43
0.0000001000
44
0.0000000001
12
-0.2500021164
22
0.0014544698
32
0.0000000000
13
0.0014544205
23
0.2500021167
33
0.0000000000
40
0.0000000000
40
0.0000000000
40
0.0000000000
40
0.0000000000
40
0.0123444072
40
0.0489844925
40
0.1090363645
40
0.1910241595
40
0.2929301410
40
0.4122456507
40
0.5460331761
40
0.6909987802
40
0.8435732498
40
1.0000000000
40
1.0000000000
40
1.0000000000
40
1.0000000000
10
-57.1672212997
20
-22.4493846672
30
0.0000000000
10
-57.1682500090
20
-22.4493786824
30
0.0000000000
10
-57.1662497969
20
-22.4428388394
30
0.0000000000
10
-57.1684229213
20
-22.4361011003
30
0.0000000000
10
-57.1673925660
20
-22.4199007685
30
0.0000000000
10
-57.1679458332
20
-22.4001316596
30
0.0000000000
10
-57.1677851880
20
-22.3746551650
30
0.0000000000
10
-57.1678186718
20
-22.3451412750
30
0.0000000000
10
-57.1677223288
20
-22.3119454829
30
0.0000000000
10
-57.1676045801
20
-22.2760076851
30
0.0000000000
10
-57.1674348895
20
-22.2381744912
30
0.0000000000
10
-57.1672971364
20
-22.2124245709
30
0.0000000000
10
-57.1672212997
20
-22.1993888980
30
0.0000000000
11
-57.1672212997
21
-22.4493846672
31
0.0000000000
11
-57.1674309048
21
-22.4463056132
31
0.0000000000
11
-57.1675995376
21
-22.4371469116
31
0.0000000000
11
-57.1677230459
21
-22.4221340705
31
0.0000000000
11
-57.1677983886
21
-22.4016367398
31
0.0000000000
11
-57.1678237107
21
-22.3761596102
31
0.0000000000
11
-57.1677983886
21
-22.3463299862
31
0.0000000000
11
-57.1677230459
21
-22.3128823405
31
0.0000000000
11
-57.1675995376
21
-22.2766402298
31
0.0000000000
11
-57.1674309048
21
-22.2384960167
31
0.0000000000
11
-57.1672212997
21
-22.1993888980
31
0.0000000000
0
SPLINE
5
429
100
AcDbEntity
8
0
100
AcDbSpline
62
7
6
CONTINUOUS
70
0
71
3
72
15
73
11
74
9
42
0.0000001000
43
0.0000001000
44
0.0000000001
12
0.4460825886
22
0.0077864005
32
0.0000000000
13
0.2737425829
23
0.3523000174
33
0.0000000000
40
0.0000000000
40
0.0000000000
40
0.0000000000
40
0.0000000000
40
0.1126877649
40
0.2268814946
40
0.3428516030
40
0.4627373783
40
0.5873866902
40
0.7180154456
40
0.8553475907
40
1.0000000000
40
1.0000000000
40
1.0000000000
40
1.0000000000
10
-44.4070406636
20
23.6034921873
30
0.0000000000
10
-44.3902846470
20
23.6037846647
30
0.0000000000
10
-44.3565538995
20
23.6060728849
30
0.0000000000
10
-44.3062096397
20
23.6146644746
30
0.0000000000
10
-44.2559711635
20
23.6286626394
30
0.0000000000
10
-44.2060284797
20
23.6484383455
30
0.0000000000
10
-44.1565986855
20
23.6745609604
30
0.0000000000
10
-44.1083028049
20
23.7076118426
30
0.0000000000
10
-44.0620495000
20
23.7481564081
30
0.0000000000
10
-44.0341441304
20
23.7796462650
30
0.0000000000
10
-44.0209449556
20
23.7966332804
30
0.0000000000
11
-44.4070406636
21
23.6034921873
31
0.0000000000
11
-44.3568802974
21
23.6068957715
31
0.0000000000
11
-44.3066586741
21
23.6154658302
31
0.0000000000
11
-44.2568172692
21
23.6293537759
31
0.0000000000
11
-44.2070868963
21
23.6490454044
31
0.0000000000
11
-44.1579186452
21
23.6750303505
31
0.0000000000
11
-44.1098224035
21
23.7079441833
31
0.0000000000
11
-44.0637487924
21
23.7483339665
31
0.0000000000
11
-44.0209449556
21
23.7966332804
31
0.0000000000
0
SPLINE
5
42A
100
AcDbEntity
8
0
100
AcDbSpline
62
7
6
CONTINUOUS
70
0
71
3
72
15
73
11
74
9
42
0.0000001000
43
0.0000001000
44
0.0000000001
12
-0.2737425829
22
0.3523000174
32
0.0000000000
13
-0.4460825886
23
0.0077864005
33
0.0000000000
40
0.0000000000
40
0.0000000000
40
0.0000000000
40
0.0000000000
40
0.1446524093
40
0.2819845544
40
0.4126133098
40
0.5372626217
40
0.6571483970
40
0.7731185054
40
0.8873122351
40
1.0000000000
40
1.0000000000
40
1.0000000000
40
1.0000000000
10
-44.0209449556
20
-19.7215997723
30
0.0000000000
10
-44.0341441304
20
-19.7046127568
30
0.0000000000
10
-44.0620495000
20
-19.6731228999
30
0.0000000000
10
-44.1083028049
20
-19.6325783345
30
0.0000000000
10
-44.1565986855
20
-19.5995274523
30
0.0000000000
10
-44.2060284797
20
-19.5734048373
30
0.0000000000
10
-44.2559711635
20
-19.5536291313
30
0.0000000000
10
-44.3062096397
20
-19.5396309665
30
0.0000000000
10
-44.3565538995
20
-19.5310393767
30
0.0000000000
10
-44.3902846470
20
-19.5287511566
30
0.0000000000
10
-44.4070406636
20
-19.5284586792
30
0.0000000000
11
-44.0209449556
21
-19.7215997723
31
0.0000000000
11
-44.0637487924
21
-19.6733004584
31
0.0000000000
11
-44.1098224035
21
-19.6329106752
31
0.0000000000
11
-44.1579186452
21
-19.5999968423
31
0.0000000000
11
-44.2070868963
21
-19.5740118962
31
0.0000000000
11
-44.2568172692
21
-19.5543202678
31
0.0000000000
11
-44.3066586741
21
-19.5404323221
31
0.0000000000
11
-44.3568802974
21
-19.5318622634
31
0.0000000000
11
-44.4070406636
21
-19.5284586792
31
0.0000000000
0
SPLINE
5
42B
100
AcDbEntity
8
0
100
AcDbSpline
62
9
6
CONTINUOUS
70
0
71
3
72
18
73
14
74
12
42
0.0000001000
43
0.0000001000
44
0.0000000001
12
-0.0261503182
22
-0.4991298239
32
0.0000000000
13
0.4991294076
23
-0.0261582638
33
0.0000000000
40
0.0000000000
40
0.0000000000
40
0.0000000000
40
0.0000000000
40
0.1422762323
40
0.2816418115
40
0.4152638996
40
0.5404265741
40
0.6545861602
40
0.7554231432
40
0.8408897156
40
0.9092523185
40
0.9591295451
40
0.9895315239
40
1.0000000000
40
1.0000000000
40
1.0000000000
40
1.0000000000
10
-62.5551039808
20
-19.4618937005
30
0.0000000000
10
-62.5563441704
20
-19.4855651375
30
0.0000000000
10
-62.5587415360
20
-19.5324270119
30
0.0000000000
10
-62.5621015928
20
-19.6015294281
30
0.0000000000
10
-62.5651486447
20
-19.6677965860
30
0.0000000000
10
-62.5678096372
20
-19.7298627864
30
0.0000000000
10
-62.5700704763
20
-19.7865262507
30
0.0000000000
10
-62.5717646671
20
-19.8364445969
30
0.0000000000
10
-62.5732289092
20
-19.8791725057
30
0.0000000000
10
-62.5734199770
20
-19.9122564405
30
0.0000000000
10
-62.5749113487
20
-19.9389923751
30
0.0000000000
10
-62.5723972875
20
-19.9505776763
30
0.0000000000
10
-62.5742874638
20
-19.9611171889
30
0.0000000000
10
-62.5725457557
20
-19.9612084679
30
0.0000000000
11
-62.5551039808
21
-19.4618937005
31
0.0000000000
11
-62.5587360724
21
-19.5329125915
31
0.0000000000
11
-62.5621168768
21
-19.6024874207
31
0.0000000000
11
-62.5651776504
21
-19.6692034891
31
0.0000000000
11
-62.5678561570
21
-19.7317042261
31
0.0000000000
11
-62.5700979332
21
-19.7887187740
31
0.0000000000
11
-62.5718573959
21
-19.8390878278
31
0.0000000000
11
-62.5730987690
21
-19.8817872091
31
0.0000000000
11
-62.5737968112
21
-19.9159486905
31
0.0000000000
11
-62.5739373288
21
-19.9408776499
31
0.0000000000
11
-62.5735174645
21
-19.9560671945
31
0.0000000000
11
-62.5725457557
21
-19.9612084679
31
0.0000000000
0
SPLINE
5
42C
100
AcDbEntity
8
0
100
AcDbSpline
62
7
6
CONTINUOUS
70
0
71
3
72
10
73
6
74
4
42
0.0000001000
43
0.0000001000
44
0.0000000001
12
-1.2514656671
22
0.0660848135
32
0.0000000000
13
-1.2514431539
23
0.0665097809
33
0.0000000000
40
0.0000000000
40
0.0000000000
40
0.0000000000
40
0.0000000000
40
0.3337025272
40
0.6670048192
40
1.0000000000
40
1.0000000000
40
1.0000000000
40
1.0000000000
10
-54.9157668668
20
-20.3621913231
30
0.0000000000
10
-55.0549726188
20
-20.3548404333
30
0.0000000000
10
-55.3332163321
20
-20.3401317415
30
0.0000000000
10
-55.7503678121
20
-20.3180326985
30
0.0000000000
10
-56.0283131199
20
-20.3032766862
30
0.0000000000
10
-56.1672212997
20
-20.2958942073
30
0.0000000000
11
-54.9157668668
21
-20.3621913231
31
0.0000000000
11
-55.3333828749
21
-20.3401150371
31
0.0000000000
11
-55.7504955063
21
-20.3180180355
31
0.0000000000
11
-56.1672212997
21
-20.2958942073
31
0.0000000000
0
SPLINE
5
42D
100
AcDbEntity
8
0
100
AcDbSpline
62
9
6
CONTINUOUS
70
0
71
3
72
21
73
17
74
15
42
0.0000001000
43
0.0000001000
44
0.0000000001
12
0.0607555661
22
-1.4753641774
32
0.0000000000
13
1.4745895509
23
-0.0773068631
33
0.0000000000
40
0.0000000000
40
0.0000000000
40
0.0000000000
40
0.0000000000
40
0.0713902293
40
0.1428180061
40
0.2142500336
40
0.2856810824
40
0.3571130926
40
0.4285468535
40
0.4999808986
40
0.5714157902
40
0.6428518851
40
0.7142873120
40
0.7857227678
40
0.8571599783
40
0.9285935585
40
1.0000000000
40
1.0000000000
40
1.0000000000
40
1.0000000000
10
-63.5019220365
20
-18.5043891024
30
0.0000000000
10
-63.5004762519
20
-18.5394979647
30
0.0000000000
10
-63.4938753860
20
-18.6096379246
30
0.0000000000
10
-63.4729515228
20
-18.7131864667
30
0.0000000000
10
-63.4412311273
20
-18.8139866615
30
0.0000000000
10
-63.3990689934
20
-18.9108835717
30
0.0000000000
10
-63.3469348746
20
-19.0028022100
30
0.0000000000
10
-63.2854078960
20
-19.0887190728
30
0.0000000000
10
-63.2151723353
20
-19.1676782529
30
0.0000000000
10
-63.1370095122
20
-19.2388007076
30
0.0000000000
10
-63.0517892943
20
-19.3012945550
30
0.0000000000
10
-62.9604598353
20
-19.3544640526
30
0.0000000000
10
-62.8640382118
20
-19.3977178037
30
0.0000000000
10
-62.7635943433
20
-19.4305736126
30
0.0000000000
10
-62.6602746115
20
-19.4526638594
30
0.0000000000
10
-62.5902023783
20
-19.4600536312
30
0.0000000000
10
-62.5551039808
20
-19.4618937005
30
0.0000000000
11
-63.5019220365
21
-18.5043891024
31
0.0000000000
11
-63.4920413678
21
-18.6093408767
31
0.0000000000
11
-63.4711532970
21
-18.7127230963
31
0.0000000000
11
-63.4394907771
21
-18.8133362351
31
0.0000000000
11
-63.3974072816
21
-18.9100533142
31
0.0000000000
11
-63.3453699922
21
-19.0018009789
31
0.0000000000
11
-63.2839566976
21
-19.0875591625
31
0.0000000000
11
-63.2138515555
21
-19.1663717022
31
0.0000000000
11
-63.1358338220
21
-19.2373621544
31
0.0000000000
11
-63.0507708482
21
-19.2997406473
31
0.0000000000
11
-62.9596112402
21
-19.3528113892
31
0.0000000000
11
-62.8633684964
21
-19.3959845417
31
0.0000000000
11
-62.7631109753
21
-19.4287803167
31
0.0000000000
11
-62.6599619268
21
-19.4508319909
31
0.0000000000
11
-62.5551039808
21
-19.4618937005
31
0.0000000000
0
SPLINE
5
42E
100
AcDbEntity
8
0
100
AcDbSpline
62
9
6
CONTINUOUS
70
0
71
3
72
14
73
10
74
8
42
0.0000001000
43
0.0000001000
44
0.0000000001
12
-1.6900355961
22
-41.0603985683
32
0.0000000000
13
1.6900355873
23
-41.0603985686
33
0.0000000000
40
0.0000000000
40
0.0000000000
40
0.0000000000
40
0.0000000000
40
0.1428571318
40
0.2857142834
40
0.4285714320
40
0.5714285788
40
0.7142857273
40
0.8571428789
40
1.0000000000
40
1.0000000000
40
1.0000000000
40
1.0000000000
10
-63.5019220365
20
22.5794226106
30
0.0000000000
10
-63.5823999158
20
20.6241656871
30
0.0000000000
10
-63.7203762524
20
16.7126666823
30
0.0000000000
10
-63.8583674847
20
10.8434222608
30
0.0000000000
10
-63.9273680802
20
4.9729526424
30
0.0000000000
10
-63.9273680777
20
-0.8979195775
30
0.0000000000
10
-63.8583674767
20
-6.7683891954
30
0.0000000000
10
-63.7203762433
20
-12.6376334690
30
0.0000000000
10
-63.5823999093
20
-16.5491323261
30
0.0000000000
10
-63.5019220365
20
-18.5043891024
30
0.0000000000
11
-63.5019220365
21
22.5794226106
31
0.0000000000
11
-63.7088806986
21
16.7123343169
31
0.0000000000
11
-63.8468690451
21
10.8432180537
31
0.0000000000
11
-63.9158679808
21
4.9728855103
31
0.0000000000
11
-63.9158679782
21
-0.8978524457
31
0.0000000000
11
-63.8468690372
21
-6.7681849882
31
0.0000000000
11
-63.7088806857
21
-12.6373012506
31
0.0000000000
11
-63.5019220365
21
-18.5043891024
31
0.0000000000
0
SPLINE
5
42F
100
AcDbEntity
8
0
100
AcDbSpline
62
9
6
CONTINUOUS
70
0
71
3
72
18
73
14
74
12
42
0.0000001000
43
0.0000001000
44
0.0000000001
12
-0.0261503191
22
0.4991298239
32
0.0000000000
13
0.4991294076
23
0.0261582638
33
0.0000000000
40
0.0000000000
40
0.0000000000
40
0.0000000000
40
0.0000000000
40
0.1422761824
40
0.2816417245
40
0.4152637905
40
0.5404264582
40
0.6545860511
40
0.7554230516
40
0.8408896477
40
0.9092522760
40
0.9591295247
40
0.9895315185
40
1.0000000000
40
1.0000000000
40
1.0000000000
40
1.0000000000
10
-62.5551039808
20
23.5369272087
30
0.0000000000
10
-62.5563441700
20
23.5605986373
30
0.0000000000
10
-62.5587415349
20
23.6074604973
30
0.0000000000
10
-62.5621015911
20
23.6765628953
30
0.0000000000
10
-62.5651486426
20
23.7428300422
30
0.0000000000
10
-62.5678096352
20
23.8048962389
30
0.0000000000
10
-62.5700704747
20
23.8615597061
30
0.0000000000
10
-62.5717646661
20
23.9114780603
30
0.0000000000
10
-62.5732289087
20
23.9542059802
30
0.0000000000
10
-62.5734199768
20
23.9872899266
30
0.0000000000
10
-62.5749113495
20
24.0140258725
30
0.0000000000
10
-62.5723972870
20
24.0256111790
30
0.0000000000
10
-62.5742874647
20
24.0361506969
30
0.0000000000
10
-62.5725457557
20
24.0362419760
30
0.0000000000
11
-62.5551039808
21
23.5369272087
31
0.0000000000
11
-62.5587360713
21
23.6079460747
31
0.0000000000
11
-62.5621168750
21
23.6775208854
31
0.0000000000
11
-62.5651776483
21
23.7442369427
31
0.0000000000
11
-62.5678561550
21
23.8067376764
31
0.0000000000
11
-62.5700979315
21
23.8637522276
31
0.0000000000
11
-62.5718573948
21
23.9141212902
31
0.0000000000
11
-62.5730987685
21
23.9568206834
31
0.0000000000
11
-62.5737968112
21
23.9909821774
31
0.0000000000
11
-62.5739373291
21
24.0159111478
31
0.0000000000
11
-62.5735174648
21
24.0311006999
31
0.0000000000
11
-62.5725457557
21
24.0362419760
31
0.0000000000
0
SPLINE
5
430
100
AcDbEntity
8
0
100
AcDbSpline
62
9
6
CONTINUOUS
70
0
71
3
72
21
73
17
74
15
42
0.0000001000
43
0.0000001000
44
0.0000000001
12
-1.4745893926
22
-0.0773098831
32
0.0000000000
13
-0.0607525409
23
-1.4753643020
33
0.0000000000
40
0.0000000000
40
0.0000000000
40
0.0000000000
40
0.0000000000
40
0.0713960626
40
0.1428292298
40
0.2142659787
40
0.2857009292
40
0.3571358806
40
0.4285714702
40
0.5000061361
40
0.5714404093
40
0.6428746776
40
0.7143071660
40
0.7857387227
40
0.8571712120
40
0.9285994001
40
1.0000000000
40
1.0000000000
40
1.0000000000
40
1.0000000000
10
-62.5551039808
20
23.5369272087
30
0.0000000000
10
-62.5901972730
20
23.5350873349
30
0.0000000000
10
-62.6602642325
20
23.5276988108
30
0.0000000000
10
-62.7635788596
20
23.5056111769
30
0.0000000000
10
-62.8640226378
20
23.4727573139
30
0.0000000000
10
-62.9604443335
20
23.4295054572
30
0.0000000000
10
-63.0517741097
20
23.3763379709
30
0.0000000000
10
-63.1369949994
20
23.3138460486
30
0.0000000000
10
-63.2151589943
20
23.2427252532
30
0.0000000000
10
-63.2853962295
20
23.1637672235
30
0.0000000000
10
-63.3469251422
20
23.0778510075
30
0.0000000000
10
-63.3990612768
20
22.9859326601
30
0.0000000000
10
-63.4412253055
20
22.8890357975
30
0.0000000000
10
-63.4729476444
20
22.7882354897
30
0.0000000000
10
-63.4938740604
20
22.6846818183
30
0.0000000000
10
-63.5004761139
20
22.6145365760
30
0.0000000000
10
-63.5019220365
20
22.5794226106
30
0.0000000000
11
-62.5551039808
21
23.5369272087
31
0.0000000000
11
-62.6599467718
21
23.5258679218
31
0.0000000000
11
-62.7630955567
21
23.5038179326
31
0.0000000000
11
-62.8633529746
21
23.4710240339
31
0.0000000000
11
-62.9595957693
21
23.4278528184
31
0.0000000000
11
-63.0507557164
21
23.3747840542
31
0.0000000000
11
-63.1358192426
21
23.3124075764
31
0.0000000000
11
-63.2138380828
21
23.2414188356
31
0.0000000000
11
-63.2839449508
21
23.1626073806
31
0.0000000000
11
-63.3453602679
21
23.0768497237
31
0.0000000000
11
-63.3973995399
21
22.9851023718
31
0.0000000000
11
-63.4394849730
21
22.8883853178
31
0.0000000000
11
-63.4711493665
21
22.7877720537
31
0.0000000000
11
-63.4920391171
21
22.6843895541
31
0.0000000000
11
-63.5019220365
21
22.5794226106
31
0.0000000000
0
SPLINE
5
431
100
AcDbEntity
8
0
100
AcDbSpline
62
7
6
CONTINUOUS
70
0
71
3
72
10
73
6
74
4
42
0.0000001000
43
0.0000001000
44
0.0000000001
12
1.2514431539
22
0.0665097809
32
0.0000000000
13
1.2514656671
23
0.0660848135
33
0.0000000000
40
0.0000000000
40
0.0000000000
40
0.0000000000
40
0.0000000000
40
0.3329951808
40
0.6662974728
40
1.0000000000
40
1.0000000000
40
1.0000000000
40
1.0000000000
10
-56.1672212997
20
24.3709277155
30
0.0000000000
10
-56.0283131199
20
24.3783101943
30
0.0000000000
10
-55.7503678121
20
24.3930662067
30
0.0000000000
10
-55.3332163321
20
24.4151652497
30
0.0000000000
10
-55.0549726188
20
24.4298739414
30
0.0000000000
10
-54.9157668668
20
24.4372248312
30
0.0000000000
11
-56.1672212997
21
24.3709277155
31
0.0000000000
11
-55.7504955063
21
24.3930515436
31
0.0000000000
11
-55.3333828749
21
24.4151485452
31
0.0000000000
11
-54.9157668668
21
24.4372248312
31
0.0000000000
0
SPLINE
5
432
100
AcDbEntity
8
0
100
AcDbSpline
62
7
6
CONTINUOUS
70
0
71
3
72
19
73
15
74
13
42
0.0000001000
43
0.0000001000
44
0.0000000001
12
-0.2489108378
22
-0.4336109437
32
0.0000000000
13
0.0109826256
23
-0.4998544164
33
0.0000000000
40
0.0000000000
40
0.0000000000
40
0.0000000000
40
0.0000000000
40
0.0130778467
40
0.0427005360
40
0.0882340605
40
0.1485543506
40
0.2232180786
40
0.3115540260
40
0.4113400668
40
0.5199309047
40
0.6347525268
40
0.7540705658
40
0.8764127390
40
1.0000000000
40
1.0000000000
40
1.0000000000
40
1.0000000000
10
-54.9159148397
20
24.4372079527
30
0.0000000000
10
-54.9169999123
20
24.4353177202
30
0.0000000000
10
-54.9169816544
20
24.4278023814
30
0.0000000000
10
-54.9181850399
20
24.4134513925
30
0.0000000000
10
-54.9183965712
20
24.3907040309
30
0.0000000000
10
-54.9188103767
20
24.3606915875
30
0.0000000000
10
-54.9188490184
20
24.3234470014
30
0.0000000000
10
-54.9187193976
20
24.2796606827
30
0.0000000000
10
-54.9183439749
20
24.2302093699
30
0.0000000000
10
-54.9177593052
20
24.1763496344
30
0.0000000000
10
-54.9169740631
20
24.1192357994
30
0.0000000000
10
-54.9160092420
20
24.0598329756
30
0.0000000000
10
-54.9148780821
20
23.9989718810
30
0.0000000000
10
-54.9140329754
20
23.9579943621
30
0.0000000000
10
-54.9135805378
20
23.9374024826
30
0.0000000000
11
-54.9159148397
21
24.4372079527
31
0.0000000000
11
-54.9170450683
21
24.4307677792
31
0.0000000000
11
-54.9178270292
21
24.4159778306
31
0.0000000000
11
-54.9183877999
21
24.3932191117
31
0.0000000000
11
-54.9187203705
21
24.3630623051
31
0.0000000000
11
-54.9188238652
21
24.3257324471
31
0.0000000000
11
-54.9186930225
21
24.2815668707
31
0.0000000000
11
-54.9183291329
21
24.2316776666
31
0.0000000000
11
-54.9177451297
21
24.1773880974
31
0.0000000000
11
-54.9169609761
21
24.1199855063
31
0.0000000000
11
-54.9159944239
21
24.0603372939
31
0.0000000000
11
-54.9148612811
21
23.9991797558
31
0.0000000000
11
-54.9135805378
21
23.9374024826
31
0.0000000000
0
SPLINE
5
433
100
AcDbEntity
8
0
100
AcDbSpline
62
7
6
CONTINUOUS
70
0
71
3
72
19
73
15
74
13
42
0.0000001000
43
0.0000001000
44
0.0000000001
12
-0.0109826256
22
-0.4998544164
32
0.0000000000
13
0.2489108378
23
-0.4336109437
33
0.0000000000
40
0.0000000000
40
0.0000000000
40
0.0000000000
40
0.0000000000
40
0.1235872610
40
0.2459294342
40
0.3652474732
40
0.4800690953
40
0.5886599332
40
0.6884459740
40
0.7767819214
40
0.8514456494
40
0.9117659395
40
0.9572994640
40
0.9869221533
40
1.0000000000
40
1.0000000000
40
1.0000000000
40
1.0000000000
10
-54.9135805378
20
-19.8623689745
30
0.0000000000
10
-54.9140329754
20
-19.8829608539
30
0.0000000000
10
-54.9148780821
20
-19.9239383729
30
0.0000000000
10
-54.9160092420
20
-19.9847994675
30
0.0000000000
10
-54.9169740631
20
-20.0442022913
30
0.0000000000
10
-54.9177593052
20
-20.1013161263
30
0.0000000000
10
-54.9183439749
20
-20.1551758617
30
0.0000000000
10
-54.9187193976
20
-20.2046271745
30
0.0000000000
10
-54.9188490184
20
-20.2484134933
30
0.0000000000
10
-54.9188103767
20
-20.2856580794
30
0.0000000000
10
-54.9183965712
20
-20.3156705228
30
0.0000000000
10
-54.9181850399
20
-20.3384178844
30
0.0000000000
10
-54.9169816544
20
-20.3527688733
30
0.0000000000
10
-54.9169999123
20
-20.3602842121
30
0.0000000000
10
-54.9159148397
20
-20.3621744446
30
0.0000000000
11
-54.9135805378
21
-19.8623689745
31
0.0000000000
11
-54.9148612811
21
-19.9241462476
31
0.0000000000
11
-54.9159944239
21
-19.9853037857
31
0.0000000000
11
-54.9169609761
21
-20.0449519982
31
0.0000000000
11
-54.9177451297
21
-20.1023545893
31
0.0000000000
11
-54.9183291329
21
-20.1566441584
31
0.0000000000
11
-54.9186930225
21
-20.2065333626
31
0.0000000000
11
-54.9188238652
21
-20.2506989390
31
0.0000000000
11
-54.9187203705
21
-20.2880287970
31
0.0000000000
11
-54.9183877999
21
-20.3181856036
31
0.0000000000
11
-54.9178270292
21
-20.3409443224
31
0.0000000000
11
-54.9170450683
21
-20.3557342710
31
0.0000000000
11
-54.9159148397
21
-20.3621744446
31
0.0000000000
0
ENDSEC
0
SECTION
2
OBJECTS
0
DICTIONARY
5
434
100
AcDbDictionary
3
ACAD_GROUP
350
435
3
ACAD_MLINESTYLE
350
436
0
DICTIONARY
5
435
102
{ACAD_REACTORS
330
434
102
}
100
AcDbDictionary
0
DICTIONARY
5
436
102
{ACAD_REACTORS
330
434
102
}
100
AcDbDictionary
3
STANDARD
350
437
0
MLINESTYLE
5
437
102
{ACAD_REACTORS
330
436
102
}
100
AcDbMlineStyle
2
STANDARD
70
0
3

62
256
51
90.0
52
90.0
71
2
49
0.5
62
256
6
BYLAYER
49
-0.5
62
256
6
BYLAYER
0
ENDSEC
0
EOF
