  0
SECTION
  2
HEADER
  9
$ACADVER
  1
AC1015
  9
$DWGCODEPAGE
  3
ANSI_1252
  9
$EXTMAX
 10
297.0
 20
210.0
 30
0.0
  9
$EXTMIN
 10
0.0
 20
0.0
 30
0.0
  9
$LIMMIN
 10
0.0
 20
0.0
  9
$LIMMAX
 10
297.0
 20
210.0
  9
$VIEWCTR
 10
148.5
 20
105.0
  9
$VIEWSIZE
 40
210.0
  9
$CLAYER
  8
0
  9
$LTSCALE
 40
16.335
  9
$CELTYPE
  6
BYLAYER
  9
$DIMSCALE
 40
1.0
  9
$DIMASZ
 40
3.0
  9
$DIMEXO
 40
1.85625
  9
$DIMDLI
 40
11.286
  9
$DIMEXE
 40
5.346
  9
$DIMCEN
 40
2.673
  9
$DIMLFAC
 40
1.0
  9
$DIMBLK
  1
_FILLED
  9
$DIMTXT
 40
3.0
  9
$DIMTOL
 70
1
  9
$DIMLIM
 70
0
  9
$DIMTFAC
 40
1.0
  9
$DIMTP
 40
0.01
  9
$DIMTM
 40
0.01
  9
$PDMODE
 70
3
  9
$PDSIZE
 40
3.0
  9
$HANDSEED
  5
5C1
  9
$TILEMODE
 70
1
  9
$MEASUREMENT
 70
1
  9
$INSUNITS
 70
4
  0
ENDSEC
  0
SECTION
  2
CLASSES
  0
CLASS
  1
ACDBDICTIONARYWDFLT
  2
AcDbDictionaryWithDefault
  3
AutoCAD 2000
 90
0
280
0
281
0
  0
CLASS
  1
ACDBPLACEHOLDER
  2
AcDbPlaceHolder
  3
AutoCAD 2000
 90
0
280
0
281
0
  0
CLASS
  1
LAYOUT
  2
AcDbLayout
  3
AutoCAD 2000
 90
0
280
0
281
0
  0
ENDSEC
  0
SECTION
  2
TABLES
  0
TABLE
  2
VPORT
  5
8
100
AcDbSymbolTable
 70
2
  0
VPORT
  5
1F4
100
AcDbSymbolTableRecord
100
AcDbViewportTableRecord
  2
*ACTIVE
 70
0
 10
0.0
 20
0.0
 11
1.0
 21
1.0
 12
148.5
 22
105.0
 13
0.0
 23
0.0
 14
1.0
 24
1.0
 15
0.0
 25
0.0
 16
0.0
 26
0.0
 36
1.0
 17
0.0
 27
0.0
 37
0.0
 40
210.0
 41
1.4142857143
 42
50.0
 43
0.0
 44
0.0
 50
0.0
 51
0.0
 71
0
 72
100
 73
1
 74
1
 75
0
 76
0
 77
0
 78
0
  0
ENDTAB
  0
TABLE
  2
LTYPE
  5
5
100
AcDbSymbolTable
 70
6
  0
LTYPE
  5
14
100
AcDbSymbolTableRecord
100
AcDbLinetypeTableRecord
  2
BYBLOCK
 70
0
  3

 72
65
 73
0
 40
0.0
  0
LTYPE
  5
15
100
AcDbSymbolTableRecord
100
AcDbLinetypeTableRecord
  2
BYLAYER
 70
0
  3

 72
65
 73
0
 40
0.0
  0
LTYPE
  5
16
100
AcDbSymbolTableRecord
100
AcDbLinetypeTableRecord
  2
CONTINUOUS
 70
64
  3
Solid line
 72
65
 73
0
 40
0.0
  0
LTYPE
  5
1F5
100
AcDbSymbolTableRecord
100
AcDbLinetypeTableRecord
  2
CENTER
 70
64
  3
____ _ ____ _ ____ _ ____ _ ____ _ ____ _ ____
 72
65
 73
4
 40
0.6
 49
0.375
 74
0
 49
-0.075
 74
0
 49
0.075
 74
0
 49
-0.075
 74
0
  0
LTYPE
  5
1F6
100
AcDbSymbolTableRecord
100
AcDbLinetypeTableRecord
  2
HIDDEN
 70
64
  3
- - - - - - - - - - - - - - - - - - - -
 72
65
 73
2
 40
0.2
 49
0.1
 74
0
 49
-0.1
 74
0
  0
LTYPE
  5
1F7
100
AcDbSymbolTableRecord
100
AcDbLinetypeTableRecord
  2
PHANTOM
 70
64
  3
_____ _ _ _____ _ _ _____ _ _ _____
 72
65
 73
6
 40
0.8
 49
0.45
 74
0
 49
-0.05
 74
0
 49
0.1
 74
0
 49
-0.05
 74
0
 49
0.1
 74
0
 49
-0.05
 74
0
  0
LTYPE
  5
1F8
100
AcDbSymbolTableRecord
100
AcDbLinetypeTableRecord
  2
DOT
 70
64
  3
. . . . . . . . . . . . . . . . . . . .
 72
65
 73
2
 40
0.2
 49
0.1
 74
0
 49
-0.1
 74
0
  0
LTYPE
  5
1F9
100
AcDbSymbolTableRecord
100
AcDbLinetypeTableRecord
  2
DASHED
 70
64
  3
- - - - - - - - - - - - - - - - - - - -
 72
65
 73
2
 40
0.2
 49
0.1
 74
0
 49
-0.1
 74
0
  0
ENDTAB
  0
TABLE
  2
LAYER
  5
2
100
AcDbSymbolTable
 70
36
  0
LAYER
  5
10
100
AcDbSymbolTableRecord
100
AcDbLayerTableRecord
  2
0
 70
0
 62
7
  6
CONTINUOUS
370
-3
390
F
  0
LAYER
  5
1FA
100
AcDbSymbolTableRecord
100
AcDbLayerTableRecord
  2
DEFAULT_1
 70
0
 62
7
  6
CENTER
370
-3
390
F
  0
LAYER
  5
1FB
100
AcDbSymbolTableRecord
100
AcDbLayerTableRecord
  2
DEFAULT_2
 70
0
 62
7
  6
HIDDEN
370
-3
390
F
  0
LAYER
  5
1FC
100
AcDbSymbolTableRecord
100
AcDbLayerTableRecord
  2
DEFAULT_3
 70
0
 62
7
  6
PHANTOM
370
-3
390
F
  0
LAYER
  5
1FD
100
AcDbSymbolTableRecord
100
AcDbLayerTableRecord
  2
ASSI
 70
0
 62
7
  6
CONTINUOUS
370
-3
390
F
  0
LAYER
  5
1FE
100
AcDbSymbolTableRecord
100
AcDbLayerTableRecord
  2
BIDONE
 70
0
 62
7
  6
CONTINUOUS
370
-3
390
F
  0
LAYER
  5
1FF
100
AcDbSymbolTableRecord
100
AcDbLayerTableRecord
  2
COLOR6
 70
0
 62
7
  6
CONTINUOUS
370
-3
390
F
  0
LAYER
  5
200
100
AcDbSymbolTableRecord
100
AcDbLayerTableRecord
  2
COLORE_MATERIALE
 70
0
 62
7
  6
CONTINUOUS
370
-3
390
F
  0
LAYER
  5
201
100
AcDbSymbolTableRecord
100
AcDbLayerTableRecord
  2
COORDINATE
 70
0
 62
7
  6
CONTINUOUS
370
-3
390
F
  0
LAYER
  5
202
100
AcDbSymbolTableRecord
100
AcDbLayerTableRecord
  2
COORD_ORIGINE
 70
0
 62
7
  6
CONTINUOUS
370
-3
390
F
  0
LAYER
  5
203
100
AcDbSymbolTableRecord
100
AcDbLayerTableRecord
  2
CURVE
 70
0
 62
7
  6
CONTINUOUS
370
-3
390
F
  0
LAYER
  5
204
100
AcDbSymbolTableRecord
100
AcDbLayerTableRecord
  2
CURVE_LED_TASTO
 70
0
 62
7
  6
CONTINUOUS
370
-3
390
F
  0
LAYER
  5
205
100
AcDbSymbolTableRecord
100
AcDbLayerTableRecord
  2
DRAFT
 70
0
 62
7
  6
CONTINUOUS
370
-3
390
F
  0
LAYER
  5
206
100
AcDbSymbolTableRecord
100
AcDbLayerTableRecord
  2
IGES_SCRITTE
 70
0
 62
7
  6
CONTINUOUS
370
-3
390
F
  0
LAYER
  5
207
100
AcDbSymbolTableRecord
100
AcDbLayerTableRecord
  2
IMPORT
 70
0
 62
7
  6
CONTINUOUS
370
-3
390
F
  0
LAYER
  5
208
100
AcDbSymbolTableRecord
100
AcDbLayerTableRecord
  2
NOTE
 70
0
 62
7
  6
CONTINUOUS
370
-3
390
F
  0
LAYER
  5
209
100
AcDbSymbolTableRecord
100
AcDbLayerTableRecord
  2
PIANI
 70
0
 62
7
  6
CONTINUOUS
370
-3
390
F
  0
LAYER
  5
20A
100
AcDbSymbolTableRecord
100
AcDbLayerTableRecord
  2
PIANI_DI_RIFERIMENTO
 70
0
 62
7
  6
CONTINUOUS
370
-3
390
F
  0
LAYER
  5
20B
100
AcDbSymbolTableRecord
100
AcDbLayerTableRecord
  2
PIANI_ORIGINE
 70
0
 62
7
  6
CONTINUOUS
370
-3
390
F
  0
LAYER
  5
20C
100
AcDbSymbolTableRecord
100
AcDbLayerTableRecord
  2
PIANI_RIFERIMENTO
 70
0
 62
7
  6
CONTINUOUS
370
-3
390
F
  0
LAYER
  5
20D
100
AcDbSymbolTableRecord
100
AcDbLayerTableRecord
  2
PUNTI
 70
0
 62
7
  6
CONTINUOUS
370
-3
390
F
  0
LAYER
  5
20E
100
AcDbSymbolTableRecord
100
AcDbLayerTableRecord
  2
RACCORDO
 70
0
 62
7
  6
CONTINUOUS
370
-3
390
F
  0
LAYER
  5
20F
100
AcDbSymbolTableRecord
100
AcDbLayerTableRecord
  2
SMUSSO
 70
0
 62
7
  6
CONTINUOUS
370
-3
390
F
  0
LAYER
  5
210
100
AcDbSymbolTableRecord
100
AcDbLayerTableRecord
  2
SNAPLINE
 70
0
 62
7
  6
CONTINUOUS
370
-3
390
F
  0
LAYER
  5
211
100
AcDbSymbolTableRecord
100
AcDbLayerTableRecord
  2
SUPERFICI
 70
0
 62
7
  6
CONTINUOUS
370
-3
390
F
  0
LAYER
  5
212
100
AcDbSymbolTableRecord
100
AcDbLayerTableRecord
  2
TRASH
 70
0
 62
7
  6
CONTINUOUS
370
-3
390
F
  0
LAYER
  5
213
100
AcDbSymbolTableRecord
100
AcDbLayerTableRecord
  2
___SHELL
 70
0
 62
7
  6
CONTINUOUS
370
-3
390
F
  0
ENDTAB
  0
TABLE
  2
STYLE
  5
3
100
AcDbSymbolTable
 70
1
  0
STYLE
  5
11
100
AcDbSymbolTableRecord
100
AcDbTextStyleTableRecord
  2
STANDARD
 70
0
 40
0.0
 41
0.8
 50
0.0
 71
0
 42
0.2
  3
txt
  4

  0
STYLE
  5
214
100
AcDbSymbolTableRecord
100
AcDbTextStyleTableRecord
  2
TEXTSTYLE_1
 70
0
 40
0.0
 41
0.8
 50
0.0
 71
0
 42
0.2
  3
gdt
  4

  0
ENDTAB
  0
TABLE
  2
VIEW
  5
6
100
AcDbSymbolTable
 70
0
  0
ENDTAB
  0
TABLE
  2
UCS
  5
7
100
AcDbSymbolTable
 70
0
  0
ENDTAB
  0
TABLE
  2
APPID
  5
9
100
AcDbSymbolTable
 70
1
  0
APPID
  5
215
100
AcDbSymbolTableRecord
100
AcDbRegAppTableRecord
  2
ACAD
 70
0
  0
ENDTAB
  0
TABLE
  2
BLOCK_RECORD
  5
1
100
AcDbSymbolTable
 70
0
  0
BLOCK_RECORD
  5
216
100
AcDbSymbolTableRecord
100
AcDbBlockTableRecord
  2
*Model_Space
  0
BLOCK_RECORD
  5
217
100
AcDbSymbolTableRecord
100
AcDbBlockTableRecord
  2
*Paper_Space
  0
BLOCK_RECORD
  5
218
100
AcDbSymbolTableRecord
100
AcDbBlockTableRecord
  2
_FILLED
  0
BLOCK_RECORD
  5
219
100
AcDbSymbolTableRecord
100
AcDbBlockTableRecord
  2
*D0
  0
BLOCK_RECORD
  5
21A
100
AcDbSymbolTableRecord
100
AcDbBlockTableRecord
  2
*D1
  0
BLOCK_RECORD
  5
21B
100
AcDbSymbolTableRecord
100
AcDbBlockTableRecord
  2
*D2
  0
BLOCK_RECORD
  5
21C
100
AcDbSymbolTableRecord
100
AcDbBlockTableRecord
  2
*D3
  0
ENDTAB
  0
TABLE
  2
DIMSTYLE
  5
A
100
AcDbSymbolTable
 70
1
100
AcDbDimStyleTable
 71
0
  0
DIMSTYLE
105
21D
100
AcDbSymbolTableRecord
100
AcDbDimStyleTableRecord
  2
STANDARD
 70
0
  3

  4

 40
1.0
 41
3.0
 42
0.0625
 43
0.38
 44
0.18
 45
0.0
 46
0.0
 47
0.01
 48
0.01
140
3.0
141
0.09
142
0.0
143
25.4
144
1.0
145
0.0
146
1.0
147
0.09
 71
1.0
 72
0.0
 73
0
 74
0
 75
0
 76
0
 77
1
 78
8
170
0
171
2
172
0
173
0
174
0
175
0
176
0
177
0
178
0
270
2
271
2
272
2
273
2
274
2
275
0
280
0
281
0
282
0
283
1
284
8
285
0
286
0
287
3
288
0
340
11
341
218
342
218
343
218
344
218
  0
DIMSTYLE
105
21E
100
AcDbSymbolTableRecord
100
AcDbDimStyleTableRecord
  2
DIMSTYLE_1
 70
0
  3

  4

 40
1.0
 41
3.0
 42
0.0625
 43
0.38
 44
0.18
 45
0.0
 46
0.0
 47
0.0
 48
0.0
140
3.0
141
0.09
142
0.0
143
25.4
144
1.0
145
0.0
146
1.0
147
0.09
 71
0.0
 72
0.0
 73
0
 74
0
 75
0
 76
0
 77
1
 78
8
170
0
171
2
172
0
173
0
174
0
175
0
176
0
177
0
178
0
270
2
271
2
272
2
273
2
274
2
275
0
280
0
281
0
282
0
283
1
284
8
285
0
286
0
287
3
288
0
340
11
341
218
342
218
343
218
344
218
  0
ENDTAB
  0
ENDSEC
  0
SECTION
  2
BLOCKS
  0
BLOCK
  5
20
100
AcDbEntity
  8
0
100
AcDbBlockBegin
  2
*Model_Space
 70
0
 10
0.0
 20
0.0
 30
0.0
  3
*Model_Space
  1

  0
ENDBLK
  5
21
100
AcDbEntity
  8
0
100
AcDbBlockEnd
  0
BLOCK
  5
1C
100
AcDbEntity
  8
0
100
AcDbBlockBegin
  2
*Paper_Space
 70
0
 10
0.0
 20
0.0
 30
0.0
  3
*Paper_Space
  1

  0
ENDBLK
  5
1D
100
AcDbEntity
  8
0
100
AcDbBlockEnd
  0
BLOCK
  5
21F
100
AcDbEntity
  8
0
100
AcDbBlockBegin
  2
_FILLED
 70
64
 10
0.0
 20
0.0
  3
_FILLED
  1

  0
SOLID
  5
220
100
AcDbEntity
  8
0
  6
BYBLOCK
 62
0
100
AcDbTrace
 10
0.0
 20
0.0
 11
-1.0
 21
0.3166666667
 12
-1.0
 22
-0.3166666667
 13
-1.0
 23
-0.3166666667
  0
ENDBLK
  5
221
100
AcDbEntity
  8
0
  6
BYBLOCK
 62
0
100
AcDbBlockEnd
  0
BLOCK
  5
222
100
AcDbEntity
  8
0
100
AcDbBlockBegin
 62
7
  6
CONTINUOUS
  2
*D0
 70
65
 10
0.0
 20
0.0
  3
*D0
  1

  0
MTEXT
  5
223
100
AcDbEntity
  8
0
100
AcDbMText
 62
7
  6
CONTINUOUS
  7
STANDARD
 71
2
 72
1
 10
89.8570960808
 20
0.7399494482
 30
0.0
 11
0.0
 21
1.0
 31
0.0
 44
0.9
  1
49
 40
3.0
 41
4.7142857143
  0
LINE
  5
224
100
AcDbEntity
  8
0
100
AcDbLine
 62
7
  6
CONTINUOUS
 10
82.3423102908
 20
25.2399494482
 11
95.1070960808
 21
25.2399494482
  0
LINE
  5
225
100
AcDbEntity
  8
0
100
AcDbLine
 62
7
  6
CONTINUOUS
 10
82.3423102908
 20
-23.7600505518
 11
95.1070960808
 21
-23.7600505518
  0
LINE
  5
226
100
AcDbEntity
  8
0
100
AcDbLine
 62
7
  6
CONTINUOUS
 10
93.6070960808
 20
25.2399494482
 11
93.6070960808
 21
0.7399494482
  0
LINE
  5
227
100
AcDbEntity
  8
0
100
AcDbLine
 62
7
  6
CONTINUOUS
 10
93.6070960808
 20
-23.7600505518
 11
93.6070960808
 21
0.7399494482
  0
INSERT
  5
228
100
AcDbEntity
  8
0
100
AcDbBlockReference
 62
7
  6
CONTINUOUS
  2
_FILLED
 10
93.6070960808
 20
25.2399494482
 41
3.0
 42
3.0
 43
3.0
 50
90.0
  0
INSERT
  5
229
100
AcDbEntity
  8
0
100
AcDbBlockReference
 62
7
  6
CONTINUOUS
  2
_FILLED
 10
93.6070960808
 20
-23.7600505518
 41
3.0
 42
3.0
 43
3.0
 50
270.0
  0
ENDBLK
  5
22A
100
AcDbEntity
  8
0
  6
BYBLOCK
 62
0
100
AcDbBlockEnd
  0
BLOCK
  5
22B
100
AcDbEntity
  8
0
100
AcDbBlockBegin
 62
7
  6
CONTINUOUS
  2
*D1
 70
65
 10
0.0
 20
0.0
  3
*D1
  1

  0
MTEXT
  5
22C
100
AcDbEntity
  8
0
100
AcDbMText
 62
7
  6
CONTINUOUS
  7
STANDARD
 71
2
 72
1
 10
60.19230606
 20
37.4899494482
 30
0.0
 11
1.0
 21
0.0
 31
0.0
 44
0.9
  1
44,8
 40
3.0
 41
8.7857142857
  0
LINE
  5
22D
100
AcDbEntity
  8
0
100
AcDbLine
 62
7
  6
CONTINUOUS
 10
82.59230606
 20
23.1398542566
 11
82.59230606
 21
35.2399494482
  0
LINE
  5
22E
100
AcDbEntity
  8
0
100
AcDbLine
 62
7
  6
CONTINUOUS
 10
37.79230606
 20
23.1398542566
 11
37.79230606
 21
35.2399494482
  0
LINE
  5
22F
100
AcDbEntity
  8
0
100
AcDbLine
 62
7
  6
CONTINUOUS
 10
82.59230606
 20
33.7399494482
 11
60.19230606
 21
33.7399494482
  0
LINE
  5
230
100
AcDbEntity
  8
0
100
AcDbLine
 62
7
  6
CONTINUOUS
 10
37.79230606
 20
33.7399494482
 11
60.19230606
 21
33.7399494482
  0
INSERT
  5
231
100
AcDbEntity
  8
0
100
AcDbBlockReference
 62
7
  6
CONTINUOUS
  2
_FILLED
 10
82.59230606
 20
33.7399494482
 41
3.0
 42
3.0
 43
3.0
  0
INSERT
  5
232
100
AcDbEntity
  8
0
100
AcDbBlockReference
 62
7
  6
CONTINUOUS
  2
_FILLED
 10
37.79230606
 20
33.7399494482
 41
3.0
 42
3.0
 43
3.0
 50
180.0
  0
ENDBLK
  5
233
100
AcDbEntity
  8
0
  6
BYBLOCK
 62
0
100
AcDbBlockEnd
  0
BLOCK
  5
234
100
AcDbEntity
  8
0
100
AcDbBlockBegin
 62
7
  6
CONTINUOUS
  2
*D2
 70
65
 10
0.0
 20
0.0
  3
*D2
  1

  0
MTEXT
  5
235
100
AcDbEntity
  8
0
100
AcDbMText
 62
7
  6
CONTINUOUS
  7
STANDARD
 71
2
 72
1
 10
-0.2239101562
 20
49.4899494482
 30
0.0
 11
1.0
 21
0.0
 31
0.0
 44
0.9
  1
36
 40
3.0
 41
4.5
  0
LINE
  5
236
100
AcDbEntity
  8
0
100
AcDbLine
 62
7
  6
CONTINUOUS
 10
17.7760898438
 20
19.3615223234
 11
17.7760898438
 21
47.2399494482
  0
LINE
  5
237
100
AcDbEntity
  8
0
100
AcDbLine
 62
7
  6
CONTINUOUS
 10
-18.2239101562
 20
1.2399494482
 11
-18.2239101562
 21
47.2399494482
  0
LINE
  5
238
100
AcDbEntity
  8
0
100
AcDbLine
 62
7
  6
CONTINUOUS
 10
17.7760898438
 20
45.7399494482
 11
-0.2239101562
 21
45.7399494482
  0
LINE
  5
239
100
AcDbEntity
  8
0
100
AcDbLine
 62
7
  6
CONTINUOUS
 10
-18.2239101562
 20
45.7399494482
 11
-0.2239101562
 21
45.7399494482
  0
INSERT
  5
23A
100
AcDbEntity
  8
0
100
AcDbBlockReference
 62
7
  6
CONTINUOUS
  2
_FILLED
 10
17.7760898438
 20
45.7399494482
 41
3.0
 42
3.0
 43
3.0
  0
INSERT
  5
23B
100
AcDbEntity
  8
0
100
AcDbBlockReference
 62
7
  6
CONTINUOUS
  2
_FILLED
 10
-18.2239101562
 20
45.7399494482
 41
3.0
 42
3.0
 43
3.0
 50
180.0
  0
ENDBLK
  5
23C
100
AcDbEntity
  8
0
  6
BYBLOCK
 62
0
100
AcDbBlockEnd
  0
BLOCK
  5
23D
100
AcDbEntity
  8
0
100
AcDbBlockBegin
 62
7
  6
CONTINUOUS
  2
*D3
 70
65
 10
0.0
 20
0.0
  3
*D3
  1

  0
MTEXT
  5
23E
100
AcDbEntity
  8
0
100
AcDbMText
 62
7
  6
CONTINUOUS
  7
STANDARD
 71
2
 72
1
 10
5.0260898438
 20
37.4899494482
 30
0.0
 11
1.0
 21
0.0
 31
0.0
 44
0.9
  1
25,5
 40
3.0
 41
8.3571428571
  0
LINE
  5
23F
100
AcDbEntity
  8
0
100
AcDbLine
 62
7
  6
CONTINUOUS
 10
17.7760898438
 20
19.3615223234
 11
17.7760898438
 21
35.2399494482
  0
LINE
  5
240
100
AcDbEntity
  8
0
100
AcDbLine
 62
7
  6
CONTINUOUS
 10
-7.7239101562
 20
25.485581845
 11
-7.7239101562
 21
35.2399494482
  0
LINE
  5
241
100
AcDbEntity
  8
0
100
AcDbLine
 62
7
  6
CONTINUOUS
 10
17.7760898438
 20
33.7399494482
 11
5.0260898438
 21
33.7399494482
  0
LINE
  5
242
100
AcDbEntity
  8
0
100
AcDbLine
 62
7
  6
CONTINUOUS
 10
-7.7239101562
 20
33.7399494482
 11
5.0260898438
 21
33.7399494482
  0
INSERT
  5
243
100
AcDbEntity
  8
0
100
AcDbBlockReference
 62
7
  6
CONTINUOUS
  2
_FILLED
 10
17.7760898438
 20
33.7399494482
 41
3.0
 42
3.0
 43
3.0
  0
INSERT
  5
244
100
AcDbEntity
  8
0
100
AcDbBlockReference
 62
7
  6
CONTINUOUS
  2
_FILLED
 10
-7.7239101562
 20
33.7399494482
 41
3.0
 42
3.0
 43
3.0
 50
180.0
  0
ENDBLK
  5
245
100
AcDbEntity
  8
0
  6
BYBLOCK
 62
0
100
AcDbBlockEnd
  0
ENDSEC
  0
SECTION
  2
ENTITIES
  0
DIMENSION
  5
246
100
AcDbEntity
  8
0
100
AcDbDimension
 62
7
  6
CONTINUOUS
  2
*D0
 10
93.6070960808
 20
-23.7600505518
 11
92.4132696045
 21
-1.3673284017
 70
160
 71
2
 42
49.0
  3
DIMSTYLE_1
100
AcDbAlignedDimension
 13
82.3423102908
 23
25.2399494482
 14
82.3423102908
 24
-23.7600505518
 50
270.0
100
AcDbRotatedDimension
  0
DIMENSION
  5
247
100
AcDbEntity
  8
0
100
AcDbDimension
 62
7
  6
CONTINUOUS
  2
*D1
 10
37.79230606
 20
33.7399494482
 11
55.7994489171
 21
35.9899494482
 70
160
 71
2
 42
44.8
  3
DIMSTYLE_1
100
AcDbAlignedDimension
 13
82.59230606
 23
23.1398542566
 14
37.79230606
 24
23.1398542566
 50
180.0
100
AcDbRotatedDimension
  0
DIMENSION
  5
248
100
AcDbEntity
  8
0
100
AcDbDimension
 62
7
  6
CONTINUOUS
  2
*D2
 10
-18.2239101562
 20
45.7399494482
 11
-2.4739101562
 21
47.9899494482
 70
160
 71
2
 42
36.0
  3
DIMSTYLE_1
100
AcDbAlignedDimension
 13
17.7760898438
 23
19.3615223234
 14
-18.2239101562
 24
1.2399494482
 50
180.0
100
AcDbRotatedDimension
  0
DIMENSION
  5
249
100
AcDbEntity
  8
0
100
AcDbDimension
 62
7
  6
CONTINUOUS
  2
*D3
 10
-7.7239101562
 20
33.7399494482
 11
0.8475184152
 21
35.9899494482
 70
160
 71
2
 42
25.5
  3
DIMSTYLE_1
100
AcDbAlignedDimension
 13
17.7760898438
 23
19.3615223234
 14
-7.7239101562
 24
25.485581845
 50
180.0
100
AcDbRotatedDimension
  0
LINE
  5
24A
100
AcDbEntity
  8
RACCORDO
100
AcDbLine
 62
7
  6
CONTINUOUS
 10
38.29230606
 20
23.1483662839
 11
38.2914771347
 21
23.1471785342
  0
LINE
  5
24B
100
AcDbEntity
  8
RACCORDO
100
AcDbLine
 62
253
  6
CONTINUOUS
 10
40.4423102908
 20
25.2399494482
 11
40.429211712
 21
25.2268508695
  0
LINE
  5
24C
100
AcDbEntity
  8
RACCORDO
100
AcDbLine
 62
253
  6
CONTINUOUS
 10
40.69230606
 20
24.989953679
 11
40.6792074812
 21
24.9768551002
  0
LINE
  5
24D
100
AcDbEntity
  8
RACCORDO
100
AcDbLine
 62
253
  6
CONTINUOUS
 10
40.4423102908
 20
-23.7600505518
 11
40.429211712
 21
-23.7469519731
  0
LINE
  5
24E
100
AcDbEntity
  8
RACCORDO
100
AcDbLine
 62
253
  6
CONTINUOUS
 10
40.69230606
 20
-23.5100547826
 11
40.6792074812
 21
-23.4969562039
  0
LINE
  5
24F
100
AcDbEntity
  8
RACCORDO
100
AcDbLine
 62
7
  6
CONTINUOUS
 10
38.29230606
 20
-21.6684673876
 11
38.2914771347
 21
-21.6672796379
  0
LINE
  5
250
100
AcDbEntity
  8
RACCORDO
100
AcDbLine
 62
253
  6
CONTINUOUS
 10
37.8072312813
 20
22.6473162989
 11
37.79230606
 21
22.6398542566
  0
LINE
  5
251
100
AcDbEntity
  8
RACCORDO
100
AcDbLine
 62
253
  6
CONTINUOUS
 10
37.79230606
 20
-21.1599553602
 11
37.8072312813
 21
-21.1674174025
  0
LINE
  5
252
100
AcDbEntity
  8
RACCORDO
100
AcDbLine
 62
253
  6
CONTINUOUS
 10
38.3054046387
 20
-23.1043881191
 11
38.2995868089
 21
-22.5270378499
  0
LINE
  5
253
100
AcDbEntity
  8
RACCORDO
100
AcDbLine
 62
253
  6
CONTINUOUS
 10
38.5554004079
 20
-22.8878817682
 11
38.5503098068
 21
-22.3827002826
  0
LINE
  5
254
100
AcDbEntity
  8
RACCORDO
100
AcDbLine
 62
7
  6
CONTINUOUS
 10
37.79230606
 20
22.6398542566
 11
37.79230606
 21
-21.1599553602
  0
LINE
  5
255
100
AcDbEntity
  8
DRAFT
100
AcDbLine
 62
7
  6
CONTINUOUS
 10
37.79230606
 20
-17.3816234271
 11
37.79230606
 21
18.8615223234
  0
LINE
  5
256
100
AcDbEntity
  8
IMPORT
100
AcDbLine
 62
7
  6
CONTINUOUS
 10
37.79230606
 20
-17.3816234271
 11
37.79230606
 21
18.8615223234
  0
LINE
  5
257
100
AcDbEntity
  8
RACCORDO
100
AcDbLine
 62
7
  6
CONTINUOUS
 10
38.29230606
 20
-21.6684673876
 11
38.29230606
 21
-23.5100547826
  0
LINE
  5
258
100
AcDbEntity
  8
RACCORDO
100
AcDbLine
 62
7
  6
CONTINUOUS
 10
38.29230606
 20
23.1483662839
 11
38.29230606
 21
24.989953679
  0
LINE
  5
259
100
AcDbEntity
  8
RACCORDO
100
AcDbLine
 62
7
  6
CONTINUOUS
 10
38.2995868089
 20
-22.5270378499
 11
38.2995868089
 21
-21.5934615132
  0
LINE
  5
25A
100
AcDbEntity
  8
RACCORDO
100
AcDbLine
 62
7
  6
CONTINUOUS
 10
38.2995868089
 20
23.0733604096
 11
38.2995868089
 21
24.0069367463
  0
LINE
  5
25B
100
AcDbEntity
  8
RACCORDO
100
AcDbLine
 62
7
  6
CONTINUOUS
 10
38.3054046387
 20
24.9768551002
 11
38.3054046387
 21
24.5842870155
  0
LINE
  5
25C
100
AcDbEntity
  8
RACCORDO
100
AcDbLine
 62
7
  6
CONTINUOUS
 10
38.3054046387
 20
-23.1043881191
 11
38.3054046387
 21
-23.4969562039
  0
LINE
  5
25D
100
AcDbEntity
  8
RACCORDO
100
AcDbLine
 62
253
  6
CONTINUOUS
 10
38.4595568684
 20
-19.8225188766
 11
38.4595568684
 21
21.302417773
  0
LINE
  5
25E
100
AcDbEntity
  8
RACCORDO
100
AcDbLine
 62
253
  6
CONTINUOUS
 10
38.5495825781
 20
-22.3827002826
 11
38.5495825781
 21
-21.5814388829
  0
LINE
  5
25F
100
AcDbEntity
  8
RACCORDO
100
AcDbLine
 62
253
  6
CONTINUOUS
 10
38.5495825781
 20
23.0613377792
 11
38.5495825781
 21
23.862599179
  0
LINE
  5
260
100
AcDbEntity
  8
RACCORDO
100
AcDbLine
 62
253
  6
CONTINUOUS
 10
38.5554004079
 20
-22.8878817682
 11
38.5554004079
 21
-23.7469519731
  0
LINE
  5
261
100
AcDbEntity
  8
RACCORDO
100
AcDbLine
 62
253
  6
CONTINUOUS
 10
38.5554004079
 20
24.3677806645
 11
38.5554004079
 21
25.2268508695
  0
LINE
  5
262
100
AcDbEntity
  8
RACCORDO
100
AcDbLine
 62
253
  6
CONTINUOUS
 10
38.2995868089
 20
24.0069367463
 11
38.3054046387
 21
24.5842870155
  0
LINE
  5
263
100
AcDbEntity
  8
RACCORDO
100
AcDbLine
 62
253
  6
CONTINUOUS
 10
38.5503098068
 20
23.862599179
 11
38.5554004079
 21
24.3677806645
  0
LINE
  5
264
100
AcDbEntity
  8
RACCORDO
100
AcDbLine
 62
7
  6
CONTINUOUS
 10
81.8423102908
 20
-23.7600505518
 11
79.9423018292
 21
-23.7600505518
  0
LINE
  5
265
100
AcDbEntity
  8
RACCORDO
100
AcDbLine
 62
7
  6
CONTINUOUS
 10
62.9423102908
 20
-23.7600505518
 11
61.0423018292
 21
-23.7600505518
  0
LINE
  5
266
100
AcDbEntity
  8
RACCORDO
100
AcDbLine
 62
7
  6
CONTINUOUS
 10
59.3423102908
 20
-23.7600505518
 11
57.4423018292
 21
-23.7600505518
  0
LINE
  5
267
100
AcDbEntity
  8
RACCORDO
100
AcDbLine
 62
7
  6
CONTINUOUS
 10
40.4423102908
 20
-23.7600505518
 11
38.5423018292
 21
-23.7600505518
  0
LINE
  5
268
100
AcDbEntity
  8
RACCORDO
100
AcDbLine
 62
7
  6
CONTINUOUS
 10
38.5554004079
 20
-23.7469519731
 11
40.429211712
 21
-23.7469519731
  0
LINE
  5
269
100
AcDbEntity
  8
RACCORDO
100
AcDbLine
 62
7
  6
CONTINUOUS
 10
57.4554004079
 20
-23.7469519731
 11
59.329211712
 21
-23.7469519731
  0
LINE
  5
26A
100
AcDbEntity
  8
RACCORDO
100
AcDbLine
 62
7
  6
CONTINUOUS
 10
61.0554004079
 20
-23.7469519731
 11
62.929211712
 21
-23.7469519731
  0
LINE
  5
26B
100
AcDbEntity
  8
RACCORDO
100
AcDbLine
 62
7
  6
CONTINUOUS
 10
79.9554004079
 20
-23.7469519731
 11
81.829211712
 21
-23.7469519731
  0
LINE
  5
26C
100
AcDbEntity
  8
RACCORDO
100
AcDbLine
 62
253
  6
CONTINUOUS
 10
38.3054046387
 20
-23.4969562039
 11
40.6792074812
 21
-23.4969562039
  0
LINE
  5
26D
100
AcDbEntity
  8
RACCORDO
100
AcDbLine
 62
253
  6
CONTINUOUS
 10
57.2054046387
 20
-23.4969562039
 11
59.5792074812
 21
-23.4969562039
  0
LINE
  5
26E
100
AcDbEntity
  8
RACCORDO
100
AcDbLine
 62
253
  6
CONTINUOUS
 10
60.8054046387
 20
-23.4969562039
 11
63.1792074812
 21
-23.4969562039
  0
LINE
  5
26F
100
AcDbEntity
  8
RACCORDO
100
AcDbLine
 62
253
  6
CONTINUOUS
 10
79.7054046387
 20
-23.4969562039
 11
82.0792074812
 21
-23.4969562039
  0
LINE
  5
270
100
AcDbEntity
  8
RACCORDO
100
AcDbLine
 62
253
  6
CONTINUOUS
 10
38.3054046387
 20
-23.1043881191
 11
40.6792074812
 21
-23.1043881191
  0
LINE
  5
271
100
AcDbEntity
  8
RACCORDO
100
AcDbLine
 62
253
  6
CONTINUOUS
 10
57.2054046387
 20
-23.1043881191
 11
59.5792074812
 21
-23.1043881191
  0
LINE
  5
272
100
AcDbEntity
  8
RACCORDO
100
AcDbLine
 62
253
  6
CONTINUOUS
 10
60.8054046387
 20
-23.1043881191
 11
63.1792074812
 21
-23.1043881191
  0
LINE
  5
273
100
AcDbEntity
  8
RACCORDO
100
AcDbLine
 62
253
  6
CONTINUOUS
 10
79.7054046387
 20
-23.1043881191
 11
82.0792074812
 21
-23.1043881191
  0
LINE
  5
274
100
AcDbEntity
  8
RACCORDO
100
AcDbLine
 62
253
  6
CONTINUOUS
 10
40.429211712
 20
24.3677806645
 11
40.4343023131
 21
23.862599179
  0
LINE
  5
275
100
AcDbEntity
  8
RACCORDO
100
AcDbLine
 62
253
  6
CONTINUOUS
 10
40.6792074812
 20
24.5842870155
 11
40.6850253111
 21
24.0069367463
  0
LINE
  5
276
100
AcDbEntity
  8
RACCORDO
100
AcDbLine
 62
253
  6
CONTINUOUS
 10
40.429211712
 20
-22.8878817682
 11
40.429211712
 21
-23.7469519731
  0
LINE
  5
277
100
AcDbEntity
  8
RACCORDO
100
AcDbLine
 62
253
  6
CONTINUOUS
 10
40.429211712
 20
24.3677806645
 11
40.429211712
 21
25.2268508695
  0
LINE
  5
278
100
AcDbEntity
  8
RACCORDO
100
AcDbLine
 62
253
  6
CONTINUOUS
 10
40.4350295418
 20
23.862599179
 11
40.4350295418
 21
23.0613377792
  0
LINE
  5
279
100
AcDbEntity
  8
RACCORDO
100
AcDbLine
 62
253
  6
CONTINUOUS
 10
40.4350295418
 20
-21.5814388829
 11
40.4350295418
 21
-22.3827002826
  0
LINE
  5
27A
100
AcDbEntity
  8
RACCORDO
100
AcDbLine
 62
7
  6
CONTINUOUS
 10
40.6792074812
 20
-23.4969562039
 11
40.6792074812
 21
-23.1043881191
  0
LINE
  5
27B
100
AcDbEntity
  8
RACCORDO
100
AcDbLine
 62
7
  6
CONTINUOUS
 10
40.6792074812
 20
24.5842870155
 11
40.6792074812
 21
24.9768551002
  0
LINE
  5
27C
100
AcDbEntity
  8
RACCORDO
100
AcDbLine
 62
7
  6
CONTINUOUS
 10
40.6850253111
 20
24.0069367463
 11
40.6850253111
 21
23.0743635005
  0
LINE
  5
27D
100
AcDbEntity
  8
RACCORDO
100
AcDbLine
 62
7
  6
CONTINUOUS
 10
40.6850253111
 20
-21.5944646041
 11
40.6850253111
 21
-22.5270378499
  0
LINE
  5
27E
100
AcDbEntity
  8
RACCORDO
100
AcDbLine
 62
7
  6
CONTINUOUS
 10
40.69230606
 20
-21.6687774196
 11
40.69230606
 21
-23.5100547826
  0
LINE
  5
27F
100
AcDbEntity
  8
RACCORDO
100
AcDbLine
 62
7
  6
CONTINUOUS
 10
40.69230606
 20
23.148676316
 11
40.69230606
 21
24.989953679
  0
LINE
  5
280
100
AcDbEntity
  8
RACCORDO
100
AcDbLine
 62
253
  6
CONTINUOUS
 10
40.4343023131
 20
-22.3827002826
 11
40.429211712
 21
-22.8878817682
  0
LINE
  5
281
100
AcDbEntity
  8
RACCORDO
100
AcDbLine
 62
253
  6
CONTINUOUS
 10
40.6850253111
 20
-22.5270378499
 11
40.6792074812
 21
-23.1043881191
  0
LINE
  5
282
100
AcDbEntity
  8
RACCORDO
100
AcDbLine
 62
7
  6
CONTINUOUS
 10
44.6460987463
 20
-23.0553895187
 11
53.2385133736
 21
-23.0553895187
  0
LINE
  5
283
100
AcDbEntity
  8
RACCORDO
100
AcDbLine
 62
7
  6
CONTINUOUS
 10
67.1460987463
 20
-23.0553895187
 11
75.7385133736
 21
-23.0553895187
  0
LINE
  5
284
100
AcDbEntity
  8
RACCORDO
100
AcDbLine
 62
253
  6
CONTINUOUS
 10
81.829211712
 20
-22.8878817682
 11
79.9554004079
 21
-22.8878817682
  0
LINE
  5
285
100
AcDbEntity
  8
RACCORDO
100
AcDbLine
 62
253
  6
CONTINUOUS
 10
62.929211712
 20
-22.8878817682
 11
61.0554004079
 21
-22.8878817682
  0
LINE
  5
286
100
AcDbEntity
  8
RACCORDO
100
AcDbLine
 62
253
  6
CONTINUOUS
 10
59.329211712
 20
-22.8878817682
 11
57.4554004079
 21
-22.8878817682
  0
LINE
  5
287
100
AcDbEntity
  8
RACCORDO
100
AcDbLine
 62
253
  6
CONTINUOUS
 10
40.429211712
 20
-22.8878817682
 11
38.5554004079
 21
-22.8878817682
  0
LINE
  5
288
100
AcDbEntity
  8
RACCORDO
100
AcDbLine
 62
253
  6
CONTINUOUS
 10
45.0452234366
 20
-22.8553929033
 11
52.8393886833
 21
-22.8553929033
  0
LINE
  5
289
100
AcDbEntity
  8
RACCORDO
100
AcDbLine
 62
253
  6
CONTINUOUS
 10
67.5452234366
 20
-22.8553929033
 11
75.3393886833
 21
-22.8553929033
  0
LINE
  5
28A
100
AcDbEntity
  8
RACCORDO
100
AcDbLine
 62
7
  6
CONTINUOUS
 10
38.5503098068
 20
-22.3827002826
 11
40.4343023131
 21
-22.3827002826
  0
LINE
  5
28B
100
AcDbEntity
  8
RACCORDO
100
AcDbLine
 62
7
  6
CONTINUOUS
 10
57.4503098068
 20
-22.3827002826
 11
59.3343023131
 21
-22.3827002826
  0
LINE
  5
28C
100
AcDbEntity
  8
RACCORDO
100
AcDbLine
 62
7
  6
CONTINUOUS
 10
61.0503098068
 20
-22.3827002826
 11
62.9343023131
 21
-22.3827002826
  0
LINE
  5
28D
100
AcDbEntity
  8
RACCORDO
100
AcDbLine
 62
7
  6
CONTINUOUS
 10
79.9503098068
 20
-22.3827002826
 11
81.8343023131
 21
-22.3827002826
  0
LINE
  5
28E
100
AcDbEntity
  8
DRAFT
100
AcDbLine
 62
7
  6
CONTINUOUS
 10
79.6914755746
 20
-21.667531674
 11
75.8414755746
 21
-21.667531674
  0
LINE
  5
28F
100
AcDbEntity
  8
DRAFT
100
AcDbLine
 62
7
  6
CONTINUOUS
 10
67.0431365454
 20
-21.667531674
 11
63.1931365454
 21
-21.667531674
  0
LINE
  5
290
100
AcDbEntity
  8
DRAFT
100
AcDbLine
 62
7
  6
CONTINUOUS
 10
60.7914755746
 20
-21.667531674
 11
59.5931365454
 21
-21.667531674
  0
LINE
  5
291
100
AcDbEntity
  8
DRAFT
100
AcDbLine
 62
7
  6
CONTINUOUS
 10
57.1914755746
 20
-21.667531674
 11
53.3414755746
 21
-21.667531674
  0
LINE
  5
292
100
AcDbEntity
  8
DRAFT
100
AcDbLine
 62
7
  6
CONTINUOUS
 10
44.5431365454
 20
-21.667531674
 11
40.6931365454
 21
-21.667531674
  0
LINE
  5
293
100
AcDbEntity
  8
RACCORDO
100
AcDbLine
 62
7
  6
CONTINUOUS
 10
75.3393886833
 20
-21.6076427725
 11
67.5452234366
 21
-21.6076427725
  0
LINE
  5
294
100
AcDbEntity
  8
RACCORDO
100
AcDbLine
 62
7
  6
CONTINUOUS
 10
52.8393886833
 20
-21.6076427725
 11
45.0452234366
 21
-21.6076427725
  0
LINE
  5
295
100
AcDbEntity
  8
RACCORDO
100
AcDbLine
 62
7
  6
CONTINUOUS
 10
38.5495825781
 20
-21.5814388829
 11
40.4350295418
 21
-21.5814388829
  0
LINE
  5
296
100
AcDbEntity
  8
RACCORDO
100
AcDbLine
 62
7
  6
CONTINUOUS
 10
57.4495825781
 20
-21.5814388829
 11
59.3350295418
 21
-21.5814388829
  0
LINE
  5
297
100
AcDbEntity
  8
RACCORDO
100
AcDbLine
 62
7
  6
CONTINUOUS
 10
61.0495825781
 20
-21.5814388829
 11
62.9350295418
 21
-21.5814388829
  0
LINE
  5
298
100
AcDbEntity
  8
RACCORDO
100
AcDbLine
 62
7
  6
CONTINUOUS
 10
79.9495825781
 20
-21.5814388829
 11
81.8350295418
 21
-21.5814388829
  0
LINE
  5
299
100
AcDbEntity
  8
RACCORDO
100
AcDbLine
 62
253
  6
CONTINUOUS
 10
38.4430300978
 20
-21.2587757738
 11
81.9415820221
 21
-21.2587757738
  0
LINE
  5
29A
100
AcDbEntity
  8
RACCORDO
100
AcDbLine
 62
7
  6
CONTINUOUS
 10
44.5452318982
 20
24.53702361
 11
44.5452318982
 21
23.1135931113
  0
LINE
  5
29B
100
AcDbEntity
  8
RACCORDO
100
AcDbLine
 62
7
  6
CONTINUOUS
 10
44.5452318982
 20
-21.633694215
 11
44.5452318982
 21
-23.0571247136
  0
LINE
  5
29C
100
AcDbEntity
  8
RACCORDO
100
AcDbLine
 62
253
  6
CONTINUOUS
 10
59.3423102908
 20
25.2399494482
 11
59.329211712
 21
25.2268508695
  0
LINE
  5
29D
100
AcDbEntity
  8
RACCORDO
100
AcDbLine
 62
253
  6
CONTINUOUS
 10
59.59230606
 20
24.989953679
 11
59.5792074812
 21
24.9768551002
  0
LINE
  5
29E
100
AcDbEntity
  8
RACCORDO
100
AcDbLine
 62
253
  6
CONTINUOUS
 10
38.4595568684
 20
-19.8225188766
 11
81.9250552515
 21
-19.8225188766
  0
LINE
  5
29F
100
AcDbEntity
  8
RACCORDO
100
AcDbLine
 62
253
  6
CONTINUOUS
 10
59.3423102908
 20
-23.7600505518
 11
59.329211712
 21
-23.7469519731
  0
LINE
  5
2A0
100
AcDbEntity
  8
RACCORDO
100
AcDbLine
 62
253
  6
CONTINUOUS
 10
59.59230606
 20
-23.5100547826
 11
59.5792074812
 21
-23.4969562039
  0
LINE
  5
2A1
100
AcDbEntity
  8
RACCORDO
100
AcDbLine
 62
253
  6
CONTINUOUS
 10
45.0452234366
 20
24.3352917996
 11
45.0452234366
 21
23.0875416689
  0
LINE
  5
2A2
100
AcDbEntity
  8
RACCORDO
100
AcDbLine
 62
253
  6
CONTINUOUS
 10
45.0452234366
 20
-21.6076427725
 11
45.0452234366
 21
-22.8553929033
  0
LINE
  5
2A3
100
AcDbEntity
  8
RACCORDO
100
AcDbLine
 62
253
  6
CONTINUOUS
 10
37.8072312813
 20
-21.1674174025
 11
37.9431062502
 21
-20.7594610064
  0
LINE
  5
2A4
100
AcDbEntity
  8
RACCORDO
100
AcDbLine
 62
253
  6
CONTINUOUS
 10
38.4430300978
 20
-21.2587757738
 11
38.33339072
 21
-21.5879613904
  0
LINE
  5
2A5
100
AcDbEntity
  8
DRAFT
100
AcDbLine
 62
7
  6
CONTINUOUS
 10
57.1914755746
 20
23.1474305703
 11
57.19230606
 21
23.148676316
  0
LINE
  5
2A6
100
AcDbEntity
  8
RACCORDO
100
AcDbLine
 62
253
  6
CONTINUOUS
 10
62.9423102908
 20
25.2399494482
 11
62.929211712
 21
25.2268508695
  0
LINE
  5
2A7
100
AcDbEntity
  8
RACCORDO
100
AcDbLine
 62
253
  6
CONTINUOUS
 10
63.19230606
 20
24.989953679
 11
63.1792074812
 21
24.9768551002
  0
LINE
  5
2A8
100
AcDbEntity
  8
RACCORDO
100
AcDbLine
 62
253
  6
CONTINUOUS
 10
62.9423102908
 20
-23.7600505518
 11
62.929211712
 21
-23.7469519731
  0
LINE
  5
2A9
100
AcDbEntity
  8
RACCORDO
100
AcDbLine
 62
253
  6
CONTINUOUS
 10
63.19230606
 20
-23.5100547826
 11
63.1792074812
 21
-23.4969562039
  0
LINE
  5
2AA
100
AcDbEntity
  8
DRAFT
100
AcDbLine
 62
7
  6
CONTINUOUS
 10
57.19230606
 20
-21.6687774196
 11
57.1914755746
 21
-21.667531674
  0
LINE
  5
2AB
100
AcDbEntity
  8
RACCORDO
100
AcDbLine
 62
253
  6
CONTINUOUS
 10
37.9431062502
 20
22.2393599028
 11
37.8072312813
 21
22.6473162989
  0
LINE
  5
2AC
100
AcDbEntity
  8
RACCORDO
100
AcDbLine
 62
253
  6
CONTINUOUS
 10
38.33339072
 20
23.0678602868
 11
38.4430300978
 21
22.7386746701
  0
LINE
  5
2AD
100
AcDbEntity
  8
DRAFT
100
AcDbLine
 62
7
  6
CONTINUOUS
 10
60.7914755746
 20
23.1474305703
 11
60.79230606
 21
23.148676316
  0
LINE
  5
2AE
100
AcDbEntity
  8
DRAFT
100
AcDbLine
 62
7
  6
CONTINUOUS
 10
60.79230606
 20
-21.6687774196
 11
60.7914755746
 21
-21.667531674
  0
LINE
  5
2AF
100
AcDbEntity
  8
RACCORDO
100
AcDbLine
 62
253
  6
CONTINUOUS
 10
52.8393886833
 20
-22.8553929033
 11
52.8393886833
 21
-21.6076427725
  0
LINE
  5
2B0
100
AcDbEntity
  8
RACCORDO
100
AcDbLine
 62
253
  6
CONTINUOUS
 10
52.8393886833
 20
23.0875416689
 11
52.8393886833
 21
24.3352917996
  0
LINE
  5
2B1
100
AcDbEntity
  8
RACCORDO
100
AcDbLine
 62
7
  6
CONTINUOUS
 10
53.3393802218
 20
-23.0571247136
 11
53.3393802218
 21
-21.633694215
  0
LINE
  5
2B2
100
AcDbEntity
  8
RACCORDO
100
AcDbLine
 62
7
  6
CONTINUOUS
 10
53.3393802218
 20
23.1135931113
 11
53.3393802218
 21
24.53702361
  0
LINE
  5
2B3
100
AcDbEntity
  8
RACCORDO
100
AcDbLine
 62
253
  6
CONTINUOUS
 10
57.2054046387
 20
-23.1043881191
 11
57.1995868089
 21
-22.5270378499
  0
LINE
  5
2B4
100
AcDbEntity
  8
RACCORDO
100
AcDbLine
 62
253
  6
CONTINUOUS
 10
57.1995868089
 20
24.0069367463
 11
57.2054046387
 21
24.5842870155
  0
LINE
  5
2B5
100
AcDbEntity
  8
DRAFT
100
AcDbLine
 62
7
  6
CONTINUOUS
 10
40.6931365454
 20
-21.667531674
 11
40.69230606
 21
-21.6687774196
  0
LINE
  5
2B6
100
AcDbEntity
  8
DRAFT
100
AcDbLine
 62
7
  6
CONTINUOUS
 10
40.69230606
 20
23.148676316
 11
40.6931365454
 21
23.1474305703
  0
LINE
  5
2B7
100
AcDbEntity
  8
RACCORDO
100
AcDbLine
 62
253
  6
CONTINUOUS
 10
57.4554004079
 20
-22.8878817682
 11
57.4503098068
 21
-22.3827002826
  0
LINE
  5
2B8
100
AcDbEntity
  8
RACCORDO
100
AcDbLine
 62
7
  6
CONTINUOUS
 10
57.19230606
 20
-21.6687774196
 11
57.19230606
 21
-23.5100547826
  0
LINE
  5
2B9
100
AcDbEntity
  8
RACCORDO
100
AcDbLine
 62
7
  6
CONTINUOUS
 10
57.19230606
 20
23.148676316
 11
57.19230606
 21
24.989953679
  0
LINE
  5
2BA
100
AcDbEntity
  8
RACCORDO
100
AcDbLine
 62
7
  6
CONTINUOUS
 10
57.1995868089
 20
-22.5270378499
 11
57.1995868089
 21
-21.5944646041
  0
LINE
  5
2BB
100
AcDbEntity
  8
RACCORDO
100
AcDbLine
 62
7
  6
CONTINUOUS
 10
57.1995868089
 20
23.0743635005
 11
57.1995868089
 21
24.0069367463
  0
LINE
  5
2BC
100
AcDbEntity
  8
RACCORDO
100
AcDbLine
 62
7
  6
CONTINUOUS
 10
57.2054046387
 20
24.9768551002
 11
57.2054046387
 21
24.5842870155
  0
LINE
  5
2BD
100
AcDbEntity
  8
RACCORDO
100
AcDbLine
 62
7
  6
CONTINUOUS
 10
57.2054046387
 20
-23.1043881191
 11
57.2054046387
 21
-23.4969562039
  0
LINE
  5
2BE
100
AcDbEntity
  8
RACCORDO
100
AcDbLine
 62
253
  6
CONTINUOUS
 10
57.4495825781
 20
-22.3827002826
 11
57.4495825781
 21
-21.5814388829
  0
LINE
  5
2BF
100
AcDbEntity
  8
RACCORDO
100
AcDbLine
 62
253
  6
CONTINUOUS
 10
57.4495825781
 20
23.0613377792
 11
57.4495825781
 21
23.862599179
  0
LINE
  5
2C0
100
AcDbEntity
  8
RACCORDO
100
AcDbLine
 62
253
  6
CONTINUOUS
 10
57.4554004079
 20
-22.8878817682
 11
57.4554004079
 21
-23.7469519731
  0
LINE
  5
2C1
100
AcDbEntity
  8
RACCORDO
100
AcDbLine
 62
253
  6
CONTINUOUS
 10
57.4554004079
 20
24.3677806645
 11
57.4554004079
 21
25.2268508695
  0
LINE
  5
2C2
100
AcDbEntity
  8
RACCORDO
100
AcDbLine
 62
253
  6
CONTINUOUS
 10
59.329211712
 20
-22.8878817682
 11
59.329211712
 21
-23.7469519731
  0
LINE
  5
2C3
100
AcDbEntity
  8
RACCORDO
100
AcDbLine
 62
253
  6
CONTINUOUS
 10
59.329211712
 20
24.3677806645
 11
59.329211712
 21
25.2268508695
  0
LINE
  5
2C4
100
AcDbEntity
  8
RACCORDO
100
AcDbLine
 62
253
  6
CONTINUOUS
 10
59.3350295418
 20
23.862599179
 11
59.3350295418
 21
23.0613377792
  0
LINE
  5
2C5
100
AcDbEntity
  8
RACCORDO
100
AcDbLine
 62
253
  6
CONTINUOUS
 10
59.3350295418
 20
-21.5814388829
 11
59.3350295418
 21
-22.3827002826
  0
LINE
  5
2C6
100
AcDbEntity
  8
RACCORDO
100
AcDbLine
 62
253
  6
CONTINUOUS
 10
57.4503098068
 20
23.862599179
 11
57.4554004079
 21
24.3677806645
  0
LINE
  5
2C7
100
AcDbEntity
  8
RACCORDO
100
AcDbLine
 62
253
  6
CONTINUOUS
 10
81.8423102908
 20
25.2399494482
 11
81.829211712
 21
25.2268508695
  0
LINE
  5
2C8
100
AcDbEntity
  8
RACCORDO
100
AcDbLine
 62
253
  6
CONTINUOUS
 10
81.8423102908
 20
-23.7600505518
 11
81.829211712
 21
-23.7469519731
  0
LINE
  5
2C9
100
AcDbEntity
  8
RACCORDO
100
AcDbLine
 62
253
  6
CONTINUOUS
 10
59.329211712
 20
24.3677806645
 11
59.3343023131
 21
23.862599179
  0
LINE
  5
2CA
100
AcDbEntity
  8
RACCORDO
100
AcDbLine
 62
253
  6
CONTINUOUS
 10
59.5792074812
 20
24.5842870155
 11
59.5850253111
 21
24.0069367463
  0
LINE
  5
2CB
100
AcDbEntity
  8
RACCORDO
100
AcDbLine
 62
253
  6
CONTINUOUS
 10
60.8054046387
 20
-23.1043881191
 11
60.7995868089
 21
-22.5270378499
  0
LINE
  5
2CC
100
AcDbEntity
  8
RACCORDO
100
AcDbLine
 62
253
  6
CONTINUOUS
 10
61.0554004079
 20
-22.8878817682
 11
61.0503098068
 21
-22.3827002826
  0
LINE
  5
2CD
100
AcDbEntity
  8
RACCORDO
100
AcDbLine
 62
7
  6
CONTINUOUS
 10
59.5792074812
 20
-23.4969562039
 11
59.5792074812
 21
-23.1043881191
  0
LINE
  5
2CE
100
AcDbEntity
  8
RACCORDO
100
AcDbLine
 62
7
  6
CONTINUOUS
 10
59.5792074812
 20
24.5842870155
 11
59.5792074812
 21
24.9768551002
  0
LINE
  5
2CF
100
AcDbEntity
  8
RACCORDO
100
AcDbLine
 62
7
  6
CONTINUOUS
 10
59.5850253111
 20
24.0069367463
 11
59.5850253111
 21
23.0743635005
  0
LINE
  5
2D0
100
AcDbEntity
  8
RACCORDO
100
AcDbLine
 62
7
  6
CONTINUOUS
 10
59.5850253111
 20
-21.5944646041
 11
59.5850253111
 21
-22.5270378499
  0
LINE
  5
2D1
100
AcDbEntity
  8
RACCORDO
100
AcDbLine
 62
7
  6
CONTINUOUS
 10
59.59230606
 20
-21.6687774196
 11
59.59230606
 21
-23.5100547826
  0
LINE
  5
2D2
100
AcDbEntity
  8
RACCORDO
100
AcDbLine
 62
7
  6
CONTINUOUS
 10
59.59230606
 20
23.148676316
 11
59.59230606
 21
24.989953679
  0
LINE
  5
2D3
100
AcDbEntity
  8
RACCORDO
100
AcDbLine
 62
7
  6
CONTINUOUS
 10
60.79230606
 20
-21.6687774196
 11
60.79230606
 21
-23.5100547826
  0
LINE
  5
2D4
100
AcDbEntity
  8
RACCORDO
100
AcDbLine
 62
7
  6
CONTINUOUS
 10
60.79230606
 20
23.148676316
 11
60.79230606
 21
24.989953679
  0
LINE
  5
2D5
100
AcDbEntity
  8
RACCORDO
100
AcDbLine
 62
7
  6
CONTINUOUS
 10
60.7995868089
 20
-22.5270378499
 11
60.7995868089
 21
-21.5944646041
  0
LINE
  5
2D6
100
AcDbEntity
  8
RACCORDO
100
AcDbLine
 62
7
  6
CONTINUOUS
 10
60.7995868089
 20
23.0743635005
 11
60.7995868089
 21
24.0069367463
  0
LINE
  5
2D7
100
AcDbEntity
  8
RACCORDO
100
AcDbLine
 62
7
  6
CONTINUOUS
 10
60.8054046387
 20
24.9768551002
 11
60.8054046387
 21
24.5842870155
  0
LINE
  5
2D8
100
AcDbEntity
  8
RACCORDO
100
AcDbLine
 62
7
  6
CONTINUOUS
 10
60.8054046387
 20
-23.1043881191
 11
60.8054046387
 21
-23.4969562039
  0
LINE
  5
2D9
100
AcDbEntity
  8
RACCORDO
100
AcDbLine
 62
253
  6
CONTINUOUS
 10
61.0495825781
 20
-22.3827002826
 11
61.0495825781
 21
-21.5814388829
  0
LINE
  5
2DA
100
AcDbEntity
  8
RACCORDO
100
AcDbLine
 62
253
  6
CONTINUOUS
 10
61.0495825781
 20
23.0613377792
 11
61.0495825781
 21
23.862599179
  0
LINE
  5
2DB
100
AcDbEntity
  8
RACCORDO
100
AcDbLine
 62
253
  6
CONTINUOUS
 10
61.0554004079
 20
-22.8878817682
 11
61.0554004079
 21
-23.7469519731
  0
LINE
  5
2DC
100
AcDbEntity
  8
RACCORDO
100
AcDbLine
 62
253
  6
CONTINUOUS
 10
61.0554004079
 20
24.3677806645
 11
61.0554004079
 21
25.2268508695
  0
LINE
  5
2DD
100
AcDbEntity
  8
RACCORDO
100
AcDbLine
 62
253
  6
CONTINUOUS
 10
59.3343023131
 20
-22.3827002826
 11
59.329211712
 21
-22.8878817682
  0
LINE
  5
2DE
100
AcDbEntity
  8
RACCORDO
100
AcDbLine
 62
253
  6
CONTINUOUS
 10
59.5850253111
 20
-22.5270378499
 11
59.5792074812
 21
-23.1043881191
  0
LINE
  5
2DF
100
AcDbEntity
  8
RACCORDO
100
AcDbLine
 62
253
  6
CONTINUOUS
 10
60.7995868089
 20
24.0069367463
 11
60.8054046387
 21
24.5842870155
  0
LINE
  5
2E0
100
AcDbEntity
  8
RACCORDO
100
AcDbLine
 62
253
  6
CONTINUOUS
 10
61.0503098068
 20
23.862599179
 11
61.0554004079
 21
24.3677806645
  0
LINE
  5
2E1
100
AcDbEntity
  8
RACCORDO
100
AcDbLine
 62
253
  6
CONTINUOUS
 10
82.09230606
 20
24.989953679
 11
82.0792074812
 21
24.9768551002
  0
LINE
  5
2E2
100
AcDbEntity
  8
RACCORDO
100
AcDbLine
 62
253
  6
CONTINUOUS
 10
82.09230606
 20
-23.5100547826
 11
82.0792074812
 21
-23.4969562039
  0
LINE
  5
2E3
100
AcDbEntity
  8
RACCORDO
100
AcDbLine
 62
253
  6
CONTINUOUS
 10
62.929211712
 20
24.3677806645
 11
62.9343023131
 21
23.862599179
  0
LINE
  5
2E4
100
AcDbEntity
  8
RACCORDO
100
AcDbLine
 62
253
  6
CONTINUOUS
 10
63.1792074812
 20
24.5842870155
 11
63.1850253111
 21
24.0069367463
  0
LINE
  5
2E5
100
AcDbEntity
  8
RACCORDO
100
AcDbLine
 62
253
  6
CONTINUOUS
 10
62.929211712
 20
-22.8878817682
 11
62.929211712
 21
-23.7469519731
  0
LINE
  5
2E6
100
AcDbEntity
  8
RACCORDO
100
AcDbLine
 62
253
  6
CONTINUOUS
 10
62.929211712
 20
24.3677806645
 11
62.929211712
 21
25.2268508695
  0
LINE
  5
2E7
100
AcDbEntity
  8
RACCORDO
100
AcDbLine
 62
253
  6
CONTINUOUS
 10
62.9350295418
 20
23.862599179
 11
62.9350295418
 21
23.0613377792
  0
LINE
  5
2E8
100
AcDbEntity
  8
RACCORDO
100
AcDbLine
 62
253
  6
CONTINUOUS
 10
62.9350295418
 20
-21.5814388829
 11
62.9350295418
 21
-22.3827002826
  0
LINE
  5
2E9
100
AcDbEntity
  8
RACCORDO
100
AcDbLine
 62
7
  6
CONTINUOUS
 10
63.1792074812
 20
-23.4969562039
 11
63.1792074812
 21
-23.1043881191
  0
LINE
  5
2EA
100
AcDbEntity
  8
RACCORDO
100
AcDbLine
 62
7
  6
CONTINUOUS
 10
63.1792074812
 20
24.5842870155
 11
63.1792074812
 21
24.9768551002
  0
LINE
  5
2EB
100
AcDbEntity
  8
RACCORDO
100
AcDbLine
 62
7
  6
CONTINUOUS
 10
63.1850253111
 20
24.0069367463
 11
63.1850253111
 21
23.0743635005
  0
LINE
  5
2EC
100
AcDbEntity
  8
RACCORDO
100
AcDbLine
 62
7
  6
CONTINUOUS
 10
63.1850253111
 20
-21.5944646041
 11
63.1850253111
 21
-22.5270378499
  0
LINE
  5
2ED
100
AcDbEntity
  8
RACCORDO
100
AcDbLine
 62
7
  6
CONTINUOUS
 10
63.19230606
 20
-21.6687774196
 11
63.19230606
 21
-23.5100547826
  0
LINE
  5
2EE
100
AcDbEntity
  8
RACCORDO
100
AcDbLine
 62
7
  6
CONTINUOUS
 10
63.19230606
 20
23.148676316
 11
63.19230606
 21
24.989953679
  0
LINE
  5
2EF
100
AcDbEntity
  8
RACCORDO
100
AcDbLine
 62
253
  6
CONTINUOUS
 10
62.9343023131
 20
-22.3827002826
 11
62.929211712
 21
-22.8878817682
  0
LINE
  5
2F0
100
AcDbEntity
  8
RACCORDO
100
AcDbLine
 62
253
  6
CONTINUOUS
 10
63.1850253111
 20
-22.5270378499
 11
63.1792074812
 21
-23.1043881191
  0
LINE
  5
2F1
100
AcDbEntity
  8
RACCORDO
100
AcDbLine
 62
253
  6
CONTINUOUS
 10
38.29230606
 20
-23.5100547826
 11
38.3054046387
 21
-23.4969562039
  0
LINE
  5
2F2
100
AcDbEntity
  8
RACCORDO
100
AcDbLine
 62
253
  6
CONTINUOUS
 10
38.5423018292
 20
-23.7600505518
 11
38.5554004079
 21
-23.7469519731
  0
LINE
  5
2F3
100
AcDbEntity
  8
RACCORDO
100
AcDbLine
 62
253
  6
CONTINUOUS
 10
38.29230606
 20
24.989953679
 11
38.3054046387
 21
24.9768551002
  0
LINE
  5
2F4
100
AcDbEntity
  8
RACCORDO
100
AcDbLine
 62
253
  6
CONTINUOUS
 10
38.5423018292
 20
25.2399494482
 11
38.5554004079
 21
25.2268508695
  0
LINE
  5
2F5
100
AcDbEntity
  8
DRAFT
100
AcDbLine
 62
7
  6
CONTINUOUS
 10
79.6914755746
 20
23.1474305703
 11
79.69230606
 21
23.148676316
  0
LINE
  5
2F6
100
AcDbEntity
  8
DRAFT
100
AcDbLine
 62
7
  6
CONTINUOUS
 10
79.69230606
 20
-21.6687774196
 11
79.6914755746
 21
-21.667531674
  0
LINE
  5
2F7
100
AcDbEntity
  8
RACCORDO
100
AcDbLine
 62
7
  6
CONTINUOUS
 10
67.0452318982
 20
24.53702361
 11
67.0452318982
 21
23.1135931113
  0
LINE
  5
2F8
100
AcDbEntity
  8
RACCORDO
100
AcDbLine
 62
7
  6
CONTINUOUS
 10
67.0452318982
 20
-21.633694215
 11
67.0452318982
 21
-23.0571247136
  0
LINE
  5
2F9
100
AcDbEntity
  8
0
100
AcDbLine
 62
253
  6
CONTINUOUS
 10
67.19230606
 20
-14.5100505518
 11
67.19230606
 21
-15.7600505518
  0
LINE
  5
2FA
100
AcDbEntity
  8
0
100
AcDbLine
 62
253
  6
CONTINUOUS
 10
67.19230606
 20
-12.0100505518
 11
67.19230606
 21
-10.7600505518
  0
LINE
  5
2FB
100
AcDbEntity
  8
RACCORDO
100
AcDbLine
 62
253
  6
CONTINUOUS
 10
67.5452234366
 20
24.3352917996
 11
67.5452234366
 21
23.0875416689
  0
LINE
  5
2FC
100
AcDbEntity
  8
RACCORDO
100
AcDbLine
 62
253
  6
CONTINUOUS
 10
67.5452234366
 20
-21.6076427725
 11
67.5452234366
 21
-22.8553929033
  0
LINE
  5
2FD
100
AcDbEntity
  8
DRAFT
100
AcDbLine
 62
7
  6
CONTINUOUS
 10
59.5931365454
 20
-21.667531674
 11
59.59230606
 21
-21.6687774196
  0
LINE
  5
2FE
100
AcDbEntity
  8
DRAFT
100
AcDbLine
 62
7
  6
CONTINUOUS
 10
59.59230606
 20
23.148676316
 11
59.5931365454
 21
23.1474305703
  0
LINE
  5
2FF
100
AcDbEntity
  8
0
100
AcDbLine
 62
253
  6
CONTINUOUS
 10
74.19230606
 20
-14.5100505518
 11
74.19230606
 21
-15.7600505518
  0
LINE
  5
300
100
AcDbEntity
  8
0
100
AcDbLine
 62
253
  6
CONTINUOUS
 10
74.19230606
 20
-12.0100505518
 11
74.19230606
 21
-10.7600505518
  0
LINE
  5
301
100
AcDbEntity
  8
RACCORDO
100
AcDbLine
 62
253
  6
CONTINUOUS
 10
75.3393886833
 20
-22.8553929033
 11
75.3393886833
 21
-21.6076427725
  0
LINE
  5
302
100
AcDbEntity
  8
RACCORDO
100
AcDbLine
 62
253
  6
CONTINUOUS
 10
75.3393886833
 20
23.0875416689
 11
75.3393886833
 21
24.3352917996
  0
LINE
  5
303
100
AcDbEntity
  8
RACCORDO
100
AcDbLine
 62
7
  6
CONTINUOUS
 10
75.8393802218
 20
-23.0571247136
 11
75.8393802218
 21
-21.633694215
  0
LINE
  5
304
100
AcDbEntity
  8
RACCORDO
100
AcDbLine
 62
7
  6
CONTINUOUS
 10
75.8393802218
 20
23.1135931113
 11
75.8393802218
 21
24.53702361
  0
LINE
  5
305
100
AcDbEntity
  8
RACCORDO
100
AcDbLine
 62
253
  6
CONTINUOUS
 10
81.9415820221
 20
22.7386746701
 11
82.0512213999
 21
23.0678602868
  0
LINE
  5
306
100
AcDbEntity
  8
RACCORDO
100
AcDbLine
 62
253
  6
CONTINUOUS
 10
82.5773808386
 20
22.6473162989
 11
82.4415058697
 21
22.2393599028
  0
LINE
  5
307
100
AcDbEntity
  8
DRAFT
100
AcDbLine
 62
7
  6
CONTINUOUS
 10
63.1931365454
 20
-21.667531674
 11
63.19230606
 21
-21.6687774196
  0
LINE
  5
308
100
AcDbEntity
  8
RACCORDO
100
AcDbLine
 62
253
  6
CONTINUOUS
 10
57.19230606
 20
-23.5100547826
 11
57.2054046387
 21
-23.4969562039
  0
LINE
  5
309
100
AcDbEntity
  8
RACCORDO
100
AcDbLine
 62
253
  6
CONTINUOUS
 10
57.19230606
 20
24.989953679
 11
57.2054046387
 21
24.9768551002
  0
LINE
  5
30A
100
AcDbEntity
  8
DRAFT
100
AcDbLine
 62
7
  6
CONTINUOUS
 10
63.19230606
 20
23.148676316
 11
63.1931365454
 21
23.1474305703
  0
LINE
  5
30B
100
AcDbEntity
  8
RACCORDO
100
AcDbLine
 62
253
  6
CONTINUOUS
 10
82.0512213999
 20
-21.5879613904
 11
81.9415820221
 21
-21.2587757738
  0
LINE
  5
30C
100
AcDbEntity
  8
RACCORDO
100
AcDbLine
 62
253
  6
CONTINUOUS
 10
82.4415058697
 20
-20.7594610064
 11
82.5773808386
 21
-21.1674174025
  0
LINE
  5
30D
100
AcDbEntity
  8
RACCORDO
100
AcDbLine
 62
253
  6
CONTINUOUS
 10
57.4423018292
 20
-23.7600505518
 11
57.4554004079
 21
-23.7469519731
  0
LINE
  5
30E
100
AcDbEntity
  8
RACCORDO
100
AcDbLine
 62
253
  6
CONTINUOUS
 10
57.4423018292
 20
25.2399494482
 11
57.4554004079
 21
25.2268508695
  0
LINE
  5
30F
100
AcDbEntity
  8
RACCORDO
100
AcDbLine
 62
253
  6
CONTINUOUS
 10
79.7054046387
 20
-23.1043881191
 11
79.6995868089
 21
-22.5270378499
  0
LINE
  5
310
100
AcDbEntity
  8
RACCORDO
100
AcDbLine
 62
253
  6
CONTINUOUS
 10
79.9554004079
 20
-22.8878817682
 11
79.9503098068
 21
-22.3827002826
  0
LINE
  5
311
100
AcDbEntity
  8
RACCORDO
100
AcDbLine
 62
7
  6
CONTINUOUS
 10
79.69230606
 20
-21.6687774196
 11
79.69230606
 21
-23.5100547826
  0
LINE
  5
312
100
AcDbEntity
  8
RACCORDO
100
AcDbLine
 62
7
  6
CONTINUOUS
 10
79.69230606
 20
23.148676316
 11
79.69230606
 21
24.989953679
  0
LINE
  5
313
100
AcDbEntity
  8
RACCORDO
100
AcDbLine
 62
7
  6
CONTINUOUS
 10
79.6995868089
 20
-22.5270378499
 11
79.6995868089
 21
-21.5944646041
  0
LINE
  5
314
100
AcDbEntity
  8
RACCORDO
100
AcDbLine
 62
7
  6
CONTINUOUS
 10
79.6995868089
 20
23.0743635005
 11
79.6995868089
 21
24.0069367463
  0
LINE
  5
315
100
AcDbEntity
  8
RACCORDO
100
AcDbLine
 62
7
  6
CONTINUOUS
 10
79.7054046387
 20
24.9768551002
 11
79.7054046387
 21
24.5842870155
  0
LINE
  5
316
100
AcDbEntity
  8
RACCORDO
100
AcDbLine
 62
7
  6
CONTINUOUS
 10
79.7054046387
 20
-23.1043881191
 11
79.7054046387
 21
-23.4969562039
  0
LINE
  5
317
100
AcDbEntity
  8
RACCORDO
100
AcDbLine
 62
253
  6
CONTINUOUS
 10
79.9495825781
 20
-22.3827002826
 11
79.9495825781
 21
-21.5814388829
  0
LINE
  5
318
100
AcDbEntity
  8
RACCORDO
100
AcDbLine
 62
253
  6
CONTINUOUS
 10
79.9495825781
 20
23.0613377792
 11
79.9495825781
 21
23.862599179
  0
LINE
  5
319
100
AcDbEntity
  8
RACCORDO
100
AcDbLine
 62
253
  6
CONTINUOUS
 10
79.9554004079
 20
-22.8878817682
 11
79.9554004079
 21
-23.7469519731
  0
LINE
  5
31A
100
AcDbEntity
  8
RACCORDO
100
AcDbLine
 62
253
  6
CONTINUOUS
 10
79.9554004079
 20
24.3677806645
 11
79.9554004079
 21
25.2268508695
  0
LINE
  5
31B
100
AcDbEntity
  8
RACCORDO
100
AcDbLine
 62
253
  6
CONTINUOUS
 10
79.6995868089
 20
24.0069367463
 11
79.7054046387
 21
24.5842870155
  0
LINE
  5
31C
100
AcDbEntity
  8
RACCORDO
100
AcDbLine
 62
253
  6
CONTINUOUS
 10
79.9503098068
 20
23.862599179
 11
79.9554004079
 21
24.3677806645
  0
LINE
  5
31D
100
AcDbEntity
  8
RACCORDO
100
AcDbLine
 62
253
  6
CONTINUOUS
 10
60.79230606
 20
-23.5100547826
 11
60.8054046387
 21
-23.4969562039
  0
LINE
  5
31E
100
AcDbEntity
  8
RACCORDO
100
AcDbLine
 62
253
  6
CONTINUOUS
 10
61.0423018292
 20
-23.7600505518
 11
61.0554004079
 21
-23.7469519731
  0
LINE
  5
31F
100
AcDbEntity
  8
RACCORDO
100
AcDbLine
 62
253
  6
CONTINUOUS
 10
60.79230606
 20
24.989953679
 11
60.8054046387
 21
24.9768551002
  0
LINE
  5
320
100
AcDbEntity
  8
RACCORDO
100
AcDbLine
 62
253
  6
CONTINUOUS
 10
61.0423018292
 20
25.2399494482
 11
61.0554004079
 21
25.2268508695
  0
LINE
  5
321
100
AcDbEntity
  8
RACCORDO
100
AcDbLine
 62
253
  6
CONTINUOUS
 10
81.829211712
 20
24.3677806645
 11
81.8343023131
 21
23.862599179
  0
LINE
  5
322
100
AcDbEntity
  8
RACCORDO
100
AcDbLine
 62
253
  6
CONTINUOUS
 10
82.0792074812
 20
24.5842870155
 11
82.0850253111
 21
24.0069367463
  0
LINE
  5
323
100
AcDbEntity
  8
RACCORDO
100
AcDbLine
 62
253
  6
CONTINUOUS
 10
81.829211712
 20
-22.8878817682
 11
81.829211712
 21
-23.7469519731
  0
LINE
  5
324
100
AcDbEntity
  8
RACCORDO
100
AcDbLine
 62
253
  6
CONTINUOUS
 10
81.829211712
 20
24.3677806645
 11
81.829211712
 21
25.2268508695
  0
LINE
  5
325
100
AcDbEntity
  8
RACCORDO
100
AcDbLine
 62
253
  6
CONTINUOUS
 10
81.8350295418
 20
23.862599179
 11
81.8350295418
 21
23.0613377792
  0
LINE
  5
326
100
AcDbEntity
  8
RACCORDO
100
AcDbLine
 62
253
  6
CONTINUOUS
 10
81.8350295418
 20
-21.5814388829
 11
81.8350295418
 21
-22.3827002826
  0
LINE
  5
327
100
AcDbEntity
  8
RACCORDO
100
AcDbLine
 62
253
  6
CONTINUOUS
 10
81.9250552515
 20
21.302417773
 11
81.9250552515
 21
-19.8225188766
  0
LINE
  5
328
100
AcDbEntity
  8
RACCORDO
100
AcDbLine
 62
7
  6
CONTINUOUS
 10
82.0792074812
 20
-23.4969562039
 11
82.0792074812
 21
-23.1043881191
  0
LINE
  5
329
100
AcDbEntity
  8
RACCORDO
100
AcDbLine
 62
7
  6
CONTINUOUS
 10
82.0792074812
 20
24.5842870155
 11
82.0792074812
 21
24.9768551002
  0
LINE
  5
32A
100
AcDbEntity
  8
RACCORDO
100
AcDbLine
 62
7
  6
CONTINUOUS
 10
82.0850253111
 20
24.0069367463
 11
82.0850253111
 21
23.0733604096
  0
LINE
  5
32B
100
AcDbEntity
  8
RACCORDO
100
AcDbLine
 62
7
  6
CONTINUOUS
 10
82.0850253111
 20
-21.5934615132
 11
82.0850253111
 21
-22.5270378499
  0
LINE
  5
32C
100
AcDbEntity
  8
RACCORDO
100
AcDbLine
 62
7
  6
CONTINUOUS
 10
82.09230606
 20
-21.6684673876
 11
82.09230606
 21
-23.5100547826
  0
LINE
  5
32D
100
AcDbEntity
  8
RACCORDO
100
AcDbLine
 62
7
  6
CONTINUOUS
 10
82.09230606
 20
23.1483662839
 11
82.09230606
 21
24.989953679
  0
LINE
  5
32E
100
AcDbEntity
  8
DRAFT
100
AcDbLine
 62
7
  6
CONTINUOUS
 10
82.59230606
 20
18.8615223234
 11
82.59230606
 21
-17.3816234271
  0
LINE
  5
32F
100
AcDbEntity
  8
IMPORT
100
AcDbLine
 62
7
  6
CONTINUOUS
 10
82.59230606
 20
18.8615223234
 11
82.59230606
 21
-17.3816234271
  0
LINE
  5
330
100
AcDbEntity
  8
RACCORDO
100
AcDbLine
 62
7
  6
CONTINUOUS
 10
82.59230606
 20
22.6398542566
 11
82.59230606
 21
-21.1599553602
  0
LINE
  5
331
100
AcDbEntity
  8
RACCORDO
100
AcDbLine
 62
253
  6
CONTINUOUS
 10
81.8343023131
 20
-22.3827002826
 11
81.829211712
 21
-22.8878817682
  0
LINE
  5
332
100
AcDbEntity
  8
RACCORDO
100
AcDbLine
 62
253
  6
CONTINUOUS
 10
82.0850253111
 20
-22.5270378499
 11
82.0792074812
 21
-23.1043881191
  0
LINE
  5
333
100
AcDbEntity
  8
RACCORDO
100
AcDbLine
 62
253
  6
CONTINUOUS
 10
38.4595568684
 20
21.302417773
 11
81.9250552515
 21
21.302417773
  0
LINE
  5
334
100
AcDbEntity
  8
RACCORDO
100
AcDbLine
 62
253
  6
CONTINUOUS
 10
38.4430300978
 20
22.7386746701
 11
81.9415820221
 21
22.7386746701
  0
LINE
  5
335
100
AcDbEntity
  8
RACCORDO
100
AcDbLine
 62
7
  6
CONTINUOUS
 10
38.5495825781
 20
23.0613377792
 11
40.4350295418
 21
23.0613377792
  0
LINE
  5
336
100
AcDbEntity
  8
RACCORDO
100
AcDbLine
 62
7
  6
CONTINUOUS
 10
57.4495825781
 20
23.0613377792
 11
59.3350295418
 21
23.0613377792
  0
LINE
  5
337
100
AcDbEntity
  8
RACCORDO
100
AcDbLine
 62
7
  6
CONTINUOUS
 10
61.0495825781
 20
23.0613377792
 11
62.9350295418
 21
23.0613377792
  0
LINE
  5
338
100
AcDbEntity
  8
RACCORDO
100
AcDbLine
 62
7
  6
CONTINUOUS
 10
79.9495825781
 20
23.0613377792
 11
81.8350295418
 21
23.0613377792
  0
LINE
  5
339
100
AcDbEntity
  8
RACCORDO
100
AcDbLine
 62
7
  6
CONTINUOUS
 10
75.3393886833
 20
23.0875416689
 11
67.5452234366
 21
23.0875416689
  0
LINE
  5
33A
100
AcDbEntity
  8
RACCORDO
100
AcDbLine
 62
7
  6
CONTINUOUS
 10
52.8393886833
 20
23.0875416689
 11
45.0452234366
 21
23.0875416689
  0
LINE
  5
33B
100
AcDbEntity
  8
DRAFT
100
AcDbLine
 62
7
  6
CONTINUOUS
 10
79.6914755746
 20
23.1474305703
 11
75.8414755746
 21
23.1474305703
  0
LINE
  5
33C
100
AcDbEntity
  8
DRAFT
100
AcDbLine
 62
7
  6
CONTINUOUS
 10
67.0431365454
 20
23.1474305703
 11
63.1931365454
 21
23.1474305703
  0
LINE
  5
33D
100
AcDbEntity
  8
DRAFT
100
AcDbLine
 62
7
  6
CONTINUOUS
 10
60.7914755746
 20
23.1474305703
 11
59.5931365454
 21
23.1474305703
  0
LINE
  5
33E
100
AcDbEntity
  8
DRAFT
100
AcDbLine
 62
7
  6
CONTINUOUS
 10
57.1914755746
 20
23.1474305703
 11
53.3414755746
 21
23.1474305703
  0
LINE
  5
33F
100
AcDbEntity
  8
DRAFT
100
AcDbLine
 62
7
  6
CONTINUOUS
 10
44.5431365454
 20
23.1474305703
 11
40.6931365454
 21
23.1474305703
  0
LINE
  5
340
100
AcDbEntity
  8
RACCORDO
100
AcDbLine
 62
7
  6
CONTINUOUS
 10
38.5495825781
 20
23.862599179
 11
40.4350295418
 21
23.862599179
  0
LINE
  5
341
100
AcDbEntity
  8
RACCORDO
100
AcDbLine
 62
7
  6
CONTINUOUS
 10
57.4495825781
 20
23.862599179
 11
59.3350295418
 21
23.862599179
  0
LINE
  5
342
100
AcDbEntity
  8
RACCORDO
100
AcDbLine
 62
7
  6
CONTINUOUS
 10
61.0495825781
 20
23.862599179
 11
62.9350295418
 21
23.862599179
  0
LINE
  5
343
100
AcDbEntity
  8
RACCORDO
100
AcDbLine
 62
7
  6
CONTINUOUS
 10
79.9495825781
 20
23.862599179
 11
81.8350295418
 21
23.862599179
  0
LINE
  5
344
100
AcDbEntity
  8
RACCORDO
100
AcDbLine
 62
253
  6
CONTINUOUS
 10
75.3393886833
 20
24.3352917996
 11
67.5452234366
 21
24.3352917996
  0
LINE
  5
345
100
AcDbEntity
  8
RACCORDO
100
AcDbLine
 62
253
  6
CONTINUOUS
 10
52.8393886833
 20
24.3352917996
 11
45.0452234366
 21
24.3352917996
  0
LINE
  5
346
100
AcDbEntity
  8
RACCORDO
100
AcDbLine
 62
253
  6
CONTINUOUS
 10
38.5554004079
 20
24.3677806645
 11
40.429211712
 21
24.3677806645
  0
LINE
  5
347
100
AcDbEntity
  8
RACCORDO
100
AcDbLine
 62
253
  6
CONTINUOUS
 10
57.4554004079
 20
24.3677806645
 11
59.329211712
 21
24.3677806645
  0
LINE
  5
348
100
AcDbEntity
  8
RACCORDO
100
AcDbLine
 62
253
  6
CONTINUOUS
 10
61.0554004079
 20
24.3677806645
 11
62.929211712
 21
24.3677806645
  0
LINE
  5
349
100
AcDbEntity
  8
RACCORDO
100
AcDbLine
 62
253
  6
CONTINUOUS
 10
79.9554004079
 20
24.3677806645
 11
81.829211712
 21
24.3677806645
  0
LINE
  5
34A
100
AcDbEntity
  8
RACCORDO
100
AcDbLine
 62
7
  6
CONTINUOUS
 10
75.7385133736
 20
24.535288415
 11
67.1460987463
 21
24.535288415
  0
LINE
  5
34B
100
AcDbEntity
  8
RACCORDO
100
AcDbLine
 62
7
  6
CONTINUOUS
 10
53.2385133736
 20
24.535288415
 11
44.6460987463
 21
24.535288415
  0
LINE
  5
34C
100
AcDbEntity
  8
RACCORDO
100
AcDbLine
 62
253
  6
CONTINUOUS
 10
38.3054046387
 20
24.5842870155
 11
40.6792074812
 21
24.5842870155
  0
LINE
  5
34D
100
AcDbEntity
  8
RACCORDO
100
AcDbLine
 62
253
  6
CONTINUOUS
 10
57.2054046387
 20
24.5842870155
 11
59.5792074812
 21
24.5842870155
  0
LINE
  5
34E
100
AcDbEntity
  8
RACCORDO
100
AcDbLine
 62
253
  6
CONTINUOUS
 10
60.8054046387
 20
24.5842870155
 11
63.1792074812
 21
24.5842870155
  0
LINE
  5
34F
100
AcDbEntity
  8
RACCORDO
100
AcDbLine
 62
253
  6
CONTINUOUS
 10
79.7054046387
 20
24.5842870155
 11
82.0792074812
 21
24.5842870155
  0
LINE
  5
350
100
AcDbEntity
  8
RACCORDO
100
AcDbLine
 62
253
  6
CONTINUOUS
 10
38.3054046387
 20
24.9768551002
 11
40.6792074812
 21
24.9768551002
  0
LINE
  5
351
100
AcDbEntity
  8
RACCORDO
100
AcDbLine
 62
253
  6
CONTINUOUS
 10
57.2054046387
 20
24.9768551002
 11
59.5792074812
 21
24.9768551002
  0
LINE
  5
352
100
AcDbEntity
  8
RACCORDO
100
AcDbLine
 62
253
  6
CONTINUOUS
 10
60.8054046387
 20
24.9768551002
 11
63.1792074812
 21
24.9768551002
  0
LINE
  5
353
100
AcDbEntity
  8
RACCORDO
100
AcDbLine
 62
253
  6
CONTINUOUS
 10
79.7054046387
 20
24.9768551002
 11
82.0792074812
 21
24.9768551002
  0
LINE
  5
354
100
AcDbEntity
  8
RACCORDO
100
AcDbLine
 62
7
  6
CONTINUOUS
 10
81.829211712
 20
25.2268508695
 11
79.9554004079
 21
25.2268508695
  0
LINE
  5
355
100
AcDbEntity
  8
RACCORDO
100
AcDbLine
 62
7
  6
CONTINUOUS
 10
62.929211712
 20
25.2268508695
 11
61.0554004079
 21
25.2268508695
  0
LINE
  5
356
100
AcDbEntity
  8
RACCORDO
100
AcDbLine
 62
7
  6
CONTINUOUS
 10
59.329211712
 20
25.2268508695
 11
57.4554004079
 21
25.2268508695
  0
LINE
  5
357
100
AcDbEntity
  8
RACCORDO
100
AcDbLine
 62
7
  6
CONTINUOUS
 10
40.429211712
 20
25.2268508695
 11
38.5554004079
 21
25.2268508695
  0
LINE
  5
358
100
AcDbEntity
  8
RACCORDO
100
AcDbLine
 62
7
  6
CONTINUOUS
 10
38.5423018292
 20
25.2399494482
 11
40.4423102908
 21
25.2399494482
  0
LINE
  5
359
100
AcDbEntity
  8
RACCORDO
100
AcDbLine
 62
7
  6
CONTINUOUS
 10
57.4423018292
 20
25.2399494482
 11
59.3423102908
 21
25.2399494482
  0
LINE
  5
35A
100
AcDbEntity
  8
RACCORDO
100
AcDbLine
 62
7
  6
CONTINUOUS
 10
61.0423018292
 20
25.2399494482
 11
62.9423102908
 21
25.2399494482
  0
LINE
  5
35B
100
AcDbEntity
  8
RACCORDO
100
AcDbLine
 62
7
  6
CONTINUOUS
 10
79.9423018292
 20
25.2399494482
 11
81.8423102908
 21
25.2399494482
  0
LINE
  5
35C
100
AcDbEntity
  8
RACCORDO
100
AcDbLine
 62
7
  6
CONTINUOUS
 10
82.09230606
 20
-21.6684673876
 11
82.0931349852
 21
-21.6672796379
  0
LINE
  5
35D
100
AcDbEntity
  8
RACCORDO
100
AcDbLine
 62
253
  6
CONTINUOUS
 10
79.69230606
 20
-23.5100547826
 11
79.7054046387
 21
-23.4969562039
  0
LINE
  5
35E
100
AcDbEntity
  8
RACCORDO
100
AcDbLine
 62
253
  6
CONTINUOUS
 10
79.9423018292
 20
-23.7600505518
 11
79.9554004079
 21
-23.7469519731
  0
LINE
  5
35F
100
AcDbEntity
  8
RACCORDO
100
AcDbLine
 62
253
  6
CONTINUOUS
 10
82.5773808386
 20
-21.1674174025
 11
82.59230606
 21
-21.1599553602
  0
LINE
  5
360
100
AcDbEntity
  8
RACCORDO
100
AcDbLine
 62
253
  6
CONTINUOUS
 10
82.59230606
 20
22.6398542566
 11
82.5773808386
 21
22.6473162989
  0
LINE
  5
361
100
AcDbEntity
  8
RACCORDO
100
AcDbLine
 62
253
  6
CONTINUOUS
 10
79.69230606
 20
24.989953679
 11
79.7054046387
 21
24.9768551002
  0
LINE
  5
362
100
AcDbEntity
  8
RACCORDO
100
AcDbLine
 62
253
  6
CONTINUOUS
 10
79.9423018292
 20
25.2399494482
 11
79.9554004079
 21
25.2268508695
  0
LINE
  5
363
100
AcDbEntity
  8
RACCORDO
100
AcDbLine
 62
7
  6
CONTINUOUS
 10
82.09230606
 20
23.1483662839
 11
82.0931349852
 21
23.1471785342
  0
LINE
  5
364
100
AcDbEntity
  8
RACCORDO
100
AcDbLine
 62
253
  6
CONTINUOUS
 10
-8.7239101562
 20
24.1504345964
 11
-7.9724557234
 21
24.5842870155
  0
LINE
  5
365
100
AcDbEntity
  8
RACCORDO
100
AcDbLine
 62
7
  6
CONTINUOUS
 10
-7.9724557234
 20
-23.7556787178
 11
-8.7239101562
 21
-23.7600505518
  0
LINE
  5
366
100
AcDbEntity
  8
RACCORDO
100
AcDbLine
 62
7
  6
CONTINUOUS
 10
-8.7239101562
 20
-23.7600505518
 11
-10.9753645891
 21
-23.7469519731
  0
LINE
  5
367
100
AcDbEntity
  8
RACCORDO
100
AcDbLine
 62
253
  6
CONTINUOUS
 10
-7.9724557234
 20
-23.1043881191
 11
-8.7239101562
 21
-22.6705357
  0
LINE
  5
368
100
AcDbEntity
  8
RACCORDO
100
AcDbLine
 62
7
  6
CONTINUOUS
 10
-8.7239101562
 20
23.862599179
 11
-7.8489101562
 21
24.3677806645
  0
LINE
  5
369
100
AcDbEntity
  8
RACCORDO
100
AcDbLine
 62
7
  6
CONTINUOUS
 10
1.2848163792
 20
-21.5814325864
 11
-8.7239101562
 21
-21.6687774196
  0
LINE
  5
36A
100
AcDbEntity
  8
RACCORDO
100
AcDbLine
 62
253
  6
CONTINUOUS
 10
-7.9724557234
 20
-23.5056829486
 11
-8.7239101562
 21
-23.5100547826
  0
LINE
  5
36B
100
AcDbEntity
  8
ASSI
100
AcDbLine
 62
7
  6
CONTINUOUS
 10
-7.7242019419
 20
-23.0542344196
 11
-1.2210012906
 21
-23.016399905
  0
LINE
  5
36C
100
AcDbEntity
  8
RACCORDO
100
AcDbLine
 62
253
  6
CONTINUOUS
 10
-7.7239101562
 20
-23.5056829486
 11
-7.9724557234
 21
-23.5056829486
  0
LINE
  5
36D
100
AcDbEntity
  8
RACCORDO
100
AcDbLine
 62
253
  6
CONTINUOUS
 10
-11.2239101562
 20
-23.4969562039
 11
-10.9753645891
 21
-23.4969562039
  0
LINE
  5
36E
100
AcDbEntity
  8
RACCORDO
100
AcDbLine
 62
253
  6
CONTINUOUS
 10
-11.2239101562
 20
-23.1043881191
 11
-10.9753645891
 21
-23.1043881191
  0
LINE
  5
36F
100
AcDbEntity
  8
RACCORDO
100
AcDbLine
 62
253
  6
CONTINUOUS
 10
-7.7239101562
 20
-23.1043881191
 11
-7.9724557234
 21
-23.1043881191
  0
LINE
  5
370
100
AcDbEntity
  8
RACCORDO
100
AcDbLine
 62
253
  6
CONTINUOUS
 10
-8.7239101562
 20
-23.5100547826
 11
-10.9753645891
 21
-23.4969562039
  0
LINE
  5
371
100
AcDbEntity
  8
RACCORDO
100
AcDbLine
 62
7
  6
CONTINUOUS
 10
-10.0994532982
 20
-21.5879613904
 11
-16.3806890451
 21
-21.2587757738
  0
LINE
  5
372
100
AcDbEntity
  8
RACCORDO
100
AcDbLine
 62
7
  6
CONTINUOUS
 10
-8.7234517132
 20
-21.6597828173
 11
-8.7364655168
 21
-21.6590955909
  0
LINE
  5
373
100
AcDbEntity
  8
RACCORDO
100
AcDbLine
 62
7
  6
CONTINUOUS
 10
-7.8489101562
 20
-22.8878817682
 11
-8.7239101562
 21
-22.3827002826
  0
LINE
  5
374
100
AcDbEntity
  8
DRAFT
100
AcDbLine
 62
7
  6
CONTINUOUS
 10
1.6784938481
 20
-21.4959309795
 11
2.2760898438
 21
-21.4854999025
  0
LINE
  5
375
100
AcDbEntity
  8
IMPORT
100
AcDbLine
 62
7
  6
CONTINUOUS
 10
1.6784938481
 20
-21.4959309795
 11
2.2760898438
 21
-21.4854999025
  0
LINE
  5
376
100
AcDbEntity
  8
RACCORDO
100
AcDbLine
 62
253
  6
CONTINUOUS
 10
-8.5789755133
 20
-21.1674174025
 11
-7.7239101562
 21
-21.1599553602
  0
LINE
  5
377
100
AcDbEntity
  8
RACCORDO
100
AcDbLine
 62
7
  6
CONTINUOUS
 10
2.2760898438
 20
-20.2473192297
 11
-7.7239101562
 21
-20.1600505518
  0
LINE
  5
378
100
AcDbEntity
  8
RACCORDO
100
AcDbLine
 62
7
  6
CONTINUOUS
 10
1.784816047
 20
-20.8260259851
 11
-7.7239101562
 21
-20.6600505518
  0
LINE
  5
379
100
AcDbEntity
  8
RACCORDO
100
AcDbLine
 62
253
  6
CONTINUOUS
 10
-16.3632472702
 20
-20.7594610064
 11
-8.5789755133
 21
-21.1674174025
  0
LINE
  5
37A
100
AcDbEntity
  8
CURVE
100
AcDbLine
 62
253
  6
CONTINUOUS
 10
-17.9210584333
 20
-16.6600506605
 11
-17.9482741847
 21
-15.8600504432
  0
LINE
  5
37B
100
AcDbEntity
  8
RACCORDO
100
AcDbLine
 62
253
  6
CONTINUOUS
 10
-17.3100653259
 20
-19.8019564083
 11
-17.8008989126
 21
-19.8225181648
  0
LINE
  5
37C
100
AcDbEntity
  8
DRAFT
100
AcDbLine
 62
7
  6
CONTINUOUS
 10
2.2760898438
 20
-19.3854999025
 11
-7.7239101562
 21
-19.5600505518
  0
LINE
  5
37D
100
AcDbEntity
  8
IMPORT
100
AcDbLine
 62
7
  6
CONTINUOUS
 10
2.2760898438
 20
-19.3854999025
 11
-7.7239101562
 21
-19.5600505518
  0
LINE
  5
37E
100
AcDbEntity
  8
RACCORDO
100
AcDbLine
 62
7
  6
CONTINUOUS
 10
2.2760898438
 20
-18.7854999025
 11
16.7935422502
 21
-18.5320968282
  0
LINE
  5
37F
100
AcDbEntity
  8
IMPORT
100
AcDbLine
 62
7
  6
CONTINUOUS
 10
2.2760898438
 20
-18.7854999025
 11
16.7935422502
 21
-18.5320968282
  0
LINE
  5
380
100
AcDbEntity
  8
RACCORDO
100
AcDbLine
 62
253
  6
CONTINUOUS
 10
-7.7239101562
 20
-18.7958369895
 11
2.2760898438
 21
-18.6724110417
  0
LINE
  5
381
100
AcDbEntity
  8
IMPORT
100
AcDbLine
 62
253
  6
CONTINUOUS
 10
-7.7239101562
 20
-18.7958369895
 11
2.2760898438
 21
-18.6724110417
  0
LINE
  5
382
100
AcDbEntity
  8
CURVE
100
AcDbLine
 62
253
  6
CONTINUOUS
 10
-18.1017137593
 20
-10.3136230529
 11
-18.0916553966
 21
-10.7594973029
  0
LINE
  5
383
100
AcDbEntity
  8
RACCORDO
100
AcDbLine
 62
253
  6
CONTINUOUS
 10
17.7760898438
 20
-17.3816234271
 11
-7.7239101562
 21
-17.3816234271
  0
LINE
  5
384
100
AcDbEntity
  8
IMPORT
100
AcDbLine
 62
253
  6
CONTINUOUS
 10
17.7760898438
 20
-17.3816234271
 11
-7.7239101562
 21
-17.3816234271
  0
LINE
  5
385
100
AcDbEntity
  8
CURVE
100
AcDbLine
 62
253
  6
CONTINUOUS
 10
-2.236055231
 20
16.7399494482
 11
-5.1351729298
 21
15.7318844482
  0
LINE
  5
386
100
AcDbEntity
  8
CURVE
100
AcDbLine
 62
253
  6
CONTINUOUS
 10
-2.8505070202
 20
15.9045334482
 11
-2.236055231
 21
16.1135234482
  0
LINE
  5
387
100
AcDbEntity
  8
CURVE
100
AcDbLine
 62
253
  6
CONTINUOUS
 10
-4.5810177694
 20
15.3463984482
 11
-3.3322932299
 21
15.7478184482
  0
LINE
  5
388
100
AcDbEntity
  8
CURVE
100
AcDbLine
 62
253
  6
CONTINUOUS
 10
12.2762852435
 20
-15.2608163436
 11
10.9762852435
 21
-15.2608163436
  0
LINE
  5
389
100
AcDbEntity
  8
CURVE
100
AcDbLine
 62
253
  6
CONTINUOUS
 10
1.1760898438
 20
-15.2600505518
 11
-0.1239101562
 21
-15.2600505518
  0
LINE
  5
38A
100
AcDbEntity
  8
CURVE
100
AcDbLine
 62
253
  6
CONTINUOUS
 10
11.1619995182
 20
-14.5328163436
 11
11.5334280674
 21
-14.5328163436
  0
LINE
  5
38B
100
AcDbEntity
  8
CURVE
100
AcDbLine
 62
253
  6
CONTINUOUS
 10
-0.1239101562
 20
-14.5171933758
 11
1.1760898438
 21
-14.5171933758
  0
LINE
  5
38C
100
AcDbEntity
  8
CURVE
100
AcDbLine
 62
253
  6
CONTINUOUS
 10
-3.1356461562
 20
-14.0500715518
 11
-5.1315671562
 21
-13.4804605518
  0
LINE
  5
38D
100
AcDbEntity
  8
CURVE
100
AcDbLine
 62
253
  6
CONTINUOUS
 10
-5.1315671562
 20
-12.8756025518
 11
-2.2319141562
 21
-13.8076675518
  0
LINE
  5
38E
100
AcDbEntity
  8
CURVE
100
AcDbLine
 62
253
  6
CONTINUOUS
 10
-0.7249762902
 20
16.5578063775
 11
-0.4535890748
 21
16.7568542338
  0
LINE
  5
38F
100
AcDbEntity
  8
CURVE
100
AcDbLine
 62
253
  6
CONTINUOUS
 10
-0.4535890748
 20
15.0649494482
 11
-0.1822018594
 21
15.2142350913
  0
LINE
  5
390
100
AcDbEntity
  8
CURVE
100
AcDbLine
 62
253
  6
CONTINUOUS
 10
-5.1351729298
 20
11.9560884482
 11
-2.8377589043
 21
13.0687034482
  0
LINE
  5
391
100
AcDbEntity
  8
CURVE
100
AcDbLine
 62
253
  6
CONTINUOUS
 10
-5.1315671562
 20
-14.6027985518
 11
-3.1356461562
 21
-14.0500715518
  0
LINE
  5
392
100
AcDbEntity
  8
CURVE
100
AcDbLine
 62
253
  6
CONTINUOUS
 10
1.1760898438
 20
-13.0314791011
 11
-0.1239101562
 21
-13.0314791011
  0
LINE
  5
393
100
AcDbEntity
  8
CURVE
100
AcDbLine
 62
253
  6
CONTINUOUS
 10
-5.1317411562
 20
-12.6509855518
 11
-2.2319141562
 21
-12.6509855518
  0
LINE
  5
394
100
AcDbEntity
  8
CURVE
100
AcDbLine
 62
253
  6
CONTINUOUS
 10
4.180012883
 20
-12.6100485518
 11
4.9308298438
 21
-12.6100485518
  0
LINE
  5
395
100
AcDbEntity
  8
CURVE
100
AcDbLine
 62
253
  6
CONTINUOUS
 10
8.5252698438
 20
-12.6100485518
 11
9.2760868045
 21
-12.6100485518
  0
LINE
  5
396
100
AcDbEntity
  8
CURVE
100
AcDbLine
 62
253
  6
CONTINUOUS
 10
10.9762852435
 20
-12.4528162941
 11
12.2762852435
 21
-12.4528162941
  0
LINE
  5
397
100
AcDbEntity
  8
CURVE
100
AcDbLine
 62
253
  6
CONTINUOUS
 10
0.0618041184
 20
-12.3814792561
 11
0.9903755497
 21
-12.3814792561
  0
LINE
  5
398
100
AcDbEntity
  8
CURVE
100
AcDbLine
 62
253
  6
CONTINUOUS
 10
-2.2319141562
 20
-12.0457145518
 11
-5.1317411562
 21
-12.0457145518
  0
LINE
  5
399
100
AcDbEntity
  8
CURVE
100
AcDbLine
 62
253
  6
CONTINUOUS
 10
1.1760898438
 20
-11.8552886175
 11
-0.1239101562
 21
-11.8552886175
  0
LINE
  5
39A
100
AcDbEntity
  8
CURVE
100
AcDbLine
 62
253
  6
CONTINUOUS
 10
12.1524757174
 20
-11.4128164428
 11
12.1215233383
 21
-11.4128164428
  0
LINE
  5
39B
100
AcDbEntity
  8
CURVE
100
AcDbLine
 62
253
  6
CONTINUOUS
 10
-2.2319141562
 20
-11.7198775518
 11
-5.1315671562
 21
-11.4580555518
  0
LINE
  5
39C
100
AcDbEntity
  8
CURVE
100
AcDbLine
 62
253
  6
CONTINUOUS
 10
1.1760898438
 20
-14.1457648265
 11
-0.1239101562
 21
-13.7743361997
  0
LINE
  5
39D
100
AcDbEntity
  8
CURVE
100
AcDbLine
 62
253
  6
CONTINUOUS
 10
0.6189469811
 20
-14.8886219638
 11
-0.1239101562
 21
-14.5171933758
  0
LINE
  5
39E
100
AcDbEntity
  8
RACCORDO
100
AcDbLine
 62
7
  6
CONTINUOUS
 10
-11.2239101562
 20
-23.4969562039
 11
-11.2239101562
 21
-23.1043881191
  0
LINE
  5
39F
100
AcDbEntity
  8
RACCORDO
100
AcDbLine
 62
7
  6
CONTINUOUS
 10
-11.2239101562
 20
24.5842870155
 11
-11.2239101562
 21
24.9768551002
  0
LINE
  5
3A0
100
AcDbEntity
  8
RACCORDO
100
AcDbLine
 62
253
  6
CONTINUOUS
 10
-10.9753645891
 20
-23.4969562039
 11
-10.9753645891
 21
-23.1043881191
  0
LINE
  5
3A1
100
AcDbEntity
  8
RACCORDO
100
AcDbLine
 62
253
  6
CONTINUOUS
 10
-10.9753645891
 20
24.5842870155
 11
-10.9753645891
 21
24.9768551002
  0
LINE
  5
3A2
100
AcDbEntity
  8
RACCORDO
100
AcDbLine
 62
7
  6
CONTINUOUS
 10
-10.2239101562
 20
23.862599179
 11
-10.2239101562
 21
23.0613377792
  0
LINE
  5
3A3
100
AcDbEntity
  8
RACCORDO
100
AcDbLine
 62
7
  6
CONTINUOUS
 10
-10.2239101562
 20
-21.5814388829
 11
-10.2239101562
 21
-22.3827002826
  0
LINE
  5
3A4
100
AcDbEntity
  8
CURVE
100
AcDbLine
 62
253
  6
CONTINUOUS
 10
0.0891853559
 20
16.5578063775
 11
0.3605726279
 21
16.856378162
  0
LINE
  5
3A5
100
AcDbEntity
  8
CURVE
100
AcDbLine
 62
253
  6
CONTINUOUS
 10
0.903347087
 20
14.3185207344
 11
0.6319598433
 21
14.1692350913
  0
LINE
  5
3A6
100
AcDbEntity
  8
CURVE
100
AcDbLine
 62
253
  6
CONTINUOUS
 10
-2.236055231
 20
12.7674954482
 11
-4.6624199679
 21
11.6147194482
  0
LINE
  5
3A7
100
AcDbEntity
  8
CURVE
100
AcDbLine
 62
253
  6
CONTINUOUS
 10
-2.236055231
 20
10.7150234482
 11
-5.1351729298
 21
9.7068494482
  0
LINE
  5
3A8
100
AcDbEntity
  8
CURVE
100
AcDbLine
 62
253
  6
CONTINUOUS
 10
12.1215233383
 20
-11.2741496109
 11
12.1524757174
 21
-11.2741496109
  0
LINE
  5
3A9
100
AcDbEntity
  8
CURVE
100
AcDbLine
 62
253
  6
CONTINUOUS
 10
12.2762852435
 20
-10.7888163932
 11
10.9762852435
 21
-10.7888163932
  0
LINE
  5
3AA
100
AcDbEntity
  8
CURVE
100
AcDbLine
 62
253
  6
CONTINUOUS
 10
11.1619995182
 20
-10.0608163932
 11
11.5334280674
 21
-10.0608163932
  0
LINE
  5
3AB
100
AcDbEntity
  8
CURVE
100
AcDbLine
 62
253
  6
CONTINUOUS
 10
-0.1239101562
 20
-9.6576698946
 11
1.1760898438
 21
-9.6576698946
  0
LINE
  5
3AC
100
AcDbEntity
  8
CURVE
100
AcDbLine
 62
253
  6
CONTINUOUS
 10
12.2762852435
 20
-9.6448162445
 11
10.9762852435
 21
-9.6448162445
  0
LINE
  5
3AD
100
AcDbEntity
  8
CURVE
100
AcDbLine
 62
253
  6
CONTINUOUS
 10
-4.1253331562
 20
-11.0102125518
 11
-2.2319141562
 21
-11.1408295518
  0
LINE
  5
3AE
100
AcDbEntity
  8
CURVE
100
AcDbLine
 62
253
  6
CONTINUOUS
 10
12.2762852435
 20
-14.1168163684
 11
10.9762852435
 21
-13.7008163932
  0
LINE
  5
3AF
100
AcDbEntity
  8
CURVE
100
AcDbLine
 62
253
  6
CONTINUOUS
 10
-3.5216711562
 20
-10.2544055518
 11
-5.1315671562
 21
-9.6491345518
  0
LINE
  5
3B0
100
AcDbEntity
  8
CURVE
100
AcDbLine
 62
253
  6
CONTINUOUS
 10
-4.1174401562
 20
-9.4955985518
 11
-2.2319141562
 21
-10.2152665518
  0
LINE
  5
3B1
100
AcDbEntity
  8
RACCORDO
100
AcDbLine
 62
253
  6
CONTINUOUS
 10
-9.9753645891
 20
24.0069367463
 11
-9.9753645891
 21
23.0733604096
  0
LINE
  5
3B2
100
AcDbEntity
  8
RACCORDO
100
AcDbLine
 62
253
  6
CONTINUOUS
 10
-9.9753645891
 20
-21.5934615132
 11
-9.9753645891
 21
-22.5270378499
  0
LINE
  5
3B3
100
AcDbEntity
  8
RACCORDO
100
AcDbLine
 62
7
  6
CONTINUOUS
 10
-8.7239101562
 20
-21.6684673876
 11
-8.7239101562
 21
-23.5100547826
  0
LINE
  5
3B4
100
AcDbEntity
  8
RACCORDO
100
AcDbLine
 62
7
  6
CONTINUOUS
 10
-8.7239101562
 20
23.1483662839
 11
-8.7239101562
 21
24.989953679
  0
LINE
  5
3B5
100
AcDbEntity
  8
CURVE
100
AcDbLine
 62
253
  6
CONTINUOUS
 10
0.0891853559
 20
16.1099494482
 11
-0.0465081951
 21
15.9109015918
  0
LINE
  5
3B6
100
AcDbEntity
  8
CURVE
100
AcDbLine
 62
253
  6
CONTINUOUS
 10
-0.7249762902
 20
14.766378162
 11
-0.4535890748
 21
15.0649494482
  0
LINE
  5
3B7
100
AcDbEntity
  8
CURVE
100
AcDbLine
 62
253
  6
CONTINUOUS
 10
1.1747343306
 20
16.1099494482
 11
0.903347087
 21
15.811378162
  0
LINE
  5
3B8
100
AcDbEntity
  8
CURVE
100
AcDbLine
 62
253
  6
CONTINUOUS
 10
1.1747343306
 20
14.6170925189
 11
0.903347087
 21
14.3185207344
  0
LINE
  5
3B9
100
AcDbEntity
  8
CURVE
100
AcDbLine
 62
253
  6
CONTINUOUS
 10
0.3605726279
 20
13.5720922697
 11
0.0891853559
 21
13.2735209835
  0
LINE
  5
3BA
100
AcDbEntity
  8
CURVE
100
AcDbLine
 62
7
  6
CONTINUOUS
 10
-4.5490027644
 20
8.7558364776
 11
-4.1365229038
 21
9.1683163382
  0
LINE
  5
3BB
100
AcDbEntity
  8
CURVE
100
AcDbLine
 62
7
  6
CONTINUOUS
 10
-3.7002226556
 20
9.6046165864
 11
-2.7784264869
 21
10.5264127551
  0
LINE
  5
3BC
100
AcDbEntity
  8
CURVE
100
AcDbLine
 62
7
  6
CONTINUOUS
 10
-2.2725647938
 20
11.0322744482
 11
-2.236055231
 21
11.068784011
  0
LINE
  5
3BD
100
AcDbEntity
  8
CURVE
100
AcDbLine
 62
253
  6
CONTINUOUS
 10
-2.8505070202
 20
9.8794984482
 11
-2.236055231
 21
10.0883804482
  0
LINE
  5
3BE
100
AcDbEntity
  8
CURVE
100
AcDbLine
 62
253
  6
CONTINUOUS
 10
-4.5811817195
 20
9.3214204482
 11
-3.3322932299
 21
9.7228924482
  0
LINE
  5
3BF
100
AcDbEntity
  8
CURVE
100
AcDbLine
 62
253
  6
CONTINUOUS
 10
-5.1315671562
 20
-9.0502775518
 11
-2.2319141562
 21
-8.7791275518
  0
LINE
  5
3C0
100
AcDbEntity
  8
CURVE
100
AcDbLine
 62
253
  6
CONTINUOUS
 10
-2.2319141562
 20
-9.3712435518
 11
-4.1174401562
 21
-9.4955985518
  0
LINE
  5
3C1
100
AcDbEntity
  8
CURVE
100
AcDbLine
 62
253
  6
CONTINUOUS
 10
1.1760898438
 20
-9.0695744204
 11
-0.1239101562
 21
-9.0695744204
  0
LINE
  5
3C2
100
AcDbEntity
  8
CURVE
100
AcDbLine
 62
253
  6
CONTINUOUS
 10
6.3530498438
 20
-8.6249385518
 11
7.1030498438
 21
-8.6249385518
  0
LINE
  5
3C3
100
AcDbEntity
  8
CURVE
100
AcDbLine
 62
253
  6
CONTINUOUS
 10
12.2762852435
 20
-8.6048160461
 11
10.9762852435
 21
-8.6048160461
  0
LINE
  5
3C4
100
AcDbEntity
  8
CURVE
100
AcDbLine
 62
253
  6
CONTINUOUS
 10
1.1760898438
 20
-8.4195744204
 11
-0.1239101562
 21
-8.4195744204
  0
LINE
  5
3C5
100
AcDbEntity
  8
CURVE
100
AcDbLine
 62
253
  6
CONTINUOUS
 10
4.180012726
 20
-8.2249385518
 11
4.9308298438
 21
-8.2249385518
  0
LINE
  5
3C6
100
AcDbEntity
  8
CURVE
100
AcDbLine
 62
253
  6
CONTINUOUS
 10
8.5252667953
 20
-8.2249385518
 11
9.2760869615
 21
-8.2249385518
  0
LINE
  5
3C7
100
AcDbEntity
  8
CURVE
100
AcDbLine
 62
253
  6
CONTINUOUS
 10
12.2762852435
 20
-7.8768160461
 11
10.9762852435
 21
-7.8768160461
  0
LINE
  5
3C8
100
AcDbEntity
  8
CURVE
100
AcDbLine
 62
253
  6
CONTINUOUS
 10
12.2762852435
 20
-7.4608162445
 11
10.9762852435
 21
-7.4608162445
  0
LINE
  5
3C9
100
AcDbEntity
  8
CURVE
100
AcDbLine
 62
253
  6
CONTINUOUS
 10
-4.3348161562
 20
-7.4931765518
 11
-3.2587181562
 21
-7.7945505518
  0
LINE
  5
3CA
100
AcDbEntity
  8
CURVE
100
AcDbLine
 62
253
  6
CONTINUOUS
 10
-2.8107881562
 20
-7.9183625518
 11
-2.2319141562
 21
-8.0853795518
  0
LINE
  5
3CB
100
AcDbEntity
  8
CURVE
100
AcDbLine
 62
253
  6
CONTINUOUS
 10
-2.2319141562
 20
-8.6840835518
 11
-5.1315671562
 21
-7.7745675518
  0
LINE
  5
3CC
100
AcDbEntity
  8
CURVE
100
AcDbLine
 62
253
  6
CONTINUOUS
 10
0.9903755497
 20
-12.3814792561
 11
1.1760898438
 21
-12.5671934532
  0
LINE
  5
3CD
100
AcDbEntity
  8
RACCORDO
100
AcDbLine
 62
253
  6
CONTINUOUS
 10
-7.9724557234
 20
24.985581845
 11
-7.9724557234
 21
24.5842870155
  0
LINE
  5
3CE
100
AcDbEntity
  8
RACCORDO
100
AcDbLine
 62
253
  6
CONTINUOUS
 10
-7.9724557234
 20
-23.1043881191
 11
-7.9724557234
 21
-23.5056829486
  0
LINE
  5
3CF
100
AcDbEntity
  8
RACCORDO
100
AcDbLine
 62
7
  6
CONTINUOUS
 10
-7.7239101562
 20
24.985581845
 11
-7.7239101562
 21
24.5842870155
  0
LINE
  5
3D0
100
AcDbEntity
  8
DRAFT
100
AcDbLine
 62
7
  6
CONTINUOUS
 10
-7.7239101562
 20
18.8615223234
 11
-7.7239101562
 21
-17.3816234271
  0
LINE
  5
3D1
100
AcDbEntity
  8
IMPORT
100
AcDbLine
 62
7
  6
CONTINUOUS
 10
-7.7239101562
 20
18.8615223234
 11
-7.7239101562
 21
-17.3816234271
  0
LINE
  5
3D2
100
AcDbEntity
  8
RACCORDO
100
AcDbLine
 62
7
  6
CONTINUOUS
 10
-7.7239101562
 20
23.1399494482
 11
-7.7239101562
 21
-21.6600505518
  0
LINE
  5
3D3
100
AcDbEntity
  8
RACCORDO
100
AcDbLine
 62
7
  6
CONTINUOUS
 10
-7.7239101562
 20
-23.054232722
 11
-7.7239101562
 21
-23.5056829486
  0
LINE
  5
3D4
100
AcDbEntity
  8
CURVE
100
AcDbLine
 62
253
  6
CONTINUOUS
 10
-2.2319141562
 20
-6.9372855518
 11
-2.8107881562
 21
-7.0940835518
  0
LINE
  5
3D5
100
AcDbEntity
  8
CURVE
100
AcDbLine
 62
253
  6
CONTINUOUS
 10
-3.2587181562
 20
-7.2150465518
 11
-4.3348161562
 21
-7.4931765518
  0
LINE
  5
3D6
100
AcDbEntity
  8
CURVE
100
AcDbLine
 62
253
  6
CONTINUOUS
 10
-0.1239101562
 20
-6.779098289
 11
1.1760898438
 21
-6.779098289
  0
LINE
  5
3D7
100
AcDbEntity
  8
CURVE
100
AcDbLine
 62
253
  6
CONTINUOUS
 10
11.1619995182
 20
-6.7328162445
 11
12.0905709495
 21
-6.7328162445
  0
LINE
  5
3D8
100
AcDbEntity
  8
CURVE
100
AcDbLine
 62
253
  6
CONTINUOUS
 10
-5.0976895036
 20
-6.1216178962
 11
-2.231913804
 21
-6.1216178962
  0
LINE
  5
3D9
100
AcDbEntity
  8
CURVE
100
AcDbLine
 62
253
  6
CONTINUOUS
 10
12.1524757174
 20
-5.9354831756
 11
12.1215233383
 21
-5.9354831756
  0
LINE
  5
3DA
100
AcDbEntity
  8
CURVE
100
AcDbLine
 62
253
  6
CONTINUOUS
 10
-0.1239101562
 20
-5.8195744204
 11
1.1760898438
 21
-5.8195744204
  0
LINE
  5
3DB
100
AcDbEntity
  8
CURVE
100
AcDbLine
 62
253
  6
CONTINUOUS
 10
12.1215233383
 20
-5.7968163436
 11
12.1524757174
 21
-5.7968163436
  0
LINE
  5
3DC
100
AcDbEntity
  8
CURVE
100
AcDbLine
 62
253
  6
CONTINUOUS
 10
-3.8415710574
 20
-5.5388518237
 11
-4.6375824145
 21
-5.5388518237
  0
LINE
  5
3DD
100
AcDbEntity
  8
CURVE
100
AcDbLine
 62
253
  6
CONTINUOUS
 10
-2.231913804
 20
-5.5187819351
 11
-3.3666779182
 21
-5.5187819351
  0
LINE
  5
3DE
100
AcDbEntity
  8
CURVE
100
AcDbLine
 62
253
  6
CONTINUOUS
 10
-5.1351729298
 20
15.7318844482
 11
-5.1351729298
 21
14.9928334482
  0
LINE
  5
3DF
100
AcDbEntity
  8
CURVE
100
AcDbLine
 62
253
  6
CONTINUOUS
 10
-5.1351729298
 20
9.7068494482
 11
-5.1351729298
 21
8.9677984482
  0
LINE
  5
3E0
100
AcDbEntity
  8
CURVE
100
AcDbLine
 62
253
  6
CONTINUOUS
 10
-5.1351729298
 20
4.3281694482
 11
-5.1351729298
 21
3.4407394482
  0
LINE
  5
3E1
100
AcDbEntity
  8
CURVE
100
AcDbLine
 62
253
  6
CONTINUOUS
 10
-5.1351729298
 20
5.9110824482
 11
-5.1351729298
 21
6.5336884482
  0
LINE
  5
3E2
100
AcDbEntity
  8
CURVE
100
AcDbLine
 62
253
  6
CONTINUOUS
 10
-5.1351729298
 20
11.0322744482
 11
-5.1351729298
 21
11.9560884482
  0
LINE
  5
3E3
100
AcDbEntity
  8
CURVE
100
AcDbLine
 62
253
  6
CONTINUOUS
 10
-5.1351729298
 20
13.0687034482
 11
-5.1351729298
 21
13.6511474482
  0
LINE
  5
3E4
100
AcDbEntity
  8
CURVE
100
AcDbLine
 62
253
  6
CONTINUOUS
 10
-5.1317411562
 20
-12.0457145518
 11
-5.1317411562
 21
-12.6509855518
  0
LINE
  5
3E5
100
AcDbEntity
  8
CURVE
100
AcDbLine
 62
253
  6
CONTINUOUS
 10
-5.1315671562
 20
-15.2603105518
 11
-5.1315671562
 21
-14.6027985518
  0
LINE
  5
3E6
100
AcDbEntity
  8
CURVE
100
AcDbLine
 62
253
  6
CONTINUOUS
 10
-5.1315671562
 20
-13.4804605518
 11
-5.1315671562
 21
-12.8756025518
  0
LINE
  5
3E7
100
AcDbEntity
  8
CURVE
100
AcDbLine
 62
253
  6
CONTINUOUS
 10
-5.1315671562
 20
-11.4580555518
 11
-5.1315671562
 21
-10.8532845518
  0
LINE
  5
3E8
100
AcDbEntity
  8
CURVE
100
AcDbLine
 62
253
  6
CONTINUOUS
 10
-5.1315671562
 20
-9.6491345518
 11
-5.1315671562
 21
-9.0502775518
  0
LINE
  5
3E9
100
AcDbEntity
  8
CURVE
100
AcDbLine
 62
253
  6
CONTINUOUS
 10
-5.1315671562
 20
-7.7745675518
 11
-5.1315671562
 21
-7.1890405518
  0
LINE
  5
3EA
100
AcDbEntity
  8
CURVE
100
AcDbLine
 62
253
  6
CONTINUOUS
 10
-4.6533867201
 20
4.0633454482
 11
-4.6533867201
 21
4.4265614482
  0
LINE
  5
3EB
100
AcDbEntity
  8
CURVE
100
AcDbLine
 62
253
  6
CONTINUOUS
 10
-3.5854462274
 20
-4.5654948419
 11
-3.6025806502
 21
-4.5654948419
  0
LINE
  5
3EC
100
AcDbEntity
  8
CURVE
100
AcDbLine
 62
253
  6
CONTINUOUS
 10
1.1760898438
 20
-3.962431209
 11
-0.1239101562
 21
-3.962431209
  0
LINE
  5
3ED
100
AcDbEntity
  8
CURVE
100
AcDbLine
 62
253
  6
CONTINUOUS
 10
1.1760898438
 20
-5.0767170119
 11
-0.1239101562
 21
-4.7052892374
  0
LINE
  5
3EE
100
AcDbEntity
  8
CURVE
100
AcDbLine
 62
253
  6
CONTINUOUS
 10
12.1215233383
 20
-11.4128164428
 11
12.0596185704
 21
-11.3781495613
  0
LINE
  5
3EF
100
AcDbEntity
  8
CURVE
100
AcDbLine
 62
253
  6
CONTINUOUS
 10
12.1524757174
 20
-11.2741496109
 11
12.2143804804
 21
-11.3088164924
  0
LINE
  5
3F0
100
AcDbEntity
  8
CURVE
100
AcDbLine
 62
253
  6
CONTINUOUS
 10
-3.8415710574
 20
-5.1929452276
 11
-3.8415710574
 21
-5.5388518237
  0
LINE
  5
3F1
100
AcDbEntity
  8
CURVE
100
AcDbLine
 62
253
  6
CONTINUOUS
 10
-3.8342632901
 20
4.0633454482
 11
-3.8342632901
 21
4.4265614482
  0
LINE
  5
3F2
100
AcDbEntity
  8
CURVE
100
AcDbLine
 62
253
  6
CONTINUOUS
 10
-3.3666779182
 20
-5.5187819351
 11
-3.3666779182
 21
-5.1942498791
  0
LINE
  5
3F3
100
AcDbEntity
  8
CURVE
100
AcDbLine
 62
253
  6
CONTINUOUS
 10
-3.3524770803
 20
4.3281694482
 11
-3.3524770803
 21
4.0633454482
  0
LINE
  5
3F4
100
AcDbEntity
  8
CURVE
100
AcDbLine
 62
253
  6
CONTINUOUS
 10
-3.3322932299
 20
15.7478184482
 11
-3.3322932299
 21
14.9164404482
  0
LINE
  5
3F5
100
AcDbEntity
  8
CURVE
100
AcDbLine
 62
253
  6
CONTINUOUS
 10
-3.3322932299
 20
9.7228924482
 11
-3.3322932299
 21
8.8914054482
  0
LINE
  5
3F6
100
AcDbEntity
  8
CURVE
100
AcDbLine
 62
253
  6
CONTINUOUS
 10
-3.2587181562
 20
-7.7945505518
 11
-3.2587181562
 21
-7.2150465518
  0
LINE
  5
3F7
100
AcDbEntity
  8
CURVE
100
AcDbLine
 62
253
  6
CONTINUOUS
 10
-2.8505070202
 20
8.7307614482
 11
-2.8505070202
 21
9.8794984482
  0
LINE
  5
3F8
100
AcDbEntity
  8
CURVE
100
AcDbLine
 62
253
  6
CONTINUOUS
 10
-2.8505070202
 20
14.7557954482
 11
-2.8505070202
 21
15.9045334482
  0
LINE
  5
3F9
100
AcDbEntity
  8
CURVE
100
AcDbLine
 62
253
  6
CONTINUOUS
 10
-2.8107881562
 20
-7.0940835518
 11
-2.8107881562
 21
-7.9183625518
  0
LINE
  5
3FA
100
AcDbEntity
  8
CURVE
100
AcDbLine
 62
253
  6
CONTINUOUS
 10
-2.7178414407
 20
6.5336884482
 11
-2.7178414407
 21
7.6066874482
  0
LINE
  5
3FB
100
AcDbEntity
  8
CURVE
100
AcDbLine
 62
253
  6
CONTINUOUS
 10
-2.236055231
 20
13.6511474482
 11
-2.236055231
 21
12.7674954482
  0
LINE
  5
3FC
100
AcDbEntity
  8
CURVE
100
AcDbLine
 62
253
  6
CONTINUOUS
 10
-2.236055231
 20
11.6147194482
 11
-2.236055231
 21
11.0322744482
  0
LINE
  5
3FD
100
AcDbEntity
  8
CURVE
100
AcDbLine
 62
253
  6
CONTINUOUS
 10
-2.236055231
 20
7.6066874482
 11
-2.236055231
 21
5.9110824482
  0
LINE
  5
3FE
100
AcDbEntity
  8
CURVE
100
AcDbLine
 62
253
  6
CONTINUOUS
 10
-2.236055231
 20
3.4407394482
 11
-2.236055231
 21
4.0633454482
  0
LINE
  5
3FF
100
AcDbEntity
  8
CURVE
100
AcDbLine
 62
253
  6
CONTINUOUS
 10
-2.236055231
 20
7.9194634482
 11
-2.236055231
 21
8.5139134482
  0
LINE
  5
400
100
AcDbEntity
  8
CURVE
100
AcDbLine
 62
253
  6
CONTINUOUS
 10
-2.236055231
 20
10.0883804482
 11
-2.236055231
 21
10.7150234482
  0
LINE
  5
401
100
AcDbEntity
  8
CURVE
100
AcDbLine
 62
253
  6
CONTINUOUS
 10
-2.236055231
 20
13.9443894482
 11
-2.236055231
 21
14.5388384482
  0
LINE
  5
402
100
AcDbEntity
  8
CURVE
100
AcDbLine
 62
253
  6
CONTINUOUS
 10
-2.236055231
 20
16.1135234482
 11
-2.236055231
 21
16.7399494482
  0
LINE
  5
403
100
AcDbEntity
  8
CURVE
100
AcDbLine
 62
253
  6
CONTINUOUS
 10
-2.2319141562
 20
-6.2993545518
 11
-2.2319141562
 21
-6.9372855518
  0
LINE
  5
404
100
AcDbEntity
  8
CURVE
100
AcDbLine
 62
253
  6
CONTINUOUS
 10
-2.2319141562
 20
-8.0853795518
 11
-2.2319141562
 21
-8.6840835518
  0
LINE
  5
405
100
AcDbEntity
  8
CURVE
100
AcDbLine
 62
253
  6
CONTINUOUS
 10
-2.2319141562
 20
-8.7791275518
 11
-2.2319141562
 21
-9.3712435518
  0
LINE
  5
406
100
AcDbEntity
  8
CURVE
100
AcDbLine
 62
253
  6
CONTINUOUS
 10
-2.2319141562
 20
-10.2152665518
 11
-2.2319141562
 21
-10.3001555518
  0
LINE
  5
407
100
AcDbEntity
  8
CURVE
100
AcDbLine
 62
253
  6
CONTINUOUS
 10
-2.2319141562
 20
-11.1408295518
 11
-2.2319141562
 21
-11.7198775518
  0
LINE
  5
408
100
AcDbEntity
  8
CURVE
100
AcDbLine
 62
253
  6
CONTINUOUS
 10
-2.2319141562
 20
-13.8076675518
 11
-2.2319141562
 21
-14.3410635518
  0
LINE
  5
409
100
AcDbEntity
  8
CURVE
100
AcDbLine
 62
253
  6
CONTINUOUS
 10
-2.2319141562
 20
-12.6509855518
 11
-2.2319141562
 21
-12.0457145518
  0
LINE
  5
40A
100
AcDbEntity
  8
CURVE
100
AcDbLine
 62
253
  6
CONTINUOUS
 10
-2.231913804
 20
-6.1216178962
 11
-2.231913804
 21
-5.5187819351
  0
LINE
  5
40B
100
AcDbEntity
  8
CURVE
100
AcDbLine
 62
253
  6
CONTINUOUS
 10
-2.231913804
 20
-4.5918922902
 11
-2.231913804
 21
-4.0096915666
  0
LINE
  5
40C
100
AcDbEntity
  8
CURVE
100
AcDbLine
 62
253
  6
CONTINUOUS
 10
0.4332326677
 20
-2.7552892374
 11
1.1760898438
 21
-2.7552892374
  0
LINE
  5
40D
100
AcDbEntity
  8
CURVE
100
AcDbLine
 62
253
  6
CONTINUOUS
 10
-0.1239101562
 20
-2.3838596033
 11
0.4332326677
 21
-2.7552892374
  0
LINE
  5
40E
100
AcDbEntity
  8
ASSI
100
AcDbLine
 62
253
  6
CONTINUOUS
 10
-1.1493903295
 20
-21.6026755865
 11
-1.1493903295
 21
-23.0108512666
  0
LINE
  5
40F
100
AcDbEntity
  8
ASSI
100
AcDbLine
 62
253
  6
CONTINUOUS
 10
-1.1493903295
 20
23.0825744829
 11
-1.1493903295
 21
24.4907501629
  0
LINE
  5
410
100
AcDbEntity
  8
CURVE
100
AcDbLine
 62
253
  6
CONTINUOUS
 10
-0.7249762902
 20
12.6763779128
 11
-0.7249762902
 21
13.5720922697
  0
LINE
  5
411
100
AcDbEntity
  8
CURVE
100
AcDbLine
 62
253
  6
CONTINUOUS
 10
-0.7249762902
 20
14.6170925189
 11
-0.7249762902
 21
14.766378162
  0
LINE
  5
412
100
AcDbEntity
  8
CURVE
100
AcDbLine
 62
253
  6
CONTINUOUS
 10
-0.7249762902
 20
16.1099494482
 11
-0.7249762902
 21
16.5578063775
  0
LINE
  5
413
100
AcDbEntity
  8
ASSI
100
AcDbLine
 62
7
  6
CONTINUOUS
 10
-0.7239101562
 20
-21.5990177047
 11
-0.7239101562
 21
-22.5164083665
  0
LINE
  5
414
100
AcDbEntity
  8
ASSI
100
AcDbLine
 62
7
  6
CONTINUOUS
 10
-0.7239101562
 20
23.078916601
 11
-0.7239101562
 21
23.9963072629
  0
LINE
  5
415
100
AcDbEntity
  8
CURVE
100
AcDbLine
 62
253
  6
CONTINUOUS
 10
-0.1239101562
 20
-5.4481460261
 11
-0.1239101562
 21
-6.1910028147
  0
LINE
  5
416
100
AcDbEntity
  8
CURVE
100
AcDbLine
 62
253
  6
CONTINUOUS
 10
-0.1239101562
 20
-13.0314791011
 11
-0.1239101562
 21
-12.5671934532
  0
LINE
  5
417
100
AcDbEntity
  8
CURVE
100
AcDbLine
 62
253
  6
CONTINUOUS
 10
-0.1239101562
 20
-11.8552886175
 11
-0.1239101562
 21
-11.2981457161
  0
LINE
  5
418
100
AcDbEntity
  8
CURVE
100
AcDbLine
 62
253
  6
CONTINUOUS
 10
12.1215233383
 20
-5.9354831756
 11
12.0596185704
 21
-5.9008166412
  0
LINE
  5
419
100
AcDbEntity
  8
CURVE
100
AcDbLine
 62
253
  6
CONTINUOUS
 10
11.5334280674
 20
-14.5328163436
 11
11.7191423808
 21
-14.7408163312
  0
LINE
  5
41A
100
AcDbEntity
  8
CURVE
100
AcDbLine
 62
253
  6
CONTINUOUS
 10
0.0891853559
 20
13.2735209835
 11
0.0891853559
 21
12.6763779128
  0
LINE
  5
41B
100
AcDbEntity
  8
CURVE
100
AcDbLine
 62
253
  6
CONTINUOUS
 10
0.0891853559
 20
16.1099494482
 11
0.0891853559
 21
16.5578063775
  0
LINE
  5
41C
100
AcDbEntity
  8
CURVE
100
AcDbLine
 62
253
  6
CONTINUOUS
 10
0.4332326677
 20
-11.8552886175
 11
0.4332326677
 21
-11.4838602232
  0
LINE
  5
41D
100
AcDbEntity
  8
CURVE
100
AcDbLine
 62
253
  6
CONTINUOUS
 10
0.7676534793
 20
12.0792350913
 11
0.7676534793
 21
11.0342352158
  0
LINE
  5
41E
100
AcDbEntity
  8
CURVE
100
AcDbLine
 62
253
  6
CONTINUOUS
 10
0.8046612557
 20
-4.4576698946
 11
0.8046612557
 21
-4.9529079604
  0
LINE
  5
41F
100
AcDbEntity
  8
CURVE
100
AcDbLine
 62
253
  6
CONTINUOUS
 10
0.8046612557
 20
-13.5267171668
 11
0.8046612557
 21
-14.02195531
  0
LINE
  5
420
100
AcDbEntity
  8
CURVE
100
AcDbLine
 62
253
  6
CONTINUOUS
 10
1.1747343306
 20
16.5578063775
 11
1.1747343306
 21
16.1099494482
  0
LINE
  5
421
100
AcDbEntity
  8
CURVE
100
AcDbLine
 62
253
  6
CONTINUOUS
 10
1.1747343306
 20
14.766378162
 11
1.1747343306
 21
14.6170925189
  0
LINE
  5
422
100
AcDbEntity
  8
CURVE
100
AcDbLine
 62
253
  6
CONTINUOUS
 10
1.1747343306
 20
12.6763779128
 11
1.1747343306
 21
13.2735209835
  0
LINE
  5
423
100
AcDbEntity
  8
CURVE
100
AcDbLine
 62
253
  6
CONTINUOUS
 10
1.1760898438
 20
-3.4981460261
 11
1.1760898438
 21
-3.962431209
  0
LINE
  5
424
100
AcDbEntity
  8
CURVE
100
AcDbLine
 62
253
  6
CONTINUOUS
 10
1.1760898438
 20
-11.2981457161
 11
1.1760898438
 21
-11.8552886175
  0
LINE
  5
425
100
AcDbEntity
  8
CURVE
100
AcDbLine
 62
253
  6
CONTINUOUS
 10
1.1760898438
 20
-12.5671934532
 11
1.1760898438
 21
-13.0314791011
  0
LINE
  5
426
100
AcDbEntity
  8
RACCORDO
100
AcDbLine
 62
253
  6
CONTINUOUS
 10
1.784816047
 20
22.3059248814
 11
1.784816047
 21
21.7229308446
  0
LINE
  5
427
100
AcDbEntity
  8
RACCORDO
100
AcDbLine
 62
253
  6
CONTINUOUS
 10
1.784816047
 20
-20.2430319483
 11
1.784816047
 21
-20.8260259851
  0
LINE
  5
428
100
AcDbEntity
  8
CURVE
100
AcDbLine
 62
253
  6
CONTINUOUS
 10
12.1524757174
 20
-5.7968163436
 11
12.2143804804
 21
-5.8314828781
  0
LINE
  5
429
100
AcDbEntity
  8
CURVE
100
AcDbLine
 62
253
  6
CONTINUOUS
 10
11.5334280674
 20
-10.0608163932
 11
11.7191423808
 21
-10.2688162941
  0
LINE
  5
42A
100
AcDbEntity
  8
DRAFT
100
AcDbLine
 62
7
  6
CONTINUOUS
 10
2.2760898438
 20
22.9653987989
 11
2.2760898438
 21
22.0613695597
  0
LINE
  5
42B
100
AcDbEntity
  8
IMPORT
100
AcDbLine
 62
7
  6
CONTINUOUS
 10
2.2760898438
 20
22.9653987989
 11
2.2760898438
 21
22.0613695597
  0
LINE
  5
42C
100
AcDbEntity
  8
DRAFT
100
AcDbLine
 62
7
  6
CONTINUOUS
 10
2.2760898438
 20
-21.4854999025
 11
2.2760898438
 21
-20.5814706633
  0
LINE
  5
42D
100
AcDbEntity
  8
IMPORT
100
AcDbLine
 62
7
  6
CONTINUOUS
 10
2.2760898438
 20
-21.4854999025
 11
2.2760898438
 21
-20.5814706633
  0
LINE
  5
42E
100
AcDbEntity
  8
RACCORDO
100
AcDbLine
 62
7
  6
CONTINUOUS
 10
2.2760898438
 20
-20.5814706633
 11
2.2760898438
 21
-18.2762990161
  0
LINE
  5
42F
100
AcDbEntity
  8
IMPORT
100
AcDbLine
 62
7
  6
CONTINUOUS
 10
2.2760898438
 20
-19.3854999025
 11
2.2760898438
 21
-18.2762990161
  0
LINE
  5
430
100
AcDbEntity
  8
IMPORT
100
AcDbLine
 62
7
  6
CONTINUOUS
 10
2.2760898438
 20
19.7561005995
 11
2.2760898438
 21
20.8653987989
  0
LINE
  5
431
100
AcDbEntity
  8
RACCORDO
100
AcDbLine
 62
7
  6
CONTINUOUS
 10
2.2760898438
 20
19.7561005995
 11
2.2760898438
 21
22.0613695597
  0
LINE
  5
432
100
AcDbEntity
  8
CURVE
100
AcDbLine
 62
253
  6
CONTINUOUS
 10
-0.1239101562
 20
-3.1267176318
 11
0.4332326677
 21
-2.7552892374
  0
LINE
  5
433
100
AcDbEntity
  8
CURVE
100
AcDbLine
 62
253
  6
CONTINUOUS
 10
-5.1351729298
 20
3.4407394482
 11
-2.236055231
 21
3.4407394482
  0
LINE
  5
434
100
AcDbEntity
  8
CURVE
100
AcDbLine
 62
253
  6
CONTINUOUS
 10
-2.236055231
 20
4.0633454482
 11
-3.3524770803
 21
4.0633454482
  0
LINE
  5
435
100
AcDbEntity
  8
CURVE
100
AcDbLine
 62
253
  6
CONTINUOUS
 10
-3.8342632901
 20
4.0633454482
 11
-4.6533867201
 21
4.0633454482
  0
LINE
  5
436
100
AcDbEntity
  8
CURVE
100
AcDbLine
 62
253
  6
CONTINUOUS
 10
12.0905709495
 20
-6.7328162445
 11
12.2762852435
 21
-6.9408161453
  0
LINE
  5
437
100
AcDbEntity
  8
0
100
AcDbLine
 62
7
  6
CONTINUOUS
 10
5.8760898438
 20
10.3399494482
 11
5.8760898438
 21
6.3399494482
  0
LINE
  5
438
100
AcDbEntity
  8
IMPORT
100
AcDbLine
 62
7
  6
CONTINUOUS
 10
5.8760898438
 20
10.3399494482
 11
5.8760898438
 21
6.3399494482
  0
LINE
  5
439
100
AcDbEntity
  8
CURVE
100
AcDbLine
 62
253
  6
CONTINUOUS
 10
-5.1315671562
 20
-7.1890405518
 11
-2.2319141562
 21
-6.2993545518
  0
LINE
  5
43A
100
AcDbEntity
  8
CURVE
100
AcDbLine
 62
253
  6
CONTINUOUS
 10
-0.1239101562
 20
-4.7052892374
 11
1.1760898438
 21
-4.3338596033
  0
LINE
  5
43B
100
AcDbEntity
  8
CURVE
100
AcDbLine
 62
253
  6
CONTINUOUS
 10
-2.236055231
 20
5.9110824482
 11
-5.1351729298
 21
5.9110824482
  0
LINE
  5
43C
100
AcDbEntity
  8
CURVE
100
AcDbLine
 62
253
  6
CONTINUOUS
 10
-5.1351729298
 20
6.5336884482
 11
-2.7178414407
 21
6.5336884482
  0
LINE
  5
43D
100
AcDbEntity
  8
0
100
AcDbLine
 62
7
  6
CONTINUOUS
 10
5.8760898438
 20
6.8899494482
 11
7.0760898438
 21
6.8899494482
  0
LINE
  5
43E
100
AcDbEntity
  8
RACCORDO
100
AcDbLine
 62
7
  6
CONTINUOUS
 10
5.8760898438
 20
6.3399494482
 11
17.7760898438
 21
5.2988343522
  0
LINE
  5
43F
100
AcDbEntity
  8
IMPORT
100
AcDbLine
 62
7
  6
CONTINUOUS
 10
5.8760898438
 20
6.3399494482
 11
17.7760898438
 21
5.2988343522
  0
LINE
  5
440
100
AcDbEntity
  8
CURVE
100
AcDbLine
 62
253
  6
CONTINUOUS
 10
-5.1351729298
 20
8.9677984482
 11
-2.236055231
 21
7.9194634482
  0
LINE
  5
441
100
AcDbEntity
  8
CURVE
100
AcDbLine
 62
253
  6
CONTINUOUS
 10
-0.1822018594
 20
9.8399494482
 11
-0.7249762902
 21
10.437092332
  0
LINE
  5
442
100
AcDbEntity
  8
CURVE
100
AcDbLine
 62
253
  6
CONTINUOUS
 10
6.3530498438
 20
-10.0854426638
 11
6.3530498438
 21
-8.6249385518
  0
LINE
  5
443
100
AcDbEntity
  8
0
100
AcDbLine
 62
7
  6
CONTINUOUS
 10
7.0760898438
 20
9.5899494482
 11
7.0760898438
 21
6.8899494482
  0
LINE
  5
444
100
AcDbEntity
  8
CURVE
100
AcDbLine
 62
253
  6
CONTINUOUS
 10
7.1030498438
 20
-8.6249385518
 11
7.1030498438
 21
-10.0854395518
  0
LINE
  5
445
100
AcDbEntity
  8
ASSI
100
AcDbLine
 62
7
  6
CONTINUOUS
 10
7.0760898438
 20
7.5899494482
 11
13.7760898438
 21
7.5899494482
  0
LINE
  5
446
100
AcDbEntity
  8
CURVE
100
AcDbLine
 62
253
  6
CONTINUOUS
 10
-2.7178414407
 20
7.6066874482
 11
-2.236055231
 21
7.6066874482
  0
LINE
  5
447
100
AcDbEntity
  8
ASSI
100
AcDbLine
 62
7
  6
CONTINUOUS
 10
7.0760898438
 20
8.8899494482
 11
13.7760898438
 21
8.8899494482
  0
LINE
  5
448
100
AcDbEntity
  8
CURVE
100
AcDbLine
 62
253
  6
CONTINUOUS
 10
-3.3322932299
 20
8.8914054482
 11
-4.5811817195
 21
9.3214204482
  0
LINE
  5
449
100
AcDbEntity
  8
CURVE
100
AcDbLine
 62
253
  6
CONTINUOUS
 10
-2.236055231
 20
8.5139134482
 11
-2.8505070202
 21
8.7307614482
  0
LINE
  5
44A
100
AcDbEntity
  8
CURVE
100
AcDbLine
 62
253
  6
CONTINUOUS
 10
-0.1239101562
 20
-12.5671934532
 11
0.0618041184
 21
-12.3814792561
  0
LINE
  5
44B
100
AcDbEntity
  8
CURVE
100
AcDbLine
 62
253
  6
CONTINUOUS
 10
-0.1239101562
 20
-9.0695744204
 11
1.1760898438
 21
-8.4195744204
  0
LINE
  5
44C
100
AcDbEntity
  8
CURVE
100
AcDbLine
 62
253
  6
CONTINUOUS
 10
-2.2319141562
 20
-10.3001555518
 11
-4.1253331562
 21
-11.0102125518
  0
LINE
  5
44D
100
AcDbEntity
  8
CURVE
100
AcDbLine
 62
253
  6
CONTINUOUS
 10
-5.1315671562
 20
-10.8532845518
 11
-3.5216711562
 21
-10.2544055518
  0
LINE
  5
44E
100
AcDbEntity
  8
RACCORDO
100
AcDbLine
 62
7
  6
CONTINUOUS
 10
17.7760898438
 20
11.3810645441
 11
5.8760898438
 21
10.3399494482
  0
LINE
  5
44F
100
AcDbEntity
  8
IMPORT
100
AcDbLine
 62
7
  6
CONTINUOUS
 10
17.7760898438
 20
11.3810645441
 11
5.8760898438
 21
10.3399494482
  0
LINE
  5
450
100
AcDbEntity
  8
0
100
AcDbLine
 62
7
  6
CONTINUOUS
 10
5.8760898438
 20
9.5899494482
 11
7.0760898438
 21
9.5899494482
  0
LINE
  5
451
100
AcDbEntity
  8
CURVE
100
AcDbLine
 62
253
  6
CONTINUOUS
 10
-0.7249762902
 20
10.437092332
 11
1.1747343306
 21
10.437092332
  0
LINE
  5
452
100
AcDbEntity
  8
CURVE
100
AcDbLine
 62
253
  6
CONTINUOUS
 10
-2.236055231
 20
11.0322744482
 11
-5.1351729298
 21
11.0322744482
  0
LINE
  5
453
100
AcDbEntity
  8
CURVE
100
AcDbLine
 62
253
  6
CONTINUOUS
 10
0.7676534793
 20
11.0342352158
 11
-0.7249762902
 21
11.4820922697
  0
LINE
  5
454
100
AcDbEntity
  8
CURVE
100
AcDbLine
 62
253
  6
CONTINUOUS
 10
-0.4535890748
 20
14.3185207344
 11
-0.7249762902
 21
14.6170925189
  0
LINE
  5
455
100
AcDbEntity
  8
CURVE
100
AcDbLine
 62
253
  6
CONTINUOUS
 10
1.1747343306
 20
13.2735209835
 11
0.903347087
 21
13.5720922697
  0
LINE
  5
456
100
AcDbEntity
  8
CURVE
100
AcDbLine
 62
253
  6
CONTINUOUS
 10
0.903347087
 20
15.0649494482
 11
1.1747343306
 21
14.766378162
  0
LINE
  5
457
100
AcDbEntity
  8
CURVE
100
AcDbLine
 62
253
  6
CONTINUOUS
 10
-0.0465081951
 20
16.7568542338
 11
0.0891853559
 21
16.5578063775
  0
LINE
  5
458
100
AcDbEntity
  8
CURVE
100
AcDbLine
 62
253
  6
CONTINUOUS
 10
10.9762852435
 20
-12.0368164924
 11
10.9762852435
 21
-12.8688162693
  0
LINE
  5
459
100
AcDbEntity
  8
CURVE
100
AcDbLine
 62
253
  6
CONTINUOUS
 10
10.9762852435
 20
-15.2608163436
 11
10.9762852435
 21
-14.7408163312
  0
LINE
  5
45A
100
AcDbEntity
  8
CURVE
100
AcDbLine
 62
253
  6
CONTINUOUS
 10
10.9762852435
 20
-10.7888163932
 11
10.9762852435
 21
-10.2688162941
  0
LINE
  5
45B
100
AcDbEntity
  8
CURVE
100
AcDbLine
 62
253
  6
CONTINUOUS
 10
10.9762852435
 20
-9.6448162445
 11
10.9762852435
 21
-9.020816542
  0
LINE
  5
45C
100
AcDbEntity
  8
CURVE
100
AcDbLine
 62
253
  6
CONTINUOUS
 10
10.9762852435
 20
-7.4608162445
 11
10.9762852435
 21
-6.9408161453
  0
LINE
  5
45D
100
AcDbEntity
  8
CURVE
100
AcDbLine
 62
253
  6
CONTINUOUS
 10
11.5334280674
 20
-9.6448162445
 11
11.5334280674
 21
-9.2288164428
  0
LINE
  5
45E
100
AcDbEntity
  8
CURVE
100
AcDbLine
 62
253
  6
CONTINUOUS
 10
11.7191423808
 20
-10.2688162941
 11
11.7191423808
 21
-10.7888163932
  0
LINE
  5
45F
100
AcDbEntity
  8
CURVE
100
AcDbLine
 62
253
  6
CONTINUOUS
 10
11.7191423808
 20
-14.7408163312
 11
11.7191423808
 21
-15.2608163436
  0
LINE
  5
460
100
AcDbEntity
  8
CURVE
100
AcDbLine
 62
253
  6
CONTINUOUS
 10
11.9048566555
 20
-13.4234830764
 11
11.9048566555
 21
-13.97814971
  0
LINE
  5
461
100
AcDbEntity
  8
CURVE
100
AcDbLine
 62
253
  6
CONTINUOUS
 10
12.0596185704
 20
-11.3781495613
 11
12.0596185704
 21
-11.3088164924
  0
LINE
  5
462
100
AcDbEntity
  8
CURVE
100
AcDbLine
 62
253
  6
CONTINUOUS
 10
12.0596185704
 20
-5.9008166412
 11
12.0596185704
 21
-5.8314828781
  0
LINE
  5
463
100
AcDbEntity
  8
CURVE
100
AcDbLine
 62
253
  6
CONTINUOUS
 10
12.2143804804
 20
-5.8314828781
 11
12.2143804804
 21
-5.9008166412
  0
LINE
  5
464
100
AcDbEntity
  8
CURVE
100
AcDbLine
 62
253
  6
CONTINUOUS
 10
12.2143804804
 20
-11.3088164924
 11
12.2143804804
 21
-11.3781495613
  0
LINE
  5
465
100
AcDbEntity
  8
CURVE
100
AcDbLine
 62
253
  6
CONTINUOUS
 10
12.2762852435
 20
-6.9408161453
 11
12.2762852435
 21
-7.4608162445
  0
LINE
  5
466
100
AcDbEntity
  8
CURVE
100
AcDbLine
 62
253
  6
CONTINUOUS
 10
12.2762852435
 20
-9.020816542
 11
12.2762852435
 21
-9.6448162445
  0
LINE
  5
467
100
AcDbEntity
  8
CURVE
100
AcDbLine
 62
253
  6
CONTINUOUS
 10
12.0596185704
 20
-5.8314828781
 11
12.1215233383
 21
-5.7968163436
  0
LINE
  5
468
100
AcDbEntity
  8
CURVE
100
AcDbLine
 62
253
  6
CONTINUOUS
 10
12.2143804804
 20
-5.9008166412
 11
12.1524757174
 21
-5.9354831756
  0
LINE
  5
469
100
AcDbEntity
  8
CURVE
100
AcDbLine
 62
253
  6
CONTINUOUS
 10
-4.6624199679
 20
11.6147194482
 11
-2.236055231
 21
11.6147194482
  0
LINE
  5
46A
100
AcDbEntity
  8
CURVE
100
AcDbLine
 62
253
  6
CONTINUOUS
 10
1.1747343306
 20
11.730901841
 11
0.2248790202
 21
11.730901841
  0
LINE
  5
46B
100
AcDbEntity
  8
CURVE
100
AcDbLine
 62
253
  6
CONTINUOUS
 10
0.0891853559
 20
12.6763779128
 11
-0.7249762902
 21
12.6763779128
  0
LINE
  5
46C
100
AcDbEntity
  8
CURVE
100
AcDbLine
 62
253
  6
CONTINUOUS
 10
-2.8377589043
 20
13.0687034482
 11
-5.1351729298
 21
13.0687034482
  0
LINE
  5
46D
100
AcDbEntity
  8
CURVE
100
AcDbLine
 62
253
  6
CONTINUOUS
 10
-3.3322932299
 20
14.9164404482
 11
-4.5810177694
 21
15.3463984482
  0
LINE
  5
46E
100
AcDbEntity
  8
CURVE
100
AcDbLine
 62
253
  6
CONTINUOUS
 10
-2.236055231
 20
14.5388384482
 11
-2.8505070202
 21
14.7557954482
  0
LINE
  5
46F
100
AcDbEntity
  8
CURVE
100
AcDbLine
 62
253
  6
CONTINUOUS
 10
-5.1351729298
 20
14.9928334482
 11
-2.236055231
 21
13.9443894482
  0
LINE
  5
470
100
AcDbEntity
  8
CURVE
100
AcDbLine
 62
253
  6
CONTINUOUS
 10
-0.1822018594
 20
14.1692350913
 11
-0.4535890748
 21
14.3185207344
  0
LINE
  5
471
100
AcDbEntity
  8
CURVE
100
AcDbLine
 62
253
  6
CONTINUOUS
 10
-0.4535890748
 20
15.9109015918
 11
-0.7249762902
 21
16.1099494482
  0
LINE
  5
472
100
AcDbEntity
  8
CURVE
100
AcDbLine
 62
253
  6
CONTINUOUS
 10
0.3605726279
 20
15.811378162
 11
0.0891853559
 21
16.1099494482
  0
LINE
  5
473
100
AcDbEntity
  8
CURVE
100
AcDbLine
 62
253
  6
CONTINUOUS
 10
0.903347087
 20
16.856378162
 11
1.1747343306
 21
16.5578063775
  0
LINE
  5
474
100
AcDbEntity
  8
RACCORDO
100
AcDbLine
 62
253
  6
CONTINUOUS
 10
13.7760898438
 20
8.8899494482
 11
13.7760898438
 21
7.5899494482
  0
LINE
  5
475
100
AcDbEntity
  8
RACCORDO
100
AcDbLine
 62
7
  6
CONTINUOUS
 10
14.2760898438
 20
8.3899457546
 11
14.2760898438
 21
8.0899531417
  0
LINE
  5
476
100
AcDbEntity
  8
CURVE
100
AcDbLine
 62
253
  6
CONTINUOUS
 10
10.9762852435
 20
-6.9408161453
 11
11.1619995182
 21
-6.7328162445
  0
LINE
  5
477
100
AcDbEntity
  8
CURVE
100
AcDbLine
 62
253
  6
CONTINUOUS
 10
10.9762852435
 20
-8.6048160461
 11
12.2762852435
 21
-7.8768160461
  0
LINE
  5
478
100
AcDbEntity
  8
CURVE
100
AcDbLine
 62
253
  6
CONTINUOUS
 10
-0.1239101562
 20
-15.2600505518
 11
0.6189469811
 21
-14.8886219638
  0
LINE
  5
479
100
AcDbEntity
  8
CURVE
100
AcDbLine
 62
253
  6
CONTINUOUS
 10
-2.2319141562
 20
-14.3410635518
 11
-5.1315671562
 21
-15.2603105518
  0
LINE
  5
47A
100
AcDbEntity
  8
CURVE
100
AcDbLine
 62
253
  6
CONTINUOUS
 10
-0.1239101562
 20
-13.7743361997
 11
1.1760898438
 21
-13.4029076504
  0
LINE
  5
47B
100
AcDbEntity
  8
CURVE
100
AcDbLine
 62
253
  6
CONTINUOUS
 10
0.903347087
 20
13.5720922697
 11
0.3605726279
 21
13.5720922697
  0
LINE
  5
47C
100
AcDbEntity
  8
CURVE
100
AcDbLine
 62
253
  6
CONTINUOUS
 10
-5.1351729298
 20
13.6511474482
 11
-2.236055231
 21
13.6511474482
  0
LINE
  5
47D
100
AcDbEntity
  8
CURVE
100
AcDbLine
 62
253
  6
CONTINUOUS
 10
0.6319598433
 20
14.1692350913
 11
-0.1822018594
 21
14.1692350913
  0
LINE
  5
47E
100
AcDbEntity
  8
CURVE
100
AcDbLine
 62
253
  6
CONTINUOUS
 10
-0.1822018594
 20
15.2142350913
 11
0.6319598433
 21
15.2142350913
  0
LINE
  5
47F
100
AcDbEntity
  8
CURVE
100
AcDbLine
 62
253
  6
CONTINUOUS
 10
0.6319598433
 20
15.2142350913
 11
0.903347087
 21
15.0649494482
  0
LINE
  5
480
100
AcDbEntity
  8
CURVE
100
AcDbLine
 62
253
  6
CONTINUOUS
 10
10.9762852435
 20
-10.2688162941
 11
11.1619995182
 21
-10.0608163932
  0
LINE
  5
481
100
AcDbEntity
  8
RACCORDO
100
AcDbLine
 62
7
  6
CONTINUOUS
 10
-10.2239101562
 20
-22.3827002826
 11
-11.0989101562
 21
-22.8878817682
  0
LINE
  5
482
100
AcDbEntity
  8
RACCORDO
100
AcDbLine
 62
253
  6
CONTINUOUS
 10
-9.9753645891
 20
-22.5270378499
 11
-10.9753645891
 21
-23.1043881191
  0
LINE
  5
483
100
AcDbEntity
  8
CURVE
100
AcDbLine
 62
253
  6
CONTINUOUS
 10
12.0596185704
 20
-11.3088164924
 11
12.1215233383
 21
-11.2741496109
  0
LINE
  5
484
100
AcDbEntity
  8
CURVE
100
AcDbLine
 62
253
  6
CONTINUOUS
 10
12.2143804804
 20
-11.3781495613
 11
12.1524757174
 21
-11.4128164428
  0
LINE
  5
485
100
AcDbEntity
  8
CURVE
100
AcDbLine
 62
253
  6
CONTINUOUS
 10
0.903347087
 20
15.811378162
 11
0.3605726279
 21
15.811378162
  0
LINE
  5
486
100
AcDbEntity
  8
CURVE
100
AcDbLine
 62
253
  6
CONTINUOUS
 10
-0.0465081951
 20
15.9109015918
 11
-0.4535890748
 21
15.9109015918
  0
LINE
  5
487
100
AcDbEntity
  8
CURVE
100
AcDbLine
 62
253
  6
CONTINUOUS
 10
-0.4535890748
 20
16.7568542338
 11
-0.0465081951
 21
16.7568542338
  0
LINE
  5
488
100
AcDbEntity
  8
CURVE
100
AcDbLine
 62
253
  6
CONTINUOUS
 10
0.3605726279
 20
16.856378162
 11
0.903347087
 21
16.856378162
  0
LINE
  5
489
100
AcDbEntity
  8
RACCORDO
100
AcDbLine
 62
7
  6
CONTINUOUS
 10
-11.0989101562
 20
24.3677806645
 11
-10.2239101562
 21
23.862599179
  0
LINE
  5
48A
100
AcDbEntity
  8
RACCORDO
100
AcDbLine
 62
253
  6
CONTINUOUS
 10
-10.9753645891
 20
24.5842870155
 11
-9.9753645891
 21
24.0069367463
  0
LINE
  5
48B
100
AcDbEntity
  8
RACCORDO
100
AcDbLine
 62
253
  6
CONTINUOUS
 10
16.7935422502
 20
19.2753482013
 11
16.7935422502
 21
11.2951027683
  0
LINE
  5
48C
100
AcDbEntity
  8
IMPORT
100
AcDbLine
 62
253
  6
CONTINUOUS
 10
16.7935422502
 20
19.2753482013
 11
16.7935422502
 21
11.2951027683
  0
LINE
  5
48D
100
AcDbEntity
  8
RACCORDO
100
AcDbLine
 62
253
  6
CONTINUOUS
 10
16.7935422502
 20
5.384796128
 11
16.7935422502
 21
-17.7954493049
  0
LINE
  5
48E
100
AcDbEntity
  8
IMPORT
100
AcDbLine
 62
253
  6
CONTINUOUS
 10
16.7935422502
 20
5.384796128
 11
16.7935422502
 21
-17.7954493049
  0
LINE
  5
48F
100
AcDbEntity
  8
RACCORDO
100
AcDbLine
 62
7
  6
CONTINUOUS
 10
17.7760898438
 20
19.0121480294
 11
17.7760898438
 21
11.3810645441
  0
LINE
  5
490
100
AcDbEntity
  8
IMPORT
100
AcDbLine
 62
7
  6
CONTINUOUS
 10
17.7760898438
 20
19.0121480294
 11
17.7760898438
 21
11.3810645441
  0
LINE
  5
491
100
AcDbEntity
  8
RACCORDO
100
AcDbLine
 62
7
  6
CONTINUOUS
 10
17.7760898438
 20
5.2988343522
 11
17.7760898438
 21
-17.532249133
  0
LINE
  5
492
100
AcDbEntity
  8
IMPORT
100
AcDbLine
 62
7
  6
CONTINUOUS
 10
17.7760898438
 20
5.2988343522
 11
17.7760898438
 21
-17.532249133
  0
LINE
  5
493
100
AcDbEntity
  8
CURVE
100
AcDbLine
 62
253
  6
CONTINUOUS
 10
10.9762852435
 20
-14.7408163312
 11
11.1619995182
 21
-14.5328163436
  0
LINE
  5
494
100
AcDbEntity
  8
CURVE
100
AcDbLine
 62
253
  6
CONTINUOUS
 10
10.9762852435
 20
-13.7008163932
 11
12.2762852435
 21
-13.284816418
  0
LINE
  5
495
100
AcDbEntity
  8
RACCORDO
100
AcDbLine
 62
253
  6
CONTINUOUS
 10
17.7760898438
 20
18.8615223234
 11
-7.7239101562
 21
18.8615223234
  0
LINE
  5
496
100
AcDbEntity
  8
IMPORT
100
AcDbLine
 62
253
  6
CONTINUOUS
 10
17.7760898438
 20
18.8615223234
 11
-7.7239101562
 21
18.8615223234
  0
LINE
  5
497
100
AcDbEntity
  8
RACCORDO
100
AcDbLine
 62
253
  6
CONTINUOUS
 10
2.2760898438
 20
20.152309938
 11
-7.7239101562
 21
20.2757358858
  0
LINE
  5
498
100
AcDbEntity
  8
IMPORT
100
AcDbLine
 62
253
  6
CONTINUOUS
 10
2.2760898438
 20
20.152309938
 11
-7.7239101562
 21
20.2757358858
  0
LINE
  5
499
100
AcDbEntity
  8
RACCORDO
100
AcDbLine
 62
7
  6
CONTINUOUS
 10
2.2760898438
 20
20.2653987989
 11
16.7935422502
 21
20.0119957245
  0
LINE
  5
49A
100
AcDbEntity
  8
IMPORT
100
AcDbLine
 62
7
  6
CONTINUOUS
 10
2.2760898438
 20
20.2653987989
 11
16.7935422502
 21
20.0119957245
  0
LINE
  5
49B
100
AcDbEntity
  8
DRAFT
100
AcDbLine
 62
7
  6
CONTINUOUS
 10
2.2760898438
 20
20.8653987989
 11
-7.7239101562
 21
21.0399494482
  0
LINE
  5
49C
100
AcDbEntity
  8
IMPORT
100
AcDbLine
 62
7
  6
CONTINUOUS
 10
2.2760898438
 20
20.8653987989
 11
-7.7239101562
 21
21.0399494482
  0
LINE
  5
49D
100
AcDbEntity
  8
RACCORDO
100
AcDbLine
 62
253
  6
CONTINUOUS
 10
-17.3100653259
 20
21.2818553047
 11
-17.8009161204
 21
21.3024177726
  0
LINE
  5
49E
100
AcDbEntity
  8
RACCORDO
100
AcDbLine
 62
7
  6
CONTINUOUS
 10
-8.723384196
 20
23.1396852789
 11
-8.7364655168
 21
23.1389944872
  0
LINE
  5
49F
100
AcDbEntity
  8
RACCORDO
100
AcDbLine
 62
253
  6
CONTINUOUS
 10
-8.5789755133
 20
22.6473162989
 11
-16.3632472702
 21
22.2393599028
  0
LINE
  5
4A0
100
AcDbEntity
  8
RACCORDO
100
AcDbLine
 62
7
  6
CONTINUOUS
 10
-16.3806890451
 20
22.7386746701
 11
-10.0994532982
 21
23.0678602868
  0
LINE
  5
4A1
100
AcDbEntity
  8
RACCORDO
100
AcDbLine
 62
7
  6
CONTINUOUS
 10
1.784816047
 20
22.3059248814
 11
-7.7239101562
 21
22.1399494482
  0
LINE
  5
4A2
100
AcDbEntity
  8
RACCORDO
100
AcDbLine
 62
7
  6
CONTINUOUS
 10
2.2760898438
 20
21.7272181261
 11
-7.7239101562
 21
21.6399494482
  0
LINE
  5
4A3
100
AcDbEntity
  8
RACCORDO
100
AcDbLine
 62
253
  6
CONTINUOUS
 10
-7.7239101562
 20
22.6398542566
 11
-8.5789755133
 21
22.6473162989
  0
LINE
  5
4A4
100
AcDbEntity
  8
RACCORDO
100
AcDbLine
 62
7
  6
CONTINUOUS
 10
1.2848163792
 20
23.0613314827
 11
-8.7239101562
 21
23.1483662839
  0
LINE
  5
4A5
100
AcDbEntity
  8
DRAFT
100
AcDbLine
 62
7
  6
CONTINUOUS
 10
1.6784938481
 20
22.9758298758
 11
2.2760898438
 21
22.9653987989
  0
LINE
  5
4A6
100
AcDbEntity
  8
IMPORT
100
AcDbLine
 62
7
  6
CONTINUOUS
 10
1.6784938481
 20
22.9758298758
 11
2.2760898438
 21
22.9653987989
  0
LINE
  5
4A7
100
AcDbEntity
  8
RACCORDO
100
AcDbLine
 62
253
  6
CONTINUOUS
 10
-8.7239101562
 20
24.989953679
 11
-10.9753645891
 21
24.9768551002
  0
LINE
  5
4A8
100
AcDbEntity
  8
RACCORDO
100
AcDbLine
 62
7
  6
CONTINUOUS
 10
-8.7239101562
 20
25.2399494482
 11
-10.9753645891
 21
25.2268508695
  0
LINE
  5
4A9
100
AcDbEntity
  8
RACCORDO
100
AcDbLine
 62
253
  6
CONTINUOUS
 10
-11.2239101562
 20
24.5842870155
 11
-10.9753645891
 21
24.5842870155
  0
LINE
  5
4AA
100
AcDbEntity
  8
RACCORDO
100
AcDbLine
 62
253
  6
CONTINUOUS
 10
-7.7239101562
 20
24.5842870155
 11
-7.9724557234
 21
24.5842870155
  0
LINE
  5
4AB
100
AcDbEntity
  8
RACCORDO
100
AcDbLine
 62
253
  6
CONTINUOUS
 10
-11.2239101562
 20
24.9768551002
 11
-10.9753645891
 21
24.9768551002
  0
LINE
  5
4AC
100
AcDbEntity
  8
RACCORDO
100
AcDbLine
 62
253
  6
CONTINUOUS
 10
-7.7239101562
 20
24.985581845
 11
-7.9724557234
 21
24.985581845
  0
LINE
  5
4AD
100
AcDbEntity
  8
ASSI
100
AcDbLine
 62
7
  6
CONTINUOUS
 10
-7.7242019419
 20
24.5341333159
 11
-1.2210012906
 21
24.4962988013
  0
LINE
  5
4AE
100
AcDbEntity
  8
RACCORDO
100
AcDbLine
 62
253
  6
CONTINUOUS
 10
-7.9724557234
 20
24.985581845
 11
-8.7239101562
 21
24.989953679
  0
LINE
  5
4AF
100
AcDbEntity
  8
RACCORDO
100
AcDbLine
 62
7
  6
CONTINUOUS
 10
-7.9724557234
 20
25.2355776142
 11
-8.7239101562
 21
25.2399494482
  0
ARC
  5
4B0
100
AcDbEntity
  8
RACCORDO
100
AcDbCircle
 62
7
  6
CONTINUOUS
 10
38.3077774299
 20
-21.165424919
 40
0.5021193668
100
AcDbArc
 50
250.5752524622
 51
268.1396809226
  0
ARC
  5
4B1
100
AcDbEntity
  8
RACCORDO
100
AcDbCircle
 62
7
  6
CONTINUOUS
 10
38.3077540638
 20
-21.1668930816
 40
0.5007385323
100
AcDbArc
 50
241.5136537381
 51
243.4324545369
  0
ARC
  5
4B2
100
AcDbEntity
  8
RACCORDO
100
AcDbCircle
 62
7
  6
CONTINUOUS
 10
38.3076001729
 20
-21.1672320956
 40
0.5003680358
100
AcDbArc
 50
180.0212189558
 51
241.5106269631
  0
ARC
  5
4B3
100
AcDbEntity
  8
RACCORDO
100
AcDbCircle
 62
253
  6
CONTINUOUS
 10
38.4432422248
 20
-20.758586446
 40
0.5001648566
100
AcDbArc
 50
180.1001898927
 51
269.9757012396
  0
ARC
  5
4B4
100
AcDbEntity
  8
RACCORDO
100
AcDbCircle
 62
7
  6
CONTINUOUS
 10
38.3068101572
 20
-21.1688814295
 40
0.498537976
100
AcDbArc
 50
243.4272763291
 51
250.5479787792
  0
ARC
  5
4B5
100
AcDbEntity
  8
RACCORDO
100
AcDbCircle
 62
7
  6
CONTINUOUS
 10
38.5554106219
 20
-23.4969459899
 40
0.2500059834
100
AcDbArc
 50
180.0023408215
 51
269.9976591785
  0
ARC
  5
4B6
100
AcDbEntity
  8
RACCORDO
100
AcDbCircle
 62
7
  6
CONTINUOUS
 10
40.4292014981
 20
-23.4969459899
 40
0.2500059834
100
AcDbArc
 50
270.0023408115
 51
359.9976591885
  0
ARC
  5
4B7
100
AcDbEntity
  8
RACCORDO
100
AcDbCircle
 62
7
  6
CONTINUOUS
 10
38.5422934646
 20
-23.5101361169
 40
0.2499144351
100
AcDbArc
 50
209.9955094476
 51
270.0019176864
  0
ARC
  5
4B8
100
AcDbEntity
  8
RACCORDO
100
AcDbCircle
 62
7
  6
CONTINUOUS
 10
40.442391625
 20
-23.5100631472
 40
0.2499144351
100
AcDbArc
 50
299.9955094476
 51
0.0019176864
  0
ARC
  5
4B9
100
AcDbEntity
  8
RACCORDO
100
AcDbCircle
 62
7
  6
CONTINUOUS
 10
38.5408650734
 20
-23.50994664
 40
0.248559037
100
AcDbArc
 50
180.0249281439
 51
187.5678093652
  0
ARC
  5
4BA
100
AcDbEntity
  8
RACCORDO
100
AcDbCircle
 62
7
  6
CONTINUOUS
 10
40.4422021481
 20
-23.5114915384
 40
0.248559037
100
AcDbArc
 50
270.0249281439
 51
277.5678093652
  0
ARC
  5
4BB
100
AcDbEntity
  8
CURVE
100
AcDbCircle
 62
253
  6
CONTINUOUS
 10
43.19230606
 20
-16.2600505518
 40
6.0
100
AcDbArc
 50
7.6622556608
 51
82.3377443392
  0
ARC
  5
4BC
100
AcDbEntity
  8
CURVE
100
AcDbCircle
 62
253
  6
CONTINUOUS
 10
43.19230606
 20
-16.2600505518
 40
4.0
100
AcDbArc
 50
5.7391704773
 51
84.2608295227
  0
ARC
  5
4BD
100
AcDbEntity
  8
CURVE
100
AcDbCircle
 62
253
  6
CONTINUOUS
 10
43.19230606
 20
-16.2600505518
 40
2.0
100
AcDbArc
 50
0.0
 51
90.0
  0
CIRCLE
  5
4BE
100
AcDbEntity
  8
CURVE
100
AcDbCircle
 62
253
  6
CONTINUOUS
 10
43.19230606
 20
-16.2600505518
 40
0.4
  0
ARC
  5
4BF
100
AcDbEntity
  8
RACCORDO
100
AcDbCircle
 62
7
  6
CONTINUOUS
 10
57.4554106219
 20
-23.4969459899
 40
0.2500059834
100
AcDbArc
 50
180.0023408115
 51
269.9976591885
  0
ARC
  5
4C0
100
AcDbEntity
  8
RACCORDO
100
AcDbCircle
 62
7
  6
CONTINUOUS
 10
59.3292014981
 20
-23.4969459899
 40
0.2500059834
100
AcDbArc
 50
270.0023408115
 51
359.9976591885
  0
ARC
  5
4C1
100
AcDbEntity
  8
RACCORDO
100
AcDbCircle
 62
7
  6
CONTINUOUS
 10
57.4422934646
 20
-23.5101361169
 40
0.2499144351
100
AcDbArc
 50
209.9955094476
 51
270.0019176864
  0
ARC
  5
4C2
100
AcDbEntity
  8
RACCORDO
100
AcDbCircle
 62
7
  6
CONTINUOUS
 10
59.342391625
 20
-23.5100631472
 40
0.2499144351
100
AcDbArc
 50
299.9955094476
 51
0.0019176864
  0
ARC
  5
4C3
100
AcDbEntity
  8
RACCORDO
100
AcDbCircle
 62
7
  6
CONTINUOUS
 10
57.4408650734
 20
-23.50994664
 40
0.248559037
100
AcDbArc
 50
180.0249281439
 51
187.5678093652
  0
ARC
  5
4C4
100
AcDbEntity
  8
RACCORDO
100
AcDbCircle
 62
7
  6
CONTINUOUS
 10
59.3422021481
 20
-23.5114915384
 40
0.248559037
100
AcDbArc
 50
270.0249281439
 51
277.5678093652
  0
ARC
  5
4C5
100
AcDbEntity
  8
RACCORDO
100
AcDbCircle
 62
7
  6
CONTINUOUS
 10
38.3077774299
 20
22.6453238153
 40
0.5021193668
100
AcDbArc
 50
91.8603190774
 51
109.4247475378
  0
ARC
  5
4C6
100
AcDbEntity
  8
RACCORDO
100
AcDbCircle
 62
7
  6
CONTINUOUS
 10
38.3077540638
 20
22.6467919779
 40
0.5007385323
100
AcDbArc
 50
116.5675454631
 51
118.4863462619
  0
ARC
  5
4C7
100
AcDbEntity
  8
RACCORDO
100
AcDbCircle
 62
7
  6
CONTINUOUS
 10
38.3076002563
 20
22.6471311301
 40
0.5003680358
100
AcDbArc
 50
118.4893889799
 51
179.9787968637
  0
ARC
  5
4C8
100
AcDbEntity
  8
RACCORDO
100
AcDbCircle
 62
253
  6
CONTINUOUS
 10
38.4432422257
 20
22.2384853419
 40
0.500164857
100
AcDbArc
 50
90.0242988645
 51
179.8998100559
  0
ARC
  5
4C9
100
AcDbEntity
  8
RACCORDO
100
AcDbCircle
 62
7
  6
CONTINUOUS
 10
38.3068101572
 20
22.6487803258
 40
0.498537976
100
AcDbArc
 50
109.4520212208
 51
116.572723671
  0
ARC
  5
4CA
100
AcDbEntity
  8
RACCORDO
100
AcDbCircle
 62
7
  6
CONTINUOUS
 10
38.5554106219
 20
24.9768448862
 40
0.2500059834
100
AcDbArc
 50
90.0023408215
 51
179.9976591785
  0
ARC
  5
4CB
100
AcDbEntity
  8
RACCORDO
100
AcDbCircle
 62
7
  6
CONTINUOUS
 10
40.4292014981
 20
24.9768448863
 40
0.2500059834
100
AcDbArc
 50
0.0023408115
 51
89.9976591885
  0
ARC
  5
4CC
100
AcDbEntity
  8
RACCORDO
100
AcDbCircle
 62
7
  6
CONTINUOUS
 10
38.5422204949
 20
24.9899620436
 40
0.2499144351
100
AcDbArc
 50
119.9955094476
 51
180.0019176864
  0
ARC
  5
4CD
100
AcDbEntity
  8
RACCORDO
100
AcDbCircle
 62
7
  6
CONTINUOUS
 10
40.4423186554
 20
24.9900350132
 40
0.2499144351
100
AcDbArc
 50
29.9955094476
 51
90.0019176864
  0
ARC
  5
4CE
100
AcDbEntity
  8
RACCORDO
100
AcDbCircle
 62
7
  6
CONTINUOUS
 10
38.5424099718
 20
24.9913904347
 40
0.248559037
100
AcDbArc
 50
90.0249281439
 51
97.5678093652
  0
ARC
  5
4CF
100
AcDbEntity
  8
RACCORDO
100
AcDbCircle
 62
7
  6
CONTINUOUS
 10
40.4437470465
 20
24.9898455363
 40
0.248559037
100
AcDbArc
 50
0.0249281439
 51
7.5678093652
  0
ARC
  5
4D0
100
AcDbEntity
  8
RACCORDO
100
AcDbCircle
 62
7
  6
CONTINUOUS
 10
59.329201498
 20
24.9768448862
 40
0.2500059834
100
AcDbArc
 50
0.0023408215
 51
89.9976591785
  0
ARC
  5
4D1
100
AcDbEntity
  8
RACCORDO
100
AcDbCircle
 62
7
  6
CONTINUOUS
 10
57.4554106219
 20
24.9768448863
 40
0.2500059834
100
AcDbArc
 50
90.0023408115
 51
179.9976591885
  0
ARC
  5
4D2
100
AcDbEntity
  8
RACCORDO
100
AcDbCircle
 62
7
  6
CONTINUOUS
 10
59.3423186554
 20
24.9900350132
 40
0.2499144351
100
AcDbArc
 50
29.9955094476
 51
90.0019176864
  0
ARC
  5
4D3
100
AcDbEntity
  8
RACCORDO
100
AcDbCircle
 62
7
  6
CONTINUOUS
 10
57.4422204949
 20
24.9899620436
 40
0.2499144351
100
AcDbArc
 50
119.9955094476
 51
180.0019176864
  0
ARC
  5
4D4
100
AcDbEntity
  8
RACCORDO
100
AcDbCircle
 62
7
  6
CONTINUOUS
 10
59.3437470465
 20
24.9898455363
 40
0.248559037
100
AcDbArc
 50
0.0249281439
 51
7.5678093652
  0
ARC
  5
4D5
100
AcDbEntity
  8
RACCORDO
100
AcDbCircle
 62
7
  6
CONTINUOUS
 10
57.4424099718
 20
24.9913904347
 40
0.248559037
100
AcDbArc
 50
90.0249281439
 51
97.5678093652
  0
ARC
  5
4D6
100
AcDbEntity
  8
RACCORDO
100
AcDbCircle
 62
7
  6
CONTINUOUS
 10
61.0554106219
 20
-23.4969459899
 40
0.2500059834
100
AcDbArc
 50
180.0023408215
 51
269.9976591785
  0
ARC
  5
4D7
100
AcDbEntity
  8
RACCORDO
100
AcDbCircle
 62
7
  6
CONTINUOUS
 10
62.9292014981
 20
-23.4969459899
 40
0.2500059834
100
AcDbArc
 50
270.0023408115
 51
359.9976591885
  0
ARC
  5
4D8
100
AcDbEntity
  8
RACCORDO
100
AcDbCircle
 62
7
  6
CONTINUOUS
 10
61.0422934646
 20
-23.5101361169
 40
0.2499144351
100
AcDbArc
 50
209.9955094476
 51
270.0019176864
  0
ARC
  5
4D9
100
AcDbEntity
  8
RACCORDO
100
AcDbCircle
 62
7
  6
CONTINUOUS
 10
62.942391625
 20
-23.5100631472
 40
0.2499144351
100
AcDbArc
 50
299.9955094476
 51
0.0019176864
  0
ARC
  5
4DA
100
AcDbEntity
  8
RACCORDO
100
AcDbCircle
 62
7
  6
CONTINUOUS
 10
61.0408650734
 20
-23.50994664
 40
0.248559037
100
AcDbArc
 50
180.0249281439
 51
187.5678093652
  0
ARC
  5
4DB
100
AcDbEntity
  8
RACCORDO
100
AcDbCircle
 62
7
  6
CONTINUOUS
 10
62.9422021481
 20
-23.5114915384
 40
0.248559037
100
AcDbArc
 50
270.0249281439
 51
277.5678093652
  0
CIRCLE
  5
4DC
100
AcDbEntity
  8
0
100
AcDbCircle
 62
7
  6
CONTINUOUS
 10
67.1923060489
 20
-13.2600505518
 40
2.5000000119
  0
CIRCLE
  5
4DD
100
AcDbEntity
  8
0
100
AcDbCircle
 62
7
  6
CONTINUOUS
 10
67.19230606
 20
-13.2600505518
 40
1.25
  0
CIRCLE
  5
4DE
100
AcDbEntity
  8
RACCORDO
100
AcDbCircle
 62
7
  6
CONTINUOUS
 10
67.19230606
 20
-13.2600505518
 40
1.225
  0
CIRCLE
  5
4DF
100
AcDbEntity
  8
RACCORDO
100
AcDbCircle
 62
253
  6
CONTINUOUS
 10
67.19230606
 20
-13.2600505518
 40
1.0459181267
  0
ARC
  5
4E0
100
AcDbEntity
  8
RACCORDO
100
AcDbCircle
 62
7
  6
CONTINUOUS
 10
82.07683469
 20
-21.165424919
 40
0.5021193668
100
AcDbArc
 50
271.8603190774
 51
289.4247475378
  0
ARC
  5
4E1
100
AcDbEntity
  8
RACCORDO
100
AcDbCircle
 62
7
  6
CONTINUOUS
 10
82.0768580561
 20
-21.1668930816
 40
0.5007385323
100
AcDbArc
 50
296.5675454631
 51
298.4863462619
  0
ARC
  5
4E2
100
AcDbEntity
  8
RACCORDO
100
AcDbCircle
 62
7
  6
CONTINUOUS
 10
82.0770119471
 20
-21.1672320956
 40
0.5003680358
100
AcDbArc
 50
298.4893730369
 51
359.9787810442
  0
ARC
  5
4E3
100
AcDbEntity
  8
RACCORDO
100
AcDbCircle
 62
253
  6
CONTINUOUS
 10
81.9413698978
 20
-20.758586442
 40
0.5001648571
100
AcDbArc
 50
270.0242984527
 51
359.899809643
  0
ARC
  5
4E4
100
AcDbEntity
  8
RACCORDO
100
AcDbCircle
 62
7
  6
CONTINUOUS
 10
82.0778019627
 20
-21.1688814295
 40
0.498537976
100
AcDbArc
 50
289.4520212207
 51
296.572723671
  0
ARC
  5
4E5
100
AcDbEntity
  8
RACCORDO
100
AcDbCircle
 62
7
  6
CONTINUOUS
 10
79.9554106219
 20
-23.4969459899
 40
0.2500059834
100
AcDbArc
 50
180.0023408115
 51
269.9976591885
  0
ARC
  5
4E6
100
AcDbEntity
  8
RACCORDO
100
AcDbCircle
 62
7
  6
CONTINUOUS
 10
81.8292014981
 20
-23.4969459899
 40
0.2500059834
100
AcDbArc
 50
270.0023408115
 51
359.9976591885
  0
ARC
  5
4E7
100
AcDbEntity
  8
RACCORDO
100
AcDbCircle
 62
7
  6
CONTINUOUS
 10
79.9422934646
 20
-23.5101361169
 40
0.2499144351
100
AcDbArc
 50
209.9955094476
 51
270.0019176864
  0
ARC
  5
4E8
100
AcDbEntity
  8
RACCORDO
100
AcDbCircle
 62
7
  6
CONTINUOUS
 10
81.842391625
 20
-23.5100631472
 40
0.2499144351
100
AcDbArc
 50
299.9955094477
 51
0.0019176864
  0
ARC
  5
4E9
100
AcDbEntity
  8
RACCORDO
100
AcDbCircle
 62
7
  6
CONTINUOUS
 10
79.9408650734
 20
-23.50994664
 40
0.248559037
100
AcDbArc
 50
180.024928144
 51
187.5678093651
  0
ARC
  5
4EA
100
AcDbEntity
  8
RACCORDO
100
AcDbCircle
 62
7
  6
CONTINUOUS
 10
81.8422021481
 20
-23.5114915384
 40
0.248559037
100
AcDbArc
 50
270.0249281439
 51
277.5678093652
  0
CIRCLE
  5
4EB
100
AcDbEntity
  8
0
100
AcDbCircle
 62
7
  6
CONTINUOUS
 10
74.1923060492
 20
-13.2600505518
 40
2.5000000116
  0
CIRCLE
  5
4EC
100
AcDbEntity
  8
0
100
AcDbCircle
 62
7
  6
CONTINUOUS
 10
74.19230606
 20
-13.2600505518
 40
1.25
  0
ARC
  5
4ED
100
AcDbEntity
  8
RACCORDO
100
AcDbCircle
 62
7
  6
CONTINUOUS
 10
61.0554106219
 20
24.9768448862
 40
0.2500059834
100
AcDbArc
 50
90.0023408215
 51
179.9976591785
  0
ARC
  5
4EE
100
AcDbEntity
  8
RACCORDO
100
AcDbCircle
 62
7
  6
CONTINUOUS
 10
62.9292014981
 20
24.9768448863
 40
0.2500059834
100
AcDbArc
 50
0.0023408115
 51
89.9976591885
  0
ARC
  5
4EF
100
AcDbEntity
  8
RACCORDO
100
AcDbCircle
 62
7
  6
CONTINUOUS
 10
61.0422204949
 20
24.9899620436
 40
0.2499144351
100
AcDbArc
 50
119.9955094476
 51
180.0019176864
  0
ARC
  5
4F0
100
AcDbEntity
  8
RACCORDO
100
AcDbCircle
 62
7
  6
CONTINUOUS
 10
62.9423186554
 20
24.9900350132
 40
0.2499144351
100
AcDbArc
 50
29.9955094476
 51
90.0019176864
  0
ARC
  5
4F1
100
AcDbEntity
  8
RACCORDO
100
AcDbCircle
 62
7
  6
CONTINUOUS
 10
61.0424099718
 20
24.9913904347
 40
0.248559037
100
AcDbArc
 50
90.0249281439
 51
97.5678093652
  0
ARC
  5
4F2
100
AcDbEntity
  8
RACCORDO
100
AcDbCircle
 62
7
  6
CONTINUOUS
 10
62.9437470465
 20
24.9898455363
 40
0.248559037
100
AcDbArc
 50
0.0249281439
 51
7.5678093652
  0
ARC
  5
4F3
100
AcDbEntity
  8
RACCORDO
100
AcDbCircle
 62
7
  6
CONTINUOUS
 10
82.07683469
 20
22.6453238153
 40
0.5021193668
100
AcDbArc
 50
70.5752524622
 51
88.1396809226
  0
ARC
  5
4F4
100
AcDbEntity
  8
RACCORDO
100
AcDbCircle
 62
7
  6
CONTINUOUS
 10
82.0768580561
 20
22.6467919779
 40
0.5007385323
100
AcDbArc
 50
61.5136537383
 51
63.4324545369
  0
ARC
  5
4F5
100
AcDbEntity
  8
RACCORDO
100
AcDbCircle
 62
7
  6
CONTINUOUS
 10
82.0770118636
 20
22.6471311301
 40
0.5003680358
100
AcDbArc
 50
0.0212031363
 51
61.5106110201
  0
ARC
  5
4F6
100
AcDbEntity
  8
RACCORDO
100
AcDbCircle
 62
253
  6
CONTINUOUS
 10
81.9413698968
 20
22.2384853369
 40
0.5001648585
100
AcDbArc
 50
0.1001905154
 51
89.9757014278
  0
ARC
  5
4F7
100
AcDbEntity
  8
RACCORDO
100
AcDbCircle
 62
7
  6
CONTINUOUS
 10
82.0778019627
 20
22.6487803258
 40
0.498537976
100
AcDbArc
 50
63.427276329
 51
70.5479787792
  0
ARC
  5
4F8
100
AcDbEntity
  8
RACCORDO
100
AcDbCircle
 62
7
  6
CONTINUOUS
 10
81.829201498
 20
24.9768448862
 40
0.2500059834
100
AcDbArc
 50
0.0023408215
 51
89.9976591785
  0
ARC
  5
4F9
100
AcDbEntity
  8
RACCORDO
100
AcDbCircle
 62
7
  6
CONTINUOUS
 10
79.9554106219
 20
24.9768448863
 40
0.2500059834
100
AcDbArc
 50
90.0023408115
 51
179.9976591885
  0
ARC
  5
4FA
100
AcDbEntity
  8
RACCORDO
100
AcDbCircle
 62
7
  6
CONTINUOUS
 10
81.8423186554
 20
24.9900350132
 40
0.2499144351
100
AcDbArc
 50
29.9955094476
 51
90.0019176864
  0
ARC
  5
4FB
100
AcDbEntity
  8
RACCORDO
100
AcDbCircle
 62
7
  6
CONTINUOUS
 10
79.9422204949
 20
24.9899620436
 40
0.2499144351
100
AcDbArc
 50
119.9955094476
 51
180.0019176864
  0
ARC
  5
4FC
100
AcDbEntity
  8
RACCORDO
100
AcDbCircle
 62
7
  6
CONTINUOUS
 10
81.8437470465
 20
24.9898455363
 40
0.248559037
100
AcDbArc
 50
0.024928144
 51
7.5678093651
  0
ARC
  5
4FD
100
AcDbEntity
  8
RACCORDO
100
AcDbCircle
 62
7
  6
CONTINUOUS
 10
79.9424099718
 20
24.9913904347
 40
0.248559037
100
AcDbArc
 50
90.0249281439
 51
97.5678093652
  0
ARC
  5
4FE
100
AcDbEntity
  8
RACCORDO
100
AcDbCircle
 62
7
  6
CONTINUOUS
 10
-10.9739101562
 20
-23.4969562039
 40
0.25
100
AcDbArc
 50
180.0
 51
269.6666666667
  0
ARC
  5
4FF
100
AcDbEntity
  8
RACCORDO
100
AcDbCircle
 62
7
  6
CONTINUOUS
 10
-10.9739101562
 20
-23.1043881191
 40
0.25
100
AcDbArc
 50
120.0
 51
180.0
  0
ARC
  5
500
100
AcDbEntity
  8
RACCORDO
100
AcDbCircle
 62
7
  6
CONTINUOUS
 10
-7.9739101562
 20
-23.5056829486
 40
0.25
100
AcDbArc
 50
270.3333333333
 51
360.0
  0
ARC
  5
501
100
AcDbEntity
  8
RACCORDO
100
AcDbCircle
 62
7
  6
CONTINUOUS
 10
-7.9739101562
 20
-23.1043881191
 40
0.25
100
AcDbArc
 50
0.0
 51
60.0
  0
ARC
  5
502
100
AcDbEntity
  8
ASSI
100
AcDbCircle
 62
7
  6
CONTINUOUS
 10
-1.2239101562
 20
-22.5164083665
 40
0.5
100
AcDbArc
 50
270.3333333333
 51
360.0
  0
ARC
  5
503
100
AcDbEntity
  8
RACCORDO
100
AcDbCircle
 62
7
  6
CONTINUOUS
 10
-16.3021851108
 20
-19.7608314717
 40
1.5
100
AcDbArc
 50
182.3569499908
 51
267.0
  0
ARC
  5
504
100
AcDbEntity
  8
RACCORDO
100
AcDbCircle
 62
253
  6
CONTINUOUS
 10
-16.3109098852
 20
-19.7608300588
 40
1.0000014857
100
AcDbArc
 50
182.357027508
 51
266.9999224827
  0
ARC
  5
505
100
AcDbEntity
  8
RACCORDO
100
AcDbCircle
 62
7
  6
CONTINUOUS
 10
1.2760898438
 20
-20.5814706633
 40
1.0
100
AcDbArc
 50
270.5
 51
360.0
  0
ARC
  5
506
100
AcDbEntity
  8
RACCORDO
100
AcDbCircle
 62
7
  6
CONTINUOUS
 10
16.7760898438
 20
-17.532249133
 40
1.0
100
AcDbArc
 50
271.0
 51
360.0
  0
ARC
  5
507
100
AcDbEntity
  8
IMPORT
100
AcDbCircle
 62
7
  6
CONTINUOUS
 10
16.7760898438
 20
-17.532249133
 40
1.0
100
AcDbArc
 50
271.0
 51
360.0
  0
ARC
  5
508
100
AcDbEntity
  8
RACCORDO
100
AcDbCircle
 62
7
  6
CONTINUOUS
 10
-16.3021851108
 20
21.240730368
 40
1.5
100
AcDbArc
 50
93.0
 51
177.6430500092
  0
ARC
  5
509
100
AcDbEntity
  8
RACCORDO
100
AcDbCircle
 62
253
  6
CONTINUOUS
 10
-16.3109098893
 20
21.2407289592
 40
1.0000014814
100
AcDbArc
 50
93.0000772934
 51
177.6429727158
  0
ARC
  5
50A
100
AcDbEntity
  8
RACCORDO
100
AcDbCircle
 62
7
  6
CONTINUOUS
 10
-10.9739101562
 20
24.9768551002
 40
0.25
100
AcDbArc
 50
90.3333333333
 51
180.0
  0
ARC
  5
50B
100
AcDbEntity
  8
RACCORDO
100
AcDbCircle
 62
7
  6
CONTINUOUS
 10
-10.9739101562
 20
24.5842870155
 40
0.25
100
AcDbArc
 50
180.0
 51
240.0
  0
ARC
  5
50C
100
AcDbEntity
  8
ASSI
100
AcDbCircle
 62
7
  6
CONTINUOUS
 10
-1.2239101562
 20
23.9963072629
 40
0.5
100
AcDbArc
 50
0.0
 51
89.6666666667
  0
ARC
  5
50D
100
AcDbEntity
  8
RACCORDO
100
AcDbCircle
 62
7
  6
CONTINUOUS
 10
-7.9739101562
 20
24.985581845
 40
0.25
100
AcDbArc
 50
0.0
 51
89.6666666667
  0
ARC
  5
50E
100
AcDbEntity
  8
RACCORDO
100
AcDbCircle
 62
7
  6
CONTINUOUS
 10
-7.9739101562
 20
24.5842870155
 40
0.25
100
AcDbArc
 50
300.0
 51
360.0
  0
ARC
  5
50F
100
AcDbEntity
  8
RACCORDO
100
AcDbCircle
 62
7
  6
CONTINUOUS
 10
13.7760898438
 20
8.3899494482
 40
0.5
100
AcDbArc
 50
359.9995767696
 51
90.0
  0
ARC
  5
510
100
AcDbEntity
  8
RACCORDO
100
AcDbCircle
 62
7
  6
CONTINUOUS
 10
13.7760898438
 20
8.0899494482
 40
0.5
100
AcDbArc
 50
270.0
 51
0.0004232304
  0
ARC
  5
511
100
AcDbEntity
  8
RACCORDO
100
AcDbCircle
 62
7
  6
CONTINUOUS
 10
1.2760898438
 20
22.0613695597
 40
1.0
100
AcDbArc
 50
0.0
 51
89.5
  0
ARC
  5
512
100
AcDbEntity
  8
RACCORDO
100
AcDbCircle
 62
7
  6
CONTINUOUS
 10
16.7760898438
 20
19.0121480294
 40
1.0
100
AcDbArc
 50
0.0
 51
89.0
  0
ARC
  5
513
100
AcDbEntity
  8
IMPORT
100
AcDbCircle
 62
7
  6
CONTINUOUS
 10
16.7760898438
 20
19.0121480294
 40
1.0
100
AcDbArc
 50
0.0
 51
89.0
  0
ARC
  5
514
100
AcDbEntity
  8
RACCORDO
100
AcDbCircle
 62
7
  6
CONTINUOUS
 10
481.7760898438
 20
0.7399494482
 40
500.0
100
AcDbArc
 50
177.6430500092
 51
182.3569499908
  0
ARC
  5
515
100
AcDbEntity
  8
RACCORDO
100
AcDbCircle
 62
253
  6
CONTINUOUS
 10
481.7673562643
 20
0.7399494482
 40
499.49999263
100
AcDbArc
 50
177.6430499744
 51
182.3569500256
  0
SPLINE
  5
516
100
AcDbEntity
  8
RACCORDO
100
AcDbSpline
 62
7
  6
CONTINUOUS
 70
0
 71
3
 72
9
 73
5
 74
3
 42
0.0000001
 43
0.0000001
 44
0.0000000001
 12
0.0128743239
 22
-0.0971410768
 32
0.0
 13
0.0490620601
 23
-0.0849087654
 33
0.0
 40
0.0
 40
0.0
 40
0.0
 40
0.0
 40
0.6664791793
 40
1.0
 40
1.0
 40
1.0
 40
1.0
 10
79.6944710628
 20
-23.542681734
 30
0.0
 10
79.697331219
 20
-23.564262569
 30
0.0
 10
79.7058386864
 20
-23.5962254422
 30
0.0
 10
79.7203501995
 20
-23.6256090837
 30
0.0
 10
79.7258046057
 20
-23.6350486974
 30
0.0
 11
79.6944710628
 21
-23.542681734
 31
0.0
 11
79.7113382829
 21
-23.6057220675
 31
0.0
 11
79.7258046057
 21
-23.6350486974
 31
0.0
  0
SPLINE
  5
517
100
AcDbEntity
  8
RACCORDO
100
AcDbSpline
 62
7
  6
CONTINUOUS
 70
0
 71
3
 72
9
 73
5
 74
3
 42
0.0000001
 43
0.0000001
 44
0.0000000001
 12
0.0971410768
 22
0.0128743239
 32
0.0
 13
0.0849087654
 23
0.0490620601
 33
0.0
 40
0.0
 40
0.0
 40
0.0
 40
0.0
 40
0.6664791793
 40
1.0
 40
1.0
 40
1.0
 40
1.0
 10
81.8749372421
 20
-23.757885549
 30
0.0
 10
81.8965180772
 20
-23.7550253928
 30
0.0
 10
81.9284809504
 20
-23.7465179253
 30
0.0
 10
81.9578645919
 20
-23.7320064123
 30
0.0
 10
81.9673042056
 20
-23.7265520061
 30
0.0
 11
81.8749372421
 21
-23.757885549
 31
0.0
 11
81.9379775756
 21
-23.7410183289
 31
0.0
 11
81.9673042056
 21
-23.7265520061
 31
0.0
  0
SPLINE
  5
518
100
AcDbEntity
  8
RACCORDO
100
AcDbSpline
 62
7
  6
CONTINUOUS
 70
0
 71
3
 72
9
 73
5
 74
3
 42
0.0000001
 43
0.0000001
 44
0.0000000001
 12
0.0128743239
 22
-0.0971410768
 32
0.0
 13
0.0490620601
 23
-0.0849087654
 33
0.0
 40
0.0
 40
0.0
 40
0.0
 40
0.0
 40
0.6664791793
 40
1.0
 40
1.0
 40
1.0
 40
1.0
 10
60.7944710628
 20
-23.542681734
 30
0.0
 10
60.797331219
 20
-23.564262569
 30
0.0
 10
60.8058386864
 20
-23.5962254422
 30
0.0
 10
60.8203501995
 20
-23.6256090837
 30
0.0
 10
60.8258046057
 20
-23.6350486974
 30
0.0
 11
60.7944710628
 21
-23.542681734
 31
0.0
 11
60.8113382829
 21
-23.6057220675
 31
0.0
 11
60.8258046057
 21
-23.6350486974
 31
0.0
  0
SPLINE
  5
519
100
AcDbEntity
  8
RACCORDO
100
AcDbSpline
 62
7
  6
CONTINUOUS
 70
0
 71
3
 72
9
 73
5
 74
3
 42
0.0000001
 43
0.0000001
 44
0.0000000001
 12
0.0971410768
 22
0.0128743239
 32
0.0
 13
0.0849087654
 23
0.0490620601
 33
0.0
 40
0.0
 40
0.0
 40
0.0
 40
0.0
 40
0.6664791793
 40
1.0
 40
1.0
 40
1.0
 40
1.0
 10
62.9749372421
 20
-23.757885549
 30
0.0
 10
62.9965180772
 20
-23.7550253928
 30
0.0
 10
63.0284809504
 20
-23.7465179253
 30
0.0
 10
63.0578645919
 20
-23.7320064123
 30
0.0
 10
63.0673042056
 20
-23.7265520061
 30
0.0
 11
62.9749372421
 21
-23.757885549
 31
0.0
 11
63.0379775756
 21
-23.7410183289
 31
0.0
 11
63.0673042056
 21
-23.7265520061
 31
0.0
  0
SPLINE
  5
51A
100
AcDbEntity
  8
RACCORDO
100
AcDbSpline
 62
7
  6
CONTINUOUS
 70
0
 71
3
 72
9
 73
5
 74
3
 42
0.0000001
 43
0.0000001
 44
0.0000000001
 12
-0.0128743239
 22
0.0971410768
 32
0.0
 13
-0.0490620601
 23
0.0849087654
 33
0.0
 40
0.0
 40
0.0
 40
0.0
 40
0.0
 40
0.6664791793
 40
1.0
 40
1.0
 40
1.0
 40
1.0
 10
82.0901410572
 20
25.0225806303
 30
0.0
 10
82.0872809009
 20
25.0441614654
 30
0.0
 10
82.0787734335
 20
25.0761243386
 30
0.0
 10
82.0642619204
 20
25.1055079801
 30
0.0
 10
82.0588075142
 20
25.1149475938
 30
0.0
 11
82.0901410572
 21
25.0225806303
 31
0.0
 11
82.0732738371
 21
25.0856209638
 31
0.0
 11
82.0588075142
 21
25.1149475938
 31
0.0
  0
SPLINE
  5
51B
100
AcDbEntity
  8
RACCORDO
100
AcDbSpline
 62
7
  6
CONTINUOUS
 70
0
 71
3
 72
9
 73
5
 74
3
 42
0.0000001
 43
0.0000001
 44
0.0000000001
 12
-0.0971410768
 22
-0.0128743239
 32
0.0
 13
-0.0849087654
 23
-0.0490620601
 33
0.0
 40
0.0
 40
0.0
 40
0.0
 40
0.0
 40
0.6664791793
 40
1.0
 40
1.0
 40
1.0
 40
1.0
 10
79.9096748778
 20
25.2377844454
 30
0.0
 10
79.8880940427
 20
25.2349242891
 30
0.0
 10
79.8561311696
 20
25.2264168217
 30
0.0
 10
79.8267475281
 20
25.2119053086
 30
0.0
 10
79.8173079144
 20
25.2064509024
 30
0.0
 11
79.9096748778
 21
25.2377844454
 31
0.0
 11
79.8466345443
 21
25.2209172253
 31
0.0
 11
79.8173079144
 21
25.2064509024
 31
0.0
  0
SPLINE
  5
51C
100
AcDbEntity
  8
RACCORDO
100
AcDbSpline
 62
7
  6
CONTINUOUS
 70
0
 71
3
 72
9
 73
5
 74
3
 42
0.0000001
 43
0.0000001
 44
0.0000000001
 12
-0.0971410768
 22
-0.0128743239
 32
0.0
 13
-0.0849087654
 23
-0.0490620601
 33
0.0
 40
0.0
 40
0.0
 40
0.0
 40
0.0
 40
0.6664791793
 40
1.0
 40
1.0
 40
1.0
 40
1.0
 10
61.0096748778
 20
25.2377844454
 30
0.0
 10
60.9880940427
 20
25.2349242891
 30
0.0
 10
60.9561311696
 20
25.2264168217
 30
0.0
 10
60.9267475281
 20
25.2119053086
 30
0.0
 10
60.9173079144
 20
25.2064509024
 30
0.0
 11
61.0096748778
 21
25.2377844454
 31
0.0
 11
60.9466345443
 21
25.2209172253
 31
0.0
 11
60.9173079144
 21
25.2064509024
 31
0.0
  0
SPLINE
  5
51D
100
AcDbEntity
  8
RACCORDO
100
AcDbSpline
 62
7
  6
CONTINUOUS
 70
0
 71
3
 72
9
 73
5
 74
3
 42
0.0000001
 43
0.0000001
 44
0.0000000001
 12
-0.0128743239
 22
0.0971410768
 32
0.0
 13
-0.0490620601
 23
0.0849087654
 33
0.0
 40
0.0
 40
0.0
 40
0.0
 40
0.0
 40
0.6664791793
 40
1.0
 40
1.0
 40
1.0
 40
1.0
 10
63.1901410572
 20
25.0225806303
 30
0.0
 10
63.1872809009
 20
25.0441614654
 30
0.0
 10
63.1787734335
 20
25.0761243386
 30
0.0
 10
63.1642619204
 20
25.1055079801
 30
0.0
 10
63.1588075142
 20
25.1149475938
 30
0.0
 11
63.1901410572
 21
25.0225806303
 31
0.0
 11
63.1732738371
 21
25.0856209638
 31
0.0
 11
63.1588075142
 21
25.1149475938
 31
0.0
  0
SPLINE
  5
51E
100
AcDbEntity
  8
RACCORDO
100
AcDbSpline
 62
7
  6
CONTINUOUS
 70
0
 71
3
 72
9
 73
5
 74
3
 42
0.0000001
 43
0.0000001
 44
0.0000000001
 12
0.0128743239
 22
-0.0971410768
 32
0.0
 13
0.0490620601
 23
-0.0849087654
 33
0.0
 40
0.0
 40
0.0
 40
0.0
 40
0.0
 40
0.6664791793
 40
1.0
 40
1.0
 40
1.0
 40
1.0
 10
57.1944710628
 20
-23.542681734
 30
0.0
 10
57.197331219
 20
-23.564262569
 30
0.0
 10
57.2058386864
 20
-23.5962254422
 30
0.0
 10
57.2203501995
 20
-23.6256090837
 30
0.0
 10
57.2258046057
 20
-23.6350486974
 30
0.0
 11
57.1944710628
 21
-23.542681734
 31
0.0
 11
57.2113382829
 21
-23.6057220675
 31
0.0
 11
57.2258046057
 21
-23.6350486974
 31
0.0
  0
SPLINE
  5
51F
100
AcDbEntity
  8
RACCORDO
100
AcDbSpline
 62
7
  6
CONTINUOUS
 70
0
 71
3
 72
9
 73
5
 74
3
 42
0.0000001
 43
0.0000001
 44
0.0000000001
 12
0.0971410768
 22
0.0128743239
 32
0.0
 13
0.0849087654
 23
0.0490620601
 33
0.0
 40
0.0
 40
0.0
 40
0.0
 40
0.0
 40
0.6664791793
 40
1.0
 40
1.0
 40
1.0
 40
1.0
 10
59.3749372421
 20
-23.757885549
 30
0.0
 10
59.3965180772
 20
-23.7550253928
 30
0.0
 10
59.4284809504
 20
-23.7465179253
 30
0.0
 10
59.4578645919
 20
-23.7320064123
 30
0.0
 10
59.4673042056
 20
-23.7265520061
 30
0.0
 11
59.3749372421
 21
-23.757885549
 31
0.0
 11
59.4379775756
 21
-23.7410183289
 31
0.0
 11
59.4673042056
 21
-23.7265520061
 31
0.0
  0
SPLINE
  5
520
100
AcDbEntity
  8
RACCORDO
100
AcDbSpline
 62
7
  6
CONTINUOUS
 70
0
 71
3
 72
9
 73
5
 74
3
 42
0.0000001
 43
0.0000001
 44
0.0000000001
 12
0.0128743239
 22
-0.0971410768
 32
0.0
 13
0.0490620601
 23
-0.0849087654
 33
0.0
 40
0.0
 40
0.0
 40
0.0
 40
0.0
 40
0.6664791793
 40
1.0
 40
1.0
 40
1.0
 40
1.0
 10
38.2944710628
 20
-23.542681734
 30
0.0
 10
38.297331219
 20
-23.564262569
 30
0.0
 10
38.3058386864
 20
-23.5962254422
 30
0.0
 10
38.3203501995
 20
-23.6256090837
 30
0.0
 10
38.3258046057
 20
-23.6350486974
 30
0.0
 11
38.2944710628
 21
-23.542681734
 31
0.0
 11
38.3113382829
 21
-23.6057220675
 31
0.0
 11
38.3258046057
 21
-23.6350486974
 31
0.0
  0
SPLINE
  5
521
100
AcDbEntity
  8
RACCORDO
100
AcDbSpline
 62
7
  6
CONTINUOUS
 70
0
 71
3
 72
9
 73
5
 74
3
 42
0.0000001
 43
0.0000001
 44
0.0000000001
 12
0.0971410768
 22
0.0128743239
 32
0.0
 13
0.0849087654
 23
0.0490620601
 33
0.0
 40
0.0
 40
0.0
 40
0.0
 40
0.0
 40
0.6664791793
 40
1.0
 40
1.0
 40
1.0
 40
1.0
 10
40.4749372421
 20
-23.757885549
 30
0.0
 10
40.4965180772
 20
-23.7550253928
 30
0.0
 10
40.5284809504
 20
-23.7465179253
 30
0.0
 10
40.5578645919
 20
-23.7320064123
 30
0.0
 10
40.5673042056
 20
-23.7265520061
 30
0.0
 11
40.4749372421
 21
-23.757885549
 31
0.0
 11
40.5379775756
 21
-23.7410183289
 31
0.0
 11
40.5673042056
 21
-23.7265520061
 31
0.0
  0
SPLINE
  5
522
100
AcDbEntity
  8
RACCORDO
100
AcDbSpline
 62
7
  6
CONTINUOUS
 70
0
 71
3
 72
9
 73
5
 74
3
 42
0.0000001
 43
0.0000001
 44
0.0000000001
 12
-0.0128743239
 22
0.0971410768
 32
0.0
 13
-0.0490620601
 23
0.0849087654
 33
0.0
 40
0.0
 40
0.0
 40
0.0
 40
0.0
 40
0.6664791793
 40
1.0
 40
1.0
 40
1.0
 40
1.0
 10
59.5901410572
 20
25.0225806303
 30
0.0
 10
59.5872809009
 20
25.0441614654
 30
0.0
 10
59.5787734335
 20
25.0761243386
 30
0.0
 10
59.5642619204
 20
25.1055079801
 30
0.0
 10
59.5588075142
 20
25.1149475938
 30
0.0
 11
59.5901410572
 21
25.0225806303
 31
0.0
 11
59.5732738371
 21
25.0856209638
 31
0.0
 11
59.5588075142
 21
25.1149475938
 31
0.0
  0
SPLINE
  5
523
100
AcDbEntity
  8
RACCORDO
100
AcDbSpline
 62
7
  6
CONTINUOUS
 70
0
 71
3
 72
9
 73
5
 74
3
 42
0.0000001
 43
0.0000001
 44
0.0000000001
 12
-0.0971410768
 22
-0.0128743239
 32
0.0
 13
-0.0849087654
 23
-0.0490620601
 33
0.0
 40
0.0
 40
0.0
 40
0.0
 40
0.0
 40
0.6664791793
 40
1.0
 40
1.0
 40
1.0
 40
1.0
 10
57.4096748778
 20
25.2377844454
 30
0.0
 10
57.3880940427
 20
25.2349242891
 30
0.0
 10
57.3561311696
 20
25.2264168217
 30
0.0
 10
57.3267475281
 20
25.2119053086
 30
0.0
 10
57.3173079144
 20
25.2064509024
 30
0.0
 11
57.4096748778
 21
25.2377844454
 31
0.0
 11
57.3466345443
 21
25.2209172253
 31
0.0
 11
57.3173079144
 21
25.2064509024
 31
0.0
  0
SPLINE
  5
524
100
AcDbEntity
  8
RACCORDO
100
AcDbSpline
 62
7
  6
CONTINUOUS
 70
0
 71
3
 72
9
 73
5
 74
3
 42
0.0000001
 43
0.0000001
 44
0.0000000001
 12
-0.0971410768
 22
-0.0128743239
 32
0.0
 13
-0.0849087654
 23
-0.0490620601
 33
0.0
 40
0.0
 40
0.0
 40
0.0
 40
0.0
 40
0.6664791793
 40
1.0
 40
1.0
 40
1.0
 40
1.0
 10
38.5096748778
 20
25.2377844454
 30
0.0
 10
38.4880940427
 20
25.2349242891
 30
0.0
 10
38.4561311696
 20
25.2264168217
 30
0.0
 10
38.4267475281
 20
25.2119053086
 30
0.0
 10
38.4173079144
 20
25.2064509024
 30
0.0
 11
38.5096748778
 21
25.2377844454
 31
0.0
 11
38.4466345443
 21
25.2209172253
 31
0.0
 11
38.4173079144
 21
25.2064509024
 31
0.0
  0
SPLINE
  5
525
100
AcDbEntity
  8
RACCORDO
100
AcDbSpline
 62
7
  6
CONTINUOUS
 70
0
 71
3
 72
9
 73
5
 74
3
 42
0.0000001
 43
0.0000001
 44
0.0000000001
 12
-0.0128743239
 22
0.0971410768
 32
0.0
 13
-0.0490620601
 23
0.0849087654
 33
0.0
 40
0.0
 40
0.0
 40
0.0
 40
0.0
 40
0.6664791793
 40
1.0
 40
1.0
 40
1.0
 40
1.0
 10
40.6901410572
 20
25.0225806303
 30
0.0
 10
40.6872809009
 20
25.0441614654
 30
0.0
 10
40.6787734335
 20
25.0761243386
 30
0.0
 10
40.6642619204
 20
25.1055079801
 30
0.0
 10
40.6588075142
 20
25.1149475938
 30
0.0
 11
40.6901410572
 21
25.0225806303
 31
0.0
 11
40.6732738371
 21
25.0856209638
 31
0.0
 11
40.6588075142
 21
25.1149475938
 31
0.0
  0
SPLINE
  5
526
100
AcDbEntity
  8
RACCORDO
100
AcDbSpline
 62
253
  6
CONTINUOUS
 70
0
 71
3
 72
11
 73
7
 74
5
 42
0.0000001
 43
0.0000001
 44
0.0000000001
 12
0.0012232543
 22
0.3641925536
 32
0.0
 13
0.3641934522
 23
0.000917474
 33
0.0
 40
0.0
 40
0.0
 40
0.0
 40
0.0
 40
0.2320250085
 40
0.47587978
 40
0.7334116474
 40
1.0
 40
1.0
 40
1.0
 40
1.0
 10
60.8054046387
 20
-23.1043881191
 30
0.0
 10
60.8054992472
 20
-23.076220859
 30
0.0
 10
60.8193313007
 20
-23.0177809943
 30
0.0
 10
60.8761235173
 20
-22.9460525369
 30
0.0
 10
60.9588825213
 20
-22.8989138056
 30
0.0
 10
61.0230371637
 20
-22.8879632975
 30
0.0
 10
61.0554004079
 20
-22.8878817682
 30
0.0
 11
60.8054046387
 21
-23.1043881191
 31
0.0
 11
60.8244594135
 21
-23.0220622605
 31
0.0
 11
60.8786612425
 21
-22.9517096974
 31
0.0
 11
60.9597593592
 21
-22.9045930153
 31
0.0
 11
61.0554004079
 21
-22.8878817682
 31
0.0
  0
SPLINE
  5
527
100
AcDbEntity
  8
RACCORDO
100
AcDbSpline
 62
7
  6
CONTINUOUS
 70
0
 71
3
 72
12
 73
8
 74
6
 42
0.0000001
 43
0.0000001
 44
0.0000000001
 12
0.0031594254
 22
0.313543278
 32
0.0
 13
0.3135591956
 23
0.0
 33
0.0
 40
0.0
 40
0.0
 40
0.0
 40
0.0
 40
0.1363357513
 40
0.2975671046
 40
0.4959424479
 40
0.733166537
 40
1.0
 40
1.0
 40
1.0
 40
1.0
 10
60.7995868089
 20
-22.5270378499
 30
0.0
 10
60.7997303898
 20
-22.5127887971
 30
0.0
 10
60.8086665199
 20
-22.4815073906
 30
0.0
 10
60.8438620217
 20
-22.441869771
 30
0.0
 10
60.8981679823
 20
-22.409718975
 30
0.0
 10
60.9688642283
 20
-22.3880377534
 30
0.0
 10
61.0216932161
 20
-22.3827002826
 30
0.0
 10
61.0495825781
 20
-22.3827002826
 30
0.0
 11
60.7995868089
 21
-22.5270378499
 31
0.0
 11
60.8104759604
 21
-22.4856986256
 31
0.0
 11
60.8426735133
 21
-22.4467219198
 31
0.0
 11
60.8955052983
 21
-22.4138898823
 31
0.0
 11
60.9663489305
 21
-22.3912154768
 31
0.0
 11
61.0495825781
 21
-22.3827002826
 31
0.0
  0
SPLINE
  5
528
100
AcDbEntity
  8
RACCORDO
100
AcDbSpline
 62
7
  6
CONTINUOUS
 70
0
 71
3
 72
11
 73
7
 74
5
 42
0.0000001
 43
0.0000001
 44
0.0000000001
 12
0.4494325074
 22
-0.003465227
 32
0.0
 13
0.379851086
 23
-0.2402389207
 33
0.0
 40
0.0
 40
0.0
 40
0.0
 40
0.0
 40
0.2018563251
 40
0.4484393042
 40
0.7201275271
 40
1.0
 40
1.0
 40
1.0
 40
1.0
 10
44.6460987463
 20
24.535288415
 30
0.0
 10
44.6763390111
 20
24.5350552557
 30
0.0
 10
44.7418689128
 20
24.5125784137
 30
0.0
 10
44.837235207
 20
24.4635198747
 30
0.0
 10
44.9399996528
 20
24.4018405792
 30
0.0
 10
45.0097868157
 20
24.3577038866
 30
0.0
 10
45.0452234366
 20
24.3352917996
 30
0.0
 11
44.6460987463
 21
24.535288415
 31
0.0
 11
44.7340883379
 21
24.5131844884
 31
0.0
 11
44.83347933
 21
24.4641562661
 31
0.0
 11
44.9386477785
 21
24.4021059507
 31
0.0
 11
45.0452234366
 21
24.3352917996
 31
0.0
  0
SPLINE
  5
529
100
AcDbEntity
  8
RACCORDO
100
AcDbSpline
 62
7
  6
CONTINUOUS
 70
0
 71
3
 72
10
 73
6
 74
4
 42
0.0000001
 43
0.0000001
 44
0.0000000001
 12
-0.0037555946
 22
-0.0343077379
 32
0.0
 13
-0.0343729863
 23
-0.0031021255
 33
0.0
 40
0.0
 40
0.0
 40
0.0
 40
0.0
 40
0.1304413719
 40
0.4640963937
 40
1.0
 40
1.0
 40
1.0
 40
1.0
 10
82.0850253111
 20
23.0733604096
 30
0.0
 10
82.0848620161
 20
23.0718686934
 30
0.0
 10
82.0776490956
 20
23.0708086888
 30
0.0
 10
82.0680277098
 20
23.0691668368
 30
0.0
 10
82.0573616024
 20
23.0684144335
 30
0.0
 10
82.0512213999
 20
23.0678602868
 30
0.0
 11
82.0850253111
 21
23.0733604096
 31
0.0
 11
82.081024473
 21
23.0712963759
 31
0.0
 11
82.0696350285
 21
23.0695983213
 31
0.0
 11
82.0512213999
 21
23.0678602868
 31
0.0
  0
SPLINE
  5
52A
100
AcDbEntity
  8
RACCORDO
100
AcDbSpline
 62
253
  6
CONTINUOUS
 70
0
 71
3
 72
11
 73
7
 74
5
 42
0.0000001
 43
0.0000001
 44
0.0000000001
 12
-0.0012232491
 22
-0.3641909974
 32
0.0
 13
-0.3641918961
 23
-0.0009174701
 33
0.0
 40
0.0
 40
0.0
 40
0.0
 40
0.0
 40
0.2331625878
 40
0.4766705428
 40
0.7338113025
 40
1.0
 40
1.0
 40
1.0
 40
1.0
 10
82.0792074812
 20
24.5842870155
 30
0.0
 10
82.0791124093
 20
24.555981777
 30
0.0
 10
82.0651828175
 20
24.4974385336
 30
0.0
 10
82.0082502872
 20
24.4257774376
 30
0.0
 10
81.9255822536
 20
24.37877915
 30
0.0
 10
81.8615263009
 20
24.3678620712
 30
0.0
 10
81.829211712
 20
24.3677806645
 30
0.0
 11
82.0792074812
 21
24.5842870155
 31
0.0
 11
82.0599693962
 21
24.5015787562
 31
0.0
 11
82.0057288698
 21
24.4314160856
 31
0.0
 11
81.9247133674
 21
24.3844416169
 31
0.0
 11
81.829211712
 21
24.3677806645
 31
0.0
  0
SPLINE
  5
52B
100
AcDbEntity
  8
RACCORDO
100
AcDbSpline
 62
7
  6
CONTINUOUS
 70
0
 71
3
 72
12
 73
8
 74
6
 42
0.0000001
 43
0.0000001
 44
0.0000000001
 12
-0.00316672
 22
-0.3142672
 32
0.0
 13
-0.3142831544
 23
0.0
 33
0.0
 40
0.0
 40
0.0
 40
0.0
 40
0.0
 40
0.1357657081
 40
0.2967195393
 40
0.494990308
 40
0.7319263554
 40
1.0
 40
1.0
 40
1.0
 40
1.0
 10
82.0850253111
 20
24.0069367463
 30
0.0
 10
82.0848820004
 20
23.99271451
 30
0.0
 10
82.0759686722
 20
23.9614501716
 30
0.0
 10
82.0407753317
 20
23.9217763069
 30
0.0
 10
81.9863998693
 20
23.8895960014
 30
0.0
 10
81.9154490192
 20
23.867835252
 30
0.0
 10
81.86238599
 20
23.862599179
 30
0.0
 10
81.8343023131
 20
23.862599179
 30
0.0
 11
82.0850253111
 21
24.0069367463
 31
0.0
 11
82.0741746827
 21
23.9656705766
 31
0.0
 11
82.0419782351
 21
23.9266546972
 31
0.0
 11
81.9890524801
 21
23.8937640496
 31
0.0
 11
81.9181248316
 21
23.8710857308
 31
0.0
 11
81.8343023131
 21
23.862599179
 31
0.0
  0
SPLINE
  5
52C
100
AcDbEntity
  8
RACCORDO
100
AcDbSpline
 62
7
  6
CONTINUOUS
 70
0
 71
3
 72
12
 73
8
 74
6
 42
0.0000001
 43
0.0000001
 44
0.0000000001
 12
0.00316672
 22
-0.3142672
 32
0.0
 13
0.3142831544
 23
-0.0
 33
0.0
 40
0.0
 40
0.0
 40
0.0
 40
0.0
 40
0.1357657081
 40
0.2967195393
 40
0.494990308
 40
0.7319263554
 40
1.0
 40
1.0
 40
1.0
 40
1.0
 10
79.6995868089
 20
24.0069367463
 30
0.0
 10
79.6997301195
 20
23.99271451
 30
0.0
 10
79.7086434478
 20
23.9614501716
 30
0.0
 10
79.7438367882
 20
23.9217763069
 30
0.0
 10
79.7982122506
 20
23.8895960014
 30
0.0
 10
79.8691631007
 20
23.867835252
 30
0.0
 10
79.9222261299
 20
23.862599179
 30
0.0
 10
79.9503098068
 20
23.862599179
 30
0.0
 11
79.6995868089
 21
24.0069367463
 31
0.0
 11
79.7104374372
 21
23.9656705766
 31
0.0
 11
79.7426338849
 21
23.9266546972
 31
0.0
 11
79.7955596398
 21
23.8937640496
 31
0.0
 11
79.8664872884
 21
23.8710857308
 31
0.0
 11
79.9503098068
 21
23.862599179
 31
0.0
  0
SPLINE
  5
52D
100
AcDbEntity
  8
RACCORDO
100
AcDbSpline
 62
253
  6
CONTINUOUS
 70
0
 71
3
 72
11
 73
7
 74
5
 42
0.0000001
 43
0.0000001
 44
0.0000000001
 12
0.0012232491
 22
-0.3641909974
 32
0.0
 13
0.3641918961
 23
-0.0009174701
 33
0.0
 40
0.0
 40
0.0
 40
0.0
 40
0.0
 40
0.2331625878
 40
0.4766705428
 40
0.7338113025
 40
1.0
 40
1.0
 40
1.0
 40
1.0
 10
79.7054046387
 20
24.5842870155
 30
0.0
 10
79.7054997107
 20
24.555981777
 30
0.0
 10
79.7194293025
 20
24.4974385336
 30
0.0
 10
79.7763618327
 20
24.4257774376
 30
0.0
 10
79.8590298663
 20
24.37877915
 30
0.0
 10
79.9230858191
 20
24.3678620712
 30
0.0
 10
79.9554004079
 20
24.3677806645
 30
0.0
 11
79.7054046387
 21
24.5842870155
 31
0.0
 11
79.7246427237
 21
24.5015787562
 31
0.0
 11
79.7788832501
 21
24.4314160856
 31
0.0
 11
79.8598987526
 21
24.3844416169
 31
0.0
 11
79.9554004079
 21
24.3677806645
 31
0.0
  0
SPLINE
  5
52E
100
AcDbEntity
  8
RACCORDO
100
AcDbSpline
 62
7
  6
CONTINUOUS
 70
0
 71
3
 72
11
 73
7
 74
5
 42
0.0000001
 43
0.0000001
 44
0.0000000001
 12
0.4494325074
 22
0.003465227
 32
0.0
 13
0.379851086
 23
0.2402389207
 33
0.0
 40
0.0
 40
0.0
 40
0.0
 40
0.0
 40
0.2018563251
 40
0.4484393042
 40
0.7201275271
 40
1.0
 40
1.0
 40
1.0
 40
1.0
 10
44.6460987463
 20
-23.0553895187
 30
0.0
 10
44.6763390111
 20
-23.0551563593
 30
0.0
 10
44.7418689128
 20
-23.0326795174
 30
0.0
 10
44.837235207
 20
-22.9836209783
 30
0.0
 10
44.9399996528
 20
-22.9219416829
 30
0.0
 10
45.0097868157
 20
-22.8778049902
 30
0.0
 10
45.0452234366
 20
-22.8553929033
 30
0.0
 11
44.6460987463
 21
-23.0553895187
 31
0.0
 11
44.7340883379
 21
-23.0332855921
 31
0.0
 11
44.83347933
 21
-22.9842573697
 31
0.0
 11
44.9386477785
 21
-22.9222070544
 31
0.0
 11
45.0452234366
 21
-22.8553929033
 31
0.0
  0
SPLINE
  5
52F
100
AcDbEntity
  8
RACCORDO
100
AcDbSpline
 62
7
  6
CONTINUOUS
 70
0
 71
3
 72
11
 73
7
 74
5
 42
0.0000001
 43
0.0000001
 44
0.0000000001
 12
-0.4494325074
 22
0.003465227
 32
0.0
 13
-0.379851086
 23
0.2402389207
 33
0.0
 40
0.0
 40
0.0
 40
0.0
 40
0.0
 40
0.2018563251
 40
0.4484393042
 40
0.7201275271
 40
1.0
 40
1.0
 40
1.0
 40
1.0
 10
53.2385133736
 20
-23.0553895187
 30
0.0
 10
53.2082731089
 20
-23.0551563593
 30
0.0
 10
53.1427432072
 20
-23.0326795174
 30
0.0
 10
53.047376913
 20
-22.9836209783
 30
0.0
 10
52.9446124671
 20
-22.9219416829
 30
0.0
 10
52.8748253043
 20
-22.8778049902
 30
0.0
 10
52.8393886833
 20
-22.8553929033
 30
0.0
 11
53.2385133736
 21
-23.0553895187
 31
0.0
 11
53.1505237821
 21
-23.0332855921
 31
0.0
 11
53.0511327899
 21
-22.9842573697
 31
0.0
 11
52.9459643415
 21
-22.9222070544
 31
0.0
 11
52.8393886833
 21
-22.8553929033
 31
0.0
  0
SPLINE
  5
530
100
AcDbEntity
  8
RACCORDO
100
AcDbSpline
 62
253
  6
CONTINUOUS
 70
0
 71
3
 72
11
 73
7
 74
5
 42
0.0000001
 43
0.0000001
 44
0.0000000001
 12
-0.0012232491
 22
-0.3641909974
 32
0.0
 13
-0.3641918961
 23
-0.0009174701
 33
0.0
 40
0.0
 40
0.0
 40
0.0
 40
0.0
 40
0.2331625878
 40
0.4766705428
 40
0.7338113025
 40
1.0
 40
1.0
 40
1.0
 40
1.0
 10
63.1792074812
 20
24.5842870155
 30
0.0
 10
63.1791124093
 20
24.555981777
 30
0.0
 10
63.1651828175
 20
24.4974385336
 30
0.0
 10
63.1082502872
 20
24.4257774376
 30
0.0
 10
63.0255822536
 20
24.37877915
 30
0.0
 10
62.9615263009
 20
24.3678620712
 30
0.0
 10
62.929211712
 20
24.3677806645
 30
0.0
 11
63.1792074812
 21
24.5842870155
 31
0.0
 11
63.1599693962
 21
24.5015787562
 31
0.0
 11
63.1057288698
 21
24.4314160856
 31
0.0
 11
63.0247133674
 21
24.3844416169
 31
0.0
 11
62.929211712
 21
24.3677806645
 31
0.0
  0
SPLINE
  5
531
100
AcDbEntity
  8
RACCORDO
100
AcDbSpline
 62
7
  6
CONTINUOUS
 70
0
 71
3
 72
12
 73
8
 74
6
 42
0.0000001
 43
0.0000001
 44
0.0000000001
 12
-0.00316672
 22
-0.3142672
 32
0.0
 13
-0.3142831544
 23
-0.0
 33
0.0
 40
0.0
 40
0.0
 40
0.0
 40
0.0
 40
0.1357657081
 40
0.2967195393
 40
0.494990308
 40
0.7319263554
 40
1.0
 40
1.0
 40
1.0
 40
1.0
 10
63.1850253111
 20
24.0069367463
 30
0.0
 10
63.1848820004
 20
23.99271451
 30
0.0
 10
63.1759686722
 20
23.9614501716
 30
0.0
 10
63.1407753317
 20
23.9217763069
 30
0.0
 10
63.0863998693
 20
23.8895960014
 30
0.0
 10
63.0154490192
 20
23.867835252
 30
0.0
 10
62.96238599
 20
23.862599179
 30
0.0
 10
62.9343023131
 20
23.862599179
 30
0.0
 11
63.1850253111
 21
24.0069367463
 31
0.0
 11
63.1741746827
 21
23.9656705766
 31
0.0
 11
63.1419782351
 21
23.9266546972
 31
0.0
 11
63.0890524801
 21
23.8937640496
 31
0.0
 11
63.0181248316
 21
23.8710857308
 31
0.0
 11
62.9343023131
 21
23.862599179
 31
0.0
  0
SPLINE
  5
532
100
AcDbEntity
  8
RACCORDO
100
AcDbSpline
 62
7
  6
CONTINUOUS
 70
0
 71
3
 72
12
 73
8
 74
6
 42
0.0000001
 43
0.0000001
 44
0.0000000001
 12
0.00316672
 22
-0.3142672
 32
0.0
 13
0.3142831544
 23
0.0
 33
0.0
 40
0.0
 40
0.0
 40
0.0
 40
0.0
 40
0.1357657081
 40
0.2967195393
 40
0.494990308
 40
0.7319263554
 40
1.0
 40
1.0
 40
1.0
 40
1.0
 10
60.7995868089
 20
24.0069367463
 30
0.0
 10
60.7997301195
 20
23.99271451
 30
0.0
 10
60.8086434478
 20
23.9614501716
 30
0.0
 10
60.8438367882
 20
23.9217763069
 30
0.0
 10
60.8982122506
 20
23.8895960014
 30
0.0
 10
60.9691631007
 20
23.867835252
 30
0.0
 10
61.0222261299
 20
23.862599179
 30
0.0
 10
61.0503098068
 20
23.862599179
 30
0.0
 11
60.7995868089
 21
24.0069367463
 31
0.0
 11
60.8104374372
 21
23.9656705766
 31
0.0
 11
60.8426338849
 21
23.9266546972
 31
0.0
 11
60.8955596398
 21
23.8937640496
 31
0.0
 11
60.9664872884
 21
23.8710857308
 31
0.0
 11
61.0503098068
 21
23.862599179
 31
0.0
  0
SPLINE
  5
533
100
AcDbEntity
  8
RACCORDO
100
AcDbSpline
 62
253
  6
CONTINUOUS
 70
0
 71
3
 72
11
 73
7
 74
5
 42
0.0000001
 43
0.0000001
 44
0.0000000001
 12
0.0012232491
 22
-0.3641909974
 32
0.0
 13
0.3641918961
 23
-0.0009174701
 33
0.0
 40
0.0
 40
0.0
 40
0.0
 40
0.0
 40
0.2331625878
 40
0.4766705428
 40
0.7338113025
 40
1.0
 40
1.0
 40
1.0
 40
1.0
 10
60.8054046387
 20
24.5842870155
 30
0.0
 10
60.8054997107
 20
24.555981777
 30
0.0
 10
60.8194293025
 20
24.4974385336
 30
0.0
 10
60.8763618327
 20
24.4257774376
 30
0.0
 10
60.9590298663
 20
24.37877915
 30
0.0
 10
61.0230858191
 20
24.3678620712
 30
0.0
 10
61.0554004079
 20
24.3677806645
 30
0.0
 11
60.8054046387
 21
24.5842870155
 31
0.0
 11
60.8246427237
 21
24.5015787562
 31
0.0
 11
60.8788832501
 21
24.4314160856
 31
0.0
 11
60.9598987526
 21
24.3844416169
 31
0.0
 11
61.0554004079
 21
24.3677806645
 31
0.0
  0
SPLINE
  5
534
100
AcDbEntity
  8
RACCORDO
100
AcDbSpline
 62
7
  6
CONTINUOUS
 70
0
 71
3
 72
10
 73
6
 74
4
 42
0.0000001
 43
0.0000001
 44
0.0000000001
 12
0.0343729863
 22
-0.0031021255
 32
0.0
 13
0.0037555946
 23
-0.0343077379
 33
0.0
 40
0.0
 40
0.0
 40
0.0
 40
0.0
 40
0.5359036063
 40
0.8695586281
 40
1.0
 40
1.0
 40
1.0
 40
1.0
 10
82.0512213999
 20
-21.5879613904
 30
0.0
 10
82.0573616024
 20
-21.5885155372
 30
0.0
 10
82.0680277098
 20
-21.5892679405
 30
0.0
 10
82.0776490956
 20
-21.5909097925
 30
0.0
 10
82.0848620161
 20
-21.5919697971
 30
0.0
 10
82.0850253111
 20
-21.5934615132
 30
0.0
 11
82.0512213999
 21
-21.5879613904
 31
0.0
 11
82.0696350285
 21
-21.589699425
 31
0.0
 11
82.081024473
 21
-21.5913974796
 31
0.0
 11
82.0850253111
 21
-21.5934615132
 31
0.0
  0
SPLINE
  5
535
100
AcDbEntity
  8
RACCORDO
100
AcDbSpline
 62
7
  6
CONTINUOUS
 70
0
 71
3
 72
12
 73
8
 74
6
 42
0.0000001
 43
0.0000001
 44
0.0000000001
 12
-0.0031594254
 22
0.313543278
 32
0.0
 13
-0.3135591956
 23
0.0
 33
0.0
 40
0.0
 40
0.0
 40
0.0
 40
0.0
 40
0.1363357513
 40
0.2975671046
 40
0.4959424479
 40
0.733166537
 40
1.0
 40
1.0
 40
1.0
 40
1.0
 10
82.0850253111
 20
-22.5270378499
 30
0.0
 10
82.0848817302
 20
-22.5127887971
 30
0.0
 10
82.0759456001
 20
-22.4815073906
 30
0.0
 10
82.0407500982
 20
-22.441869771
 30
0.0
 10
81.9864441377
 20
-22.409718975
 30
0.0
 10
81.9157478917
 20
-22.3880377534
 30
0.0
 10
81.8629189039
 20
-22.3827002826
 30
0.0
 10
81.8350295418
 20
-22.3827002826
 30
0.0
 11
82.0850253111
 21
-22.5270378499
 31
0.0
 11
82.0741361595
 21
-22.4856986256
 31
0.0
 11
82.0419386066
 21
-22.4467219198
 31
0.0
 11
81.9891068216
 21
-22.4138898823
 31
0.0
 11
81.9182631894
 21
-22.3912154768
 31
0.0
 11
81.8350295418
 21
-22.3827002826
 31
0.0
  0
SPLINE
  5
536
100
AcDbEntity
  8
RACCORDO
100
AcDbSpline
 62
253
  6
CONTINUOUS
 70
0
 71
3
 72
11
 73
7
 74
5
 42
0.0000001
 43
0.0000001
 44
0.0000000001
 12
-0.0012232543
 22
0.3641925536
 32
0.0
 13
-0.3641934522
 23
0.000917474
 33
0.0
 40
0.0
 40
0.0
 40
0.0
 40
0.0
 40
0.2320250085
 40
0.47587978
 40
0.7334116474
 40
1.0
 40
1.0
 40
1.0
 40
1.0
 10
82.0792074812
 20
-23.1043881191
 30
0.0
 10
82.0791128727
 20
-23.076220859
 30
0.0
 10
82.0652808192
 20
-23.0177809943
 30
0.0
 10
82.0084886026
 20
-22.9460525369
 30
0.0
 10
81.9257295987
 20
-22.8989138056
 30
0.0
 10
81.8615749562
 20
-22.8879632975
 30
0.0
 10
81.829211712
 20
-22.8878817682
 30
0.0
 11
82.0792074812
 21
-23.1043881191
 31
0.0
 11
82.0601527064
 21
-23.0220622605
 31
0.0
 11
82.0059508774
 21
-22.9517096974
 31
0.0
 11
81.9248527607
 21
-22.9045930153
 31
0.0
 11
81.829211712
 21
-22.8878817682
 31
0.0
  0
SPLINE
  5
537
100
AcDbEntity
  8
RACCORDO
100
AcDbSpline
 62
7
  6
CONTINUOUS
 70
0
 71
3
 72
12
 73
8
 74
6
 42
0.0000001
 43
0.0000001
 44
0.0000000001
 12
-0.0031594254
 22
0.313543278
 32
0.0
 13
-0.3135591956
 23
0.0
 33
0.0
 40
0.0
 40
0.0
 40
0.0
 40
0.0
 40
0.1363357513
 40
0.2975671046
 40
0.4959424479
 40
0.733166537
 40
1.0
 40
1.0
 40
1.0
 40
1.0
 10
59.5850253111
 20
-22.5270378499
 30
0.0
 10
59.5848817302
 20
-22.5127887971
 30
0.0
 10
59.5759456001
 20
-22.4815073906
 30
0.0
 10
59.5407500982
 20
-22.441869771
 30
0.0
 10
59.4864441377
 20
-22.409718975
 30
0.0
 10
59.4157478917
 20
-22.3880377534
 30
0.0
 10
59.3629189039
 20
-22.3827002826
 30
0.0
 10
59.3350295418
 20
-22.3827002826
 30
0.0
 11
59.5850253111
 21
-22.5270378499
 31
0.0
 11
59.5741361595
 21
-22.4856986256
 31
0.0
 11
59.5419386066
 21
-22.4467219198
 31
0.0
 11
59.4891068216
 21
-22.4138898823
 31
0.0
 11
59.4182631894
 21
-22.3912154768
 31
0.0
 11
59.3350295418
 21
-22.3827002826
 31
0.0
  0
SPLINE
  5
538
100
AcDbEntity
  8
RACCORDO
100
AcDbSpline
 62
253
  6
CONTINUOUS
 70
0
 71
3
 72
11
 73
7
 74
5
 42
0.0000001
 43
0.0000001
 44
0.0000000001
 12
-0.0012232543
 22
0.3641925536
 32
0.0
 13
-0.3641934522
 23
0.000917474
 33
0.0
 40
0.0
 40
0.0
 40
0.0
 40
0.0
 40
0.2320250085
 40
0.47587978
 40
0.7334116474
 40
1.0
 40
1.0
 40
1.0
 40
1.0
 10
59.5792074812
 20
-23.1043881191
 30
0.0
 10
59.5791128727
 20
-23.076220859
 30
0.0
 10
59.5652808192
 20
-23.0177809943
 30
0.0
 10
59.5084886026
 20
-22.9460525369
 30
0.0
 10
59.4257295987
 20
-22.8989138056
 30
0.0
 10
59.3615749562
 20
-22.8879632975
 30
0.0
 10
59.329211712
 20
-22.8878817682
 30
0.0
 11
59.5792074812
 21
-23.1043881191
 31
0.0
 11
59.5601527064
 21
-23.0220622605
 31
0.0
 11
59.5059508774
 21
-22.9517096974
 31
0.0
 11
59.4248527607
 21
-22.9045930153
 31
0.0
 11
59.329211712
 21
-22.8878817682
 31
0.0
  0
SPLINE
  5
539
100
AcDbEntity
  8
RACCORDO
100
AcDbSpline
 62
253
  6
CONTINUOUS
 70
0
 71
3
 72
11
 73
7
 74
5
 42
0.0000001
 43
0.0000001
 44
0.0000000001
 12
0.0012232543
 22
0.3641925536
 32
0.0
 13
0.3641934522
 23
0.000917474
 33
0.0
 40
0.0
 40
0.0
 40
0.0
 40
0.0
 40
0.2320250085
 40
0.47587978
 40
0.7334116474
 40
1.0
 40
1.0
 40
1.0
 40
1.0
 10
57.2054046387
 20
-23.1043881191
 30
0.0
 10
57.2054992472
 20
-23.076220859
 30
0.0
 10
57.2193313007
 20
-23.0177809943
 30
0.0
 10
57.2761235173
 20
-22.9460525369
 30
0.0
 10
57.3588825213
 20
-22.8989138056
 30
0.0
 10
57.4230371637
 20
-22.8879632975
 30
0.0
 10
57.4554004079
 20
-22.8878817682
 30
0.0
 11
57.2054046387
 21
-23.1043881191
 31
0.0
 11
57.2244594135
 21
-23.0220622605
 31
0.0
 11
57.2786612425
 21
-22.9517096974
 31
0.0
 11
57.3597593592
 21
-22.9045930153
 31
0.0
 11
57.4554004079
 21
-22.8878817682
 31
0.0
  0
SPLINE
  5
53A
100
AcDbEntity
  8
RACCORDO
100
AcDbSpline
 62
7
  6
CONTINUOUS
 70
0
 71
3
 72
12
 73
8
 74
6
 42
0.0000001
 43
0.0000001
 44
0.0000000001
 12
0.00316672
 22
0.3142672
 32
0.0
 13
0.3142831544
 23
-0.0
 33
0.0
 40
0.0
 40
0.0
 40
0.0
 40
0.0
 40
0.1357657081
 40
0.2967195393
 40
0.494990308
 40
0.7319263554
 40
1.0
 40
1.0
 40
1.0
 40
1.0
 10
57.1995868089
 20
-22.5270378499
 30
0.0
 10
57.1997301195
 20
-22.5128156136
 30
0.0
 10
57.2086434478
 20
-22.4815512752
 30
0.0
 10
57.2438367882
 20
-22.4418774106
 30
0.0
 10
57.2982122506
 20
-22.4096971051
 30
0.0
 10
57.3691631007
 20
-22.3879363557
 30
0.0
 10
57.4222261299
 20
-22.3827002826
 30
0.0
 10
57.4503098068
 20
-22.3827002826
 30
0.0
 11
57.1995868089
 21
-22.5270378499
 31
0.0
 11
57.2104374372
 21
-22.4857716803
 31
0.0
 11
57.2426338849
 21
-22.4467558008
 31
0.0
 11
57.2955596398
 21
-22.4138651532
 31
0.0
 11
57.3664872884
 21
-22.3911868345
 31
0.0
 11
57.4503098068
 21
-22.3827002826
 31
0.0
  0
SPLINE
  5
53B
100
AcDbEntity
  8
RACCORDO
100
AcDbSpline
 62
253
  6
CONTINUOUS
 70
0
 71
3
 72
11
 73
7
 74
5
 42
0.0000001
 43
0.0000001
 44
0.0000000001
 12
0.0012232543
 22
0.3641925536
 32
0.0
 13
0.3641934522
 23
0.000917474
 33
0.0
 40
0.0
 40
0.0
 40
0.0
 40
0.0
 40
0.2320250085
 40
0.47587978
 40
0.7334116474
 40
1.0
 40
1.0
 40
1.0
 40
1.0
 10
79.7054046387
 20
-23.1043881191
 30
0.0
 10
79.7054992472
 20
-23.076220859
 30
0.0
 10
79.7193313007
 20
-23.0177809943
 30
0.0
 10
79.7761235173
 20
-22.9460525369
 30
0.0
 10
79.8588825213
 20
-22.8989138056
 30
0.0
 10
79.9230371637
 20
-22.8879632975
 30
0.0
 10
79.9554004079
 20
-22.8878817682
 30
0.0
 11
79.7054046387
 21
-23.1043881191
 31
0.0
 11
79.7244594135
 21
-23.0220622605
 31
0.0
 11
79.7786612425
 21
-22.9517096974
 31
0.0
 11
79.8597593592
 21
-22.9045930153
 31
0.0
 11
79.9554004079
 21
-22.8878817682
 31
0.0
  0
SPLINE
  5
53C
100
AcDbEntity
  8
RACCORDO
100
AcDbSpline
 62
7
  6
CONTINUOUS
 70
0
 71
3
 72
12
 73
8
 74
6
 42
0.0000001
 43
0.0000001
 44
0.0000000001
 12
0.00316672
 22
0.3142672
 32
0.0
 13
0.3142831544
 23
-0.0
 33
0.0
 40
0.0
 40
0.0
 40
0.0
 40
0.0
 40
0.1357657081
 40
0.2967195393
 40
0.494990308
 40
0.7319263554
 40
1.0
 40
1.0
 40
1.0
 40
1.0
 10
79.6995868089
 20
-22.5270378499
 30
0.0
 10
79.6997301195
 20
-22.5128156136
 30
0.0
 10
79.7086434478
 20
-22.4815512752
 30
0.0
 10
79.7438367882
 20
-22.4418774106
 30
0.0
 10
79.7982122506
 20
-22.4096971051
 30
0.0
 10
79.8691631007
 20
-22.3879363557
 30
0.0
 10
79.9222261299
 20
-22.3827002826
 30
0.0
 10
79.9503098068
 20
-22.3827002826
 30
0.0
 11
79.6995868089
 21
-22.5270378499
 31
0.0
 11
79.7104374372
 21
-22.4857716803
 31
0.0
 11
79.7426338849
 21
-22.4467558008
 31
0.0
 11
79.7955596398
 21
-22.4138651532
 31
0.0
 11
79.8664872884
 21
-22.3911868345
 31
0.0
 11
79.9503098068
 21
-22.3827002826
 31
0.0
  0
SPLINE
  5
53D
100
AcDbEntity
  8
RACCORDO
100
AcDbSpline
 62
7
  6
CONTINUOUS
 70
0
 71
3
 72
12
 73
8
 74
6
 42
0.0000001
 43
0.0000001
 44
0.0000000001
 12
-0.00316672
 22
0.3142672
 32
0.0
 13
-0.3142831544
 23
0.0
 33
0.0
 40
0.0
 40
0.0
 40
0.0
 40
0.0
 40
0.1357657081
 40
0.2967195393
 40
0.494990308
 40
0.7319263554
 40
1.0
 40
1.0
 40
1.0
 40
1.0
 10
40.6850253111
 20
-22.5270378499
 30
0.0
 10
40.6848820004
 20
-22.5128156136
 30
0.0
 10
40.6759686722
 20
-22.4815512752
 30
0.0
 10
40.6407753317
 20
-22.4418774106
 30
0.0
 10
40.5863998693
 20
-22.4096971051
 30
0.0
 10
40.5154490192
 20
-22.3879363557
 30
0.0
 10
40.46238599
 20
-22.3827002826
 30
0.0
 10
40.4343023131
 20
-22.3827002826
 30
0.0
 11
40.6850253111
 21
-22.5270378499
 31
0.0
 11
40.6741746827
 21
-22.4857716803
 31
0.0
 11
40.6419782351
 21
-22.4467558008
 31
0.0
 11
40.5890524801
 21
-22.4138651532
 31
0.0
 11
40.5181248316
 21
-22.3911868345
 31
0.0
 11
40.4343023131
 21
-22.3827002826
 31
0.0
  0
SPLINE
  5
53E
100
AcDbEntity
  8
RACCORDO
100
AcDbSpline
 62
253
  6
CONTINUOUS
 70
0
 71
3
 72
11
 73
7
 74
5
 42
0.0000001
 43
0.0000001
 44
0.0000000001
 12
-0.0012232543
 22
0.3641925536
 32
0.0
 13
-0.3641934522
 23
0.000917474
 33
0.0
 40
0.0
 40
0.0
 40
0.0
 40
0.0
 40
0.2320250085
 40
0.47587978
 40
0.7334116474
 40
1.0
 40
1.0
 40
1.0
 40
1.0
 10
40.6792074812
 20
-23.1043881191
 30
0.0
 10
40.6791128727
 20
-23.076220859
 30
0.0
 10
40.6652808192
 20
-23.0177809943
 30
0.0
 10
40.6084886026
 20
-22.9460525369
 30
0.0
 10
40.5257295987
 20
-22.8989138056
 30
0.0
 10
40.4615749562
 20
-22.8879632975
 30
0.0
 10
40.429211712
 20
-22.8878817682
 30
0.0
 11
40.6792074812
 21
-23.1043881191
 31
0.0
 11
40.6601527064
 21
-23.0220622605
 31
0.0
 11
40.6059508774
 21
-22.9517096974
 31
0.0
 11
40.5248527607
 21
-22.9045930153
 31
0.0
 11
40.429211712
 21
-22.8878817682
 31
0.0
  0
SPLINE
  5
53F
100
AcDbEntity
  8
RACCORDO
100
AcDbSpline
 62
253
  6
CONTINUOUS
 70
0
 71
3
 72
11
 73
7
 74
5
 42
0.0000001
 43
0.0000001
 44
0.0000000001
 12
0.0012232543
 22
0.3641925536
 32
0.0
 13
0.3641934522
 23
0.000917474
 33
0.0
 40
0.0
 40
0.0
 40
0.0
 40
0.0
 40
0.2320250085
 40
0.47587978
 40
0.7334116474
 40
1.0
 40
1.0
 40
1.0
 40
1.0
 10
38.3054046387
 20
-23.1043881191
 30
0.0
 10
38.3054992472
 20
-23.076220859
 30
0.0
 10
38.3193313007
 20
-23.0177809943
 30
0.0
 10
38.3761235173
 20
-22.9460525369
 30
0.0
 10
38.4588825213
 20
-22.8989138056
 30
0.0
 10
38.5230371637
 20
-22.8879632975
 30
0.0
 10
38.5554004079
 20
-22.8878817682
 30
0.0
 11
38.3054046387
 21
-23.1043881191
 31
0.0
 11
38.3244594135
 21
-23.0220622605
 31
0.0
 11
38.3786612425
 21
-22.9517096974
 31
0.0
 11
38.4597593592
 21
-22.9045930153
 31
0.0
 11
38.5554004079
 21
-22.8878817682
 31
0.0
  0
SPLINE
  5
540
100
AcDbEntity
  8
RACCORDO
100
AcDbSpline
 62
7
  6
CONTINUOUS
 70
0
 71
3
 72
12
 73
8
 74
6
 42
0.0000001
 43
0.0000001
 44
0.0000000001
 12
0.0031594254
 22
0.313543278
 32
0.0
 13
0.3135591956
 23
0.0
 33
0.0
 40
0.0
 40
0.0
 40
0.0
 40
0.0
 40
0.1363357513
 40
0.2975671046
 40
0.4959424479
 40
0.733166537
 40
1.0
 40
1.0
 40
1.0
 40
1.0
 10
38.2995868089
 20
-22.5270378499
 30
0.0
 10
38.2997303898
 20
-22.5127887971
 30
0.0
 10
38.3086665199
 20
-22.4815073906
 30
0.0
 10
38.3438620217
 20
-22.441869771
 30
0.0
 10
38.3981679823
 20
-22.409718975
 30
0.0
 10
38.4688642283
 20
-22.3880377534
 30
0.0
 10
38.5216932161
 20
-22.3827002826
 30
0.0
 10
38.5495825781
 20
-22.3827002826
 30
0.0
 11
38.2995868089
 21
-22.5270378499
 31
0.0
 11
38.3104759604
 21
-22.4856986256
 31
0.0
 11
38.3426735133
 21
-22.4467219198
 31
0.0
 11
38.3955052983
 21
-22.4138898823
 31
0.0
 11
38.4663489305
 21
-22.3912154768
 31
0.0
 11
38.5495825781
 21
-22.3827002826
 31
0.0
  0
SPLINE
  5
541
100
AcDbEntity
  8
RACCORDO
100
AcDbSpline
 62
7
  6
CONTINUOUS
 70
0
 71
3
 72
10
 73
6
 74
4
 42
0.0000001
 43
0.0000001
 44
0.0000000001
 12
0.0037555946
 22
0.0343077379
 32
0.0
 13
0.0343729863
 23
0.0031021255
 33
0.0
 40
0.0
 40
0.0
 40
0.0
 40
0.0
 40
0.1304413719
 40
0.4640963937
 40
1.0
 40
1.0
 40
1.0
 40
1.0
 10
38.2995868089
 20
-21.5934615132
 30
0.0
 10
38.2997501038
 20
-21.5919697971
 30
0.0
 10
38.3069630243
 20
-21.5909097925
 30
0.0
 10
38.3165844101
 20
-21.5892679405
 30
0.0
 10
38.3272505176
 20
-21.5885155372
 30
0.0
 10
38.33339072
 20
-21.5879613904
 30
0.0
 11
38.2995868089
 21
-21.5934615132
 31
0.0
 11
38.303587647
 21
-21.5913974796
 31
0.0
 11
38.3149770914
 21
-21.589699425
 31
0.0
 11
38.33339072
 21
-21.5879613904
 31
0.0
  0
SPLINE
  5
542
100
AcDbEntity
  8
RACCORDO
100
AcDbSpline
 62
7
  6
CONTINUOUS
 70
0
 71
3
 72
11
 73
7
 74
5
 42
0.0000001
 43
0.0000001
 44
0.0000000001
 12
-0.4494325074
 22
-0.003465227
 32
0.0
 13
-0.379851086
 23
-0.2402389207
 33
0.0
 40
0.0
 40
0.0
 40
0.0
 40
0.0
 40
0.2018563251
 40
0.4484393042
 40
0.7201275271
 40
1.0
 40
1.0
 40
1.0
 40
1.0
 10
75.7385133736
 20
24.535288415
 30
0.0
 10
75.7082731089
 20
24.5350552557
 30
0.0
 10
75.6427432072
 20
24.5125784137
 30
0.0
 10
75.547376913
 20
24.4635198747
 30
0.0
 10
75.4446124671
 20
24.4018405792
 30
0.0
 10
75.3748253043
 20
24.3577038866
 30
0.0
 10
75.3393886833
 20
24.3352917996
 30
0.0
 11
75.7385133736
 21
24.535288415
 31
0.0
 11
75.6505237821
 21
24.5131844884
 31
0.0
 11
75.5511327899
 21
24.4641562661
 31
0.0
 11
75.4459643415
 21
24.4021059507
 31
0.0
 11
75.3393886833
 21
24.3352917996
 31
0.0
  0
SPLINE
  5
543
100
AcDbEntity
  8
RACCORDO
100
AcDbSpline
 62
7
  6
CONTINUOUS
 70
0
 71
3
 72
11
 73
7
 74
5
 42
0.0000001
 43
0.0000001
 44
0.0000000001
 12
0.4494325074
 22
-0.003465227
 32
0.0
 13
0.379851086
 23
-0.2402389207
 33
0.0
 40
0.0
 40
0.0
 40
0.0
 40
0.0
 40
0.2018563251
 40
0.4484393042
 40
0.7201275271
 40
1.0
 40
1.0
 40
1.0
 40
1.0
 10
67.1460987463
 20
24.535288415
 30
0.0
 10
67.1763390111
 20
24.5350552557
 30
0.0
 10
67.2418689128
 20
24.5125784137
 30
0.0
 10
67.337235207
 20
24.4635198747
 30
0.0
 10
67.4399996528
 20
24.4018405792
 30
0.0
 10
67.5097868157
 20
24.3577038866
 30
0.0
 10
67.5452234366
 20
24.3352917996
 30
0.0
 11
67.1460987463
 21
24.535288415
 31
0.0
 11
67.2340883379
 21
24.5131844884
 31
0.0
 11
67.33347933
 21
24.4641562661
 31
0.0
 11
67.4386477785
 21
24.4021059507
 31
0.0
 11
67.5452234366
 21
24.3352917996
 31
0.0
  0
SPLINE
  5
544
100
AcDbEntity
  8
RACCORDO
100
AcDbSpline
 62
253
  6
CONTINUOUS
 70
0
 71
3
 72
11
 73
7
 74
5
 42
0.0000001
 43
0.0000001
 44
0.0000000001
 12
-0.0012232491
 22
-0.3641909974
 32
0.0
 13
-0.3641918961
 23
-0.0009174701
 33
0.0
 40
0.0
 40
0.0
 40
0.0
 40
0.0
 40
0.2331625878
 40
0.4766705428
 40
0.7338113025
 40
1.0
 40
1.0
 40
1.0
 40
1.0
 10
59.5792074812
 20
24.5842870155
 30
0.0
 10
59.5791124093
 20
24.555981777
 30
0.0
 10
59.5651828175
 20
24.4974385336
 30
0.0
 10
59.5082502872
 20
24.4257774376
 30
0.0
 10
59.4255822536
 20
24.37877915
 30
0.0
 10
59.3615263009
 20
24.3678620712
 30
0.0
 10
59.329211712
 20
24.3677806645
 30
0.0
 11
59.5792074812
 21
24.5842870155
 31
0.0
 11
59.5599693962
 21
24.5015787562
 31
0.0
 11
59.5057288698
 21
24.4314160856
 31
0.0
 11
59.4247133674
 21
24.3844416169
 31
0.0
 11
59.329211712
 21
24.3677806645
 31
0.0
  0
SPLINE
  5
545
100
AcDbEntity
  8
RACCORDO
100
AcDbSpline
 62
7
  6
CONTINUOUS
 70
0
 71
3
 72
12
 73
8
 74
6
 42
0.0000001
 43
0.0000001
 44
0.0000000001
 12
-0.00316672
 22
-0.3142672
 32
0.0
 13
-0.3142831544
 23
-0.0
 33
0.0
 40
0.0
 40
0.0
 40
0.0
 40
0.0
 40
0.1357657081
 40
0.2967195393
 40
0.494990308
 40
0.7319263554
 40
1.0
 40
1.0
 40
1.0
 40
1.0
 10
59.5850253111
 20
24.0069367463
 30
0.0
 10
59.5848820004
 20
23.99271451
 30
0.0
 10
59.5759686722
 20
23.9614501716
 30
0.0
 10
59.5407753317
 20
23.9217763069
 30
0.0
 10
59.4863998693
 20
23.8895960014
 30
0.0
 10
59.4154490192
 20
23.867835252
 30
0.0
 10
59.36238599
 20
23.862599179
 30
0.0
 10
59.3343023131
 20
23.862599179
 30
0.0
 11
59.5850253111
 21
24.0069367463
 31
0.0
 11
59.5741746827
 21
23.9656705766
 31
0.0
 11
59.5419782351
 21
23.9266546972
 31
0.0
 11
59.4890524801
 21
23.8937640496
 31
0.0
 11
59.4181248316
 21
23.8710857308
 31
0.0
 11
59.3343023131
 21
23.862599179
 31
0.0
  0
SPLINE
  5
546
100
AcDbEntity
  8
RACCORDO
100
AcDbSpline
 62
7
  6
CONTINUOUS
 70
0
 71
3
 72
11
 73
7
 74
5
 42
0.0000001
 43
0.0000001
 44
0.0000000001
 12
0.4494325074
 22
0.003465227
 32
0.0
 13
0.379851086
 23
0.2402389207
 33
0.0
 40
0.0
 40
0.0
 40
0.0
 40
0.0
 40
0.2018563251
 40
0.4484393042
 40
0.7201275271
 40
1.0
 40
1.0
 40
1.0
 40
1.0
 10
67.1460987463
 20
-23.0553895187
 30
0.0
 10
67.1763390111
 20
-23.0551563593
 30
0.0
 10
67.2418689128
 20
-23.0326795174
 30
0.0
 10
67.337235207
 20
-22.9836209783
 30
0.0
 10
67.4399996528
 20
-22.9219416829
 30
0.0
 10
67.5097868157
 20
-22.8778049902
 30
0.0
 10
67.5452234366
 20
-22.8553929033
 30
0.0
 11
67.1460987463
 21
-23.0553895187
 31
0.0
 11
67.2340883379
 21
-23.0332855921
 31
0.0
 11
67.33347933
 21
-22.9842573697
 31
0.0
 11
67.4386477785
 21
-22.9222070544
 31
0.0
 11
67.5452234366
 21
-22.8553929033
 31
0.0
  0
SPLINE
  5
547
100
AcDbEntity
  8
RACCORDO
100
AcDbSpline
 62
7
  6
CONTINUOUS
 70
0
 71
3
 72
11
 73
7
 74
5
 42
0.0000001
 43
0.0000001
 44
0.0000000001
 12
-0.4494325074
 22
0.003465227
 32
0.0
 13
-0.379851086
 23
0.2402389207
 33
0.0
 40
0.0
 40
0.0
 40
0.0
 40
0.0
 40
0.2018563251
 40
0.4484393042
 40
0.7201275271
 40
1.0
 40
1.0
 40
1.0
 40
1.0
 10
75.7385133736
 20
-23.0553895187
 30
0.0
 10
75.7082731089
 20
-23.0551563593
 30
0.0
 10
75.6427432072
 20
-23.0326795174
 30
0.0
 10
75.547376913
 20
-22.9836209783
 30
0.0
 10
75.4446124671
 20
-22.9219416829
 30
0.0
 10
75.3748253043
 20
-22.8778049902
 30
0.0
 10
75.3393886833
 20
-22.8553929033
 30
0.0
 11
75.7385133736
 21
-23.0553895187
 31
0.0
 11
75.6505237821
 21
-23.0332855921
 31
0.0
 11
75.5511327899
 21
-22.9842573697
 31
0.0
 11
75.4459643415
 21
-22.9222070544
 31
0.0
 11
75.3393886833
 21
-22.8553929033
 31
0.0
  0
SPLINE
  5
548
100
AcDbEntity
  8
RACCORDO
100
AcDbSpline
 62
7
  6
CONTINUOUS
 70
0
 71
3
 72
12
 73
8
 74
6
 42
0.0000001
 43
0.0000001
 44
0.0000000001
 12
0.00316672
 22
-0.3142672
 32
0.0
 13
0.3142831544
 23
-0.0
 33
0.0
 40
0.0
 40
0.0
 40
0.0
 40
0.0
 40
0.1357657081
 40
0.2967195393
 40
0.494990308
 40
0.7319263554
 40
1.0
 40
1.0
 40
1.0
 40
1.0
 10
57.1995868089
 20
24.0069367463
 30
0.0
 10
57.1997301195
 20
23.99271451
 30
0.0
 10
57.2086434478
 20
23.9614501716
 30
0.0
 10
57.2438367882
 20
23.9217763069
 30
0.0
 10
57.2982122506
 20
23.8895960014
 30
0.0
 10
57.3691631007
 20
23.867835252
 30
0.0
 10
57.4222261299
 20
23.862599179
 30
0.0
 10
57.4503098068
 20
23.862599179
 30
0.0
 11
57.1995868089
 21
24.0069367463
 31
0.0
 11
57.2104374372
 21
23.9656705766
 31
0.0
 11
57.2426338849
 21
23.9266546972
 31
0.0
 11
57.2955596398
 21
23.8937640496
 31
0.0
 11
57.3664872884
 21
23.8710857308
 31
0.0
 11
57.4503098068
 21
23.862599179
 31
0.0
  0
SPLINE
  5
549
100
AcDbEntity
  8
RACCORDO
100
AcDbSpline
 62
253
  6
CONTINUOUS
 70
0
 71
3
 72
11
 73
7
 74
5
 42
0.0000001
 43
0.0000001
 44
0.0000000001
 12
0.0012232491
 22
-0.3641909974
 32
0.0
 13
0.3641918961
 23
-0.0009174701
 33
0.0
 40
0.0
 40
0.0
 40
0.0
 40
0.0
 40
0.2331625878
 40
0.4766705428
 40
0.7338113025
 40
1.0
 40
1.0
 40
1.0
 40
1.0
 10
57.2054046387
 20
24.5842870155
 30
0.0
 10
57.2054997107
 20
24.555981777
 30
0.0
 10
57.2194293025
 20
24.4974385336
 30
0.0
 10
57.2763618327
 20
24.4257774376
 30
0.0
 10
57.3590298663
 20
24.37877915
 30
0.0
 10
57.4230858191
 20
24.3678620712
 30
0.0
 10
57.4554004079
 20
24.3677806645
 30
0.0
 11
57.2054046387
 21
24.5842870155
 31
0.0
 11
57.2246427237
 21
24.5015787562
 31
0.0
 11
57.2788832501
 21
24.4314160856
 31
0.0
 11
57.3598987526
 21
24.3844416169
 31
0.0
 11
57.4554004079
 21
24.3677806645
 31
0.0
  0
SPLINE
  5
54A
100
AcDbEntity
  8
RACCORDO
100
AcDbSpline
 62
253
  6
CONTINUOUS
 70
0
 71
3
 72
11
 73
7
 74
5
 42
0.0000001
 43
0.0000001
 44
0.0000000001
 12
-0.0012232491
 22
-0.3641909974
 32
0.0
 13
-0.3641918961
 23
-0.0009174701
 33
0.0
 40
0.0
 40
0.0
 40
0.0
 40
0.0
 40
0.2331625878
 40
0.4766705428
 40
0.7338113025
 40
1.0
 40
1.0
 40
1.0
 40
1.0
 10
40.6792074812
 20
24.5842870155
 30
0.0
 10
40.6791124093
 20
24.555981777
 30
0.0
 10
40.6651828175
 20
24.4974385336
 30
0.0
 10
40.6082502872
 20
24.4257774376
 30
0.0
 10
40.5255822536
 20
24.37877915
 30
0.0
 10
40.4615263009
 20
24.3678620712
 30
0.0
 10
40.429211712
 20
24.3677806645
 30
0.0
 11
40.6792074812
 21
24.5842870155
 31
0.0
 11
40.6599693962
 21
24.5015787562
 31
0.0
 11
40.6057288698
 21
24.4314160856
 31
0.0
 11
40.5247133674
 21
24.3844416169
 31
0.0
 11
40.429211712
 21
24.3677806645
 31
0.0
  0
SPLINE
  5
54B
100
AcDbEntity
  8
RACCORDO
100
AcDbSpline
 62
7
  6
CONTINUOUS
 70
0
 71
3
 72
12
 73
8
 74
6
 42
0.0000001
 43
0.0000001
 44
0.0000000001
 12
-0.00316672
 22
-0.3142672
 32
0.0
 13
-0.3142831544
 23
0.0
 33
0.0
 40
0.0
 40
0.0
 40
0.0
 40
0.0
 40
0.1357657081
 40
0.2967195393
 40
0.494990308
 40
0.7319263554
 40
1.0
 40
1.0
 40
1.0
 40
1.0
 10
40.6850253111
 20
24.0069367463
 30
0.0
 10
40.6848820004
 20
23.99271451
 30
0.0
 10
40.6759686722
 20
23.9614501716
 30
0.0
 10
40.6407753317
 20
23.9217763069
 30
0.0
 10
40.5863998693
 20
23.8895960014
 30
0.0
 10
40.5154490192
 20
23.867835252
 30
0.0
 10
40.46238599
 20
23.862599179
 30
0.0
 10
40.4343023131
 20
23.862599179
 30
0.0
 11
40.6850253111
 21
24.0069367463
 31
0.0
 11
40.6741746827
 21
23.9656705766
 31
0.0
 11
40.6419782351
 21
23.9266546972
 31
0.0
 11
40.5890524801
 21
23.8937640496
 31
0.0
 11
40.5181248316
 21
23.8710857308
 31
0.0
 11
40.4343023131
 21
23.862599179
 31
0.0
  0
SPLINE
  5
54C
100
AcDbEntity
  8
RACCORDO
100
AcDbSpline
 62
7
  6
CONTINUOUS
 70
0
 71
3
 72
10
 73
6
 74
4
 42
0.0000001
 43
0.0000001
 44
0.0000000001
 12
-0.0343729863
 22
0.0031021255
 32
0.0
 13
-0.0037555946
 23
0.0343077379
 33
0.0
 40
0.0
 40
0.0
 40
0.0
 40
0.0
 40
0.5359036063
 40
0.8695586281
 40
1.0
 40
1.0
 40
1.0
 40
1.0
 10
38.33339072
 20
23.0678602868
 30
0.0
 10
38.3272505176
 20
23.0684144335
 30
0.0
 10
38.3165844101
 20
23.0691668368
 30
0.0
 10
38.3069630243
 20
23.0708086888
 30
0.0
 10
38.2997501038
 20
23.0718686934
 30
0.0
 10
38.2995868089
 20
23.0733604096
 30
0.0
 11
38.33339072
 21
23.0678602868
 31
0.0
 11
38.3149770914
 21
23.0695983213
 31
0.0
 11
38.303587647
 21
23.0712963759
 31
0.0
 11
38.2995868089
 21
23.0733604096
 31
0.0
  0
SPLINE
  5
54D
100
AcDbEntity
  8
RACCORDO
100
AcDbSpline
 62
253
  6
CONTINUOUS
 70
0
 71
3
 72
14
 73
10
 74
8
 42
0.0000001
 43
0.0000001
 44
0.0000000001
 12
0.0006914029
 22
-0.9578595697
 32
0.0
 13
0.3021660321
 23
-0.908950561
 33
0.0
 40
0.0
 40
0.0
 40
0.0
 40
0.0
 40
0.2168469207
 40
0.4231424096
 40
0.6088623881
 40
0.7654402735
 40
0.8860923068
 40
0.9654188094
 40
1.0
 40
1.0
 40
1.0
 40
1.0
 10
82.4249790991
 20
-19.8019564083
 30
0.0
 10
82.4250290753
 20
-19.8711927077
 30
0.0
 10
82.4253563801
 20
-20.0063000466
 30
0.0
 10
82.4266425487
 20
-20.2006828051
 30
0.0
 10
82.4283790808
 20
-20.375879864
 30
0.0
 10
82.4312808576
 20
-20.5235363309
 30
0.0
 10
82.4329789621
 20
-20.6376936909
 30
0.0
 10
82.4382146099
 20
-20.7118397185
 30
0.0
 10
82.4380227827
 20
-20.7489834756
 30
0.0
 10
82.4415058697
 20
-20.7594610064
 30
0.0
 11
82.4249790991
 21
-19.8019564083
 31
0.0
 11
82.4255133301
 21
-20.0096646736
 31
0.0
 11
82.4268003296
 21
-20.207262642
 31
0.0
 11
82.4287839627
 21
-20.3851452873
 31
0.0
 11
82.4313729033
 21
-20.5351026056
 31
0.0
 11
82.4344539119
 21
-20.6506292636
 31
0.0
 11
82.4378872375
 21
-20.726535326
 31
0.0
 11
82.4415058697
 21
-20.7594610064
 31
0.0
  0
SPLINE
  5
54E
100
AcDbEntity
  8
RACCORDO
100
AcDbSpline
 62
253
  6
CONTINUOUS
 70
0
 71
3
 72
14
 73
10
 74
8
 42
0.0000001
 43
0.0000001
 44
0.0000000001
 12
0.0006935968
 22
-1.4364936565
 32
0.0
 13
0.3112726358
 23
-1.4023636663
 33
0.0
 40
0.0
 40
0.0
 40
0.0
 40
0.0
 40
0.2176263047
 40
0.4236396711
 40
0.6090206243
 40
0.7653687024
 40
0.8859572765
 40
0.9653164266
 40
1.0
 40
1.0
 40
1.0
 40
1.0
 10
81.9250552515
 20
-19.8225188766
 30
0.0
 10
81.9251055665
 20
-19.9267251454
 30
0.0
 10
81.925432841
 20
-20.1295796567
 30
0.0
 10
81.9267248269
 20
-20.4211845661
 30
0.0
 10
81.9284485032
 20
-20.6834883919
 30
0.0
 10
81.9313785337
 20
-20.9047501023
 30
0.0
 10
81.9329899367
 20
-21.075579224
 30
0.0
 10
81.938390443
 20
-21.1874015612
 30
0.0
 10
81.9379833397
 20
-21.2425627794
 30
0.0
 10
81.9415820221
 20
-21.2587757738
 30
0.0
 11
81.9250552515
 21
-19.8225188766
 31
0.0
 11
81.9255926123
 21
-20.1351372575
 31
0.0
 11
81.9268797941
 21
-20.4310713866
 31
0.0
 11
81.9288607525
 21
-20.6973626128
 31
0.0
 11
81.9314449558
 21
-20.9219407938
 31
0.0
 11
81.9345214413
 21
-21.0951382142
 31
0.0
 11
81.9379505193
 21
-21.2090855584
 31
0.0
 11
81.9415820221
 21
-21.2587757738
 31
0.0
  0
SPLINE
  5
54F
100
AcDbEntity
  8
RACCORDO
100
AcDbSpline
 62
253
  6
CONTINUOUS
 70
0
 71
3
 72
12
 73
8
 74
6
 42
0.0000001
 43
0.0000001
 44
0.0000000001
 12
-0.1958004284
 22
-0.4611648738
 32
0.0
 13
-0.5010097
 23
-0.0003593043
 33
0.0
 40
0.0
 40
0.0
 40
0.0
 40
0.0
 40
0.0545564662
 40
0.1985472254
 40
0.4189828183
 40
0.6949150736
 40
1.0
 40
1.0
 40
1.0
 40
1.0
 10
82.4249790989
 20
-19.8019564083
 30
0.0
 10
82.4214183724
 20
-19.8103429169
 30
0.0
 10
82.3773501925
 20
-19.8049120676
 30
0.0
 10
82.3172839628
 20
-19.8181793568
 30
0.0
 10
82.2054333107
 20
-19.8178495758
 30
0.0
 10
82.0735345213
 20
-19.8222527132
 30
0.0
 10
81.9760054207
 20
-19.8224816254
 30
0.0
 10
81.9250552515
 20
-19.8225181648
 30
0.0
 11
82.4249790989
 21
-19.8019564083
 31
0.0
 11
82.3983785684
 21
-19.8082430989
 31
0.0
 11
82.326462113
 21
-19.8139278489
 31
0.0
 11
82.2161150097
 21
-19.8184664004
 31
0.0
 11
82.0779018837
 21
-19.8214242327
 31
0.0
 11
81.9250552515
 21
-19.8225181648
 31
0.0
  0
SPLINE
  5
550
100
AcDbEntity
  8
RACCORDO
100
AcDbSpline
 62
253
  6
CONTINUOUS
 70
0
 71
3
 72
10
 73
6
 74
4
 42
0.0000001
 43
0.0000001
 44
0.0000000001
 12
-0.0295164517
 22
-41.0838042493
 32
0.0
 13
0.0295164586
 23
-41.0838042493
 33
0.0
 40
0.0
 40
0.0
 40
0.0
 40
0.0
 40
0.3332909898
 40
0.6667086223
 40
1.0
 40
1.0
 40
1.0
 40
1.0
 10
82.4249790991
 20
21.2818553047
 30
0.0
 10
82.4216999099
 20
16.7175680443
 30
0.0
 10
82.4173298216
 20
7.587257472
 30
0.0
 10
82.4173298188
 20
-6.1073479489
 30
0.0
 10
82.4216999054
 20
-15.2376638345
 30
0.0
 10
82.4249790991
 20
-19.8019564083
 30
0.0
 11
82.4249790991
 21
21.2818553047
 31
0.0
 11
82.4184227583
 21
7.5889915592
 31
0.0
 11
82.4184227547
 21
-6.1090767227
 31
0.0
 11
82.4249790991
 21
-19.8019564083
 31
0.0
  0
SPLINE
  5
551
100
AcDbEntity
  8
RACCORDO
100
AcDbSpline
 62
253
  6
CONTINUOUS
 70
0
 71
3
 72
12
 73
8
 74
6
 42
0.0000001
 43
0.0000001
 44
0.0000000001
 12
-0.1955558682
 22
0.4612687965
 32
0.0
 13
-0.5010098512
 23
0.0003593455
 33
0.0
 40
0.0
 40
0.0
 40
0.0
 40
0.0
 40
0.0545505221
 40
0.1985386441
 40
0.4189749032
 40
0.6949104035
 40
1.0
 40
1.0
 40
1.0
 40
1.0
 10
82.4249790991
 20
21.2818553047
 30
0.0
 10
82.4214232075
 20
21.2902427892
 30
0.0
 10
82.3773474754
 20
21.2848099204
 30
0.0
 10
82.3172909777
 20
21.2980796129
 30
0.0
 10
82.2054356375
 20
21.2977486527
 30
0.0
 10
82.0735371206
 20
21.3021524246
 30
0.0
 10
81.9760062159
 20
21.3023812285
 30
0.0
 10
81.9250552515
 20
21.3024177726
 30
0.0
 11
82.4249790991
 21
21.2818553047
 31
0.0
 11
82.3983816611
 21
21.2881421682
 31
0.0
 11
82.3264665242
 21
21.2938271083
 31
0.0
 11
82.2161190606
 21
21.2983658316
 31
0.0
 11
82.0779042692
 21
21.3013237871
 31
0.0
 11
81.9250552515
 21
21.3024177726
 31
0.0
  0
SPLINE
  5
552
100
AcDbEntity
  8
RACCORDO
100
AcDbSpline
 62
253
  6
CONTINUOUS
 70
0
 71
3
 72
14
 73
10
 74
8
 42
0.0000001
 43
0.0000001
 44
0.0000000001
 12
-0.3016781501
 22
-0.9091125966
 32
0.0
 13
-0.0006898265
 23
-0.9578595637
 33
0.0
 40
0.0
 40
0.0
 40
0.0
 40
0.0
 40
0.0345955801
 40
0.1139719302
 40
0.2347423917
 40
0.391363595
 40
0.5769918897
 40
0.7832113385
 40
1.0
 40
1.0
 40
1.0
 40
1.0
 10
82.4415058697
 20
22.2393599028
 30
0.0
 10
82.4380269595
 20
22.2288761435
 30
0.0
 10
82.4382080643
 20
22.1917152559
 30
0.0
 10
82.4329782725
 20
22.117508375
 30
0.0
 10
82.4312766042
 20
22.0032846724
 30
0.0
 10
82.428377385
 20
21.8556052281
 30
0.0
 10
82.4266414763
 20
21.6804481277
 30
0.0
 10
82.4253563014
 20
21.4861374413
 30
0.0
 10
82.4250289479
 20
21.3510730022
 30
0.0
 10
82.4249790991
 20
21.2818553047
 30
0.0
 11
82.4415058697
 21
22.2393599028
 31
0.0
 11
82.4378862623
 21
22.2064204636
 31
0.0
 11
82.4344516734
 21
22.1304666632
 31
0.0
 11
82.431369157
 21
22.0148265683
 31
0.0
 11
82.4287809534
 21
21.8648277398
 31
0.0
 11
82.426799284
 21
21.6870328997
 31
0.0
 11
82.4255131019
 21
21.4895077646
 31
0.0
 11
82.4249790991
 21
21.2818553047
 31
0.0
  0
SPLINE
  5
553
100
AcDbEntity
  8
RACCORDO
100
AcDbSpline
 62
253
  6
CONTINUOUS
 70
0
 71
3
 72
14
 73
10
 74
8
 42
0.0000001
 43
0.0000001
 44
0.0000000001
 12
-0.3109430753
 22
-1.4024367798
 32
0.0
 13
-0.0006914407
 23
-1.4364936614
 33
0.0
 40
0.0
 40
0.0
 40
0.0
 40
0.0
 40
0.0346869806
 40
0.1140439298
 40
0.2346408464
 40
0.3909910539
 40
0.5763624446
 40
0.7823861899
 40
1.0
 40
1.0
 40
1.0
 40
1.0
 10
81.9415820221
 20
22.7386746701
 30
0.0
 10
81.9379867967
 20
22.7224592377
 30
0.0
 10
81.9383861598
 20
22.6672991755
 30
0.0
 10
81.9329919072
 20
22.5554708509
 30
0.0
 10
81.9313771557
 20
22.3846384706
 30
0.0
 10
81.9284485543
 20
22.1633760392
 30
0.0
 10
81.9267248472
 20
21.9010708993
 30
0.0
 10
81.9254329148
 20
21.6094715504
 30
0.0
 10
81.9251054072
 20
21.4066180593
 30
0.0
 10
81.9250552515
 20
21.302417773
 30
0.0
 11
81.9415820221
 21
22.7386746701
 31
0.0
 11
81.937950245
 21
22.6889795672
 31
0.0
 11
81.9345213049
 21
22.5750353816
 31
0.0
 11
81.9314445233
 21
22.40182598
 31
0.0
 11
81.9288604259
 21
22.1772447383
 31
0.0
 11
81.9268798762
 21
21.9109672451
 31
0.0
 11
81.9255925911
 21
21.6150182062
 31
0.0
 11
81.9250552515
 21
21.302417773
 31
0.0
  0
SPLINE
  5
554
100
AcDbEntity
  8
RACCORDO
100
AcDbSpline
 62
7
  6
CONTINUOUS
 70
0
 71
3
 72
12
 73
8
 74
6
 42
0.0000001
 43
0.0000001
 44
0.0000000001
 12
0.00316672
 22
-0.3142672
 32
0.0
 13
0.3142831544
 23
-0.0
 33
0.0
 40
0.0
 40
0.0
 40
0.0
 40
0.0
 40
0.1357657081
 40
0.2967195393
 40
0.494990308
 40
0.7319263554
 40
1.0
 40
1.0
 40
1.0
 40
1.0
 10
38.2995868089
 20
24.0069367463
 30
0.0
 10
38.2997301195
 20
23.99271451
 30
0.0
 10
38.3086434478
 20
23.9614501716
 30
0.0
 10
38.3438367882
 20
23.9217763069
 30
0.0
 10
38.3982122506
 20
23.8895960014
 30
0.0
 10
38.4691631007
 20
23.867835252
 30
0.0
 10
38.5222261299
 20
23.862599179
 30
0.0
 10
38.5503098068
 20
23.862599179
 30
0.0
 11
38.2995868089
 21
24.0069367463
 31
0.0
 11
38.3104374372
 21
23.9656705766
 31
0.0
 11
38.3426338849
 21
23.9266546972
 31
0.0
 11
38.3955596398
 21
23.8937640496
 31
0.0
 11
38.4664872884
 21
23.8710857308
 31
0.0
 11
38.5503098068
 21
23.862599179
 31
0.0
  0
SPLINE
  5
555
100
AcDbEntity
  8
RACCORDO
100
AcDbSpline
 62
253
  6
CONTINUOUS
 70
0
 71
3
 72
11
 73
7
 74
5
 42
0.0000001
 43
0.0000001
 44
0.0000000001
 12
0.0012232491
 22
-0.3641909974
 32
0.0
 13
0.3641918961
 23
-0.0009174701
 33
0.0
 40
0.0
 40
0.0
 40
0.0
 40
0.0
 40
0.2331625878
 40
0.4766705428
 40
0.7338113025
 40
1.0
 40
1.0
 40
1.0
 40
1.0
 10
38.3054046387
 20
24.5842870155
 30
0.0
 10
38.3054997107
 20
24.555981777
 30
0.0
 10
38.3194293025
 20
24.4974385336
 30
0.0
 10
38.3763618327
 20
24.4257774376
 30
0.0
 10
38.4590298663
 20
24.37877915
 30
0.0
 10
38.5230858191
 20
24.3678620712
 30
0.0
 10
38.5554004079
 20
24.3677806645
 30
0.0
 11
38.3054046387
 21
24.5842870155
 31
0.0
 11
38.3246427237
 21
24.5015787562
 31
0.0
 11
38.3788832501
 21
24.4314160856
 31
0.0
 11
38.4598987526
 21
24.3844416169
 31
0.0
 11
38.5554004079
 21
24.3677806645
 31
0.0
  0
SPLINE
  5
556
100
AcDbEntity
  8
RACCORDO
100
AcDbSpline
 62
253
  6
CONTINUOUS
 70
0
 71
3
 72
14
 73
10
 74
8
 42
0.0000001
 43
0.0000001
 44
0.0000000001
 12
0.3021661164
 22
0.908950533
 32
0.0
 13
0.0006914029
 23
0.9578595697
 33
0.0
 40
0.0
 40
0.0
 40
0.0
 40
0.0
 40
0.0345811906
 40
0.113907693
 40
0.2345597265
 40
0.3911376119
 40
0.5768575905
 40
0.7831530793
 40
1.0
 40
1.0
 40
1.0
 40
1.0
 10
37.9431062502
 20
-20.7594610064
 30
0.0
 10
37.9465893383
 20
-20.7489834759
 30
0.0
 10
37.946397509
 20
-20.7118397182
 30
0.0
 10
37.9516331585
 20
-20.6376936911
 30
0.0
 10
37.9533312621
 20
-20.5235363308
 30
0.0
 10
37.9562330392
 20
-20.375879864
 30
0.0
 10
37.9579695712
 20
-20.2006828051
 30
0.0
 10
37.9592557399
 20
-20.0063000466
 30
0.0
 10
37.9595830447
 20
-19.8711927077
 30
0.0
 10
37.9596330209
 20
-19.8019564083
 30
0.0
 11
37.9431062502
 21
-20.7594610064
 31
0.0
 11
37.9467248824
 21
-20.7265353259
 31
0.0
 11
37.950158208
 21
-20.6506292638
 31
0.0
 11
37.9532392166
 21
-20.5351026055
 31
0.0
 11
37.9558281573
 21
-20.3851452873
 31
0.0
 11
37.9578117903
 21
-20.207262642
 31
0.0
 11
37.9590987898
 21
-20.0096646735
 31
0.0
 11
37.9596330209
 21
-19.8019564083
 31
0.0
  0
SPLINE
  5
557
100
AcDbEntity
  8
RACCORDO
100
AcDbSpline
 62
253
  6
CONTINUOUS
 70
0
 71
3
 72
14
 73
10
 74
8
 42
0.0000001
 43
0.0000001
 44
0.0000000001
 12
0.3112726857
 22
1.4023636552
 32
0.0
 13
0.000693597
 23
1.4364936565
 33
0.0
 40
0.0
 40
0.0
 40
0.0
 40
0.0
 40
0.0346835734
 40
0.1140427235
 40
0.2346312976
 40
0.3909793757
 40
0.5763603289
 40
0.7823736953
 40
1.0
 40
1.0
 40
1.0
 40
1.0
 10
38.4430300978
 20
-21.2587757738
 30
0.0
 10
38.4466287808
 20
-21.2425627795
 30
0.0
 10
38.4462216763
 20
-21.187401561
 30
0.0
 10
38.4516221836
 20
-21.0755792241
 30
0.0
 10
38.4532335861
 20
-20.9047501023
 30
0.0
 10
38.4561636168
 20
-20.6834883919
 30
0.0
 10
38.457887293
 20
-20.4211845661
 30
0.0
 10
38.459179279
 20
-20.1295796567
 30
0.0
 10
38.4595065535
 20
-19.9267251454
 30
0.0
 10
38.4595568684
 20
-19.8225188766
 30
0.0
 11
38.4430300978
 21
-21.2587757738
 31
0.0
 11
38.4466616006
 21
-21.2090855584
 31
0.0
 11
38.4500906787
 21
-21.0951382142
 31
0.0
 11
38.4531671642
 21
-20.9219407938
 31
0.0
 11
38.4557513674
 21
-20.6973626128
 31
0.0
 11
38.4577323258
 21
-20.4310713866
 31
0.0
 11
38.4590195077
 21
-20.1351372575
 31
0.0
 11
38.4595568684
 21
-19.8225188766
 31
0.0
  0
SPLINE
  5
558
100
AcDbEntity
  8
RACCORDO
100
AcDbSpline
 62
253
  6
CONTINUOUS
 70
0
 71
3
 72
10
 73
6
 74
4
 42
0.0000001
 43
0.0000001
 44
0.0000000001
 12
0.0295164586
 22
41.0838042493
 32
0.0
 13
-0.0295164517
 23
41.0838042493
 33
0.0
 40
0.0
 40
0.0
 40
0.0
 40
0.0
 40
0.3332913777
 40
0.6667090102
 40
1.0
 40
1.0
 40
1.0
 40
1.0
 10
37.9596330209
 20
-19.8019564083
 30
0.0
 10
37.9629122146
 20
-15.2376638345
 30
0.0
 10
37.9672823012
 20
-6.1073479489
 30
0.0
 10
37.9672822983
 20
7.587257472
 30
0.0
 10
37.96291221
 20
16.7175680443
 30
0.0
 10
37.9596330209
 20
21.2818553047
 30
0.0
 11
37.9596330209
 21
-19.8019564083
 31
0.0
 11
37.9661893652
 21
-6.1090767227
 31
0.0
 11
37.9661893616
 21
7.5889915592
 31
0.0
 11
37.9596330209
 21
21.2818553047
 31
0.0
  0
SPLINE
  5
559
100
AcDbEntity
  8
RACCORDO
100
AcDbSpline
 62
253
  6
CONTINUOUS
 70
0
 71
3
 72
12
 73
8
 74
6
 42
0.0000001
 43
0.0000001
 44
0.0000000001
 12
0.1955558123
 22
-0.4612688202
 32
0.0
 13
0.5010098513
 23
-0.0003593474
 33
0.0
 40
0.0
 40
0.0
 40
0.0
 40
0.0
 40
0.0545505207
 40
0.1985386422
 40
0.4189749015
 40
0.6949104026
 40
1.0
 40
1.0
 40
1.0
 40
1.0
 10
37.9596330209
 20
-19.8019564083
 30
0.0
 10
37.9631889113
 20
-19.8103438931
 30
0.0
 10
38.0072646452
 20
-19.8049110237
 30
0.0
 10
38.0673211407
 20
-19.8181807167
 30
0.0
 10
38.179176482
 20
-19.8178497561
 30
0.0
 10
38.3110749988
 20
-19.8222535279
 30
0.0
 10
38.4086059038
 20
-19.822482332
 30
0.0
 10
38.4595568684
 20
-19.8225188764
 30
0.0
 11
37.9596330209
 21
-19.8019564083
 31
0.0
 11
37.9862304581
 21
-19.8082432719
 31
0.0
 11
38.0581455948
 21
-19.8139282119
 31
0.0
 11
38.1684930586
 21
-19.8184669351
 31
0.0
 11
38.3067078502
 21
-19.8214248905
 31
0.0
 11
38.4595568684
 21
-19.8225188764
 31
0.0
  0
SPLINE
  5
55A
100
AcDbEntity
  8
RACCORDO
100
AcDbSpline
 62
253
  6
CONTINUOUS
 70
0
 71
3
 72
14
 73
10
 74
8
 42
0.0000001
 43
0.0000001
 44
0.0000000001
 12
-0.0006898262
 22
0.9578595637
 32
0.0
 13
-0.3016781531
 23
0.9091125957
 33
0.0
 40
0.0
 40
0.0
 40
0.0
 40
0.0
 40
0.2167886615
 40
0.4230081104
 40
0.6086364049
 40
0.7652576083
 40
0.8860280697
 40
0.9654044199
 40
1.0
 40
1.0
 40
1.0
 40
1.0
 10
37.9596330209
 20
21.2818553047
 30
0.0
 10
37.959583172
 20
21.3510730022
 30
0.0
 10
37.9592558185
 20
21.4861374413
 30
0.0
 10
37.9579706437
 20
21.6804481277
 30
0.0
 10
37.9562347349
 20
21.8556052281
 30
0.0
 10
37.9533355157
 20
22.0032846723
 30
0.0
 10
37.9516338475
 20
22.117508375
 30
0.0
 10
37.9464040556
 20
22.1917152559
 30
0.0
 10
37.9465851605
 20
22.2288761436
 30
0.0
 10
37.9431062502
 20
22.2393599028
 30
0.0
 11
37.9596330209
 21
21.2818553047
 31
0.0
 11
37.959099018
 21
21.4895077646
 31
0.0
 11
37.9578128359
 21
21.6870328998
 31
0.0
 11
37.9558311665
 21
21.8648277398
 31
0.0
 11
37.9532429629
 21
22.0148265683
 31
0.0
 11
37.9501604466
 21
22.1304666632
 31
0.0
 11
37.9467258576
 21
22.2064204635
 31
0.0
 11
37.9431062502
 21
22.2393599028
 31
0.0
  0
SPLINE
  5
55B
100
AcDbEntity
  8
RACCORDO
100
AcDbSpline
 62
253
  6
CONTINUOUS
 70
0
 71
3
 72
14
 73
10
 74
8
 42
0.0000001
 43
0.0000001
 44
0.0000000001
 12
-0.0006914404
 22
1.4364936614
 32
0.0
 13
-0.3109430367
 23
1.4024367884
 33
0.0
 40
0.0
 40
0.0
 40
0.0
 40
0.0
 40
0.2176138101
 40
0.4236375554
 40
0.6090089461
 40
0.7653591536
 40
0.8859560702
 40
0.9653130194
 40
1.0
 40
1.0
 40
1.0
 40
1.0
 10
38.4595568684
 20
21.302417773
 30
0.0
 10
38.4595067128
 20
21.4066180593
 30
0.0
 10
38.459179205
 20
21.6094715504
 30
0.0
 10
38.4578872727
 20
21.9010708993
 30
0.0
 10
38.4561635655
 20
22.1633760392
 30
0.0
 10
38.4532349644
 20
22.3846384706
 30
0.0
 10
38.4516202124
 20
22.5554708508
 30
0.0
 10
38.4462259607
 20
22.6672991756
 30
0.0
 10
38.4466253228
 20
22.7224592376
 30
0.0
 10
38.4430300978
 20
22.7386746701
 30
0.0
 11
38.4595568684
 21
21.302417773
 31
0.0
 11
38.4590195288
 21
21.6150182062
 31
0.0
 11
38.4577322438
 21
21.9109672451
 31
0.0
 11
38.4557516941
 21
22.1772447383
 31
0.0
 11
38.4531675966
 21
22.40182598
 31
0.0
 11
38.4500908151
 21
22.5750353816
 31
0.0
 11
38.446661875
 21
22.6889795672
 31
0.0
 11
38.4430300978
 21
22.7386746701
 31
0.0
  0
SPLINE
  5
55C
100
AcDbEntity
  8
RACCORDO
100
AcDbSpline
 62
253
  6
CONTINUOUS
 70
0
 71
3
 72
12
 73
8
 74
6
 42
0.0000001
 43
0.0000001
 44
0.0000000001
 12
0.1958823053
 22
0.4611300415
 32
0.0
 13
0.5010096442
 23
0.0003593348
 33
0.0
 40
0.0
 40
0.0
 40
0.0
 40
0.0
 40
0.0545584362
 40
0.1985500723
 40
0.4189854453
 40
0.6949166239
 40
1.0
 40
1.0
 40
1.0
 40
1.0
 10
37.9596330212
 20
21.2818553047
 30
0.0
 10
37.9631953652
 20
21.2902414826
 30
0.0
 10
38.007261018
 20
21.2848112779
 30
0.0
 10
38.0673304956
 20
21.2980777717
 30
0.0
 10
38.1791795819
 20
21.2977483717
 30
0.0
 10
38.311078464
 20
21.3021513041
 30
0.0
 10
38.4086069639
 20
21.3023802581
 30
0.0
 10
38.4595568684
 20
21.3024168005
 30
0.0
 11
37.9596330212
 21
21.2818553047
 31
0.0
 11
37.9862345806
 21
21.2881419191
 31
0.0
 11
38.0581514748
 21
21.293826593
 31
0.0
 11
38.1684984581
 21
21.2983650819
 31
0.0
 11
38.30671103
 21
21.3013228759
 31
0.0
 11
38.4595568684
 21
21.3024168005
 31
0.0
  0
SPLINE
  5
55D
100
AcDbEntity
  8
RACCORDO
100
AcDbSpline
 62
7
  6
CONTINUOUS
 70
0
 71
3
 72
12
 73
8
 74
6
 42
0.0000001
 43
0.0000001
 44
0.0000000001
 12
-0.00316672
 22
0.3142672
 32
0.0
 13
-0.3142831544
 23
-0.0
 33
0.0
 40
0.0
 40
0.0
 40
0.0
 40
0.0
 40
0.1357657081
 40
0.2967195393
 40
0.494990308
 40
0.7319263554
 40
1.0
 40
1.0
 40
1.0
 40
1.0
 10
63.1850253111
 20
-22.5270378499
 30
0.0
 10
63.1848820004
 20
-22.5128156136
 30
0.0
 10
63.1759686722
 20
-22.4815512752
 30
0.0
 10
63.1407753317
 20
-22.4418774106
 30
0.0
 10
63.0863998693
 20
-22.4096971051
 30
0.0
 10
63.0154490192
 20
-22.3879363557
 30
0.0
 10
62.96238599
 20
-22.3827002826
 30
0.0
 10
62.9343023131
 20
-22.3827002826
 30
0.0
 11
63.1850253111
 21
-22.5270378499
 31
0.0
 11
63.1741746827
 21
-22.4857716803
 31
0.0
 11
63.1419782351
 21
-22.4467558008
 31
0.0
 11
63.0890524801
 21
-22.4138651532
 31
0.0
 11
63.0181248316
 21
-22.3911868345
 31
0.0
 11
62.9343023131
 21
-22.3827002826
 31
0.0
  0
SPLINE
  5
55E
100
AcDbEntity
  8
RACCORDO
100
AcDbSpline
 62
7
  6
CONTINUOUS
 70
0
 71
3
 72
11
 73
7
 74
5
 42
0.0000001
 43
0.0000001
 44
0.0000000001
 12
-0.4494325074
 22
-0.003465227
 32
0.0
 13
-0.379851086
 23
-0.2402389207
 33
0.0
 40
0.0
 40
0.0
 40
0.0
 40
0.0
 40
0.2018563251
 40
0.4484393042
 40
0.7201275271
 40
1.0
 40
1.0
 40
1.0
 40
1.0
 10
53.2385133736
 20
24.535288415
 30
0.0
 10
53.2082731089
 20
24.5350552557
 30
0.0
 10
53.1427432072
 20
24.5125784137
 30
0.0
 10
53.047376913
 20
24.4635198747
 30
0.0
 10
52.9446124671
 20
24.4018405792
 30
0.0
 10
52.8748253043
 20
24.3577038866
 30
0.0
 10
52.8393886833
 20
24.3352917996
 30
0.0
 11
53.2385133736
 21
24.535288415
 31
0.0
 11
53.1505237821
 21
24.5131844884
 31
0.0
 11
53.0511327899
 21
24.4641562661
 31
0.0
 11
52.9459643415
 21
24.4021059507
 31
0.0
 11
52.8393886833
 21
24.3352917996
 31
0.0
  0
SPLINE
  5
55F
100
AcDbEntity
  8
RACCORDO
100
AcDbSpline
 62
253
  6
CONTINUOUS
 70
0
 71
3
 72
11
 73
7
 74
5
 42
0.0000001
 43
0.0000001
 44
0.0000000001
 12
-0.0012232543
 22
0.3641925536
 32
0.0
 13
-0.3641934522
 23
0.000917474
 33
0.0
 40
0.0
 40
0.0
 40
0.0
 40
0.0
 40
0.2320250085
 40
0.47587978
 40
0.7334116474
 40
1.0
 40
1.0
 40
1.0
 40
1.0
 10
63.1792074812
 20
-23.1043881191
 30
0.0
 10
63.1791128727
 20
-23.076220859
 30
0.0
 10
63.1652808192
 20
-23.0177809943
 30
0.0
 10
63.1084886026
 20
-22.9460525369
 30
0.0
 10
63.0257295987
 20
-22.8989138056
 30
0.0
 10
62.9615749562
 20
-22.8879632975
 30
0.0
 10
62.929211712
 20
-22.8878817682
 30
0.0
 11
63.1792074812
 21
-23.1043881191
 31
0.0
 11
63.1601527064
 21
-23.0220622605
 31
0.0
 11
63.1059508774
 21
-22.9517096974
 31
0.0
 11
63.0248527607
 21
-22.9045930153
 31
0.0
 11
62.929211712
 21
-22.8878817682
 31
0.0
  0
SPLINE
  5
560
100
AcDbEntity
  8
RACCORDO
100
AcDbSpline
 62
7
  6
CONTINUOUS
 70
0
 71
3
 72
11
 73
7
 74
5
 42
0.0000001
 43
0.0000001
 44
0.0000000001
 12
-0.2499981745
 22
0.0014544468
 32
0.0
 13
0.0014542391
 23
0.2499981757
 33
0.0
 40
0.0
 40
0.0
 40
0.0
 40
0.0
 40
0.0761490403
 40
0.2929191934
 40
0.6173303875
 40
1.0
 40
1.0
 40
1.0
 40
1.0
 10
-8.7239101562
 20
-23.7600505518
 30
0.0
 10
-8.7302558633
 20
-23.7600136336
 30
0.0
 10
-8.7162979791
 20
-23.7207130184
 30
0.0
 10
-8.7292063107
 20
-23.6827403984
 30
0.0
 10
-8.7225295691
 20
-23.5989299507
 30
0.0
 10
-8.7240956539
 20
-23.5419436843
 30
0.0
 10
-8.7239101562
 20
-23.5100547826
 30
0.0
 11
-8.7239101562
 21
-23.7600505518
 31
0.0
 11
-8.7243559545
 21
-23.7410183289
 31
0.0
 11
-8.7245124857
 21
-23.6868254953
 31
0.0
 11
-8.7243559545
 21
-23.6057220675
 31
0.0
 11
-8.7239101562
 21
-23.5100547826
 31
0.0
  0
SPLINE
  5
561
100
AcDbEntity
  8
RACCORDO
100
AcDbSpline
 62
253
  6
CONTINUOUS
 70
0
 71
3
 72
11
 73
7
 74
5
 42
0.0000001
 43
0.0000001
 44
0.0000000001
 12
0.0014543976
 22
0.2499981764
 32
0.0
 13
-0.2499981761
 23
0.0014544468
 33
0.0
 40
0.0
 40
0.0
 40
0.0
 40
0.0
 40
0.3826696105
 40
0.7070808014
 40
0.9238509539
 40
1.0
 40
1.0
 40
1.0
 40
1.0
 10
-7.9724557234
 20
24.985581845
 30
0.0
 10
-7.9722702055
 20
25.0174707466
 30
0.0
 10
-7.9738362532
 20
25.0744570132
 30
0.0
 10
-7.9671595028
 20
25.1582674594
 30
0.0
 10
-7.9800677831
 20
25.1962400825
 30
0.0
 10
-7.9661100159
 20
25.2355406959
 30
0.0
 10
-7.9724557234
 20
25.2355776142
 30
0.0
 11
-7.9724557234
 21
24.985581845
 31
0.0
 11
-7.9720098737
 21
25.0812491297
 31
0.0
 11
-7.9718533124
 21
25.1623525572
 31
0.0
 11
-7.9720098737
 21
25.2165453909
 31
0.0
 11
-7.9724557234
 21
25.2355776142
 31
0.0
  0
SPLINE
  5
562
100
AcDbEntity
  8
RACCORDO
100
AcDbSpline
 62
7
  6
CONTINUOUS
 70
0
 71
3
 72
11
 73
7
 74
5
 42
0.0000001
 43
0.0000001
 44
0.0000000001
 12
-0.0014542391
 22
0.2499981757
 32
0.0
 13
0.2499981745
 23
0.0014544468
 33
0.0
 40
0.0
 40
0.0
 40
0.0
 40
0.0
 40
0.3826696125
 40
0.7070808066
 40
0.9238509597
 40
1.0
 40
1.0
 40
1.0
 40
1.0
 10
-8.7239101562
 20
24.989953679
 30
0.0
 10
-8.7240956539
 20
25.0218425806
 30
0.0
 10
-8.7225295691
 20
25.078828847
 30
0.0
 10
-8.7292063107
 20
25.1626392948
 30
0.0
 10
-8.7162979791
 20
25.2006119147
 30
0.0
 10
-8.7302558633
 20
25.2399125299
 30
0.0
 10
-8.7239101562
 20
25.2399494482
 30
0.0
 11
-8.7239101562
 21
24.989953679
 31
0.0
 11
-8.7243559545
 21
25.0856209638
 31
0.0
 11
-8.7245124857
 21
25.1667243916
 31
0.0
 11
-8.7243559545
 21
25.2209172253
 31
0.0
 11
-8.7239101562
 21
25.2399494482
 31
0.0
  0
SPLINE
  5
563
100
AcDbEntity
  8
RACCORDO
100
AcDbSpline
 62
253
  6
CONTINUOUS
 70
0
 71
3
 72
11
 73
7
 74
5
 42
0.0000001
 43
0.0000001
 44
0.0000000001
 12
-0.0014543976
 22
0.2499981764
 32
0.0
 13
0.2499981761
 23
0.0014544468
 33
0.0
 40
0.0
 40
0.0
 40
0.0
 40
0.0
 40
0.3826696105
 40
0.7070808014
 40
0.9238509539
 40
1.0
 40
1.0
 40
1.0
 40
1.0
 10
-10.9753645891
 20
24.9768551002
 30
0.0
 10
-10.975550107
 20
25.0087440018
 30
0.0
 10
-10.9739840593
 20
25.0657302684
 30
0.0
 10
-10.9806608097
 20
25.1495407147
 30
0.0
 10
-10.9677525294
 20
25.1875133377
 30
0.0
 10
-10.9817102966
 20
25.2268139512
 30
0.0
 10
-10.9753645891
 20
25.2268508695
 30
0.0
 11
-10.9753645891
 21
24.9768551002
 31
0.0
 11
-10.9758104388
 21
25.072522385
 31
0.0
 11
-10.9759670001
 21
25.1536258125
 31
0.0
 11
-10.9758104388
 21
25.2078186462
 31
0.0
 11
-10.9753645891
 21
25.2268508695
 31
0.0
  0
SPLINE
  5
564
100
AcDbEntity
  8
RACCORDO
100
AcDbSpline
 62
7
  6
CONTINUOUS
 70
0
 71
3
 72
10
 73
6
 74
4
 42
0.0000001
 43
0.0000001
 44
0.0000000001
 12
-0.1240360505
 22
-0.0065920777
 32
0.0
 13
-0.1240408728
 23
-0.0065007067
 33
0.0
 40
0.0
 40
0.0
 40
0.0
 40
0.0
 40
0.347513582
 40
0.6843369617
 40
1.0
 40
1.0
 40
1.0
 40
1.0
 10
-9.9753645891
 20
23.0733604096
 30
0.0
 10
-9.9897326598
 20
23.0725967974
 30
0.0
 10
-10.0180357055
 20
23.0712553937
 30
0.0
 10
-10.0594077789
 20
23.0696462161
 30
0.0
 10
-10.086401592
 20
23.0685442977
 30
0.0
 10
-10.0994532982
 20
23.0678602868
 30
0.0
 11
-9.9753645891
 21
23.0733604096
 31
0.0
 11
-10.0184802569
 21
23.0712963759
 31
0.0
 11
-10.0602829855
 21
23.0695983213
 31
0.0
 11
-10.0994532982
 21
23.0678602868
 31
0.0
  0
SPLINE
  5
565
100
AcDbEntity
  8
RACCORDO
100
AcDbSpline
 62
253
  6
CONTINUOUS
 70
0
 71
3
 72
11
 73
7
 74
5
 42
0.0000001
 43
0.0000001
 44
0.0000000001
 12
-0.1246373069
 22
-0.2158854549
 32
0.0
 13
0.2158836282
 23
-0.1246404709
 33
0.0
 40
0.0
 40
0.0
 40
0.0
 40
0.0
 40
0.3828907181
 40
0.7072619023
 40
0.923914324
 40
1.0
 40
1.0
 40
1.0
 40
1.0
 10
-10.9753645891
 20
24.5842870155
 30
0.0
 10
-10.9912720784
 20
24.5567335032
 30
0.0
 10
-11.0180379807
 20
24.5065713213
 30
0.0
 10
-11.0652677727
 20
24.4372897802
 30
0.0
 10
-11.0727704837
 20
24.3980076907
 30
0.0
 10
-11.1043853735
 20
24.3709417827
 30
0.0
 10
-11.0989101562
 20
24.3677806645
 30
0.0
 11
-10.9753645891
 21
24.5842870155
 31
0.0
 11
-11.0230043009
 21
24.5015787562
 31
0.0
 11
-11.0631971755
 21
24.4314160856
 31
0.0
 11
-11.0898465633
 21
24.3844416169
 31
0.0
 11
-11.0989101562
 21
24.3677806645
 31
0.0
  0
SPLINE
  5
566
100
AcDbEntity
  8
RACCORDO
100
AcDbSpline
 62
7
  6
CONTINUOUS
 70
0
 71
3
 72
12
 73
8
 74
6
 42
0.0000001
 43
0.0000001
 44
0.0000000001
 12
-0.2489097554
 22
-0.1437117623
 32
0.0
 13
-0.2461279857
 23
-0.148442548
 33
0.0
 40
0.0
 40
0.0
 40
0.0
 40
0.0
 40
0.2869624875
 40
0.5578922054
 40
0.7858362466
 40
0.9424027397
 40
1.0
 40
1.0
 40
1.0
 40
1.0
 10
-9.9753645891
 20
24.0069367463
 30
0.0
 10
-9.9991738433
 20
23.993190118
 30
0.0
 10
-10.0454501454
 20
23.9664442792
 30
0.0
 10
-10.1106187775
 20
23.9287435715
 30
0.0
 10
-10.1649041961
 20
23.8971800437
 30
0.0
 10
-10.2015629171
 20
23.8759594214
 30
0.0
 10
-10.2191847237
 20
23.8654491403
 30
0.0
 10
-10.2239101562
 20
23.862599179
 30
0.0
 11
-9.9753645891
 21
24.0069367463
 31
0.0
 11
-10.0467771693
 21
23.9656705766
 31
0.0
 11
-10.1141679132
 21
23.9266546972
 31
0.0
 11
-10.1708287549
 21
23.8937640496
 31
0.0
 11
-10.2096964426
 21
23.8710857308
 31
0.0
 11
-10.2239101562
 21
23.862599179
 31
0.0
  0
SPLINE
  5
567
100
AcDbEntity
  8
RACCORDO
100
AcDbSpline
 62
253
  6
CONTINUOUS
 70
0
 71
3
 72
11
 73
7
 74
5
 42
0.0000001
 43
0.0000001
 44
0.0000000001
 12
0.1246373044
 22
-0.2158854507
 32
0.0
 13
-0.215883624
 23
-0.1246404684
 33
0.0
 40
0.0
 40
0.0
 40
0.0
 40
0.0
 40
0.3811215339
 40
0.7063727742
 40
0.9236829804
 40
1.0
 40
1.0
 40
1.0
 40
1.0
 10
-7.9724557234
 20
24.5842870155
 30
0.0
 10
-7.9566217365
 20
24.5568608174
 30
0.0
 10
-7.9298799524
 20
24.5067589282
 30
0.0
 10
-7.8826524374
 20
24.4374929248
 30
0.0
 10
-7.8751308846
 20
24.3980987459
 30
0.0
 10
-7.8434182913
 20
24.3709513942
 30
0.0
 10
-7.8489101562
 20
24.3677806645
 30
0.0
 11
-7.9724557234
 21
24.5842870155
 31
0.0
 11
-7.9250357242
 21
24.5019611569
 31
0.0
 11
-7.88473299
 21
24.4316085938
 31
0.0
 11
-7.8580019759
 21
24.3844919116
 31
0.0
 11
-7.8489101562
 21
24.3677806645
 31
0.0
  0
SPLINE
  5
568
100
AcDbEntity
  8
RACCORDO
100
AcDbSpline
 62
7
  6
CONTINUOUS
 70
0
 71
3
 72
10
 73
6
 74
4
 42
0.0000001
 43
0.0000001
 44
0.0000000001
 12
0.1240408728
 22
-0.0065007067
 32
0.0
 13
0.1240360505
 23
-0.0065920777
 33
0.0
 40
0.0
 40
0.0
 40
0.0
 40
0.0
 40
0.3156630383
 40
0.652486418
 40
1.0
 40
1.0
 40
1.0
 40
1.0
 10
-10.0994532982
 20
-21.5879613904
 30
0.0
 10
-10.086401592
 20
-21.5886454014
 30
0.0
 10
-10.0594077789
 20
-21.5897473197
 30
0.0
 10
-10.0180357055
 20
-21.5913564974
 30
0.0
 10
-9.9897326598
 20
-21.5926979011
 30
0.0
 10
-9.9753645891
 20
-21.5934615132
 30
0.0
 11
-10.0994532982
 21
-21.5879613904
 31
0.0
 11
-10.0602829855
 21
-21.589699425
 31
0.0
 11
-10.0184802569
 21
-21.5913974796
 31
0.0
 11
-9.9753645891
 21
-21.5934615132
 31
0.0
  0
SPLINE
  5
569
100
AcDbEntity
  8
RACCORDO
100
AcDbSpline
 62
7
  6
CONTINUOUS
 70
0
 71
3
 72
12
 73
8
 74
6
 42
0.0000001
 43
0.0000001
 44
0.0000000001
 12
-0.2489097542
 22
0.1437117616
 32
0.0
 13
-0.2461314079
 23
0.1484368582
 33
0.0
 40
0.0
 40
0.0
 40
0.0
 40
0.0
 40
0.2874701681
 40
0.5581272763
 40
0.7856651242
 40
0.9422058565
 40
1.0
 40
1.0
 40
1.0
 40
1.0
 10
-9.9753645891
 20
-22.5270378499
 30
0.0
 10
-9.9992159654
 20
-22.5132669018
 30
0.0
 10
-10.0455117579
 20
-22.4865097789
 30
0.0
 10
-10.110666103
 20
-22.4488171188
 30
0.0
 10
-10.1648932886
 20
-22.4172877219
 30
0.0
 10
-10.2015323312
 20
-22.3960780742
 30
0.0
 10
-10.2191685049
 20
-22.3855598763
 30
0.0
 10
-10.2239101562
 20
-22.3827002826
 30
0.0
 11
-9.9753645891
 21
-22.5270378499
 31
0.0
 11
-10.0469034806
 21
-22.4856986256
 31
0.0
 11
-10.1142263667
 21
-22.4467219198
 31
0.0
 11
-10.1707862387
 21
-22.4138898823
 31
0.0
 11
-10.2096476372
 21
-22.3912154768
 31
0.0
 11
-10.2239101562
 21
-22.3827002826
 31
0.0
  0
SPLINE
  5
56A
100
AcDbEntity
  8
RACCORDO
100
AcDbSpline
 62
253
  6
CONTINUOUS
 70
0
 71
3
 72
11
 73
7
 74
5
 42
0.0000001
 43
0.0000001
 44
0.0000000001
 12
-0.1246373044
 22
0.2158854507
 32
0.0
 13
0.215883624
 23
0.1246404684
 33
0.0
 40
0.0
 40
0.0
 40
0.0
 40
0.0
 40
0.3811215339
 40
0.7063727742
 40
0.9236829804
 40
1.0
 40
1.0
 40
1.0
 40
1.0
 10
-10.9753645891
 20
-23.1043881191
 30
0.0
 10
-10.991198576
 20
-23.0769619211
 30
0.0
 10
-11.0179403601
 20
-23.0268600319
 30
0.0
 10
-11.0651678751
 20
-22.9575940284
 30
0.0
 10
-11.0726894279
 20
-22.9181998496
 30
0.0
 10
-11.1044020212
 20
-22.8910524979
 30
0.0
 10
-11.0989101562
 20
-22.8878817682
 30
0.0
 11
-10.9753645891
 21
-23.1043881191
 31
0.0
 11
-11.0227845883
 21
-23.0220622605
 31
0.0
 11
-11.0630873225
 21
-22.9517096974
 31
0.0
 11
-11.0898183366
 21
-22.9045930153
 31
0.0
 11
-11.0989101562
 21
-22.8878817682
 31
0.0
  0
SPLINE
  5
56B
100
AcDbEntity
  8
RACCORDO
100
AcDbSpline
 62
253
  6
CONTINUOUS
 70
0
 71
3
 72
11
 73
7
 74
5
 42
0.0000001
 43
0.0000001
 44
0.0000000001
 12
0.1246373044
 22
0.2158854507
 32
0.0
 13
-0.215883624
 23
0.1246404684
 33
0.0
 40
0.0
 40
0.0
 40
0.0
 40
0.0
 40
0.3811215339
 40
0.7063727742
 40
0.9236829804
 40
1.0
 40
1.0
 40
1.0
 40
1.0
 10
-7.9724557234
 20
-23.1043881191
 30
0.0
 10
-7.9566217365
 20
-23.0769619211
 30
0.0
 10
-7.9298799524
 20
-23.0268600319
 30
0.0
 10
-7.8826524374
 20
-22.9575940284
 30
0.0
 10
-7.8751308846
 20
-22.9181998496
 30
0.0
 10
-7.8434182913
 20
-22.8910524979
 30
0.0
 10
-7.8489101562
 20
-22.8878817682
 30
0.0
 11
-7.9724557234
 21
-23.1043881191
 31
0.0
 11
-7.9250357242
 21
-23.0220622605
 31
0.0
 11
-7.88473299
 21
-22.9517096974
 31
0.0
 11
-7.8580019759
 21
-22.9045930153
 31
0.0
 11
-7.8489101562
 21
-22.8878817682
 31
0.0
  0
SPLINE
  5
56C
100
AcDbEntity
  8
RACCORDO
100
AcDbSpline
 62
253
  6
CONTINUOUS
 70
0
 71
3
 72
11
 73
7
 74
5
 42
0.0000001
 43
0.0000001
 44
0.0000000001
 12
0.2499982356
 22
0.0014544472
 32
0.0
 13
-0.001454398
 23
0.2499982359
 33
0.0
 40
0.0
 40
0.0
 40
0.0
 40
0.0
 40
0.0738935379
 40
0.2902249199
 40
0.6157469602
 40
1.0
 40
1.0
 40
1.0
 40
1.0
 10
-7.9724557234
 20
-23.7556787178
 30
0.0
 10
-7.966297972
 20
-23.7556428931
 30
0.0
 10
-7.9800512084
 20
-23.716763898
 30
0.0
 10
-7.9671169688
 20
-23.6789620919
 30
0.0
 10
-7.9738559635
 20
-23.5948902071
 30
0.0
 10
-7.9722694378
 20
-23.5377038093
 30
0.0
 10
-7.9724557234
 20
-23.5056829486
 30
0.0
 11
-7.9724557234
 21
-23.7556787178
 31
0.0
 11
-7.97201458
 21
-23.737210419
 31
0.0
 11
-7.9718533274
 21
-23.6831272804
 31
0.0
 11
-7.9720085269
 21
-23.6017461154
 31
0.0
 11
-7.9724557234
 21
-23.5056829486
 31
0.0
  0
SPLINE
  5
56D
100
AcDbEntity
  8
RACCORDO
100
AcDbSpline
 62
253
  6
CONTINUOUS
 70
0
 71
3
 72
11
 73
7
 74
5
 42
0.0000001
 43
0.0000001
 44
0.0000000001
 12
-0.2499981575
 22
0.0014544467
 32
0.0
 13
0.0014543975
 23
0.2499981578
 33
0.0
 40
0.0
 40
0.0
 40
0.0
 40
0.0
 40
0.0768065397
 40
0.2956239016
 40
0.6228218045
 40
1.0
 40
1.0
 40
1.0
 40
1.0
 10
-10.9753645891
 20
-23.7469519731
 30
0.0
 10
-10.9817650869
 20
-23.7469147361
 30
0.0
 10
-10.9676741073
 20
-23.7072524597
 30
0.0
 10
-10.9807056096
 20
-23.6689498927
 30
0.0
 10
-10.9740085084
 20
-23.5851776082
 30
0.0
 10
-10.9755474448
 20
-23.5283874886
 30
0.0
 10
-10.9753645891
 20
-23.4969562039
 30
0.0
 11
-10.9753645891
 21
-23.7469519731
 31
0.0
 11
-10.9758117856
 21
-23.7277553629
 31
0.0
 11
-10.9759669851
 21
-23.6730507199
 31
0.0
 11
-10.9758057325
 21
-23.5912506217
 31
0.0
 11
-10.9753645891
 21
-23.4969562039
 31
0.0
  0
SPLINE
  5
56E
100
AcDbEntity
  8
RACCORDO
100
AcDbSpline
 62
7
  6
CONTINUOUS
 70
0
 71
3
 72
12
 73
8
 74
6
 42
0.0000001
 43
0.0000001
 44
0.0000000001
 12
-0.0109036576
 22
0.4998596615
 32
0.0
 13
0.2333125718
 23
0.4422033636
 33
0.0
 40
0.0
 40
0.0
 40
0.0
 40
0.0
 40
0.3030358887
 40
0.5776030971
 40
0.7979008769
 40
0.9432218509
 40
1.0
 40
1.0
 40
1.0
 40
1.0
 10
-8.5789755133
 20
22.6473162989
 30
0.0
 10
-8.5800769132
 20
22.6978081045
 30
0.0
 10
-8.582207003
 20
22.7941511593
 30
0.0
 10
-8.5829311158
 20
22.9267396889
 30
0.0
 10
-8.5864217269
 20
23.034415853
 30
0.0
 10
-8.5803985491
 20
23.1028586523
 30
0.0
 10
-8.5858456917
 20
23.1388093714
 30
0.0
 10
-8.5814300064
 20
23.1471785342
 30
0.0
 11
-8.5789755133
 21
22.6473162989
 31
0.0
 11
-8.5818699637
 21
22.7988000992
 31
0.0
 11
-8.5836727424
 21
22.9360659817
 31
0.0
 11
-8.5842140249
 21
23.0462088207
 31
0.0
 11
-8.583442422
 21
23.1188620963
 31
0.0
 11
-8.5814300064
 21
23.1471785342
 31
0.0
  0
SPLINE
  5
56F
100
AcDbEntity
  8
RACCORDO
100
AcDbSpline
 62
253
  6
CONTINUOUS
 70
0
 71
3
 72
12
 73
8
 74
6
 42
0.0000001
 43
0.0000001
 44
0.0000000001
 12
-0.0261472364
 22
-0.4990710012
 32
0.0
 13
0.4990705849
 23
-0.0261551811
 33
0.0
 40
0.0
 40
0.0
 40
0.0
 40
0.0
 40
0.3089507473
 40
0.5876147129
 40
0.8087596433
 40
0.9507934523
 40
1.0
 40
1.0
 40
1.0
 40
1.0
 10
-16.3632472702
 20
-20.7594610064
 30
0.0
 10
-16.3659400063
 20
-20.810857126
 30
0.0
 10
-16.3715962545
 20
-20.9095233447
 30
0.0
 10
-16.3744631777
 20
-21.040653118
 30
0.0
 10
-16.3861749997
 20
-21.1563871184
 30
0.0
 10
-16.3728475664
 20
-21.2080914853
 30
0.0
 10
-16.388874892
 20
-21.2583467717
 30
0.0
 10
-16.3806890451
 20
-21.2587757738
 30
0.0
 11
-16.3632472702
 21
-20.7594610064
 31
0.0
 11
-16.3709000171
 21
-20.9136710674
 31
0.0
 11
-16.3769513266
 21
-21.0528033787
 31
0.0
 11
-16.3808095376
 21
-21.1632544043
 31
0.0
 11
-16.3820974171
 21
-21.2342248946
 31
0.0
 11
-16.3806890451
 21
-21.2587757738
 31
0.0
  0
SPLINE
  5
570
100
AcDbEntity
  8
RACCORDO
100
AcDbSpline
 62
7
  6
CONTINUOUS
 70
0
 71
3
 72
12
 73
8
 74
6
 42
0.0000001
 43
0.0000001
 44
0.0000000001
 12
-0.0109036576
 22
-0.4998596615
 32
0.0
 13
0.2333125718
 23
-0.4422033636
 33
0.0
 40
0.0
 40
0.0
 40
0.0
 40
0.0
 40
0.3030358887
 40
0.5776030971
 40
0.7979008769
 40
0.9432218509
 40
1.0
 40
1.0
 40
1.0
 40
1.0
 10
-8.5789755133
 20
-21.1674174025
 30
0.0
 10
-8.5800769132
 20
-21.2179092081
 30
0.0
 10
-8.582207003
 20
-21.3142522629
 30
0.0
 10
-8.5829311158
 20
-21.4468407926
 30
0.0
 10
-8.5864217269
 20
-21.5545169567
 30
0.0
 10
-8.5803985491
 20
-21.622959756
 30
0.0
 10
-8.5858456917
 20
-21.658910475
 30
0.0
 10
-8.5814300064
 20
-21.6672796379
 30
0.0
 11
-8.5789755133
 21
-21.1674174025
 31
0.0
 11
-8.5818699637
 21
-21.3189012029
 31
0.0
 11
-8.5836727424
 21
-21.4561670854
 31
0.0
 11
-8.5842140249
 21
-21.5663099243
 31
0.0
 11
-8.583442422
 21
-21.6389632
 31
0.0
 11
-8.5814300064
 21
-21.6672796379
 31
0.0
  0
SPLINE
  5
571
100
AcDbEntity
  8
RACCORDO
100
AcDbSpline
 62
253
  6
CONTINUOUS
 70
0
 71
3
 72
12
 73
8
 74
6
 42
0.0000001
 43
0.0000001
 44
0.0000000001
 12
-0.0261472621
 22
0.4990709999
 32
0.0
 13
0.4990705849
 23
0.0261551811
 33
0.0
 40
0.0
 40
0.0
 40
0.0
 40
0.0
 40
0.3089459808
 40
0.5876089732
 40
0.8087557934
 40
0.9507922363
 40
1.0
 40
1.0
 40
1.0
 40
1.0
 10
-16.3632472702
 20
22.2393599028
 30
0.0
 10
-16.3659399674
 20
22.2907552293
 30
0.0
 10
-16.3715961572
 20
22.3894204693
 30
0.0
 10
-16.3744631038
 20
22.5205496469
 30
0.0
 10
-16.3861750074
 20
22.63628426
 30
0.0
 10
-16.3728473664
 20
22.6879893376
 30
0.0
 10
-16.3888750911
 20
22.7382456577
 30
0.0
 10
-16.3806890419
 20
22.7386746703
 30
0.0
 11
-16.3632472702
 21
22.2393599028
 31
0.0
 11
-16.3708999122
 21
22.3935675839
 31
0.0
 11
-16.376951222
 21
22.5326994084
 31
0.0
 11
-16.3808094915
 21
22.6431513769
 31
0.0
 11
-16.3820974219
 21
22.7141231829
 31
0.0
 11
-16.3806890419
 21
22.7386746703
 31
0.0
  0
LINE
  5
572
100
AcDbEntity
  8
CURVE
100
AcDbLine
 62
253
  6
CONTINUOUS
 10
-17.9515877546
 20
-15.75999979
 11
-17.9482741811
 21
-15.8600505518
  0
LINE
  5
573
100
AcDbEntity
  8
CURVE
100
AcDbLine
 62
253
  6
CONTINUOUS
 10
-17.9515870057
 20
-15.7600100177
 11
-17.9348265869
 21
-16.2600505518
  0
SPLINE
  5
574
100
AcDbEntity
  8
RACCORDO
100
AcDbSpline
 62
253
  6
CONTINUOUS
 70
0
 71
3
 72
10
 73
6
 74
4
 42
0.0000001
 43
0.0000001
 44
0.0000000001
 12
14.5196455698
 22
-0.4101740833
 32
0.0
 13
14.5138755073
 23
-0.5794549228
 33
0.0
 40
0.0
 40
0.0
 40
0.0
 40
0.0
 40
0.3083741298
 40
0.6407080139
 40
1.0
 40
1.0
 40
1.0
 40
1.0
 10
2.2760898438
 20
19.7548510205
 30
0.0
 10
3.7685841995
 20
19.7126886618
 30
0.0
 10
6.869448843
 20
19.621955584
 30
0.0
 10
11.7087766759
 20
19.4666541597
 30
0.0
 10
15.0553025314
 20
19.344746038
 30
0.0
 10
16.7935422502
 20
19.2753482013
 30
0.0
 11
2.2760898438
 21
19.7548510205
 31
0.0
 11
6.7534274923
 21
19.6233170782
 31
0.0
 11
11.5782071092
 21
19.4674934186
 31
0.0
 11
16.7935422502
 21
19.2753482013
 31
0.0
  0
SPLINE
  5
575
100
AcDbEntity
  8
RACCORDO
100
AcDbSpline
 62
253
  6
CONTINUOUS
 70
0
 71
3
 72
12
 73
8
 74
6
 42
0.0000001
 43
0.0000001
 44
0.0000000001
 12
-0.0049344808
 22
-0.7367780246
 32
0.0
 13
-0.7366823311
 23
-0.0128588379
 33
0.0
 40
0.0
 40
0.0
 40
0.0
 40
0.0
 40
0.3267652619
 40
0.6065817847
 40
0.8212857903
 40
0.9548953549
 40
1.0
 40
1.0
 40
1.0
 40
1.0
 10
16.7935422502
 20
-17.7954493049
 30
0.0
 10
16.7930047779
 20
-17.8757004597
 30
0.0
 10
16.7986689008
 20
-18.0261524625
 30
0.0
 10
16.7940784209
 20
-18.2223602138
 30
0.0
 10
16.8065799178
 20
-18.3900283133
 30
0.0
 10
16.7841298128
 20
-18.4619619682
 30
0.0
 10
16.8046181819
 20
-18.5319034971
 30
0.0
 10
16.7935422502
 20
-18.5320968282
 30
0.0
 11
16.7935422502
 21
-17.7954493049
 31
0.0
 11
16.7964796964
 21
-18.0361902483
 31
0.0
 11
16.7977506389
 21
-18.2423536194
 31
0.0
 11
16.7980076723
 21
-18.4005461514
 31
0.0
 11
16.796230966
 21
-18.4989729159
 31
0.0
 11
16.7935422502
 21
-18.5320968282
 31
0.0
  0
SPLINE
  5
576
100
AcDbEntity
  8
RACCORDO
100
AcDbSpline
 62
253
  6
CONTINUOUS
 70
0
 71
3
 72
10
 73
6
 74
4
 42
0.0000001
 43
0.0000001
 44
0.0000000001
 12
14.519645437
 22
0.4101737331
 32
0.0
 13
14.5138754877
 23
0.5794518423
 33
0.0
 40
0.0
 40
0.0
 40
0.0
 40
0.0
 40
0.3045402318
 40
0.6366796242
 40
1.0
 40
1.0
 40
1.0
 40
1.0
 10
2.2760898438
 20
-18.2749520432
 30
0.0
 10
3.7500285727
 20
-18.2333139086
 30
0.0
 10
6.8313978242
 20
-18.1431891787
 30
0.0
 10
11.6707316671
 20
-17.9880827769
 30
0.0
 10
15.0358133514
 20
-17.8656248586
 30
0.0
 10
16.7935422502
 20
-17.7954493049
 30
0.0
 11
2.2760898438
 21
-18.2749520432
 31
0.0
 11
6.6977644263
 21
-18.1451218294
 31
0.0
 11
11.5197269279
 21
-17.9895919213
 31
0.0
 11
16.7935422502
 21
-17.7954493049
 31
0.0
  0
SPLINE
  5
577
100
AcDbEntity
  8
RACCORDO
100
AcDbSpline
 62
253
  6
CONTINUOUS
 70
0
 71
3
 72
12
 73
8
 74
6
 42
0.0000001
 43
0.0000001
 44
0.0000000001
 12
1.0567628831
 22
0.0048566108
 32
0.0
 13
0.0
 23
1.0567740429
 33
0.0
 40
0.0
 40
0.0
 40
0.0
 40
0.0
 40
0.2887417721
 40
0.5504468852
 40
0.7629069564
 40
0.9113968842
 40
1.0
 40
1.0
 40
1.0
 40
1.0
 10
16.7935422502
 20
-17.7954493049
 30
0.0
 10
16.8952527794
 20
-17.7949818695
 30
0.0
 10
17.0892455761
 20
-17.7861763845
 30
0.0
 10
17.3560072087
 20
-17.7523206194
 30
0.0
 10
17.5697974272
 20
-17.6964437937
 30
0.0
 10
17.7149099495
 20
-17.6373513715
 30
0.0
 10
17.7760898438
 20
-17.5634602907
 30
0.0
 10
17.7760898438
 20
-17.532249133
 30
0.0
 11
16.7935422502
 21
-17.7954493049
 31
0.0
 11
17.098355539
 21
-17.7814453348
 31
0.0
 11
17.3723147187
 21
-17.7435830177
 31
0.0
 11
17.5891906048
 21
-17.6854873378
 31
0.0
 11
17.7282192365
 21
-17.612720446
 31
0.0
 11
17.7760898438
 21
-17.532249133
 31
0.0
  0
SPLINE
  5
578
100
AcDbEntity
  8
RACCORDO
100
AcDbSpline
 62
253
  6
CONTINUOUS
 70
0
 71
3
 72
12
 73
8
 74
6
 42
0.0000001
 43
0.0000001
 44
0.0000000001
 12
0.7366823366
 22
-0.012858838
 32
0.0
 13
0.0049342943
 23
-0.7367780313
 33
0.0
 40
0.0
 40
0.0
 40
0.0
 40
0.0
 40
0.0451046495
 40
0.1787142014
 40
0.3934181979
 40
0.6732347323
 40
1.0
 40
1.0
 40
1.0
 40
1.0
 10
16.7935422502
 20
20.0119957245
 30
0.0
 10
16.8046181831
 20
20.0118023934
 30
0.0
 10
16.7841299351
 20
19.9418608766
 30
0.0
 10
16.8065799682
 20
19.8699272144
 30
0.0
 10
16.7940785162
 20
19.7022591215
 30
0.0
 10
16.7986689485
 20
19.5060513649
 30
0.0
 10
16.7930047982
 20
19.3555993582
 30
0.0
 10
16.7935422502
 20
19.2753482013
 30
0.0
 11
16.7935422502
 21
20.0119957245
 31
0.0
 11
16.7962310175
 21
19.9788718129
 31
0.0
 11
16.7980077504
 21
19.8804450576
 31
0.0
 11
16.7977507177
 21
19.7222525311
 31
0.0
 11
16.7964797484
 21
19.5160891501
 31
0.0
 11
16.7935422502
 21
19.2753482013
 31
0.0
  0
SPLINE
  5
579
100
AcDbEntity
  8
RACCORDO
100
AcDbSpline
 62
253
  6
CONTINUOUS
 70
0
 71
3
 72
12
 73
8
 74
6
 42
0.0000001
 43
0.0000001
 44
0.0000000001
 12
0.0
 22
1.0567740429
 32
0.0
 13
-1.0567628835
 23
0.00485653
 33
0.0
 40
0.0
 40
0.0
 40
0.0
 40
0.0
 40
0.0886031158
 40
0.2370930436
 40
0.4495531148
 40
0.7112582279
 40
1.0
 40
1.0
 40
1.0
 40
1.0
 10
17.7760898438
 20
19.0121480294
 30
0.0
 10
17.7760898438
 20
19.043359187
 30
0.0
 10
17.7149099495
 20
19.1172502679
 30
0.0
 10
17.5697974272
 20
19.1763426899
 30
0.0
 10
17.3560072087
 20
19.2322195165
 30
0.0
 10
17.0892455761
 20
19.2660752775
 30
0.0
 10
16.8952527794
 20
19.2748807736
 30
0.0
 10
16.7935422502
 20
19.2753482013
 30
0.0
 11
17.7760898438
 21
19.0121480294
 31
0.0
 11
17.7282192365
 21
19.0926193424
 31
0.0
 11
17.5891906048
 21
19.1653862341
 31
0.0
 11
17.3723147187
 21
19.223481914
 31
0.0
 11
17.098355539
 21
19.2613442312
 31
0.0
 11
16.7935422502
 21
19.2753482013
 31
0.0
  0
SPLINE
  5
57A
100
AcDbEntity
  8
IMPORT
100
AcDbSpline
 62
253
  6
CONTINUOUS
 70
0
 71
3
 72
10
 73
6
 74
4
 42
0.0000001
 43
0.0000001
 44
0.0000000001
 12
14.5196455698
 22
-0.4101740833
 32
0.0
 13
14.5138755073
 23
-0.5794549228
 33
0.0
 40
0.0
 40
0.0
 40
0.0
 40
0.0
 40
0.3083741298
 40
0.6407080139
 40
1.0
 40
1.0
 40
1.0
 40
1.0
 10
2.2760898438
 20
19.7548510205
 30
0.0
 10
3.7685841995
 20
19.7126886618
 30
0.0
 10
6.869448843
 20
19.621955584
 30
0.0
 10
11.7087766759
 20
19.4666541597
 30
0.0
 10
15.0553025314
 20
19.344746038
 30
0.0
 10
16.7935422502
 20
19.2753482013
 30
0.0
 11
2.2760898438
 21
19.7548510205
 31
0.0
 11
6.7534274923
 21
19.6233170782
 31
0.0
 11
11.5782071092
 21
19.4674934186
 31
0.0
 11
16.7935422502
 21
19.2753482013
 31
0.0
  0
SPLINE
  5
57B
100
AcDbEntity
  8
IMPORT
100
AcDbSpline
 62
253
  6
CONTINUOUS
 70
0
 71
3
 72
12
 73
8
 74
6
 42
0.0000001
 43
0.0000001
 44
0.0000000001
 12
-0.0049344808
 22
-0.7367780246
 32
0.0
 13
-0.7366823311
 23
-0.0128588379
 33
0.0
 40
0.0
 40
0.0
 40
0.0
 40
0.0
 40
0.3267652619
 40
0.6065817847
 40
0.8212857903
 40
0.9548953549
 40
1.0
 40
1.0
 40
1.0
 40
1.0
 10
16.7935422502
 20
-17.7954493049
 30
0.0
 10
16.7930047779
 20
-17.8757004597
 30
0.0
 10
16.7986689008
 20
-18.0261524625
 30
0.0
 10
16.7940784209
 20
-18.2223602138
 30
0.0
 10
16.8065799178
 20
-18.3900283133
 30
0.0
 10
16.7841298128
 20
-18.4619619682
 30
0.0
 10
16.8046181819
 20
-18.5319034971
 30
0.0
 10
16.7935422502
 20
-18.5320968282
 30
0.0
 11
16.7935422502
 21
-17.7954493049
 31
0.0
 11
16.7964796964
 21
-18.0361902483
 31
0.0
 11
16.7977506389
 21
-18.2423536194
 31
0.0
 11
16.7980076723
 21
-18.4005461514
 31
0.0
 11
16.796230966
 21
-18.4989729159
 31
0.0
 11
16.7935422502
 21
-18.5320968282
 31
0.0
  0
SPLINE
  5
57C
100
AcDbEntity
  8
IMPORT
100
AcDbSpline
 62
253
  6
CONTINUOUS
 70
0
 71
3
 72
10
 73
6
 74
4
 42
0.0000001
 43
0.0000001
 44
0.0000000001
 12
14.519645437
 22
0.4101737331
 32
0.0
 13
14.5138754877
 23
0.5794518423
 33
0.0
 40
0.0
 40
0.0
 40
0.0
 40
0.0
 40
0.3045402318
 40
0.6366796242
 40
1.0
 40
1.0
 40
1.0
 40
1.0
 10
2.2760898438
 20
-18.2749520432
 30
0.0
 10
3.7500285727
 20
-18.2333139086
 30
0.0
 10
6.8313978242
 20
-18.1431891787
 30
0.0
 10
11.6707316671
 20
-17.9880827769
 30
0.0
 10
15.0358133514
 20
-17.8656248586
 30
0.0
 10
16.7935422502
 20
-17.7954493049
 30
0.0
 11
2.2760898438
 21
-18.2749520432
 31
0.0
 11
6.6977644263
 21
-18.1451218294
 31
0.0
 11
11.5197269279
 21
-17.9895919213
 31
0.0
 11
16.7935422502
 21
-17.7954493049
 31
0.0
  0
SPLINE
  5
57D
100
AcDbEntity
  8
IMPORT
100
AcDbSpline
 62
253
  6
CONTINUOUS
 70
0
 71
3
 72
12
 73
8
 74
6
 42
0.0000001
 43
0.0000001
 44
0.0000000001
 12
1.0567628831
 22
0.004856611
 32
0.0
 13
0.0
 23
1.0567740429
 33
0.0
 40
0.0
 40
0.0
 40
0.0
 40
0.0
 40
0.2887417721
 40
0.5504468852
 40
0.7629069564
 40
0.9113968842
 40
1.0
 40
1.0
 40
1.0
 40
1.0
 10
16.7935422502
 20
-17.7954493049
 30
0.0
 10
16.8952527794
 20
-17.7949818695
 30
0.0
 10
17.0892455761
 20
-17.7861763845
 30
0.0
 10
17.3560072087
 20
-17.7523206194
 30
0.0
 10
17.5697974272
 20
-17.6964437937
 30
0.0
 10
17.7149099495
 20
-17.6373513715
 30
0.0
 10
17.7760898438
 20
-17.5634602907
 30
0.0
 10
17.7760898438
 20
-17.532249133
 30
0.0
 11
16.7935422502
 21
-17.7954493049
 31
0.0
 11
17.098355539
 21
-17.7814453348
 31
0.0
 11
17.3723147187
 21
-17.7435830177
 31
0.0
 11
17.5891906048
 21
-17.6854873378
 31
0.0
 11
17.7282192365
 21
-17.612720446
 31
0.0
 11
17.7760898438
 21
-17.532249133
 31
0.0
  0
SPLINE
  5
57E
100
AcDbEntity
  8
IMPORT
100
AcDbSpline
 62
253
  6
CONTINUOUS
 70
0
 71
3
 72
12
 73
8
 74
6
 42
0.0000001
 43
0.0000001
 44
0.0000000001
 12
0.0
 22
1.0567740429
 32
0.0
 13
-1.0567628835
 23
0.0048565303
 33
0.0
 40
0.0
 40
0.0
 40
0.0
 40
0.0
 40
0.0886031158
 40
0.2370930436
 40
0.4495531148
 40
0.7112582279
 40
1.0
 40
1.0
 40
1.0
 40
1.0
 10
17.7760898438
 20
19.0121480294
 30
0.0
 10
17.7760898438
 20
19.043359187
 30
0.0
 10
17.7149099495
 20
19.1172502679
 30
0.0
 10
17.5697974272
 20
19.1763426899
 30
0.0
 10
17.3560072087
 20
19.2322195165
 30
0.0
 10
17.0892455761
 20
19.2660752775
 30
0.0
 10
16.8952527794
 20
19.2748807736
 30
0.0
 10
16.7935422502
 20
19.2753482013
 30
0.0
 11
17.7760898438
 21
19.0121480294
 31
0.0
 11
17.7282192365
 21
19.0926193424
 31
0.0
 11
17.5891906048
 21
19.1653862341
 31
0.0
 11
17.3723147187
 21
19.223481914
 31
0.0
 11
17.098355539
 21
19.2613442312
 31
0.0
 11
16.7935422502
 21
19.2753482013
 31
0.0
  0
SPLINE
  5
57F
100
AcDbEntity
  8
IMPORT
100
AcDbSpline
 62
253
  6
CONTINUOUS
 70
0
 71
3
 72
12
 73
8
 74
6
 42
0.0000001
 43
0.0000001
 44
0.0000000001
 12
0.7366823366
 22
-0.012858838
 32
0.0
 13
0.0049342943
 23
-0.7367780313
 33
0.0
 40
0.0
 40
0.0
 40
0.0
 40
0.0
 40
0.0451046495
 40
0.1787142014
 40
0.3934181979
 40
0.6732347323
 40
1.0
 40
1.0
 40
1.0
 40
1.0
 10
16.7935422502
 20
20.0119957245
 30
0.0
 10
16.8046181831
 20
20.0118023934
 30
0.0
 10
16.7841299351
 20
19.9418608766
 30
0.0
 10
16.8065799682
 20
19.8699272144
 30
0.0
 10
16.7940785162
 20
19.7022591215
 30
0.0
 10
16.7986689485
 20
19.5060513649
 30
0.0
 10
16.7930047982
 20
19.3555993582
 30
0.0
 10
16.7935422502
 20
19.2753482013
 30
0.0
 11
16.7935422502
 21
20.0119957245
 31
0.0
 11
16.7962310175
 21
19.9788718129
 31
0.0
 11
16.7980077504
 21
19.8804450576
 31
0.0
 11
16.7977507177
 21
19.7222525311
 31
0.0
 11
16.7964797484
 21
19.5160891501
 31
0.0
 11
16.7935422502
 21
19.2753482013
 31
0.0
  0
SPLINE
  5
580
100
AcDbEntity
  8
CURVE
100
AcDbSpline
 62
253
  6
CONTINUOUS
 70
0
 71
3
 72
13
 73
9
 74
7
 42
0.0000001
 43
0.0000001
 44
0.0000000001
 12
0.6830460881
 22
0.0
 32
0.0
 13
0.0852923267
 23
-0.6778031497
 33
0.0
 40
0.0
 40
0.0
 40
0.0
 40
0.0
 40
0.2490801906
 40
0.3745290044
 40
0.5000465587
 40
0.6245839973
 40
0.7501008193
 40
1.0
 40
1.0
 40
1.0
 40
1.0
 10
-4.2438247874
 20
4.858709334
 30
0.0
 10
-4.1871137042
 20
4.858709334
 30
0.0
 10
-4.1000424314
 20
4.8508987472
 30
0.0
 10
-3.9955260731
 20
4.8038536604
 30
0.0
 10
-3.9257318154
 20
4.7522781739
 30
0.0
 10
-3.8784680795
 20
4.6788840604
 30
0.0
 10
-3.8460836967
 20
4.5688144678
 30
0.0
 10
-3.8413677547
 20
4.4830223964
 30
0.0
 10
-3.8342629271
 20
4.4265615791
 30
0.0
 11
-4.2438247874
 21
4.858709334
 31
0.0
 11
-4.0751879751
 21
4.8361903939
 31
0.0
 11
-3.996991796
 21
4.801146868
 31
0.0
 11
-3.9293314142
 21
4.7484848965
 31
0.0
 11
-3.8823791825
 21
4.6775409547
 31
0.0
 11
-3.856331672
 21
4.5958473808
 31
0.0
 11
-3.8342629271
 21
4.4265615791
 31
0.0
  0
SPLINE
  5
581
100
AcDbEntity
  8
CURVE
100
AcDbSpline
 62
253
  6
CONTINUOUS
 70
0
 71
3
 72
13
 73
9
 74
7
 42
0.0000001
 43
0.0000001
 44
0.0000000001
 12
0.0852923267
 22
0.6778031497
 32
0.0
 13
0.6830460881
 23
0.0
 33
0.0
 40
0.0
 40
0.0
 40
0.0
 40
0.0
 40
0.2498991807
 40
0.3754160027
 40
0.4999534413
 40
0.6254709956
 40
0.7509198094
 40
1.0
 40
1.0
 40
1.0
 40
1.0
 10
-4.6533866477
 20
4.4265615791
 30
0.0
 10
-4.6462818202
 20
4.4830223964
 30
0.0
 10
-4.6415658782
 20
4.5688144678
 30
0.0
 10
-4.6091814953
 20
4.6788840604
 30
0.0
 10
-4.5619177595
 20
4.7522781739
 30
0.0
 10
-4.4921235018
 20
4.8038536604
 30
0.0
 10
-4.3876071435
 20
4.8508987472
 30
0.0
 10
-4.3005358707
 20
4.858709334
 30
0.0
 10
-4.2438247874
 20
4.858709334
 30
0.0
 11
-4.6533866477
 21
4.4265615791
 31
0.0
 11
-4.6313179028
 21
4.5958473808
 31
0.0
 11
-4.6052703924
 21
4.6775409547
 31
0.0
 11
-4.5583181607
 21
4.7484848965
 31
0.0
 11
-4.4906577788
 21
4.801146868
 31
0.0
 11
-4.4124615998
 21
4.8361903939
 31
0.0
 11
-4.2438247874
 21
4.858709334
 31
0.0
  0
SPLINE
  5
582
100
AcDbEntity
  8
CURVE
100
AcDbSpline
 62
253
  6
CONTINUOUS
 70
0
 71
3
 72
14
 73
10
 74
8
 42
0.0000001
 43
0.0000001
 44
0.0000000001
 12
-1.7044849324
 22
0.0
 32
0.0
 13
-0.0631201229
 23
-1.7035752687
 33
0.0
 40
0.0
 40
0.0
 40
0.0
 40
0.0
 40
0.2487979499
 40
0.3739954148
 40
0.4993177993
 40
0.6245209989
 40
0.7497639082
 40
0.8748572603
 40
1.0
 40
1.0
 40
1.0
 40
1.0
 10
-4.2438247874
 20
5.5214762485
 30
0.0
 10
-4.3851822397
 20
5.5214762485
 30
0.0
 10
-4.6047907527
 20
5.4909002848
 30
0.0
 10
-4.8468324544
 20
5.3334542687
 30
0.0
 10
-4.979572685
 20
5.1616947608
 30
0.0
 10
-5.0616966196
 20
4.9629390307
 30
0.0
 10
-5.1095578837
 20
4.7542394081
 30
0.0
 10
-5.1294812747
 20
4.5413977411
 30
0.0
 10
-5.1325397808
 20
4.3992328645
 30
0.0
 10
-5.1351727892
 20
4.3281695057
 30
0.0
 11
-4.2438247874
 21
5.5214762485
 31
0.0
 11
-4.6604116541
 21
5.4421373327
 31
0.0
 11
-4.8385472727
 21
5.3246202292
 31
0.0
 11
-4.9711675888
 21
5.1571398514
 31
0.0
 11
-5.0559856778
 21
4.9612824813
 31
0.0
 11
-5.1049160374
 21
4.7534594747
 31
0.0
 11
-5.1269248281
 21
4.5413463635
 31
0.0
 11
-5.1351727892
 21
4.3281695057
 31
0.0
  0
SPLINE
  5
583
100
AcDbEntity
  8
CURVE
100
AcDbSpline
 62
253
  6
CONTINUOUS
 70
0
 71
3
 72
14
 73
10
 74
8
 42
0.0000001
 43
0.0000001
 44
0.0000000001
 12
-0.0631201229
 22
1.7035752687
 32
0.0
 13
-1.7044849324
 23
0.0
 33
0.0
 40
0.0
 40
0.0
 40
0.0
 40
0.0
 40
0.1251427397
 40
0.2502360918
 40
0.3754790011
 40
0.5006822007
 40
0.6260045852
 40
0.7512020501
 40
1.0
 40
1.0
 40
1.0
 40
1.0
 10
-3.3524767857
 20
4.3281695057
 30
0.0
 10
-3.355109794
 20
4.3992328645
 30
0.0
 10
-3.3581683002
 20
4.5413977411
 30
0.0
 10
-3.3780916912
 20
4.7542394081
 30
0.0
 10
-3.4259529553
 20
4.9629390307
 30
0.0
 10
-3.5080768899
 20
5.1616947608
 30
0.0
 10
-3.6408171204
 20
5.3334542687
 30
0.0
 10
-3.8828588222
 20
5.4909002848
 30
0.0
 10
-4.1024673352
 20
5.5214762485
 30
0.0
 10
-4.2438247874
 20
5.5214762485
 30
0.0
 11
-3.3524767857
 21
4.3281695057
 31
0.0
 11
-3.3607247468
 21
4.5413463635
 31
0.0
 11
-3.3827335375
 21
4.7534594747
 31
0.0
 11
-3.4316638971
 21
4.9612824813
 31
0.0
 11
-3.516481986
 21
5.1571398514
 31
0.0
 11
-3.6491023022
 21
5.3246202292
 31
0.0
 11
-3.8272379208
 21
5.4421373327
 31
0.0
 11
-4.2438247874
 21
5.5214762485
 31
0.0
  0
SPLINE
  5
584
100
AcDbEntity
  8
CURVE
100
AcDbSpline
 62
253
  6
CONTINUOUS
 70
0
 71
3
 72
12
 73
8
 74
6
 42
0.0000001
 43
0.0000001
 44
0.0000000001
 12
-0.0822186028
 22
0.4818406081
 32
0.0
 13
0.0544414206
 23
0.4690289245
 33
0.0
 40
0.0
 40
0.0
 40
0.0
 40
0.0
 40
0.1666666667
 40
0.3333333333
 40
0.5
 40
0.6666666667
 40
1.0
 40
1.0
 40
1.0
 40
1.0
 10
-4.6375824145
 20
-5.5388518237
 30
0.0
 10
-4.6421501147
 20
-5.512082901
 30
0.0
 10
-4.6505868633
 20
-5.4588853193
 30
0.0
 10
-4.6597177886
 20
-5.3792787339
 30
0.0
 10
-4.6645709753
 20
-5.3002486776
 30
0.0
 10
-4.6657525275
 20
-5.1952363218
 30
0.0
 10
-4.6607006515
 20
-5.1167905677
 30
0.0
 10
-4.6546516047
 20
-5.0646762428
 30
0.0
 11
-4.6375824145
 21
-5.5388518237
 31
0.0
 11
-4.649999497
 21
-5.4589169505
 31
0.0
 11
-4.6590048322
 21
-5.3793748221
 31
0.0
 11
-4.6639098049
 21
-5.3002938092
 31
0.0
 11
-4.6647973572
 21
-5.2215242455
 31
0.0
 11
-4.6546516047
 21
-5.0646762428
 31
0.0
  0
SPLINE
  5
585
100
AcDbEntity
  8
CURVE
100
AcDbSpline
 62
253
  6
CONTINUOUS
 70
0
 71
3
 72
20
 73
16
 74
14
 42
0.0000001
 43
0.0000001
 44
0.0000000001
 12
0.906583312
 22
0.0135453388
 32
0.0
 13
0.0184700808
 23
-0.8269298582
 33
0.0
 40
0.0
 40
0.0
 40
0.0
 40
0.0
 40
0.05
 40
0.1
 40
0.15
 40
0.2
 40
0.25
 40
0.3
 40
0.4
 40
0.5
 40
0.6
 40
0.7
 40
0.8
 40
0.9
 40
1.0
 40
1.0
 40
1.0
 40
1.0
 10
-4.2919371532
 20
-4.7227669519
 30
0.0
 10
-4.2768274313
 20
-4.7225411962
 30
0.0
 10
-4.2484015126
 20
-4.7234361652
 30
0.0
 10
-4.2059772598
 20
-4.7281917945
 30
0.0
 10
-4.1656587691
 20
-4.7359584849
 30
0.0
 10
-4.1272455313
 20
-4.7464183305
 30
0.0
 10
-4.0911716493
 20
-4.7592748662
 30
0.0
 10
-4.0462610825
 20
-4.7793500918
 30
0.0
 10
-3.9957559027
 20
-4.8098954974
 30
0.0
 10
-3.9445668875
 20
-4.8556940429
 30
0.0
 10
-3.9054414071
 20
-4.9110108976
 30
0.0
 10
-3.8776444181
 20
-4.9716704866
 30
0.0
 10
-3.8579406792
 20
-5.0386595656
 30
0.0
 10
-3.8455692395
 20
-5.1135632612
 30
0.0
 10
-3.8421867268
 20
-5.165380899
 30
0.0
 10
-3.8415710574
 20
-5.1929452276
 30
0.0
 11
-4.2919371532
 21
-4.7227669519
 31
0.0
 11
-4.2484372835
 21
-4.7240050278
 31
0.0
 11
-4.2063282201
 21
-4.728693638
 31
0.0
 11
-4.1659763112
 21
-4.7364073441
 31
0.0
 11
-4.127635424
 21
-4.7468177789
 31
0.0
 11
-4.0915701421
 21
-4.7596415135
 31
0.0
 11
-4.0578642594
 21
-4.7746947103
 31
0.0
 11
-3.9973254361
 21
-4.8114195072
 31
0.0
 11
-3.9465774766
 21
-4.8572804278
 31
0.0
 11
-3.907329489
 21
-4.9119013533
 31
0.0
 11
-3.8789932931
 21
-4.9727254016
 31
0.0
 11
-3.8591627291
 21
-5.0399786684
 31
0.0
 11
-3.846785518
 21
-5.1140337214
 31
0.0
 11
-3.8415710574
 21
-5.1929452276
 31
0.0
  0
SPLINE
  5
586
100
AcDbEntity
  8
CURVE
100
AcDbSpline
 62
253
  6
CONTINUOUS
 70
0
 71
3
 72
15
 73
11
 74
9
 42
0.0000001
 43
0.0000001
 44
0.0000000001
 12
0.0695645166
 22
0.5991787465
 32
0.0
 13
0.5365269352
 23
0.0080162948
 33
0.0
 40
0.0
 40
0.0
 40
0.0
 40
0.0
 40
0.125
 40
0.25
 40
0.375
 40
0.5
 40
0.625
 40
0.75
 40
0.875
 40
1.0
 40
1.0
 40
1.0
 40
1.0
 10
-4.6546516047
 20
-5.0646762428
 30
0.0
 10
-4.6517530832
 20
-5.0397104617
 30
0.0
 10
-4.6420270585
 20
-4.993139002
 30
0.0
 10
-4.6166689015
 20
-4.9271079946
 30
0.0
 10
-4.5805510085
 20
-4.866858733
 30
0.0
 10
-4.5346518292
 20
-4.8156564167
 30
0.0
 10
-4.4801883576
 20
-4.7754962117
 30
0.0
 10
-4.4197378911
 20
-4.7460223092
 30
0.0
 10
-4.3567581351
 20
-4.7278975816
 30
0.0
 10
-4.3142924426
 20
-4.7231009391
 30
0.0
 10
-4.2919371536
 20
-4.7227669268
 30
0.0
 11
-4.6546516047
 21
-5.0646762428
 31
0.0
 11
-4.6402322052
 21
-4.993776699
 31
0.0
 11
-4.6148756122
 21
-4.9280716189
 31
0.0
 11
-4.5789207941
 21
-4.8683665572
 31
0.0
 11
-4.5332244472
 21
-4.8174967686
 31
0.0
 11
-4.4791905251
 21
-4.7772772621
 31
0.0
 11
-4.4193163428
 21
-4.7479138384
 31
0.0
 11
-4.3566383379
 21
-4.7297192089
 31
0.0
 11
-4.2919371536
 21
-4.7227669268
 31
0.0
  0
SPLINE
  5
587
100
AcDbEntity
  8
CURVE
100
AcDbSpline
 62
253
  6
CONTINUOUS
 70
0
 71
3
 72
10
 73
6
 74
4
 42
0.0000001
 43
0.0000001
 44
0.0000000001
 12
-0.7656039328
 22
-0.2079358597
 32
0.0
 13
-0.8022656268
 23
-0.218568685
 33
0.0
 40
0.0
 40
0.0
 40
0.0
 40
0.0
 40
0.3333333333
 40
0.6666666667
 40
1.0
 40
1.0
 40
1.0
 40
1.0
 10
-2.231913804
 20
-4.0096915666
 30
0.0
 10
-2.3169809076
 20
-4.032795551
 30
0.0
 10
-2.4889446271
 20
-4.0773604846
 30
0.0
 10
-2.750315725
 20
-4.1452990122
 30
0.0
 10
-2.9274828966
 20
-4.1922957169
 30
0.0
 10
-3.0166235218
 20
-4.2165811263
 30
0.0
 11
-2.231913804
 21
-4.0096915666
 31
0.0
 11
-2.4895155469
 21
-4.0775423392
 31
0.0
 11
-2.7510456683
 21
-4.1457251004
 31
0.0
 11
-3.0166235218
 21
-4.2165811263
 31
0.0
  0
SPLINE
  5
588
100
AcDbEntity
  8
CURVE
100
AcDbSpline
 62
253
  6
CONTINUOUS
 70
0
 71
3
 72
12
 73
8
 74
6
 42
0.0000001
 43
0.0000001
 44
0.0000000001
 12
0.8047254888
 22
0.3024390705
 32
0.0
 13
0.9393939351
 23
0.2700795284
 33
0.0
 40
0.0
 40
0.0
 40
0.0
 40
0.0
 40
0.3333333333
 40
0.5
 40
0.6666666667
 40
0.8333333333
 40
1.0
 40
1.0
 40
1.0
 40
1.0
 10
-3.1114878074
 20
-4.8566768693
 30
0.0
 10
-3.0220738642
 20
-4.8230725282
 30
0.0
 10
-2.8822117233
 20
-4.7790656839
 30
0.0
 10
-2.6877414473
 20
-4.7242811631
 30
0.0
 10
-2.538870546
 20
-4.6817834897
 30
0.0
 10
-2.3873163323
 20
-4.6371061569
 30
0.0
 10
-2.2841023559
 20
-4.6068967084
 30
0.0
 10
-2.231913804
 20
-4.5918922902
 30
0.0
 11
-3.1114878074
 21
-4.8566768693
 31
0.0
 11
-2.8329285359
 21
-4.7656938263
 31
0.0
 11
-2.6872384149
 21
-4.7240462826
 31
0.0
 11
-2.5384233272
 21
-4.6814202131
 31
0.0
 11
-2.3867718738
 21
-4.6370000169
 31
0.0
 11
-2.231913804
 21
-4.5918922902
 31
0.0
  0
SPLINE
  5
589
100
AcDbEntity
  8
CURVE
100
AcDbSpline
 62
253
  6
CONTINUOUS
 70
0
 71
3
 72
14
 73
10
 74
8
 42
0.0000001
 43
0.0000001
 44
0.0000000001
 12
0.0
 22
0.456919301
 32
0.0
 13
0.5116072217
 23
0.192330085
 33
0.0
 40
0.0
 40
0.0
 40
0.0
 40
0.0
 40
0.125
 40
0.25
 40
0.375
 40
0.5
 40
0.625
 40
0.75
 40
1.0
 40
1.0
 40
1.0
 40
1.0
 10
-3.3666779182
 20
-5.1942498791
 30
0.0
 10
-3.3666779182
 20
-5.1752115749
 30
0.0
 10
-3.3638555136
 20
-5.1390461519
 30
0.0
 10
-3.3516106381
 20
-5.0863966842
 30
0.0
 10
-3.3316598551
 20
-5.038022176
 30
0.0
 10
-3.3032596801
 20
-4.9934836472
 30
0.0
 10
-3.2673126806
 20
-4.952916567
 30
0.0
 10
-3.209139004
 20
-4.9036576753
 30
0.0
 10
-3.1540609228
 20
-4.8726814872
 30
0.0
 10
-3.1114269877
 20
-4.8566539801
 30
0.0
 11
-3.3666779182
 21
-5.1942498791
 31
0.0
 11
-3.3625203022
 21
-5.1393125964
 31
0.0
 11
-3.3503263202
 21
-5.0871091775
 31
0.0
 11
-3.3302516231
 21
-5.0386615059
 31
0.0
 11
-3.302001876
 21
-4.9941455553
 31
0.0
 11
-3.2660321376
 21
-4.9535203856
 31
0.0
 11
-3.2224104427
 21
-4.9166355072
 31
0.0
 11
-3.1114269877
 21
-4.8566539801
 31
0.0
  0
SPLINE
  5
58A
100
AcDbEntity
  8
CURVE
100
AcDbSpline
 62
253
  6
CONTINUOUS
 70
0
 71
3
 72
13
 73
9
 74
7
 42
0.0000001
 43
0.0000001
 44
0.0000000001
 12
-0.4246108421
 22
-1.175305065
 32
0.0
 13
0.2600787363
 23
-1.7678357148
 33
0.0
 40
0.0
 40
0.0
 40
0.0
 40
0.0
 40
0.125
 40
0.25
 40
0.375
 40
0.5
 40
0.75
 40
1.0
 40
1.0
 40
1.0
 40
1.0
 10
-5.0671606589
 20
-4.627900671
 30
0.0
 10
-5.0848527774
 20
-4.6768717154
 30
0.0
 10
-5.1143658671
 20
-4.7784194264
 30
0.0
 10
-5.1435922115
 20
-4.9430908759
 30
0.0
 10
-5.1603566989
 20
-5.1179674836
 30
0.0
 10
-5.1694671
 20
-5.3630248523
 30
0.0
 10
-5.1548907842
 20
-5.6911408179
 30
0.0
 10
-5.1193627316
 20
-5.9742982533
 30
0.0
 10
-5.0976895036
 20
-6.1216178962
 30
0.0
 11
-5.0671606589
 21
-4.627900671
 31
0.0
 11
-5.1118586521
 21
-4.7804777402
 31
0.0
 11
-5.1415152353
 21
-4.9447917356
 31
0.0
 11
-5.1587014178
 21
-5.1194535534
 31
0.0
 11
-5.1654585452
 21
-5.3032134604
 31
0.0
 11
-5.1489240342
 21
-5.6963069836
 31
0.0
 11
-5.0976895036
 21
-6.1216178962
 31
0.0
  0
SPLINE
  5
58B
100
AcDbEntity
  8
CURVE
100
AcDbSpline
 62
253
  6
CONTINUOUS
 70
0
 71
3
 72
35
 73
31
 74
29
 42
0.0000001
 43
0.0000001
 44
0.0000000001
 12
-0.1040210863
 22
0.8061634184
 32
0.0
 13
-0.9846461798
 23
-2.7294152155
 33
0.0
 40
0.0
 40
0.0
 40
0.0
 40
0.0
 40
0.03125
 40
0.0625
 40
0.09375
 40
0.109375
 40
0.125
 40
0.140625
 40
0.15625
 40
0.1875
 40
0.25
 40
0.3125
 40
0.375
 40
0.4375
 40
0.5
 40
0.5625
 40
0.625
 40
0.6875
 40
0.71875
 40
0.75
 40
0.78125
 40
0.8125
 40
0.84375
 40
0.875
 40
0.90625
 40
0.921875
 40
0.9375
 40
0.953125
 40
0.96875
 40
1.0
 40
1.0
 40
1.0
 40
1.0
 10
-3.6025806502
 20
-4.5654948419
 30
0.0
 10
-3.6036642032
 20
-4.5570973063
 30
0.0
 10
-3.6082014824
 20
-4.5404660222
 30
0.0
 10
-3.6207523773
 20
-4.5166855541
 30
0.0
 10
-3.6348127865
 20
-4.4972441665
 30
0.0
 10
-3.6473610698
 20
-4.4816526482
 30
0.0
 10
-3.6570283784
 20
-4.4699448698
 30
0.0
 10
-3.666794314
 20
-4.4582548328
 30
0.0
 10
-3.6800909641
 20
-4.4426181561
 30
0.0
 10
-3.7044671265
 20
-4.4147807656
 30
0.0
 10
-3.7434329453
 20
-4.3735439668
 30
0.0
 10
-3.7988013124
 20
-4.3240565005
 30
0.0
 10
-3.8659990011
 20
-4.276829093
 30
0.0
 10
-3.945075205
 20
-4.2337496538
 30
0.0
 10
-4.037595956
 20
-4.1965382037
 30
0.0
 10
-4.1432175113
 20
-4.168846072
 30
0.0
 10
-4.2612909047
 20
-4.1539712012
 30
0.0
 10
-4.3722342135
 20
-4.154635935
 30
0.0
 10
-4.4700703195
 20
-4.16595891
 30
0.0
 10
-4.5461292276
 20
-4.1812776184
 30
0.0
 10
-4.6260890097
 20
-4.2056605568
 30
0.0
 10
-4.7056158599
 20
-4.239803758
 30
0.0
 10
-4.782287684
 20
-4.2835883773
 30
0.0
 10
-4.8548360959
 20
-4.3367772726
 30
0.0
 10
-4.9108542021
 20
-4.3891685609
 30
0.0
 10
-4.9520465621
 20
-4.4354054543
 30
0.0
 10
-4.9803526877
 20
-4.4712657479
 30
0.0
 10
-5.0061837523
 20
-4.5081188782
 30
0.0
 10
-5.0377181719
 20
-4.5592866647
 30
0.0
 10
-5.0569039279
 20
-4.5994692626
 30
0.0
 10
-5.0671606589
 20
-4.627900671
 30
0.0
 11
-3.6025806502
 21
-4.5654948419
 31
0.0
 11
-3.6091589784
 21
-4.5406604318
 31
0.0
 11
-3.6214726433
 21
-4.5167606879
 31
0.0
 11
-3.638058187
 21
-4.4933430862
 31
0.0
 11
-3.6474037525
 21
-4.4816502916
 31
0.0
 11
-3.6570448162
 21
-4.4699478267
 31
0.0
 11
-3.6668287393
 21
-4.4582485877
 31
0.0
 11
-3.676819517
 21
-4.4465047916
 31
0.0
 11
-3.6977786906
 21
-4.4226363659
 31
0.0
 11
-3.7448678427
 21
-4.3735434155
 31
0.0
 11
-3.800772866
 21
-4.324433177
 31
0.0
 11
-3.8679787537
 21
-4.277520421
 31
0.0
 11
-3.9473159629
 21
-4.234727652
 31
0.0
 11
-4.0397794234
 21
-4.1981247568
 31
0.0
 11
-4.1452928177
 21
-4.1709822821
 31
0.0
 11
-4.2638006676
 21
-4.1565832931
 31
0.0
 11
-4.3974500282
 21
-4.1583659444
 31
0.0
 11
-4.4705172909
 21
-4.1670966562
 31
0.0
 11
-4.5467793733
 21
-4.1827883234
 31
0.0
 11
-4.6260168544
 21
-4.2072872673
 31
0.0
 11
-4.7051400222
 21
-4.241410661
 31
0.0
 11
-4.7816004486
 21
-4.2851557567
 31
0.0
 11
-4.8539483152
 21
-4.3383907144
 31
0.0
 11
-4.9208504484
 21
-4.4010881061
 31
0.0
 11
-4.9516152047
 21
-4.4356025582
 31
0.0
 11
-4.9799401775
 21
-4.4714312207
 31
0.0
 11
-5.0058203773
 21
-4.5083726631
 31
0.0
 11
-5.0293384494
 21
-4.546695469
 31
0.0
 11
-5.0671606589
 21
-4.627900671
 31
0.0
  0
SPLINE
  5
58C
100
AcDbEntity
  8
CURVE
100
AcDbSpline
 62
253
  6
CONTINUOUS
 70
0
 71
3
 72
15
 73
11
 74
9
 42
0.0000001
 43
0.0000001
 44
0.0000000001
 12
-0.8110885687
 22
-0.220977226
 32
0.0
 13
-0.2060122261
 23
-0.5166450812
 33
0.0
 40
0.0
 40
0.0
 40
0.0
 40
0.0
 40
0.2
 40
0.4
 40
0.5
 40
0.6
 40
0.7
 40
0.8
 40
0.9
 40
1.0
 40
1.0
 40
1.0
 40
1.0
 10
-3.0166441911
 20
-4.2165867579
 30
0.0
 10
-3.0707167624
 20
-4.2313185729
 30
0.0
 10
-3.174875788
 20
-4.2586522328
 30
0.0
 10
-3.2921067758
 20
-4.3037799829
 30
0.0
 10
-3.3759097781
 20
-4.3468410953
 30
0.0
 10
-3.4327184644
 20
-4.382610371
 30
0.0
 10
-3.4843755971
 20
-4.4233432487
 30
0.0
 10
-3.5279067519
 20
-4.4679659861
 30
0.0
 10
-3.5618908675
 20
-4.5150081031
 30
0.0
 10
-3.5785791532
 20
-4.5482733392
 30
0.0
 10
-3.5854462274
 20
-4.5654948419
 30
0.0
 11
-3.0166441911
 21
-4.2165867579
 31
0.0
 11
-3.1722822292
 21
-4.2608443679
 31
0.0
 11
-3.3122257107
 21
-4.3151251703
 31
0.0
 11
-3.3749025172
 21
-4.3474200022
 31
0.0
 11
-3.4318598722
 21
-4.383437638
 31
0.0
 11
-3.4830212674
 21
-4.4239915586
 31
0.0
 11
-3.5263155787
 21
-4.468369216
 31
0.0
 11
-3.5603989197
 21
-4.5154840593
 31
0.0
 11
-3.5854462274
 21
-4.5654948419
 31
0.0
  0
ELLIPSE
  5
58D
100
AcDbEntity
  8
RACCORDO
100
AcDbEllipse
 62
7
  6
CONTINUOUS
 10
38.292382224
 20
-21.1600315126
 30
0.0
 11
0.4473055582
 21
-0.2236357461
 31
0.0
 40
0.9998096356
 41
-2.6780516535
 42
-1.6308275078
  0
ELLIPSE
  5
58E
100
AcDbEntity
  8
RACCORDO
100
AcDbEllipse
 62
7
  6
CONTINUOUS
 10
82.0922298959
 20
22.639930409
 30
0.0
 11
0.4473055582
 21
-0.2236357461
 31
0.0
 40
0.9998096356
 41
0.4635410001
 42
1.5107651457
  0
ELLIPSE
  5
58F
100
AcDbEntity
  8
RACCORDO
100
AcDbEllipse
 62
7
  6
CONTINUOUS
 10
82.0922298959
 20
-21.1600315126
 30
0.0
 11
0.4473055582
 21
0.2236357461
 31
0.0
 40
0.9998096356
 41
-1.5708772868
 42
-0.4635410001
  0
ELLIPSE
  5
590
100
AcDbEntity
  8
RACCORDO
100
AcDbEllipse
 62
7
  6
CONTINUOUS
 10
38.292382224
 20
22.639930409
 30
0.0
 11
0.4473055582
 21
0.2236357461
 31
0.0
 40
0.9998096356
 41
1.5707153668
 42
2.6780516535
  0
ELLIPSE
  5
591
100
AcDbEntity
  8
RACCORDO
100
AcDbEllipse
 62
7
  6
CONTINUOUS
 10
61.0495825781
 20
-21.5945408277
 30
0.0
 11
0.25
 21
-0.0
 31
0.0
 40
0.0524077793
 41
1.5707963268
 42
3.1357748894
  0
ELLIPSE
  5
592
100
AcDbEntity
  8
RACCORDO
100
AcDbEllipse
 62
7
  6
CONTINUOUS
 10
45.0452234366
 20
24.5370405333
 30
0.0
 11
0.5
 21
-0.0
 31
0.0
 40
0.0058178298
 41
-3.1357748894
 42
-2.495179495
  0
ELLIPSE
  5
593
100
AcDbEntity
  8
RACCORDO
100
AcDbEllipse
 62
7
  6
CONTINUOUS
 10
81.8350295418
 20
23.0744397241
 30
0.0
 11
0.25
 21
0.0
 31
0.0
 40
0.0524077793
 41
-1.5707963268
 42
-0.5261092631
  0
ELLIPSE
  5
594
100
AcDbEntity
  8
RACCORDO
100
AcDbEllipse
 62
7
  6
CONTINUOUS
 10
79.9495825781
 20
23.0744397241
 30
0.0
 11
0.25
 21
0.0
 31
0.0
 40
0.0524077793
 41
-3.1357748894
 42
-1.5707963268
  0
ELLIPSE
  5
595
100
AcDbEntity
  8
RACCORDO
100
AcDbEllipse
 62
7
  6
CONTINUOUS
 10
45.0452234366
 20
23.1137455585
 30
0.0
 11
0.5
 21
-0.0
 31
0.0
 40
0.0524077793
 41
-3.1357748894
 42
-1.5707963268
  0
ELLIPSE
  5
596
100
AcDbEntity
  8
RACCORDO
100
AcDbEllipse
 62
7
  6
CONTINUOUS
 10
52.8393886833
 20
-23.0571416369
 30
0.0
 11
0.5
 21
0.0
 31
0.0
 40
0.0058178298
 41
0.0058177642
 42
0.6464131586
  0
ELLIPSE
  5
597
100
AcDbEntity
  8
RACCORDO
100
AcDbEllipse
 62
7
  6
CONTINUOUS
 10
52.8393886833
 20
-21.6338466622
 30
0.0
 11
0.5
 21
-0.0
 31
0.0
 40
0.0524077793
 41
0.0058177642
 42
1.5707963268
  0
ELLIPSE
  5
598
100
AcDbEntity
  8
RACCORDO
100
AcDbEllipse
 62
7
  6
CONTINUOUS
 10
45.0452234366
 20
-21.6338466622
 30
0.0
 11
0.5
 21
-0.0
 31
0.0
 40
0.0524077793
 41
1.5707963268
 42
3.1357748894
  0
ELLIPSE
  5
599
100
AcDbEntity
  8
RACCORDO
100
AcDbEllipse
 62
7
  6
CONTINUOUS
 10
45.0452234366
 20
-23.0571416369
 30
0.0
 11
0.5
 21
-0.0
 31
0.0
 40
0.0058178298
 41
2.495179495
 42
3.1357748894
  0
ELLIPSE
  5
59A
100
AcDbEntity
  8
RACCORDO
100
AcDbEllipse
 62
7
  6
CONTINUOUS
 10
62.9350295418
 20
23.0744397241
 30
0.0
 11
0.25
 21
0.0
 31
0.0
 40
0.0524077793
 41
-1.5707963268
 42
-0.0058177642
  0
ELLIPSE
  5
59B
100
AcDbEntity
  8
RACCORDO
100
AcDbEllipse
 62
7
  6
CONTINUOUS
 10
61.0495825781
 20
23.0744397241
 30
0.0
 11
0.25
 21
0.0
 31
0.0
 40
0.0524077793
 41
-3.1357748894
 42
-1.5707963268
  0
ELLIPSE
  5
59C
100
AcDbEntity
  8
RACCORDO
100
AcDbEllipse
 62
7
  6
CONTINUOUS
 10
81.8350295418
 20
-21.5945408277
 30
0.0
 11
0.25
 21
-0.0
 31
0.0
 40
0.0524077793
 41
0.5261092631
 42
1.5707963268
  0
ELLIPSE
  5
59D
100
AcDbEntity
  8
RACCORDO
100
AcDbEllipse
 62
7
  6
CONTINUOUS
 10
59.3350295418
 20
-21.5945408277
 30
0.0
 11
0.25
 21
-0.0
 31
0.0
 40
0.0524077793
 41
0.0058177642
 42
1.5707963268
  0
ELLIPSE
  5
59E
100
AcDbEntity
  8
RACCORDO
100
AcDbEllipse
 62
7
  6
CONTINUOUS
 10
57.4495825781
 20
-21.5945408277
 30
0.0
 11
0.25
 21
0.0
 31
0.0
 40
0.0524077793
 41
1.5707963268
 42
3.1357748894
  0
ELLIPSE
  5
59F
100
AcDbEntity
  8
RACCORDO
100
AcDbEllipse
 62
7
  6
CONTINUOUS
 10
75.3393886833
 20
23.1137455585
 30
0.0
 11
0.5
 21
-0.0
 31
0.0
 40
0.0524077793
 41
-1.5707963268
 42
-0.0058177642
  0
ELLIPSE
  5
5A0
100
AcDbEntity
  8
RACCORDO
100
AcDbEllipse
 62
7
  6
CONTINUOUS
 10
79.9495825781
 20
-21.5945408277
 30
0.0
 11
0.25
 21
0.0
 31
0.0
 40
0.0524077793
 41
1.5707963268
 42
3.1357748894
  0
ELLIPSE
  5
5A1
100
AcDbEntity
  8
RACCORDO
100
AcDbEllipse
 62
7
  6
CONTINUOUS
 10
75.3393886833
 20
24.5370405333
 30
0.0
 11
0.5
 21
-0.0
 31
0.0
 40
0.0058178298
 41
-0.6464131586
 42
-0.0058177642
  0
ELLIPSE
  5
5A2
100
AcDbEntity
  8
RACCORDO
100
AcDbEllipse
 62
7
  6
CONTINUOUS
 10
40.4350295418
 20
-21.5945408277
 30
0.0
 11
0.25
 21
-0.0
 31
0.0
 40
0.0524077793
 41
0.0058177642
 42
1.5707963268
  0
ELLIPSE
  5
5A3
100
AcDbEntity
  8
RACCORDO
100
AcDbEllipse
 62
7
  6
CONTINUOUS
 10
38.5495825781
 20
-21.5945408277
 30
0.0
 11
0.25
 21
-0.0
 31
0.0
 40
0.0524077793
 41
1.5707963268
 42
2.6154833905
  0
ELLIPSE
  5
5A4
100
AcDbEntity
  8
RACCORDO
100
AcDbEllipse
 62
7
  6
CONTINUOUS
 10
59.3350295418
 20
23.0744397241
 30
0.0
 11
0.25
 21
-0.0
 31
0.0
 40
0.0524077793
 41
-1.5707963268
 42
-0.0058177642
  0
ELLIPSE
  5
5A5
100
AcDbEntity
  8
RACCORDO
100
AcDbEllipse
 62
7
  6
CONTINUOUS
 10
67.5452234366
 20
24.5370405333
 30
0.0
 11
0.5
 21
0.0
 31
0.0
 40
0.0058178298
 41
-3.1357748894
 42
-2.495179495
  0
ELLIPSE
  5
5A6
100
AcDbEntity
  8
RACCORDO
100
AcDbEllipse
 62
7
  6
CONTINUOUS
 10
67.5452234366
 20
23.1137455585
 30
0.0
 11
0.5
 21
0.0
 31
0.0
 40
0.0524077793
 41
-3.1357748894
 42
-1.5707963268
  0
ELLIPSE
  5
5A7
100
AcDbEntity
  8
RACCORDO
100
AcDbEllipse
 62
7
  6
CONTINUOUS
 10
75.3393886833
 20
-23.0571416369
 30
0.0
 11
0.5
 21
0.0
 31
0.0
 40
0.0058178298
 41
0.0058177642
 42
0.6464131586
  0
ELLIPSE
  5
5A8
100
AcDbEntity
  8
RACCORDO
100
AcDbEllipse
 62
7
  6
CONTINUOUS
 10
75.3393886833
 20
-21.6338466622
 30
0.0
 11
0.5
 21
-0.0
 31
0.0
 40
0.0524077793
 41
0.0058177642
 42
1.5707963268
  0
ELLIPSE
  5
5A9
100
AcDbEntity
  8
RACCORDO
100
AcDbEllipse
 62
7
  6
CONTINUOUS
 10
67.5452234366
 20
-21.6338466622
 30
0.0
 11
0.5
 21
-0.0
 31
0.0
 40
0.0524077793
 41
1.5707963268
 42
3.1357748894
  0
ELLIPSE
  5
5AA
100
AcDbEntity
  8
RACCORDO
100
AcDbEllipse
 62
7
  6
CONTINUOUS
 10
67.5452234366
 20
-23.0571416369
 30
0.0
 11
0.5
 21
-0.0
 31
0.0
 40
0.0058178298
 41
2.495179495
 42
3.1357748894
  0
ELLIPSE
  5
5AB
100
AcDbEntity
  8
RACCORDO
100
AcDbEllipse
 62
7
  6
CONTINUOUS
 10
57.4495825781
 20
23.0744397241
 30
0.0
 11
0.25
 21
-0.0
 31
0.0
 40
0.0524077793
 41
-3.1357748894
 42
-1.5707963268
  0
ELLIPSE
  5
5AC
100
AcDbEntity
  8
RACCORDO
100
AcDbEllipse
 62
7
  6
CONTINUOUS
 10
40.4350295418
 20
23.0744397241
 30
0.0
 11
0.25
 21
-0.0
 31
0.0
 40
0.0524077793
 41
-1.5707963268
 42
-0.0058177642
  0
ELLIPSE
  5
5AD
100
AcDbEntity
  8
RACCORDO
100
AcDbEllipse
 62
7
  6
CONTINUOUS
 10
38.5495825781
 20
23.0744397241
 30
0.0
 11
0.25
 21
0.0
 31
0.0
 40
0.0524077793
 41
-2.6154833905
 42
-1.5707963268
  0
ELLIPSE
  5
5AE
100
AcDbEntity
  8
RACCORDO
100
AcDbEllipse
 62
7
  6
CONTINUOUS
 10
52.8393886833
 20
23.1137455585
 30
0.0
 11
0.5
 21
0.0
 31
0.0
 40
0.0524077793
 41
-1.5707963268
 42
-0.0058177642
  0
ELLIPSE
  5
5AF
100
AcDbEntity
  8
RACCORDO
100
AcDbEllipse
 62
7
  6
CONTINUOUS
 10
62.9350295418
 20
-21.5945408277
 30
0.0
 11
0.25
 21
0.0
 31
0.0
 40
0.0524077793
 41
0.0058177642
 42
1.5707963268
  0
ELLIPSE
  5
5B0
100
AcDbEntity
  8
RACCORDO
100
AcDbEllipse
 62
7
  6
CONTINUOUS
 10
52.8393886833
 20
24.5370405333
 30
0.0
 11
0.5
 21
-0.0
 31
0.0
 40
0.0058178298
 41
-0.6464131586
 42
-0.0058177642
  0
ELLIPSE
  5
5B1
100
AcDbEntity
  8
RACCORDO
100
AcDbEllipse
 62
7
  6
CONTINUOUS
 10
1.7760898438
 20
-21.3259498327
 30
0.0
 11
0.1655034707
 21
0.4718141596
 31
0.0
 40
1.0
 41
-0.581479428
 42
0.3199171786
  0
ELLIPSE
  5
5B2
100
AcDbEntity
  8
RACCORDO
100
AcDbEllipse
 62
7
  6
CONTINUOUS
 10
1.7760898438
 20
22.805848729
 30
0.0
 11
0.4056210926
 21
0.2923551423
 31
0.0
 40
1.0
 41
-2.1778659205
 42
-1.2764693139
  0
ELLIPSE
  5
5B3
100
AcDbEntity
  8
RACCORDO
100
AcDbEllipse
 62
7
  6
CONTINUOUS
 10
-7.2174329928
 20
-21.2383155015
 30
0.0
 11
42.9720690761
 21
-2.2519182643
 31
0.0
 40
0.0116195205
 41
-1.6052406624
 42
-1.6019342201
  0
ELLIPSE
  5
5B4
100
AcDbEntity
  8
RACCORDO
100
AcDbEllipse
 62
7
  6
CONTINUOUS
 10
-7.2174329928
 20
-21.2383155015
 30
0.0
 11
42.9720690761
 21
-2.2519182643
 31
0.0
 40
0.0116195205
 41
-1.6344111767
 42
-1.6055440735
  0
ELLIPSE
  5
5B5
100
AcDbEntity
  8
RACCORDO
100
AcDbEllipse
 62
7
  6
CONTINUOUS
 10
-7.2174329928
 20
22.7182143979
 30
0.0
 11
42.9720690761
 21
2.2519182643
 31
0.0
 40
0.0116195205
 41
1.6019342201
 42
1.6052394703
  0
ELLIPSE
  5
5B6
100
AcDbEntity
  8
RACCORDO
100
AcDbEllipse
 62
7
  6
CONTINUOUS
 10
-7.2174329928
 20
22.7182143979
 30
0.0
 11
42.9720690761
 21
2.2519182643
 31
0.0
 40
0.0116195205
 41
1.6055440735
 42
1.6344111767
  0
ELLIPSE
  5
5B7
100
AcDbEntity
  8
CURVE
100
AcDbEllipse
 62
253
  6
CONTINUOUS
 10
6.7280498438
 20
-8.3249385518
 30
0.0
 11
1.1599579048
 21
1.3764074206
 31
0.0
 40
1.0
 41
-4.0677071916
 42
-2.6511972904
  0
ELLIPSE
  5
5B8
100
AcDbEntity
  8
CURVE
100
AcDbEllipse
 62
253
  6
CONTINUOUS
 10
6.7280498438
 20
-8.3249385518
 30
0.0
 11
2.519729716
 21
-0.3917337254
 31
0.0
 40
1.0
 41
-2.9842175292
 42
0.1934576527
  0
ELLIPSE
  5
5B9
100
AcDbEntity
  8
CURVE
100
AcDbEllipse
 62
253
  6
CONTINUOUS
 10
6.7280498438
 20
-8.3249385518
 30
0.0
 11
-1.2727900006
 21
1.2727900006
 31
0.0
 40
1.0
 41
-3.7171198556
 42
-2.3006102205
  0
ELLIPSE
  5
5BA
100
AcDbEntity
  8
CURVE
100
AcDbEllipse
 62
253
  6
CONTINUOUS
 10
6.7280498438
 20
-12.7100485518
 30
0.0
 11
1.8031212318
 21
-1.8031212318
 31
0.0
 40
1.0
 41
-2.3530512555
 42
0.8246239311
  0
ELLIPSE
  5
5BB
100
AcDbEntity
  8
CURVE
100
AcDbEllipse
 62
253
  6
CONTINUOUS
 10
6.7280498438
 20
-12.7100485518
 30
0.0
 11
-0.6091400956
 21
1.6937969395
 31
0.0
 40
1.0
 41
1.1699842099
 42
4.3382579159
  0
ELLIPSE
  5
5BC
100
AcDbEntity
  8
CURVE
100
AcDbEllipse
 62
253
  6
CONTINUOUS
 10
6.7280498438
 20
-8.3249385518
 30
0.0
 11
2.1732330433
 21
-1.3339982357
 31
0.0
 40
1.0
 41
-2.6302909476
 42
-2.5879219452
  0
ELLIPSE
  5
5BD
100
AcDbEntity
  8
CURVE
100
AcDbEllipse
 62
253
  6
CONTINUOUS
 10
6.7280498438
 20
-12.7100485518
 30
0.0
 11
2.2453064295
 21
1.2087561338
 31
0.0
 40
1.0
 41
2.6085135712
 42
2.6508825737
  0
ELLIPSE
  5
5BE
100
AcDbEntity
  8
CURVE
100
AcDbEllipse
 62
253
  6
CONTINUOUS
 10
6.7280498438
 20
-12.7100485518
 30
0.0
 11
1.710030631
 21
-0.5619563769
 31
0.0
 40
1.0
 41
0.2886026754
 42
0.3730899742
  0
ENDSEC
  0
SECTION
  2
OBJECTS
  0
DICTIONARY
  5
C
100
AcDbDictionary
280
0
281
1
  3
ACAD_GROUP
350
D
  3
ACAD_MLINESTYLE
350
17
  3
ACAD_LAYOUT
350
1A
  3
ACAD_PLOTSETTINGS
350
19
  3
ACAD_PLOTSTYLENAME
350
E
  0
DICTIONARY
  5
D
102
{ACAD_REACTORS
330
C
102
}
100
AcDbDictionary
280
0
281
1
  0
ACDBDICTIONARYWDFLT
  5
E
102
{ACAD_REACTORS
330
C
102
}
100
AcDbDictionary
281
1
  3
Normal
350
F
100
AcDbDictionaryWithDefault
340
F
  0
DICTIONARY
  5
17
102
{ACAD_REACTORS
330
C
102
}
100
AcDbDictionary
280
0
281
1
  3
Standard
350
18
  0
DICTIONARY
  5
19
102
{ACAD_REACTORS
330
C
102
}
100
AcDbDictionary
281
1
  0
DICTIONARY
  5
1A
102
{ACAD_REACTORS
330
C
102
}
100
AcDbDictionary
281
1
  3
Model
350
5BF
  3
Layout1
350
5C0
  0
ACDBPLACEHOLDER
  5
F
102
{ACAD_REACTORS
330
E
102
}
  0
MLINESTYLE
  5
18
102
{ACAD_REACTORS
330
17
102
}
100
AcDbMlineStyle
  2
STANDARD
 70
0
  3

 62
256
 51
90.0
 52
90.0
 71
2
 49
0.5
 62
256
  6
BYLAYER
 49
-0.5
 62
256
  6
BYLAYER
  0
LAYOUT
  5
5BF
102
{ACAD_REACTORS
330
1A
102
}
100
AcDbPlotSettings
  1

  2
none_device
  4
ISO_A4_(297.00_x_210.00_MM)
  6

 40
0.0
 41
0.0
 42
0.0
 43
0.0
 44
297.0
 45
210.0
 46
0.0
 47
0.0
 48
0.0
 49
0.0
140
0.0
141
0.0
142
1.0
143
1.0
 70
1024
 72
1
 73
0
 74
0
  7

 75
0
147
1.0
148
0.0
149
0.0
100
AcDbLayout
  1
Model
 70
0
 71
0
 10
0.0
 20
0.0
 11
297.0
 21
210.0
 12
0.0
 22
0.0
 32
0.0
 14
0.0
 24
0.0
 34
0.0
 15
0.0
 25
0.0
 35
0.0
146
0.0
 13
0.0
 23
0.0
 33
0.0
 16
1.0
 26
0.0
 36
0.0
 17
0.0
 27
1.0
 37
0.0
 76
0
330
216
345
0
346
0
  0
LAYOUT
  5
5C0
102
{ACAD_REACTORS
330
1A
102
}
100
AcDbPlotSettings
  1

  2
none_device
  4
ISO_A4_(297.00_x_210.00_MM)
  6

 40
0.0
 41
0.0
 42
0.0
 43
0.0
 44
297.0
 45
210.0
 46
0.0
 47
0.0
 48
0.0
 49
0.0
140
0.0
141
0.0
142
1.0
143
1.0
 70
0
 72
1
 73
0
 74
0
  7

 75
0
147
1.0
148
0.0
149
0.0
100
AcDbLayout
  1
Layout1
 70
0
 71
1
 10
0.0
 20
0.0
 11
297.0
 21
210.0
 12
0.0
 22
0.0
 32
0.0
 14
0.0
 24
0.0
 34
0.0
 15
0.0
 25
0.0
 35
0.0
146
0.0
 13
0.0
 23
0.0
 33
0.0
 16
1.0
 26
0.0
 36
0.0
 17
0.0
 27
1.0
 37
0.0
 76
0
330
217
345
0
346
0
  0
ENDSEC
  0
EOF
