  0
SECTION
  2
HEADER
  9
$ACADVER
  1
AC1015
  9
$DWGCODEPAGE
  3
ANSI_1252
  9
$EXTMAX
 10
297.0
 20
210.0
 30
0.0
  9
$EXTMIN
 10
0.0
 20
0.0
 30
0.0
  9
$LIMMIN
 10
0.0
 20
0.0
  9
$LIMMAX
 10
297.0
 20
210.0
  9
$VIEWCTR
 10
148.5
 20
105.0
  9
$VIEWSIZE
 40
210.0
  9
$CLAYER
  8
0
  9
$LTSCALE
 40
16.335
  9
$CELTYPE
  6
BYLAYER
  9
$DIMSCALE
 40
1.0
  9
$DIMASZ
 40
3.0
  9
$DIMEXO
 40
1.85625
  9
$DIMDLI
 40
11.286
  9
$DIMEXE
 40
5.346
  9
$DIMCEN
 40
2.673
  9
$DIMLFAC
 40
1.0
  9
$DIMBLK
  1
_FILLED
  9
$DIMTXT
 40
3.0
  9
$DIMTOL
 70
1
  9
$DIMLIM
 70
0
  9
$DIMTFAC
 40
1.0
  9
$DIMTP
 40
0.01
  9
$DIMTM
 40
0.01
  9
$PDMODE
 70
3
  9
$PDSIZE
 40
3.0
  9
$HANDSEED
  5
79E
  9
$TILEMODE
 70
1
  9
$MEASUREMENT
 70
1
  9
$INSUNITS
 70
4
  0
ENDSEC
  0
SECTION
  2
CLASSES
  0
CLASS
  1
ACDBDICTIONARYWDFLT
  2
AcDbDictionaryWithDefault
  3
AutoCAD 2000
 90
0
280
0
281
0
  0
CLASS
  1
ACDBPLACEHOLDER
  2
AcDbPlaceHolder
  3
AutoCAD 2000
 90
0
280
0
281
0
  0
CLASS
  1
LAYOUT
  2
AcDbLayout
  3
AutoCAD 2000
 90
0
280
0
281
0
  0
ENDSEC
  0
SECTION
  2
TABLES
  0
TABLE
  2
VPORT
  5
8
100
AcDbSymbolTable
 70
2
  0
VPORT
  5
1F4
100
AcDbSymbolTableRecord
100
AcDbViewportTableRecord
  2
*ACTIVE
 70
0
 10
0.0
 20
0.0
 11
1.0
 21
1.0
 12
148.5
 22
105.0
 13
0.0
 23
0.0
 14
1.0
 24
1.0
 15
0.0
 25
0.0
 16
0.0
 26
0.0
 36
1.0
 17
0.0
 27
0.0
 37
0.0
 40
210.0
 41
1.4142857143
 42
50.0
 43
0.0
 44
0.0
 50
0.0
 51
0.0
 71
0
 72
100
 73
1
 74
1
 75
0
 76
0
 77
0
 78
0
  0
ENDTAB
  0
TABLE
  2
LTYPE
  5
5
100
AcDbSymbolTable
 70
6
  0
LTYPE
  5
14
100
AcDbSymbolTableRecord
100
AcDbLinetypeTableRecord
  2
BYBLOCK
 70
0
  3

 72
65
 73
0
 40
0.0
  0
LTYPE
  5
15
100
AcDbSymbolTableRecord
100
AcDbLinetypeTableRecord
  2
BYLAYER
 70
0
  3

 72
65
 73
0
 40
0.0
  0
LTYPE
  5
16
100
AcDbSymbolTableRecord
100
AcDbLinetypeTableRecord
  2
CONTINUOUS
 70
64
  3
Solid line
 72
65
 73
0
 40
0.0
  0
LTYPE
  5
1F5
100
AcDbSymbolTableRecord
100
AcDbLinetypeTableRecord
  2
CENTER
 70
64
  3
____ _ ____ _ ____ _ ____ _ ____ _ ____ _ ____
 72
65
 73
4
 40
0.6
 49
0.375
 74
0
 49
-0.075
 74
0
 49
0.075
 74
0
 49
-0.075
 74
0
  0
LTYPE
  5
1F6
100
AcDbSymbolTableRecord
100
AcDbLinetypeTableRecord
  2
HIDDEN
 70
64
  3
- - - - - - - - - - - - - - - - - - - -
 72
65
 73
2
 40
0.2
 49
0.1
 74
0
 49
-0.1
 74
0
  0
LTYPE
  5
1F7
100
AcDbSymbolTableRecord
100
AcDbLinetypeTableRecord
  2
PHANTOM
 70
64
  3
_____ _ _ _____ _ _ _____ _ _ _____
 72
65
 73
6
 40
0.8
 49
0.45
 74
0
 49
-0.05
 74
0
 49
0.1
 74
0
 49
-0.05
 74
0
 49
0.1
 74
0
 49
-0.05
 74
0
  0
LTYPE
  5
1F8
100
AcDbSymbolTableRecord
100
AcDbLinetypeTableRecord
  2
DOT
 70
64
  3
. . . . . . . . . . . . . . . . . . . .
 72
65
 73
2
 40
0.2
 49
0.1
 74
0
 49
-0.1
 74
0
  0
LTYPE
  5
1F9
100
AcDbSymbolTableRecord
100
AcDbLinetypeTableRecord
  2
DASHED
 70
64
  3
- - - - - - - - - - - - - - - - - - - -
 72
65
 73
2
 40
0.2
 49
0.1
 74
0
 49
-0.1
 74
0
  0
ENDTAB
  0
TABLE
  2
LAYER
  5
2
100
AcDbSymbolTable
 70
36
  0
LAYER
  5
10
100
AcDbSymbolTableRecord
100
AcDbLayerTableRecord
  2
0
 70
0
 62
7
  6
CONTINUOUS
370
-3
390
F
  0
LAYER
  5
1FA
100
AcDbSymbolTableRecord
100
AcDbLayerTableRecord
  2
DEFAULT_1
 70
0
 62
7
  6
CENTER
370
-3
390
F
  0
LAYER
  5
1FB
100
AcDbSymbolTableRecord
100
AcDbLayerTableRecord
  2
DEFAULT_2
 70
0
 62
7
  6
HIDDEN
370
-3
390
F
  0
LAYER
  5
1FC
100
AcDbSymbolTableRecord
100
AcDbLayerTableRecord
  2
DEFAULT_3
 70
0
 62
7
  6
PHANTOM
370
-3
390
F
  0
LAYER
  5
1FD
100
AcDbSymbolTableRecord
100
AcDbLayerTableRecord
  2
_  SHELL
 70
0
 62
7
  6
CONTINUOUS
370
-3
390
F
  0
LAYER
  5
1FE
100
AcDbSymbolTableRecord
100
AcDbLayerTableRecord
  2
200A_170000
 70
0
 62
7
  6
CONTINUOUS
370
-3
390
F
  0
LAYER
  5
1FF
100
AcDbSymbolTableRecord
100
AcDbLayerTableRecord
  2
200A_170000_1
 70
0
 62
7
  6
CONTINUOUS
370
-3
390
F
  0
LAYER
  5
200
100
AcDbSymbolTableRecord
100
AcDbLayerTableRecord
  2
200A_170000_2
 70
0
 62
7
  6
CONTINUOUS
370
-3
390
F
  0
LAYER
  5
201
100
AcDbSymbolTableRecord
100
AcDbLayerTableRecord
  2
200A_170000_3
 70
0
 62
7
  6
CONTINUOUS
370
-3
390
F
  0
LAYER
  5
202
100
AcDbSymbolTableRecord
100
AcDbLayerTableRecord
  2
2125-CC-RF-VIMAR_65000
 70
0
 62
7
  6
CONTINUOUS
370
-3
390
F
  0
LAYER
  5
203
100
AcDbSymbolTableRecord
100
AcDbLayerTableRecord
  2
2125-CC-RF-VIMAR_65000_1
 70
0
 62
7
  6
CONTINUOUS
370
-3
390
F
  0
LAYER
  5
204
100
AcDbSymbolTableRecord
100
AcDbLayerTableRecord
  2
2125-CC-RF-VIMAR_65000_2
 70
0
 62
7
  6
CONTINUOUS
370
-3
390
F
  0
LAYER
  5
205
100
AcDbSymbolTableRecord
100
AcDbLayerTableRecord
  2
2125-CC-RF-VIMAR_65000_3
 70
0
 62
7
  6
CONTINUOUS
370
-3
390
F
  0
LAYER
  5
206
100
AcDbSymbolTableRecord
100
AcDbLayerTableRecord
  2
2125-CC-RF-VIMAR_65000_4
 70
0
 62
7
  6
CONTINUOUS
370
-3
390
F
  0
LAYER
  5
207
100
AcDbSymbolTableRecord
100
AcDbLayerTableRecord
  2
2125-CC-RF-VIMAR_65000_5
 70
0
 62
7
  6
CONTINUOUS
370
-3
390
F
  0
LAYER
  5
208
100
AcDbSymbolTableRecord
100
AcDbLayerTableRecord
  2
2125-CC-RF-VIMAR_65000_6
 70
0
 62
7
  6
CONTINUOUS
370
-3
390
F
  0
LAYER
  5
209
100
AcDbSymbolTableRecord
100
AcDbLayerTableRecord
  2
2125-R1-RF-VIMAR_60000
 70
0
 62
7
  6
CONTINUOUS
370
-3
390
F
  0
LAYER
  5
20A
100
AcDbSymbolTableRecord
100
AcDbLayerTableRecord
  2
2125-R1-RF-VIMAR_60000_1
 70
0
 62
7
  6
CONTINUOUS
370
-3
390
F
  0
LAYER
  5
20B
100
AcDbSymbolTableRecord
100
AcDbLayerTableRecord
  2
2125-R1-RF-VIMAR_60000_2
 70
0
 62
7
  6
CONTINUOUS
370
-3
390
F
  0
LAYER
  5
20C
100
AcDbSymbolTableRecord
100
AcDbLayerTableRecord
  2
2125-R1-RF-VIMAR_60000_3
 70
0
 62
7
  6
CONTINUOUS
370
-3
390
F
  0
LAYER
  5
20D
100
AcDbSymbolTableRecord
100
AcDbLayerTableRecord
  2
2125-R1-RF-VIMAR_60000_4
 70
0
 62
7
  6
CONTINUOUS
370
-3
390
F
  0
LAYER
  5
20E
100
AcDbSymbolTableRecord
100
AcDbLayerTableRecord
  2
3225-CF1-RF-VIMAR_260000
 70
0
 62
7
  6
CONTINUOUS
370
-3
390
F
  0
LAYER
  5
20F
100
AcDbSymbolTableRecord
100
AcDbLayerTableRecord
  2
3225-CF1-RF-VIMAR_260000_1
 70
0
 62
7
  6
CONTINUOUS
370
-3
390
F
  0
LAYER
  5
210
100
AcDbSymbolTableRecord
100
AcDbLayerTableRecord
  2
3225-CF1-RF-VIMAR_260000_2
 70
0
 62
7
  6
CONTINUOUS
370
-3
390
F
  0
LAYER
  5
211
100
AcDbSymbolTableRecord
100
AcDbLayerTableRecord
  2
43000234B0
 70
0
 62
7
  6
CONTINUOUS
370
-3
390
F
  0
LAYER
  5
212
100
AcDbSymbolTableRecord
100
AcDbLayerTableRecord
  2
6432-R-RF-VIMAR_110000
 70
0
 62
7
  6
CONTINUOUS
370
-3
390
F
  0
LAYER
  5
213
100
AcDbSymbolTableRecord
100
AcDbLayerTableRecord
  2
ALIMENTAZIONE
 70
0
 62
7
  6
CONTINUOUS
370
-3
390
F
  0
LAYER
  5
214
100
AcDbSymbolTableRecord
100
AcDbLayerTableRecord
  2
ASM0001
 70
0
 62
7
  6
CONTINUOUS
370
-3
390
F
  0
LAYER
  5
215
100
AcDbSymbolTableRecord
100
AcDbLayerTableRecord
  2
ASSI
 70
0
 62
7
  6
CONTINUOUS
370
-3
390
F
  0
LAYER
  5
216
100
AcDbSymbolTableRecord
100
AcDbLayerTableRecord
  2
CAPC1005X60N_60000
 70
0
 62
7
  6
CONTINUOUS
370
-3
390
F
  0
LAYER
  5
217
100
AcDbSymbolTableRecord
100
AcDbLayerTableRecord
  2
CAPC1005X60N_60000_1
 70
0
 62
7
  6
CONTINUOUS
370
-3
390
F
  0
LAYER
  5
218
100
AcDbSymbolTableRecord
100
AcDbLayerTableRecord
  2
CAPC1005X60N_60000_10
 70
0
 62
7
  6
CONTINUOUS
370
-3
390
F
  0
LAYER
  5
219
100
AcDbSymbolTableRecord
100
AcDbLayerTableRecord
  2
CAPC1005X60N_60000_11
 70
0
 62
7
  6
CONTINUOUS
370
-3
390
F
  0
LAYER
  5
21A
100
AcDbSymbolTableRecord
100
AcDbLayerTableRecord
  2
CAPC1005X60N_60000_12
 70
0
 62
7
  6
CONTINUOUS
370
-3
390
F
  0
LAYER
  5
21B
100
AcDbSymbolTableRecord
100
AcDbLayerTableRecord
  2
CAPC1005X60N_60000_13
 70
0
 62
7
  6
CONTINUOUS
370
-3
390
F
  0
LAYER
  5
21C
100
AcDbSymbolTableRecord
100
AcDbLayerTableRecord
  2
CAPC1005X60N_60000_14
 70
0
 62
7
  6
CONTINUOUS
370
-3
390
F
  0
LAYER
  5
21D
100
AcDbSymbolTableRecord
100
AcDbLayerTableRecord
  2
CAPC1005X60N_60000_15
 70
0
 62
7
  6
CONTINUOUS
370
-3
390
F
  0
LAYER
  5
21E
100
AcDbSymbolTableRecord
100
AcDbLayerTableRecord
  2
CAPC1005X60N_60000_16
 70
0
 62
7
  6
CONTINUOUS
370
-3
390
F
  0
LAYER
  5
21F
100
AcDbSymbolTableRecord
100
AcDbLayerTableRecord
  2
CAPC1005X60N_60000_17
 70
0
 62
7
  6
CONTINUOUS
370
-3
390
F
  0
LAYER
  5
220
100
AcDbSymbolTableRecord
100
AcDbLayerTableRecord
  2
CAPC1005X60N_60000_18
 70
0
 62
7
  6
CONTINUOUS
370
-3
390
F
  0
LAYER
  5
221
100
AcDbSymbolTableRecord
100
AcDbLayerTableRecord
  2
CAPC1005X60N_60000_19
 70
0
 62
7
  6
CONTINUOUS
370
-3
390
F
  0
LAYER
  5
222
100
AcDbSymbolTableRecord
100
AcDbLayerTableRecord
  2
CAPC1005X60N_60000_2
 70
0
 62
7
  6
CONTINUOUS
370
-3
390
F
  0
LAYER
  5
223
100
AcDbSymbolTableRecord
100
AcDbLayerTableRecord
  2
CAPC1005X60N_60000_20
 70
0
 62
7
  6
CONTINUOUS
370
-3
390
F
  0
LAYER
  5
224
100
AcDbSymbolTableRecord
100
AcDbLayerTableRecord
  2
CAPC1005X60N_60000_21
 70
0
 62
7
  6
CONTINUOUS
370
-3
390
F
  0
LAYER
  5
225
100
AcDbSymbolTableRecord
100
AcDbLayerTableRecord
  2
CAPC1005X60N_60000_22
 70
0
 62
7
  6
CONTINUOUS
370
-3
390
F
  0
LAYER
  5
226
100
AcDbSymbolTableRecord
100
AcDbLayerTableRecord
  2
CAPC1005X60N_60000_23
 70
0
 62
7
  6
CONTINUOUS
370
-3
390
F
  0
LAYER
  5
227
100
AcDbSymbolTableRecord
100
AcDbLayerTableRecord
  2
CAPC1005X60N_60000_24
 70
0
 62
7
  6
CONTINUOUS
370
-3
390
F
  0
LAYER
  5
228
100
AcDbSymbolTableRecord
100
AcDbLayerTableRecord
  2
CAPC1005X60N_60000_25
 70
0
 62
7
  6
CONTINUOUS
370
-3
390
F
  0
LAYER
  5
229
100
AcDbSymbolTableRecord
100
AcDbLayerTableRecord
  2
CAPC1005X60N_60000_26
 70
0
 62
7
  6
CONTINUOUS
370
-3
390
F
  0
LAYER
  5
22A
100
AcDbSymbolTableRecord
100
AcDbLayerTableRecord
  2
CAPC1005X60N_60000_27
 70
0
 62
7
  6
CONTINUOUS
370
-3
390
F
  0
LAYER
  5
22B
100
AcDbSymbolTableRecord
100
AcDbLayerTableRecord
  2
CAPC1005X60N_60000_28
 70
0
 62
7
  6
CONTINUOUS
370
-3
390
F
  0
LAYER
  5
22C
100
AcDbSymbolTableRecord
100
AcDbLayerTableRecord
  2
CAPC1005X60N_60000_29
 70
0
 62
7
  6
CONTINUOUS
370
-3
390
F
  0
LAYER
  5
22D
100
AcDbSymbolTableRecord
100
AcDbLayerTableRecord
  2
CAPC1005X60N_60000_3
 70
0
 62
7
  6
CONTINUOUS
370
-3
390
F
  0
LAYER
  5
22E
100
AcDbSymbolTableRecord
100
AcDbLayerTableRecord
  2
CAPC1005X60N_60000_30
 70
0
 62
7
  6
CONTINUOUS
370
-3
390
F
  0
LAYER
  5
22F
100
AcDbSymbolTableRecord
100
AcDbLayerTableRecord
  2
CAPC1005X60N_60000_31
 70
0
 62
7
  6
CONTINUOUS
370
-3
390
F
  0
LAYER
  5
230
100
AcDbSymbolTableRecord
100
AcDbLayerTableRecord
  2
CAPC1005X60N_60000_32
 70
0
 62
7
  6
CONTINUOUS
370
-3
390
F
  0
LAYER
  5
231
100
AcDbSymbolTableRecord
100
AcDbLayerTableRecord
  2
CAPC1005X60N_60000_33
 70
0
 62
7
  6
CONTINUOUS
370
-3
390
F
  0
LAYER
  5
232
100
AcDbSymbolTableRecord
100
AcDbLayerTableRecord
  2
CAPC1005X60N_60000_34
 70
0
 62
7
  6
CONTINUOUS
370
-3
390
F
  0
LAYER
  5
233
100
AcDbSymbolTableRecord
100
AcDbLayerTableRecord
  2
CAPC1005X60N_60000_35
 70
0
 62
7
  6
CONTINUOUS
370
-3
390
F
  0
LAYER
  5
234
100
AcDbSymbolTableRecord
100
AcDbLayerTableRecord
  2
CAPC1005X60N_60000_36
 70
0
 62
7
  6
CONTINUOUS
370
-3
390
F
  0
LAYER
  5
235
100
AcDbSymbolTableRecord
100
AcDbLayerTableRecord
  2
CAPC1005X60N_60000_37
 70
0
 62
7
  6
CONTINUOUS
370
-3
390
F
  0
LAYER
  5
236
100
AcDbSymbolTableRecord
100
AcDbLayerTableRecord
  2
CAPC1005X60N_60000_38
 70
0
 62
7
  6
CONTINUOUS
370
-3
390
F
  0
LAYER
  5
237
100
AcDbSymbolTableRecord
100
AcDbLayerTableRecord
  2
CAPC1005X60N_60000_39
 70
0
 62
7
  6
CONTINUOUS
370
-3
390
F
  0
LAYER
  5
238
100
AcDbSymbolTableRecord
100
AcDbLayerTableRecord
  2
CAPC1005X60N_60000_4
 70
0
 62
7
  6
CONTINUOUS
370
-3
390
F
  0
LAYER
  5
239
100
AcDbSymbolTableRecord
100
AcDbLayerTableRecord
  2
CAPC1005X60N_60000_40
 70
0
 62
7
  6
CONTINUOUS
370
-3
390
F
  0
LAYER
  5
23A
100
AcDbSymbolTableRecord
100
AcDbLayerTableRecord
  2
CAPC1005X60N_60000_41
 70
0
 62
7
  6
CONTINUOUS
370
-3
390
F
  0
LAYER
  5
23B
100
AcDbSymbolTableRecord
100
AcDbLayerTableRecord
  2
CAPC1005X60N_60000_42
 70
0
 62
7
  6
CONTINUOUS
370
-3
390
F
  0
LAYER
  5
23C
100
AcDbSymbolTableRecord
100
AcDbLayerTableRecord
  2
CAPC1005X60N_60000_5
 70
0
 62
7
  6
CONTINUOUS
370
-3
390
F
  0
LAYER
  5
23D
100
AcDbSymbolTableRecord
100
AcDbLayerTableRecord
  2
CAPC1005X60N_60000_6
 70
0
 62
7
  6
CONTINUOUS
370
-3
390
F
  0
LAYER
  5
23E
100
AcDbSymbolTableRecord
100
AcDbLayerTableRecord
  2
CAPC1005X60N_60000_7
 70
0
 62
7
  6
CONTINUOUS
370
-3
390
F
  0
LAYER
  5
23F
100
AcDbSymbolTableRecord
100
AcDbLayerTableRecord
  2
CAPC1005X60N_60000_8
 70
0
 62
7
  6
CONTINUOUS
370
-3
390
F
  0
LAYER
  5
240
100
AcDbSymbolTableRecord
100
AcDbLayerTableRecord
  2
CAPC1005X60N_60000_9
 70
0
 62
7
  6
CONTINUOUS
370
-3
390
F
  0
LAYER
  5
241
100
AcDbSymbolTableRecord
100
AcDbLayerTableRecord
  2
CAPC1608N_80000
 70
0
 62
7
  6
CONTINUOUS
370
-3
390
F
  0
LAYER
  5
242
100
AcDbSymbolTableRecord
100
AcDbLayerTableRecord
  2
CAPC1608N_80000_1
 70
0
 62
7
  6
CONTINUOUS
370
-3
390
F
  0
LAYER
  5
243
100
AcDbSymbolTableRecord
100
AcDbLayerTableRecord
  2
CAPC1608N_80000_2
 70
0
 62
7
  6
CONTINUOUS
370
-3
390
F
  0
LAYER
  5
244
100
AcDbSymbolTableRecord
100
AcDbLayerTableRecord
  2
CAPC1608N_80000_3
 70
0
 62
7
  6
CONTINUOUS
370
-3
390
F
  0
LAYER
  5
245
100
AcDbSymbolTableRecord
100
AcDbLayerTableRecord
  2
CAPC1608N_80000_4
 70
0
 62
7
  6
CONTINUOUS
370
-3
390
F
  0
LAYER
  5
246
100
AcDbSymbolTableRecord
100
AcDbLayerTableRecord
  2
CAPC1608N_80000_5
 70
0
 62
7
  6
CONTINUOUS
370
-3
390
F
  0
LAYER
  5
247
100
AcDbSymbolTableRecord
100
AcDbLayerTableRecord
  2
CAPC1608N_80000_6
 70
0
 62
7
  6
CONTINUOUS
370
-3
390
F
  0
LAYER
  5
248
100
AcDbSymbolTableRecord
100
AcDbLayerTableRecord
  2
CAPC1608N_80000_7
 70
0
 62
7
  6
CONTINUOUS
370
-3
390
F
  0
LAYER
  5
249
100
AcDbSymbolTableRecord
100
AcDbLayerTableRecord
  2
CAPC1608N_80000_8
 70
0
 62
7
  6
CONTINUOUS
370
-3
390
F
  0
LAYER
  5
24A
100
AcDbSymbolTableRecord
100
AcDbLayerTableRecord
  2
CC-0603-VIMAR_1000
 70
0
 62
7
  6
CONTINUOUS
370
-3
390
F
  0
LAYER
  5
24B
100
AcDbSymbolTableRecord
100
AcDbLayerTableRecord
  2
CN-243-VIMAR_850000
 70
0
 62
7
  6
CONTINUOUS
370
-3
390
F
  0
LAYER
  5
24C
100
AcDbSymbolTableRecord
100
AcDbLayerTableRecord
  2
CN-243-VIMAR_850000_1
 70
0
 62
7
  6
CONTINUOUS
370
-3
390
F
  0
LAYER
  5
24D
100
AcDbSymbolTableRecord
100
AcDbLayerTableRecord
  2
CN1-TP10_SMD-VIMAR_01_10000
 70
0
 62
7
  6
CONTINUOUS
370
-3
390
F
  0
LAYER
  5
24E
100
AcDbSymbolTableRecord
100
AcDbLayerTableRecord
  2
CN1-TP10_SMD-VIMAR_01_10000_1
 70
0
 62
7
  6
CONTINUOUS
370
-3
390
F
  0
LAYER
  5
24F
100
AcDbSymbolTableRecord
100
AcDbLayerTableRecord
  2
CN1-TP10_SMD-VIMAR_01_10000_10
 70
0
 62
7
  6
CONTINUOUS
370
-3
390
F
  0
LAYER
  5
250
100
AcDbSymbolTableRecord
100
AcDbLayerTableRecord
  2
CN1-TP10_SMD-VIMAR_01_10000_11
 70
0
 62
7
  6
CONTINUOUS
370
-3
390
F
  0
LAYER
  5
251
100
AcDbSymbolTableRecord
100
AcDbLayerTableRecord
  2
CN1-TP10_SMD-VIMAR_01_10000_12
 70
0
 62
7
  6
CONTINUOUS
370
-3
390
F
  0
LAYER
  5
252
100
AcDbSymbolTableRecord
100
AcDbLayerTableRecord
  2
CN1-TP10_SMD-VIMAR_01_10000_13
 70
0
 62
7
  6
CONTINUOUS
370
-3
390
F
  0
LAYER
  5
253
100
AcDbSymbolTableRecord
100
AcDbLayerTableRecord
  2
CN1-TP10_SMD-VIMAR_01_10000_14
 70
0
 62
7
  6
CONTINUOUS
370
-3
390
F
  0
LAYER
  5
254
100
AcDbSymbolTableRecord
100
AcDbLayerTableRecord
  2
CN1-TP10_SMD-VIMAR_01_10000_15
 70
0
 62
7
  6
CONTINUOUS
370
-3
390
F
  0
LAYER
  5
255
100
AcDbSymbolTableRecord
100
AcDbLayerTableRecord
  2
CN1-TP10_SMD-VIMAR_01_10000_16
 70
0
 62
7
  6
CONTINUOUS
370
-3
390
F
  0
LAYER
  5
256
100
AcDbSymbolTableRecord
100
AcDbLayerTableRecord
  2
CN1-TP10_SMD-VIMAR_01_10000_17
 70
0
 62
7
  6
CONTINUOUS
370
-3
390
F
  0
LAYER
  5
257
100
AcDbSymbolTableRecord
100
AcDbLayerTableRecord
  2
CN1-TP10_SMD-VIMAR_01_10000_18
 70
0
 62
7
  6
CONTINUOUS
370
-3
390
F
  0
LAYER
  5
258
100
AcDbSymbolTableRecord
100
AcDbLayerTableRecord
  2
CN1-TP10_SMD-VIMAR_01_10000_19
 70
0
 62
7
  6
CONTINUOUS
370
-3
390
F
  0
LAYER
  5
259
100
AcDbSymbolTableRecord
100
AcDbLayerTableRecord
  2
CN1-TP10_SMD-VIMAR_01_10000_2
 70
0
 62
7
  6
CONTINUOUS
370
-3
390
F
  0
LAYER
  5
25A
100
AcDbSymbolTableRecord
100
AcDbLayerTableRecord
  2
CN1-TP10_SMD-VIMAR_01_10000_20
 70
0
 62
7
  6
CONTINUOUS
370
-3
390
F
  0
LAYER
  5
25B
100
AcDbSymbolTableRecord
100
AcDbLayerTableRecord
  2
CN1-TP10_SMD-VIMAR_01_10000_21
 70
0
 62
7
  6
CONTINUOUS
370
-3
390
F
  0
LAYER
  5
25C
100
AcDbSymbolTableRecord
100
AcDbLayerTableRecord
  2
CN1-TP10_SMD-VIMAR_01_10000_22
 70
0
 62
7
  6
CONTINUOUS
370
-3
390
F
  0
LAYER
  5
25D
100
AcDbSymbolTableRecord
100
AcDbLayerTableRecord
  2
CN1-TP10_SMD-VIMAR_01_10000_23
 70
0
 62
7
  6
CONTINUOUS
370
-3
390
F
  0
LAYER
  5
25E
100
AcDbSymbolTableRecord
100
AcDbLayerTableRecord
  2
CN1-TP10_SMD-VIMAR_01_10000_24
 70
0
 62
7
  6
CONTINUOUS
370
-3
390
F
  0
LAYER
  5
25F
100
AcDbSymbolTableRecord
100
AcDbLayerTableRecord
  2
CN1-TP10_SMD-VIMAR_01_10000_25
 70
0
 62
7
  6
CONTINUOUS
370
-3
390
F
  0
LAYER
  5
260
100
AcDbSymbolTableRecord
100
AcDbLayerTableRecord
  2
CN1-TP10_SMD-VIMAR_01_10000_26
 70
0
 62
7
  6
CONTINUOUS
370
-3
390
F
  0
LAYER
  5
261
100
AcDbSymbolTableRecord
100
AcDbLayerTableRecord
  2
CN1-TP10_SMD-VIMAR_01_10000_27
 70
0
 62
7
  6
CONTINUOUS
370
-3
390
F
  0
LAYER
  5
262
100
AcDbSymbolTableRecord
100
AcDbLayerTableRecord
  2
CN1-TP10_SMD-VIMAR_01_10000_28
 70
0
 62
7
  6
CONTINUOUS
370
-3
390
F
  0
LAYER
  5
263
100
AcDbSymbolTableRecord
100
AcDbLayerTableRecord
  2
CN1-TP10_SMD-VIMAR_01_10000_29
 70
0
 62
7
  6
CONTINUOUS
370
-3
390
F
  0
LAYER
  5
264
100
AcDbSymbolTableRecord
100
AcDbLayerTableRecord
  2
CN1-TP10_SMD-VIMAR_01_10000_3
 70
0
 62
7
  6
CONTINUOUS
370
-3
390
F
  0
LAYER
  5
265
100
AcDbSymbolTableRecord
100
AcDbLayerTableRecord
  2
CN1-TP10_SMD-VIMAR_01_10000_30
 70
0
 62
7
  6
CONTINUOUS
370
-3
390
F
  0
LAYER
  5
266
100
AcDbSymbolTableRecord
100
AcDbLayerTableRecord
  2
CN1-TP10_SMD-VIMAR_01_10000_4
 70
0
 62
7
  6
CONTINUOUS
370
-3
390
F
  0
LAYER
  5
267
100
AcDbSymbolTableRecord
100
AcDbLayerTableRecord
  2
CN1-TP10_SMD-VIMAR_01_10000_5
 70
0
 62
7
  6
CONTINUOUS
370
-3
390
F
  0
LAYER
  5
268
100
AcDbSymbolTableRecord
100
AcDbLayerTableRecord
  2
CN1-TP10_SMD-VIMAR_01_10000_6
 70
0
 62
7
  6
CONTINUOUS
370
-3
390
F
  0
LAYER
  5
269
100
AcDbSymbolTableRecord
100
AcDbLayerTableRecord
  2
CN1-TP10_SMD-VIMAR_01_10000_7
 70
0
 62
7
  6
CONTINUOUS
370
-3
390
F
  0
LAYER
  5
26A
100
AcDbSymbolTableRecord
100
AcDbLayerTableRecord
  2
CN1-TP10_SMD-VIMAR_01_10000_8
 70
0
 62
7
  6
CONTINUOUS
370
-3
390
F
  0
LAYER
  5
26B
100
AcDbSymbolTableRecord
100
AcDbLayerTableRecord
  2
CN1-TP10_SMD-VIMAR_01_10000_9
 70
0
 62
7
  6
CONTINUOUS
370
-3
390
F
  0
LAYER
  5
26C
100
AcDbSymbolTableRecord
100
AcDbLayerTableRecord
  2
CN1-TP10_SMD-VIMAR_10000
 70
0
 62
7
  6
CONTINUOUS
370
-3
390
F
  0
LAYER
  5
26D
100
AcDbSymbolTableRecord
100
AcDbLayerTableRecord
  2
CN1-TP10_SMD-VIMAR_10000_1
 70
0
 62
7
  6
CONTINUOUS
370
-3
390
F
  0
LAYER
  5
26E
100
AcDbSymbolTableRecord
100
AcDbLayerTableRecord
  2
CN1-TP10_SMD-VIMAR_10000_2
 70
0
 62
7
  6
CONTINUOUS
370
-3
390
F
  0
LAYER
  5
26F
100
AcDbSymbolTableRecord
100
AcDbLayerTableRecord
  2
CN1-TP10_SMD-VIMAR_10000_3
 70
0
 62
7
  6
CONTINUOUS
370
-3
390
F
  0
LAYER
  5
270
100
AcDbSymbolTableRecord
100
AcDbLayerTableRecord
  2
CN1-TP15_SMD-VIMAR_5000
 70
0
 62
7
  6
CONTINUOUS
370
-3
390
F
  0
LAYER
  5
271
100
AcDbSymbolTableRecord
100
AcDbLayerTableRecord
  2
CN1-TP15_SMD-VIMAR_5000_1
 70
0
 62
7
  6
CONTINUOUS
370
-3
390
F
  0
LAYER
  5
272
100
AcDbSymbolTableRecord
100
AcDbLayerTableRecord
  2
CN10-ZIF_P0_5-VIMAR_200000
 70
0
 62
7
  6
CONTINUOUS
370
-3
390
F
  0
LAYER
  5
273
100
AcDbSymbolTableRecord
100
AcDbLayerTableRecord
  2
CN_STRIP_6_P2_5-EH-VIMAR_600000
 70
0
 62
7
  6
CONTINUOUS
370
-3
390
F
  0
LAYER
  5
274
100
AcDbSymbolTableRecord
100
AcDbLayerTableRecord
  2
COLOR11
 70
0
 62
7
  6
CONTINUOUS
370
-3
390
F
  0
LAYER
  5
275
100
AcDbSymbolTableRecord
100
AcDbLayerTableRecord
  2
COLOR2
 70
0
 62
7
  6
CONTINUOUS
370
-3
390
F
  0
LAYER
  5
276
100
AcDbSymbolTableRecord
100
AcDbLayerTableRecord
  2
COLOR5
 70
0
 62
7
  6
CONTINUOUS
370
-3
390
F
  0
LAYER
  5
277
100
AcDbSymbolTableRecord
100
AcDbLayerTableRecord
  2
COORDINATE
 70
0
 62
7
  6
CONTINUOUS
370
-3
390
F
  0
LAYER
  5
278
100
AcDbSymbolTableRecord
100
AcDbLayerTableRecord
  2
COORD_ORIGINE
 70
0
 62
7
  6
CONTINUOUS
370
-3
390
F
  0
LAYER
  5
279
100
AcDbSymbolTableRecord
100
AcDbLayerTableRecord
  2
COPY_PUBLISH
 70
0
 62
7
  6
CONTINUOUS
370
-3
390
F
  0
LAYER
  5
27A
100
AcDbSymbolTableRecord
100
AcDbLayerTableRecord
  2
COSMETIC
 70
0
 62
7
  6
CONTINUOUS
370
-3
390
F
  0
LAYER
  5
27B
100
AcDbSymbolTableRecord
100
AcDbLayerTableRecord
  2
COSMETICI
 70
0
 62
7
  6
CONTINUOUS
370
-3
390
F
  0
LAYER
  5
27C
100
AcDbSymbolTableRecord
100
AcDbLayerTableRecord
  2
CP-CE4-RF_550000
 70
0
 62
7
  6
CONTINUOUS
370
-3
390
F
  0
LAYER
  5
27D
100
AcDbSymbolTableRecord
100
AcDbLayerTableRecord
  2
CP-CE4-RF_550000_1
 70
0
 62
7
  6
CONTINUOUS
370
-3
390
F
  0
LAYER
  5
27E
100
AcDbSymbolTableRecord
100
AcDbLayerTableRecord
  2
CP-CE5-RF_650000
 70
0
 62
7
  6
CONTINUOUS
370
-3
390
F
  0
LAYER
  5
27F
100
AcDbSymbolTableRecord
100
AcDbLayerTableRecord
  2
CP-CE6-RF_820000
 70
0
 62
7
  6
CONTINUOUS
370
-3
390
F
  0
LAYER
  5
280
100
AcDbSymbolTableRecord
100
AcDbLayerTableRecord
  2
CP-CE6-RF_820000_1
 70
0
 62
7
  6
CONTINUOUS
370
-3
390
F
  0
LAYER
  5
281
100
AcDbSymbolTableRecord
100
AcDbLayerTableRecord
  2
CP-DO-214AC-D-VIMAR_240000
 70
0
 62
7
  6
CONTINUOUS
370
-3
390
F
  0
LAYER
  5
282
100
AcDbSymbolTableRecord
100
AcDbLayerTableRecord
  2
CP-DO-214AC-D-VIMAR_240000_1
 70
0
 62
7
  6
CONTINUOUS
370
-3
390
F
  0
LAYER
  5
283
100
AcDbSymbolTableRecord
100
AcDbLayerTableRecord
  2
CP-DO-214AC-VIMAR_240000
 70
0
 62
7
  6
CONTINUOUS
370
-3
390
F
  0
LAYER
  5
284
100
AcDbSymbolTableRecord
100
AcDbLayerTableRecord
  2
CURVE
 70
0
 62
7
  6
CONTINUOUS
370
-3
390
F
  0
LAYER
  5
285
100
AcDbSymbolTableRecord
100
AcDbLayerTableRecord
  2
DRAFT
 70
0
 62
7
  6
CONTINUOUS
370
-3
390
F
  0
LAYER
  5
286
100
AcDbSymbolTableRecord
100
AcDbLayerTableRecord
  2
E2_MARK_10000
 70
0
 62
7
  6
CONTINUOUS
370
-3
390
F
  0
LAYER
  5
287
100
AcDbSymbolTableRecord
100
AcDbLayerTableRecord
  2
E2_MARK_10000_1
 70
0
 62
7
  6
CONTINUOUS
370
-3
390
F
  0
LAYER
  5
288
100
AcDbSymbolTableRecord
100
AcDbLayerTableRecord
  2
ECAD_200A_170000
 70
0
 62
7
  6
CONTINUOUS
370
-3
390
F
  0
LAYER
  5
289
100
AcDbSymbolTableRecord
100
AcDbLayerTableRecord
  2
ECAD_2125-CC-RF-VIMAR_65000
 70
0
 62
7
  6
CONTINUOUS
370
-3
390
F
  0
LAYER
  5
28A
100
AcDbSymbolTableRecord
100
AcDbLayerTableRecord
  2
ECAD_2125-R1-RF-VIMAR_60000
 70
0
 62
7
  6
CONTINUOUS
370
-3
390
F
  0
LAYER
  5
28B
100
AcDbSymbolTableRecord
100
AcDbLayerTableRecord
  2
ECAD_3225-CF1-RF-VIMAR_260000
 70
0
 62
7
  6
CONTINUOUS
370
-3
390
F
  0
LAYER
  5
28C
100
AcDbSymbolTableRecord
100
AcDbLayerTableRecord
  2
ECAD_6432-R-RF-VIMAR_110000
 70
0
 62
7
  6
CONTINUOUS
370
-3
390
F
  0
LAYER
  5
28D
100
AcDbSymbolTableRecord
100
AcDbLayerTableRecord
  2
ECAD_BZ-BST-0841A_330000
 70
0
 62
7
  6
CONTINUOUS
370
-3
390
F
  0
LAYER
  5
28E
100
AcDbSymbolTableRecord
100
AcDbLayerTableRecord
  2
ECAD_CAPC1005X60N_60000
 70
0
 62
7
  6
CONTINUOUS
370
-3
390
F
  0
LAYER
  5
28F
100
AcDbSymbolTableRecord
100
AcDbLayerTableRecord
  2
ECAD_CAPC1608N_80000
 70
0
 62
7
  6
CONTINUOUS
370
-3
390
F
  0
LAYER
  5
290
100
AcDbSymbolTableRecord
100
AcDbLayerTableRecord
  2
ECAD_CC-0603-VIMAR_1000
 70
0
 62
7
  6
CONTINUOUS
370
-3
390
F
  0
LAYER
  5
291
100
AcDbSymbolTableRecord
100
AcDbLayerTableRecord
  2
ECAD_CN04-ZIF_P1-VIMAR_270000
 70
0
 62
7
  6
CONTINUOUS
370
-3
390
F
  0
LAYER
  5
292
100
AcDbSymbolTableRecord
100
AcDbLayerTableRecord
  2
ECAD_CN1-TP10_SMD-VIMAR_01_1000
 70
0
 62
7
  6
CONTINUOUS
370
-3
390
F
  0
LAYER
  5
293
100
AcDbSymbolTableRecord
100
AcDbLayerTableRecord
  2
ECAD_CN1-TP10_SMD-VIMAR_10000
 70
0
 62
7
  6
CONTINUOUS
370
-3
390
F
  0
LAYER
  5
294
100
AcDbSymbolTableRecord
100
AcDbLayerTableRecord
  2
ECAD_CN1-TP15_SMD-VIMAR_5000
 70
0
 62
7
  6
CONTINUOUS
370
-3
390
F
  0
LAYER
  5
295
100
AcDbSymbolTableRecord
100
AcDbLayerTableRecord
  2
ECAD_CP-CE4-RF_550000
 70
0
 62
7
  6
CONTINUOUS
370
-3
390
F
  0
LAYER
  5
296
100
AcDbSymbolTableRecord
100
AcDbLayerTableRecord
  2
ECAD_CP-CE5-RF_650000
 70
0
 62
7
  6
CONTINUOUS
370
-3
390
F
  0
LAYER
  5
297
100
AcDbSymbolTableRecord
100
AcDbLayerTableRecord
  2
ECAD_CP-CE6-RF_820000
 70
0
 62
7
  6
CONTINUOUS
370
-3
390
F
  0
LAYER
  5
298
100
AcDbSymbolTableRecord
100
AcDbLayerTableRecord
  2
ECAD_CP-DO-214AC-D-VIMAR_240000
 70
0
 62
7
  6
CONTINUOUS
370
-3
390
F
  0
LAYER
  5
299
100
AcDbSymbolTableRecord
100
AcDbLayerTableRecord
  2
ECAD_CP-DO-214AC-VIMAR_240000
 70
0
 62
7
  6
CONTINUOUS
370
-3
390
F
  0
LAYER
  5
29A
100
AcDbSymbolTableRecord
100
AcDbLayerTableRecord
  2
ECAD_CP-SUPERCAP-SMD_190000
 70
0
 62
7
  6
CONTINUOUS
370
-3
390
F
  0
LAYER
  5
29B
100
AcDbSymbolTableRecord
100
AcDbLayerTableRecord
  2
ECAD_E2_MARK_10000
 70
0
 62
7
  6
CONTINUOUS
370
-3
390
F
  0
LAYER
  5
29C
100
AcDbSymbolTableRecord
100
AcDbLayerTableRecord
  2
ECAD_EPL65132-VIMAR_100000
 70
0
 62
7
  6
CONTINUOUS
370
-3
390
F
  0
LAYER
  5
29D
100
AcDbSymbolTableRecord
100
AcDbLayerTableRecord
  2
ECAD_LCD-VITL_1293_370000
 70
0
 62
7
  6
CONTINUOUS
370
-3
390
F
  0
LAYER
  5
29E
100
AcDbSymbolTableRecord
100
AcDbLayerTableRecord
  2
ECAD_LOGO_RESIST-RESTYLING_1000
 70
0
 62
7
  6
CONTINUOUS
370
-3
390
F
  0
LAYER
  5
29F
100
AcDbSymbolTableRecord
100
AcDbLayerTableRecord
  2
ECAD_L_SRR0604-RF-VIMAR_480000
 70
0
 62
7
  6
CONTINUOUS
370
-3
390
F
  0
LAYER
  5
2A0
100
AcDbSymbolTableRecord
100
AcDbLayerTableRecord
  2
ECAD_MM2-X-1-VIMAR_430000
 70
0
 62
7
  6
CONTINUOUS
370
-3
390
F
  0
LAYER
  5
2A1
100
AcDbSymbolTableRecord
100
AcDbLayerTableRecord
  2
ECAD_MM2-X-2-VIMAR_250000
 70
0
 62
7
  6
CONTINUOUS
370
-3
390
F
  0
LAYER
  5
2A2
100
AcDbSymbolTableRecord
100
AcDbLayerTableRecord
  2
ECAD_MM2-X-3-VIMAR_120000
 70
0
 62
7
  6
CONTINUOUS
370
-3
390
F
  0
LAYER
  5
2A3
100
AcDbSymbolTableRecord
100
AcDbLayerTableRecord
  2
ECAD_MM3-MPAK-RF-VIMAR_120000
 70
0
 62
7
  6
CONTINUOUS
370
-3
390
F
  0
LAYER
  5
2A4
100
AcDbSymbolTableRecord
100
AcDbLayerTableRecord
  2
ECAD_MM5-FMT-RF_120000
 70
0
 62
7
  6
CONTINUOUS
370
-3
390
F
  0
LAYER
  5
2A5
100
AcDbSymbolTableRecord
100
AcDbLayerTableRecord
  2
ECAD_MSOP8-T1-RF-VIMAR_86000
 70
0
 62
7
  6
CONTINUOUS
370
-3
390
F
  0
LAYER
  5
2A6
100
AcDbSymbolTableRecord
100
AcDbLayerTableRecord
  2
ECAD_NO-PB_MARK_10000
 70
0
 62
7
  6
CONTINUOUS
370
-3
390
F
  0
LAYER
  5
2A7
100
AcDbSymbolTableRecord
100
AcDbLayerTableRecord
  2
ECAD_RESC1005X40N_40000
 70
0
 62
7
  6
CONTINUOUS
370
-3
390
F
  0
LAYER
  5
2A8
100
AcDbSymbolTableRecord
100
AcDbLayerTableRecord
  2
ECAD_RESC1608N_45000
 70
0
 62
7
  6
CONTINUOUS
370
-3
390
F
  0
LAYER
  5
2A9
100
AcDbSymbolTableRecord
100
AcDbLayerTableRecord
  2
ECAD_RUBBERPAD-R-07X22_0
 70
0
 62
7
  6
CONTINUOUS
370
-3
390
F
  0
LAYER
  5
2AA
100
AcDbSymbolTableRecord
100
AcDbLayerTableRecord
  2
ECAD_SOD123_135000
 70
0
 62
7
  6
CONTINUOUS
370
-3
390
F
  0
LAYER
  5
2AB
100
AcDbSymbolTableRecord
100
AcDbLayerTableRecord
  2
ECAD_SOD323_125000
 70
0
 62
7
  6
CONTINUOUS
370
-3
390
F
  0
LAYER
  5
2AC
100
AcDbSymbolTableRecord
100
AcDbLayerTableRecord
  2
ECAD_SOP20-1-VIMAR_270000
 70
0
 62
7
  6
CONTINUOUS
370
-3
390
F
  0
LAYER
  5
2AD
100
AcDbSymbolTableRecord
100
AcDbLayerTableRecord
  2
ECAD_TFBGA208_1-VIMAR_120000
 70
0
 62
7
  6
CONTINUOUS
370
-3
390
F
  0
LAYER
  5
2AE
100
AcDbSymbolTableRecord
100
AcDbLayerTableRecord
  2
ECAD_TP10_SMD_0
 70
0
 62
7
  6
CONTINUOUS
370
-3
390
F
  0
LAYER
  5
2AF
100
AcDbSymbolTableRecord
100
AcDbLayerTableRecord
  2
ECAD_TSOP86-TI-RF_VIMAR_120000
 70
0
 62
7
  6
CONTINUOUS
370
-3
390
F
  0
LAYER
  5
2B0
100
AcDbSymbolTableRecord
100
AcDbLayerTableRecord
  2
ECAD_TSSOP16-RF-VIMAR_150000
 70
0
 62
7
  6
CONTINUOUS
370
-3
390
F
  0
LAYER
  5
2B1
100
AcDbSymbolTableRecord
100
AcDbLayerTableRecord
  2
ECAD_TSSOP8-RF-VIMAR_110000
 70
0
 62
7
  6
CONTINUOUS
370
-3
390
F
  0
LAYER
  5
2B2
100
AcDbSymbolTableRecord
100
AcDbLayerTableRecord
  2
IMPORT_IGES
 70
0
 62
7
  6
CONTINUOUS
370
-3
390
F
  0
LAYER
  5
2B3
100
AcDbSymbolTableRecord
100
AcDbLayerTableRecord
  2
INCISIONI
 70
0
 62
7
  6
CONTINUOUS
370
-3
390
F
  0
LAYER
  5
2B4
100
AcDbSymbolTableRecord
100
AcDbLayerTableRecord
  2
INTF_10
 70
0
 62
7
  6
CONTINUOUS
370
-3
390
F
  0
LAYER
  5
2B5
100
AcDbSymbolTableRecord
100
AcDbLayerTableRecord
  2
INTF_BLANK
 70
0
 62
7
  6
CONTINUOUS
370
-3
390
F
  0
LAYER
  5
2B6
100
AcDbSymbolTableRecord
100
AcDbLayerTableRecord
  2
LAY0001
 70
0
 62
7
  6
CONTINUOUS
370
-3
390
F
  0
LAYER
  5
2B7
100
AcDbSymbolTableRecord
100
AcDbLayerTableRecord
  2
LOGICA
 70
0
 62
7
  6
CONTINUOUS
370
-3
390
F
  0
LAYER
  5
2B8
100
AcDbSymbolTableRecord
100
AcDbLayerTableRecord
  2
LOGO_RESIST-RESTYLING_10000
 70
0
 62
7
  6
CONTINUOUS
370
-3
390
F
  0
LAYER
  5
2B9
100
AcDbSymbolTableRecord
100
AcDbLayerTableRecord
  2
LOGO_RESIST-RESTYLING_10000_1
 70
0
 62
7
  6
CONTINUOUS
370
-3
390
F
  0
LAYER
  5
2BA
100
AcDbSymbolTableRecord
100
AcDbLayerTableRecord
  2
L_SRR0604-RF-VIMAR_480000
 70
0
 62
7
  6
CONTINUOUS
370
-3
390
F
  0
LAYER
  5
2BB
100
AcDbSymbolTableRecord
100
AcDbLayerTableRecord
  2
MM2-X-1-VIMAR_430000
 70
0
 62
7
  6
CONTINUOUS
370
-3
390
F
  0
LAYER
  5
2BC
100
AcDbSymbolTableRecord
100
AcDbLayerTableRecord
  2
MM3-MPAK-RF-VIMAR_120000
 70
0
 62
7
  6
CONTINUOUS
370
-3
390
F
  0
LAYER
  5
2BD
100
AcDbSymbolTableRecord
100
AcDbLayerTableRecord
  2
MM3-MPAK-RF-VIMAR_120000_1
 70
0
 62
7
  6
CONTINUOUS
370
-3
390
F
  0
LAYER
  5
2BE
100
AcDbSymbolTableRecord
100
AcDbLayerTableRecord
  2
MM3-MPAK-RF-VIMAR_120000_2
 70
0
 62
7
  6
CONTINUOUS
370
-3
390
F
  0
LAYER
  5
2BF
100
AcDbSymbolTableRecord
100
AcDbLayerTableRecord
  2
MM3-MPAK-RF-VIMAR_120000_3
 70
0
 62
7
  6
CONTINUOUS
370
-3
390
F
  0
LAYER
  5
2C0
100
AcDbSymbolTableRecord
100
AcDbLayerTableRecord
  2
MM3-MPAK-RF-VIMAR_120000_4
 70
0
 62
7
  6
CONTINUOUS
370
-3
390
F
  0
LAYER
  5
2C1
100
AcDbSymbolTableRecord
100
AcDbLayerTableRecord
  2
MM3-MPAK-RF-VIMAR_120000_5
 70
0
 62
7
  6
CONTINUOUS
370
-3
390
F
  0
LAYER
  5
2C2
100
AcDbSymbolTableRecord
100
AcDbLayerTableRecord
  2
MM3-MPAK-RF-VIMAR_120000_6
 70
0
 62
7
  6
CONTINUOUS
370
-3
390
F
  0
LAYER
  5
2C3
100
AcDbSymbolTableRecord
100
AcDbLayerTableRecord
  2
MSOP8-T1-RF-VIMAR_86000
 70
0
 62
7
  6
CONTINUOUS
370
-3
390
F
  0
LAYER
  5
2C4
100
AcDbSymbolTableRecord
100
AcDbLayerTableRecord
  2
NO-PB_MARK_10000
 70
0
 62
7
  6
CONTINUOUS
370
-3
390
F
  0
LAYER
  5
2C5
100
AcDbSymbolTableRecord
100
AcDbLayerTableRecord
  2
NO-PB_MARK_10000_1
 70
0
 62
7
  6
CONTINUOUS
370
-3
390
F
  0
LAYER
  5
2C6
100
AcDbSymbolTableRecord
100
AcDbLayerTableRecord
  2
NOTE
 70
0
 62
7
  6
CONTINUOUS
370
-3
390
F
  0
LAYER
  5
2C7
100
AcDbSymbolTableRecord
100
AcDbLayerTableRecord
  2
PIANI
 70
0
 62
7
  6
CONTINUOUS
370
-3
390
F
  0
LAYER
  5
2C8
100
AcDbSymbolTableRecord
100
AcDbLayerTableRecord
  2
PIANI_DI_RIFERIMENTO
 70
0
 62
7
  6
CONTINUOUS
370
-3
390
F
  0
LAYER
  5
2C9
100
AcDbSymbolTableRecord
100
AcDbLayerTableRecord
  2
PIANI_ORIGINE
 70
0
 62
7
  6
CONTINUOUS
370
-3
390
F
  0
LAYER
  5
2CA
100
AcDbSymbolTableRecord
100
AcDbLayerTableRecord
  2
PIANI_RIFERIMENTO
 70
0
 62
7
  6
CONTINUOUS
370
-3
390
F
  0
LAYER
  5
2CB
100
AcDbSymbolTableRecord
100
AcDbLayerTableRecord
  2
PSD25-VIMAR_0
 70
0
 62
7
  6
CONTINUOUS
370
-3
390
F
  0
LAYER
  5
2CC
100
AcDbSymbolTableRecord
100
AcDbLayerTableRecord
  2
PSD25-VIMAR_0_1
 70
0
 62
7
  6
CONTINUOUS
370
-3
390
F
  0
LAYER
  5
2CD
100
AcDbSymbolTableRecord
100
AcDbLayerTableRecord
  2
PSD25-VIMAR_0_2
 70
0
 62
7
  6
CONTINUOUS
370
-3
390
F
  0
LAYER
  5
2CE
100
AcDbSymbolTableRecord
100
AcDbLayerTableRecord
  2
PSD25-VIMAR_0_3
 70
0
 62
7
  6
CONTINUOUS
370
-3
390
F
  0
LAYER
  5
2CF
100
AcDbSymbolTableRecord
100
AcDbLayerTableRecord
  2
PUNTI
 70
0
 62
7
  6
CONTINUOUS
370
-3
390
F
  0
LAYER
  5
2D0
100
AcDbSymbolTableRecord
100
AcDbLayerTableRecord
  2
RACCORDO
 70
0
 62
7
  6
CONTINUOUS
370
-3
390
F
  0
LAYER
  5
2D1
100
AcDbSymbolTableRecord
100
AcDbLayerTableRecord
  2
RESC1005X40N_40000
 70
0
 62
7
  6
CONTINUOUS
370
-3
390
F
  0
LAYER
  5
2D2
100
AcDbSymbolTableRecord
100
AcDbLayerTableRecord
  2
RESC1005X40N_40000_1
 70
0
 62
7
  6
CONTINUOUS
370
-3
390
F
  0
LAYER
  5
2D3
100
AcDbSymbolTableRecord
100
AcDbLayerTableRecord
  2
RESC1005X40N_40000_10
 70
0
 62
7
  6
CONTINUOUS
370
-3
390
F
  0
LAYER
  5
2D4
100
AcDbSymbolTableRecord
100
AcDbLayerTableRecord
  2
RESC1005X40N_40000_11
 70
0
 62
7
  6
CONTINUOUS
370
-3
390
F
  0
LAYER
  5
2D5
100
AcDbSymbolTableRecord
100
AcDbLayerTableRecord
  2
RESC1005X40N_40000_12
 70
0
 62
7
  6
CONTINUOUS
370
-3
390
F
  0
LAYER
  5
2D6
100
AcDbSymbolTableRecord
100
AcDbLayerTableRecord
  2
RESC1005X40N_40000_13
 70
0
 62
7
  6
CONTINUOUS
370
-3
390
F
  0
LAYER
  5
2D7
100
AcDbSymbolTableRecord
100
AcDbLayerTableRecord
  2
RESC1005X40N_40000_14
 70
0
 62
7
  6
CONTINUOUS
370
-3
390
F
  0
LAYER
  5
2D8
100
AcDbSymbolTableRecord
100
AcDbLayerTableRecord
  2
RESC1005X40N_40000_15
 70
0
 62
7
  6
CONTINUOUS
370
-3
390
F
  0
LAYER
  5
2D9
100
AcDbSymbolTableRecord
100
AcDbLayerTableRecord
  2
RESC1005X40N_40000_16
 70
0
 62
7
  6
CONTINUOUS
370
-3
390
F
  0
LAYER
  5
2DA
100
AcDbSymbolTableRecord
100
AcDbLayerTableRecord
  2
RESC1005X40N_40000_17
 70
0
 62
7
  6
CONTINUOUS
370
-3
390
F
  0
LAYER
  5
2DB
100
AcDbSymbolTableRecord
100
AcDbLayerTableRecord
  2
RESC1005X40N_40000_18
 70
0
 62
7
  6
CONTINUOUS
370
-3
390
F
  0
LAYER
  5
2DC
100
AcDbSymbolTableRecord
100
AcDbLayerTableRecord
  2
RESC1005X40N_40000_19
 70
0
 62
7
  6
CONTINUOUS
370
-3
390
F
  0
LAYER
  5
2DD
100
AcDbSymbolTableRecord
100
AcDbLayerTableRecord
  2
RESC1005X40N_40000_2
 70
0
 62
7
  6
CONTINUOUS
370
-3
390
F
  0
LAYER
  5
2DE
100
AcDbSymbolTableRecord
100
AcDbLayerTableRecord
  2
RESC1005X40N_40000_20
 70
0
 62
7
  6
CONTINUOUS
370
-3
390
F
  0
LAYER
  5
2DF
100
AcDbSymbolTableRecord
100
AcDbLayerTableRecord
  2
RESC1005X40N_40000_21
 70
0
 62
7
  6
CONTINUOUS
370
-3
390
F
  0
LAYER
  5
2E0
100
AcDbSymbolTableRecord
100
AcDbLayerTableRecord
  2
RESC1005X40N_40000_22
 70
0
 62
7
  6
CONTINUOUS
370
-3
390
F
  0
LAYER
  5
2E1
100
AcDbSymbolTableRecord
100
AcDbLayerTableRecord
  2
RESC1005X40N_40000_23
 70
0
 62
7
  6
CONTINUOUS
370
-3
390
F
  0
LAYER
  5
2E2
100
AcDbSymbolTableRecord
100
AcDbLayerTableRecord
  2
RESC1005X40N_40000_24
 70
0
 62
7
  6
CONTINUOUS
370
-3
390
F
  0
LAYER
  5
2E3
100
AcDbSymbolTableRecord
100
AcDbLayerTableRecord
  2
RESC1005X40N_40000_25
 70
0
 62
7
  6
CONTINUOUS
370
-3
390
F
  0
LAYER
  5
2E4
100
AcDbSymbolTableRecord
100
AcDbLayerTableRecord
  2
RESC1005X40N_40000_26
 70
0
 62
7
  6
CONTINUOUS
370
-3
390
F
  0
LAYER
  5
2E5
100
AcDbSymbolTableRecord
100
AcDbLayerTableRecord
  2
RESC1005X40N_40000_27
 70
0
 62
7
  6
CONTINUOUS
370
-3
390
F
  0
LAYER
  5
2E6
100
AcDbSymbolTableRecord
100
AcDbLayerTableRecord
  2
RESC1005X40N_40000_3
 70
0
 62
7
  6
CONTINUOUS
370
-3
390
F
  0
LAYER
  5
2E7
100
AcDbSymbolTableRecord
100
AcDbLayerTableRecord
  2
RESC1005X40N_40000_4
 70
0
 62
7
  6
CONTINUOUS
370
-3
390
F
  0
LAYER
  5
2E8
100
AcDbSymbolTableRecord
100
AcDbLayerTableRecord
  2
RESC1005X40N_40000_5
 70
0
 62
7
  6
CONTINUOUS
370
-3
390
F
  0
LAYER
  5
2E9
100
AcDbSymbolTableRecord
100
AcDbLayerTableRecord
  2
RESC1005X40N_40000_6
 70
0
 62
7
  6
CONTINUOUS
370
-3
390
F
  0
LAYER
  5
2EA
100
AcDbSymbolTableRecord
100
AcDbLayerTableRecord
  2
RESC1005X40N_40000_7
 70
0
 62
7
  6
CONTINUOUS
370
-3
390
F
  0
LAYER
  5
2EB
100
AcDbSymbolTableRecord
100
AcDbLayerTableRecord
  2
RESC1005X40N_40000_8
 70
0
 62
7
  6
CONTINUOUS
370
-3
390
F
  0
LAYER
  5
2EC
100
AcDbSymbolTableRecord
100
AcDbLayerTableRecord
  2
RESC1005X40N_40000_9
 70
0
 62
7
  6
CONTINUOUS
370
-3
390
F
  0
LAYER
  5
2ED
100
AcDbSymbolTableRecord
100
AcDbLayerTableRecord
  2
RESC1608N_45000
 70
0
 62
7
  6
CONTINUOUS
370
-3
390
F
  0
LAYER
  5
2EE
100
AcDbSymbolTableRecord
100
AcDbLayerTableRecord
  2
RESC1608N_45000_1
 70
0
 62
7
  6
CONTINUOUS
370
-3
390
F
  0
LAYER
  5
2EF
100
AcDbSymbolTableRecord
100
AcDbLayerTableRecord
  2
RESC1608N_45000_10
 70
0
 62
7
  6
CONTINUOUS
370
-3
390
F
  0
LAYER
  5
2F0
100
AcDbSymbolTableRecord
100
AcDbLayerTableRecord
  2
RESC1608N_45000_11
 70
0
 62
7
  6
CONTINUOUS
370
-3
390
F
  0
LAYER
  5
2F1
100
AcDbSymbolTableRecord
100
AcDbLayerTableRecord
  2
RESC1608N_45000_12
 70
0
 62
7
  6
CONTINUOUS
370
-3
390
F
  0
LAYER
  5
2F2
100
AcDbSymbolTableRecord
100
AcDbLayerTableRecord
  2
RESC1608N_45000_13
 70
0
 62
7
  6
CONTINUOUS
370
-3
390
F
  0
LAYER
  5
2F3
100
AcDbSymbolTableRecord
100
AcDbLayerTableRecord
  2
RESC1608N_45000_14
 70
0
 62
7
  6
CONTINUOUS
370
-3
390
F
  0
LAYER
  5
2F4
100
AcDbSymbolTableRecord
100
AcDbLayerTableRecord
  2
RESC1608N_45000_15
 70
0
 62
7
  6
CONTINUOUS
370
-3
390
F
  0
LAYER
  5
2F5
100
AcDbSymbolTableRecord
100
AcDbLayerTableRecord
  2
RESC1608N_45000_16
 70
0
 62
7
  6
CONTINUOUS
370
-3
390
F
  0
LAYER
  5
2F6
100
AcDbSymbolTableRecord
100
AcDbLayerTableRecord
  2
RESC1608N_45000_17
 70
0
 62
7
  6
CONTINUOUS
370
-3
390
F
  0
LAYER
  5
2F7
100
AcDbSymbolTableRecord
100
AcDbLayerTableRecord
  2
RESC1608N_45000_18
 70
0
 62
7
  6
CONTINUOUS
370
-3
390
F
  0
LAYER
  5
2F8
100
AcDbSymbolTableRecord
100
AcDbLayerTableRecord
  2
RESC1608N_45000_19
 70
0
 62
7
  6
CONTINUOUS
370
-3
390
F
  0
LAYER
  5
2F9
100
AcDbSymbolTableRecord
100
AcDbLayerTableRecord
  2
RESC1608N_45000_2
 70
0
 62
7
  6
CONTINUOUS
370
-3
390
F
  0
LAYER
  5
2FA
100
AcDbSymbolTableRecord
100
AcDbLayerTableRecord
  2
RESC1608N_45000_3
 70
0
 62
7
  6
CONTINUOUS
370
-3
390
F
  0
LAYER
  5
2FB
100
AcDbSymbolTableRecord
100
AcDbLayerTableRecord
  2
RESC1608N_45000_4
 70
0
 62
7
  6
CONTINUOUS
370
-3
390
F
  0
LAYER
  5
2FC
100
AcDbSymbolTableRecord
100
AcDbLayerTableRecord
  2
RESC1608N_45000_5
 70
0
 62
7
  6
CONTINUOUS
370
-3
390
F
  0
LAYER
  5
2FD
100
AcDbSymbolTableRecord
100
AcDbLayerTableRecord
  2
RESC1608N_45000_6
 70
0
 62
7
  6
CONTINUOUS
370
-3
390
F
  0
LAYER
  5
2FE
100
AcDbSymbolTableRecord
100
AcDbLayerTableRecord
  2
RESC1608N_45000_7
 70
0
 62
7
  6
CONTINUOUS
370
-3
390
F
  0
LAYER
  5
2FF
100
AcDbSymbolTableRecord
100
AcDbLayerTableRecord
  2
RESC1608N_45000_8
 70
0
 62
7
  6
CONTINUOUS
370
-3
390
F
  0
LAYER
  5
300
100
AcDbSymbolTableRecord
100
AcDbLayerTableRecord
  2
RESC1608N_45000_9
 70
0
 62
7
  6
CONTINUOUS
370
-3
390
F
  0
LAYER
  5
301
100
AcDbSymbolTableRecord
100
AcDbLayerTableRecord
  2
RUBBERPAD-R-07X22_0
 70
0
 62
7
  6
CONTINUOUS
370
-3
390
F
  0
LAYER
  5
302
100
AcDbSymbolTableRecord
100
AcDbLayerTableRecord
  2
RUBBERPAD-R-07X22_0_1
 70
0
 62
7
  6
CONTINUOUS
370
-3
390
F
  0
LAYER
  5
303
100
AcDbSymbolTableRecord
100
AcDbLayerTableRecord
  2
SMUSSO
 70
0
 62
7
  6
CONTINUOUS
370
-3
390
F
  0
LAYER
  5
304
100
AcDbSymbolTableRecord
100
AcDbLayerTableRecord
  2
SNAPLINE
 70
0
 62
7
  6
CONTINUOUS
370
-3
390
F
  0
LAYER
  5
305
100
AcDbSymbolTableRecord
100
AcDbLayerTableRecord
  2
SOD323_125000
 70
0
 62
7
  6
CONTINUOUS
370
-3
390
F
  0
LAYER
  5
306
100
AcDbSymbolTableRecord
100
AcDbLayerTableRecord
  2
SOLIDO
 70
0
 62
7
  6
CONTINUOUS
370
-3
390
F
  0
LAYER
  5
307
100
AcDbSymbolTableRecord
100
AcDbLayerTableRecord
  2
SOP20-1-VIMAR_270000
 70
0
 62
7
  6
CONTINUOUS
370
-3
390
F
  0
LAYER
  5
308
100
AcDbSymbolTableRecord
100
AcDbLayerTableRecord
  2
SUPERFICI
 70
0
 62
7
  6
CONTINUOUS
370
-3
390
F
  0
LAYER
  5
309
100
AcDbSymbolTableRecord
100
AcDbLayerTableRecord
  2
TP10_SMD_0
 70
0
 62
7
  6
CONTINUOUS
370
-3
390
F
  0
LAYER
  5
30A
100
AcDbSymbolTableRecord
100
AcDbLayerTableRecord
  2
TP10_SMD_0_1
 70
0
 62
7
  6
CONTINUOUS
370
-3
390
F
  0
LAYER
  5
30B
100
AcDbSymbolTableRecord
100
AcDbLayerTableRecord
  2
TP10_SMD_0_2
 70
0
 62
7
  6
CONTINUOUS
370
-3
390
F
  0
LAYER
  5
30C
100
AcDbSymbolTableRecord
100
AcDbLayerTableRecord
  2
TP10_SMD_0_3
 70
0
 62
7
  6
CONTINUOUS
370
-3
390
F
  0
LAYER
  5
30D
100
AcDbSymbolTableRecord
100
AcDbLayerTableRecord
  2
TP10_SMD_0_4
 70
0
 62
7
  6
CONTINUOUS
370
-3
390
F
  0
LAYER
  5
30E
100
AcDbSymbolTableRecord
100
AcDbLayerTableRecord
  2
TP10_SMD_0_5
 70
0
 62
7
  6
CONTINUOUS
370
-3
390
F
  0
LAYER
  5
30F
100
AcDbSymbolTableRecord
100
AcDbLayerTableRecord
  2
TRASH
 70
0
 62
7
  6
CONTINUOUS
370
-3
390
F
  0
LAYER
  5
310
100
AcDbSymbolTableRecord
100
AcDbLayerTableRecord
  2
TSSOP8-RF-VIMAR_110000
 70
0
 62
7
  6
CONTINUOUS
370
-3
390
F
  0
LAYER
  5
311
100
AcDbSymbolTableRecord
100
AcDbLayerTableRecord
  2
TSSOP8-RF-VIMAR_110000_1
 70
0
 62
7
  6
CONTINUOUS
370
-3
390
F
  0
LAYER
  5
312
100
AcDbSymbolTableRecord
100
AcDbLayerTableRecord
  2
WHITE
 70
0
 62
7
  6
CONTINUOUS
370
-3
390
F
  0
LAYER
  5
313
100
AcDbSymbolTableRecord
100
AcDbLayerTableRecord
  2
XSEC_DATUMS
 70
0
 62
7
  6
CONTINUOUS
370
-3
390
F
  0
LAYER
  5
314
100
AcDbSymbolTableRecord
100
AcDbLayerTableRecord
  2
___SHELL
 70
0
 62
7
  6
CONTINUOUS
370
-3
390
F
  0
ENDTAB
  0
TABLE
  2
STYLE
  5
3
100
AcDbSymbolTable
 70
1
  0
STYLE
  5
11
100
AcDbSymbolTableRecord
100
AcDbTextStyleTableRecord
  2
STANDARD
 70
0
 40
0.0
 41
0.8
 50
0.0
 71
0
 42
0.2
  3
txt
  4

  0
STYLE
  5
315
100
AcDbSymbolTableRecord
100
AcDbTextStyleTableRecord
  2
TEXTSTYLE_1
 70
0
 40
0.0
 41
0.8
 50
0.0
 71
0
 42
0.2
  3
gdt
  4

  0
ENDTAB
  0
TABLE
  2
VIEW
  5
6
100
AcDbSymbolTable
 70
0
  0
ENDTAB
  0
TABLE
  2
UCS
  5
7
100
AcDbSymbolTable
 70
0
  0
ENDTAB
  0
TABLE
  2
APPID
  5
9
100
AcDbSymbolTable
 70
1
  0
APPID
  5
316
100
AcDbSymbolTableRecord
100
AcDbRegAppTableRecord
  2
ACAD
 70
0
  0
ENDTAB
  0
TABLE
  2
BLOCK_RECORD
  5
1
100
AcDbSymbolTable
 70
0
  0
BLOCK_RECORD
  5
317
100
AcDbSymbolTableRecord
100
AcDbBlockTableRecord
  2
*Model_Space
  0
BLOCK_RECORD
  5
318
100
AcDbSymbolTableRecord
100
AcDbBlockTableRecord
  2
*Paper_Space
  0
BLOCK_RECORD
  5
319
100
AcDbSymbolTableRecord
100
AcDbBlockTableRecord
  2
_FILLED
  0
BLOCK_RECORD
  5
31A
100
AcDbSymbolTableRecord
100
AcDbBlockTableRecord
  2
*D0
  0
BLOCK_RECORD
  5
31B
100
AcDbSymbolTableRecord
100
AcDbBlockTableRecord
  2
*D1
  0
BLOCK_RECORD
  5
31C
100
AcDbSymbolTableRecord
100
AcDbBlockTableRecord
  2
*D2
  0
BLOCK_RECORD
  5
31D
100
AcDbSymbolTableRecord
100
AcDbBlockTableRecord
  2
*D3
  0
ENDTAB
  0
TABLE
  2
DIMSTYLE
  5
A
100
AcDbSymbolTable
 70
1
100
AcDbDimStyleTable
 71
0
  0
DIMSTYLE
105
31E
100
AcDbSymbolTableRecord
100
AcDbDimStyleTableRecord
  2
STANDARD
 70
0
  3

  4

 40
1.0
 41
3.0
 42
0.0625
 43
0.38
 44
0.18
 45
0.0
 46
0.0
 47
0.01
 48
0.01
140
3.0
141
0.09
142
0.0
143
25.4
144
1.0
145
0.0
146
1.0
147
0.09
 71
1.0
 72
0.0
 73
0
 74
0
 75
0
 76
0
 77
1
 78
8
170
0
171
2
172
0
173
0
174
0
175
0
176
0
177
0
178
0
270
2
271
2
272
2
273
2
274
2
275
0
280
0
281
0
282
0
283
1
284
8
285
0
286
0
287
3
288
0
340
11
341
319
342
319
343
319
344
319
  0
DIMSTYLE
105
31F
100
AcDbSymbolTableRecord
100
AcDbDimStyleTableRecord
  2
DIMSTYLE_1
 70
0
  3

  4

 40
1.0
 41
3.0
 42
0.0625
 43
0.38
 44
0.18
 45
0.0
 46
0.0
 47
0.0
 48
0.0
140
3.0
141
0.09
142
0.0
143
25.4
144
1.0
145
0.0
146
1.0
147
0.09
 71
0.0
 72
0.0
 73
0
 74
0
 75
0
 76
0
 77
1
 78
8
170
0
171
2
172
0
173
0
174
0
175
0
176
0
177
0
178
0
270
2
271
2
272
2
273
2
274
2
275
0
280
0
281
0
282
0
283
1
284
8
285
0
286
0
287
3
288
0
340
11
341
319
342
319
343
319
344
319
  0
ENDTAB
  0
ENDSEC
  0
SECTION
  2
BLOCKS
  0
BLOCK
  5
20
100
AcDbEntity
  8
0
100
AcDbBlockBegin
  2
*Model_Space
 70
0
 10
0.0
 20
0.0
 30
0.0
  3
*Model_Space
  1

  0
ENDBLK
  5
21
100
AcDbEntity
  8
0
100
AcDbBlockEnd
  0
BLOCK
  5
1C
100
AcDbEntity
  8
0
100
AcDbBlockBegin
  2
*Paper_Space
 70
0
 10
0.0
 20
0.0
 30
0.0
  3
*Paper_Space
  1

  0
ENDBLK
  5
1D
100
AcDbEntity
  8
0
100
AcDbBlockEnd
  0
BLOCK
  5
320
100
AcDbEntity
  8
0
100
AcDbBlockBegin
  2
_FILLED
 70
64
 10
0.0
 20
0.0
  3
_FILLED
  1

  0
SOLID
  5
321
100
AcDbEntity
  8
0
  6
BYBLOCK
 62
0
100
AcDbTrace
 10
0.0
 20
0.0
 11
-1.0
 21
0.3166666667
 12
-1.0
 22
-0.3166666667
 13
-1.0
 23
-0.3166666667
  0
ENDBLK
  5
322
100
AcDbEntity
  8
0
  6
BYBLOCK
 62
0
100
AcDbBlockEnd
  0
BLOCK
  5
323
100
AcDbEntity
  8
0
100
AcDbBlockBegin
 62
7
  6
CONTINUOUS
  2
*D0
 70
65
 10
0.0
 20
0.0
  3
*D0
  1

  0
MTEXT
  5
324
100
AcDbEntity
  8
0
100
AcDbMText
 62
7
  6
CONTINUOUS
  7
STANDARD
 71
2
 72
1
 10
35.1192203742
 20
36.2564864865
 30
0.0
 11
1.0
 21
0.0
 31
0.0
 44
0.9
  1
67,3
 40
3.0
 41
8.5714285714
  0
LINE
  5
325
100
AcDbEntity
  8
0
100
AcDbLine
 62
7
  6
CONTINUOUS
 10
68.7692203742
 20
22.3976644271
 11
68.7692203742
 21
34.0064864865
  0
LINE
  5
326
100
AcDbEntity
  8
0
100
AcDbLine
 62
7
  6
CONTINUOUS
 10
1.4692203742
 20
22.3976644271
 11
1.4692203742
 21
34.0064864865
  0
LINE
  5
327
100
AcDbEntity
  8
0
100
AcDbLine
 62
7
  6
CONTINUOUS
 10
68.7692203742
 20
32.5064864865
 11
35.1192203742
 21
32.5064864865
  0
LINE
  5
328
100
AcDbEntity
  8
0
100
AcDbLine
 62
7
  6
CONTINUOUS
 10
1.4692203742
 20
32.5064864865
 11
35.1192203742
 21
32.5064864865
  0
INSERT
  5
329
100
AcDbEntity
  8
0
100
AcDbBlockReference
 62
7
  6
CONTINUOUS
  2
_FILLED
 10
68.7692203742
 20
32.5064864865
 41
3.0
 42
3.0
 43
3.0
  0
INSERT
  5
32A
100
AcDbEntity
  8
0
100
AcDbBlockReference
 62
7
  6
CONTINUOUS
  2
_FILLED
 10
1.4692203742
 20
32.5064864865
 41
3.0
 42
3.0
 43
3.0
 50
180.0
  0
ENDBLK
  5
32B
100
AcDbEntity
  8
0
  6
BYBLOCK
 62
0
100
AcDbBlockEnd
  0
BLOCK
  5
32C
100
AcDbEntity
  8
0
100
AcDbBlockBegin
 62
7
  6
CONTINUOUS
  2
*D1
 70
65
 10
0.0
 20
0.0
  3
*D1
  1

  0
MTEXT
  5
32D
100
AcDbEntity
  8
0
100
AcDbMText
 62
7
  6
CONTINUOUS
  7
STANDARD
 71
2
 72
1
 10
73.3692203742
 20
0.0064864865
 30
0.0
 11
0.0
 21
1.0
 31
0.0
 44
0.9
  1
49
 40
3.0
 41
4.7142857143
  0
LINE
  5
32E
100
AcDbEntity
  8
0
100
AcDbLine
 62
7
  6
CONTINUOUS
 10
68.519224605
 20
24.5064864865
 11
78.6192203742
 21
24.5064864865
  0
LINE
  5
32F
100
AcDbEntity
  8
0
100
AcDbLine
 62
7
  6
CONTINUOUS
 10
68.519224605
 20
-24.4935135135
 11
78.6192203742
 21
-24.4935135135
  0
LINE
  5
330
100
AcDbEntity
  8
0
100
AcDbLine
 62
7
  6
CONTINUOUS
 10
77.1192203742
 20
24.5064864865
 11
77.1192203742
 21
0.0064864865
  0
LINE
  5
331
100
AcDbEntity
  8
0
100
AcDbLine
 62
7
  6
CONTINUOUS
 10
77.1192203742
 20
-24.4935135135
 11
77.1192203742
 21
0.0064864865
  0
INSERT
  5
332
100
AcDbEntity
  8
0
100
AcDbBlockReference
 62
7
  6
CONTINUOUS
  2
_FILLED
 10
77.1192203742
 20
24.5064864865
 41
3.0
 42
3.0
 43
3.0
 50
90.0
  0
INSERT
  5
333
100
AcDbEntity
  8
0
100
AcDbBlockReference
 62
7
  6
CONTINUOUS
  2
_FILLED
 10
77.1192203742
 20
-24.4935135135
 41
3.0
 42
3.0
 43
3.0
 50
270.0
  0
ENDBLK
  5
334
100
AcDbEntity
  8
0
  6
BYBLOCK
 62
0
100
AcDbBlockEnd
  0
BLOCK
  5
335
100
AcDbEntity
  8
0
100
AcDbBlockBegin
 62
7
  6
CONTINUOUS
  2
*D2
 70
65
 10
0.0
 20
0.0
  3
*D2
  1

  0
MTEXT
  5
336
100
AcDbEntity
  8
0
100
AcDbMText
 62
7
  6
CONTINUOUS
  7
STANDARD
 71
2
 72
1
 10
-33.8003959209
 20
36.2564883985
 30
0.0
 11
1.0
 21
0.0
 31
0.0
 44
0.9
  1
36
 40
3.0
 41
4.5
  0
LINE
  5
337
100
AcDbEntity
  8
0
100
AcDbLine
 62
7
  6
CONTINUOUS
 10
-15.8023908172
 20
17.5955591909
 11
-15.8023919182
 21
34.006489606
  0
LINE
  5
338
100
AcDbEntity
  8
0
100
AcDbLine
 62
7
  6
CONTINUOUS
 10
-51.7983992019
 20
24.7521188833
 11
-51.7983998228
 21
34.0064871909
  0
LINE
  5
339
100
AcDbEntity
  8
0
100
AcDbLine
 62
7
  6
CONTINUOUS
 10
-15.8023918176
 20
32.506489606
 11
-33.8003957699
 21
32.5064883985
  0
LINE
  5
33A
100
AcDbEntity
  8
0
100
AcDbLine
 62
7
  6
CONTINUOUS
 10
-51.7983997222
 20
32.5064871909
 11
-33.8003957699
 21
32.5064883985
  0
INSERT
  5
33B
100
AcDbEntity
  8
0
100
AcDbBlockReference
 62
7
  6
CONTINUOUS
  2
_FILLED
 10
-15.8023918176
 20
32.506489606
 41
3.0
 42
3.0
 43
3.0
 50
0.000003844
  0
INSERT
  5
33C
100
AcDbEntity
  8
0
100
AcDbBlockReference
 62
7
  6
CONTINUOUS
  2
_FILLED
 10
-51.7983997222
 20
32.5064871909
 41
3.0
 42
3.0
 43
3.0
 50
180.000003844
  0
ENDBLK
  5
33D
100
AcDbEntity
  8
0
  6
BYBLOCK
 62
0
100
AcDbBlockEnd
  0
BLOCK
  5
33E
100
AcDbEntity
  8
0
100
AcDbBlockBegin
 62
7
  6
CONTINUOUS
  2
*D3
 70
65
 10
0.0
 20
0.0
  3
*D3
  1

  0
MTEXT
  5
33F
100
AcDbEntity
  8
0
100
AcDbMText
 62
7
  6
CONTINUOUS
  7
STANDARD
 71
2
 72
1
 10
-39.0503974051
 20
46.2564880462
 30
0.0
 11
1.0
 21
0.0
 31
0.0
 44
0.9
  1
46,5
 40
3.0
 41
8.5714285714
  0
LINE
  5
340
100
AcDbEntity
  8
0
100
AcDbLine
 62
7
  6
CONTINUOUS
 10
-15.8023908172
 20
17.5955591909
 11
-15.8023925892
 21
44.006489606
  0
LINE
  5
341
100
AcDbEntity
  8
0
100
AcDbLine
 62
7
  6
CONTINUOUS
 10
-62.2983992019
 20
0.5064529409
 11
-62.2984021204
 21
44.0064864865
  0
LINE
  5
342
100
AcDbEntity
  8
0
100
AcDbLine
 62
7
  6
CONTINUOUS
 10
-15.8023924885
 20
42.506489606
 11
-39.0503972541
 21
42.5064880462
  0
LINE
  5
343
100
AcDbEntity
  8
0
100
AcDbLine
 62
7
  6
CONTINUOUS
 10
-62.2984020198
 20
42.5064864865
 11
-39.0503972541
 21
42.5064880462
  0
INSERT
  5
344
100
AcDbEntity
  8
0
100
AcDbBlockReference
 62
7
  6
CONTINUOUS
  2
_FILLED
 10
-15.8023924885
 20
42.506489606
 41
3.0
 42
3.0
 43
3.0
 50
0.000003844
  0
INSERT
  5
345
100
AcDbEntity
  8
0
100
AcDbBlockReference
 62
7
  6
CONTINUOUS
  2
_FILLED
 10
-62.2984020198
 20
42.5064864865
 41
3.0
 42
3.0
 43
3.0
 50
180.000003844
  0
ENDBLK
  5
346
100
AcDbEntity
  8
0
  6
BYBLOCK
 62
0
100
AcDbBlockEnd
  0
ENDSEC
  0
SECTION
  2
ENTITIES
  0
DIMENSION
  5
347
100
AcDbEntity
  8
0
100
AcDbDimension
 62
7
  6
CONTINUOUS
  2
*D0
 10
1.4692203742
 20
32.5064864865
 11
30.8335060885
 21
34.7564864865
 70
160
 71
2
 42
67.3
  3
DIMSTYLE_1
100
AcDbAlignedDimension
 13
68.7692203742
 23
22.3976644271
 14
1.4692203742
 24
22.3976644271
 50
180.0
100
AcDbRotatedDimension
  0
DIMENSION
  5
348
100
AcDbEntity
  8
0
100
AcDbDimension
 62
7
  6
CONTINUOUS
  2
*D1
 10
77.1192203742
 20
-24.4935135135
 11
75.925393898
 21
-2.1007913634
 70
160
 71
2
 42
49.0
  3
DIMSTYLE_1
100
AcDbAlignedDimension
 13
68.519224605
 23
24.5064864865
 14
68.519224605
 24
-24.4935135135
 50
270.0
100
AcDbRotatedDimension
  0
DIMENSION
  5
349
100
AcDbEntity
  8
0
100
AcDbDimension
 62
7
  6
CONTINUOUS
  2
*D2
 10
-51.7983997222
 20
32.5064871909
 11
-36.0503959209
 21
34.7564883985
 70
160
 71
2
 42
35.9960079046
  3
DIMSTYLE_1
100
AcDbAlignedDimension
 13
-15.8023908172
 23
17.5955591909
 14
-51.7983992019
 24
24.7521188833
 50
180.000003844
100
AcDbRotatedDimension
  0
DIMENSION
  5
34A
100
AcDbEntity
  8
0
100
AcDbDimension
 62
7
  6
CONTINUOUS
  2
*D3
 10
-62.2984020198
 20
42.5064864865
 11
-43.3361116908
 21
44.7564880462
 70
160
 71
2
 42
46.4960095312
  3
DIMSTYLE_1
100
AcDbAlignedDimension
 13
-15.8023908172
 23
17.5955591909
 14
-62.2983992019
 24
0.5064529409
 50
180.000003844
100
AcDbRotatedDimension
  0
LINE
  5
34B
100
AcDbEntity
  8
RACCORDO
100
AcDbLine
 62
253
  6
CONTINUOUS
 10
4.119224605
 20
24.5064864865
 11
4.1061260263
 21
24.4933879078
  0
LINE
  5
34C
100
AcDbEntity
  8
RACCORDO
100
AcDbLine
 62
253
  6
CONTINUOUS
 10
4.3692203742
 20
24.2564907173
 11
4.3561217955
 21
24.2433921386
  0
LINE
  5
34D
100
AcDbEntity
  8
RACCORDO
100
AcDbLine
 62
253
  6
CONTINUOUS
 10
4.119224605
 20
-24.4935135135
 11
4.1061260263
 21
-24.4804149348
  0
LINE
  5
34E
100
AcDbEntity
  8
RACCORDO
100
AcDbLine
 62
253
  6
CONTINUOUS
 10
4.3692203742
 20
-24.2435177443
 11
4.3561217955
 21
-24.2304191656
  0
LINE
  5
34F
100
AcDbEntity
  8
RACCORDO
100
AcDbLine
 62
253
  6
CONTINUOUS
 10
1.9823189529
 20
-23.8378510808
 11
1.9765011231
 21
-23.2605008116
  0
LINE
  5
350
100
AcDbEntity
  8
RACCORDO
100
AcDbLine
 62
253
  6
CONTINUOUS
 10
2.2323147222
 20
-23.6213447299
 11
2.2272241211
 21
-23.1161632443
  0
LINE
  5
351
100
AcDbEntity
  8
RACCORDO
100
AcDbLine
 62
7
  6
CONTINUOUS
 10
1.4692203742
 20
21.8976644271
 11
1.4692203742
 21
18.2564864865
  0
LINE
  5
352
100
AcDbEntity
  8
DRAFT
100
AcDbLine
 62
7
  6
CONTINUOUS
 10
1.4692203742
 20
18.2564864865
 11
1.4692203742
 21
-18.2435135135
  0
LINE
  5
353
100
AcDbEntity
  8
RACCORDO
100
AcDbLine
 62
7
  6
CONTINUOUS
 10
1.4692203742
 20
-18.2435135135
 11
1.4692203742
 21
-21.8846914541
  0
LINE
  5
354
100
AcDbEntity
  8
RACCORDO
100
AcDbLine
 62
7
  6
CONTINUOUS
 10
1.9692203742
 20
-22.3932034815
 11
1.9692203742
 21
-24.2435177443
  0
LINE
  5
355
100
AcDbEntity
  8
RACCORDO
100
AcDbLine
 62
7
  6
CONTINUOUS
 10
1.9692203742
 20
22.4061764545
 11
1.9692203742
 21
24.2564907173
  0
LINE
  5
356
100
AcDbEntity
  8
RACCORDO
100
AcDbLine
 62
253
  6
CONTINUOUS
 10
1.9765011231
 20
23.2734737846
 11
1.9765011231
 21
22.3398974479
  0
LINE
  5
357
100
AcDbEntity
  8
RACCORDO
100
AcDbLine
 62
253
  6
CONTINUOUS
 10
1.9765011231
 20
-23.2605008116
 11
1.9765011231
 21
-22.3269244749
  0
LINE
  5
358
100
AcDbEntity
  8
RACCORDO
100
AcDbLine
 62
253
  6
CONTINUOUS
 10
1.9823189529
 20
24.2433921386
 11
1.9823189529
 21
23.8508240538
  0
LINE
  5
359
100
AcDbEntity
  8
RACCORDO
100
AcDbLine
 62
253
  6
CONTINUOUS
 10
1.9823189529
 20
-23.8378510808
 11
1.9823189529
 21
-24.2304191656
  0
LINE
  5
35A
100
AcDbEntity
  8
RACCORDO
100
AcDbLine
 62
253
  6
CONTINUOUS
 10
2.2264968923
 20
-23.1161632443
 11
2.2264968923
 21
-22.3149018446
  0
LINE
  5
35B
100
AcDbEntity
  8
RACCORDO
100
AcDbLine
 62
253
  6
CONTINUOUS
 10
2.2264968923
 20
22.3278748176
 11
2.2264968923
 21
23.1291362173
  0
LINE
  5
35C
100
AcDbEntity
  8
RACCORDO
100
AcDbLine
 62
253
  6
CONTINUOUS
 10
2.2323147222
 20
-23.6213447299
 11
2.2323147222
 21
-24.4804149348
  0
LINE
  5
35D
100
AcDbEntity
  8
RACCORDO
100
AcDbLine
 62
253
  6
CONTINUOUS
 10
2.2323147222
 20
23.6343177028
 11
2.2323147222
 21
24.4933879078
  0
LINE
  5
35E
100
AcDbEntity
  8
RACCORDO
100
AcDbLine
 62
253
  6
CONTINUOUS
 10
1.9765011231
 20
23.2734737846
 11
1.9823189529
 21
23.8508240538
  0
LINE
  5
35F
100
AcDbEntity
  8
RACCORDO
100
AcDbLine
 62
253
  6
CONTINUOUS
 10
2.2272241211
 20
23.1291362173
 11
2.2323147222
 21
23.6343177028
  0
LINE
  5
360
100
AcDbEntity
  8
RACCORDO
100
AcDbLine
 62
7
  6
CONTINUOUS
 10
4.3692203742
 20
22.4064864865
 11
4.3619396253
 21
22.3409005388
  0
LINE
  5
361
100
AcDbEntity
  8
RACCORDO
100
AcDbLine
 62
7
  6
CONTINUOUS
 10
1.7457033631
 20
22.344960986
 11
1.763205941
 21
22.3537116085
  0
LINE
  5
362
100
AcDbEntity
  8
RACCORDO
100
AcDbLine
 62
253
  6
CONTINUOUS
 10
1.4692203742
 20
21.8976644271
 11
1.4866372766
 21
21.9063722151
  0
LINE
  5
363
100
AcDbEntity
  8
RACCORDO
100
AcDbLine
 62
7
  6
CONTINUOUS
 10
1.763205941
 20
-22.3407386355
 11
1.7457033631
 21
-22.3319880131
  0
LINE
  5
364
100
AcDbEntity
  8
RACCORDO
100
AcDbLine
 62
253
  6
CONTINUOUS
 10
1.4866372766
 20
-21.8933992421
 11
1.4692203742
 21
-21.8846914541
  0
LINE
  5
365
100
AcDbEntity
  8
RACCORDO
100
AcDbLine
 62
7
  6
CONTINUOUS
 10
4.3692203742
 20
-22.3935135135
 11
4.3619396253
 21
-22.3279275658
  0
LINE
  5
366
100
AcDbEntity
  8
RACCORDO
100
AcDbLine
 62
253
  6
CONTINUOUS
 10
4.1061260263
 20
23.6343177028
 11
4.1112166274
 21
23.1291362173
  0
LINE
  5
367
100
AcDbEntity
  8
RACCORDO
100
AcDbLine
 62
253
  6
CONTINUOUS
 10
4.3561217955
 20
23.8508240538
 11
4.3619396253
 21
23.2734737846
  0
LINE
  5
368
100
AcDbEntity
  8
0
100
AcDbLine
 62
253
  6
CONTINUOUS
 10
4.0362531235
 20
-17.5559522501
 11
4.0362531237
 21
17.5689548154
  0
LINE
  5
369
100
AcDbEntity
  8
RACCORDO
100
AcDbLine
 62
253
  6
CONTINUOUS
 10
4.1061260263
 20
-23.6213447299
 11
4.1061260263
 21
-24.4804149348
  0
LINE
  5
36A
100
AcDbEntity
  8
RACCORDO
100
AcDbLine
 62
253
  6
CONTINUOUS
 10
4.1061260263
 20
23.6343177028
 11
4.1061260263
 21
24.4933879078
  0
LINE
  5
36B
100
AcDbEntity
  8
RACCORDO
100
AcDbLine
 62
253
  6
CONTINUOUS
 10
4.1119438561
 20
23.1291362173
 11
4.1119438561
 21
22.3278748176
  0
LINE
  5
36C
100
AcDbEntity
  8
RACCORDO
100
AcDbLine
 62
253
  6
CONTINUOUS
 10
4.1119438561
 20
-22.3149018446
 11
4.1119438561
 21
-23.1161632443
  0
LINE
  5
36D
100
AcDbEntity
  8
RACCORDO
100
AcDbLine
 62
253
  6
CONTINUOUS
 10
4.3561217955
 20
-24.2304191656
 11
4.3561217955
 21
-23.8378510808
  0
LINE
  5
36E
100
AcDbEntity
  8
RACCORDO
100
AcDbLine
 62
253
  6
CONTINUOUS
 10
4.3561217955
 20
23.8508240538
 11
4.3561217955
 21
24.2433921386
  0
LINE
  5
36F
100
AcDbEntity
  8
RACCORDO
100
AcDbLine
 62
253
  6
CONTINUOUS
 10
4.3619396253
 20
23.2734737846
 11
4.3619396253
 21
22.3409005388
  0
LINE
  5
370
100
AcDbEntity
  8
RACCORDO
100
AcDbLine
 62
253
  6
CONTINUOUS
 10
4.3619396253
 20
-22.3279275658
 11
4.3619396253
 21
-23.2605008116
  0
LINE
  5
371
100
AcDbEntity
  8
RACCORDO
100
AcDbLine
 62
7
  6
CONTINUOUS
 10
4.3692203742
 20
-22.3935135135
 11
4.3692203742
 21
-24.2435177443
  0
LINE
  5
372
100
AcDbEntity
  8
RACCORDO
100
AcDbLine
 62
7
  6
CONTINUOUS
 10
4.3692203742
 20
22.4064864865
 11
4.3692203742
 21
24.2564907173
  0
LINE
  5
373
100
AcDbEntity
  8
RACCORDO
100
AcDbLine
 62
253
  6
CONTINUOUS
 10
4.1112166274
 20
-23.1161632443
 11
4.1061260263
 21
-23.6213447299
  0
LINE
  5
374
100
AcDbEntity
  8
RACCORDO
100
AcDbLine
 62
253
  6
CONTINUOUS
 10
4.3619396253
 20
-23.2605008116
 11
4.3561217955
 21
-23.8378510808
  0
LINE
  5
375
100
AcDbEntity
  8
RACCORDO
100
AcDbLine
 62
7
  6
CONTINUOUS
 10
17.016294536
 20
23.8035606483
 11
17.0192203742
 21
23.8064864865
  0
LINE
  5
376
100
AcDbEntity
  8
RACCORDO
100
AcDbLine
 62
7
  6
CONTINUOUS
 10
17.016294536
 20
-23.7905876753
 11
17.0192203742
 21
-23.7935135135
  0
LINE
  5
377
100
AcDbEntity
  8
DRAFT
100
AcDbLine
 62
7
  6
CONTINUOUS
 10
8.2192203742
 20
-23.7935135135
 11
8.2192203742
 21
-22.3935135135
  0
LINE
  5
378
100
AcDbEntity
  8
DRAFT
100
AcDbLine
 62
7
  6
CONTINUOUS
 10
8.2192203742
 20
22.4064864865
 11
8.2192203742
 21
23.8064864865
  0
LINE
  5
379
100
AcDbEntity
  8
RACCORDO
100
AcDbLine
 62
253
  6
CONTINUOUS
 10
8.2221462124
 20
23.8035606483
 11
8.2221462124
 21
22.3801301497
  0
LINE
  5
37A
100
AcDbEntity
  8
RACCORDO
100
AcDbLine
 62
253
  6
CONTINUOUS
 10
8.2221462124
 20
-22.3671571767
 11
8.2221462124
 21
-23.7905876753
  0
LINE
  5
37B
100
AcDbEntity
  8
RACCORDO
100
AcDbLine
 62
7
  6
CONTINUOUS
 10
8.3192203742
 20
15.3064815159
 11
8.3192203742
 21
-15.2935079928
  0
LINE
  5
37C
100
AcDbEntity
  8
RACCORDO
100
AcDbLine
 62
253
  6
CONTINUOUS
 10
8.7221377508
 20
23.601828838
 11
8.7221377508
 21
22.3540787072
  0
LINE
  5
37D
100
AcDbEntity
  8
RACCORDO
100
AcDbLine
 62
253
  6
CONTINUOUS
 10
8.7221377508
 20
-22.3411057342
 11
8.7221377508
 21
-23.588855865
  0
LINE
  5
37E
100
AcDbEntity
  8
RACCORDO
100
AcDbLine
 62
253
  6
CONTINUOUS
 10
8.8192203742
 20
-15.7935135135
 11
8.8192203742
 21
-16.0345274081
  0
LINE
  5
37F
100
AcDbEntity
  8
RACCORDO
100
AcDbLine
 62
253
  6
CONTINUOUS
 10
8.8192203742
 20
15.8064864865
 11
8.8192203742
 21
16.047500381
  0
LINE
  5
380
100
AcDbEntity
  8
RACCORDO
100
AcDbLine
 62
253
  6
CONTINUOUS
 10
1.6200205645
 20
-21.4929239681
 11
1.4866372766
 21
-21.8933992421
  0
LINE
  5
381
100
AcDbEntity
  8
RACCORDO
100
AcDbLine
 62
253
  6
CONTINUOUS
 10
23.019224605
 20
24.5064864865
 11
23.0061260263
 21
24.4933879078
  0
LINE
  5
382
100
AcDbEntity
  8
RACCORDO
100
AcDbLine
 62
253
  6
CONTINUOUS
 10
23.2692203742
 20
24.2564907173
 11
23.2561217955
 21
24.2433921386
  0
LINE
  5
383
100
AcDbEntity
  8
RACCORDO
100
AcDbLine
 62
253
  6
CONTINUOUS
 10
23.019224605
 20
-24.4935135135
 11
23.0061260263
 21
-24.4804149348
  0
LINE
  5
384
100
AcDbEntity
  8
RACCORDO
100
AcDbLine
 62
253
  6
CONTINUOUS
 10
23.2692203742
 20
-24.2435177443
 11
23.2561217955
 21
-24.2304191656
  0
LINE
  5
385
100
AcDbEntity
  8
RACCORDO
100
AcDbLine
 62
253
  6
CONTINUOUS
 10
1.4866372766
 20
21.9063722151
 11
1.6200205645
 21
21.5058969411
  0
LINE
  5
386
100
AcDbEntity
  8
RACCORDO
100
AcDbLine
 62
7
  6
CONTINUOUS
 10
8.2192203742
 20
-22.3935135135
 11
8.2221462124
 21
-22.3671571767
  0
LINE
  5
387
100
AcDbEntity
  8
RACCORDO
100
AcDbLine
 62
253
  6
CONTINUOUS
 10
2.1199442442
 20
-21.9922392396
 11
2.0103050343
 21
-22.3214243521
  0
LINE
  5
388
100
AcDbEntity
  8
RACCORDO
100
AcDbLine
 62
7
  6
CONTINUOUS
 10
68.019224605
 20
-24.4935135135
 11
66.1192161434
 21
-24.4935135135
  0
LINE
  5
389
100
AcDbEntity
  8
RACCORDO
100
AcDbLine
 62
7
  6
CONTINUOUS
 10
49.119224605
 20
-24.4935135135
 11
47.2192161434
 21
-24.4935135135
  0
LINE
  5
38A
100
AcDbEntity
  8
RACCORDO
100
AcDbLine
 62
7
  6
CONTINUOUS
 10
23.019224605
 20
-24.4935135135
 11
21.1192161434
 21
-24.4935135135
  0
LINE
  5
38B
100
AcDbEntity
  8
RACCORDO
100
AcDbLine
 62
7
  6
CONTINUOUS
 10
4.119224605
 20
-24.4935135135
 11
2.2192161434
 21
-24.4935135135
  0
LINE
  5
38C
100
AcDbEntity
  8
RACCORDO
100
AcDbLine
 62
253
  6
CONTINUOUS
 10
2.2323147222
 20
-24.4804149348
 11
4.1061260263
 21
-24.4804149348
  0
LINE
  5
38D
100
AcDbEntity
  8
RACCORDO
100
AcDbLine
 62
253
  6
CONTINUOUS
 10
21.1323147222
 20
-24.4804149348
 11
23.0061260263
 21
-24.4804149348
  0
LINE
  5
38E
100
AcDbEntity
  8
RACCORDO
100
AcDbLine
 62
253
  6
CONTINUOUS
 10
47.2323147222
 20
-24.4804149348
 11
49.1061260263
 21
-24.4804149348
  0
LINE
  5
38F
100
AcDbEntity
  8
RACCORDO
100
AcDbLine
 62
253
  6
CONTINUOUS
 10
66.1323147222
 20
-24.4804149348
 11
68.0061260263
 21
-24.4804149348
  0
LINE
  5
390
100
AcDbEntity
  8
RACCORDO
100
AcDbLine
 62
253
  6
CONTINUOUS
 10
1.9823189529
 20
-24.2304191656
 11
4.3561217955
 21
-24.2304191656
  0
LINE
  5
391
100
AcDbEntity
  8
RACCORDO
100
AcDbLine
 62
253
  6
CONTINUOUS
 10
20.8823189529
 20
-24.2304191656
 11
23.2561217955
 21
-24.2304191656
  0
LINE
  5
392
100
AcDbEntity
  8
RACCORDO
100
AcDbLine
 62
253
  6
CONTINUOUS
 10
46.9823189529
 20
-24.2304191656
 11
49.3561217955
 21
-24.2304191656
  0
LINE
  5
393
100
AcDbEntity
  8
RACCORDO
100
AcDbLine
 62
253
  6
CONTINUOUS
 10
65.8823189529
 20
-24.2304191656
 11
68.2561217955
 21
-24.2304191656
  0
LINE
  5
394
100
AcDbEntity
  8
RACCORDO
100
AcDbLine
 62
253
  6
CONTINUOUS
 10
1.9823189529
 20
-23.8378510808
 11
4.3561217955
 21
-23.8378510808
  0
LINE
  5
395
100
AcDbEntity
  8
RACCORDO
100
AcDbLine
 62
253
  6
CONTINUOUS
 10
20.8823189529
 20
-23.8378510808
 11
23.2561217955
 21
-23.8378510808
  0
LINE
  5
396
100
AcDbEntity
  8
RACCORDO
100
AcDbLine
 62
253
  6
CONTINUOUS
 10
46.9823189529
 20
-23.8378510808
 11
49.3561217955
 21
-23.8378510808
  0
LINE
  5
397
100
AcDbEntity
  8
RACCORDO
100
AcDbLine
 62
253
  6
CONTINUOUS
 10
65.8823189529
 20
-23.8378510808
 11
68.2561217955
 21
-23.8378510808
  0
LINE
  5
398
100
AcDbEntity
  8
DRAFT
100
AcDbLine
 62
7
  6
CONTINUOUS
 10
62.0192203742
 20
-23.7935135135
 11
53.2192203742
 21
-23.7935135135
  0
LINE
  5
399
100
AcDbEntity
  8
DRAFT
100
AcDbLine
 62
7
  6
CONTINUOUS
 10
17.0192203742
 20
-23.7935135135
 11
8.2192203742
 21
-23.7935135135
  0
LINE
  5
39A
100
AcDbEntity
  8
RACCORDO
100
AcDbLine
 62
253
  6
CONTINUOUS
 10
8.3230130606
 20
-23.7888524804
 11
16.9154276879
 21
-23.7888524804
  0
LINE
  5
39B
100
AcDbEntity
  8
RACCORDO
100
AcDbLine
 62
253
  6
CONTINUOUS
 10
53.3230130606
 20
-23.7888524804
 11
61.9154276879
 21
-23.7888524804
  0
LINE
  5
39C
100
AcDbEntity
  8
RACCORDO
100
AcDbLine
 62
253
  6
CONTINUOUS
 10
68.0061260263
 20
-23.6213447299
 11
66.1323147222
 21
-23.6213447299
  0
LINE
  5
39D
100
AcDbEntity
  8
RACCORDO
100
AcDbLine
 62
253
  6
CONTINUOUS
 10
49.1061260263
 20
-23.6213447299
 11
47.2323147222
 21
-23.6213447299
  0
LINE
  5
39E
100
AcDbEntity
  8
RACCORDO
100
AcDbLine
 62
253
  6
CONTINUOUS
 10
23.0061260263
 20
-23.6213447299
 11
21.1323147222
 21
-23.6213447299
  0
LINE
  5
39F
100
AcDbEntity
  8
RACCORDO
100
AcDbLine
 62
253
  6
CONTINUOUS
 10
4.1061260263
 20
-23.6213447299
 11
2.2323147222
 21
-23.6213447299
  0
LINE
  5
3A0
100
AcDbEntity
  8
RACCORDO
100
AcDbLine
 62
253
  6
CONTINUOUS
 10
8.7221377508
 20
-23.588855865
 11
16.5163029976
 21
-23.588855865
  0
LINE
  5
3A1
100
AcDbEntity
  8
RACCORDO
100
AcDbLine
 62
253
  6
CONTINUOUS
 10
53.7221377508
 20
-23.588855865
 11
61.5163029976
 21
-23.588855865
  0
LINE
  5
3A2
100
AcDbEntity
  8
RACCORDO
100
AcDbLine
 62
7
  6
CONTINUOUS
 10
2.2272241211
 20
-23.1161632443
 11
4.1112166274
 21
-23.1161632443
  0
LINE
  5
3A3
100
AcDbEntity
  8
RACCORDO
100
AcDbLine
 62
7
  6
CONTINUOUS
 10
21.1272241211
 20
-23.1161632443
 11
23.0112166274
 21
-23.1161632443
  0
LINE
  5
3A4
100
AcDbEntity
  8
RACCORDO
100
AcDbLine
 62
7
  6
CONTINUOUS
 10
47.2272241211
 20
-23.1161632443
 11
49.1112166274
 21
-23.1161632443
  0
LINE
  5
3A5
100
AcDbEntity
  8
RACCORDO
100
AcDbLine
 62
7
  6
CONTINUOUS
 10
66.1272241211
 20
-23.1161632443
 11
68.0112166274
 21
-23.1161632443
  0
LINE
  5
3A6
100
AcDbEntity
  8
DRAFT
100
AcDbLine
 62
7
  6
CONTINUOUS
 10
65.8692203742
 20
-22.3935135135
 11
62.0192203742
 21
-22.3935135135
  0
LINE
  5
3A7
100
AcDbEntity
  8
DRAFT
100
AcDbLine
 62
7
  6
CONTINUOUS
 10
53.2192203742
 20
-22.3935135135
 11
49.3692203742
 21
-22.3935135135
  0
LINE
  5
3A8
100
AcDbEntity
  8
DRAFT
100
AcDbLine
 62
7
  6
CONTINUOUS
 10
46.9692203742
 20
-22.3935135135
 11
23.2692203742
 21
-22.3935135135
  0
LINE
  5
3A9
100
AcDbEntity
  8
DRAFT
100
AcDbLine
 62
7
  6
CONTINUOUS
 10
20.8692203742
 20
-22.3935135135
 11
17.0192203742
 21
-22.3935135135
  0
LINE
  5
3AA
100
AcDbEntity
  8
DRAFT
100
AcDbLine
 62
7
  6
CONTINUOUS
 10
8.2192203742
 20
-22.3935135135
 11
4.3692203742
 21
-22.3935135135
  0
LINE
  5
3AB
100
AcDbEntity
  8
RACCORDO
100
AcDbLine
 62
7
  6
CONTINUOUS
 10
61.5163029976
 20
-22.3411057342
 11
53.7221377508
 21
-22.3411057342
  0
LINE
  5
3AC
100
AcDbEntity
  8
RACCORDO
100
AcDbLine
 62
7
  6
CONTINUOUS
 10
16.5163029976
 20
-22.3411057342
 11
8.7221377508
 21
-22.3411057342
  0
LINE
  5
3AD
100
AcDbEntity
  8
RACCORDO
100
AcDbLine
 62
7
  6
CONTINUOUS
 10
2.2264968923
 20
-22.3149018446
 11
4.1119438561
 21
-22.3149018446
  0
LINE
  5
3AE
100
AcDbEntity
  8
RACCORDO
100
AcDbLine
 62
7
  6
CONTINUOUS
 10
21.1264968923
 20
-22.3149018446
 11
23.0119438561
 21
-22.3149018446
  0
LINE
  5
3AF
100
AcDbEntity
  8
RACCORDO
100
AcDbLine
 62
7
  6
CONTINUOUS
 10
47.2264968923
 20
-22.3149018446
 11
49.1119438561
 21
-22.3149018446
  0
LINE
  5
3B0
100
AcDbEntity
  8
RACCORDO
100
AcDbLine
 62
7
  6
CONTINUOUS
 10
66.1264968923
 20
-22.3149018446
 11
68.0119438561
 21
-22.3149018446
  0
LINE
  5
3B1
100
AcDbEntity
  8
RACCORDO
100
AcDbLine
 62
253
  6
CONTINUOUS
 10
2.1199442442
 20
-21.9922392396
 11
68.1184965043
 21
-21.9922392396
  0
LINE
  5
3B2
100
AcDbEntity
  8
RACCORDO
100
AcDbLine
 62
253
  6
CONTINUOUS
 10
2.0103050343
 20
22.3343973251
 11
2.1199442375
 21
22.0052122327
  0
LINE
  5
3B3
100
AcDbEntity
  8
RACCORDO
100
AcDbLine
 62
7
  6
CONTINUOUS
 10
8.2192203742
 20
22.4064864865
 11
8.2221462124
 21
22.3801301497
  0
LINE
  5
3B4
100
AcDbEntity
  8
RACCORDO
100
AcDbLine
 62
7
  6
CONTINUOUS
 10
17.0192203742
 20
22.4064864865
 11
17.016294536
 21
22.3801301497
  0
LINE
  5
3B5
100
AcDbEntity
  8
RACCORDO
100
AcDbLine
 62
253
  6
CONTINUOUS
 10
2.1364711889
 20
-20.5559717755
 11
68.1019695596
 21
-20.5559717756
  0
LINE
  5
3B6
100
AcDbEntity
  8
RACCORDO
100
AcDbLine
 62
7
  6
CONTINUOUS
 10
17.0192203742
 20
-22.3935135135
 11
17.016294536
 21
-22.3671571767
  0
LINE
  5
3B7
100
AcDbEntity
  8
RACCORDO
100
AcDbLine
 62
253
  6
CONTINUOUS
 10
16.5163029976
 20
-23.588855865
 11
16.5163029976
 21
-22.3411057342
  0
LINE
  5
3B8
100
AcDbEntity
  8
RACCORDO
100
AcDbLine
 62
253
  6
CONTINUOUS
 10
16.5163029976
 20
22.3540787072
 11
16.5163029976
 21
23.601828838
  0
LINE
  5
3B9
100
AcDbEntity
  8
RACCORDO
100
AcDbLine
 62
253
  6
CONTINUOUS
 10
17.016294536
 20
-23.7905876753
 11
17.016294536
 21
-22.3671571767
  0
LINE
  5
3BA
100
AcDbEntity
  8
RACCORDO
100
AcDbLine
 62
253
  6
CONTINUOUS
 10
17.016294536
 20
22.3801301497
 11
17.016294536
 21
23.8035606483
  0
LINE
  5
3BB
100
AcDbEntity
  8
DRAFT
100
AcDbLine
 62
7
  6
CONTINUOUS
 10
17.0192203742
 20
23.8064864865
 11
17.0192203742
 21
22.4064864865
  0
LINE
  5
3BC
100
AcDbEntity
  8
DRAFT
100
AcDbLine
 62
7
  6
CONTINUOUS
 10
17.0192203742
 20
-22.3935135135
 11
17.0192203742
 21
-23.7935135135
  0
LINE
  5
3BD
100
AcDbEntity
  8
0
100
AcDbLine
 62
253
  6
CONTINUOUS
 10
64.7021876248
 20
-19.0559818383
 11
5.5362531237
 21
-19.0559818383
  0
LINE
  5
3BE
100
AcDbEntity
  8
RACCORDO
100
AcDbLine
 62
253
  6
CONTINUOUS
 10
20.8823189529
 20
-23.8378510808
 11
20.8765011231
 21
-23.2605008116
  0
LINE
  5
3BF
100
AcDbEntity
  8
RACCORDO
100
AcDbLine
 62
253
  6
CONTINUOUS
 10
21.1323147222
 20
-23.6213447299
 11
21.1272241211
 21
-23.1161632443
  0
LINE
  5
3C0
100
AcDbEntity
  8
RACCORDO
100
AcDbLine
 62
7
  6
CONTINUOUS
 10
20.8692203742
 20
-22.3935135135
 11
20.8692203742
 21
-24.2435177443
  0
LINE
  5
3C1
100
AcDbEntity
  8
RACCORDO
100
AcDbLine
 62
7
  6
CONTINUOUS
 10
20.8692203742
 20
22.4064864865
 11
20.8692203742
 21
24.2564907173
  0
LINE
  5
3C2
100
AcDbEntity
  8
RACCORDO
100
AcDbLine
 62
253
  6
CONTINUOUS
 10
20.8765011231
 20
-23.2605008116
 11
20.8765011231
 21
-22.3279275658
  0
LINE
  5
3C3
100
AcDbEntity
  8
RACCORDO
100
AcDbLine
 62
253
  6
CONTINUOUS
 10
20.8765011231
 20
22.3409005388
 11
20.8765011231
 21
23.2734737846
  0
LINE
  5
3C4
100
AcDbEntity
  8
RACCORDO
100
AcDbLine
 62
253
  6
CONTINUOUS
 10
20.8823189529
 20
24.2433921386
 11
20.8823189529
 21
23.8508240538
  0
LINE
  5
3C5
100
AcDbEntity
  8
RACCORDO
100
AcDbLine
 62
253
  6
CONTINUOUS
 10
20.8823189529
 20
-23.8378510808
 11
20.8823189529
 21
-24.2304191656
  0
LINE
  5
3C6
100
AcDbEntity
  8
RACCORDO
100
AcDbLine
 62
253
  6
CONTINUOUS
 10
21.1264968923
 20
-23.1161632443
 11
21.1264968923
 21
-22.3149018446
  0
LINE
  5
3C7
100
AcDbEntity
  8
RACCORDO
100
AcDbLine
 62
253
  6
CONTINUOUS
 10
21.1264968923
 20
22.3278748176
 11
21.1264968923
 21
23.1291362173
  0
LINE
  5
3C8
100
AcDbEntity
  8
RACCORDO
100
AcDbLine
 62
253
  6
CONTINUOUS
 10
21.1323147222
 20
-23.6213447299
 11
21.1323147222
 21
-24.4804149348
  0
LINE
  5
3C9
100
AcDbEntity
  8
RACCORDO
100
AcDbLine
 62
253
  6
CONTINUOUS
 10
21.1323147222
 20
23.6343177028
 11
21.1323147222
 21
24.4933879078
  0
LINE
  5
3CA
100
AcDbEntity
  8
RACCORDO
100
AcDbLine
 62
253
  6
CONTINUOUS
 10
20.8765011231
 20
23.2734737846
 11
20.8823189529
 21
23.8508240538
  0
LINE
  5
3CB
100
AcDbEntity
  8
RACCORDO
100
AcDbLine
 62
253
  6
CONTINUOUS
 10
21.1272241211
 20
23.1291362173
 11
21.1323147222
 21
23.6343177028
  0
LINE
  5
3CC
100
AcDbEntity
  8
RACCORDO
100
AcDbLine
 62
7
  6
CONTINUOUS
 10
23.2692203742
 20
22.4064864865
 11
23.2619396253
 21
22.3409005388
  0
LINE
  5
3CD
100
AcDbEntity
  8
RACCORDO
100
AcDbLine
 62
253
  6
CONTINUOUS
 10
8.8192203742
 20
-16.0345274081
 11
61.4192203742
 21
-16.0345274081
  0
LINE
  5
3CE
100
AcDbEntity
  8
RACCORDO
100
AcDbLine
 62
7
  6
CONTINUOUS
 10
8.8192241233
 20
-15.7935135135
 11
61.4192159114
 21
-15.7935135135
  0
LINE
  5
3CF
100
AcDbEntity
  8
RACCORDO
100
AcDbLine
 62
7
  6
CONTINUOUS
 10
23.2692203742
 20
-22.3935135135
 11
23.2619396253
 21
-22.3279275658
  0
LINE
  5
3D0
100
AcDbEntity
  8
RACCORDO
100
AcDbLine
 62
253
  6
CONTINUOUS
 10
23.0061260263
 20
23.6343177028
 11
23.0112166274
 21
23.1291362173
  0
LINE
  5
3D1
100
AcDbEntity
  8
RACCORDO
100
AcDbLine
 62
253
  6
CONTINUOUS
 10
23.2561217955
 20
23.8508240538
 11
23.2619396253
 21
23.2734737846
  0
LINE
  5
3D2
100
AcDbEntity
  8
RACCORDO
100
AcDbLine
 62
253
  6
CONTINUOUS
 10
23.0061260263
 20
-23.6213447299
 11
23.0061260263
 21
-24.4804149348
  0
LINE
  5
3D3
100
AcDbEntity
  8
RACCORDO
100
AcDbLine
 62
253
  6
CONTINUOUS
 10
23.0061260263
 20
23.6343177028
 11
23.0061260263
 21
24.4933879078
  0
LINE
  5
3D4
100
AcDbEntity
  8
RACCORDO
100
AcDbLine
 62
253
  6
CONTINUOUS
 10
23.0119438561
 20
23.1291362173
 11
23.0119438561
 21
22.3278748176
  0
LINE
  5
3D5
100
AcDbEntity
  8
RACCORDO
100
AcDbLine
 62
253
  6
CONTINUOUS
 10
23.0119438561
 20
-22.3149018446
 11
23.0119438561
 21
-23.1161632443
  0
LINE
  5
3D6
100
AcDbEntity
  8
RACCORDO
100
AcDbLine
 62
253
  6
CONTINUOUS
 10
23.2561217955
 20
-24.2304191656
 11
23.2561217955
 21
-23.8378510808
  0
LINE
  5
3D7
100
AcDbEntity
  8
RACCORDO
100
AcDbLine
 62
253
  6
CONTINUOUS
 10
23.2561217955
 20
23.8508240538
 11
23.2561217955
 21
24.2433921386
  0
LINE
  5
3D8
100
AcDbEntity
  8
RACCORDO
100
AcDbLine
 62
253
  6
CONTINUOUS
 10
23.2619396253
 20
23.2734737846
 11
23.2619396253
 21
22.3409005388
  0
LINE
  5
3D9
100
AcDbEntity
  8
RACCORDO
100
AcDbLine
 62
253
  6
CONTINUOUS
 10
23.2619396253
 20
-22.3279275658
 11
23.2619396253
 21
-23.2605008116
  0
LINE
  5
3DA
100
AcDbEntity
  8
RACCORDO
100
AcDbLine
 62
7
  6
CONTINUOUS
 10
23.2692203742
 20
-22.3935135135
 11
23.2692203742
 21
-24.2435177443
  0
LINE
  5
3DB
100
AcDbEntity
  8
RACCORDO
100
AcDbLine
 62
7
  6
CONTINUOUS
 10
23.2692203742
 20
22.4064864865
 11
23.2692203742
 21
24.2564907173
  0
LINE
  5
3DC
100
AcDbEntity
  8
RACCORDO
100
AcDbLine
 62
253
  6
CONTINUOUS
 10
23.0112166274
 20
-23.1161632443
 11
23.0061260263
 21
-23.6213447299
  0
LINE
  5
3DD
100
AcDbEntity
  8
RACCORDO
100
AcDbLine
 62
253
  6
CONTINUOUS
 10
23.2619396253
 20
-23.2605008116
 11
23.2561217955
 21
-23.8378510808
  0
LINE
  5
3DE
100
AcDbEntity
  8
RACCORDO
100
AcDbLine
 62
7
  6
CONTINUOUS
 10
20.8692203742
 20
-22.3935135135
 11
20.8765011231
 21
-22.3279275658
  0
LINE
  5
3DF
100
AcDbEntity
  8
RACCORDO
100
AcDbLine
 62
7
  6
CONTINUOUS
 10
20.8692203742
 20
22.4064864865
 11
20.8765011231
 21
22.3409005388
  0
LINE
  5
3E0
100
AcDbEntity
  8
RACCORDO
100
AcDbLine
 62
253
  6
CONTINUOUS
 10
49.119224605
 20
24.5064864865
 11
49.1061260263
 21
24.4933879078
  0
LINE
  5
3E1
100
AcDbEntity
  8
RACCORDO
100
AcDbLine
 62
253
  6
CONTINUOUS
 10
49.3692203742
 20
24.2564907173
 11
49.3561217955
 21
24.2433921386
  0
LINE
  5
3E2
100
AcDbEntity
  8
RACCORDO
100
AcDbLine
 62
253
  6
CONTINUOUS
 10
1.9692203742
 20
-24.2435177443
 11
1.9823189529
 21
-24.2304191656
  0
LINE
  5
3E3
100
AcDbEntity
  8
RACCORDO
100
AcDbLine
 62
253
  6
CONTINUOUS
 10
2.2192161434
 20
-24.4935135135
 11
2.2323147222
 21
-24.4804149348
  0
LINE
  5
3E4
100
AcDbEntity
  8
RACCORDO
100
AcDbLine
 62
253
  6
CONTINUOUS
 10
5.5362531237
 20
-19.0559818383
 11
8.6028596228
 21
-16.0084589759
  0
LINE
  5
3E5
100
AcDbEntity
  8
RACCORDO
100
AcDbLine
 62
253
  6
CONTINUOUS
 10
5.5362531237
 20
19.0689548113
 11
8.6028596229
 21
16.0214319489
  0
LINE
  5
3E6
100
AcDbEntity
  8
RACCORDO
100
AcDbLine
 62
253
  6
CONTINUOUS
 10
49.119224605
 20
-24.4935135135
 11
49.1061260263
 21
-24.4804149348
  0
LINE
  5
3E7
100
AcDbEntity
  8
RACCORDO
100
AcDbLine
 62
253
  6
CONTINUOUS
 10
49.3692203742
 20
-24.2435177443
 11
49.3561217955
 21
-24.2304191656
  0
LINE
  5
3E8
100
AcDbEntity
  8
RACCORDO
100
AcDbLine
 62
253
  6
CONTINUOUS
 10
1.9692203742
 20
24.2564907173
 11
1.9823189529
 21
24.2433921386
  0
LINE
  5
3E9
100
AcDbEntity
  8
RACCORDO
100
AcDbLine
 62
253
  6
CONTINUOUS
 10
2.2192161434
 20
24.5064864865
 11
2.2323147222
 21
24.4933879078
  0
LINE
  5
3EA
100
AcDbEntity
  8
RACCORDO
100
AcDbLine
 62
7
  6
CONTINUOUS
 10
8.2221462124
 20
-23.7905876753
 11
8.2192203742
 21
-23.7935135135
  0
LINE
  5
3EB
100
AcDbEntity
  8
RACCORDO
100
AcDbLine
 62
253
  6
CONTINUOUS
 10
66.2021876248
 20
17.5689548113
 11
62.1911509879
 21
15.4501332605
  0
LINE
  5
3EC
100
AcDbEntity
  8
RACCORDO
100
AcDbLine
 62
253
  6
CONTINUOUS
 10
8.0816535562
 20
0.0064864865
 11
4.0362531237
 21
0.0064864865
  0
LINE
  5
3ED
100
AcDbEntity
  8
RACCORDO
100
AcDbLine
 62
253
  6
CONTINUOUS
 10
62.1567871922
 20
0.0064864865
 11
66.2021876248
 21
0.0064864865
  0
LINE
  5
3EE
100
AcDbEntity
  8
RACCORDO
100
AcDbLine
 62
253
  6
CONTINUOUS
 10
66.2021876248
 20
-17.5559818343
 11
62.1911785283
 21
-15.437209407
  0
LINE
  5
3EF
100
AcDbEntity
  8
RACCORDO
100
AcDbLine
 62
7
  6
CONTINUOUS
 10
8.2221462124
 20
23.8035606483
 11
8.2192203742
 21
23.8064864865
  0
LINE
  5
3F0
100
AcDbEntity
  8
RACCORDO
100
AcDbLine
 62
7
  6
CONTINUOUS
 10
62.016294536
 20
23.8035606483
 11
62.0192203742
 21
23.8064864865
  0
LINE
  5
3F1
100
AcDbEntity
  8
RACCORDO
100
AcDbLine
 62
253
  6
CONTINUOUS
 10
4.0362545765
 20
-17.5559810709
 11
8.0472897606
 21
-15.4371602875
  0
LINE
  5
3F2
100
AcDbEntity
  8
RACCORDO
100
AcDbLine
 62
253
  6
CONTINUOUS
 10
4.0362531237
 20
17.5689548113
 11
8.0472897606
 21
15.4501332605
  0
LINE
  5
3F3
100
AcDbEntity
  8
RACCORDO
100
AcDbLine
 62
7
  6
CONTINUOUS
 10
62.016294536
 20
-23.7905876753
 11
62.0192203742
 21
-23.7935135135
  0
LINE
  5
3F4
100
AcDbEntity
  8
RACCORDO
100
AcDbLine
 62
253
  6
CONTINUOUS
 10
68.019224605
 20
24.5064864865
 11
68.0061260263
 21
24.4933879078
  0
LINE
  5
3F5
100
AcDbEntity
  8
RACCORDO
100
AcDbLine
 62
253
  6
CONTINUOUS
 10
68.019224605
 20
-24.4935135135
 11
68.0061260263
 21
-24.4804149348
  0
LINE
  5
3F6
100
AcDbEntity
  8
RACCORDO
100
AcDbLine
 62
253
  6
CONTINUOUS
 10
68.2692203742
 20
24.2564907173
 11
68.2561217955
 21
24.2433921386
  0
LINE
  5
3F7
100
AcDbEntity
  8
RACCORDO
100
AcDbLine
 62
253
  6
CONTINUOUS
 10
20.8692203742
 20
-24.2435177443
 11
20.8823189529
 21
-24.2304191656
  0
LINE
  5
3F8
100
AcDbEntity
  8
RACCORDO
100
AcDbLine
 62
253
  6
CONTINUOUS
 10
21.1192161434
 20
-24.4935135135
 11
21.1323147222
 21
-24.4804149348
  0
LINE
  5
3F9
100
AcDbEntity
  8
RACCORDO
100
AcDbLine
 62
253
  6
CONTINUOUS
 10
64.7021876248
 20
19.0689548113
 11
61.6355811256
 21
16.0214319489
  0
LINE
  5
3FA
100
AcDbEntity
  8
RACCORDO
100
AcDbLine
 62
253
  6
CONTINUOUS
 10
64.7021876248
 20
-19.0559818383
 11
61.6355811256
 21
-16.0084589759
  0
LINE
  5
3FB
100
AcDbEntity
  8
RACCORDO
100
AcDbLine
 62
253
  6
CONTINUOUS
 10
68.2692203742
 20
-24.2435177443
 11
68.2561217955
 21
-24.2304191656
  0
LINE
  5
3FC
100
AcDbEntity
  8
RACCORDO
100
AcDbLine
 62
253
  6
CONTINUOUS
 10
20.8692203742
 20
24.2564907173
 11
20.8823189529
 21
24.2433921386
  0
LINE
  5
3FD
100
AcDbEntity
  8
RACCORDO
100
AcDbLine
 62
253
  6
CONTINUOUS
 10
21.1192161434
 20
24.5064864865
 11
21.1323147222
 21
24.4933879078
  0
LINE
  5
3FE
100
AcDbEntity
  8
RACCORDO
100
AcDbLine
 62
253
  6
CONTINUOUS
 10
46.9823189529
 20
-23.8378510808
 11
46.9765011231
 21
-23.2605008116
  0
LINE
  5
3FF
100
AcDbEntity
  8
RACCORDO
100
AcDbLine
 62
253
  6
CONTINUOUS
 10
46.9765011231
 20
23.2734737846
 11
46.9823189529
 21
23.8508240538
  0
LINE
  5
400
100
AcDbEntity
  8
RACCORDO
100
AcDbLine
 62
253
  6
CONTINUOUS
 10
47.2323147222
 20
-23.6213447299
 11
47.2272241211
 21
-23.1161632443
  0
LINE
  5
401
100
AcDbEntity
  8
RACCORDO
100
AcDbLine
 62
253
  6
CONTINUOUS
 10
49.1061260263
 20
23.6343177028
 11
49.1112166274
 21
23.1291362173
  0
LINE
  5
402
100
AcDbEntity
  8
RACCORDO
100
AcDbLine
 62
7
  6
CONTINUOUS
 10
46.9692203742
 20
-22.3935135135
 11
46.9692203742
 21
-24.2435177443
  0
LINE
  5
403
100
AcDbEntity
  8
RACCORDO
100
AcDbLine
 62
7
  6
CONTINUOUS
 10
46.9692203742
 20
22.4064864865
 11
46.9692203742
 21
24.2564907173
  0
LINE
  5
404
100
AcDbEntity
  8
RACCORDO
100
AcDbLine
 62
253
  6
CONTINUOUS
 10
46.9765011231
 20
-23.2605008116
 11
46.9765011231
 21
-22.3279275658
  0
LINE
  5
405
100
AcDbEntity
  8
RACCORDO
100
AcDbLine
 62
253
  6
CONTINUOUS
 10
46.9765011231
 20
22.3409005388
 11
46.9765011231
 21
23.2734737846
  0
LINE
  5
406
100
AcDbEntity
  8
RACCORDO
100
AcDbLine
 62
253
  6
CONTINUOUS
 10
46.9823189529
 20
24.2433921386
 11
46.9823189529
 21
23.8508240538
  0
LINE
  5
407
100
AcDbEntity
  8
RACCORDO
100
AcDbLine
 62
253
  6
CONTINUOUS
 10
46.9823189529
 20
-23.8378510808
 11
46.9823189529
 21
-24.2304191656
  0
LINE
  5
408
100
AcDbEntity
  8
RACCORDO
100
AcDbLine
 62
253
  6
CONTINUOUS
 10
47.2264968923
 20
-23.1161632443
 11
47.2264968923
 21
-22.3149018446
  0
LINE
  5
409
100
AcDbEntity
  8
RACCORDO
100
AcDbLine
 62
253
  6
CONTINUOUS
 10
47.2264968923
 20
22.3278748176
 11
47.2264968923
 21
23.1291362173
  0
LINE
  5
40A
100
AcDbEntity
  8
RACCORDO
100
AcDbLine
 62
253
  6
CONTINUOUS
 10
47.2323147222
 20
-23.6213447299
 11
47.2323147222
 21
-24.4804149348
  0
LINE
  5
40B
100
AcDbEntity
  8
RACCORDO
100
AcDbLine
 62
253
  6
CONTINUOUS
 10
47.2323147222
 20
23.6343177028
 11
47.2323147222
 21
24.4933879078
  0
LINE
  5
40C
100
AcDbEntity
  8
RACCORDO
100
AcDbLine
 62
253
  6
CONTINUOUS
 10
49.1061260263
 20
-23.6213447299
 11
49.1061260263
 21
-24.4804149348
  0
LINE
  5
40D
100
AcDbEntity
  8
RACCORDO
100
AcDbLine
 62
253
  6
CONTINUOUS
 10
49.1061260263
 20
23.6343177028
 11
49.1061260263
 21
24.4933879078
  0
LINE
  5
40E
100
AcDbEntity
  8
RACCORDO
100
AcDbLine
 62
253
  6
CONTINUOUS
 10
49.1119438561
 20
23.1291362173
 11
49.1119438561
 21
22.3278748176
  0
LINE
  5
40F
100
AcDbEntity
  8
RACCORDO
100
AcDbLine
 62
253
  6
CONTINUOUS
 10
49.1119438561
 20
-22.3149018446
 11
49.1119438561
 21
-23.1161632443
  0
LINE
  5
410
100
AcDbEntity
  8
RACCORDO
100
AcDbLine
 62
253
  6
CONTINUOUS
 10
49.3561217955
 20
-24.2304191656
 11
49.3561217955
 21
-23.8378510808
  0
LINE
  5
411
100
AcDbEntity
  8
RACCORDO
100
AcDbLine
 62
253
  6
CONTINUOUS
 10
49.3561217955
 20
23.8508240538
 11
49.3561217955
 21
24.2433921386
  0
LINE
  5
412
100
AcDbEntity
  8
RACCORDO
100
AcDbLine
 62
253
  6
CONTINUOUS
 10
49.3619396253
 20
23.2734737846
 11
49.3619396253
 21
22.3409005388
  0
LINE
  5
413
100
AcDbEntity
  8
RACCORDO
100
AcDbLine
 62
253
  6
CONTINUOUS
 10
49.3619396253
 20
-22.3279275658
 11
49.3619396253
 21
-23.2605008116
  0
LINE
  5
414
100
AcDbEntity
  8
RACCORDO
100
AcDbLine
 62
7
  6
CONTINUOUS
 10
49.3692203742
 20
-22.3935135135
 11
49.3692203742
 21
-24.2435177443
  0
LINE
  5
415
100
AcDbEntity
  8
RACCORDO
100
AcDbLine
 62
7
  6
CONTINUOUS
 10
49.3692203742
 20
22.4064864865
 11
49.3692203742
 21
24.2564907173
  0
LINE
  5
416
100
AcDbEntity
  8
RACCORDO
100
AcDbLine
 62
253
  6
CONTINUOUS
 10
47.2272241211
 20
23.1291362173
 11
47.2323147222
 21
23.6343177028
  0
LINE
  5
417
100
AcDbEntity
  8
RACCORDO
100
AcDbLine
 62
253
  6
CONTINUOUS
 10
49.1112166274
 20
-23.1161632443
 11
49.1061260263
 21
-23.6213447299
  0
LINE
  5
418
100
AcDbEntity
  8
RACCORDO
100
AcDbLine
 62
7
  6
CONTINUOUS
 10
49.3692203742
 20
22.4064864865
 11
49.3619396253
 21
22.3409005388
  0
LINE
  5
419
100
AcDbEntity
  8
RACCORDO
100
AcDbLine
 62
7
  6
CONTINUOUS
 10
46.9692203742
 20
-22.3935135135
 11
46.9765011231
 21
-22.3279275658
  0
LINE
  5
41A
100
AcDbEntity
  8
RACCORDO
100
AcDbLine
 62
7
  6
CONTINUOUS
 10
49.3692203742
 20
-22.3935135135
 11
49.3619396253
 21
-22.3279275658
  0
LINE
  5
41B
100
AcDbEntity
  8
RACCORDO
100
AcDbLine
 62
7
  6
CONTINUOUS
 10
46.9692203742
 20
22.4064864865
 11
46.9765011231
 21
22.3409005388
  0
LINE
  5
41C
100
AcDbEntity
  8
RACCORDO
100
AcDbLine
 62
253
  6
CONTINUOUS
 10
49.3561217955
 20
23.8508240538
 11
49.3619396253
 21
23.2734737846
  0
LINE
  5
41D
100
AcDbEntity
  8
RACCORDO
100
AcDbLine
 62
253
  6
CONTINUOUS
 10
49.3619396253
 20
-23.2605008116
 11
49.3561217955
 21
-23.8378510808
  0
LINE
  5
41E
100
AcDbEntity
  8
RACCORDO
100
AcDbLine
 62
7
  6
CONTINUOUS
 10
61.4192166252
 20
15.8064864865
 11
8.819224837
 21
15.8064864865
  0
LINE
  5
41F
100
AcDbEntity
  8
RACCORDO
100
AcDbLine
 62
253
  6
CONTINUOUS
 10
61.4192203742
 20
16.047500381
 11
8.8192203742
 21
16.047500381
  0
LINE
  5
420
100
AcDbEntity
  8
DRAFT
100
AcDbLine
 62
7
  6
CONTINUOUS
 10
53.2192203742
 20
-23.7935135135
 11
53.2192203742
 21
-22.3935135135
  0
LINE
  5
421
100
AcDbEntity
  8
DRAFT
100
AcDbLine
 62
7
  6
CONTINUOUS
 10
53.2192203742
 20
22.4064864865
 11
53.2192203742
 21
23.8064864865
  0
LINE
  5
422
100
AcDbEntity
  8
RACCORDO
100
AcDbLine
 62
253
  6
CONTINUOUS
 10
53.2221462124
 20
23.8035606483
 11
53.2221462124
 21
22.3801301497
  0
LINE
  5
423
100
AcDbEntity
  8
RACCORDO
100
AcDbLine
 62
253
  6
CONTINUOUS
 10
53.2221462124
 20
-22.3671571767
 11
53.2221462124
 21
-23.7905876753
  0
LINE
  5
424
100
AcDbEntity
  8
RACCORDO
100
AcDbLine
 62
253
  6
CONTINUOUS
 10
53.7221377508
 20
23.601828838
 11
53.7221377508
 21
22.3540787072
  0
LINE
  5
425
100
AcDbEntity
  8
RACCORDO
100
AcDbLine
 62
253
  6
CONTINUOUS
 10
53.7221377508
 20
-22.3411057342
 11
53.7221377508
 21
-23.588855865
  0
LINE
  5
426
100
AcDbEntity
  8
0
100
AcDbLine
 62
253
  6
CONTINUOUS
 10
64.7021876248
 20
19.0689548113
 11
5.5362531237
 21
19.0689548113
  0
LINE
  5
427
100
AcDbEntity
  8
RACCORDO
100
AcDbLine
 62
7
  6
CONTINUOUS
 10
53.2192203742
 20
-22.3935135135
 11
53.2221462124
 21
-22.3671571767
  0
LINE
  5
428
100
AcDbEntity
  8
RACCORDO
100
AcDbLine
 62
253
  6
CONTINUOUS
 10
2.1364711887
 20
20.5689451341
 11
68.1019695598
 21
20.568945134
  0
LINE
  5
429
100
AcDbEntity
  8
RACCORDO
100
AcDbLine
 62
253
  6
CONTINUOUS
 10
2.1199442375
 20
22.0052122327
 11
68.118496511
 21
22.0052122327
  0
LINE
  5
42A
100
AcDbEntity
  8
RACCORDO
100
AcDbLine
 62
7
  6
CONTINUOUS
 10
2.2264968923
 20
22.3278748176
 11
4.1119438561
 21
22.3278748176
  0
LINE
  5
42B
100
AcDbEntity
  8
RACCORDO
100
AcDbLine
 62
7
  6
CONTINUOUS
 10
21.1264968923
 20
22.3278748176
 11
23.0119438561
 21
22.3278748176
  0
LINE
  5
42C
100
AcDbEntity
  8
RACCORDO
100
AcDbLine
 62
7
  6
CONTINUOUS
 10
47.2264968923
 20
22.3278748176
 11
49.1119438561
 21
22.3278748176
  0
LINE
  5
42D
100
AcDbEntity
  8
RACCORDO
100
AcDbLine
 62
7
  6
CONTINUOUS
 10
66.1264968923
 20
22.3278748176
 11
68.0119438561
 21
22.3278748176
  0
LINE
  5
42E
100
AcDbEntity
  8
RACCORDO
100
AcDbLine
 62
7
  6
CONTINUOUS
 10
61.5163029976
 20
22.3540787072
 11
53.7221377508
 21
22.3540787072
  0
LINE
  5
42F
100
AcDbEntity
  8
RACCORDO
100
AcDbLine
 62
7
  6
CONTINUOUS
 10
16.5163029976
 20
22.3540787072
 11
8.7221377508
 21
22.3540787072
  0
LINE
  5
430
100
AcDbEntity
  8
DRAFT
100
AcDbLine
 62
7
  6
CONTINUOUS
 10
65.8692203742
 20
22.4064864865
 11
62.0192203742
 21
22.4064864865
  0
LINE
  5
431
100
AcDbEntity
  8
DRAFT
100
AcDbLine
 62
7
  6
CONTINUOUS
 10
53.2192203742
 20
22.4064864865
 11
49.3692203742
 21
22.4064864865
  0
LINE
  5
432
100
AcDbEntity
  8
DRAFT
100
AcDbLine
 62
7
  6
CONTINUOUS
 10
46.9692203742
 20
22.4064864865
 11
23.2692203742
 21
22.4064864865
  0
LINE
  5
433
100
AcDbEntity
  8
DRAFT
100
AcDbLine
 62
7
  6
CONTINUOUS
 10
20.8692203742
 20
22.4064864865
 11
17.0192203742
 21
22.4064864865
  0
LINE
  5
434
100
AcDbEntity
  8
DRAFT
100
AcDbLine
 62
7
  6
CONTINUOUS
 10
8.2192203742
 20
22.4064864865
 11
4.3692203742
 21
22.4064864865
  0
LINE
  5
435
100
AcDbEntity
  8
RACCORDO
100
AcDbLine
 62
7
  6
CONTINUOUS
 10
53.2192203742
 20
22.4064864865
 11
53.2221462124
 21
22.3801301497
  0
LINE
  5
436
100
AcDbEntity
  8
RACCORDO
100
AcDbLine
 62
7
  6
CONTINUOUS
 10
62.0192203742
 20
22.4064864865
 11
62.016294536
 21
22.3801301497
  0
LINE
  5
437
100
AcDbEntity
  8
RACCORDO
100
AcDbLine
 62
253
  6
CONTINUOUS
 10
68.118496511
 20
22.0052122327
 11
68.2281357142
 21
22.3343973251
  0
LINE
  5
438
100
AcDbEntity
  8
RACCORDO
100
AcDbLine
 62
253
  6
CONTINUOUS
 10
68.618420184
 20
21.5058969411
 11
68.7518034718
 21
21.9063722151
  0
LINE
  5
439
100
AcDbEntity
  8
RACCORDO
100
AcDbLine
 62
253
  6
CONTINUOUS
 10
46.9692203742
 20
-24.2435177443
 11
46.9823189529
 21
-24.2304191656
  0
LINE
  5
43A
100
AcDbEntity
  8
RACCORDO
100
AcDbLine
 62
7
  6
CONTINUOUS
 10
2.2264968923
 20
23.1291362173
 11
4.1119438561
 21
23.1291362173
  0
LINE
  5
43B
100
AcDbEntity
  8
RACCORDO
100
AcDbLine
 62
7
  6
CONTINUOUS
 10
21.1264968923
 20
23.1291362173
 11
23.0119438561
 21
23.1291362173
  0
LINE
  5
43C
100
AcDbEntity
  8
RACCORDO
100
AcDbLine
 62
7
  6
CONTINUOUS
 10
47.2264968923
 20
23.1291362173
 11
49.1119438561
 21
23.1291362173
  0
LINE
  5
43D
100
AcDbEntity
  8
RACCORDO
100
AcDbLine
 62
7
  6
CONTINUOUS
 10
66.1264968923
 20
23.1291362173
 11
68.0119438561
 21
23.1291362173
  0
LINE
  5
43E
100
AcDbEntity
  8
RACCORDO
100
AcDbLine
 62
253
  6
CONTINUOUS
 10
61.5163029976
 20
23.601828838
 11
53.7221377508
 21
23.601828838
  0
LINE
  5
43F
100
AcDbEntity
  8
RACCORDO
100
AcDbLine
 62
253
  6
CONTINUOUS
 10
16.5163029976
 20
23.601828838
 11
8.7221377508
 21
23.601828838
  0
LINE
  5
440
100
AcDbEntity
  8
RACCORDO
100
AcDbLine
 62
253
  6
CONTINUOUS
 10
2.2323147222
 20
23.6343177028
 11
4.1061260263
 21
23.6343177028
  0
LINE
  5
441
100
AcDbEntity
  8
RACCORDO
100
AcDbLine
 62
253
  6
CONTINUOUS
 10
21.1323147222
 20
23.6343177028
 11
23.0061260263
 21
23.6343177028
  0
LINE
  5
442
100
AcDbEntity
  8
RACCORDO
100
AcDbLine
 62
253
  6
CONTINUOUS
 10
47.2323147222
 20
23.6343177028
 11
49.1061260263
 21
23.6343177028
  0
LINE
  5
443
100
AcDbEntity
  8
RACCORDO
100
AcDbLine
 62
253
  6
CONTINUOUS
 10
66.1323147222
 20
23.6343177028
 11
68.0061260263
 21
23.6343177028
  0
LINE
  5
444
100
AcDbEntity
  8
RACCORDO
100
AcDbLine
 62
253
  6
CONTINUOUS
 10
61.9154276879
 20
23.8018254533
 11
53.3230130606
 21
23.8018254533
  0
LINE
  5
445
100
AcDbEntity
  8
RACCORDO
100
AcDbLine
 62
253
  6
CONTINUOUS
 10
16.9154276879
 20
23.8018254533
 11
8.3230130606
 21
23.8018254533
  0
LINE
  5
446
100
AcDbEntity
  8
DRAFT
100
AcDbLine
 62
7
  6
CONTINUOUS
 10
8.2192203742
 20
23.8064864865
 11
17.0192203742
 21
23.8064864865
  0
LINE
  5
447
100
AcDbEntity
  8
DRAFT
100
AcDbLine
 62
7
  6
CONTINUOUS
 10
53.2192203742
 20
23.8064864865
 11
62.0192203742
 21
23.8064864865
  0
LINE
  5
448
100
AcDbEntity
  8
RACCORDO
100
AcDbLine
 62
253
  6
CONTINUOUS
 10
1.9823189529
 20
23.8508240538
 11
4.3561217955
 21
23.8508240538
  0
LINE
  5
449
100
AcDbEntity
  8
RACCORDO
100
AcDbLine
 62
253
  6
CONTINUOUS
 10
20.8823189529
 20
23.8508240538
 11
23.2561217955
 21
23.8508240538
  0
LINE
  5
44A
100
AcDbEntity
  8
RACCORDO
100
AcDbLine
 62
253
  6
CONTINUOUS
 10
46.9823189529
 20
23.8508240538
 11
49.3561217955
 21
23.8508240538
  0
LINE
  5
44B
100
AcDbEntity
  8
RACCORDO
100
AcDbLine
 62
253
  6
CONTINUOUS
 10
65.8823189529
 20
23.8508240538
 11
68.2561217955
 21
23.8508240538
  0
LINE
  5
44C
100
AcDbEntity
  8
RACCORDO
100
AcDbLine
 62
253
  6
CONTINUOUS
 10
1.9823189529
 20
24.2433921386
 11
4.3561217955
 21
24.2433921386
  0
LINE
  5
44D
100
AcDbEntity
  8
RACCORDO
100
AcDbLine
 62
253
  6
CONTINUOUS
 10
20.8823189529
 20
24.2433921386
 11
23.2561217955
 21
24.2433921386
  0
LINE
  5
44E
100
AcDbEntity
  8
RACCORDO
100
AcDbLine
 62
253
  6
CONTINUOUS
 10
46.9823189529
 20
24.2433921386
 11
49.3561217955
 21
24.2433921386
  0
LINE
  5
44F
100
AcDbEntity
  8
RACCORDO
100
AcDbLine
 62
253
  6
CONTINUOUS
 10
65.8823189529
 20
24.2433921386
 11
68.2561217955
 21
24.2433921386
  0
LINE
  5
450
100
AcDbEntity
  8
RACCORDO
100
AcDbLine
 62
253
  6
CONTINUOUS
 10
68.0061260263
 20
24.4933879078
 11
66.1323147222
 21
24.4933879078
  0
LINE
  5
451
100
AcDbEntity
  8
RACCORDO
100
AcDbLine
 62
253
  6
CONTINUOUS
 10
49.1061260263
 20
24.4933879078
 11
47.2323147222
 21
24.4933879078
  0
LINE
  5
452
100
AcDbEntity
  8
RACCORDO
100
AcDbLine
 62
253
  6
CONTINUOUS
 10
23.0061260263
 20
24.4933879078
 11
21.1323147222
 21
24.4933879078
  0
LINE
  5
453
100
AcDbEntity
  8
RACCORDO
100
AcDbLine
 62
253
  6
CONTINUOUS
 10
4.1061260263
 20
24.4933879078
 11
2.2323147222
 21
24.4933879078
  0
LINE
  5
454
100
AcDbEntity
  8
RACCORDO
100
AcDbLine
 62
7
  6
CONTINUOUS
 10
2.2192161434
 20
24.5064864865
 11
4.119224605
 21
24.5064864865
  0
LINE
  5
455
100
AcDbEntity
  8
RACCORDO
100
AcDbLine
 62
7
  6
CONTINUOUS
 10
21.1192161434
 20
24.5064864865
 11
23.019224605
 21
24.5064864865
  0
LINE
  5
456
100
AcDbEntity
  8
RACCORDO
100
AcDbLine
 62
7
  6
CONTINUOUS
 10
47.2192161434
 20
24.5064864865
 11
49.119224605
 21
24.5064864865
  0
LINE
  5
457
100
AcDbEntity
  8
RACCORDO
100
AcDbLine
 62
7
  6
CONTINUOUS
 10
66.1192161434
 20
24.5064864865
 11
68.019224605
 21
24.5064864865
  0
LINE
  5
458
100
AcDbEntity
  8
RACCORDO
100
AcDbLine
 62
253
  6
CONTINUOUS
 10
46.9692203742
 20
24.2564907173
 11
46.9823189529
 21
24.2433921386
  0
LINE
  5
459
100
AcDbEntity
  8
RACCORDO
100
AcDbLine
 62
253
  6
CONTINUOUS
 10
68.2281357142
 20
-22.3214243521
 11
68.1184965043
 21
-21.9922392396
  0
LINE
  5
45A
100
AcDbEntity
  8
RACCORDO
100
AcDbLine
 62
253
  6
CONTINUOUS
 10
68.7518034718
 20
-21.8933992421
 11
68.618420184
 21
-21.4929239681
  0
LINE
  5
45B
100
AcDbEntity
  8
RACCORDO
100
AcDbLine
 62
7
  6
CONTINUOUS
 10
62.0192203742
 20
-22.3935135135
 11
62.016294536
 21
-22.3671571767
  0
LINE
  5
45C
100
AcDbEntity
  8
RACCORDO
100
AcDbLine
 62
253
  6
CONTINUOUS
 10
61.4192203742
 20
-15.7935135135
 11
61.4192203742
 21
-16.0345274081
  0
LINE
  5
45D
100
AcDbEntity
  8
RACCORDO
100
AcDbLine
 62
253
  6
CONTINUOUS
 10
61.4192203742
 20
15.8064864865
 11
61.4192203742
 21
16.047500381
  0
LINE
  5
45E
100
AcDbEntity
  8
RACCORDO
100
AcDbLine
 62
253
  6
CONTINUOUS
 10
61.5163029976
 20
-23.588855865
 11
61.5163029976
 21
-22.3411057342
  0
LINE
  5
45F
100
AcDbEntity
  8
RACCORDO
100
AcDbLine
 62
253
  6
CONTINUOUS
 10
61.5163029976
 20
22.3540787072
 11
61.5163029976
 21
23.601828838
  0
LINE
  5
460
100
AcDbEntity
  8
RACCORDO
100
AcDbLine
 62
7
  6
CONTINUOUS
 10
61.9192203742
 20
-15.2935085429
 11
61.9192203742
 21
15.3064809657
  0
LINE
  5
461
100
AcDbEntity
  8
RACCORDO
100
AcDbLine
 62
253
  6
CONTINUOUS
 10
62.016294536
 20
-23.7905876753
 11
62.016294536
 21
-22.3671571767
  0
LINE
  5
462
100
AcDbEntity
  8
RACCORDO
100
AcDbLine
 62
253
  6
CONTINUOUS
 10
62.016294536
 20
22.3801301497
 11
62.016294536
 21
23.8035606483
  0
LINE
  5
463
100
AcDbEntity
  8
DRAFT
100
AcDbLine
 62
7
  6
CONTINUOUS
 10
62.0192203742
 20
23.8064864865
 11
62.0192203742
 21
22.4064864865
  0
LINE
  5
464
100
AcDbEntity
  8
DRAFT
100
AcDbLine
 62
7
  6
CONTINUOUS
 10
62.0192203742
 20
-22.3935135135
 11
62.0192203742
 21
-23.7935135135
  0
LINE
  5
465
100
AcDbEntity
  8
RACCORDO
100
AcDbLine
 62
253
  6
CONTINUOUS
 10
47.2192161434
 20
-24.4935135135
 11
47.2323147222
 21
-24.4804149348
  0
LINE
  5
466
100
AcDbEntity
  8
RACCORDO
100
AcDbLine
 62
253
  6
CONTINUOUS
 10
47.2192161434
 20
24.5064864865
 11
47.2323147222
 21
24.4933879078
  0
LINE
  5
467
100
AcDbEntity
  8
RACCORDO
100
AcDbLine
 62
253
  6
CONTINUOUS
 10
65.8823189529
 20
-23.8378510808
 11
65.8765011231
 21
-23.2605008116
  0
LINE
  5
468
100
AcDbEntity
  8
RACCORDO
100
AcDbLine
 62
253
  6
CONTINUOUS
 10
66.1323147222
 20
-23.6213447299
 11
66.1272241211
 21
-23.1161632443
  0
LINE
  5
469
100
AcDbEntity
  8
RACCORDO
100
AcDbLine
 62
7
  6
CONTINUOUS
 10
65.8692203742
 20
-22.3935135135
 11
65.8692203742
 21
-24.2435177443
  0
LINE
  5
46A
100
AcDbEntity
  8
RACCORDO
100
AcDbLine
 62
7
  6
CONTINUOUS
 10
65.8692203742
 20
22.4064864865
 11
65.8692203742
 21
24.2564907173
  0
LINE
  5
46B
100
AcDbEntity
  8
RACCORDO
100
AcDbLine
 62
253
  6
CONTINUOUS
 10
65.8765011231
 20
-23.2605008116
 11
65.8765011231
 21
-22.3279275658
  0
LINE
  5
46C
100
AcDbEntity
  8
RACCORDO
100
AcDbLine
 62
253
  6
CONTINUOUS
 10
65.8765011231
 20
22.3409005388
 11
65.8765011231
 21
23.2734737846
  0
LINE
  5
46D
100
AcDbEntity
  8
RACCORDO
100
AcDbLine
 62
253
  6
CONTINUOUS
 10
65.8823189529
 20
24.2433921386
 11
65.8823189529
 21
23.8508240538
  0
LINE
  5
46E
100
AcDbEntity
  8
RACCORDO
100
AcDbLine
 62
253
  6
CONTINUOUS
 10
65.8823189529
 20
-23.8378510808
 11
65.8823189529
 21
-24.2304191656
  0
LINE
  5
46F
100
AcDbEntity
  8
RACCORDO
100
AcDbLine
 62
253
  6
CONTINUOUS
 10
66.1264968923
 20
-23.1161632443
 11
66.1264968923
 21
-22.3149018446
  0
LINE
  5
470
100
AcDbEntity
  8
RACCORDO
100
AcDbLine
 62
253
  6
CONTINUOUS
 10
66.1264968923
 20
22.3278748176
 11
66.1264968923
 21
23.1291362173
  0
LINE
  5
471
100
AcDbEntity
  8
RACCORDO
100
AcDbLine
 62
253
  6
CONTINUOUS
 10
66.1323147222
 20
-23.6213447299
 11
66.1323147222
 21
-24.4804149348
  0
LINE
  5
472
100
AcDbEntity
  8
RACCORDO
100
AcDbLine
 62
253
  6
CONTINUOUS
 10
66.1323147222
 20
23.6343177028
 11
66.1323147222
 21
24.4933879078
  0
LINE
  5
473
100
AcDbEntity
  8
0
100
AcDbLine
 62
253
  6
CONTINUOUS
 10
66.202187625
 20
-17.5559521112
 11
66.2021876248
 21
17.5689548154
  0
LINE
  5
474
100
AcDbEntity
  8
RACCORDO
100
AcDbLine
 62
253
  6
CONTINUOUS
 10
65.8765011231
 20
23.2734737846
 11
65.8823189529
 21
23.8508240538
  0
LINE
  5
475
100
AcDbEntity
  8
RACCORDO
100
AcDbLine
 62
253
  6
CONTINUOUS
 10
66.1272241211
 20
23.1291362173
 11
66.1323147222
 21
23.6343177028
  0
LINE
  5
476
100
AcDbEntity
  8
RACCORDO
100
AcDbLine
 62
7
  6
CONTINUOUS
 10
53.2221462124
 20
-23.7905876753
 11
53.2192203742
 21
-23.7935135135
  0
LINE
  5
477
100
AcDbEntity
  8
RACCORDO
100
AcDbLine
 62
7
  6
CONTINUOUS
 10
53.2221462124
 20
23.8035606483
 11
53.2192203742
 21
23.8064864865
  0
LINE
  5
478
100
AcDbEntity
  8
RACCORDO
100
AcDbLine
 62
253
  6
CONTINUOUS
 10
68.0061260263
 20
23.6343177028
 11
68.0112166274
 21
23.1291362173
  0
LINE
  5
479
100
AcDbEntity
  8
RACCORDO
100
AcDbLine
 62
253
  6
CONTINUOUS
 10
68.2561217955
 20
23.8508240538
 11
68.2619396253
 21
23.2734737846
  0
LINE
  5
47A
100
AcDbEntity
  8
RACCORDO
100
AcDbLine
 62
253
  6
CONTINUOUS
 10
68.0061260263
 20
-23.6213447299
 11
68.0061260263
 21
-24.4804149348
  0
LINE
  5
47B
100
AcDbEntity
  8
RACCORDO
100
AcDbLine
 62
253
  6
CONTINUOUS
 10
68.0061260263
 20
23.6343177028
 11
68.0061260263
 21
24.4933879078
  0
LINE
  5
47C
100
AcDbEntity
  8
RACCORDO
100
AcDbLine
 62
253
  6
CONTINUOUS
 10
68.0119438561
 20
23.1291362173
 11
68.0119438561
 21
22.3278748176
  0
LINE
  5
47D
100
AcDbEntity
  8
RACCORDO
100
AcDbLine
 62
253
  6
CONTINUOUS
 10
68.0119438561
 20
-22.3149018446
 11
68.0119438561
 21
-23.1161632443
  0
LINE
  5
47E
100
AcDbEntity
  8
RACCORDO
100
AcDbLine
 62
253
  6
CONTINUOUS
 10
68.2561217955
 20
-24.2304191656
 11
68.2561217955
 21
-23.8378510808
  0
LINE
  5
47F
100
AcDbEntity
  8
RACCORDO
100
AcDbLine
 62
253
  6
CONTINUOUS
 10
68.2561217955
 20
23.8508240538
 11
68.2561217955
 21
24.2433921386
  0
LINE
  5
480
100
AcDbEntity
  8
RACCORDO
100
AcDbLine
 62
253
  6
CONTINUOUS
 10
68.2619396253
 20
23.2734737846
 11
68.2619396253
 21
22.3398974479
  0
LINE
  5
481
100
AcDbEntity
  8
RACCORDO
100
AcDbLine
 62
253
  6
CONTINUOUS
 10
68.2619396253
 20
-23.2605008116
 11
68.2619396253
 21
-22.3269244749
  0
LINE
  5
482
100
AcDbEntity
  8
RACCORDO
100
AcDbLine
 62
7
  6
CONTINUOUS
 10
68.2692203742
 20
-22.3932034815
 11
68.2692203742
 21
-24.2435177443
  0
LINE
  5
483
100
AcDbEntity
  8
RACCORDO
100
AcDbLine
 62
7
  6
CONTINUOUS
 10
68.2692203742
 20
22.4061764545
 11
68.2692203742
 21
24.2564907173
  0
LINE
  5
484
100
AcDbEntity
  8
RACCORDO
100
AcDbLine
 62
7
  6
CONTINUOUS
 10
68.7692203742
 20
21.8976644271
 11
68.7692203742
 21
18.2564864865
  0
LINE
  5
485
100
AcDbEntity
  8
DRAFT
100
AcDbLine
 62
7
  6
CONTINUOUS
 10
68.7692203742
 20
18.2564864865
 11
68.7692203742
 21
-18.2435135135
  0
LINE
  5
486
100
AcDbEntity
  8
RACCORDO
100
AcDbLine
 62
7
  6
CONTINUOUS
 10
68.7692203742
 20
-18.2435135135
 11
68.7692203742
 21
-21.8846914541
  0
LINE
  5
487
100
AcDbEntity
  8
RACCORDO
100
AcDbLine
 62
253
  6
CONTINUOUS
 10
68.0112166274
 20
-23.1161632443
 11
68.0061260263
 21
-23.6213447299
  0
LINE
  5
488
100
AcDbEntity
  8
RACCORDO
100
AcDbLine
 62
253
  6
CONTINUOUS
 10
68.2619396253
 20
-23.2605008116
 11
68.2561217955
 21
-23.8378510808
  0
LINE
  5
489
100
AcDbEntity
  8
RACCORDO
100
AcDbLine
 62
7
  6
CONTINUOUS
 10
65.8692203742
 20
-22.3935135135
 11
65.8765011231
 21
-22.3279275658
  0
LINE
  5
48A
100
AcDbEntity
  8
RACCORDO
100
AcDbLine
 62
7
  6
CONTINUOUS
 10
65.8692203742
 20
22.4064864865
 11
65.8765011231
 21
22.3409005388
  0
LINE
  5
48B
100
AcDbEntity
  8
RACCORDO
100
AcDbLine
 62
253
  6
CONTINUOUS
 10
68.7692203742
 20
-21.8846914541
 11
68.7518034718
 21
-21.8933992421
  0
LINE
  5
48C
100
AcDbEntity
  8
RACCORDO
100
AcDbLine
 62
7
  6
CONTINUOUS
 10
68.4927373854
 20
-22.3319880131
 11
68.4752348074
 21
-22.3407386355
  0
LINE
  5
48D
100
AcDbEntity
  8
RACCORDO
100
AcDbLine
 62
253
  6
CONTINUOUS
 10
68.7518034718
 20
21.9063722151
 11
68.7692203742
 21
21.8976644271
  0
LINE
  5
48E
100
AcDbEntity
  8
RACCORDO
100
AcDbLine
 62
7
  6
CONTINUOUS
 10
68.4752348074
 20
22.3537116085
 11
68.4927373854
 21
22.344960986
  0
LINE
  5
48F
100
AcDbEntity
  8
RACCORDO
100
AcDbLine
 62
253
  6
CONTINUOUS
 10
65.8692203742
 20
-24.2435177443
 11
65.8823189529
 21
-24.2304191656
  0
LINE
  5
490
100
AcDbEntity
  8
RACCORDO
100
AcDbLine
 62
253
  6
CONTINUOUS
 10
66.1192161434
 20
-24.4935135135
 11
66.1323147222
 21
-24.4804149348
  0
LINE
  5
491
100
AcDbEntity
  8
RACCORDO
100
AcDbLine
 62
253
  6
CONTINUOUS
 10
65.8692203742
 20
24.2564907173
 11
65.8823189529
 21
24.2433921386
  0
LINE
  5
492
100
AcDbEntity
  8
RACCORDO
100
AcDbLine
 62
253
  6
CONTINUOUS
 10
66.1192161434
 20
24.5064864865
 11
66.1323147222
 21
24.4933879078
  0
LINE
  5
493
100
AcDbEntity
  8
RACCORDO
100
AcDbLine
 62
253
  6
CONTINUOUS
 10
-52.7983991684
 20
23.4169716347
 11
-52.0469447356
 21
23.8508240538
  0
LINE
  5
494
100
AcDbEntity
  8
RACCORDO
100
AcDbLine
 62
7
  6
CONTINUOUS
 10
-52.7983991684
 20
23.1291362173
 11
-51.9233991684
 21
23.6343177028
  0
LINE
  5
495
100
AcDbEntity
  8
RACCORDO
100
AcDbLine
 62
253
  6
CONTINUOUS
 10
-52.0469447356
 20
-23.8378510808
 11
-52.7983991684
 21
-23.4039986617
  0
LINE
  5
496
100
AcDbEntity
  8
RACCORDO
100
AcDbLine
 62
7
  6
CONTINUOUS
 10
-51.9233991684
 20
-23.6213447299
 11
-52.7983991684
 21
-23.1161632443
  0
LINE
  5
497
100
AcDbEntity
  8
RACCORDO
100
AcDbLine
 62
7
  6
CONTINUOUS
 10
-52.7983991684
 20
-24.4935135135
 11
-55.0498536012
 21
-24.4804149348
  0
LINE
  5
498
100
AcDbEntity
  8
RACCORDO
100
AcDbLine
 62
7
  6
CONTINUOUS
 10
-42.7896726329
 20
-22.3061686803
 11
-52.7983991684
 21
-22.3935135135
  0
LINE
  5
499
100
AcDbEntity
  8
RACCORDO
100
AcDbLine
 62
7
  6
CONTINUOUS
 10
-52.0469447356
 20
-24.4891416795
 11
-52.7983991684
 21
-24.4935135135
  0
LINE
  5
49A
100
AcDbEntity
  8
RACCORDO
100
AcDbLine
 62
253
  6
CONTINUOUS
 10
-52.0469447356
 20
-24.2391459103
 11
-52.7983991684
 21
-24.2435177443
  0
LINE
  5
49B
100
AcDbEntity
  8
ASSI
100
AcDbLine
 62
7
  6
CONTINUOUS
 10
-51.8034902858
 20
-23.787725303
 11
-45.2897065152
 21
-23.7498292176
  0
LINE
  5
49C
100
AcDbEntity
  8
RACCORDO
100
AcDbLine
 62
253
  6
CONTINUOUS
 10
-51.7983991684
 20
-24.2391459103
 11
-52.0469447356
 21
-24.2391459103
  0
LINE
  5
49D
100
AcDbEntity
  8
RACCORDO
100
AcDbLine
 62
253
  6
CONTINUOUS
 10
-55.2983991684
 20
-24.2304191656
 11
-55.0498536012
 21
-24.2304191656
  0
LINE
  5
49E
100
AcDbEntity
  8
RACCORDO
100
AcDbLine
 62
253
  6
CONTINUOUS
 10
-55.2983991684
 20
-23.8378510808
 11
-55.0498536012
 21
-23.8378510808
  0
LINE
  5
49F
100
AcDbEntity
  8
RACCORDO
100
AcDbLine
 62
253
  6
CONTINUOUS
 10
-51.7983991684
 20
-23.8378510808
 11
-52.0469447356
 21
-23.8378510808
  0
LINE
  5
4A0
100
AcDbEntity
  8
RACCORDO
100
AcDbLine
 62
253
  6
CONTINUOUS
 10
-52.7983991684
 20
-24.2435177443
 11
-55.0498536012
 21
-24.2304191656
  0
LINE
  5
4A1
100
AcDbEntity
  8
RACCORDO
100
AcDbLine
 62
7
  6
CONTINUOUS
 10
-54.1739423104
 20
-22.3214243521
 11
-60.4551780573
 21
-21.9922387355
  0
LINE
  5
4A2
100
AcDbEntity
  8
RACCORDO
100
AcDbLine
 62
253
  6
CONTINUOUS
 10
-52.7962128394
 20
-21.8933992421
 11
-60.4377362824
 21
-21.4929239681
  0
LINE
  5
4A3
100
AcDbEntity
  8
RACCORDO
100
AcDbLine
 62
253
  6
CONTINUOUS
 10
-51.7983991684
 20
-21.8846914541
 11
-52.7962128394
 21
-21.8933992421
  0
LINE
  5
4A4
100
AcDbEntity
  8
RACCORDO
100
AcDbLine
 62
7
  6
CONTINUOUS
 10
-41.7983991684
 20
-20.8935135135
 11
-51.7983991684
 21
-20.8935135135
  0
LINE
  5
4A5
100
AcDbEntity
  8
RACCORDO
100
AcDbLine
 62
7
  6
CONTINUOUS
 10
-42.2896729652
 20
-21.5594889468
 11
-51.7983991684
 21
-21.3935135135
  0
LINE
  5
4A6
100
AcDbEntity
  8
RACCORDO
100
AcDbLine
 62
253
  6
CONTINUOUS
 10
-61.8754051407
 20
-20.5559818383
 11
-61.3845543381
 21
-20.53541937
  0
LINE
  5
4A7
100
AcDbEntity
  8
DRAFT
100
AcDbLine
 62
7
  6
CONTINUOUS
 10
-43.2047110071
 20
-19.7435101287
 11
-41.7983991684
 21
-19.7189628642
  0
LINE
  5
4A8
100
AcDbEntity
  8
ASSI
100
AcDbLine
 62
7
  6
CONTINUOUS
 10
-43.2047110071
 20
-19.7435101287
 11
-41.7983991684
 21
-19.7189628642
  0
LINE
  5
4A9
100
AcDbEntity
  8
RACCORDO
100
AcDbLine
 62
7
  6
CONTINUOUS
 10
-51.7983991684
 20
-19.6935135135
 11
-16.780946762
 21
-19.0822816081
  0
LINE
  5
4AA
100
AcDbEntity
  8
ASSI
100
AcDbLine
 62
7
  6
CONTINUOUS
 10
-51.7983991684
 20
-19.6935135135
 11
-16.780946762
 21
-19.0822816081
  0
LINE
  5
4AB
100
AcDbEntity
  8
RACCORDO
100
AcDbLine
 62
7
  6
CONTINUOUS
 10
-41.9972356221
 20
-19.750535015
 11
-51.7983991684
 21
-19.6935135135
  0
LINE
  5
4AC
100
AcDbEntity
  8
RACCORDO
100
AcDbLine
 62
7
  6
CONTINUOUS
 10
-51.7966934841
 20
-18.3957949227
 11
-50.8669631975
 21
-18.4120234253
  0
LINE
  5
4AD
100
AcDbEntity
  8
RACCORDO
100
AcDbLine
 62
253
  6
CONTINUOUS
 10
-50.0967987375
 20
-17.9255428483
 11
-49.8946472475
 21
-17.9290714157
  0
LINE
  5
4AE
100
AcDbEntity
  8
RACCORDO
100
AcDbLine
 62
7
  6
CONTINUOUS
 10
-55.2983991684
 20
-24.2304191656
 11
-55.2983991684
 21
-23.8378510808
  0
LINE
  5
4AF
100
AcDbEntity
  8
RACCORDO
100
AcDbLine
 62
7
  6
CONTINUOUS
 10
-55.2983991684
 20
23.8508240538
 11
-55.2983991684
 21
24.2433921386
  0
LINE
  5
4B0
100
AcDbEntity
  8
RACCORDO
100
AcDbLine
 62
253
  6
CONTINUOUS
 10
-55.0498536012
 20
-24.2304191656
 11
-55.0498536012
 21
-23.8378510808
  0
LINE
  5
4B1
100
AcDbEntity
  8
RACCORDO
100
AcDbLine
 62
253
  6
CONTINUOUS
 10
-55.0498536012
 20
23.8508240538
 11
-55.0498536012
 21
24.2433921386
  0
LINE
  5
4B2
100
AcDbEntity
  8
INCISIONI
100
AcDbLine
 62
7
  6
CONTINUOUS
 10
-47.9056954673
 20
14.9616722816
 11
-47.8493563339
 21
15.018011415
  0
LINE
  5
4B3
100
AcDbEntity
  8
INCISIONI
100
AcDbLine
 62
7
  6
CONTINUOUS
 10
-47.9056954673
 20
14.7516615676
 11
-47.5273950378
 21
15.1299619971
  0
LINE
  5
4B4
100
AcDbEntity
  8
INCISIONI
100
AcDbLine
 62
7
  6
CONTINUOUS
 10
-47.9056954673
 20
14.5416508536
 11
-47.2054337417
 21
15.2419125792
  0
LINE
  5
4B5
100
AcDbEntity
  8
INCISIONI
100
AcDbLine
 62
7
  6
CONTINUOUS
 10
-47.9056954673
 20
14.3316401395
 11
-46.8834724455
 21
15.3538631613
  0
LINE
  5
4B6
100
AcDbEntity
  8
INCISIONI
100
AcDbLine
 62
7
  6
CONTINUOUS
 10
-47.8045374417
 20
14.2227874512
 11
-46.5615111494
 21
15.4658137434
  0
LINE
  5
4B7
100
AcDbEntity
  8
INCISIONI
100
AcDbLine
 62
7
  6
CONTINUOUS
 10
-47.6503040631
 20
14.1670101158
 11
-47.2420709373
 21
14.5752432415
  0
LINE
  5
4B8
100
AcDbEntity
  8
INCISIONI
100
AcDbLine
 62
7
  6
CONTINUOUS
 10
-47.1346592319
 20
14.6826549469
 11
-46.2395498533
 21
15.5777643255
  0
LINE
  5
4B9
100
AcDbEntity
  8
INCISIONI
100
AcDbLine
 62
7
  6
CONTINUOUS
 10
-47.4960706845
 20
14.1112327803
 11
-47.0858498973
 21
14.5214535675
  0
LINE
  5
4BA
100
AcDbEntity
  8
INCISIONI
100
AcDbLine
 62
7
  6
CONTINUOUS
 10
-46.8251535938
 20
14.782149871
 11
-45.9175885572
 21
15.6897149076
  0
LINE
  5
4BB
100
AcDbEntity
  8
INCISIONI
100
AcDbLine
 62
7
  6
CONTINUOUS
 10
-47.3418373059
 20
14.0554554449
 11
-46.9296288573
 21
14.4676638935
  0
LINE
  5
4BC
100
AcDbEntity
  8
INCISIONI
100
AcDbLine
 62
7
  6
CONTINUOUS
 10
-46.5156479558
 20
14.8816447951
 11
-45.5956272611
 21
15.8016654897
  0
LINE
  5
4BD
100
AcDbEntity
  8
INCISIONI
100
AcDbLine
 62
7
  6
CONTINUOUS
 10
-47.1876039274
 20
13.9996781094
 11
-46.7734078173
 21
14.4138742195
  0
LINE
  5
4BE
100
AcDbEntity
  8
INCISIONI
100
AcDbLine
 62
7
  6
CONTINUOUS
 10
-46.2061423177
 20
14.9811397191
 11
-45.273665965
 21
15.9136160718
  0
LINE
  5
4BF
100
AcDbEntity
  8
INCISIONI
100
AcDbLine
 62
7
  6
CONTINUOUS
 10
-47.0333705488
 20
13.943900774
 11
-46.6171867773
 21
14.3600845455
  0
LINE
  5
4C0
100
AcDbEntity
  8
INCISIONI
100
AcDbLine
 62
7
  6
CONTINUOUS
 10
-46.1028157674
 20
14.8744555554
 11
-45.0065777685
 21
15.9706935543
  0
LINE
  5
4C1
100
AcDbEntity
  8
INCISIONI
100
AcDbLine
 62
253
  6
CONTINUOUS
 10
-45.0065777685
 20
16.0064864865
 11
-47.9056954673
 21
14.9984214865
  0
LINE
  5
4C2
100
AcDbEntity
  8
INCISIONI
100
AcDbLine
 62
253
  6
CONTINUOUS
 10
-45.6210295577
 20
15.1710704865
 11
-45.0065777685
 21
15.3800604865
  0
LINE
  5
4C3
100
AcDbEntity
  8
INCISIONI
100
AcDbLine
 62
253
  6
CONTINUOUS
 10
-47.3515403069
 20
14.6129354865
 11
-46.1028157674
 21
15.0143554865
  0
LINE
  5
4C4
100
AcDbEntity
  8
RACCORDO
100
AcDbLine
 62
7
  6
CONTINUOUS
 10
-51.7983991684
 20
-18.4935135135
 11
-50.0809680198
 21
-18.3432577576
  0
LINE
  5
4C5
100
AcDbEntity
  8
ASSI
100
AcDbLine
 62
7
  6
CONTINUOUS
 10
-51.7983991684
 20
-18.4935135135
 11
-50.0809680198
 21
-18.3432577576
  0
LINE
  5
4C6
100
AcDbEntity
  8
RACCORDO
100
AcDbLine
 62
7
  6
CONTINUOUS
 10
-51.7983991684
 20
-18.2435135135
 11
-50.454821297
 21
-18.1259656812
  0
LINE
  5
4C7
100
AcDbEntity
  8
0
100
AcDbLine
 62
253
  6
CONTINUOUS
 10
-49.8983991684
 20
-17.6606534998
 11
-16.780946762
 21
-17.0825862178
  0
LINE
  5
4C8
100
AcDbEntity
  8
ASSI
100
AcDbLine
 62
253
  6
CONTINUOUS
 10
-49.8983991684
 20
-17.6606534998
 11
-16.780946762
 21
-17.0825862178
  0
LINE
  5
4C9
100
AcDbEntity
  8
RACCORDO
100
AcDbLine
 62
253
  6
CONTINUOUS
 10
-15.7983991684
 20
-17.0825862178
 11
-16.7809467619
 21
-17.0825862122
  0
LINE
  5
4CA
100
AcDbEntity
  8
ASSI
100
AcDbLine
 62
253
  6
CONTINUOUS
 10
-15.7983991684
 20
-17.0825862178
 11
-16.7809467619
 21
-17.0825862122
  0
LINE
  5
4CB
100
AcDbEntity
  8
INCISIONI
100
AcDbLine
 62
253
  6
CONTINUOUS
 10
-47.9133491354
 20
-14.2139235135
 11
-45.918036066
 21
-14.7835345135
  0
LINE
  5
4CC
100
AcDbEntity
  8
INCISIONI
100
AcDbLine
 62
253
  6
CONTINUOUS
 10
-45.0145793305
 20
-14.5411305135
 11
-47.9133491354
 21
-13.6090655135
  0
LINE
  5
4CD
100
AcDbEntity
  8
RACCORDO
100
AcDbLine
 62
7
  6
CONTINUOUS
 10
-54.2983991684
 20
23.1291362173
 11
-54.2983991684
 21
22.3278748176
  0
LINE
  5
4CE
100
AcDbEntity
  8
RACCORDO
100
AcDbLine
 62
7
  6
CONTINUOUS
 10
-54.2983991684
 20
-22.3149018446
 11
-54.2983991684
 21
-23.1161632443
  0
LINE
  5
4CF
100
AcDbEntity
  8
RACCORDO
100
AcDbLine
 62
253
  6
CONTINUOUS
 10
-54.0498536012
 20
23.2734737846
 11
-54.0498536012
 21
22.3398974479
  0
LINE
  5
4D0
100
AcDbEntity
  8
RACCORDO
100
AcDbLine
 62
253
  6
CONTINUOUS
 10
-54.0498536012
 20
-23.2605008116
 11
-54.0498536012
 21
-22.3269244749
  0
LINE
  5
4D1
100
AcDbEntity
  8
RACCORDO
100
AcDbLine
 62
7
  6
CONTINUOUS
 10
-52.7983991684
 20
-22.3932034815
 11
-52.7983991684
 21
-24.2435177443
  0
LINE
  5
4D2
100
AcDbEntity
  8
RACCORDO
100
AcDbLine
 62
7
  6
CONTINUOUS
 10
-52.7983991684
 20
22.4061764545
 11
-52.7983991684
 21
24.2564907173
  0
LINE
  5
4D3
100
AcDbEntity
  8
INCISIONI
100
AcDbLine
 62
7
  6
CONTINUOUS
 10
-47.9056954673
 20
12.8615651415
 11
-47.8495761223
 21
12.9176844865
  0
LINE
  5
4D4
100
AcDbEntity
  8
INCISIONI
100
AcDbLine
 62
7
  6
CONTINUOUS
 10
-46.8791371702
 20
13.8881234386
 11
-46.4609657373
 21
14.3062948715
  0
LINE
  5
4D5
100
AcDbEntity
  8
INCISIONI
100
AcDbLine
 62
7
  6
CONTINUOUS
 10
-46.1028157674
 20
14.6644448413
 11
-45.6210295577
 21
15.1462310511
  0
LINE
  5
4D6
100
AcDbEntity
  8
INCISIONI
100
AcDbLine
 62
7
  6
CONTINUOUS
 10
-45.5833869587
 20
15.1838736501
 11
-45.0065777685
 21
15.7606828403
  0
LINE
  5
4D7
100
AcDbEntity
  8
INCISIONI
100
AcDbLine
 62
7
  6
CONTINUOUS
 10
-47.9056954673
 20
12.6515544274
 11
-47.6395654083
 21
12.9176844865
  0
LINE
  5
4D8
100
AcDbEntity
  8
INCISIONI
100
AcDbLine
 62
7
  6
CONTINUOUS
 10
-46.7249037916
 20
13.8323461031
 11
-46.3047446973
 21
14.2525051974
  0
LINE
  5
4D9
100
AcDbEntity
  8
INCISIONI
100
AcDbLine
 62
7
  6
CONTINUOUS
 10
-46.1028157674
 20
14.4544341273
 11
-45.6210295577
 21
14.9362203371
  0
LINE
  5
4DA
100
AcDbEntity
  8
INCISIONI
100
AcDbLine
 62
7
  6
CONTINUOUS
 10
-45.2651289566
 20
15.2921209382
 11
-45.0065777685
 21
15.5506721263
  0
LINE
  5
4DB
100
AcDbEntity
  8
INCISIONI
100
AcDbLine
 62
7
  6
CONTINUOUS
 10
-47.9056954673
 20
12.4415437134
 11
-47.4295546943
 21
12.9176844865
  0
LINE
  5
4DC
100
AcDbEntity
  8
INCISIONI
100
AcDbLine
 62
7
  6
CONTINUOUS
 10
-46.5706704131
 20
13.7765687677
 11
-46.1485236573
 21
14.1987155234
  0
LINE
  5
4DD
100
AcDbEntity
  8
INCISIONI
100
AcDbLine
 62
7
  6
CONTINUOUS
 10
-46.1028157674
 20
14.2444234133
 11
-45.6210295577
 21
14.726209623
  0
LINE
  5
4DE
100
AcDbEntity
  8
INCISIONI
100
AcDbLine
 62
7
  6
CONTINUOUS
 10
-47.8019879803
 20
12.3352404865
 11
-47.2195439803
 21
12.9176844865
  0
LINE
  5
4DF
100
AcDbEntity
  8
INCISIONI
100
AcDbLine
 62
7
  6
CONTINUOUS
 10
-46.4164370345
 20
13.7207914323
 11
-45.6210295577
 21
14.516198909
  0
LINE
  5
4E0
100
AcDbEntity
  8
INCISIONI
100
AcDbLine
 62
7
  6
CONTINUOUS
 10
-47.5919772663
 20
12.3352404865
 11
-47.0095332663
 21
12.9176844865
  0
LINE
  5
4E1
100
AcDbEntity
  8
INCISIONI
100
AcDbLine
 62
7
  6
CONTINUOUS
 10
-46.2622036559
 20
13.6650140968
 11
-45.6210295577
 21
14.306188195
  0
LINE
  5
4E2
100
AcDbEntity
  8
INCISIONI
100
AcDbLine
 62
7
  6
CONTINUOUS
 10
-47.3819665522
 20
12.3352404865
 11
-46.7995225522
 21
12.9176844865
  0
LINE
  5
4E3
100
AcDbEntity
  8
INCISIONI
100
AcDbLine
 62
7
  6
CONTINUOUS
 10
-46.1079702773
 20
13.6092367614
 11
-45.6210295577
 21
14.096177481
  0
LINE
  5
4E4
100
AcDbEntity
  8
INCISIONI
100
AcDbLine
 62
7
  6
CONTINUOUS
 10
-47.1719558382
 20
12.3352404865
 11
-46.5895118382
 21
12.9176844865
  0
LINE
  5
4E5
100
AcDbEntity
  8
INCISIONI
100
AcDbLine
 62
7
  6
CONTINUOUS
 10
-45.9537368988
 20
13.5534594259
 11
-45.5203964263
 21
13.9867998984
  0
LINE
  5
4E6
100
AcDbEntity
  8
INCISIONI
100
AcDbLine
 62
7
  6
CONTINUOUS
 10
-46.9619451242
 20
12.3352404865
 11
-46.3795011242
 21
12.9176844865
  0
LINE
  5
4E7
100
AcDbEntity
  8
INCISIONI
100
AcDbLine
 62
7
  6
CONTINUOUS
 10
-45.7995035202
 20
13.4976820905
 11
-45.3651882295
 21
13.9319973812
  0
LINE
  5
4E8
100
AcDbEntity
  8
INCISIONI
100
AcDbLine
 62
7
  6
CONTINUOUS
 10
-47.9056954673
 20
11.1814794294
 11
-47.8259101816
 21
11.2612647151
  0
LINE
  5
4E9
100
AcDbEntity
  8
INCISIONI
100
AcDbLine
 62
7
  6
CONTINUOUS
 10
-46.7519344102
 20
12.3352404865
 11
-46.1694904102
 21
12.9176844865
  0
LINE
  5
4EA
100
AcDbEntity
  8
INCISIONI
100
AcDbLine
 62
7
  6
CONTINUOUS
 10
-45.6452701416
 20
13.4419047551
 11
-45.2099800327
 21
13.877194864
  0
LINE
  5
4EB
100
AcDbEntity
  8
INCISIONI
100
AcDbLine
 62
7
  6
CONTINUOUS
 10
-47.9056954673
 20
10.9714687153
 11
-47.418683682
 21
11.4584805006
  0
LINE
  5
4EC
100
AcDbEntity
  8
INCISIONI
100
AcDbLine
 62
7
  6
CONTINUOUS
 10
-46.5419236962
 20
12.3352404865
 11
-45.9594796962
 21
12.9176844865
  0
LINE
  5
4ED
100
AcDbEntity
  8
INCISIONI
100
AcDbLine
 62
7
  6
CONTINUOUS
 10
-45.491036763
 20
13.3861274196
 11
-45.0547718359
 21
13.8223923468
  0
LINE
  5
4EE
100
AcDbEntity
  8
INCISIONI
100
AcDbLine
 62
7
  6
CONTINUOUS
 10
-47.9056954673
 20
10.7614580013
 11
-47.0114571825
 21
11.6556962862
  0
LINE
  5
4EF
100
AcDbEntity
  8
INCISIONI
100
AcDbLine
 62
7
  6
CONTINUOUS
 10
-46.3319129822
 20
12.3352404865
 11
-45.7494689822
 21
12.9176844865
  0
LINE
  5
4F0
100
AcDbEntity
  8
INCISIONI
100
AcDbLine
 62
7
  6
CONTINUOUS
 10
-45.3368033845
 20
13.3303500842
 11
-45.0065777685
 21
13.6605757002
  0
LINE
  5
4F1
100
AcDbEntity
  8
INCISIONI
100
AcDbLine
 62
7
  6
CONTINUOUS
 10
-47.9056954673
 20
10.5514472873
 11
-46.6042306829
 21
11.8529120718
  0
LINE
  5
4F2
100
AcDbEntity
  8
INCISIONI
100
AcDbLine
 62
7
  6
CONTINUOUS
 10
-46.1219022682
 20
12.3352404865
 11
-45.5394582682
 21
12.9176844865
  0
LINE
  5
4F3
100
AcDbEntity
  8
INCISIONI
100
AcDbLine
 62
7
  6
CONTINUOUS
 10
-45.1825700059
 20
13.2745727488
 11
-45.0065777685
 21
13.4505649862
  0
LINE
  5
4F4
100
AcDbEntity
  8
INCISIONI
100
AcDbLine
 62
7
  6
CONTINUOUS
 10
-47.9056954673
 20
10.3414365733
 11
-47.3658755542
 21
10.8812564865
  0
LINE
  5
4F5
100
AcDbEntity
  8
INCISIONI
100
AcDbLine
 62
7
  6
CONTINUOUS
 10
-47.3051705797
 20
10.941961461
 11
-46.1970041833
 21
12.0501278574
  0
LINE
  5
4F6
100
AcDbEntity
  8
INCISIONI
100
AcDbLine
 62
7
  6
CONTINUOUS
 10
-45.9118915542
 20
12.3352404865
 11
-45.3294475542
 21
12.9176844865
  0
LINE
  5
4F7
100
AcDbEntity
  8
INCISIONI
100
AcDbLine
 62
7
  6
CONTINUOUS
 10
-45.0283366273
 20
13.2187954133
 11
-45.0065777685
 21
13.2405542722
  0
LINE
  5
4F8
100
AcDbEntity
  8
INCISIONI
100
AcDbLine
 62
7
  6
CONTINUOUS
 10
-47.7383098401
 20
10.2988114865
 11
-47.1558648401
 21
10.8812564865
  0
LINE
  5
4F9
100
AcDbEntity
  8
INCISIONI
100
AcDbLine
 62
7
  6
CONTINUOUS
 10
-46.905070786
 20
11.1320505406
 11
-45.7897776837
 21
12.2473436429
  0
LINE
  5
4FA
100
AcDbEntity
  8
INCISIONI
100
AcDbLine
 62
7
  6
CONTINUOUS
 10
-45.7018808401
 20
12.3352404865
 11
-45.1194368401
 21
12.9176844865
  0
LINE
  5
4FB
100
AcDbEntity
  8
INCISIONI
100
AcDbLine
 62
7
  6
CONTINUOUS
 10
-47.5282991261
 20
10.2988114865
 11
-46.9458541261
 21
10.8812564865
  0
LINE
  5
4FC
100
AcDbEntity
  8
INCISIONI
100
AcDbLine
 62
7
  6
CONTINUOUS
 10
-46.5049709924
 20
11.3221396203
 11
-45.0065777685
 21
12.8205328442
  0
LINE
  5
4FD
100
AcDbEntity
  8
0
100
AcDbLine
 62
253
  6
CONTINUOUS
 10
-43.5269706131
 20
15.9693436876
 11
-43.7983991684
 21
15.7250580898
  0
LINE
  5
4FE
100
AcDbEntity
  8
0
100
AcDbLine
 62
253
  6
CONTINUOUS
 10
-42.9841135026
 20
15.1143436876
 11
-42.7126848908
 21
15.3586292854
  0
LINE
  5
4FF
100
AcDbEntity
  8
0
100
AcDbLine
 62
253
  6
CONTINUOUS
 10
-43.5269706131
 20
13.2007722202
 11
-43.7983991684
 21
13.037915087
  0
LINE
  5
500
100
AcDbEntity
  8
INCISIONI
100
AcDbLine
 62
253
  6
CONTINUOUS
 10
-47.9056954673
 20
11.2226254865
 11
-45.6082814418
 21
12.3352404865
  0
LINE
  5
501
100
AcDbEntity
  8
INCISIONI
100
AcDbLine
 62
253
  6
CONTINUOUS
 10
-45.0065777685
 20
12.0340324865
 11
-47.4329425054
 21
10.8812564865
  0
LINE
  5
502
100
AcDbEntity
  8
INCISIONI
100
AcDbLine
 62
253
  6
CONTINUOUS
 10
-45.0145793305
 20
-13.3844485135
 11
-47.9135230824
 21
-13.3844485135
  0
LINE
  5
503
100
AcDbEntity
  8
RACCORDO
100
AcDbLine
 62
253
  6
CONTINUOUS
 10
-52.0469447356
 20
24.2521188833
 11
-52.0469447356
 21
23.8508240538
  0
LINE
  5
504
100
AcDbEntity
  8
RACCORDO
100
AcDbLine
 62
253
  6
CONTINUOUS
 10
-52.0469447356
 20
-23.8378510808
 11
-52.0469447356
 21
-24.2391459103
  0
LINE
  5
505
100
AcDbEntity
  8
RACCORDO
100
AcDbLine
 62
7
  6
CONTINUOUS
 10
-51.7983991684
 20
24.2521188833
 11
-51.7983991684
 21
23.8508240538
  0
LINE
  5
506
100
AcDbEntity
  8
RACCORDO
100
AcDbLine
 62
7
  6
CONTINUOUS
 10
-51.7983991684
 20
22.3977596187
 11
-51.7983991684
 21
18.2564864865
  0
LINE
  5
507
100
AcDbEntity
  8
DRAFT
100
AcDbLine
 62
7
  6
CONTINUOUS
 10
-51.7983991684
 20
18.2564864865
 11
-51.7983991684
 21
-18.2435135135
  0
LINE
  5
508
100
AcDbEntity
  8
RACCORDO
100
AcDbLine
 62
7
  6
CONTINUOUS
 10
-51.7983991684
 20
-18.2435135135
 11
-51.7983991684
 21
-22.3847866457
  0
LINE
  5
509
100
AcDbEntity
  8
RACCORDO
100
AcDbLine
 62
7
  6
CONTINUOUS
 10
-51.7983991684
 20
-23.7876956837
 11
-51.7983991684
 21
-24.2391459103
  0
LINE
  5
50A
100
AcDbEntity
  8
DRAFT
100
AcDbLine
 62
7
  6
CONTINUOUS
 10
-50.7983991684
 20
-19.6993313433
 11
-50.7983991684
 21
-19.6760584486
  0
LINE
  5
50B
100
AcDbEntity
  8
DRAFT
100
AcDbLine
 62
7
  6
CONTINUOUS
 10
-50.7983991684
 20
19.6890314216
 11
-50.7983991684
 21
19.7123043163
  0
LINE
  5
50C
100
AcDbEntity
  8
0
100
AcDbLine
 62
253
  6
CONTINUOUS
 10
-43.1198277236
 20
12.5086293533
 11
-42.9841135026
 21
12.6714864865
  0
LINE
  5
50D
100
AcDbEntity
  8
INCISIONI
100
AcDbLine
 62
7
  6
CONTINUOUS
 10
-47.3182884121
 20
10.2988114865
 11
-46.7358434121
 21
10.8812564865
  0
LINE
  5
50E
100
AcDbEntity
  8
INCISIONI
100
AcDbLine
 62
7
  6
CONTINUOUS
 10
-46.1048711987
 20
11.5122286999
 11
-45.0065777685
 21
12.6105221301
  0
LINE
  5
50F
100
AcDbEntity
  8
INCISIONI
100
AcDbLine
 62
7
  6
CONTINUOUS
 10
-47.1082776981
 20
10.2988114865
 11
-46.5258326981
 21
10.8812564865
  0
LINE
  5
510
100
AcDbEntity
  8
INCISIONI
100
AcDbLine
 62
7
  6
CONTINUOUS
 10
-45.704771405
 20
11.7023177796
 11
-45.0065777685
 21
12.4005114161
  0
LINE
  5
511
100
AcDbEntity
  8
INCISIONI
100
AcDbLine
 62
7
  6
CONTINUOUS
 10
-46.8982669841
 20
10.2988114865
 11
-46.3158219841
 21
10.8812564865
  0
LINE
  5
512
100
AcDbEntity
  8
INCISIONI
100
AcDbLine
 62
7
  6
CONTINUOUS
 10
-45.3046716114
 20
11.8924068592
 11
-45.0065777685
 21
12.1905007021
  0
LINE
  5
513
100
AcDbEntity
  8
INCISIONI
100
AcDbLine
 62
7
  6
CONTINUOUS
 10
-46.6882562701
 20
10.2988114865
 11
-46.1058112701
 21
10.8812564865
  0
LINE
  5
514
100
AcDbEntity
  8
INCISIONI
100
AcDbLine
 62
7
  6
CONTINUOUS
 10
-47.9056954673
 20
8.8713615752
 11
-47.7492750376
 21
9.027782005
  0
LINE
  5
515
100
AcDbEntity
  8
INCISIONI
100
AcDbLine
 62
7
  6
CONTINUOUS
 10
-46.4782455561
 20
10.2988114865
 11
-45.8958005561
 21
10.8812564865
  0
LINE
  5
516
100
AcDbEntity
  8
INCISIONI
100
AcDbLine
 62
7
  6
CONTINUOUS
 10
-47.9056954673
 20
8.6613508612
 11
-47.4272951826
 21
9.1397511459
  0
LINE
  5
517
100
AcDbEntity
  8
INCISIONI
100
AcDbLine
 62
7
  6
CONTINUOUS
 10
-46.2682348421
 20
10.2988114865
 11
-45.6857898421
 21
10.8812564865
  0
LINE
  5
518
100
AcDbEntity
  8
INCISIONI
100
AcDbLine
 62
7
  6
CONTINUOUS
 10
-47.9056954673
 20
8.4513401472
 11
-47.1053153276
 21
9.2517202869
  0
LINE
  5
519
100
AcDbEntity
  8
INCISIONI
100
AcDbLine
 62
7
  6
CONTINUOUS
 10
-46.058224128
 20
10.2988114865
 11
-45.475779128
 21
10.8812564865
  0
LINE
  5
51A
100
AcDbEntity
  8
INCISIONI
100
AcDbLine
 62
7
  6
CONTINUOUS
 10
-47.9056954673
 20
8.2413294332
 11
-46.7833354726
 21
9.3636894279
  0
LINE
  5
51B
100
AcDbEntity
  8
INCISIONI
100
AcDbLine
 62
7
  6
CONTINUOUS
 10
-45.848213414
 20
10.2988114865
 11
-45.265768414
 21
10.8812564865
  0
LINE
  5
51C
100
AcDbEntity
  8
INCISIONI
100
AcDbLine
 62
7
  6
CONTINUOUS
 10
-47.7565943765
 20
8.18041981
 11
-47.3497348148
 21
8.5872793717
  0
LINE
  5
51D
100
AcDbEntity
  8
INCISIONI
100
AcDbLine
 62
7
  6
CONTINUOUS
 10
-47.3478023935
 20
8.589211793
 11
-46.4613556177
 21
9.4756585688
  0
LINE
  5
51E
100
AcDbEntity
  8
INCISIONI
100
AcDbLine
 62
7
  6
CONTINUOUS
 10
-45.6382027
 20
10.2988114865
 11
-45.0557577
 21
10.8812564865
  0
LINE
  5
51F
100
AcDbEntity
  8
INCISIONI
100
AcDbLine
 62
7
  6
CONTINUOUS
 10
-47.6023567391
 20
8.1246467333
 11
-47.1935138259
 21
8.5334896466
  0
LINE
  5
520
100
AcDbEntity
  8
INCISIONI
100
AcDbLine
 62
7
  6
CONTINUOUS
 10
-47.0382970126
 20
8.6887064599
 11
-46.1393757627
 21
9.5876277098
  0
LINE
  5
521
100
AcDbEntity
  8
INCISIONI
100
AcDbLine
 62
7
  6
CONTINUOUS
 10
-45.428191986
 20
10.2988114865
 11
-45.0065777685
 21
10.720425704
  0
LINE
  5
522
100
AcDbEntity
  8
INCISIONI
100
AcDbLine
 62
7
  6
CONTINUOUS
 10
-47.4481191018
 20
8.0688736567
 11
-47.037292837
 21
8.4796999215
  0
LINE
  5
523
100
AcDbEntity
  8
INCISIONI
100
AcDbLine
 62
7
  6
CONTINUOUS
 10
-46.7287916317
 20
8.7882011268
 11
-45.8173959077
 21
9.6995968508
  0
LINE
  5
524
100
AcDbEntity
  8
INCISIONI
100
AcDbLine
 62
7
  6
CONTINUOUS
 10
-45.218181272
 20
10.2988114865
 11
-45.0065777685
 21
10.51041499
  0
LINE
  5
525
100
AcDbEntity
  8
INCISIONI
100
AcDbLine
 62
7
  6
CONTINUOUS
 10
-47.2938814644
 20
8.0131005801
 11
-46.881071848
 21
8.4259101964
  0
LINE
  5
526
100
AcDbEntity
  8
INCISIONI
100
AcDbLine
 62
7
  6
CONTINUOUS
 10
-46.4192862507
 20
8.8876957937
 11
-45.4954160527
 21
9.8115659918
  0
LINE
  5
527
100
AcDbEntity
  8
INCISIONI
100
AcDbLine
 62
7
  6
CONTINUOUS
 10
-45.008170558
 20
10.2988114865
 11
-45.0065777685
 21
10.300404276
  0
LINE
  5
528
100
AcDbEntity
  8
INCISIONI
100
AcDbLine
 62
7
  6
CONTINUOUS
 10
-47.139643827
 20
7.9573275034
 11
-46.7248508591
 21
8.3721204713
  0
LINE
  5
529
100
AcDbEntity
  8
INCISIONI
100
AcDbLine
 62
7
  6
CONTINUOUS
 10
-46.1097808698
 20
8.9871904607
 11
-45.1734361977
 21
9.9235351327
  0
LINE
  5
52A
100
AcDbEntity
  8
INCISIONI
100
AcDbLine
 62
7
  6
CONTINUOUS
 10
-46.9854061896
 20
7.9015544268
 11
-46.5686298702
 21
8.3183307462
  0
LINE
  5
52B
100
AcDbEntity
  8
INCISIONI
100
AcDbLine
 62
7
  6
CONTINUOUS
 10
-46.1028157674
 20
8.784144849
 11
-45.0065777685
 21
9.880382848
  0
LINE
  5
52C
100
AcDbEntity
  8
INCISIONI
100
AcDbLine
 62
7
  6
CONTINUOUS
 10
-46.8311685522
 20
7.8457813502
 11
-46.4124088813
 21
8.2645410211
  0
LINE
  5
52D
100
AcDbEntity
  8
INCISIONI
100
AcDbLine
 62
7
  6
CONTINUOUS
 10
-46.1028157674
 20
8.574134135
 11
-45.6210295577
 21
9.0559203447
  0
LINE
  5
52E
100
AcDbEntity
  8
INCISIONI
100
AcDbLine
 62
7
  6
CONTINUOUS
 10
-45.4845021053
 20
9.1924477971
 11
-45.0065777685
 21
9.670372134
  0
LINE
  5
52F
100
AcDbEntity
  8
0
100
AcDbLine
 62
253
  6
CONTINUOUS
 10
-42.9841135026
 20
13.037915087
 11
-42.7126848908
 21
13.2822006848
  0
LINE
  5
530
100
AcDbEntity
  8
0
100
AcDbLine
 62
253
  6
CONTINUOUS
 10
-41.8983991684
 20
12.6714864865
 11
-42.169827752
 21
12.4272006848
  0
LINE
  5
531
100
AcDbEntity
  8
INCISIONI
100
AcDbLine
 62
253
  6
CONTINUOUS
 10
-45.0065777685
 20
9.9815604865
 11
-47.9056954673
 21
8.9733864865
  0
LINE
  5
532
100
AcDbEntity
  8
INCISIONI
100
AcDbLine
 62
253
  6
CONTINUOUS
 10
-45.918036066
 20
-14.7835345135
 11
-47.9133491354
 21
-15.3362615135
  0
LINE
  5
533
100
AcDbEntity
  8
INCISIONI
100
AcDbLine
 62
253
  6
CONTINUOUS
 10
-47.9135230824
 20
-12.7791775135
 11
-45.0145793305
 21
-12.7791775135
  0
LINE
  5
534
100
AcDbEntity
  8
INCISIONI
100
AcDbLine
 62
253
  6
CONTINUOUS
 10
-45.0145793305
 20
-11.8742925135
 11
-46.9074216207
 21
-11.7436755135
  0
LINE
  5
535
100
AcDbEntity
  8
INCISIONI
100
AcDbLine
 62
253
  6
CONTINUOUS
 10
-47.9133491354
 20
-12.1915185135
 11
-45.0145793305
 21
-12.4533405135
  0
LINE
  5
536
100
AcDbEntity
  8
INCISIONI
100
AcDbLine
 62
253
  6
CONTINUOUS
 10
-47.9133491354
 20
-10.3825975135
 11
-46.303943488
 21
-10.9878685135
  0
LINE
  5
537
100
AcDbEntity
  8
INCISIONI
100
AcDbLine
 62
253
  6
CONTINUOUS
 10
-45.0145793305
 20
-10.9487295135
 11
-46.8995310248
 21
-10.2290615135
  0
LINE
  5
538
100
AcDbEntity
  8
RACCORDO
100
AcDbLine
 62
7
  6
CONTINUOUS
 10
-49.9983991684
 20
17.6408413051
 11
-49.9983991684
 21
-17.6278683322
  0
LINE
  5
539
100
AcDbEntity
  8
RACCORDO
100
AcDbLine
 62
7
  6
CONTINUOUS
 10
-49.8983991684
 20
18.156991791
 11
-49.8983991684
 21
17.6736264728
  0
LINE
  5
53A
100
AcDbEntity
  8
RACCORDO
100
AcDbLine
 62
7
  6
CONTINUOUS
 10
-49.8983991684
 20
-17.6606534998
 11
-49.8983991684
 21
-18.144018818
  0
LINE
  5
53B
100
AcDbEntity
  8
0
100
AcDbLine
 62
7
  6
CONTINUOUS
 10
-49.8983991684
 20
-17.6606534998
 11
-49.8983991684
 21
17.6736264728
  0
LINE
  5
53C
100
AcDbEntity
  8
ASSI
100
AcDbLine
 62
7
  6
CONTINUOUS
 10
-49.8983991684
 20
-18.144018818
 11
-49.8983991684
 21
18.156991791
  0
LINE
  5
53D
100
AcDbEntity
  8
INCISIONI
100
AcDbLine
 62
253
  6
CONTINUOUS
 10
-47.9135230824
 20
-13.3844485135
 11
-47.9135230824
 21
-12.7791775135
  0
LINE
  5
53E
100
AcDbEntity
  8
INCISIONI
100
AcDbLine
 62
253
  6
CONTINUOUS
 10
-47.9133491354
 20
-7.9225035135
 11
-47.9133491354
 21
-8.5080305135
  0
LINE
  5
53F
100
AcDbEntity
  8
INCISIONI
100
AcDbLine
 62
253
  6
CONTINUOUS
 10
-47.9133491354
 20
-9.7837405135
 11
-47.9133491354
 21
-10.3825975135
  0
LINE
  5
540
100
AcDbEntity
  8
INCISIONI
100
AcDbLine
 62
253
  6
CONTINUOUS
 10
-47.9133491354
 20
-11.5867475135
 11
-47.9133491354
 21
-12.1915185135
  0
LINE
  5
541
100
AcDbEntity
  8
INCISIONI
100
AcDbLine
 62
253
  6
CONTINUOUS
 10
-47.9133491354
 20
-13.6090655135
 11
-47.9133491354
 21
-14.2139235135
  0
LINE
  5
542
100
AcDbEntity
  8
INCISIONI
100
AcDbLine
 62
253
  6
CONTINUOUS
 10
-47.9133491354
 20
-15.3362615135
 11
-47.9133491354
 21
-15.9937735135
  0
LINE
  5
543
100
AcDbEntity
  8
INCISIONI
100
AcDbLine
 62
253
  6
CONTINUOUS
 10
-47.9056954673
 20
14.9984214865
 11
-47.9056954673
 21
14.2593704865
  0
LINE
  5
544
100
AcDbEntity
  8
INCISIONI
100
AcDbLine
 62
253
  6
CONTINUOUS
 10
-47.9056954673
 20
8.9733864865
 11
-47.9056954673
 21
8.2343354865
  0
LINE
  5
545
100
AcDbEntity
  8
INCISIONI
100
AcDbLine
 62
253
  6
CONTINUOUS
 10
-47.9056954673
 20
3.5947064865
 11
-47.9056954673
 21
2.7072764865
  0
LINE
  5
546
100
AcDbEntity
  8
INCISIONI
100
AcDbLine
 62
253
  6
CONTINUOUS
 10
-47.9056954673
 20
5.1776194865
 11
-47.9056954673
 21
5.8002254865
  0
LINE
  5
547
100
AcDbEntity
  8
INCISIONI
100
AcDbLine
 62
253
  6
CONTINUOUS
 10
-47.9056954673
 20
10.2988114865
 11
-47.9056954673
 21
11.2226254865
  0
LINE
  5
548
100
AcDbEntity
  8
INCISIONI
100
AcDbLine
 62
253
  6
CONTINUOUS
 10
-47.9056954673
 20
12.3352404865
 11
-47.9056954673
 21
12.9176844865
  0
LINE
  5
549
100
AcDbEntity
  8
INCISIONI
100
AcDbLine
 62
7
  6
CONTINUOUS
 10
-46.6769309149
 20
7.7900082736
 11
-46.2561878924
 21
8.210751296
  0
LINE
  5
54A
100
AcDbEntity
  8
INCISIONI
100
AcDbLine
 62
7
  6
CONTINUOUS
 10
-46.1028157674
 20
8.364123421
 11
-45.6210295577
 21
8.8459096307
  0
LINE
  5
54B
100
AcDbEntity
  8
INCISIONI
100
AcDbLine
 62
7
  6
CONTINUOUS
 10
-45.1663288527
 20
9.3006103357
 11
-45.0065777685
 21
9.46036142
  0
LINE
  5
54C
100
AcDbEntity
  8
INCISIONI
100
AcDbLine
 62
7
  6
CONTINUOUS
 10
-46.5226932775
 20
7.7342351969
 11
-45.6210295577
 21
8.6358989167
  0
LINE
  5
54D
100
AcDbEntity
  8
INCISIONI
100
AcDbLine
 62
7
  6
CONTINUOUS
 10
-46.3684556401
 20
7.6784621203
 11
-45.6210295577
 21
8.4258882027
  0
LINE
  5
54E
100
AcDbEntity
  8
INCISIONI
100
AcDbLine
 62
7
  6
CONTINUOUS
 10
-46.2142180027
 20
7.6226890437
 11
-45.6210295577
 21
8.2158774887
  0
LINE
  5
54F
100
AcDbEntity
  8
INCISIONI
100
AcDbLine
 62
7
  6
CONTINUOUS
 10
-47.9056954673
 20
5.721200865
 11
-47.8266708459
 21
5.8002254865
  0
LINE
  5
550
100
AcDbEntity
  8
INCISIONI
100
AcDbLine
 62
7
  6
CONTINUOUS
 10
-46.0599803653
 20
7.566915967
 11
-45.6210295577
 21
8.0058667746
  0
LINE
  5
551
100
AcDbEntity
  8
INCISIONI
100
AcDbLine
 62
7
  6
CONTINUOUS
 10
-47.9056954673
 20
5.511190151
 11
-47.6166601319
 21
5.8002254865
  0
LINE
  5
552
100
AcDbEntity
  8
INCISIONI
100
AcDbLine
 62
7
  6
CONTINUOUS
 10
-45.905742728
 20
7.5111428904
 11
-45.4721342247
 21
7.9447513937
  0
LINE
  5
553
100
AcDbEntity
  8
INCISIONI
100
AcDbLine
 62
7
  6
CONTINUOUS
 10
-47.9056954673
 20
5.301179437
 11
-47.4066494179
 21
5.8002254865
  0
LINE
  5
554
100
AcDbEntity
  8
INCISIONI
100
AcDbLine
 62
7
  6
CONTINUOUS
 10
-45.7515050906
 20
7.4553698138
 11
-45.316905677
 21
7.8899692274
  0
LINE
  5
555
100
AcDbEntity
  8
INCISIONI
100
AcDbLine
 62
7
  6
CONTINUOUS
 10
-47.8192447038
 20
5.1776194865
 11
-47.1966387038
 21
5.8002254865
  0
LINE
  5
556
100
AcDbEntity
  8
INCISIONI
100
AcDbLine
 62
7
  6
CONTINUOUS
 10
-45.5972674532
 20
7.3995967371
 11
-45.1616771293
 21
7.8351870611
  0
LINE
  5
557
100
AcDbEntity
  8
INCISIONI
100
AcDbLine
 62
7
  6
CONTINUOUS
 10
-47.6092339898
 20
5.1776194865
 11
-46.9866279898
 21
5.8002254865
  0
LINE
  5
558
100
AcDbEntity
  8
INCISIONI
100
AcDbLine
 62
7
  6
CONTINUOUS
 10
-45.4430298158
 20
7.3438236605
 11
-45.0065777685
 21
7.7802757079
  0
LINE
  5
559
100
AcDbEntity
  8
INCISIONI
100
AcDbLine
 62
7
  6
CONTINUOUS
 10
-47.3992232758
 20
5.1776194865
 11
-46.7766172758
 21
5.8002254865
  0
LINE
  5
55A
100
AcDbEntity
  8
INCISIONI
100
AcDbLine
 62
7
  6
CONTINUOUS
 10
-45.2887921784
 20
7.2880505839
 11
-45.0065777685
 21
7.5702649938
  0
LINE
  5
55B
100
AcDbEntity
  8
INCISIONI
100
AcDbLine
 62
7
  6
CONTINUOUS
 10
-47.1892125618
 20
5.1776194865
 11
-46.5666065618
 21
5.8002254865
  0
LINE
  5
55C
100
AcDbEntity
  8
INCISIONI
100
AcDbLine
 62
7
  6
CONTINUOUS
 10
-45.1345545411
 20
7.2322775072
 11
-45.0065777685
 21
7.3602542798
  0
LINE
  5
55D
100
AcDbEntity
  8
INCISIONI
100
AcDbLine
 62
7
  6
CONTINUOUS
 10
-47.7515988198
 20
4.4052225145
 11
-47.4697697687
 21
4.6870515656
  0
LINE
  5
55E
100
AcDbEntity
  8
INCISIONI
100
AcDbLine
 62
7
  6
CONTINUOUS
 10
-46.9792018478
 20
5.1776194865
 11
-46.3565958478
 21
5.8002254865
  0
LINE
  5
55F
100
AcDbEntity
  8
INCISIONI
100
AcDbLine
 62
7
  6
CONTINUOUS
 10
-45.4883639782
 20
6.6684573561
 11
-45.2835968478
 21
6.8732244865
  0
LINE
  5
560
100
AcDbEntity
  8
INCISIONI
100
AcDbLine
 62
7
  6
CONTINUOUS
 10
-47.8644610365
 20
4.0823495838
 11
-47.1674926949
 21
4.7793179254
  0
LINE
  5
561
100
AcDbEntity
  8
INCISIONI
100
AcDbLine
 62
7
  6
CONTINUOUS
 10
-46.7691911338
 20
5.1776194865
 11
-46.1465851338
 21
5.8002254865
  0
LINE
  5
562
100
AcDbEntity
  8
INCISIONI
100
AcDbLine
 62
7
  6
CONTINUOUS
 10
-45.4883639782
 20
6.4584466421
 11
-45.0735861338
 21
6.8732244865
  0
LINE
  5
563
100
AcDbEntity
  8
INCISIONI
100
AcDbLine
 62
7
  6
CONTINUOUS
 10
-47.8936742273
 20
3.843125679
 11
-46.9505707421
 21
4.7862291642
  0
LINE
  5
564
100
AcDbEntity
  8
INCISIONI
100
AcDbLine
 62
7
  6
CONTINUOUS
 10
-46.5591804198
 20
5.1776194865
 11
-45.9365744198
 21
5.8002254865
  0
LINE
  5
565
100
AcDbEntity
  8
INCISIONI
100
AcDbLine
 62
7
  6
CONTINUOUS
 10
-45.4883639782
 20
6.2484359281
 11
-45.0065777685
 21
6.7302221378
  0
LINE
  5
566
100
AcDbEntity
  8
INCISIONI
100
AcDbLine
 62
7
  6
CONTINUOUS
 10
-47.9046344001
 20
3.6221547921
 11
-46.7631040305
 21
4.7636851617
  0
LINE
  5
567
100
AcDbEntity
  8
INCISIONI
100
AcDbLine
 62
7
  6
CONTINUOUS
 10
-46.3491697058
 20
5.1776194865
 11
-45.7265637058
 21
5.8002254865
  0
LINE
  5
568
100
AcDbEntity
  8
INCISIONI
100
AcDbLine
 62
7
  6
CONTINUOUS
 10
-45.4883639782
 20
6.0384252141
 11
-45.0065777685
 21
6.5202114238
  0
LINE
  5
569
100
AcDbEntity
  8
INCISIONI
100
AcDbLine
 62
253
  6
CONTINUOUS
 10
-31.8493415059
 20
12.9966474865
 11
-30.5500923602
 21
13.5702624865
  0
LINE
  5
56A
100
AcDbEntity
  8
INCISIONI
100
AcDbLine
 62
253
  6
CONTINUOUS
 10
-45.6210295577
 20
9.1460354865
 11
-45.0065777685
 21
9.3549174865
  0
LINE
  5
56B
100
AcDbEntity
  8
INCISIONI
100
AcDbLine
 62
253
  6
CONTINUOUS
 10
-47.351704257
 20
8.5879574865
 11
-46.1028157674
 21
8.9894294865
  0
LINE
  5
56C
100
AcDbEntity
  8
INCISIONI
100
AcDbLine
 62
253
  6
CONTINUOUS
 10
-45.0145793305
 20
-9.5125905135
 11
-47.9133491354
 21
-9.7837405135
  0
LINE
  5
56D
100
AcDbEntity
  8
INCISIONI
100
AcDbLine
 62
253
  6
CONTINUOUS
 10
-46.8995310248
 20
-10.2290615135
 11
-45.0145793305
 21
-10.1047065135
  0
LINE
  5
56E
100
AcDbEntity
  8
INCISIONI
100
AcDbLine
 62
253
  6
CONTINUOUS
 10
-46.0410705799
 20
-8.5280135135
 11
-47.116840815
 21
-8.2266395135
  0
LINE
  5
56F
100
AcDbEntity
  8
INCISIONI
100
AcDbLine
 62
253
  6
CONTINUOUS
 10
-45.0145793305
 20
-8.8188425135
 11
-45.5932770133
 21
-8.6518255135
  0
LINE
  5
570
100
AcDbEntity
  8
INCISIONI
100
AcDbLine
 62
253
  6
CONTINUOUS
 10
-47.9133491354
 20
-8.5080305135
 11
-45.0145793305
 21
-9.4175465135
  0
LINE
  5
571
100
AcDbEntity
  8
INCISIONI
100
AcDbLine
 62
253
  6
CONTINUOUS
 10
-47.4239092576
 20
3.3298824865
 11
-47.4239092576
 21
3.6930984865
  0
LINE
  5
572
100
AcDbEntity
  8
INCISIONI
100
AcDbLine
 62
253
  6
CONTINUOUS
 10
-46.623745952
 20
-6.2723147854
 11
-46.623745952
 21
-5.9264081893
  0
LINE
  5
573
100
AcDbEntity
  8
INCISIONI
100
AcDbLine
 62
253
  6
CONTINUOUS
 10
-46.6047858276
 20
3.3298824865
 11
-46.6047858276
 21
3.6930984865
  0
LINE
  5
574
100
AcDbEntity
  8
INCISIONI
100
AcDbLine
 62
253
  6
CONTINUOUS
 10
-46.1489974588
 20
-5.9277128408
 11
-46.1489974588
 21
-6.2522448967
  0
LINE
  5
575
100
AcDbEntity
  8
INCISIONI
100
AcDbLine
 62
253
  6
CONTINUOUS
 10
-46.1229996178
 20
3.5947064865
 11
-46.1229996178
 21
3.3298824865
  0
LINE
  5
576
100
AcDbEntity
  8
INCISIONI
100
AcDbLine
 62
253
  6
CONTINUOUS
 10
-46.1028157674
 20
15.0143554865
 11
-46.1028157674
 21
14.1829774865
  0
LINE
  5
577
100
AcDbEntity
  8
INCISIONI
100
AcDbLine
 62
253
  6
CONTINUOUS
 10
-46.1028157674
 20
8.9894294865
 11
-46.1028157674
 21
8.1579424865
  0
LINE
  5
578
100
AcDbEntity
  8
INCISIONI
100
AcDbLine
 62
253
  6
CONTINUOUS
 10
-46.0410705799
 20
-7.9485095135
 11
-46.0410705799
 21
-8.5280135135
  0
LINE
  5
579
100
AcDbEntity
  8
INCISIONI
100
AcDbLine
 62
253
  6
CONTINUOUS
 10
-45.6210295577
 20
7.9972984865
 11
-45.6210295577
 21
9.1460354865
  0
LINE
  5
57A
100
AcDbEntity
  8
INCISIONI
100
AcDbLine
 62
253
  6
CONTINUOUS
 10
-45.6210295577
 20
14.0223324865
 11
-45.6210295577
 21
15.1710704865
  0
LINE
  5
57B
100
AcDbEntity
  8
INCISIONI
100
AcDbLine
 62
253
  6
CONTINUOUS
 10
-45.5932770133
 20
-8.6518255135
 11
-45.5932770133
 21
-7.8275465135
  0
LINE
  5
57C
100
AcDbEntity
  8
INCISIONI
100
AcDbLine
 62
7
  6
CONTINUOUS
 10
-47.9056953558
 20
3.4110831224
 11
-47.3723835868
 21
3.9443948914
  0
LINE
  5
57D
100
AcDbEntity
  8
INCISIONI
100
AcDbLine
 62
7
  6
CONTINUOUS
 10
-47.2361397826
 20
4.0806386957
 11
-46.6051424914
 21
4.7116359868
  0
LINE
  5
57E
100
AcDbEntity
  8
INCISIONI
100
AcDbLine
 62
7
  6
CONTINUOUS
 10
-46.1391589917
 20
5.1776194865
 11
-45.5165529917
 21
5.8002254865
  0
LINE
  5
57F
100
AcDbEntity
  8
INCISIONI
100
AcDbLine
 62
7
  6
CONTINUOUS
 10
-45.4883639782
 20
5.8284145001
 11
-45.0065777685
 21
6.3102007098
  0
LINE
  5
580
100
AcDbEntity
  8
INCISIONI
100
AcDbLine
 62
7
  6
CONTINUOUS
 10
-47.9056953891
 20
3.2010723751
 11
-47.4239092576
 21
3.6828585066
  0
LINE
  5
581
100
AcDbEntity
  8
INCISIONI
100
AcDbLine
 62
7
  6
CONTINUOUS
 10
-46.9823994114
 20
4.1243683528
 11
-46.4748907469
 21
4.6318770173
  0
LINE
  5
582
100
AcDbEntity
  8
INCISIONI
100
AcDbLine
 62
7
  6
CONTINUOUS
 10
-45.9291482777
 20
5.1776194865
 11
-45.0065777685
 21
6.1001899958
  0
LINE
  5
583
100
AcDbEntity
  8
INCISIONI
100
AcDbLine
 62
7
  6
CONTINUOUS
 10
-47.9056954224
 20
2.9910616278
 11
-47.4239092576
 21
3.4728477926
  0
LINE
  5
584
100
AcDbEntity
  8
INCISIONI
100
AcDbLine
 62
7
  6
CONTINUOUS
 10
-46.8087118732
 20
4.088045177
 11
-46.3666507023
 21
4.5301063479
  0
LINE
  5
585
100
AcDbEntity
  8
INCISIONI
100
AcDbLine
 62
7
  6
CONTINUOUS
 10
-45.7191375637
 20
5.1776194865
 11
-45.0065777685
 21
5.8901792817
  0
LINE
  5
586
100
AcDbEntity
  8
INCISIONI
100
AcDbLine
 62
7
  6
CONTINUOUS
 10
-47.9056954556
 20
2.7810508806
 11
-47.3568638497
 21
3.3298824865
  0
LINE
  5
587
100
AcDbEntity
  8
INCISIONI
100
AcDbLine
 62
7
  6
CONTINUOUS
 10
-46.6876136593
 20
3.9991326769
 11
-46.2786427576
 21
4.4081035786
  0
LINE
  5
588
100
AcDbEntity
  8
INCISIONI
100
AcDbLine
 62
7
  6
CONTINUOUS
 10
-45.5091268497
 20
5.1776194865
 11
-45.0065777685
 21
5.6801685677
  0
LINE
  5
589
100
AcDbEntity
  8
INCISIONI
100
AcDbLine
 62
7
  6
CONTINUOUS
 10
-47.7694591357
 20
2.7072764865
 11
-47.1468531357
 21
3.3298824865
  0
LINE
  5
58A
100
AcDbEntity
  8
INCISIONI
100
AcDbLine
 62
7
  6
CONTINUOUS
 10
-46.6273846691
 20
3.8493509531
 11
-46.2122776649
 21
4.2644579572
  0
LINE
  5
58B
100
AcDbEntity
  8
INCISIONI
100
AcDbLine
 62
7
  6
CONTINUOUS
 10
-45.2991161357
 20
5.1776194865
 11
-45.0065777685
 21
5.4701578537
  0
LINE
  5
58C
100
AcDbEntity
  8
INCISIONI
100
AcDbLine
 62
7
  6
CONTINUOUS
 10
-47.5594484217
 20
2.7072764865
 11
-46.9368424217
 21
3.3298824865
  0
LINE
  5
58D
100
AcDbEntity
  8
INCISIONI
100
AcDbLine
 62
7
  6
CONTINUOUS
 10
-46.6047854958
 20
3.6619394124
 11
-46.1672488127
 21
4.0994760954
  0
LINE
  5
58E
100
AcDbEntity
  8
INCISIONI
100
AcDbLine
 62
7
  6
CONTINUOUS
 10
-45.0891054217
 20
5.1776194865
 11
-45.0065777685
 21
5.2601471397
  0
LINE
  5
58F
100
AcDbEntity
  8
INCISIONI
100
AcDbLine
 62
7
  6
CONTINUOUS
 10
-47.3494377077
 20
2.7072764865
 11
-46.7268317077
 21
3.3298824865
  0
LINE
  5
590
100
AcDbEntity
  8
INCISIONI
100
AcDbLine
 62
7
  6
CONTINUOUS
 10
-46.6047857056
 20
3.4519284885
 11
-46.1413754295
 21
3.9153387647
  0
LINE
  5
591
100
AcDbEntity
  8
INCISIONI
100
AcDbLine
 62
7
  6
CONTINUOUS
 10
-47.1394269937
 20
2.7072764865
 11
-46.1277997777
 21
3.7189037025
  0
LINE
  5
592
100
AcDbEntity
  8
INCISIONI
100
AcDbLine
 62
7
  6
CONTINUOUS
 10
-46.9294162796
 20
2.7072764865
 11
-46.1229996178
 21
3.5136931483
  0
LINE
  5
593
100
AcDbEntity
  8
INCISIONI
100
AcDbLine
 62
7
  6
CONTINUOUS
 10
-46.7194055656
 20
2.7072764865
 11
-46.0967995656
 21
3.3298824865
  0
LINE
  5
594
100
AcDbEntity
  8
INCISIONI
100
AcDbLine
 62
7
  6
CONTINUOUS
 10
-46.5093948516
 20
2.7072764865
 11
-45.8867888516
 21
3.3298824865
  0
LINE
  5
595
100
AcDbEntity
  8
INCISIONI
100
AcDbLine
 62
7
  6
CONTINUOUS
 10
-46.2993841376
 20
2.7072764865
 11
-45.6767781376
 21
3.3298824865
  0
LINE
  5
596
100
AcDbEntity
  8
INCISIONI
100
AcDbLine
 62
7
  6
CONTINUOUS
 10
-46.0893734236
 20
2.7072764865
 11
-45.4667674236
 21
3.3298824865
  0
LINE
  5
597
100
AcDbEntity
  8
INCISIONI
100
AcDbLine
 62
7
  6
CONTINUOUS
 10
-45.8793627096
 20
2.7072764865
 11
-45.2567567096
 21
3.3298824865
  0
LINE
  5
598
100
AcDbEntity
  8
INCISIONI
100
AcDbLine
 62
7
  6
CONTINUOUS
 10
-45.6693519956
 20
2.7072764865
 11
-45.0467459956
 21
3.3298824865
  0
LINE
  5
599
100
AcDbEntity
  8
INCISIONI
100
AcDbLine
 62
253
  6
CONTINUOUS
 10
-31.8493415059
 20
11.0064864865
 11
-30.5500923602
 21
11.6294434865
  0
LINE
  5
59A
100
AcDbEntity
  8
INCISIONI
100
AcDbLine
 62
253
  6
CONTINUOUS
 10
-28.1124220678
 20
13.3334404865
 11
-26.8121212426
 21
13.9045164865
  0
LINE
  5
59B
100
AcDbEntity
  8
0
100
AcDbLine
 62
7
  6
CONTINUOUS
 10
-49.8983991684
 20
-7.0235135135
 11
-49.9983991684
 21
-7.0235135135
  0
LINE
  5
59C
100
AcDbEntity
  8
INCISIONI
100
AcDbLine
 62
253
  6
CONTINUOUS
 10
-45.0145789784
 20
-6.8550808579
 11
-47.8794818014
 21
-6.8550808579
  0
LINE
  5
59D
100
AcDbEntity
  8
INCISIONI
100
AcDbLine
 62
253
  6
CONTINUOUS
 10
-45.4883639782
 20
5.8002254865
 11
-45.4883639782
 21
6.8732244865
  0
LINE
  5
59E
100
AcDbEntity
  8
ASSI
100
AcDbLine
 62
253
  6
CONTINUOUS
 10
-45.2238793417
 20
23.7572599112
 11
-45.2238793417
 21
22.3403846534
  0
LINE
  5
59F
100
AcDbEntity
  8
ASSI
100
AcDbLine
 62
253
  6
CONTINUOUS
 10
-45.2238793417
 20
-22.3274116804
 11
-45.2238793417
 21
-23.7446776848
  0
LINE
  5
5A0
100
AcDbEntity
  8
INCISIONI
100
AcDbLine
 62
253
  6
CONTINUOUS
 10
-45.0145789784
 20
-4.7431545283
 11
-45.0145789784
 21
-5.3253552519
  0
LINE
  5
5A1
100
AcDbEntity
  8
INCISIONI
100
AcDbLine
 62
253
  6
CONTINUOUS
 10
-45.0145789784
 20
-6.2522448967
 11
-45.0145789784
 21
-6.8550808579
  0
LINE
  5
5A2
100
AcDbEntity
  8
INCISIONI
100
AcDbLine
 62
253
  6
CONTINUOUS
 10
-45.0145793305
 20
-12.7791775135
 11
-45.0145793305
 21
-13.3844485135
  0
LINE
  5
5A3
100
AcDbEntity
  8
INCISIONI
100
AcDbLine
 62
253
  6
CONTINUOUS
 10
-45.0145793305
 20
-15.0745265135
 11
-45.0145793305
 21
-14.5411305135
  0
LINE
  5
5A4
100
AcDbEntity
  8
INCISIONI
100
AcDbLine
 62
253
  6
CONTINUOUS
 10
-45.0145793305
 20
-12.4533405135
 11
-45.0145793305
 21
-11.8742925135
  0
LINE
  5
5A5
100
AcDbEntity
  8
INCISIONI
100
AcDbLine
 62
253
  6
CONTINUOUS
 10
-45.0145793305
 20
-11.0336185135
 11
-45.0145793305
 21
-10.9487295135
  0
LINE
  5
5A6
100
AcDbEntity
  8
INCISIONI
100
AcDbLine
 62
253
  6
CONTINUOUS
 10
-45.0145793305
 20
-10.1047065135
 11
-45.0145793305
 21
-9.5125905135
  0
LINE
  5
5A7
100
AcDbEntity
  8
INCISIONI
100
AcDbLine
 62
253
  6
CONTINUOUS
 10
-45.0145793305
 20
-9.4175465135
 11
-45.0145793305
 21
-8.8188425135
  0
LINE
  5
5A8
100
AcDbEntity
  8
INCISIONI
100
AcDbLine
 62
253
  6
CONTINUOUS
 10
-45.0145793305
 20
-7.6707485135
 11
-45.0145793305
 21
-7.0328175135
  0
LINE
  5
5A9
100
AcDbEntity
  8
INCISIONI
100
AcDbLine
 62
253
  6
CONTINUOUS
 10
-45.0065777685
 20
12.9176844865
 11
-45.0065777685
 21
12.0340324865
  0
LINE
  5
5AA
100
AcDbEntity
  8
INCISIONI
100
AcDbLine
 62
253
  6
CONTINUOUS
 10
-45.0065777685
 20
10.8812564865
 11
-45.0065777685
 21
10.2988114865
  0
LINE
  5
5AB
100
AcDbEntity
  8
INCISIONI
100
AcDbLine
 62
253
  6
CONTINUOUS
 10
-45.0065777685
 20
6.8732244865
 11
-45.0065777685
 21
5.1776194865
  0
LINE
  5
5AC
100
AcDbEntity
  8
INCISIONI
100
AcDbLine
 62
253
  6
CONTINUOUS
 10
-45.0065777685
 20
2.7072764865
 11
-45.0065777685
 21
3.3298824865
  0
LINE
  5
5AD
100
AcDbEntity
  8
INCISIONI
100
AcDbLine
 62
253
  6
CONTINUOUS
 10
-45.0065777685
 20
7.1860004865
 11
-45.0065777685
 21
7.7804504865
  0
LINE
  5
5AE
100
AcDbEntity
  8
INCISIONI
100
AcDbLine
 62
253
  6
CONTINUOUS
 10
-45.0065777685
 20
9.3549174865
 11
-45.0065777685
 21
9.9815604865
  0
LINE
  5
5AF
100
AcDbEntity
  8
INCISIONI
100
AcDbLine
 62
253
  6
CONTINUOUS
 10
-45.0065777685
 20
13.2109264865
 11
-45.0065777685
 21
13.8053754865
  0
LINE
  5
5B0
100
AcDbEntity
  8
INCISIONI
100
AcDbLine
 62
253
  6
CONTINUOUS
 10
-45.0065777685
 20
15.3800604865
 11
-45.0065777685
 21
16.0064864865
  0
LINE
  5
5B1
100
AcDbEntity
  8
ASSI
100
AcDbLine
 62
7
  6
CONTINUOUS
 10
-44.7983991684
 20
23.2628443012
 11
-44.7983991684
 21
22.3366802253
  0
LINE
  5
5B2
100
AcDbEntity
  8
ASSI
100
AcDbLine
 62
7
  6
CONTINUOUS
 10
-44.7983991684
 20
-22.3237072524
 11
-44.7983991684
 21
-23.2527717323
  0
LINE
  5
5B3
100
AcDbEntity
  8
0
100
AcDbLine
 62
253
  6
CONTINUOUS
 10
-43.7983991684
 20
15.7250580898
 11
-43.7983991684
 21
15.3586292854
  0
LINE
  5
5B4
100
AcDbEntity
  8
0
100
AcDbLine
 62
253
  6
CONTINUOUS
 10
-43.7983991684
 20
13.037915087
 11
-43.7983991684
 21
12.6714864865
  0
LINE
  5
5B5
100
AcDbEntity
  8
INCISIONI
100
AcDbLine
 62
7
  6
CONTINUOUS
 10
-45.4593412816
 20
2.7072764865
 11
-45.0065777685
 21
3.1600399996
  0
LINE
  5
5B6
100
AcDbEntity
  8
INCISIONI
100
AcDbLine
 62
7
  6
CONTINUOUS
 10
-45.2493305675
 20
2.7072764865
 11
-45.0065777685
 21
2.9500292856
  0
LINE
  5
5B7
100
AcDbEntity
  8
INCISIONI
100
AcDbLine
 62
7
  6
CONTINUOUS
 10
-45.0393198535
 20
2.7072764865
 11
-45.0065777685
 21
2.7400185716
  0
LINE
  5
5B8
100
AcDbEntity
  8
INCISIONI
100
AcDbLine
 62
253
  6
CONTINUOUS
 10
-29.9803569468
 20
13.2256624865
 11
-28.6811068014
 21
14.2579144865
  0
LINE
  5
5B9
100
AcDbEntity
  8
INCISIONI
100
AcDbLine
 62
253
  6
CONTINUOUS
 10
-27.3846578025
 20
15.2666114865
 11
-28.1124220678
 21
14.7902844865
  0
LINE
  5
5BA
100
AcDbEntity
  8
INCISIONI
100
AcDbLine
 62
253
  6
CONTINUOUS
 10
-45.5932770133
 20
-7.8275465135
 11
-45.0145793305
 21
-7.6707485135
  0
LINE
  5
5BB
100
AcDbEntity
  8
INCISIONI
100
AcDbLine
 62
253
  6
CONTINUOUS
 10
-47.116840815
 20
-8.2266395135
 11
-46.0410705799
 21
-7.9485095135
  0
LINE
  5
5BC
100
AcDbEntity
  8
INCISIONI
100
AcDbLine
 62
253
  6
CONTINUOUS
 10
-47.4195148548
 20
-6.2723147854
 11
-46.623745952
 21
-6.2723147854
  0
LINE
  5
5BD
100
AcDbEntity
  8
INCISIONI
100
AcDbLine
 62
253
  6
CONTINUOUS
 10
-46.1489974588
 20
-6.2522448967
 11
-45.0145789784
 21
-6.2522448967
  0
LINE
  5
5BE
100
AcDbEntity
  8
0
100
AcDbLine
 62
253
  6
CONTINUOUS
 10
-42.9841135026
 20
12.6714864865
 11
-42.9841135026
 21
13.037915087
  0
LINE
  5
5BF
100
AcDbEntity
  8
0
100
AcDbLine
 62
253
  6
CONTINUOUS
 10
-42.7126848908
 20
15.3586292854
 11
-42.7126848908
 21
15.8879150191
  0
LINE
  5
5C0
100
AcDbEntity
  8
0
100
AcDbLine
 62
253
  6
CONTINUOUS
 10
-42.3055420296
 20
14.6257720843
 11
-42.3055420296
 21
13.7707720843
  0
LINE
  5
5C1
100
AcDbEntity
  8
0
100
AcDbLine
 62
253
  6
CONTINUOUS
 10
-42.3055420296
 20
11.9386292854
 11
-42.3055420296
 21
11.0836293873
  0
LINE
  5
5C2
100
AcDbEntity
  8
RACCORDO
100
AcDbLine
 62
253
  6
CONTINUOUS
 10
-42.2896729652
 20
21.5724619197
 11
-42.2896729652
 21
20.9064864865
  0
LINE
  5
5C3
100
AcDbEntity
  8
RACCORDO
100
AcDbLine
 62
253
  6
CONTINUOUS
 10
-42.2896729652
 20
-20.8935135135
 11
-42.2896729652
 21
-21.5594889468
  0
LINE
  5
5C4
100
AcDbEntity
  8
0
100
AcDbLine
 62
253
  6
CONTINUOUS
 10
-41.8983991684
 20
13.037915087
 11
-41.8983991684
 21
12.6714864865
  0
LINE
  5
5C5
100
AcDbEntity
  8
RACCORDO
100
AcDbLine
 62
7
  6
CONTINUOUS
 10
-41.7983991684
 20
-19.9505316303
 11
-41.7983991684
 21
-21.3062067572
  0
LINE
  5
5C6
100
AcDbEntity
  8
DRAFT
100
AcDbLine
 62
7
  6
CONTINUOUS
 10
-41.7983991684
 20
-19.9505316303
 11
-41.7983991684
 21
-19.5189628642
  0
LINE
  5
5C7
100
AcDbEntity
  8
ASSI
100
AcDbLine
 62
7
  6
CONTINUOUS
 10
-41.7983991684
 20
-19.9774881097
 11
-41.7983991684
 21
-19.5189628642
  0
LINE
  5
5C8
100
AcDbEntity
  8
DRAFT
100
AcDbLine
 62
7
  6
CONTINUOUS
 10
-41.7983991684
 20
19.5319358372
 11
-41.7983991684
 21
19.9635046033
  0
LINE
  5
5C9
100
AcDbEntity
  8
ASSI
100
AcDbLine
 62
7
  6
CONTINUOUS
 10
-41.7983991684
 20
19.5319358372
 11
-41.7983991684
 21
19.9904610827
  0
LINE
  5
5CA
100
AcDbEntity
  8
RACCORDO
100
AcDbLine
 62
7
  6
CONTINUOUS
 10
-41.7983991684
 20
19.9635046033
 11
-41.7983991684
 21
21.3191797302
  0
LINE
  5
5CB
100
AcDbEntity
  8
0
100
AcDbLine
 62
7
  6
CONTINUOUS
 10
-49.9983991684
 20
-5.8776579674
 11
-49.8983991684
 21
-5.7685271173
  0
LINE
  5
5CC
100
AcDbEntity
  8
0
100
AcDbLine
 62
7
  6
CONTINUOUS
 10
-49.8983991684
 20
1.2215000903
 11
-49.9983991684
 21
1.2302489566
  0
LINE
  5
5CD
100
AcDbEntity
  8
INCISIONI
100
AcDbLine
 62
253
  6
CONTINUOUS
 10
-37.7318342322
 20
15.6064864865
 11
-37.7318342322
 21
14.1459823745
  0
LINE
  5
5CE
100
AcDbEntity
  8
INCISIONI
100
AcDbLine
 62
253
  6
CONTINUOUS
 10
-36.982062672
 20
14.1459854865
 11
-36.982062672
 21
15.6064864865
  0
LINE
  5
5CF
100
AcDbEntity
  8
INCISIONI
100
AcDbLine
 62
253
  6
CONTINUOUS
 10
-23.8130350021
 20
14.5064864865
 11
-22.3134918818
 21
16.0064864865
  0
LINE
  5
5D0
100
AcDbEntity
  8
DRAFT
100
AcDbLine
 62
7
  6
CONTINUOUS
 10
-49.9983991684
 20
-13.5935135135
 11
-49.8983991684
 21
-13.4935135135
  0
LINE
  5
5D1
100
AcDbEntity
  8
DRAFT
100
AcDbLine
 62
7
  6
CONTINUOUS
 10
-49.8983991684
 20
13.5064864865
 11
-49.9983991684
 21
13.6064864865
  0
LINE
  5
5D2
100
AcDbEntity
  8
INCISIONI
100
AcDbLine
 62
253
  6
CONTINUOUS
 10
-19.3643904119
 20
14.7779154865
 11
-19.6357357386
 21
14.5064864865
  0
LINE
  5
5D3
100
AcDbEntity
  8
INCISIONI
100
AcDbLine
 62
253
  6
CONTINUOUS
 10
-18.1433334427
 20
15.3207724865
 11
-17.8719871163
 21
15.5922004865
  0
LINE
  5
5D4
100
AcDbEntity
  8
INCISIONI
100
AcDbLine
 62
253
  6
CONTINUOUS
 10
-47.9056954673
 20
2.7072764865
 11
-45.0065777685
 21
2.7072764865
  0
LINE
  5
5D5
100
AcDbEntity
  8
INCISIONI
100
AcDbLine
 62
253
  6
CONTINUOUS
 10
-45.0065777685
 20
3.3298824865
 11
-46.1229996178
 21
3.3298824865
  0
LINE
  5
5D6
100
AcDbEntity
  8
INCISIONI
100
AcDbLine
 62
253
  6
CONTINUOUS
 10
-46.6047858276
 20
3.3298824865
 11
-47.4239092576
 21
3.3298824865
  0
LINE
  5
5D7
100
AcDbEntity
  8
0
100
AcDbLine
 62
7
  6
CONTINUOUS
 10
-49.8983991684
 20
4.5064864865
 11
-49.9983991684
 21
4.5064864865
  0
LINE
  5
5D8
100
AcDbEntity
  8
INCISIONI
100
AcDbLine
 62
253
  6
CONTINUOUS
 10
-47.9056954673
 20
8.2343354865
 11
-45.0065777685
 21
7.1860004865
  0
LINE
  5
5D9
100
AcDbEntity
  8
0
100
AcDbLine
 62
253
  6
CONTINUOUS
 10
-43.2555420579
 20
10.1064864865
 11
-43.7983991684
 21
10.5950579369
  0
LINE
  5
5DA
100
AcDbEntity
  8
DRAFT
100
AcDbLine
 62
7
  6
CONTINUOUS
 10
-32.4983991684
 20
9.6064864865
 11
-32.4983991684
 21
5.6064864865
  0
LINE
  5
5DB
100
AcDbEntity
  8
ASSI
100
AcDbLine
 62
7
  6
CONTINUOUS
 10
-32.4983991684
 20
9.6064864865
 11
-32.4983991684
 21
5.6064864865
  0
LINE
  5
5DC
100
AcDbEntity
  8
INCISIONI
100
AcDbLine
 62
253
  6
CONTINUOUS
 10
-45.0145793305
 20
-7.0328175135
 11
-47.9133491354
 21
-7.9225035135
  0
LINE
  5
5DD
100
AcDbEntity
  8
INCISIONI
100
AcDbLine
 62
253
  6
CONTINUOUS
 10
-45.0065777685
 20
5.1776194865
 11
-47.9056954673
 21
5.1776194865
  0
LINE
  5
5DE
100
AcDbEntity
  8
0
100
AcDbLine
 62
7
  6
CONTINUOUS
 10
-49.9983991684
 20
5.4564864865
 11
-49.8983991684
 21
5.4564864865
  0
LINE
  5
5DF
100
AcDbEntity
  8
INCISIONI
100
AcDbLine
 62
253
  6
CONTINUOUS
 10
-47.9056954673
 20
5.8002254865
 11
-45.4883639782
 21
5.8002254865
  0
LINE
  5
5E0
100
AcDbEntity
  8
INCISIONI
100
AcDbLine
 62
253
  6
CONTINUOUS
 10
-45.4883639782
 20
6.8732244865
 11
-45.0065777685
 21
6.8732244865
  0
LINE
  5
5E1
100
AcDbEntity
  8
RACCORDO
100
AcDbLine
 62
7
  6
CONTINUOUS
 10
-32.4983991684
 20
5.6064864865
 11
-15.8430536607
 21
4.1493325675
  0
LINE
  5
5E2
100
AcDbEntity
  8
ASSI
100
AcDbLine
 62
7
  6
CONTINUOUS
 10
-32.4983991684
 20
5.6064864865
 11
-15.8430536607
 21
4.1493325675
  0
LINE
  5
5E3
100
AcDbEntity
  8
INCISIONI
100
AcDbLine
 62
253
  6
CONTINUOUS
 10
-46.1028157674
 20
8.1579424865
 11
-47.351704257
 21
8.5879574865
  0
LINE
  5
5E4
100
AcDbEntity
  8
INCISIONI
100
AcDbLine
 62
253
  6
CONTINUOUS
 10
-45.0065777685
 20
7.7804504865
 11
-45.6210295577
 21
7.9972984865
  0
LINE
  5
5E5
100
AcDbEntity
  8
0
100
AcDbLine
 62
253
  6
CONTINUOUS
 10
-42.7126848908
 20
12.4272006848
 11
-42.9841135026
 21
12.6714864865
  0
LINE
  5
5E6
100
AcDbEntity
  8
0
100
AcDbLine
 62
253
  6
CONTINUOUS
 10
-42.9841135026
 20
13.037915087
 11
-43.1198277236
 21
13.2007722202
  0
LINE
  5
5E7
100
AcDbEntity
  8
INCISIONI
100
AcDbLine
 62
253
  6
CONTINUOUS
 10
-31.8493415059
 20
13.7373194865
 11
-31.8493415059
 21
14.1500184865
  0
LINE
  5
5E8
100
AcDbEntity
  8
INCISIONI
100
AcDbLine
 62
253
  6
CONTINUOUS
 10
-31.8493415059
 20
15.0537894865
 11
-31.8493415059
 21
16.0008694865
  0
LINE
  5
5E9
100
AcDbEntity
  8
INCISIONI
100
AcDbLine
 62
253
  6
CONTINUOUS
 10
-31.1997174329
 20
15.9410904865
 11
-31.1997174329
 21
15.0537894865
  0
LINE
  5
5EA
100
AcDbEntity
  8
INCISIONI
100
AcDbLine
 62
253
  6
CONTINUOUS
 10
-31.0080478306
 20
13.3680764865
 11
-31.0080478306
 21
12.6252194865
  0
LINE
  5
5EB
100
AcDbEntity
  8
INCISIONI
100
AcDbLine
 62
253
  6
CONTINUOUS
 10
-30.5500923602
 20
16.0135924865
 11
-30.5500923602
 21
15.0537894865
  0
LINE
  5
5EC
100
AcDbEntity
  8
INCISIONI
100
AcDbLine
 62
253
  6
CONTINUOUS
 10
-30.5500923602
 20
14.1500184865
 11
-30.5500923602
 21
13.7373194865
  0
LINE
  5
5ED
100
AcDbEntity
  8
INCISIONI
100
AcDbLine
 62
253
  6
CONTINUOUS
 10
-46.9074216207
 20
-11.7436755135
 11
-45.0145793305
 21
-11.0336185135
  0
LINE
  5
5EE
100
AcDbEntity
  8
INCISIONI
100
AcDbLine
 62
253
  6
CONTINUOUS
 10
-46.303943488
 20
-10.9878685135
 11
-47.9133491354
 21
-11.5867475135
  0
LINE
  5
5EF
100
AcDbEntity
  8
RACCORDO
100
AcDbLine
 62
7
  6
CONTINUOUS
 10
-15.8012783491
 20
11.0672952717
 11
-32.4983991684
 21
9.6064864865
  0
LINE
  5
5F0
100
AcDbEntity
  8
ASSI
100
AcDbLine
 62
7
  6
CONTINUOUS
 10
-15.8012783491
 20
11.0672952717
 11
-32.4983991684
 21
9.6064864865
  0
LINE
  5
5F1
100
AcDbEntity
  8
IMPORT_IGES
100
AcDbLine
 62
253
  6
CONTINUOUS
 10
-32.4983991684
 20
7.4874265942
 11
-29.2483991684
 21
7.4874265942
  0
LINE
  5
5F2
100
AcDbEntity
  8
IMPORT_IGES
100
AcDbLine
 62
253
  6
CONTINUOUS
 10
-28.0483991684
 20
7.4874265942
 11
-26.1497837143
 21
7.4874265942
  0
LINE
  5
5F3
100
AcDbEntity
  8
IMPORT_IGES
100
AcDbLine
 62
7
  6
CONTINUOUS
 10
-32.4983991684
 20
7.6874265942
 11
-25.0155144696
 21
7.6874265942
  0
LINE
  5
5F4
100
AcDbEntity
  8
0
100
AcDbLine
 62
253
  6
CONTINUOUS
 10
-43.7983991684
 20
12.6714864865
 11
-43.5269706131
 21
12.5086293533
  0
LINE
  5
5F5
100
AcDbEntity
  8
0
100
AcDbLine
 62
253
  6
CONTINUOUS
 10
-42.169827752
 20
13.2822006848
 11
-41.8983991684
 21
13.037915087
  0
LINE
  5
5F6
100
AcDbEntity
  8
0
100
AcDbLine
 62
253
  6
CONTINUOUS
 10
-43.7983991684
 20
15.3586292854
 11
-43.5269706131
 21
15.1143436876
  0
LINE
  5
5F7
100
AcDbEntity
  8
IMPORT_IGES
100
AcDbLine
 62
7
  6
CONTINUOUS
 10
-29.2483991684
 20
7.4874265942
 11
-29.2483991684
 21
5.32214833
  0
LINE
  5
5F8
100
AcDbEntity
  8
INCISIONI
100
AcDbLine
 62
253
  6
CONTINUOUS
 10
-28.1124220678
 20
12.6942384865
 11
-28.1124220678
 21
11.6385394865
  0
LINE
  5
5F9
100
AcDbEntity
  8
IMPORT_IGES
100
AcDbLine
 62
7
  6
CONTINUOUS
 10
-28.0483991684
 20
5.2171619338
 11
-28.0483991684
 21
7.4874265942
  0
LINE
  5
5FA
100
AcDbEntity
  8
INCISIONI
100
AcDbLine
 62
253
  6
CONTINUOUS
 10
-45.0065777685
 20
10.2988114865
 11
-47.9056954673
 21
10.2988114865
  0
LINE
  5
5FB
100
AcDbEntity
  8
0
100
AcDbLine
 62
253
  6
CONTINUOUS
 10
-43.7983991684
 20
10.5950579369
 11
-41.8983991684
 21
10.5950579369
  0
LINE
  5
5FC
100
AcDbEntity
  8
INCISIONI
100
AcDbLine
 62
253
  6
CONTINUOUS
 10
-47.4329425054
 20
10.8812564865
 11
-45.0065777685
 21
10.8812564865
  0
LINE
  5
5FD
100
AcDbEntity
  8
INCISIONI
100
AcDbLine
 62
253
  6
CONTINUOUS
 10
-21.5637203217
 20
11.0064864865
 11
-23.0632634419
 21
11.0064864865
  0
LINE
  5
5FE
100
AcDbEntity
  8
INCISIONI
100
AcDbLine
 62
253
  6
CONTINUOUS
 10
-30.5500923602
 20
11.0064864865
 11
-31.8493415059
 21
11.0064864865
  0
LINE
  5
5FF
100
AcDbEntity
  8
INCISIONI
100
AcDbLine
 62
253
  6
CONTINUOUS
 10
-26.8121212426
 20
11.3622594865
 11
-28.1124220678
 21
11.3622594865
  0
LINE
  5
600
100
AcDbEntity
  8
0
100
AcDbLine
 62
253
  6
CONTINUOUS
 10
-42.3055420296
 20
11.0836293873
 11
-43.7983991684
 21
11.4500578859
  0
LINE
  5
601
100
AcDbEntity
  8
INCISIONI
100
AcDbLine
 62
253
  6
CONTINUOUS
 10
-46.1028157674
 20
14.1829774865
 11
-47.3515403069
 21
14.6129354865
  0
LINE
  5
602
100
AcDbEntity
  8
INCISIONI
100
AcDbLine
 62
253
  6
CONTINUOUS
 10
-45.0065777685
 20
13.8053754865
 11
-45.6210295577
 21
14.0223324865
  0
LINE
  5
603
100
AcDbEntity
  8
INCISIONI
100
AcDbLine
 62
253
  6
CONTINUOUS
 10
-47.9056954673
 20
14.2593704865
 11
-45.0065777685
 21
13.2109264865
  0
LINE
  5
604
100
AcDbEntity
  8
0
100
AcDbLine
 62
253
  6
CONTINUOUS
 10
-41.8983991684
 20
15.3586292854
 11
-42.4412563355
 21
15.8472008887
  0
LINE
  5
605
100
AcDbEntity
  8
INCISIONI
100
AcDbLine
 62
253
  6
CONTINUOUS
 10
-27.2667047404
 20
12.9620124865
 11
-27.2667047404
 21
13.7048694865
  0
LINE
  5
606
100
AcDbEntity
  8
INCISIONI
100
AcDbLine
 62
253
  6
CONTINUOUS
 10
-26.8121212426
 20
14.8998504865
 11
-26.8121212426
 21
14.1528694865
  0
LINE
  5
607
100
AcDbEntity
  8
IMPORT_IGES
100
AcDbLine
 62
7
  6
CONTINUOUS
 10
-26.1497837143
 20
7.4915271621
 11
-26.1497837143
 21
5.0510546052
  0
LINE
  5
608
100
AcDbEntity
  8
RACCORDO
100
AcDbLine
 62
7
  6
CONTINUOUS
 10
-54.2983991684
 20
-23.1161632443
 11
-55.1733991684
 21
-23.6213447299
  0
LINE
  5
609
100
AcDbEntity
  8
RACCORDO
100
AcDbLine
 62
253
  6
CONTINUOUS
 10
-54.0498536012
 20
-23.2605008116
 11
-55.0498536012
 21
-23.8378510808
  0
LINE
  5
60A
100
AcDbEntity
  8
INCISIONI
100
AcDbLine
 62
253
  6
CONTINUOUS
 10
-47.9133491354
 20
-15.9937735135
 11
-45.0145793305
 21
-15.0745265135
  0
LINE
  5
60B
100
AcDbEntity
  8
INCISIONI
100
AcDbLine
 62
253
  6
CONTINUOUS
 10
-34.8096875497
 20
11.6213764865
 11
-35.560275861
 21
11.6213764865
  0
LINE
  5
60C
100
AcDbEntity
  8
INCISIONI
100
AcDbLine
 62
253
  6
CONTINUOUS
 10
-39.1536210432
 20
11.6213764865
 11
-39.9042093545
 21
11.6213764865
  0
LINE
  5
60D
100
AcDbEntity
  8
0
100
AcDbLine
 62
253
  6
CONTINUOUS
 10
-41.8983991684
 20
11.6536293533
 11
-42.8483991684
 21
11.6536293533
  0
LINE
  5
60E
100
AcDbEntity
  8
INCISIONI
100
AcDbLine
 62
253
  6
CONTINUOUS
 10
-26.8121212426
 20
12.1663884865
 11
-28.1124220678
 21
12.1663884865
  0
LINE
  5
60F
100
AcDbEntity
  8
INCISIONI
100
AcDbLine
 62
253
  6
CONTINUOUS
 10
-31.8493415059
 20
12.2524004865
 11
-30.5500923602
 21
12.2524004865
  0
LINE
  5
610
100
AcDbEntity
  8
INCISIONI
100
AcDbLine
 62
253
  6
CONTINUOUS
 10
-45.6082814418
 20
12.3352404865
 11
-47.9056954673
 21
12.3352404865
  0
LINE
  5
611
100
AcDbEntity
  8
0
100
AcDbLine
 62
253
  6
CONTINUOUS
 10
-42.169827752
 20
12.4272006848
 11
-42.7126848908
 21
12.4272006848
  0
LINE
  5
612
100
AcDbEntity
  8
0
100
AcDbLine
 62
253
  6
CONTINUOUS
 10
-43.5269706131
 20
12.5086293533
 11
-43.1198277236
 21
12.5086293533
  0
LINE
  5
613
100
AcDbEntity
  8
INCISIONI
100
AcDbLine
 62
253
  6
CONTINUOUS
 10
-28.6811068014
 20
12.8372934865
 11
-29.9803569468
 21
12.8372934865
  0
LINE
  5
614
100
AcDbEntity
  8
INCISIONI
100
AcDbLine
 62
253
  6
CONTINUOUS
 10
-47.9056954673
 20
12.9176844865
 11
-45.0065777685
 21
12.9176844865
  0
LINE
  5
615
100
AcDbEntity
  8
0
100
AcDbLine
 62
253
  6
CONTINUOUS
 10
-43.1198277236
 20
13.2007722202
 11
-43.5269706131
 21
13.2007722202
  0
LINE
  5
616
100
AcDbEntity
  8
INCISIONI
100
AcDbLine
 62
253
  6
CONTINUOUS
 10
-28.6811068014
 20
13.2256624865
 11
-29.9803569468
 21
13.2256624865
  0
LINE
  5
617
100
AcDbEntity
  8
0
100
AcDbLine
 62
253
  6
CONTINUOUS
 10
-42.7126848908
 20
13.2822006848
 11
-42.169827752
 21
13.2822006848
  0
LINE
  5
618
100
AcDbEntity
  8
INCISIONI
100
AcDbLine
 62
253
  6
CONTINUOUS
 10
-30.5500923602
 20
13.7373194865
 11
-31.8493415059
 21
13.7373194865
  0
LINE
  5
619
100
AcDbEntity
  8
0
100
AcDbLine
 62
253
  6
CONTINUOUS
 10
-42.3055420296
 20
13.7707720843
 11
-43.7983991684
 21
14.1372008887
  0
LINE
  5
61A
100
AcDbEntity
  8
RACCORDO
100
AcDbLine
 62
7
  6
CONTINUOUS
 10
-55.1733991684
 20
23.6343177028
 11
-54.2983991684
 21
23.1291362173
  0
LINE
  5
61B
100
AcDbEntity
  8
RACCORDO
100
AcDbLine
 62
253
  6
CONTINUOUS
 10
-55.0498536012
 20
23.8508240538
 11
-54.0498536012
 21
23.2734737846
  0
LINE
  5
61C
100
AcDbEntity
  8
RACCORDO
100
AcDbLine
 62
7
  6
CONTINUOUS
 10
-24.8483991684
 20
18.9567819516
 11
-24.8483991684
 21
19.2360724867
  0
LINE
  5
61D
100
AcDbEntity
  8
ASSI
100
AcDbLine
 62
7
  6
CONTINUOUS
 10
-24.8483991684
 20
18.9567819516
 11
-24.8483991684
 21
19.2360724867
  0
LINE
  5
61E
100
AcDbEntity
  8
IMPORT_IGES
100
AcDbLine
 62
7
  6
CONTINUOUS
 10
-24.4483991684
 20
7.6606316749
 11
-24.4483991684
 21
4.9022027451
  0
LINE
  5
61F
100
AcDbEntity
  8
IMPORT_IGES
100
AcDbLine
 62
7
  6
CONTINUOUS
 10
-23.4483991684
 20
10.3982588914
 11
-23.4483991684
 21
4.8147140816
  0
LINE
  5
620
100
AcDbEntity
  8
INCISIONI
100
AcDbLine
 62
253
  6
CONTINUOUS
 10
-23.0632634419
 20
11.0064864865
 11
-23.0632634419
 21
14.5064864865
  0
LINE
  5
621
100
AcDbEntity
  8
INCISIONI
100
AcDbLine
 62
253
  6
CONTINUOUS
 10
-26.8121212426
 20
14.1528694865
 11
-28.1124220678
 21
14.1528694865
  0
LINE
  5
622
100
AcDbEntity
  8
INCISIONI
100
AcDbLine
 62
253
  6
CONTINUOUS
 10
-28.6811068014
 20
14.2579144865
 11
-29.9803569468
 21
14.2579144865
  0
LINE
  5
623
100
AcDbEntity
  8
0
100
AcDbLine
 62
253
  6
CONTINUOUS
 10
-41.8983991684
 20
14.3407723561
 11
-42.8483991684
 21
14.3407723561
  0
LINE
  5
624
100
AcDbEntity
  8
INCISIONI
100
AcDbLine
 62
253
  6
CONTINUOUS
 10
-19.6357357386
 20
14.5064864865
 11
-20.0427547284
 21
14.5064864865
  0
LINE
  5
625
100
AcDbEntity
  8
INCISIONI
100
AcDbLine
 62
253
  6
CONTINUOUS
 10
-20.8139487615
 20
14.5064864865
 11
-21.5637203217
 21
14.5064864865
  0
LINE
  5
626
100
AcDbEntity
  8
INCISIONI
100
AcDbLine
 62
253
  6
CONTINUOUS
 10
-23.0632634419
 20
14.5064864865
 11
-23.8130350021
 21
14.5064864865
  0
LINE
  5
627
100
AcDbEntity
  8
INCISIONI
100
AcDbLine
 62
253
  6
CONTINUOUS
 10
-30.5500923602
 20
15.0537894865
 11
-31.8493415059
 21
15.0537894865
  0
LINE
  5
628
100
AcDbEntity
  8
0
100
AcDbLine
 62
253
  6
CONTINUOUS
 10
-43.5269706131
 20
15.1143436876
 11
-42.9841135026
 21
15.1143436876
  0
LINE
  5
629
100
AcDbEntity
  8
INCISIONI
100
AcDbLine
 62
253
  6
CONTINUOUS
 10
-27.3846578025
 20
15.2666114865
 11
-26.8121212426
 21
15.2666114865
  0
LINE
  5
62A
100
AcDbEntity
  8
INCISIONI
100
AcDbLine
 62
253
  6
CONTINUOUS
 10
-18.8216977592
 20
15.3207724865
 11
-18.1433334427
 21
15.3207724865
  0
LINE
  5
62B
100
AcDbEntity
  8
INCISIONI
100
AcDbLine
 62
253
  6
CONTINUOUS
 10
-36.982062672
 20
15.6064864865
 11
-37.7318342322
 21
15.6064864865
  0
LINE
  5
62C
100
AcDbEntity
  8
0
100
AcDbLine
 62
253
  6
CONTINUOUS
 10
-42.9841135026
 20
15.9693436876
 11
-43.5269706131
 21
15.9693436876
  0
LINE
  5
62D
100
AcDbEntity
  8
INCISIONI
100
AcDbLine
 62
253
  6
CONTINUOUS
 10
-34.809687432
 20
16.0064864865
 11
-35.5602789085
 21
16.0064864865
  0
LINE
  5
62E
100
AcDbEntity
  8
INCISIONI
100
AcDbLine
 62
253
  6
CONTINUOUS
 10
-39.1536210432
 20
16.0064864865
 11
-39.9042094722
 21
16.0064864865
  0
LINE
  5
62F
100
AcDbEntity
  8
0
100
AcDbLine
 62
253
  6
CONTINUOUS
 10
-42.4412563355
 20
15.8472008887
 11
-42.9841135026
 21
15.9693436876
  0
LINE
  5
630
100
AcDbEntity
  8
INCISIONI
100
AcDbLine
 62
253
  6
CONTINUOUS
 10
-30.5500923602
 20
12.4230334865
 11
-31.8493415059
 21
12.9966474865
  0
LINE
  5
631
100
AcDbEntity
  8
INCISIONI
100
AcDbLine
 62
253
  6
CONTINUOUS
 10
-30.5500923602
 20
11.6294434865
 11
-31.8493415059
 21
12.2524004865
  0
LINE
  5
632
100
AcDbEntity
  8
INCISIONI
100
AcDbLine
 62
253
  6
CONTINUOUS
 10
-21.5637203217
 20
14.5064864865
 11
-21.5637203217
 21
11.0064864865
  0
LINE
  5
633
100
AcDbEntity
  8
RACCORDO
100
AcDbLine
 62
253
  6
CONTINUOUS
 10
-49.8946472475
 20
17.9420443887
 11
-50.0967987375
 21
17.9385158213
  0
LINE
  5
634
100
AcDbEntity
  8
INCISIONI
100
AcDbLine
 62
253
  6
CONTINUOUS
 10
-18.1433334427
 20
16.4064864865
 11
-18.8216977592
 21
16.4064864865
  0
LINE
  5
635
100
AcDbEntity
  8
RACCORDO
100
AcDbLine
 62
253
  6
CONTINUOUS
 10
-15.8009934554
 20
17.0955587992
 11
-16.780946762
 21
17.0955591908
  0
LINE
  5
636
100
AcDbEntity
  8
ASSI
100
AcDbLine
 62
253
  6
CONTINUOUS
 10
-15.8009934554
 20
17.0955587992
 11
-16.780946762
 21
17.0955591908
  0
LINE
  5
637
100
AcDbEntity
  8
RACCORDO
100
AcDbLine
 62
253
  6
CONTINUOUS
 10
-15.9397083471
 20
18.0954068848
 11
-15.7983991684
 21
18.095406886
  0
LINE
  5
638
100
AcDbEntity
  8
ASSI
100
AcDbLine
 62
253
  6
CONTINUOUS
 10
-15.9397083471
 20
18.0954068848
 11
-15.7983991684
 21
18.095406886
  0
LINE
  5
639
100
AcDbEntity
  8
0
100
AcDbLine
 62
253
  6
CONTINUOUS
 10
-49.8983991684
 20
17.6736264728
 11
-16.780946762
 21
17.0955591908
  0
LINE
  5
63A
100
AcDbEntity
  8
ASSI
100
AcDbLine
 62
253
  6
CONTINUOUS
 10
-49.8983991684
 20
17.6736264728
 11
-16.780946762
 21
17.0955591908
  0
LINE
  5
63B
100
AcDbEntity
  8
RACCORDO
100
AcDbLine
 62
7
  6
CONTINUOUS
 10
-51.7983991684
 20
18.2564864865
 11
-50.454821297
 21
18.1389386542
  0
LINE
  5
63C
100
AcDbEntity
  8
RACCORDO
100
AcDbLine
 62
7
  6
CONTINUOUS
 10
-50.0809680198
 20
18.3562307306
 11
-51.7983991684
 21
18.5064864865
  0
LINE
  5
63D
100
AcDbEntity
  8
ASSI
100
AcDbLine
 62
7
  6
CONTINUOUS
 10
-50.0809680198
 20
18.3562307306
 11
-51.7983991684
 21
18.5064864865
  0
LINE
  5
63E
100
AcDbEntity
  8
INCISIONI
100
AcDbLine
 62
253
  6
CONTINUOUS
 10
-26.8121212426
 20
12.7623654865
 11
-28.1124220678
 21
13.3334404865
  0
LINE
  5
63F
100
AcDbEntity
  8
INCISIONI
100
AcDbLine
 62
253
  6
CONTINUOUS
 10
-20.3141010548
 20
14.7779154865
 11
-20.3141010548
 21
16.4064864865
  0
LINE
  5
640
100
AcDbEntity
  8
INCISIONI
100
AcDbLine
 62
253
  6
CONTINUOUS
 10
-19.3643904119
 20
16.4064864865
 11
-19.3643904119
 21
14.7779154865
  0
LINE
  5
641
100
AcDbEntity
  8
INCISIONI
100
AcDbLine
 62
253
  6
CONTINUOUS
 10
-18.8216977592
 20
16.4064864865
 11
-18.8216977592
 21
14.5064864865
  0
LINE
  5
642
100
AcDbEntity
  8
DRAFT
100
AcDbLine
 62
7
  6
CONTINUOUS
 10
-18.4983991684
 20
4.3816451971
 11
-18.4983991684
 21
10.8313277758
  0
LINE
  5
643
100
AcDbEntity
  8
ASSI
100
AcDbLine
 62
7
  6
CONTINUOUS
 10
-18.4983991684
 20
4.3816451971
 11
-18.4983991684
 21
10.8313277758
  0
LINE
  5
644
100
AcDbEntity
  8
RACCORDO
100
AcDbLine
 62
7
  6
CONTINUOUS
 10
-50.8669631975
 20
18.4249963982
 11
-51.7966934841
 21
18.4087678957
  0
LINE
  5
645
100
AcDbEntity
  8
RACCORDO
100
AcDbLine
 62
7
  6
CONTINUOUS
 10
-41.9972356221
 20
19.7635079879
 11
-51.7983991684
 21
19.7064864865
  0
LINE
  5
646
100
AcDbEntity
  8
RACCORDO
100
AcDbLine
 62
7
  6
CONTINUOUS
 10
-16.780946762
 20
19.0952545811
 11
-51.7983991684
 21
19.7064864865
  0
LINE
  5
647
100
AcDbEntity
  8
ASSI
100
AcDbLine
 62
7
  6
CONTINUOUS
 10
-16.780946762
 20
19.0952545811
 11
-51.7983991684
 21
19.7064864865
  0
LINE
  5
648
100
AcDbEntity
  8
DRAFT
100
AcDbLine
 62
7
  6
CONTINUOUS
 10
-43.2047110071
 20
19.7564831017
 11
-41.7983991684
 21
19.7319358372
  0
LINE
  5
649
100
AcDbEntity
  8
ASSI
100
AcDbLine
 62
7
  6
CONTINUOUS
 10
-43.2047110071
 20
19.7564831017
 11
-41.7983991684
 21
19.7319358372
  0
LINE
  5
64A
100
AcDbEntity
  8
ASSI
100
AcDbLine
 62
7
  6
CONTINUOUS
 10
-23.2172479071
 20
18.9511033965
 11
-24.8483991684
 21
19.0057250636
  0
LWPOLYLINE
  5
64B
100
AcDbEntity
  8
ASSI
100
AcDbPolyline
 62
7
  6
CONTINUOUS
 90
6
 70
0
 10
-18.089789879
 20
18.7666749834
 10
-19.0779922293
 20
18.8038283028
 10
-20.0848394318
 20
18.8408640968
 10
-21.110331469
 20
18.8777649131
 10
-22.1544676867
 20
18.9145155811
 10
-23.2172479071
 20
18.9511033965
  0
LWPOLYLINE
  5
64C
100
AcDbEntity
  8
RACCORDO
100
AcDbPolyline
 62
7
  6
CONTINUOUS
 90
10
 70
0
 10
-16.7687393663
 20
18.7157188108
 10
-17.4922164352
 20
18.7438108492
 10
-18.3748291701
 20
18.7774747899
 10
-19.2727158141
 20
18.8110545947
 10
-20.185876811
 20
18.844536096
 10
-21.1143121406
 20
18.8779065755
 10
-22.0580213158
 20
18.9111548512
 10
-23.0170042085
 20
18.9442713955
 10
-23.9912610467
 20
18.9772484219
 10
-24.8483991684
 20
19.0057250636
  0
LINE
  5
64D
100
AcDbEntity
  8
ASSI
100
AcDbLine
 62
7
  6
CONTINUOUS
 10
-16.7687393664
 20
18.7157188109
 11
-18.089789879
 21
18.7666749834
  0
LINE
  5
64E
100
AcDbEntity
  8
RACCORDO
100
AcDbLine
 62
253
  6
CONTINUOUS
 10
-61.8754050112
 20
20.568954806
 11
-61.3845543381
 21
20.548392343
  0
LINE
  5
64F
100
AcDbEntity
  8
INCISIONI
100
AcDbLine
 62
253
  6
CONTINUOUS
 10
-28.1124220678
 20
15.7419384865
 11
-27.3846578025
 21
15.2666114865
  0
LINE
  5
650
100
AcDbEntity
  8
INCISIONI
100
AcDbLine
 62
253
  6
CONTINUOUS
 10
-17.8719871163
 20
15.5922004865
 11
-17.8719871163
 21
16.1350574865
  0
LINE
  5
651
100
AcDbEntity
  8
RACCORDO
100
AcDbLine
 62
253
  6
CONTINUOUS
 10
-16.780946762
 20
17.0955591908
 11
-16.780946762
 21
10.9815853916
  0
LINE
  5
652
100
AcDbEntity
  8
ASSI
100
AcDbLine
 62
253
  6
CONTINUOUS
 10
-16.780946762
 20
17.0955591908
 11
-16.780946762
 21
10.9815853916
  0
LINE
  5
653
100
AcDbEntity
  8
RACCORDO
100
AcDbLine
 62
253
  6
CONTINUOUS
 10
-16.780946762
 20
4.2313875814
 11
-16.780946762
 21
-17.0825862178
  0
LINE
  5
654
100
AcDbEntity
  8
ASSI
100
AcDbLine
 62
253
  6
CONTINUOUS
 10
-16.780946762
 20
4.2313875814
 11
-16.780946762
 21
-17.0825862178
  0
LINE
  5
655
100
AcDbEntity
  8
RACCORDO
100
AcDbLine
 62
253
  6
CONTINUOUS
 10
-16.28094942
 20
11.0253294908
 11
-16.28094942
 21
4.1876434822
  0
LINE
  5
656
100
AcDbEntity
  8
ASSI
100
AcDbLine
 62
253
  6
CONTINUOUS
 10
-16.28094942
 20
11.0253294908
 11
-16.28094942
 21
4.1876434822
  0
LINE
  5
657
100
AcDbEntity
  8
RACCORDO
100
AcDbLine
 62
253
  6
CONTINUOUS
 10
-60.4377362824
 20
21.5058969411
 11
-52.7962128394
 21
21.9063722151
  0
LINE
  5
658
100
AcDbEntity
  8
RACCORDO
100
AcDbLine
 62
7
  6
CONTINUOUS
 10
-42.2896729652
 20
21.5724619197
 11
-51.7983991684
 21
21.4064864865
  0
LINE
  5
659
100
AcDbEntity
  8
RACCORDO
100
AcDbLine
 62
7
  6
CONTINUOUS
 10
-41.7983991684
 20
20.9064864865
 11
-51.7983991684
 21
20.9064864865
  0
LINE
  5
65A
100
AcDbEntity
  8
RACCORDO
100
AcDbLine
 62
253
  6
CONTINUOUS
 10
-52.7962128394
 20
21.9063722151
 11
-51.7983991684
 21
21.8976644271
  0
LINE
  5
65B
100
AcDbEntity
  8
RACCORDO
100
AcDbLine
 62
7
  6
CONTINUOUS
 10
-42.7896726329
 20
22.3191416533
 11
-52.7983991684
 21
22.4064864865
  0
LWPOLYLINE
  5
65C
100
AcDbEntity
  8
RACCORDO
100
AcDbPolyline
 62
7
  6
CONTINUOUS
 90
3
 70
0
 10
-16.6365564868
 20
18.7001455527
 10
-16.7346301491
 20
18.7135981322
 10
-16.7687435798
 20
18.715608734
  0
LWPOLYLINE
  5
65D
100
AcDbEntity
  8
RACCORDO
100
AcDbPolyline
 62
7
  6
CONTINUOUS
 90
18
 70
0
 10
-15.8010059063
 20
17.111781586
 10
-15.8020296902
 20
17.2482473093
 10
-15.805257698
 20
17.3810976069
 10
-15.8119650549
 20
17.511156165
 10
-15.823668569
 20
17.6384507631
 10
-15.8417250335
 20
17.7623125053
 10
-15.8670079366
 20
17.8813940147
 10
-15.9001280371
 20
17.9951243523
 10
-15.9417408055
 20
18.1037310231
 10
-15.9918969677
 20
18.2060480225
 10
-16.0501576417
 20
18.3007760856
 10
-16.1165539327
 20
18.3876981494
 10
-16.1903476277
 20
18.4657025043
 10
-16.2702147155
 20
18.5337489033
 10
-16.3560213876
 20
18.5918188455
 10
-16.4466128927
 20
18.6391285219
 10
-16.5402150564
 20
18.6752190135
 10
-16.6365564868
 20
18.7001455527
  0
LWPOLYLINE
  5
65E
100
AcDbEntity
  8
ASSI
100
AcDbPolyline
 62
7
  6
CONTINUOUS
 90
6
 70
0
 10
-15.800994759
 20
17.0955603395
 10
-15.8019206158
 20
17.2405043601
 10
-15.8088672466
 20
17.4612592857
 10
-15.8283493395
 20
17.6758941174
 10
-15.8673317892
 20
17.8826871801
 10
-15.9307288175
 20
18.0776048527
  0
LINE
  5
65F
100
AcDbEntity
  8
RACCORDO
100
AcDbLine
 62
253
  6
CONTINUOUS
 10
-15.8875288006
 20
4.153223638
 11
-15.8875288006
 21
1.0309122591
  0
LINE
  5
660
100
AcDbEntity
  8
ASSI
100
AcDbLine
 62
253
  6
CONTINUOUS
 10
-15.8875288006
 20
4.153223638
 11
-15.8875288006
 21
1.0309122591
  0
LINE
  5
661
100
AcDbEntity
  8
RACCORDO
100
AcDbLine
 62
7
  6
CONTINUOUS
 10
-15.8429639845
 20
4.1498116122
 11
-15.8429639845
 21
1.1775404586
  0
LINE
  5
662
100
AcDbEntity
  8
ASSI
100
AcDbLine
 62
7
  6
CONTINUOUS
 10
-15.8429639845
 20
4.1498116122
 11
-15.8429639845
 21
1.1775404586
  0
LINE
  5
663
100
AcDbEntity
  8
RACCORDO
100
AcDbLine
 62
253
  6
CONTINUOUS
 10
-15.8023903792
 20
11.0671979817
 11
-15.8023907837
 21
17.0955591909
  0
LINE
  5
664
100
AcDbEntity
  8
ASSI
100
AcDbLine
 62
253
  6
CONTINUOUS
 10
-15.8023903792
 20
11.0671979817
 11
-15.8023907837
 21
17.0955591909
  0
LINE
  5
665
100
AcDbEntity
  8
RACCORDO
100
AcDbLine
 62
7
  6
CONTINUOUS
 10
-15.8009934554
 20
11.0668816591
 11
-15.8010059063
 21
17.111781586
  0
LINE
  5
666
100
AcDbEntity
  8
ASSI
100
AcDbLine
 62
7
  6
CONTINUOUS
 10
-15.8009934554
 20
11.0668816591
 11
-15.8009934554
 21
17.095558557
  0
LINE
  5
667
100
AcDbEntity
  8
RACCORDO
100
AcDbLine
 62
7
  6
CONTINUOUS
 10
-15.7983991684
 20
18.095406886
 11
-15.7983991684
 21
17.0955587992
  0
LINE
  5
668
100
AcDbEntity
  8
ASSI
100
AcDbLine
 62
7
  6
CONTINUOUS
 10
-15.7983991684
 20
18.095406886
 11
-15.7983991684
 21
17.0955587992
  0
LINE
  5
669
100
AcDbEntity
  8
ASSI
100
AcDbLine
 62
7
  6
CONTINUOUS
 10
-15.7983991684
 20
11.0671979817
 11
-15.7983991684
 21
-10.4935135135
  0
LINE
  5
66A
100
AcDbEntity
  8
ASSI
100
AcDbLine
 62
7
  6
CONTINUOUS
 10
-15.7983991684
 20
-10.4935135135
 11
-15.7983991684
 21
-17.9935135135
  0
LINE
  5
66B
100
AcDbEntity
  8
RACCORDO
100
AcDbLine
 62
7
  6
CONTINUOUS
 10
-15.7983991684
 20
11.0671979817
 11
-15.7983991684
 21
-18.082433913
  0
LINE
  5
66C
100
AcDbEntity
  8
ASSI
100
AcDbLine
 62
7
  6
CONTINUOUS
 10
-15.7983991684
 20
-17.9935135135
 11
-15.7983991684
 21
-18.082433913
  0
LINE
  5
66D
100
AcDbEntity
  8
RACCORDO
100
AcDbLine
 62
7
  6
CONTINUOUS
 10
-60.4551780573
 20
22.0052117085
 11
-54.1739423104
 21
22.3343973251
  0
LINE
  5
66E
100
AcDbEntity
  8
RACCORDO
100
AcDbLine
 62
253
  6
CONTINUOUS
 10
-52.7983991684
 20
24.2564907173
 11
-55.0498536012
 21
24.2433921386
  0
LINE
  5
66F
100
AcDbEntity
  8
RACCORDO
100
AcDbLine
 62
7
  6
CONTINUOUS
 10
-52.7983991684
 20
24.5064864865
 11
-55.0498536012
 21
24.4933879078
  0
LINE
  5
670
100
AcDbEntity
  8
RACCORDO
100
AcDbLine
 62
253
  6
CONTINUOUS
 10
-55.2983991684
 20
23.8508240538
 11
-55.0498536012
 21
23.8508240538
  0
LINE
  5
671
100
AcDbEntity
  8
RACCORDO
100
AcDbLine
 62
253
  6
CONTINUOUS
 10
-51.7983991684
 20
23.8508240538
 11
-52.0469447356
 21
23.8508240538
  0
LINE
  5
672
100
AcDbEntity
  8
RACCORDO
100
AcDbLine
 62
253
  6
CONTINUOUS
 10
-55.2983991684
 20
24.2433921386
 11
-55.0498536012
 21
24.2433921386
  0
LINE
  5
673
100
AcDbEntity
  8
RACCORDO
100
AcDbLine
 62
253
  6
CONTINUOUS
 10
-51.7983991684
 20
24.2521188833
 11
-52.0469447356
 21
24.2521188833
  0
LINE
  5
674
100
AcDbEntity
  8
ASSI
100
AcDbLine
 62
7
  6
CONTINUOUS
 10
-51.8034917038
 20
23.8006982842
 11
-45.2954903027
 21
23.7628358396
  0
LINE
  5
675
100
AcDbEntity
  8
RACCORDO
100
AcDbLine
 62
253
  6
CONTINUOUS
 10
-52.0469447356
 20
24.2521188833
 11
-52.7983991684
 21
24.2564907173
  0
LINE
  5
676
100
AcDbEntity
  8
RACCORDO
100
AcDbLine
 62
7
  6
CONTINUOUS
 10
-52.0469447356
 20
24.5021146525
 11
-52.7983991684
 21
24.5064864865
  0
LINE
  5
677
100
AcDbEntity
  8
INCISIONI
100
AcDbLine
 62
253
  6
CONTINUOUS
 10
-22.3134918818
 20
16.0064864865
 11
-20.8139487615
 21
14.5064864865
  0
LINE
  5
678
100
AcDbEntity
  8
INCISIONI
100
AcDbLine
 62
253
  6
CONTINUOUS
 10
-20.0427547284
 20
14.5064864865
 11
-20.3141010548
 21
14.7779154865
  0
LINE
  5
679
100
AcDbEntity
  8
INCISIONI
100
AcDbLine
 62
253
  6
CONTINUOUS
 10
-17.8719871163
 20
16.1350574865
 11
-18.1433334427
 21
16.4064864865
  0
LWPOLYLINE
  5
67A
100
AcDbEntity
  8
ASSI
100
AcDbPolyline
 62
7
  6
CONTINUOUS
 90
8
 70
0
 10
-15.9307288175
 20
18.0776048527
 10
-16.0193238254
 20
18.253245587
 10
-16.1311933153
 20
18.4045389825
 10
-16.2650150495
 20
18.5297600905
 10
-16.4146484885
 20
18.6239181341
 10
-16.5718182736
 20
18.6847204742
 10
-16.7325287855
 20
18.7134299587
 10
-16.7687436446
 20
18.7156087367
  0
ARC
  5
67B
100
AcDbEntity
  8
RACCORDO
100
AcDbCircle
 62
253
  6
CONTINUOUS
 10
-2889.1264432746
 20
-0.7223696046
 40
2897.2081885106
100
AcDbArc
 50
0.0144140067
 51
0.3170307193
  0
ARC
  5
67C
100
AcDbEntity
  8
0
100
AcDbCircle
 62
253
  6
CONTINUOUS
 10
5.5363696972
 20
-17.5558699356
 40
1.5001059292
100
AcDbArc
 50
180.0031439395
 51
269.9955475525
  0
ARC
  5
67D
100
AcDbEntity
  8
RACCORDO
100
AcDbCircle
 62
253
  6
CONTINUOUS
 10
8.9818803238
 20
-15.3009214257
 40
0.9445019453
100
AcDbArc
 50
179.6707902946
 51
188.294342282
  0
ARC
  5
67E
100
AcDbEntity
  8
RACCORDO
100
AcDbCircle
 62
253
  6
CONTINUOUS
 10
8.819703137
 20
-15.1196193027
 40
0.9149082327
100
AcDbArc
 50
256.2897931226
 51
269.9697671609
  0
ARC
  5
67F
100
AcDbEntity
  8
RACCORDO
100
AcDbCircle
 62
7
  6
CONTINUOUS
 10
1.9870029562
 20
-21.8932134144
 40
0.5003650628
100
AcDbArc
 50
180.0212787215
 51
243.4314379182
  0
ARC
  5
680
100
AcDbEntity
  8
RACCORDO
100
AcDbCircle
 62
253
  6
CONTINUOUS
 10
2.1201526048
 20
-21.4920363446
 40
0.5001711055
100
AcDbArc
 50
180.1016871991
 51
269.976152529
  0
ARC
  5
681
100
AcDbEntity
  8
RACCORDO
100
AcDbCircle
 62
7
  6
CONTINUOUS
 10
8.8192203742
 20
-15.2935135135
 40
0.5
100
AcDbArc
 50
179.9993673678
 51
270.0004296074
  0
ARC
  5
682
100
AcDbEntity
  8
RACCORDO
100
AcDbCircle
 62
7
  6
CONTINUOUS
 10
1.9867678502
 20
-21.8936123476
 40
0.4999016042
100
AcDbArc
 50
243.4350882085
 51
267.9885958017
  0
ARC
  5
683
100
AcDbEntity
  8
RACCORDO
100
AcDbCircle
 62
253
  6
CONTINUOUS
 10
21.1323255709
 20
-24.2304083168
 40
0.2500066182
100
AcDbArc
 50
180.0024862923
 51
269.9975137077
  0
ARC
  5
684
100
AcDbEntity
  8
RACCORDO
100
AcDbCircle
 62
253
  6
CONTINUOUS
 10
23.0061151775
 20
-24.2304083168
 40
0.2500066182
100
AcDbArc
 50
270.0024862923
 51
359.9975137077
  0
ARC
  5
685
100
AcDbEntity
  8
RACCORDO
100
AcDbCircle
 62
253
  6
CONTINUOUS
 10
4.1061151775
 20
-24.2304083168
 40
0.2500066182
100
AcDbArc
 50
270.0024862923
 51
359.9975137077
  0
ARC
  5
686
100
AcDbEntity
  8
RACCORDO
100
AcDbCircle
 62
253
  6
CONTINUOUS
 10
2.2323255705
 20
-24.2304083173
 40
0.2500066177
100
AcDbArc
 50
180.0024861811
 51
269.9975138189
  0
ARC
  5
687
100
AcDbEntity
  8
RACCORDO
100
AcDbCircle
 62
7
  6
CONTINUOUS
 10
21.1192143911
 20
-24.2435194967
 40
0.2499940169
100
AcDbArc
 50
179.9995983785
 51
270.0004016215
  0
ARC
  5
688
100
AcDbEntity
  8
RACCORDO
100
AcDbCircle
 62
7
  6
CONTINUOUS
 10
23.0192263574
 20
-24.2435194967
 40
0.2499940169
100
AcDbArc
 50
269.9995983785
 51
0.0004016215
  0
ARC
  5
689
100
AcDbEntity
  8
RACCORDO
100
AcDbCircle
 62
7
  6
CONTINUOUS
 10
2.2192143911
 20
-24.2435194967
 40
0.2499940169
100
AcDbArc
 50
179.9995983785
 51
270.0004016215
  0
ARC
  5
68A
100
AcDbEntity
  8
RACCORDO
100
AcDbCircle
 62
7
  6
CONTINUOUS
 10
4.1192263574
 20
-24.2435194967
 40
0.2499940169
100
AcDbArc
 50
269.9995983785
 51
0.0004016215
  0
ARC
  5
68B
100
AcDbEntity
  8
RACCORDO
100
AcDbCircle
 62
253
  6
CONTINUOUS
 10
-2889.1280125975
 20
0.7353471231
 40
2897.2097578346
100
AcDbArc
 50
359.6829693625
 51
359.9855859112
  0
ARC
  5
68C
100
AcDbEntity
  8
0
100
AcDbCircle
 62
253
  6
CONTINUOUS
 10
5.5363696974
 20
17.5688429083
 40
1.5001059293
100
AcDbArc
 50
90.004452456
 51
179.9957257971
  0
ARC
  5
68D
100
AcDbEntity
  8
RACCORDO
100
AcDbCircle
 62
253
  6
CONTINUOUS
 10
8.9824048918
 20
15.3138578775
 40
0.9450262957
100
AcDbArc
 50
171.7080546301
 51
180.3268127708
  0
ARC
  5
68E
100
AcDbEntity
  8
RACCORDO
100
AcDbCircle
 62
253
  6
CONTINUOUS
 10
8.8193352181
 20
15.1356459023
 40
0.9118544859
100
AcDbArc
 50
90.0072161372
 51
103.7332235957
  0
ARC
  5
68F
100
AcDbEntity
  8
RACCORDO
100
AcDbCircle
 62
7
  6
CONTINUOUS
 10
1.9870029621
 20
21.9061863856
 40
0.5003650686
100
AcDbArc
 50
116.5685616226
 51
179.9787210793
  0
ARC
  5
690
100
AcDbEntity
  8
RACCORDO
100
AcDbCircle
 62
253
  6
CONTINUOUS
 10
2.1201526443
 20
21.5050092342
 40
0.5001711055
100
AcDbArc
 50
90.0238519957
 51
179.8983032546
  0
ARC
  5
691
100
AcDbEntity
  8
RACCORDO
100
AcDbCircle
 62
7
  6
CONTINUOUS
 10
8.8192203742
 20
15.3064864865
 40
0.5
100
AcDbArc
 50
89.9994886001
 51
180.0005695866
  0
ARC
  5
692
100
AcDbEntity
  8
RACCORDO
100
AcDbCircle
 62
7
  6
CONTINUOUS
 10
1.9867579392
 20
21.9066127909
 40
0.4998726033
100
AcDbArc
 50
92.0104829614
 51
116.565302859
  0
ARC
  5
693
100
AcDbEntity
  8
RACCORDO
100
AcDbCircle
 62
253
  6
CONTINUOUS
 10
21.1323255709
 20
24.2433812898
 40
0.2500066182
100
AcDbArc
 50
90.0024862923
 51
179.9975137077
  0
ARC
  5
694
100
AcDbEntity
  8
RACCORDO
100
AcDbCircle
 62
253
  6
CONTINUOUS
 10
4.1061151775
 20
24.2433812898
 40
0.2500066182
100
AcDbArc
 50
0.0024862923
 51
89.9975137077
  0
ARC
  5
695
100
AcDbEntity
  8
RACCORDO
100
AcDbCircle
 62
253
  6
CONTINUOUS
 10
23.006115178
 20
24.2433812903
 40
0.2500066177
100
AcDbArc
 50
0.0024861811
 51
89.9975138189
  0
ARC
  5
696
100
AcDbEntity
  8
RACCORDO
100
AcDbCircle
 62
253
  6
CONTINUOUS
 10
2.2323255705
 20
24.2433812903
 40
0.2500066177
100
AcDbArc
 50
90.0024861811
 51
179.9975138189
  0
ARC
  5
697
100
AcDbEntity
  8
RACCORDO
100
AcDbCircle
 62
7
  6
CONTINUOUS
 10
23.0192263574
 20
24.2564924696
 40
0.2499940169
100
AcDbArc
 50
359.9995983785
 51
90.0004016215
  0
ARC
  5
698
100
AcDbEntity
  8
RACCORDO
100
AcDbCircle
 62
7
  6
CONTINUOUS
 10
21.1192143911
 20
24.2564924696
 40
0.2499940169
100
AcDbArc
 50
89.9995983785
 51
180.0004016215
  0
ARC
  5
699
100
AcDbEntity
  8
RACCORDO
100
AcDbCircle
 62
7
  6
CONTINUOUS
 10
2.2192143911
 20
24.2564924696
 40
0.2499940169
100
AcDbArc
 50
89.9995983785
 51
180.0004016215
  0
ARC
  5
69A
100
AcDbEntity
  8
RACCORDO
100
AcDbCircle
 62
7
  6
CONTINUOUS
 10
4.1192263574
 20
24.2564924696
 40
0.2499940169
100
AcDbArc
 50
359.9995983785
 51
90.0004016215
  0
ARC
  5
69B
100
AcDbEntity
  8
RACCORDO
100
AcDbCircle
 62
253
  6
CONTINUOUS
 10
2959.3664533474
 20
-0.7223741501
 40
2897.2097578362
100
AcDbArc
 50
179.6829693625
 51
179.9855859112
  0
ARC
  5
69C
100
AcDbEntity
  8
0
100
AcDbCircle
 62
253
  6
CONTINUOUS
 10
64.7020709929
 20
-17.5558699648
 40
1.5001059406
100
AcDbArc
 50
270.0044546763
 51
359.9968624828
  0
ARC
  5
69D
100
AcDbEntity
  8
RACCORDO
100
AcDbCircle
 62
253
  6
CONTINUOUS
 10
61.2559951441
 20
-15.3008873155
 40
0.9450670213
100
AcDbArc
 50
351.706383658
 51
0.3269448609
  0
ARC
  5
69E
100
AcDbEntity
  8
RACCORDO
100
AcDbCircle
 62
253
  6
CONTINUOUS
 10
61.4191055304
 20
-15.1226729294
 40
0.9118544859
100
AcDbArc
 50
270.0072161372
 51
283.7332235957
  0
ARC
  5
69F
100
AcDbEntity
  8
RACCORDO
100
AcDbCircle
 62
7
  6
CONTINUOUS
 10
68.2514377958
 20
-21.8932134185
 40
0.5003650686
100
AcDbArc
 50
296.5685609535
 51
359.9787217484
  0
ARC
  5
6A0
100
AcDbEntity
  8
RACCORDO
100
AcDbCircle
 62
253
  6
CONTINUOUS
 10
68.1182881459
 20
-21.4920363494
 40
0.5001711055
100
AcDbArc
 50
270.0238472184
 51
359.8983133461
  0
ARC
  5
6A1
100
AcDbEntity
  8
RACCORDO
100
AcDbCircle
 62
7
  6
CONTINUOUS
 10
61.4192203742
 20
-15.2935135135
 40
0.5
100
AcDbArc
 50
269.9994886001
 51
0.0005695866
  0
ARC
  5
6A2
100
AcDbEntity
  8
RACCORDO
100
AcDbCircle
 62
7
  6
CONTINUOUS
 10
68.2516828093
 20
-21.893639818
 40
0.4998726033
100
AcDbArc
 50
272.0104829614
 51
296.5653028589
  0
ARC
  5
6A3
100
AcDbEntity
  8
RACCORDO
100
AcDbCircle
 62
253
  6
CONTINUOUS
 10
66.1323255709
 20
-24.2304083168
 40
0.2500066182
100
AcDbArc
 50
180.0024862923
 51
269.9975137077
  0
ARC
  5
6A4
100
AcDbEntity
  8
RACCORDO
100
AcDbCircle
 62
253
  6
CONTINUOUS
 10
68.0061151775
 20
-24.2304083168
 40
0.2500066182
100
AcDbArc
 50
270.0024862923
 51
359.9975137077
  0
ARC
  5
6A5
100
AcDbEntity
  8
RACCORDO
100
AcDbCircle
 62
253
  6
CONTINUOUS
 10
49.1061151775
 20
-24.2304083168
 40
0.2500066182
100
AcDbArc
 50
270.0024862923
 51
359.9975137077
  0
ARC
  5
6A6
100
AcDbEntity
  8
RACCORDO
100
AcDbCircle
 62
253
  6
CONTINUOUS
 10
47.2323255705
 20
-24.2304083173
 40
0.2500066177
100
AcDbArc
 50
180.0024861811
 51
269.9975138189
  0
ARC
  5
6A7
100
AcDbEntity
  8
RACCORDO
100
AcDbCircle
 62
7
  6
CONTINUOUS
 10
66.1192143911
 20
-24.2435194967
 40
0.2499940169
100
AcDbArc
 50
179.9995983785
 51
270.0004016215
  0
ARC
  5
6A8
100
AcDbEntity
  8
RACCORDO
100
AcDbCircle
 62
7
  6
CONTINUOUS
 10
68.0192263574
 20
-24.2435194967
 40
0.2499940169
100
AcDbArc
 50
269.9995983785
 51
0.0004016215
  0
ARC
  5
6A9
100
AcDbEntity
  8
RACCORDO
100
AcDbCircle
 62
7
  6
CONTINUOUS
 10
47.2192143911
 20
-24.2435194967
 40
0.2499940169
100
AcDbArc
 50
179.9995983785
 51
270.0004016215
  0
ARC
  5
6AA
100
AcDbEntity
  8
RACCORDO
100
AcDbCircle
 62
7
  6
CONTINUOUS
 10
49.1192263574
 20
-24.2435194967
 40
0.2499940169
100
AcDbArc
 50
269.9995983785
 51
0.0004016215
  0
ARC
  5
6AB
100
AcDbEntity
  8
RACCORDO
100
AcDbCircle
 62
253
  6
CONTINUOUS
 10
2959.3648840217
 20
0.7353425776
 40
2897.2081885093
100
AcDbArc
 50
180.0144140067
 51
180.3170307193
  0
ARC
  5
6AC
100
AcDbEntity
  8
0
100
AcDbCircle
 62
253
  6
CONTINUOUS
 10
64.7020711321
 20
17.56884293
 40
1.5001058632
100
AcDbArc
 50
0.0042733744
 51
89.9955506389
  0
ARC
  5
6AD
100
AcDbEntity
  8
RACCORDO
100
AcDbCircle
 62
253
  6
CONTINUOUS
 10
61.2565604247
 20
15.3138943986
 40
0.9445019453
100
AcDbArc
 50
359.6707902946
 51
8.294342282
  0
ARC
  5
6AE
100
AcDbEntity
  8
RACCORDO
100
AcDbCircle
 62
253
  6
CONTINUOUS
 10
61.4187376114
 20
15.1325922757
 40
0.9149082327
100
AcDbArc
 50
76.2897931226
 51
89.9697671609
  0
ARC
  5
6AF
100
AcDbEntity
  8
RACCORDO
100
AcDbCircle
 62
7
  6
CONTINUOUS
 10
68.2514378018
 20
21.9061863933
 40
0.5003650628
100
AcDbArc
 50
0.0212780425
 51
63.4314385971
  0
ARC
  5
6B0
100
AcDbEntity
  8
RACCORDO
100
AcDbCircle
 62
253
  6
CONTINUOUS
 10
68.1182881064
 20
21.5050092389
 40
0.5001711055
100
AcDbArc
 50
0.1016962069
 51
89.9761482645
  0
ARC
  5
6B1
100
AcDbEntity
  8
RACCORDO
100
AcDbCircle
 62
7
  6
CONTINUOUS
 10
61.4192203742
 20
15.3064864865
 40
0.5
100
AcDbArc
 50
359.9993673678
 51
90.0004296074
  0
ARC
  5
6B2
100
AcDbEntity
  8
RACCORDO
100
AcDbCircle
 62
7
  6
CONTINUOUS
 10
68.2516728982
 20
21.9065853206
 40
0.4999016042
100
AcDbArc
 50
63.4350882085
 51
87.9885958017
  0
ARC
  5
6B3
100
AcDbEntity
  8
RACCORDO
100
AcDbCircle
 62
253
  6
CONTINUOUS
 10
66.1323255709
 20
24.2433812898
 40
0.2500066182
100
AcDbArc
 50
90.0024862923
 51
179.9975137077
  0
ARC
  5
6B4
100
AcDbEntity
  8
RACCORDO
100
AcDbCircle
 62
253
  6
CONTINUOUS
 10
49.1061151775
 20
24.2433812898
 40
0.2500066182
100
AcDbArc
 50
0.0024862923
 51
89.9975137077
  0
ARC
  5
6B5
100
AcDbEntity
  8
RACCORDO
100
AcDbCircle
 62
253
  6
CONTINUOUS
 10
68.006115178
 20
24.2433812903
 40
0.2500066177
100
AcDbArc
 50
0.0024861811
 51
89.9975138189
  0
ARC
  5
6B6
100
AcDbEntity
  8
RACCORDO
100
AcDbCircle
 62
253
  6
CONTINUOUS
 10
47.2323255705
 20
24.2433812903
 40
0.2500066177
100
AcDbArc
 50
90.0024861811
 51
179.9975138189
  0
ARC
  5
6B7
100
AcDbEntity
  8
RACCORDO
100
AcDbCircle
 62
7
  6
CONTINUOUS
 10
68.0192263574
 20
24.2564924696
 40
0.2499940169
100
AcDbArc
 50
359.9995983785
 51
90.0004016215
  0
ARC
  5
6B8
100
AcDbEntity
  8
RACCORDO
100
AcDbCircle
 62
7
  6
CONTINUOUS
 10
66.1192143911
 20
24.2564924696
 40
0.2499940169
100
AcDbArc
 50
89.9995983785
 51
180.0004016215
  0
ARC
  5
6B9
100
AcDbEntity
  8
RACCORDO
100
AcDbCircle
 62
7
  6
CONTINUOUS
 10
47.2192143911
 20
24.2564924696
 40
0.2499940169
100
AcDbArc
 50
89.9995983785
 51
180.0004016215
  0
ARC
  5
6BA
100
AcDbEntity
  8
RACCORDO
100
AcDbCircle
 62
7
  6
CONTINUOUS
 10
49.1192263574
 20
24.2564924696
 40
0.2499940169
100
AcDbArc
 50
359.9995983785
 51
90.0004016215
  0
ARC
  5
6BB
100
AcDbEntity
  8
RACCORDO
100
AcDbCircle
 62
253
  6
CONTINUOUS
 10
-63.6898144296
 20
-1058.648586563
 40
1078.3051450267
100
AcDbArc
 50
87.5063474898
 51
87.9357135511
  0
ARC
  5
6BC
100
AcDbEntity
  8
ASSI
100
AcDbCircle
 62
253
  6
CONTINUOUS
 10
-63.6898144296
 20
-1058.648586563
 40
1078.3051450267
100
AcDbArc
 50
87.5063474898
 51
87.9357135511
  0
ARC
  5
6BD
100
AcDbEntity
  8
ASSI
100
AcDbCircle
 62
253
  6
CONTINUOUS
 10
-218.2780906178
 20
18.8844202842
 40
201.5050843182
100
AcDbArc
 50
359.4913501193
 51
359.7180498191
  0
ARC
  5
6BE
100
AcDbEntity
  8
RACCORDO
100
AcDbCircle
 62
253
  6
CONTINUOUS
 10
-215.0031011737
 20
18.861454175
 40
198.23002014
100
AcDbArc
 50
359.4895845349
 51
359.8091919621
  0
ARC
  5
6BF
100
AcDbEntity
  8
RACCORDO
100
AcDbCircle
 62
7
  6
CONTINUOUS
 10
-42.7983991684
 20
-21.3062067572
 40
1.0
100
AcDbArc
 50
270.5
 51
360.0
  0
ARC
  5
6C0
100
AcDbEntity
  8
ASSI
100
AcDbCircle
 62
7
  6
CONTINUOUS
 10
-45.2954903027
 20
-23.2527717323
 40
0.4970911343
100
AcDbArc
 50
270.6666666666
 51
360.0
  0
ARC
  5
6C1
100
AcDbEntity
  8
RACCORDO
100
AcDbCircle
 62
7
  6
CONTINUOUS
 10
-52.0483991684
 20
-23.8378510808
 40
0.25
100
AcDbArc
 50
0.0
 51
60.0
  0
ARC
  5
6C2
100
AcDbEntity
  8
RACCORDO
100
AcDbCircle
 62
7
  6
CONTINUOUS
 10
-55.0483991684
 20
-24.2304191656
 40
0.25
100
AcDbArc
 50
180.0
 51
269.6666666667
  0
ARC
  5
6C3
100
AcDbEntity
  8
RACCORDO
100
AcDbCircle
 62
7
  6
CONTINUOUS
 10
-52.0483991684
 20
-24.2391459103
 40
0.25
100
AcDbArc
 50
270.3333333333
 51
360.0
  0
ARC
  5
6C4
100
AcDbEntity
  8
RACCORDO
100
AcDbCircle
 62
7
  6
CONTINUOUS
 10
-55.0483991684
 20
-23.8378510808
 40
0.25
100
AcDbArc
 50
120.0
 51
180.0
  0
ARC
  5
6C5
100
AcDbEntity
  8
RACCORDO
100
AcDbCircle
 62
7
  6
CONTINUOUS
 10
-60.3766741229
 20
-20.4942944334
 40
1.5
100
AcDbArc
 50
182.3565652924
 51
267.0003679372
  0
ARC
  5
6C6
100
AcDbEntity
  8
RACCORDO
100
AcDbCircle
 62
253
  6
CONTINUOUS
 10
-60.3853996589
 20
-20.4942937735
 40
1.0000006939
100
AcDbArc
 50
182.3569861929
 51
266.9999637979
  0
ARC
  5
6C7
100
AcDbEntity
  8
RACCORDO
100
AcDbCircle
 62
7
  6
CONTINUOUS
 10
-50.4983991684
 20
-17.6278683322
 40
0.5
100
AcDbArc
 50
275.0
 51
360.0
  0
ARC
  5
6C8
100
AcDbEntity
  8
RACCORDO
100
AcDbCircle
 62
7
  6
CONTINUOUS
 10
-41.9983991684
 20
-19.9505316303
 40
0.2
100
AcDbArc
 50
0.0
 51
89.6666666667
  0
ARC
  5
6C9
100
AcDbEntity
  8
RACCORDO
100
AcDbCircle
 62
7
  6
CONTINUOUS
 10
-50.0983991684
 20
-18.144018818
 40
0.2
100
AcDbArc
 50
275.0
 51
360.0
  0
ARC
  5
6CA
100
AcDbEntity
  8
ASSI
100
AcDbCircle
 62
7
  6
CONTINUOUS
 10
-50.0983991684
 20
-18.144018818
 40
0.2
100
AcDbArc
 50
275.0
 51
360.0
  0
ARC
  5
6CB
100
AcDbEntity
  8
RACCORDO
100
AcDbCircle
 62
7
  6
CONTINUOUS
 10
-16.7983991684
 20
-18.082433913
 40
1.0
100
AcDbArc
 50
271.0
 51
360.0
  0
ARC
  5
6CC
100
AcDbEntity
  8
ASSI
100
AcDbCircle
 62
7
  6
CONTINUOUS
 10
-16.7983991684
 20
-18.082433913
 40
1.0
100
AcDbArc
 50
271.0
 51
360.0
  0
ARC
  5
6CD
100
AcDbEntity
  8
RACCORDO
100
AcDbCircle
 62
253
  6
CONTINUOUS
 10
-77.9740230665
 20
18.4177453923
 40
61.2002255418
100
AcDbArc
 50
359.797366816
 51
359.9726747542
  0
ARC
  5
6CE
100
AcDbEntity
  8
ASSI
100
AcDbCircle
 62
253
  6
CONTINUOUS
 10
-77.9740230665
 20
18.4177453923
 40
61.2002255418
100
AcDbArc
 50
359.797366816
 51
359.9726747542
  0
ARC
  5
6CF
100
AcDbEntity
  8
RACCORDO
100
AcDbCircle
 62
7
  6
CONTINUOUS
 10
-60.3766741229
 20
20.5072674063
 40
1.5
100
AcDbArc
 50
92.9996173975
 51
177.6434199661
  0
ARC
  5
6D0
100
AcDbEntity
  8
RACCORDO
100
AcDbCircle
 62
253
  6
CONTINUOUS
 10
-60.3853996588
 20
20.5072667465
 40
1.0000006939
100
AcDbArc
 50
93.0000362023
 51
177.6430138069
  0
ARC
  5
6D1
100
AcDbEntity
  8
RACCORDO
100
AcDbCircle
 62
7
  6
CONTINUOUS
 10
-50.4983991684
 20
17.6408413051
 40
0.5
100
AcDbArc
 50
0.0
 51
85.0
  0
ARC
  5
6D2
100
AcDbEntity
  8
RACCORDO
100
AcDbCircle
 62
7
  6
CONTINUOUS
 10
-52.0483991684
 20
24.2521188833
 40
0.25
100
AcDbArc
 50
0.0
 51
89.6666666667
  0
ARC
  5
6D3
100
AcDbEntity
  8
RACCORDO
100
AcDbCircle
 62
7
  6
CONTINUOUS
 10
-52.0483991684
 20
23.8508240538
 40
0.25
100
AcDbArc
 50
300.0
 51
360.0
  0
ARC
  5
6D4
100
AcDbEntity
  8
RACCORDO
100
AcDbCircle
 62
7
  6
CONTINUOUS
 10
-55.0483991684
 20
24.2433921386
 40
0.25
100
AcDbArc
 50
90.3333333333
 51
180.0
  0
ARC
  5
6D5
100
AcDbEntity
  8
RACCORDO
100
AcDbCircle
 62
7
  6
CONTINUOUS
 10
-55.0483991684
 20
23.8508240538
 40
0.25
100
AcDbArc
 50
180.0
 51
240.0
  0
ARC
  5
6D6
100
AcDbEntity
  8
RACCORDO
100
AcDbCircle
 62
7
  6
CONTINUOUS
 10
-50.0983991684
 20
18.156991791
 40
0.2
100
AcDbArc
 50
0.0
 51
85.0
  0
ARC
  5
6D7
100
AcDbEntity
  8
ASSI
100
AcDbCircle
 62
7
  6
CONTINUOUS
 10
-50.0983991684
 20
18.156991791
 40
0.2
100
AcDbArc
 50
0.0
 51
85.0
  0
ARC
  5
6D8
100
AcDbEntity
  8
RACCORDO
100
AcDbCircle
 62
7
  6
CONTINUOUS
 10
-16.2983991684
 20
1.0293560215
 40
0.5
100
AcDbArc
 50
0.0
 51
24.2744652495
  0
ARC
  5
6D9
100
AcDbEntity
  8
ASSI
100
AcDbCircle
 62
7
  6
CONTINUOUS
 10
-16.2983991684
 20
1.0293560215
 40
0.5
100
AcDbArc
 50
0.0
 51
28.9504707216
  0
ARC
  5
6DA
100
AcDbEntity
  8
RACCORDO
100
AcDbCircle
 62
7
  6
CONTINUOUS
 10
-16.2146656055
 20
1.2245912233
 40
0.3801710539
100
AcDbArc
 50
329.3726547829
 51
335.0027860739
  0
ARC
  5
6DB
100
AcDbEntity
  8
ASSI
100
AcDbCircle
 62
7
  6
CONTINUOUS
 10
-16.2146656055
 20
1.2245912233
 40
0.3801710539
100
AcDbArc
 50
329.3726547829
 51
335.0027860739
  0
ARC
  5
6DC
100
AcDbEntity
  8
RACCORDO
100
AcDbCircle
 62
7
  6
CONTINUOUS
 10
-42.7983991684
 20
21.3191797302
 40
1.0
100
AcDbArc
 50
0.0
 51
89.5
  0
ARC
  5
6DD
100
AcDbEntity
  8
RACCORDO
100
AcDbCircle
 62
7
  6
CONTINUOUS
 10
-16.7983991684
 20
18.095406886
 40
1.0
100
AcDbArc
 50
0.0
 51
18.3247930725
  0
ARC
  5
6DE
100
AcDbEntity
  8
RACCORDO
100
AcDbCircle
 62
7
  6
CONTINUOUS
 10
-16.7983991684
 20
18.095406886
 40
1.0
100
AcDbArc
 50
34.7632869653
 51
89.0
  0
ARC
  5
6DF
100
AcDbEntity
  8
ASSI
100
AcDbCircle
 62
7
  6
CONTINUOUS
 10
-16.7983991684
 20
18.095406886
 40
1.0
100
AcDbArc
 50
0.0
 51
23.733333324
  0
ARC
  5
6E0
100
AcDbEntity
  8
ASSI
100
AcDbCircle
 62
7
  6
CONTINUOUS
 10
-16.7983991684
 20
18.095406886
 40
1.0
100
AcDbArc
 50
34.7632869653
 51
89.0
  0
ARC
  5
6E1
100
AcDbEntity
  8
RACCORDO
100
AcDbCircle
 62
253
  6
CONTINUOUS
 10
-16.8048470472
 20
17.7824614532
 40
0.8535587746
100
AcDbArc
 50
75.8184362848
 51
87.9390437577
  0
ARC
  5
6E2
100
AcDbEntity
  8
ASSI
100
AcDbCircle
 62
7
  6
CONTINUOUS
 10
-45.2983991684
 20
23.2628443012
 40
0.5
100
AcDbArc
 50
0.0
 51
89.6666666667
  0
ARC
  5
6E3
100
AcDbEntity
  8
RACCORDO
100
AcDbCircle
 62
7
  6
CONTINUOUS
 10
-16.387641802
 20
18.3805005301
 40
0.5
100
AcDbArc
 50
329.7547420532
 51
34.7632869653
  0
ARC
  5
6E4
100
AcDbEntity
  8
ASSI
100
AcDbCircle
 62
7
  6
CONTINUOUS
 10
-16.387641802
 20
18.3805005301
 40
0.5
100
AcDbArc
 50
329.7547420532
 51
34.7632869653
  0
ARC
  5
6E5
100
AcDbEntity
  8
RACCORDO
100
AcDbCircle
 62
7
  6
CONTINUOUS
 10
-41.9983991684
 20
19.9635046033
 40
0.2
100
AcDbArc
 50
270.3333333333
 51
360.0
  0
ARC
  5
6E6
100
AcDbEntity
  8
0
100
AcDbCircle
 62
7
  6
CONTINUOUS
 10
437.7016008316
 20
0.0064864865
 40
500.0
100
AcDbArc
 50
180.0563229197
 51
182.184927485
  0
ARC
  5
6E7
100
AcDbEntity
  8
0
100
AcDbCircle
 62
7
  6
CONTINUOUS
 10
437.7016008316
 20
0.0064864865
 40
500.0
100
AcDbArc
 50
178.0397134557
 51
180.0
  0
ARC
  5
6E8
100
AcDbEntity
  8
RACCORDO
100
AcDbCircle
 62
7
  6
CONTINUOUS
 10
437.7016008316
 20
0.0064864865
 40
500.0
100
AcDbArc
 50
177.6430511191
 51
182.3569488367
  0
ARC
  5
6E9
100
AcDbEntity
  8
RACCORDO
100
AcDbCircle
 62
253
  6
CONTINUOUS
 10
437.6928934863
 20
0.0064864865
 40
499.500018842
100
AcDbArc
 50
177.6430500982
 51
182.3569499018
  0
SPLINE
  5
6EA
100
AcDbEntity
  8
RACCORDO
100
AcDbSpline
 62
7
  6
CONTINUOUS
 70
0
 71
3
 72
13
 73
9
 74
7
 42
0.0000001
 43
0.0000001
 44
0.0000000001
 12
0.4498518802
 22
0.0034684604
 32
0.0
 13
0.3802055312
 23
0.2404630915
 33
0.0
 40
0.0
 40
0.0
 40
0.0
 40
0.0
 40
0.0927825722
 40
0.2002249592
 40
0.3193337266
 40
0.4469748975
 40
0.7183371303
 40
1.0
 40
1.0
 40
1.0
 40
1.0
 10
53.3230130606
 20
-23.7888524804
 30
0.0
 10
53.3369258654
 20
-23.7887452095
 30
0.0
 10
53.3668330812
 20
-23.7833144699
 30
0.0
 10
53.4119651241
 20
-23.7671897319
 30
0.0
 10
53.4602085639
 20
-23.7448274129
 30
0.0
 10
53.5287918681
 20
-23.7082884787
 30
0.0
 10
53.6163563089
 20
-23.6557525849
 30
0.0
 10
53.6864411572
 20
-23.6114323731
 30
0.0
 10
53.7221377508
 20
-23.588855865
 30
0.0
 11
53.3230130606
 21
-23.7888524804
 31
0.0
 11
53.3642978606
 21
-23.7827072301
 31
0.0
 11
53.4100551491
 21
-23.767134698
 31
0.0
 11
53.458825877
 21
-23.7449413927
 31
0.0
 11
53.5096151345
 21
-23.7181522127
 31
0.0
 11
53.6147761612
 21
-23.6561537011
 31
0.0
 11
53.7221377508
 21
-23.588855865
 31
0.0
  0
SPLINE
  5
6EB
100
AcDbEntity
  8
RACCORDO
100
AcDbSpline
 62
7
  6
CONTINUOUS
 70
0
 71
3
 72
13
 73
9
 74
7
 42
0.0000001
 43
0.0000001
 44
0.0000000001
 12
-0.4498518802
 22
0.0034684604
 32
0.0
 13
-0.3802055312
 23
0.2404630915
 33
0.0
 40
0.0
 40
0.0
 40
0.0
 40
0.0
 40
0.0927825722
 40
0.2002249592
 40
0.3193337266
 40
0.4469748975
 40
0.7183371303
 40
1.0
 40
1.0
 40
1.0
 40
1.0
 10
61.9154276879
 20
-23.7888524804
 30
0.0
 10
61.901514883
 20
-23.7887452095
 30
0.0
 10
61.8716076672
 20
-23.7833144699
 30
0.0
 10
61.8264756244
 20
-23.7671897319
 30
0.0
 10
61.7782321846
 20
-23.7448274129
 30
0.0
 10
61.7096488804
 20
-23.7082884787
 30
0.0
 10
61.6220844395
 20
-23.6557525849
 30
0.0
 10
61.5519995913
 20
-23.6114323731
 30
0.0
 10
61.5163029976
 20
-23.588855865
 30
0.0
 11
61.9154276879
 21
-23.7888524804
 31
0.0
 11
61.8741428879
 21
-23.7827072301
 31
0.0
 11
61.8283855993
 21
-23.767134698
 31
0.0
 11
61.7796148714
 21
-23.7449413927
 31
0.0
 11
61.7288256139
 21
-23.7181522127
 31
0.0
 11
61.6236645873
 21
-23.6561537011
 31
0.0
 11
61.5163029976
 21
-23.588855865
 31
0.0
  0
SPLINE
  5
6EC
100
AcDbEntity
  8
RACCORDO
100
AcDbSpline
 62
7
  6
CONTINUOUS
 70
0
 71
3
 72
13
 73
9
 74
7
 42
0.0000001
 43
0.0000001
 44
0.0000000001
 12
-0.4498518802
 22
-0.0034684604
 32
0.0
 13
-0.3802055312
 23
-0.2404630915
 33
0.0
 40
0.0
 40
0.0
 40
0.0
 40
0.0
 40
0.0927825722
 40
0.2002249592
 40
0.3193337266
 40
0.4469748975
 40
0.7183371303
 40
1.0
 40
1.0
 40
1.0
 40
1.0
 10
16.9154276879
 20
23.8018254533
 30
0.0
 10
16.901514883
 20
23.8017181824
 30
0.0
 10
16.8716076672
 20
23.7962874428
 30
0.0
 10
16.8264756244
 20
23.7801627048
 30
0.0
 10
16.7782321846
 20
23.7578003859
 30
0.0
 10
16.7096488804
 20
23.7212614517
 30
0.0
 10
16.6220844395
 20
23.6687255578
 30
0.0
 10
16.5519995913
 20
23.6244053461
 30
0.0
 10
16.5163029976
 20
23.601828838
 30
0.0
 11
16.9154276879
 21
23.8018254533
 31
0.0
 11
16.8741428879
 21
23.795680203
 31
0.0
 11
16.8283855993
 21
23.7801076709
 31
0.0
 11
16.7796148714
 21
23.7579143657
 31
0.0
 11
16.7288256139
 21
23.7311251856
 31
0.0
 11
16.6236645873
 21
23.669126674
 31
0.0
 11
16.5163029976
 21
23.601828838
 31
0.0
  0
SPLINE
  5
6ED
100
AcDbEntity
  8
RACCORDO
100
AcDbSpline
 62
7
  6
CONTINUOUS
 70
0
 71
3
 72
13
 73
9
 74
7
 42
0.0000001
 43
0.0000001
 44
0.0000000001
 12
0.4498518802
 22
-0.0034684604
 32
0.0
 13
0.3802055312
 23
-0.2404630915
 33
0.0
 40
0.0
 40
0.0
 40
0.0
 40
0.0
 40
0.0927825722
 40
0.2002249592
 40
0.3193337266
 40
0.4469748975
 40
0.7183371303
 40
1.0
 40
1.0
 40
1.0
 40
1.0
 10
8.3230130606
 20
23.8018254533
 30
0.0
 10
8.3369258654
 20
23.8017181824
 30
0.0
 10
8.3668330812
 20
23.7962874428
 30
0.0
 10
8.4119651241
 20
23.7801627048
 30
0.0
 10
8.4602085639
 20
23.7578003859
 30
0.0
 10
8.5287918681
 20
23.7212614517
 30
0.0
 10
8.6163563089
 20
23.6687255578
 30
0.0
 10
8.6864411572
 20
23.6244053461
 30
0.0
 10
8.7221377508
 20
23.601828838
 30
0.0
 11
8.3230130606
 21
23.8018254533
 31
0.0
 11
8.3642978606
 21
23.795680203
 31
0.0
 11
8.4100551491
 21
23.7801076709
 31
0.0
 11
8.458825877
 21
23.7579143657
 31
0.0
 11
8.5096151345
 21
23.7311251856
 31
0.0
 11
8.6147761612
 21
23.669126674
 31
0.0
 11
8.7221377508
 21
23.601828838
 31
0.0
  0
SPLINE
  5
6EE
100
AcDbEntity
  8
RACCORDO
100
AcDbSpline
 62
7
  6
CONTINUOUS
 70
0
 71
3
 72
13
 73
9
 74
7
 42
0.0000001
 43
0.0000001
 44
0.0000000001
 12
0.4498518802
 22
0.0034684604
 32
0.0
 13
0.3802055312
 23
0.2404630915
 33
0.0
 40
0.0
 40
0.0
 40
0.0
 40
0.0
 40
0.0927825722
 40
0.2002249592
 40
0.3193337266
 40
0.4469748975
 40
0.7183371303
 40
1.0
 40
1.0
 40
1.0
 40
1.0
 10
8.3230130606
 20
-23.7888524804
 30
0.0
 10
8.3369258654
 20
-23.7887452095
 30
0.0
 10
8.3668330812
 20
-23.7833144699
 30
0.0
 10
8.4119651241
 20
-23.7671897319
 30
0.0
 10
8.4602085639
 20
-23.7448274129
 30
0.0
 10
8.5287918681
 20
-23.7082884787
 30
0.0
 10
8.6163563089
 20
-23.6557525849
 30
0.0
 10
8.6864411572
 20
-23.6114323731
 30
0.0
 10
8.7221377508
 20
-23.588855865
 30
0.0
 11
8.3230130606
 21
-23.7888524804
 31
0.0
 11
8.3642978606
 21
-23.7827072301
 31
0.0
 11
8.4100551491
 21
-23.767134698
 31
0.0
 11
8.458825877
 21
-23.7449413927
 31
0.0
 11
8.5096151345
 21
-23.7181522127
 31
0.0
 11
8.6147761612
 21
-23.6561537011
 31
0.0
 11
8.7221377508
 21
-23.588855865
 31
0.0
  0
SPLINE
  5
6EF
100
AcDbEntity
  8
RACCORDO
100
AcDbSpline
 62
7
  6
CONTINUOUS
 70
0
 71
3
 72
13
 73
9
 74
7
 42
0.0000001
 43
0.0000001
 44
0.0000000001
 12
-0.4498518802
 22
0.0034684604
 32
0.0
 13
-0.3802055312
 23
0.2404630915
 33
0.0
 40
0.0
 40
0.0
 40
0.0
 40
0.0
 40
0.0927825722
 40
0.2002249592
 40
0.3193337266
 40
0.4469748975
 40
0.7183371303
 40
1.0
 40
1.0
 40
1.0
 40
1.0
 10
16.9154276879
 20
-23.7888524804
 30
0.0
 10
16.901514883
 20
-23.7887452095
 30
0.0
 10
16.8716076672
 20
-23.7833144699
 30
0.0
 10
16.8264756244
 20
-23.7671897319
 30
0.0
 10
16.7782321846
 20
-23.7448274129
 30
0.0
 10
16.7096488804
 20
-23.7082884787
 30
0.0
 10
16.6220844395
 20
-23.6557525849
 30
0.0
 10
16.5519995913
 20
-23.6114323731
 30
0.0
 10
16.5163029976
 20
-23.588855865
 30
0.0
 11
16.9154276879
 21
-23.7888524804
 31
0.0
 11
16.8741428879
 21
-23.7827072301
 31
0.0
 11
16.8283855993
 21
-23.767134698
 31
0.0
 11
16.7796148714
 21
-23.7449413927
 31
0.0
 11
16.7288256139
 21
-23.7181522127
 31
0.0
 11
16.6236645873
 21
-23.6561537011
 31
0.0
 11
16.5163029976
 21
-23.588855865
 31
0.0
  0
SPLINE
  5
6F0
100
AcDbEntity
  8
RACCORDO
100
AcDbSpline
 62
7
  6
CONTINUOUS
 70
0
 71
3
 72
15
 73
11
 74
9
 42
0.0000001
 43
0.0000001
 44
0.0000000001
 12
-0.0031667934
 22
0.3142744787
 32
0.0
 13
-0.3142904334
 23
0.0
 33
0.0
 40
0.0
 40
0.0
 40
0.0
 40
0.0
 40
0.0847645112
 40
0.1757885562
 40
0.2779059284
 40
0.3943071028
 40
0.5264306674
 40
0.6737385869
 40
0.8333592401
 40
1.0
 40
1.0
 40
1.0
 40
1.0
 10
68.2619396253
 20
-23.2605008116
 30
0.0
 10
68.2618501481
 20
-23.2516210374
 30
0.0
 10
68.2586198301
 20
-23.2331271327
 30
0.0
 10
68.2451183746
 20
-23.2069289414
 30
0.0
 10
68.2233251223
 20
-23.1825305007
 30
0.0
 10
68.1935758231
 20
-23.1606201868
 30
0.0
 10
68.1563347754
 20
-23.1419954045
 30
0.0
 10
68.112493638
 20
-23.1275914347
 30
0.0
 10
68.063611908
 20
-23.1184315258
 30
0.0
 10
68.0294017216
 20
-23.1161632443
 30
0.0
 10
68.0119438561
 20
-23.1161632443
 30
0.0
 11
68.2619396253
 21
-23.2605008116
 31
0.0
 11
68.2575002162
 21
-23.234232633
 31
0.0
 11
68.2447212057
 21
-23.2086374423
 31
0.0
 11
68.2236417878
 21
-23.1844358738
 31
0.0
 11
68.1944059701
 21
-23.1624440663
 31
0.0
 11
68.1574028208
 21
-23.1435997865
 31
0.0
 11
68.1134851592
 21
-23.128947322
 31
0.0
 11
68.0642088129
 21
-23.1195348784
 31
0.0
 11
68.0119438561
 21
-23.1161632443
 31
0.0
  0
SPLINE
  5
6F1
100
AcDbEntity
  8
RACCORDO
100
AcDbSpline
 62
253
  6
CONTINUOUS
 70
0
 71
3
 72
13
 73
9
 74
7
 42
0.0000001
 43
0.0000001
 44
0.0000000001
 12
-0.0012265943
 22
0.3651869702
 32
0.0
 13
-0.3651878714
 23
0.0009199792
 33
0.0
 40
0.0
 40
0.0
 40
0.0
 40
0.0
 40
0.1162393822
 40
0.2339783948
 40
0.3543711753
 40
0.4780981574
 40
0.7345378061
 40
1.0
 40
1.0
 40
1.0
 40
1.0
 10
68.2561217955
 20
-23.8378510808
 30
0.0
 10
68.2560742693
 20
-23.8237013782
 30
0.0
 10
68.2527157363
 20
-23.7951283732
 30
0.0
 10
68.2381591664
 20
-23.7541680422
 30
0.0
 10
68.2146882942
 20
-23.7164962547
 30
0.0
 10
68.1723855723
 20
-23.6721345091
 30
0.0
 10
68.1024592969
 20
-23.6323003182
 30
0.0
 10
68.0384405508
 20
-23.6214261364
 30
0.0
 10
68.0061260263
 20
-23.6213447299
 30
0.0
 11
68.2561217955
 21
-23.8378510808
 31
0.0
 11
68.2511940751
 21
-23.7956887202
 31
0.0
 11
68.2368835812
 21
-23.7551430495
 31
0.0
 11
68.2137379175
 21
-23.7177625973
 31
0.0
 11
68.1826430182
 21
-23.6849803264
 31
0.0
 11
68.1016274632
 21
-23.6380058115
 31
0.0
 11
68.0061260263
 21
-23.6213447299
 31
0.0
  0
SPLINE
  5
6F2
100
AcDbEntity
  8
RACCORDO
100
AcDbSpline
 62
253
  6
CONTINUOUS
 70
0
 71
3
 72
9
 73
5
 74
3
 42
0.0000001
 43
0.0000001
 44
0.0000000001
 12
0.0295164818
 22
-41.1249083017
 32
0.0
 13
-0.0295164818
 23
-41.1249083017
 33
0.0
 40
0.0
 40
0.0
 40
0.0
 40
0.0
 40
0.2499471355
 40
1.0
 40
1.0
 40
1.0
 40
1.0
 10
2.1364711887
 20
20.5689451341
 30
0.0
 10
2.1389303753
 20
17.1425941244
 30
0.0
 10
2.1463053336
 20
3.4342897002
 30
0.0
 10
2.1438508295
 20
-10.2740200179
 30
0.0
 10
2.1364711889
 20
-20.5559717755
 30
0.0
 11
2.1364711887
 21
20.5689451341
 31
0.0
 11
2.1420029931
 21
10.289890946
 31
0.0
 11
2.1364711889
 21
-20.5559717755
 31
0.0
  0
SPLINE
  5
6F3
100
AcDbEntity
  8
RACCORDO
100
AcDbSpline
 62
253
  6
CONTINUOUS
 70
0
 71
3
 72
13
 73
9
 74
7
 42
0.0000001
 43
0.0000001
 44
0.0000000001
 12
0.0012265943
 22
0.3651869702
 32
0.0
 13
0.3651878714
 23
0.0009199792
 33
0.0
 40
0.0
 40
0.0
 40
0.0
 40
0.0
 40
0.1162393822
 40
0.2339783948
 40
0.3543711753
 40
0.4780981574
 40
0.7345378061
 40
1.0
 40
1.0
 40
1.0
 40
1.0
 10
65.8823189529
 20
-23.8378510808
 30
0.0
 10
65.8823664791
 20
-23.8237013782
 30
0.0
 10
65.8857250122
 20
-23.7951283732
 30
0.0
 10
65.9002815821
 20
-23.7541680422
 30
0.0
 10
65.9237524542
 20
-23.7164962547
 30
0.0
 10
65.9660551762
 20
-23.6721345091
 30
0.0
 10
66.0359814515
 20
-23.6323003182
 30
0.0
 10
66.1000001976
 20
-23.6214261364
 30
0.0
 10
66.1323147222
 20
-23.6213447299
 30
0.0
 11
65.8823189529
 21
-23.8378510808
 31
0.0
 11
65.8872466733
 21
-23.7956887202
 31
0.0
 11
65.9015571673
 21
-23.7551430495
 31
0.0
 11
65.9247028309
 21
-23.7177625973
 31
0.0
 11
65.9557977303
 21
-23.6849803264
 31
0.0
 11
66.0368132853
 21
-23.6380058115
 31
0.0
 11
66.1323147222
 21
-23.6213447299
 31
0.0
  0
SPLINE
  5
6F4
100
AcDbEntity
  8
RACCORDO
100
AcDbSpline
 62
7
  6
CONTINUOUS
 70
0
 71
3
 72
15
 73
11
 74
9
 42
0.0000001
 43
0.0000001
 44
0.0000000001
 12
0.0031741023
 22
0.314999815
 32
0.0
 13
0.3150158065
 23
0.0
 33
0.0
 40
0.0
 40
0.0
 40
0.0
 40
0.0
 40
0.0847170201
 40
0.1757101917
 40
0.2778229544
 40
0.3942475014
 40
0.526415195
 40
0.6737696629
 40
0.833407897
 40
1.0
 40
1.0
 40
1.0
 40
1.0
 10
65.8765011231
 20
-23.2605008116
 30
0.0
 10
65.8765907566
 20
-23.2516055297
 30
0.0
 10
65.8798327647
 20
-23.2330769795
 30
0.0
 10
65.8933818949
 20
-23.2068357289
 30
0.0
 10
65.9152499937
 20
-23.1824039829
 30
0.0
 10
65.9450989523
 20
-23.1604739189
 30
0.0
 10
65.9824599729
 20
-23.141845821
 30
0.0
 10
66.0264325368
 20
-23.1274685248
 30
0.0
 10
66.0754407787
 20
-23.1183327898
 30
0.0
 10
66.1097310725
 20
-23.1161632443
 30
0.0
 10
66.1272241211
 20
-23.1161632443
 30
0.0
 11
65.8765011231
 21
-23.2605008116
 31
0.0
 11
65.8809553208
 21
-23.2341879481
 31
0.0
 11
65.8937777616
 21
-23.2085515212
 31
0.0
 11
65.9149289006
 21
-23.184316137
 31
0.0
 11
65.9442632545
 21
-23.162302657
 31
0.0
 11
65.9813875556
 21
-23.1434545214
 31
0.0
 11
66.0254398649
 21
-23.1288218061
 31
0.0
 11
66.0748482747
 21
-23.1194543615
 31
0.0
 11
66.1272241211
 21
-23.1161632443
 31
0.0
  0
SPLINE
  5
6F5
100
AcDbEntity
  8
RACCORDO
100
AcDbSpline
 62
253
  6
CONTINUOUS
 70
0
 71
3
 72
21
 73
17
 74
15
 42
0.0000001
 43
0.0000001
 44
0.0000000001
 12
-0.3026157355
 22
0.90884332
 32
0.0
 13
-0.0006884553
 23
0.9578997806
 33
0.0
 40
0.0
 40
0.0
 40
0.0
 40
0.0
 40
0.003727475
 40
0.0096318688
 40
0.0177210035
 40
0.0279838937
 40
0.0549523423
 40
0.0903217715
 40
0.1337965323
 40
0.1850094346
 40
0.243526282
 40
0.308850042
 40
0.4576431041
 40
0.6263351962
 40
0.8091928421
 40
1.0
 40
1.0
 40
1.0
 40
1.0
 10
68.618420184
 20
-21.4929239681
 30
0.0
 10
68.6180441864
 20
-21.4917947379
 30
0.0
 10
68.617459664
 20
-21.4887607334
 30
0.0
 10
68.6166929015
 20
-21.483160224
 30
0.0
 10
68.6159317808
 20
-21.4754484279
 30
0.0
 10
68.6147974829
 20
-21.4610232529
 30
0.0
 10
68.6134866591
 20
-21.437875686
 30
0.0
 10
68.6120312863
 20
-21.404121382
 30
0.0
 10
68.6106277631
 20
-21.3626171171
 30
0.0
 10
68.6092861019
 20
-21.3137172051
 30
0.0
 10
68.6080240433
 20
-21.2578366541
 30
0.0
 10
68.6063921324
 20
-21.1707998719
 30
0.0
 10
68.6046908067
 20
-21.0485801349
 30
0.0
 10
68.6031890084
 20
-20.88882735
 30
0.0
 10
68.6022121351
 20
-20.7156551834
 30
0.0
 10
68.6019372007
 20
-20.5963440816
 30
0.0
 10
68.6018934133
 20
-20.53541937
 30
0.0
 11
68.618420184
 21
-21.4929239681
 31
0.0
 11
68.6176168984
 21
-21.4894449527
 31
0.0
 11
68.6168170546
 21
-21.4838459762
 31
0.0
 11
68.6160226291
 21
-21.4761382257
 31
0.0
 11
68.6152353229
 21
-21.4663389795
 31
0.0
 11
68.6136885205
 21
-21.4405522522
 31
0.0
 11
68.6121897765
 21
-21.4067050408
 31
0.0
 11
68.610751876
 21
-21.3650853975
 31
0.0
 11
68.6093870595
 21
-21.3160475459
 31
0.0
 11
68.6081069574
 21
-21.2600088751
 31
0.0
 11
68.6069224761
 21
-21.1974464553
 31
0.0
 11
68.6048798547
 21
-21.0549322144
 31
0.0
 11
68.6033286941
 21
-20.8933494999
 31
0.0
 11
68.6023217881
 21
-20.7181930499
 31
0.0
 11
68.6018934133
 21
-20.53541937
 31
0.0
  0
SPLINE
  5
6F6
100
AcDbEntity
  8
RACCORDO
100
AcDbSpline
 62
253
  6
CONTINUOUS
 70
0
 71
3
 72
9
 73
5
 74
3
 42
0.0000001
 43
0.0000001
 44
0.0000000001
 12
-0.0295164959
 22
41.0838030965
 32
0.0
 13
0.029516496
 23
41.0838030965
 33
0.0
 40
0.0
 40
0.0
 40
0.0
 40
0.0
 40
0.2499471355
 40
1.0
 40
1.0
 40
1.0
 40
1.0
 10
68.6018934133
 20
-20.53541937
 30
0.0
 10
68.5994342255
 20
-17.1124930702
 30
0.0
 10
68.5920592594
 20
-3.4178903794
 30
0.0
 10
68.5945137692
 20
10.2767176106
 30
0.0
 10
68.6018934133
 20
20.548392343
 30
0.0
 11
68.6018934133
 21
-20.53541937
 31
0.0
 11
68.5963616046
 21
-10.2666393103
 31
0.0
 11
68.6018934133
 21
20.548392343
 31
0.0
  0
SPLINE
  5
6F7
100
AcDbEntity
  8
RACCORDO
100
AcDbSpline
 62
253
  6
CONTINUOUS
 70
0
 71
3
 72
21
 73
17
 74
15
 42
0.0000001
 43
0.0000001
 44
0.0000000001
 12
0.0006884481
 22
0.9578997805
 32
0.0
 13
0.3026134789
 23
0.9088440713
 33
0.0
 40
0.0
 40
0.0
 40
0.0
 40
0.0
 40
0.1908071608
 40
0.3736648056
 40
0.542356897
 40
0.6911499581
 40
0.7564737173
 40
0.8149905641
 40
0.8662034654
 40
0.9096782261
 40
0.9450476543
 40
0.9720160999
 40
0.982278997
 40
0.9903681332
 40
0.9962725196
 40
1.0
 40
1.0
 40
1.0
 40
1.0
 10
68.6018934133
 20
20.548392343
 30
0.0
 10
68.6019372003
 20
20.6093170555
 30
0.0
 10
68.6022121351
 20
20.7286281578
 30
0.0
 10
68.6031890084
 20
20.9018003248
 30
0.0
 10
68.6046908067
 20
21.0615531088
 30
0.0
 10
68.6063921324
 20
21.183772845
 30
0.0
 10
68.6080240433
 20
21.2708096265
 30
0.0
 10
68.6092861019
 20
21.3266901766
 30
0.0
 10
68.6106277631
 20
21.375590088
 30
0.0
 10
68.6120312864
 20
21.4170943522
 30
0.0
 10
68.6134866588
 20
21.450848655
 30
0.0
 10
68.6147974837
 20
21.4739962228
 30
0.0
 10
68.6159317806
 20
21.4884213997
 30
0.0
 10
68.6166929012
 20
21.4961331959
 30
0.0
 10
68.6174596637
 20
21.5017337055
 30
0.0
 10
68.6180441887
 20
21.5047677083
 30
0.0
 10
68.618420184
 20
21.5058969411
 30
0.0
 11
68.6018934133
 21
20.548392343
 31
0.0
 11
68.602321788
 21
20.7311660257
 31
0.0
 11
68.6033286941
 21
20.9063224746
 31
0.0
 11
68.6048798547
 21
21.0679051884
 31
0.0
 11
68.6069224761
 21
21.2104194284
 31
0.0
 11
68.6081069574
 21
21.2729818474
 31
0.0
 11
68.6093870595
 21
21.3290205176
 31
0.0
 11
68.610751876
 21
21.3780583681
 31
0.0
 11
68.6121897765
 21
21.4196780113
 31
0.0
 11
68.6136885205
 21
21.4535252219
 31
0.0
 11
68.6152353229
 21
21.4793119463
 31
0.0
 11
68.6160226292
 21
21.4891111991
 31
0.0
 11
68.6168170546
 21
21.496818951
 31
0.0
 11
68.6176168984
 21
21.5024179204
 31
0.0
 11
68.618420184
 21
21.5058969411
 31
0.0
  0
SPLINE
  5
6F8
100
AcDbEntity
  8
RACCORDO
100
AcDbSpline
 62
253
  6
CONTINUOUS
 70
0
 71
3
 72
21
 73
17
 74
15
 42
0.0000001
 43
0.0000001
 44
0.0000000001
 12
0.3026134778
 22
-0.9088440716
 32
0.0
 13
0.0006884481
 23
-0.9578997805
 33
0.0
 40
0.0
 40
0.0
 40
0.0
 40
0.0
 40
0.0037274804
 40
0.0096318668
 40
0.017721003
 40
0.0279839001
 40
0.0549523457
 40
0.0903217739
 40
0.1337965346
 40
0.1850094359
 40
0.2435262827
 40
0.3088500419
 40
0.457643103
 40
0.6263351944
 40
0.8091928392
 40
1.0
 40
1.0
 40
1.0
 40
1.0
 10
1.6200205645
 20
21.5058969411
 30
0.0
 10
1.6203965597
 20
21.5047677083
 30
0.0
 10
1.6209810847
 20
21.5017337055
 30
0.0
 10
1.6217478473
 20
21.4961331959
 30
0.0
 10
1.6225089678
 20
21.4884213997
 30
0.0
 10
1.6236432647
 20
21.4739962228
 30
0.0
 10
1.6249540897
 20
21.450848655
 30
0.0
 10
1.626409462
 20
21.4170943522
 30
0.0
 10
1.6278129853
 20
21.375590088
 30
0.0
 10
1.6291546466
 20
21.3266901766
 30
0.0
 10
1.6304167051
 20
21.2708096265
 30
0.0
 10
1.632048616
 20
21.183772845
 30
0.0
 10
1.6337499418
 20
21.0615531088
 30
0.0
 10
1.6352517401
 20
20.9018003248
 30
0.0
 10
1.6362286134
 20
20.7286281578
 30
0.0
 10
1.6365035482
 20
20.6093170555
 30
0.0
 10
1.6365473351
 20
20.548392343
 30
0.0
 11
1.6200205645
 21
21.5058969411
 31
0.0
 11
1.6208238501
 21
21.5024179204
 31
0.0
 11
1.6216236938
 21
21.496818951
 31
0.0
 11
1.6224181193
 21
21.4891111991
 31
0.0
 11
1.6232054255
 21
21.4793119463
 31
0.0
 11
1.6247522279
 21
21.4535252219
 31
0.0
 11
1.6262509719
 21
21.4196780113
 31
0.0
 11
1.6276888725
 21
21.3780583681
 31
0.0
 11
1.6290536889
 21
21.3290205176
 31
0.0
 11
1.6303337911
 21
21.2729818474
 31
0.0
 11
1.6315182724
 21
21.2104194284
 31
0.0
 11
1.6335608937
 21
21.0679051884
 31
0.0
 11
1.6351120544
 21
20.9063224746
 31
0.0
 11
1.6361189605
 21
20.7311660257
 31
0.0
 11
1.6365473351
 21
20.548392343
 31
0.0
  0
SPLINE
  5
6F9
100
AcDbEntity
  8
RACCORDO
100
AcDbSpline
 62
253
  6
CONTINUOUS
 70
0
 71
3
 72
9
 73
5
 74
3
 42
0.0000001
 43
0.0000001
 44
0.0000000001
 12
0.029516496
 22
-41.0838030965
 32
0.0
 13
-0.0295164959
 23
-41.0838030965
 33
0.0
 40
0.0
 40
0.0
 40
0.0
 40
0.0
 40
0.2499471355
 40
1.0
 40
1.0
 40
1.0
 40
1.0
 10
1.6365473351
 20
20.548392343
 30
0.0
 10
1.639006523
 20
17.1254660431
 30
0.0
 10
1.646381489
 20
3.4308633524
 30
0.0
 10
1.6439269792
 20
-10.2637446377
 30
0.0
 10
1.6365473351
 20
-20.53541937
 30
0.0
 11
1.6365473351
 21
20.548392343
 31
0.0
 11
1.6420791438
 21
10.2796122833
 31
0.0
 11
1.6365473351
 21
-20.53541937
 31
0.0
  0
SPLINE
  5
6FA
100
AcDbEntity
  8
RACCORDO
100
AcDbSpline
 62
253
  6
CONTINUOUS
 70
0
 71
3
 72
21
 73
17
 74
15
 42
0.0000001
 43
0.0000001
 44
0.0000000001
 12
-0.0006884553
 22
-0.9578997806
 32
0.0
 13
-0.3026157366
 23
-0.9088433196
 33
0.0
 40
0.0
 40
0.0
 40
0.0
 40
0.0
 40
0.1908071579
 40
0.3736648038
 40
0.5423568959
 40
0.691149958
 40
0.756473718
 40
0.8149905653
 40
0.8662034677
 40
0.9096782285
 40
0.9450476577
 40
0.9720161063
 40
0.9822789965
 40
0.9903681312
 40
0.996272525
 40
1.0
 40
1.0
 40
1.0
 40
1.0
 10
1.6365473351
 20
-20.53541937
 30
0.0
 10
1.6365035477
 20
-20.5963440816
 30
0.0
 10
1.6362286134
 20
-20.7156551834
 30
0.0
 10
1.63525174
 20
-20.88882735
 30
0.0
 10
1.6337499418
 20
-21.0485801349
 30
0.0
 10
1.632048616
 20
-21.1707998719
 30
0.0
 10
1.6304167051
 20
-21.2578366541
 30
0.0
 10
1.6291546466
 20
-21.3137172051
 30
0.0
 10
1.6278129853
 20
-21.3626171171
 30
0.0
 10
1.6264094621
 20
-21.404121382
 30
0.0
 10
1.6249540893
 20
-21.437875686
 30
0.0
 10
1.6236432655
 20
-21.4610232529
 30
0.0
 10
1.6225089676
 20
-21.4754484279
 30
0.0
 10
1.6217478469
 20
-21.483160224
 30
0.0
 10
1.6209810845
 20
-21.4887607334
 30
0.0
 10
1.620396562
 20
-21.4917947379
 30
0.0
 10
1.6200205645
 20
-21.4929239681
 30
0.0
 11
1.6365473351
 21
-20.53541937
 31
0.0
 11
1.6361189604
 21
-20.7181930499
 31
0.0
 11
1.6351120543
 21
-20.8933494999
 31
0.0
 11
1.6335608937
 21
-21.0549322144
 31
0.0
 11
1.6315182724
 21
-21.1974464553
 31
0.0
 11
1.6303337911
 21
-21.2600088751
 31
0.0
 11
1.6290536889
 21
-21.3160475459
 31
0.0
 11
1.6276888725
 21
-21.3650853975
 31
0.0
 11
1.626250972
 21
-21.4067050408
 31
0.0
 11
1.6247522279
 21
-21.4405522522
 31
0.0
 11
1.6232054256
 21
-21.4663389795
 31
0.0
 11
1.6224181193
 21
-21.4761382257
 31
0.0
 11
1.6216236938
 21
-21.4838459762
 31
0.0
 11
1.6208238501
 21
-21.4894449527
 31
0.0
 11
1.6200205645
 21
-21.4929239681
 31
0.0
  0
SPLINE
  5
6FB
100
AcDbEntity
  8
RACCORDO
100
AcDbSpline
 62
253
  6
CONTINUOUS
 70
0
 71
3
 72
21
 73
17
 74
15
 42
0.0000001
 43
0.0000001
 44
0.0000000001
 12
0.0006883482
 22
1.4365311971
 32
0.0
 13
0.3113397839
 23
1.4023872122
 33
0.0
 40
0.0
 40
0.0
 40
0.0
 40
0.0
 40
0.1908434829
 40
0.3737363731
 40
0.5424609896
 40
0.6912810589
 40
0.7566149431
 40
0.8151387803
 40
0.8663546553
 40
0.9098271692
 40
0.9451874003
 40
0.972136605
 40
0.982383946
 40
0.990451568
 40
0.9963246174
 40
1.0
 40
1.0
 40
1.0
 40
1.0
 10
68.1019695556
 20
20.568945134
 30
0.0
 10
68.1020133445
 20
20.6603293397
 30
0.0
 10
68.1022882374
 20
20.839290631
 30
0.0
 10
68.1032650447
 20
21.0990431092
 30
0.0
 10
68.1047667615
 20
21.338670083
 30
0.0
 10
68.1064680259
 20
21.5220016733
 30
0.0
 10
68.108099939
 20
21.6525616377
 30
0.0
 10
68.1093619786
 20
21.7363851863
 30
0.0
 10
68.110703668
 20
21.8097377078
 30
0.0
 10
68.1121070726
 20
21.871995391
 30
0.0
 10
68.1135625948
 20
21.9226272451
 30
0.0
 10
68.1148728046
 20
21.9573481572
 30
0.0
 10
68.116007897
 20
21.9789919839
 30
0.0
 10
68.116767259
 20
21.9905524136
 30
0.0
 10
68.1175356797
 20
21.9989484297
 30
0.0
 10
68.1181150214
 20
22.0034941295
 30
0.0
 10
68.1184964523
 20
22.0052122326
 30
0.0
 11
68.1019695556
 21
20.568945134
 31
0.0
 11
68.1023978878
 21
20.8430974479
 31
0.0
 11
68.1034047255
 21
21.1058268913
 31
0.0
 11
68.1049558159
 21
21.3482001313
 31
0.0
 11
68.1069983948
 21
21.5619750702
 31
0.0
 11
68.1081828734
 21
21.6558217692
 31
0.0
 11
68.1094629867
 21
21.7398833504
 31
0.0
 11
68.110827832
 21
21.8134439005
 31
0.0
 11
68.1122657736
 21
21.8758769732
 31
0.0
 11
68.1137645757
 21
21.9266509372
 31
0.0
 11
68.1153114544
 21
21.9653333982
 31
0.0
 11
68.1160987767
 21
21.9800329551
 31
0.0
 11
68.1168932383
 21
21.9915950846
 31
0.0
 11
68.117693147
 21
21.9999938983
 31
0.0
 11
68.1184964523
 21
22.0052122326
 31
0.0
  0
SPLINE
  5
6FC
100
AcDbEntity
  8
RACCORDO
100
AcDbSpline
 62
253
  6
CONTINUOUS
 70
0
 71
3
 72
21
 73
17
 74
15
 42
0.0000001
 43
0.0000001
 44
0.0000000001
 12
0.3113397843
 22
-1.402387212
 32
0.0
 13
0.0006883482
 23
-1.436531197
 33
0.0
 40
0.0
 40
0.0
 40
0.0
 40
0.0
 40
0.0036753826
 40
0.009548432
 40
0.017616054
 40
0.027863395
 40
0.0548125997
 40
0.0901728307
 40
0.1336453446
 40
0.1848612197
 40
0.2433850569
 40
0.3087189411
 40
0.4575390104
 40
0.6262636269
 40
0.809156517
 40
1.0
 40
1.0
 40
1.0
 40
1.0
 10
2.1199442961
 20
22.0052122327
 30
0.0
 10
2.1203257271
 20
22.0034941295
 30
0.0
 10
2.1209050688
 20
21.9989484297
 30
0.0
 10
2.1216734895
 20
21.9905524137
 30
0.0
 10
2.1224328514
 20
21.9789919839
 30
0.0
 10
2.1235679438
 20
21.9573481572
 30
0.0
 10
2.1248781537
 20
21.9226272451
 30
0.0
 10
2.1263336758
 20
21.871995391
 30
0.0
 10
2.1277370805
 20
21.8097377078
 30
0.0
 10
2.1290787699
 20
21.7363851864
 30
0.0
 10
2.1303408094
 20
21.6525616377
 30
0.0
 10
2.1319727225
 20
21.5220016734
 30
0.0
 10
2.1336739869
 20
21.3386700831
 30
0.0
 10
2.1351757038
 20
21.0990431093
 30
0.0
 10
2.1361525111
 20
20.8392906311
 30
0.0
 10
2.1364274039
 20
20.6603293398
 30
0.0
 10
2.1364711929
 20
20.5689451341
 30
0.0
 11
2.1199442961
 21
22.0052122327
 31
0.0
 11
2.1207476014
 21
21.9999938983
 31
0.0
 11
2.1215475101
 21
21.9915950846
 31
0.0
 11
2.1223419718
 21
21.9800329551
 31
0.0
 11
2.1231292941
 21
21.9653333982
 31
0.0
 11
2.1246761727
 21
21.9266509372
 31
0.0
 11
2.1261749749
 21
21.8758769732
 31
0.0
 11
2.1276129165
 21
21.8134439005
 31
0.0
 11
2.1289777618
 21
21.7398833505
 31
0.0
 11
2.130257875
 21
21.6558217693
 31
0.0
 11
2.1314423536
 21
21.5619750702
 31
0.0
 11
2.1334849325
 21
21.3482001313
 31
0.0
 11
2.1350360229
 21
21.1058268914
 31
0.0
 11
2.1360428606
 21
20.843097448
 31
0.0
 11
2.1364711929
 21
20.5689451341
 31
0.0
  0
SPLINE
  5
6FD
100
AcDbEntity
  8
RACCORDO
100
AcDbSpline
 62
253
  6
CONTINUOUS
 70
0
 71
3
 72
21
 73
17
 74
15
 42
0.0000001
 43
0.0000001
 44
0.0000000001
 12
-0.3113377788
 22
1.4023880313
 32
0.0
 13
-0.0006883723
 23
1.4365315621
 33
0.0
 40
0.0
 40
0.0
 40
0.0
 40
0.0
 40
0.0036753872
 40
0.0095484533
 40
0.0176160879
 40
0.027863437
 40
0.054812658
 40
0.0901729033
 40
0.1336454282
 40
0.1848613112
 40
0.2433851532
 40
0.3087190391
 40
0.4575391021
 40
0.6262636997
 40
0.809156559
 40
1.0
 40
1.0
 40
1.0
 40
1.0
 10
68.1184964479
 20
-21.9922392396
 30
0.0
 10
68.1181150189
 20
-21.9905211332
 30
0.0
 10
68.1175356772
 20
-21.9859754223
 30
0.0
 10
68.1167672527
 20
-21.977579388
 30
0.0
 10
68.1160078905
 20
-21.9660189374
 30
0.0
 10
68.1148728002
 20
-21.9443750873
 30
0.0
 10
68.113562589
 20
-21.909654148
 30
0.0
 10
68.1121070672
 20
-21.859022261
 30
0.0
 10
68.1107036627
 20
-21.7967645461
 30
0.0
 10
68.1093619734
 20
-21.7234119946
 30
0.0
 10
68.1080999341
 20
-21.6395884177
 30
0.0
 10
68.1064680215
 20
-21.5090284201
 30
0.0
 10
68.1047667582
 20
-21.3256967945
 30
0.0
 10
68.1032650425
 20
-21.0860697865
 30
0.0
 10
68.1022882359
 20
-20.8263172863
 30
0.0
 10
68.1020133456
 20
-20.6473559843
 30
0.0
 10
68.1019695552
 20
-20.5559717756
 30
0.0
 11
68.1184964479
 21
-21.9922392396
 31
0.0
 11
68.1176931447
 21
-21.9870208968
 31
0.0
 11
68.1168932327
 21
-21.9786220572
 31
0.0
 11
68.11609877
 21
-21.9670599067
 31
0.0
 11
68.1153114488
 21
-21.9523603343
 31
0.0
 11
68.1137645702
 21
-21.9136778401
 31
0.0
 11
68.112265768
 21
-21.8629038426
 31
0.0
 11
68.1108278266
 21
-21.8004707384
 31
0.0
 11
68.1094629814
 21
-21.7269101581
 31
0.0
 11
68.1081828684
 21
-21.6428485486
 31
0.0
 11
68.1069983902
 21
-21.5490018233
 31
0.0
 11
68.1049558124
 21
-21.3352268391
 31
0.0
 11
68.1034047232
 21
-21.0928535647
 31
0.0
 11
68.1023978868
 21
-20.8301240988
 31
0.0
 11
68.1019695552
 21
-20.5559717756
 31
0.0
  0
SPLINE
  5
6FE
100
AcDbEntity
  8
RACCORDO
100
AcDbSpline
 62
253
  6
CONTINUOUS
 70
0
 71
3
 72
21
 73
17
 74
15
 42
0.0000001
 43
0.0000001
 44
0.0000000001
 12
-0.0006883723
 22
-1.4365315622
 32
0.0
 13
-0.3113377783
 23
-1.4023880315
 33
0.0
 40
0.0
 40
0.0
 40
0.0
 40
0.0
 40
0.190843441
 40
0.3737363003
 40
0.5424608979
 40
0.6912809609
 40
0.7566148468
 40
0.8151386888
 40
0.8663545718
 40
0.9098270967
 40
0.945187342
 40
0.972136563
 40
0.9823839121
 40
0.9904515467
 40
0.9963246128
 40
1.0
 40
1.0
 40
1.0
 40
1.0
 10
2.1364711933
 20
-20.5559717755
 30
0.0
 10
2.1364274028
 20
-20.6473559843
 30
0.0
 10
2.1361525126
 20
-20.8263172862
 30
0.0
 10
2.1351757059
 20
-21.0860697865
 30
0.0
 10
2.1336739903
 20
-21.3256967944
 30
0.0
 10
2.131972727
 20
-21.5090284201
 30
0.0
 10
2.1303408143
 20
-21.6395884177
 30
0.0
 10
2.1290787751
 20
-21.7234119946
 30
0.0
 10
2.1277370858
 20
-21.7967645461
 30
0.0
 10
2.1263336812
 20
-21.859022261
 30
0.0
 10
2.1248781595
 20
-21.909654148
 30
0.0
 10
2.1235679483
 20
-21.9443750873
 30
0.0
 10
2.122432858
 20
-21.9660189374
 30
0.0
 10
2.1216734957
 20
-21.9775793879
 30
0.0
 10
2.1209050712
 20
-21.9859754223
 30
0.0
 10
2.1203257296
 20
-21.9905211332
 30
0.0
 10
2.1199443006
 20
-21.9922392396
 30
0.0
 11
2.1364711933
 21
-20.5559717755
 31
0.0
 11
2.1360428616
 21
-20.8301240987
 31
0.0
 11
2.1350360252
 21
-21.0928535646
 31
0.0
 11
2.133484936
 21
-21.3352268391
 31
0.0
 11
2.1314423583
 21
-21.5490018232
 31
0.0
 11
2.13025788
 21
-21.6428485485
 31
0.0
 11
2.128977767
 21
-21.726910158
 31
0.0
 11
2.1276129218
 21
-21.8004707383
 31
0.0
 11
2.1261749804
 21
-21.8629038426
 31
0.0
 11
2.1246761782
 21
-21.9136778401
 31
0.0
 11
2.1231292997
 21
-21.9523603343
 31
0.0
 11
2.1223419784
 21
-21.9670599067
 31
0.0
 11
2.1215475158
 21
-21.9786220572
 31
0.0
 11
2.1207476038
 21
-21.9870208968
 31
0.0
 11
2.1199443006
 21
-21.9922392396
 31
0.0
  0
SPLINE
  5
6FF
100
AcDbEntity
  8
RACCORDO
100
AcDbSpline
 62
253
  6
CONTINUOUS
 70
0
 71
3
 72
14
 73
10
 74
8
 42
0.0000001
 43
0.0000001
 44
0.0000000001
 12
-0.0238908005
 22
0.8737638014
 32
0.0
 13
-0.8739642701
 23
-0.0148460631
 33
0.0
 40
0.0
 40
0.0
 40
0.0
 40
0.0
 40
0.2493919531
 40
0.4989877234
 40
0.624254318
 40
0.7494839729
 40
0.812171817
 40
0.8748563377
 40
1.0
 40
1.0
 40
1.0
 40
1.0
 10
62.1911509879
 20
15.4501332605
 30
0.0
 10
62.1891649301
 20
15.5227698141
 30
0.0
 10
62.1553283255
 20
15.668267047
 30
0.0
 10
62.053319714
 20
15.8233879017
 30
0.0
 10
61.9438296228
 20
15.9205285891
 30
0.0
 10
61.8650674196
 20
15.9678710888
 30
0.0
 10
61.7973429362
 20
15.9954987323
 30
0.0
 10
61.7271795741
 20
16.0159160566
 30
0.0
 10
61.672093654
 20
16.0221253261
 30
0.0
 10
61.6356366242
 20
16.0215060292
 30
0.0
 11
62.1911509879
 21
15.4501332605
 31
0.0
 11
62.1434262991
 21
15.6628360443
 31
0.0
 11
62.023774567
 21
15.8452676402
 31
0.0
 11
61.9417826067
 21
15.9178370901
 31
0.0
 11
61.8477733888
 21
15.9739102903
 31
0.0
 11
61.7970339761
 21
15.9945981243
 31
0.0
 11
61.744396636
 21
16.00981215
 31
0.0
 11
61.6356366242
 21
16.0215060292
 31
0.0
  0
SPLINE
  5
700
100
AcDbEntity
  8
RACCORDO
100
AcDbSpline
 62
253
  6
CONTINUOUS
 70
0
 71
3
 72
14
 73
10
 74
8
 42
0.0000001
 43
0.0000001
 44
0.0000000001
 12
0.8739273794
 22
-0.0148707374
 32
0.0
 13
0.0239198965
 23
0.8737265258
 33
0.0
 40
0.0
 40
0.0
 40
0.0
 40
0.0
 40
0.1251436798
 40
0.1878281701
 40
0.2505160064
 40
0.3757456306
 40
0.501012188
 40
0.7506080226
 40
1.0
 40
1.0
 40
1.0
 40
1.0
 10
61.6356366241
 20
-16.0085330561
 30
0.0
 10
61.6720921202
 20
-16.0091533824
 30
0.0
 10
61.7271757327
 20
-16.0029433531
 30
0.0
 10
61.7973364023
 20
-15.9825280252
 30
0.0
 10
61.8650584404
 20
-15.9549024625
 30
0.0
 10
61.9438182667
 20
-15.9075636545
 30
0.0
 10
62.0533064335
 20
-15.8104299083
 30
0.0
 10
62.1553153526
 20
-15.6553195086
 30
0.0
 10
62.1891606497
 20
-15.5098304515
 30
0.0
 10
62.1911491265
 20
-15.4371969895
 30
0.0
 11
61.6356366241
 21
-16.0085330561
 31
0.0
 11
61.7443921707
 21
-15.9968401921
 31
0.0
 11
61.7970274686
 21
-15.9816274294
 31
0.0
 11
61.8477650665
 21
-15.9609412168
 31
0.0
 11
61.9417714835
 21
-15.9048722879
 31
0.0
 11
62.0237619251
 21
-15.8323080635
 31
0.0
 11
62.1434154424
 21
-15.6498884561
 31
0.0
 11
62.1911491265
 21
-15.4371969895
 31
0.0
  0
SPLINE
  5
701
100
AcDbEntity
  8
RACCORDO
100
AcDbSpline
 62
253
  6
CONTINUOUS
 70
0
 71
3
 72
14
 73
10
 74
8
 42
0.0000001
 43
0.0000001
 44
0.0000000001
 12
0.0238908005
 22
-0.8737638014
 32
0.0
 13
0.8739642701
 23
0.0148460631
 33
0.0
 40
0.0
 40
0.0
 40
0.0
 40
0.0
 40
0.2493919531
 40
0.4989877234
 40
0.624254318
 40
0.7494839729
 40
0.812171817
 40
0.8748563377
 40
1.0
 40
1.0
 40
1.0
 40
1.0
 10
8.0472897606
 20
-15.4371602875
 30
0.0
 10
8.0492758184
 20
-15.5097968411
 30
0.0
 10
8.083112423
 20
-15.655294074
 30
0.0
 10
8.1851210344
 20
-15.8104149287
 30
0.0
 10
8.2946111257
 20
-15.9075556161
 30
0.0
 10
8.3733733289
 20
-15.9548981159
 30
0.0
 10
8.4410978122
 20
-15.9825257593
 30
0.0
 10
8.5112611744
 20
-16.0029430837
 30
0.0
 10
8.5663470944
 20
-16.0091523531
 30
0.0
 10
8.6028041242
 20
-16.0085330562
 30
0.0
 11
8.0472897606
 21
-15.4371602875
 31
0.0
 11
8.0950144493
 21
-15.6498630713
 31
0.0
 11
8.2146661815
 21
-15.8322946673
 31
0.0
 11
8.2966581417
 21
-15.9048641172
 31
0.0
 11
8.3906673596
 21
-15.9609373173
 31
0.0
 11
8.4414067724
 21
-15.9816251513
 31
0.0
 11
8.4940441125
 21
-15.996839177
 31
0.0
 11
8.6028041242
 21
-16.0085330562
 31
0.0
  0
SPLINE
  5
702
100
AcDbEntity
  8
RACCORDO
100
AcDbSpline
 62
253
  6
CONTINUOUS
 70
0
 71
3
 72
14
 73
10
 74
8
 42
0.0000001
 43
0.0000001
 44
0.0000000001
 12
-0.8739638385
 22
0.0148713578
 32
0.0
 13
-0.0238568717
 23
-0.8737647269
 33
0.0
 40
0.0
 40
0.0
 40
0.0
 40
0.0
 40
0.1251436782
 40
0.1878281781
 40
0.2505160233
 40
0.3757456589
 40
0.5010122288
 40
0.7506079958
 40
1.0
 40
1.0
 40
1.0
 40
1.0
 10
8.6028041243
 20
16.0215060291
 30
0.0
 10
8.5663471079
 20
16.0221263812
 30
0.0
 10
8.5112611742
 20
16.0159157848
 30
0.0
 10
8.4410978038
 20
15.9954987954
 30
0.0
 10
8.3733733383
 20
15.9678710513
 30
0.0
 10
8.2946111754
 20
15.9205286113
 30
0.0
 10
8.1851208865
 20
15.82338793
 30
0.0
 10
8.0831137792
 20
15.6682670399
 30
0.0
 10
8.0492729983
 20
15.5227699059
 30
0.0
 10
8.0472897606
 20
15.4501332605
 30
0.0
 11
8.6028041243
 21
16.0215060291
 31
0.0
 11
8.4940441004
 21
16.009812135
 31
0.0
 11
8.441406772
 21
15.9945981347
 31
0.0
 11
8.3906673631
 21
15.9739102889
 31
0.0
 11
8.2966581579
 21
15.9178371009
 31
0.0
 11
8.2146662076
 21
15.8452676724
 31
0.0
 11
8.0950144678
 21
15.6628360856
 31
0.0
 11
8.0472897606
 21
15.4501332605
 31
0.0
  0
SPLINE
  5
703
100
AcDbEntity
  8
RACCORDO
100
AcDbSpline
 62
7
  6
CONTINUOUS
 70
0
 71
3
 72
15
 73
11
 74
9
 42
0.0000001
 43
0.0000001
 44
0.0000000001
 12
-0.0031741023
 22
0.314999815
 32
0.0
 13
-0.3150158065
 23
0.0
 33
0.0
 40
0.0
 40
0.0
 40
0.0
 40
0.0
 40
0.0847170201
 40
0.1757101917
 40
0.2778229544
 40
0.3942475014
 40
0.526415195
 40
0.6737696629
 40
0.833407897
 40
1.0
 40
1.0
 40
1.0
 40
1.0
 10
49.3619396253
 20
-23.2605008116
 30
0.0
 10
49.3618499918
 20
-23.2516055297
 30
0.0
 10
49.3586079837
 20
-23.2330769795
 30
0.0
 10
49.3450588536
 20
-23.2068357289
 30
0.0
 10
49.3231907547
 20
-23.1824039829
 30
0.0
 10
49.2933417961
 20
-23.1604739189
 30
0.0
 10
49.2559807755
 20
-23.141845821
 30
0.0
 10
49.2120082117
 20
-23.1274685248
 30
0.0
 10
49.1629999697
 20
-23.1183327898
 30
0.0
 10
49.1287096759
 20
-23.1161632443
 30
0.0
 10
49.1112166274
 20
-23.1161632443
 30
0.0
 11
49.3619396253
 21
-23.2605008116
 31
0.0
 11
49.3574854277
 21
-23.2341879481
 31
0.0
 11
49.3446629869
 21
-23.2085515212
 31
0.0
 11
49.3235118479
 21
-23.184316137
 31
0.0
 11
49.2941774939
 21
-23.162302657
 31
0.0
 11
49.2570531928
 21
-23.1434545214
 31
0.0
 11
49.2130008835
 21
-23.1288218061
 31
0.0
 11
49.1635924737
 21
-23.1194543615
 31
0.0
 11
49.1112166274
 21
-23.1161632443
 31
0.0
  0
SPLINE
  5
704
100
AcDbEntity
  8
RACCORDO
100
AcDbSpline
 62
253
  6
CONTINUOUS
 70
0
 71
3
 72
13
 73
9
 74
7
 42
0.0000001
 43
0.0000001
 44
0.0000000001
 12
-0.0012265943
 22
0.3651869702
 32
0.0
 13
-0.3651878714
 23
0.0009199792
 33
0.0
 40
0.0
 40
0.0
 40
0.0
 40
0.0
 40
0.1162393822
 40
0.2339783948
 40
0.3543711753
 40
0.4780981574
 40
0.7345378061
 40
1.0
 40
1.0
 40
1.0
 40
1.0
 10
49.3561217955
 20
-23.8378510808
 30
0.0
 10
49.3560742693
 20
-23.8237013782
 30
0.0
 10
49.3527157363
 20
-23.7951283732
 30
0.0
 10
49.3381591664
 20
-23.7541680422
 30
0.0
 10
49.3146882942
 20
-23.7164962547
 30
0.0
 10
49.2723855723
 20
-23.6721345091
 30
0.0
 10
49.2024592969
 20
-23.6323003182
 30
0.0
 10
49.1384405508
 20
-23.6214261364
 30
0.0
 10
49.1061260263
 20
-23.6213447299
 30
0.0
 11
49.3561217955
 21
-23.8378510808
 31
0.0
 11
49.3511940751
 21
-23.7956887202
 31
0.0
 11
49.3368835812
 21
-23.7551430495
 31
0.0
 11
49.3137379175
 21
-23.7177625973
 31
0.0
 11
49.2826430182
 21
-23.6849803264
 31
0.0
 11
49.2016274632
 21
-23.6380058115
 31
0.0
 11
49.1061260263
 21
-23.6213447299
 31
0.0
  0
SPLINE
  5
705
100
AcDbEntity
  8
RACCORDO
100
AcDbSpline
 62
253
  6
CONTINUOUS
 70
0
 71
3
 72
13
 73
9
 74
7
 42
0.0000001
 43
0.0000001
 44
0.0000000001
 12
0.0012265943
 22
0.3651869702
 32
0.0
 13
0.3651878714
 23
0.0009199792
 33
0.0
 40
0.0
 40
0.0
 40
0.0
 40
0.0
 40
0.1162393822
 40
0.2339783948
 40
0.3543711753
 40
0.4780981574
 40
0.7345378061
 40
1.0
 40
1.0
 40
1.0
 40
1.0
 10
46.9823189529
 20
-23.8378510808
 30
0.0
 10
46.9823664791
 20
-23.8237013782
 30
0.0
 10
46.9857250122
 20
-23.7951283732
 30
0.0
 10
47.0002815821
 20
-23.7541680422
 30
0.0
 10
47.0237524542
 20
-23.7164962547
 30
0.0
 10
47.0660551762
 20
-23.6721345091
 30
0.0
 10
47.1359814515
 20
-23.6323003182
 30
0.0
 10
47.2000001976
 20
-23.6214261364
 30
0.0
 10
47.2323147222
 20
-23.6213447299
 30
0.0
 11
46.9823189529
 21
-23.8378510808
 31
0.0
 11
46.9872466733
 21
-23.7956887202
 31
0.0
 11
47.0015571673
 21
-23.7551430495
 31
0.0
 11
47.0247028309
 21
-23.7177625973
 31
0.0
 11
47.0557977303
 21
-23.6849803264
 31
0.0
 11
47.1368132853
 21
-23.6380058115
 31
0.0
 11
47.2323147222
 21
-23.6213447299
 31
0.0
  0
SPLINE
  5
706
100
AcDbEntity
  8
RACCORDO
100
AcDbSpline
 62
7
  6
CONTINUOUS
 70
0
 71
3
 72
15
 73
11
 74
9
 42
0.0000001
 43
0.0000001
 44
0.0000000001
 12
0.0031667934
 22
0.3142744787
 32
0.0
 13
0.3142904334
 23
0.0
 33
0.0
 40
0.0
 40
0.0
 40
0.0
 40
0.0
 40
0.0847645112
 40
0.1757885562
 40
0.2779059284
 40
0.3943071028
 40
0.5264306674
 40
0.6737385869
 40
0.8333592401
 40
1.0
 40
1.0
 40
1.0
 40
1.0
 10
46.9765011231
 20
-23.2605008116
 30
0.0
 10
46.9765906004
 20
-23.2516210374
 30
0.0
 10
46.9798209183
 20
-23.2331271327
 30
0.0
 10
46.9933223738
 20
-23.2069289414
 30
0.0
 10
47.0151156261
 20
-23.1825305007
 30
0.0
 10
47.0448649253
 20
-23.1606201868
 30
0.0
 10
47.082105973
 20
-23.1419954045
 30
0.0
 10
47.1259471104
 20
-23.1275914347
 30
0.0
 10
47.1748288405
 20
-23.1184315258
 30
0.0
 10
47.2090390268
 20
-23.1161632443
 30
0.0
 10
47.2264968923
 20
-23.1161632443
 30
0.0
 11
46.9765011231
 21
-23.2605008116
 31
0.0
 11
46.9809405323
 21
-23.234232633
 31
0.0
 11
46.9937195428
 21
-23.2086374423
 31
0.0
 11
47.0147989606
 21
-23.1844358738
 31
0.0
 11
47.0440347783
 21
-23.1624440663
 31
0.0
 11
47.0810379277
 21
-23.1435997865
 31
0.0
 11
47.1249555892
 21
-23.128947322
 31
0.0
 11
47.1742319355
 21
-23.1195348784
 31
0.0
 11
47.2264968923
 21
-23.1161632443
 31
0.0
  0
SPLINE
  5
707
100
AcDbEntity
  8
RACCORDO
100
AcDbSpline
 62
7
  6
CONTINUOUS
 70
0
 71
3
 72
12
 73
8
 74
6
 42
0.0000001
 43
0.0000001
 44
0.0000000001
 12
0.0345141171
 22
0.0031148624
 32
0.0
 13
0.0037710146
 23
0.0344486008
 33
0.0
 40
0.0
 40
0.0
 40
0.0
 40
0.0
 40
0.4189758554
 40
0.7258150368
 40
0.9169374284
 40
0.970078621
 40
1.0
 40
1.0
 40
1.0
 40
1.0
 10
68.2281357142
 20
22.3343973251
 30
0.0
 10
68.2329559081
 20
22.3348323425
 30
0.0
 10
68.2413224771
 20
22.335568295
 30
0.0
 10
68.2518121165
 20
22.3366714536
 30
0.0
 10
68.25817506
 20
22.3377629522
 30
0.0
 10
68.2611065365
 20
22.3388010274
 30
0.0
 10
68.261902014
 20
22.3395538647
 30
0.0
 10
68.2619396253
 20
22.3398974479
 30
0.0
 11
68.2281357142
 21
22.3343973251
 31
0.0
 11
68.2425939847
 21
22.335727738
 31
0.0
 11
68.2531559376
 21
22.3369576709
 31
0.0
 11
68.259640424
 21
22.3383062279
 31
0.0
 11
68.2613168937
 21
22.3390683631
 31
0.0
 11
68.2619396253
 21
22.3398974479
 31
0.0
  0
SPLINE
  5
708
100
AcDbEntity
  8
RACCORDO
100
AcDbSpline
 62
253
  6
CONTINUOUS
 70
0
 71
3
 72
13
 73
9
 74
7
 42
0.0000001
 43
0.0000001
 44
0.0000000001
 12
-0.0012265944
 22
-0.3651869708
 32
0.0
 13
-0.3651878719
 23
-0.0009199792
 33
0.0
 40
0.0
 40
0.0
 40
0.0
 40
0.0
 40
0.1162394861
 40
0.2339784844
 40
0.3543712552
 40
0.4780982232
 40
0.7345378384
 40
1.0
 40
1.0
 40
1.0
 40
1.0
 10
68.2561217955
 20
23.8508240538
 30
0.0
 10
68.2560742693
 20
23.8366743385
 30
0.0
 10
68.2527157348
 20
23.8081013217
 30
0.0
 10
68.2381591491
 20
23.767140986
 30
0.0
 10
68.2146882771
 20
23.7294692043
 30
0.0
 10
68.1723855533
 20
23.6851074698
 30
0.0
 10
68.1024592852
 20
23.6452732879
 30
0.0
 10
68.0384405469
 20
23.6343991094
 30
0.0
 10
68.0061260263
 20
23.6343177028
 30
0.0
 11
68.2561217955
 21
23.8508240538
 31
0.0
 11
68.2511940678
 21
23.8086616557
 31
0.0
 11
68.2368835661
 21
23.7681159932
 31
0.0
 11
68.2137378998
 21
23.7307355468
 31
0.0
 11
68.1826429999
 21
23.6979532834
 31
0.0
 11
68.1016274521
 21
23.6509787802
 31
0.0
 11
68.0061260263
 21
23.6343177028
 31
0.0
  0
SPLINE
  5
709
100
AcDbEntity
  8
RACCORDO
100
AcDbSpline
 62
7
  6
CONTINUOUS
 70
0
 71
3
 72
15
 73
11
 74
9
 42
0.0000001
 43
0.0000001
 44
0.0000000001
 12
-0.0031741023
 22
-0.314999815
 32
0.0
 13
-0.3150158065
 23
0.0
 33
0.0
 40
0.0
 40
0.0
 40
0.0
 40
0.0
 40
0.0847170201
 40
0.1757101917
 40
0.2778229544
 40
0.3942475014
 40
0.526415195
 40
0.6737696629
 40
0.833407897
 40
1.0
 40
1.0
 40
1.0
 40
1.0
 10
68.2619396253
 20
23.2734737846
 30
0.0
 10
68.2618499918
 20
23.2645785027
 30
0.0
 10
68.2586079837
 20
23.2460499524
 30
0.0
 10
68.2450588536
 20
23.2198087018
 30
0.0
 10
68.2231907547
 20
23.1953769558
 30
0.0
 10
68.1933417961
 20
23.1734468919
 30
0.0
 10
68.1559807755
 20
23.154818794
 30
0.0
 10
68.1120082117
 20
23.1404414978
 30
0.0
 10
68.0629999697
 20
23.1313057627
 30
0.0
 10
68.0287096759
 20
23.1291362173
 30
0.0
 10
68.0112166274
 20
23.1291362173
 30
0.0
 11
68.2619396253
 21
23.2734737846
 31
0.0
 11
68.2574854277
 21
23.247160921
 31
0.0
 11
68.2446629869
 21
23.2215244942
 31
0.0
 11
68.2235118479
 21
23.19728911
 31
0.0
 11
68.1941774939
 21
23.17527563
 31
0.0
 11
68.1570531928
 21
23.1564274944
 31
0.0
 11
68.1130008835
 21
23.1417947791
 31
0.0
 11
68.0635924737
 21
23.1324273345
 31
0.0
 11
68.0112166274
 21
23.1291362173
 31
0.0
  0
SPLINE
  5
70A
100
AcDbEntity
  8
RACCORDO
100
AcDbSpline
 62
7
  6
CONTINUOUS
 70
0
 71
3
 72
15
 73
11
 74
9
 42
0.0000001
 43
0.0000001
 44
0.0000000001
 12
0.0031741023
 22
-0.314999815
 32
0.0
 13
0.3150158065
 23
0.0
 33
0.0
 40
0.0
 40
0.0
 40
0.0
 40
0.0
 40
0.0847170201
 40
0.1757101917
 40
0.2778229544
 40
0.3942475014
 40
0.526415195
 40
0.6737696629
 40
0.833407897
 40
1.0
 40
1.0
 40
1.0
 40
1.0
 10
65.8765011231
 20
23.2734737846
 30
0.0
 10
65.8765907566
 20
23.2645785027
 30
0.0
 10
65.8798327647
 20
23.2460499524
 30
0.0
 10
65.8933818949
 20
23.2198087018
 30
0.0
 10
65.9152499937
 20
23.1953769558
 30
0.0
 10
65.9450989523
 20
23.1734468919
 30
0.0
 10
65.9824599729
 20
23.154818794
 30
0.0
 10
66.0264325368
 20
23.1404414978
 30
0.0
 10
66.0754407787
 20
23.1313057627
 30
0.0
 10
66.1097310725
 20
23.1291362173
 30
0.0
 10
66.1272241211
 20
23.1291362173
 30
0.0
 11
65.8765011231
 21
23.2734737846
 31
0.0
 11
65.8809553208
 21
23.247160921
 31
0.0
 11
65.8937777616
 21
23.2215244942
 31
0.0
 11
65.9149289006
 21
23.19728911
 31
0.0
 11
65.9442632545
 21
23.17527563
 31
0.0
 11
65.9813875556
 21
23.1564274944
 31
0.0
 11
66.0254398649
 21
23.1417947791
 31
0.0
 11
66.0748482747
 21
23.1324273345
 31
0.0
 11
66.1272241211
 21
23.1291362173
 31
0.0
  0
SPLINE
  5
70B
100
AcDbEntity
  8
RACCORDO
100
AcDbSpline
 62
253
  6
CONTINUOUS
 70
0
 71
3
 72
13
 73
9
 74
7
 42
0.0000001
 43
0.0000001
 44
0.0000000001
 12
0.0012265944
 22
-0.3651869708
 32
0.0
 13
0.3651878719
 23
-0.0009199792
 33
0.0
 40
0.0
 40
0.0
 40
0.0
 40
0.0
 40
0.1162394861
 40
0.2339784844
 40
0.3543712552
 40
0.4780982232
 40
0.7345378384
 40
1.0
 40
1.0
 40
1.0
 40
1.0
 10
65.8823189529
 20
23.8508240538
 30
0.0
 10
65.8823664792
 20
23.8366743385
 30
0.0
 10
65.8857250136
 20
23.8081013217
 30
0.0
 10
65.9002815993
 20
23.767140986
 30
0.0
 10
65.9237524713
 20
23.7294692043
 30
0.0
 10
65.9660551951
 20
23.6851074698
 30
0.0
 10
66.0359814632
 20
23.6452732879
 30
0.0
 10
66.1000002015
 20
23.6343991094
 30
0.0
 10
66.1323147222
 20
23.6343177028
 30
0.0
 11
65.8823189529
 21
23.8508240538
 31
0.0
 11
65.8872466807
 21
23.8086616557
 31
0.0
 11
65.9015571824
 21
23.7681159932
 31
0.0
 11
65.9247028486
 21
23.7307355468
 31
0.0
 11
65.9557977485
 21
23.6979532834
 31
0.0
 11
66.0368132963
 21
23.6509787802
 31
0.0
 11
66.1323147222
 21
23.6343177028
 31
0.0
  0
SPLINE
  5
70C
100
AcDbEntity
  8
RACCORDO
100
AcDbSpline
 62
253
  6
CONTINUOUS
 70
0
 71
3
 72
13
 73
9
 74
7
 42
0.0000001
 43
0.0000001
 44
0.0000000001
 12
-0.0012265944
 22
-0.3651869708
 32
0.0
 13
-0.3651878719
 23
-0.0009199792
 33
0.0
 40
0.0
 40
0.0
 40
0.0
 40
0.0
 40
0.1162394861
 40
0.2339784844
 40
0.3543712552
 40
0.4780982232
 40
0.7345378384
 40
1.0
 40
1.0
 40
1.0
 40
1.0
 10
49.3561217955
 20
23.8508240538
 30
0.0
 10
49.3560742693
 20
23.8366743385
 30
0.0
 10
49.3527157348
 20
23.8081013217
 30
0.0
 10
49.3381591491
 20
23.767140986
 30
0.0
 10
49.3146882771
 20
23.7294692043
 30
0.0
 10
49.2723855533
 20
23.6851074698
 30
0.0
 10
49.2024592852
 20
23.6452732879
 30
0.0
 10
49.1384405469
 20
23.6343991094
 30
0.0
 10
49.1061260263
 20
23.6343177028
 30
0.0
 11
49.3561217955
 21
23.8508240538
 31
0.0
 11
49.3511940678
 21
23.8086616557
 31
0.0
 11
49.3368835661
 21
23.7681159932
 31
0.0
 11
49.3137378998
 21
23.7307355468
 31
0.0
 11
49.2826429999
 21
23.6979532834
 31
0.0
 11
49.2016274521
 21
23.6509787802
 31
0.0
 11
49.1061260263
 21
23.6343177028
 31
0.0
  0
SPLINE
  5
70D
100
AcDbEntity
  8
RACCORDO
100
AcDbSpline
 62
7
  6
CONTINUOUS
 70
0
 71
3
 72
15
 73
11
 74
9
 42
0.0000001
 43
0.0000001
 44
0.0000000001
 12
-0.0031741023
 22
-0.314999815
 32
0.0
 13
-0.3150158065
 23
-0.0
 33
0.0
 40
0.0
 40
0.0
 40
0.0
 40
0.0
 40
0.0847170201
 40
0.1757101917
 40
0.2778229544
 40
0.3942475014
 40
0.526415195
 40
0.6737696629
 40
0.833407897
 40
1.0
 40
1.0
 40
1.0
 40
1.0
 10
49.3619396253
 20
23.2734737846
 30
0.0
 10
49.3618499918
 20
23.2645785027
 30
0.0
 10
49.3586079837
 20
23.2460499524
 30
0.0
 10
49.3450588536
 20
23.2198087018
 30
0.0
 10
49.3231907547
 20
23.1953769558
 30
0.0
 10
49.2933417961
 20
23.1734468919
 30
0.0
 10
49.2559807755
 20
23.154818794
 30
0.0
 10
49.2120082117
 20
23.1404414978
 30
0.0
 10
49.1629999697
 20
23.1313057627
 30
0.0
 10
49.1287096759
 20
23.1291362173
 30
0.0
 10
49.1112166274
 20
23.1291362173
 30
0.0
 11
49.3619396253
 21
23.2734737846
 31
0.0
 11
49.3574854277
 21
23.247160921
 31
0.0
 11
49.3446629869
 21
23.2215244942
 31
0.0
 11
49.3235118479
 21
23.19728911
 31
0.0
 11
49.2941774939
 21
23.17527563
 31
0.0
 11
49.2570531928
 21
23.1564274944
 31
0.0
 11
49.2130008835
 21
23.1417947791
 31
0.0
 11
49.1635924737
 21
23.1324273345
 31
0.0
 11
49.1112166274
 21
23.1291362173
 31
0.0
  0
SPLINE
  5
70E
100
AcDbEntity
  8
RACCORDO
100
AcDbSpline
 62
7
  6
CONTINUOUS
 70
0
 71
3
 72
15
 73
11
 74
9
 42
0.0000001
 43
0.0000001
 44
0.0000000001
 12
0.0031741023
 22
-0.314999815
 32
0.0
 13
0.3150158065
 23
0.0
 33
0.0
 40
0.0
 40
0.0
 40
0.0
 40
0.0
 40
0.0847170201
 40
0.1757101917
 40
0.2778229544
 40
0.3942475014
 40
0.526415195
 40
0.6737696629
 40
0.833407897
 40
1.0
 40
1.0
 40
1.0
 40
1.0
 10
46.9765011231
 20
23.2734737846
 30
0.0
 10
46.9765907566
 20
23.2645785027
 30
0.0
 10
46.9798327647
 20
23.2460499524
 30
0.0
 10
46.9933818949
 20
23.2198087018
 30
0.0
 10
47.0152499937
 20
23.1953769558
 30
0.0
 10
47.0450989523
 20
23.1734468919
 30
0.0
 10
47.0824599729
 20
23.154818794
 30
0.0
 10
47.1264325368
 20
23.1404414978
 30
0.0
 10
47.1754407787
 20
23.1313057627
 30
0.0
 10
47.2097310725
 20
23.1291362173
 30
0.0
 10
47.2272241211
 20
23.1291362173
 30
0.0
 11
46.9765011231
 21
23.2734737846
 31
0.0
 11
46.9809553208
 21
23.247160921
 31
0.0
 11
46.9937777616
 21
23.2215244942
 31
0.0
 11
47.0149289006
 21
23.19728911
 31
0.0
 11
47.0442632545
 21
23.17527563
 31
0.0
 11
47.0813875556
 21
23.1564274944
 31
0.0
 11
47.1254398649
 21
23.1417947791
 31
0.0
 11
47.1748482747
 21
23.1324273345
 31
0.0
 11
47.2272241211
 21
23.1291362173
 31
0.0
  0
SPLINE
  5
70F
100
AcDbEntity
  8
RACCORDO
100
AcDbSpline
 62
253
  6
CONTINUOUS
 70
0
 71
3
 72
13
 73
9
 74
7
 42
0.0000001
 43
0.0000001
 44
0.0000000001
 12
0.0012265944
 22
-0.3651869708
 32
0.0
 13
0.3651878719
 23
-0.0009199792
 33
0.0
 40
0.0
 40
0.0
 40
0.0
 40
0.0
 40
0.1162394861
 40
0.2339784844
 40
0.3543712552
 40
0.4780982232
 40
0.7345378384
 40
1.0
 40
1.0
 40
1.0
 40
1.0
 10
46.9823189529
 20
23.8508240538
 30
0.0
 10
46.9823664792
 20
23.8366743385
 30
0.0
 10
46.9857250136
 20
23.8081013217
 30
0.0
 10
47.0002815993
 20
23.767140986
 30
0.0
 10
47.0237524713
 20
23.7294692043
 30
0.0
 10
47.0660551951
 20
23.6851074698
 30
0.0
 10
47.1359814632
 20
23.6452732879
 30
0.0
 10
47.2000002015
 20
23.6343991094
 30
0.0
 10
47.2323147222
 20
23.6343177028
 30
0.0
 11
46.9823189529
 21
23.8508240538
 31
0.0
 11
46.9872466807
 21
23.8086616557
 31
0.0
 11
47.0015571824
 21
23.7681159932
 31
0.0
 11
47.0247028486
 21
23.7307355468
 31
0.0
 11
47.0557977485
 21
23.6979532834
 31
0.0
 11
47.1368132963
 21
23.6509787802
 31
0.0
 11
47.2323147222
 21
23.6343177028
 31
0.0
  0
SPLINE
  5
710
100
AcDbEntity
  8
RACCORDO
100
AcDbSpline
 62
7
  6
CONTINUOUS
 70
0
 71
3
 72
15
 73
11
 74
9
 42
0.0000001
 43
0.0000001
 44
0.0000000001
 12
-0.0031667934
 22
0.3142744787
 32
0.0
 13
-0.3142904334
 23
0.0
 33
0.0
 40
0.0
 40
0.0
 40
0.0
 40
0.0
 40
0.0847645112
 40
0.1757885562
 40
0.2779059284
 40
0.3943071028
 40
0.5264306674
 40
0.6737385869
 40
0.8333592401
 40
1.0
 40
1.0
 40
1.0
 40
1.0
 10
23.2619396253
 20
-23.2605008116
 30
0.0
 10
23.2618501481
 20
-23.2516210374
 30
0.0
 10
23.2586198301
 20
-23.2331271327
 30
0.0
 10
23.2451183746
 20
-23.2069289414
 30
0.0
 10
23.2233251223
 20
-23.1825305007
 30
0.0
 10
23.1935758231
 20
-23.1606201868
 30
0.0
 10
23.1563347754
 20
-23.1419954045
 30
0.0
 10
23.112493638
 20
-23.1275914347
 30
0.0
 10
23.063611908
 20
-23.1184315258
 30
0.0
 10
23.0294017216
 20
-23.1161632443
 30
0.0
 10
23.0119438561
 20
-23.1161632443
 30
0.0
 11
23.2619396253
 21
-23.2605008116
 31
0.0
 11
23.2575002162
 21
-23.234232633
 31
0.0
 11
23.2447212057
 21
-23.2086374423
 31
0.0
 11
23.2236417878
 21
-23.1844358738
 31
0.0
 11
23.1944059701
 21
-23.1624440663
 31
0.0
 11
23.1574028208
 21
-23.1435997865
 31
0.0
 11
23.1134851592
 21
-23.128947322
 31
0.0
 11
23.0642088129
 21
-23.1195348784
 31
0.0
 11
23.0119438561
 21
-23.1161632443
 31
0.0
  0
SPLINE
  5
711
100
AcDbEntity
  8
RACCORDO
100
AcDbSpline
 62
253
  6
CONTINUOUS
 70
0
 71
3
 72
13
 73
9
 74
7
 42
0.0000001
 43
0.0000001
 44
0.0000000001
 12
-0.0012265943
 22
0.3651869702
 32
0.0
 13
-0.3651878714
 23
0.0009199792
 33
0.0
 40
0.0
 40
0.0
 40
0.0
 40
0.0
 40
0.1162393822
 40
0.2339783948
 40
0.3543711753
 40
0.4780981574
 40
0.7345378061
 40
1.0
 40
1.0
 40
1.0
 40
1.0
 10
23.2561217955
 20
-23.8378510808
 30
0.0
 10
23.2560742693
 20
-23.8237013782
 30
0.0
 10
23.2527157363
 20
-23.7951283732
 30
0.0
 10
23.2381591664
 20
-23.7541680422
 30
0.0
 10
23.2146882942
 20
-23.7164962547
 30
0.0
 10
23.1723855723
 20
-23.6721345091
 30
0.0
 10
23.1024592969
 20
-23.6323003182
 30
0.0
 10
23.0384405508
 20
-23.6214261364
 30
0.0
 10
23.0061260263
 20
-23.6213447299
 30
0.0
 11
23.2561217955
 21
-23.8378510808
 31
0.0
 11
23.2511940751
 21
-23.7956887202
 31
0.0
 11
23.2368835812
 21
-23.7551430495
 31
0.0
 11
23.2137379175
 21
-23.7177625973
 31
0.0
 11
23.1826430182
 21
-23.6849803264
 31
0.0
 11
23.1016274632
 21
-23.6380058115
 31
0.0
 11
23.0061260263
 21
-23.6213447299
 31
0.0
  0
LINE
  5
712
100
AcDbEntity
  8
RACCORDO
100
AcDbLine
 62
7
  6
CONTINUOUS
 10
68.2619396253
 20
22.3398974479
 11
68.2692203742
 21
22.4061945603
  0
SPLINE
  5
713
100
AcDbEntity
  8
RACCORDO
100
AcDbSpline
 62
253
  6
CONTINUOUS
 70
0
 71
3
 72
13
 73
9
 74
7
 42
0.0000001
 43
0.0000001
 44
0.0000000001
 12
0.0012265943
 22
0.3651869702
 32
0.0
 13
0.3651878714
 23
0.0009199792
 33
0.0
 40
0.0
 40
0.0
 40
0.0
 40
0.0
 40
0.1162393822
 40
0.2339783948
 40
0.3543711753
 40
0.4780981574
 40
0.7345378061
 40
1.0
 40
1.0
 40
1.0
 40
1.0
 10
20.8823189529
 20
-23.8378510808
 30
0.0
 10
20.8823664791
 20
-23.8237013782
 30
0.0
 10
20.8857250122
 20
-23.7951283732
 30
0.0
 10
20.9002815821
 20
-23.7541680422
 30
0.0
 10
20.9237524542
 20
-23.7164962547
 30
0.0
 10
20.9660551762
 20
-23.6721345091
 30
0.0
 10
21.0359814515
 20
-23.6323003182
 30
0.0
 10
21.1000001976
 20
-23.6214261364
 30
0.0
 10
21.1323147222
 20
-23.6213447299
 30
0.0
 11
20.8823189529
 21
-23.8378510808
 31
0.0
 11
20.8872466733
 21
-23.7956887202
 31
0.0
 11
20.9015571673
 21
-23.7551430495
 31
0.0
 11
20.9247028309
 21
-23.7177625973
 31
0.0
 11
20.9557977303
 21
-23.6849803264
 31
0.0
 11
21.0368132853
 21
-23.6380058115
 31
0.0
 11
21.1323147222
 21
-23.6213447299
 31
0.0
  0
SPLINE
  5
714
100
AcDbEntity
  8
RACCORDO
100
AcDbSpline
 62
7
  6
CONTINUOUS
 70
0
 71
3
 72
15
 73
11
 74
9
 42
0.0000001
 43
0.0000001
 44
0.0000000001
 12
0.0031741023
 22
0.314999815
 32
0.0
 13
0.3150158065
 23
-0.0
 33
0.0
 40
0.0
 40
0.0
 40
0.0
 40
0.0
 40
0.0847170201
 40
0.1757101917
 40
0.2778229544
 40
0.3942475014
 40
0.526415195
 40
0.6737696629
 40
0.833407897
 40
1.0
 40
1.0
 40
1.0
 40
1.0
 10
20.8765011231
 20
-23.2605008116
 30
0.0
 10
20.8765907566
 20
-23.2516055297
 30
0.0
 10
20.8798327647
 20
-23.2330769795
 30
0.0
 10
20.8933818949
 20
-23.2068357289
 30
0.0
 10
20.9152499937
 20
-23.1824039829
 30
0.0
 10
20.9450989523
 20
-23.1604739189
 30
0.0
 10
20.9824599729
 20
-23.141845821
 30
0.0
 10
21.0264325368
 20
-23.1274685248
 30
0.0
 10
21.0754407787
 20
-23.1183327898
 30
0.0
 10
21.1097310725
 20
-23.1161632443
 30
0.0
 10
21.1272241211
 20
-23.1161632443
 30
0.0
 11
20.8765011231
 21
-23.2605008116
 31
0.0
 11
20.8809553208
 21
-23.2341879481
 31
0.0
 11
20.8937777616
 21
-23.2085515212
 31
0.0
 11
20.9149289006
 21
-23.184316137
 31
0.0
 11
20.9442632545
 21
-23.162302657
 31
0.0
 11
20.9813875556
 21
-23.1434545214
 31
0.0
 11
21.0254398649
 21
-23.1288218061
 31
0.0
 11
21.0748482747
 21
-23.1194543615
 31
0.0
 11
21.1272241211
 21
-23.1161632443
 31
0.0
  0
SPLINE
  5
715
100
AcDbEntity
  8
RACCORDO
100
AcDbSpline
 62
7
  6
CONTINUOUS
 70
0
 71
3
 72
15
 73
11
 74
9
 42
0.0000001
 43
0.0000001
 44
0.0000000001
 12
-0.0031741023
 22
0.314999815
 32
0.0
 13
-0.3150158065
 23
0.0
 33
0.0
 40
0.0
 40
0.0
 40
0.0
 40
0.0
 40
0.0847170201
 40
0.1757101917
 40
0.2778229544
 40
0.3942475014
 40
0.526415195
 40
0.6737696629
 40
0.833407897
 40
1.0
 40
1.0
 40
1.0
 40
1.0
 10
4.3619396253
 20
-23.2605008116
 30
0.0
 10
4.3618499918
 20
-23.2516055297
 30
0.0
 10
4.3586079837
 20
-23.2330769795
 30
0.0
 10
4.3450588536
 20
-23.2068357289
 30
0.0
 10
4.3231907547
 20
-23.1824039829
 30
0.0
 10
4.2933417961
 20
-23.1604739189
 30
0.0
 10
4.2559807755
 20
-23.141845821
 30
0.0
 10
4.2120082117
 20
-23.1274685248
 30
0.0
 10
4.1629999697
 20
-23.1183327898
 30
0.0
 10
4.1287096759
 20
-23.1161632443
 30
0.0
 10
4.1112166274
 20
-23.1161632443
 30
0.0
 11
4.3619396253
 21
-23.2605008116
 31
0.0
 11
4.3574854277
 21
-23.2341879481
 31
0.0
 11
4.3446629869
 21
-23.2085515212
 31
0.0
 11
4.3235118479
 21
-23.184316137
 31
0.0
 11
4.2941774939
 21
-23.162302657
 31
0.0
 11
4.2570531928
 21
-23.1434545214
 31
0.0
 11
4.2130008835
 21
-23.1288218061
 31
0.0
 11
4.1635924737
 21
-23.1194543615
 31
0.0
 11
4.1112166274
 21
-23.1161632443
 31
0.0
  0
SPLINE
  5
716
100
AcDbEntity
  8
RACCORDO
100
AcDbSpline
 62
253
  6
CONTINUOUS
 70
0
 71
3
 72
13
 73
9
 74
7
 42
0.0000001
 43
0.0000001
 44
0.0000000001
 12
-0.0012265943
 22
0.3651869702
 32
0.0
 13
-0.3651878714
 23
0.0009199792
 33
0.0
 40
0.0
 40
0.0
 40
0.0
 40
0.0
 40
0.1162393822
 40
0.2339783948
 40
0.3543711753
 40
0.4780981574
 40
0.7345378061
 40
1.0
 40
1.0
 40
1.0
 40
1.0
 10
4.3561217955
 20
-23.8378510808
 30
0.0
 10
4.3560742693
 20
-23.8237013782
 30
0.0
 10
4.3527157363
 20
-23.7951283732
 30
0.0
 10
4.3381591664
 20
-23.7541680422
 30
0.0
 10
4.3146882942
 20
-23.7164962547
 30
0.0
 10
4.2723855723
 20
-23.6721345091
 30
0.0
 10
4.2024592969
 20
-23.6323003182
 30
0.0
 10
4.1384405508
 20
-23.6214261364
 30
0.0
 10
4.1061260263
 20
-23.6213447299
 30
0.0
 11
4.3561217955
 21
-23.8378510808
 31
0.0
 11
4.3511940751
 21
-23.7956887202
 31
0.0
 11
4.3368835812
 21
-23.7551430495
 31
0.0
 11
4.3137379175
 21
-23.7177625973
 31
0.0
 11
4.2826430182
 21
-23.6849803264
 31
0.0
 11
4.2016274632
 21
-23.6380058115
 31
0.0
 11
4.1061260263
 21
-23.6213447299
 31
0.0
  0
SPLINE
  5
717
100
AcDbEntity
  8
RACCORDO
100
AcDbSpline
 62
253
  6
CONTINUOUS
 70
0
 71
3
 72
13
 73
9
 74
7
 42
0.0000001
 43
0.0000001
 44
0.0000000001
 12
0.0012265943
 22
0.3651869702
 32
0.0
 13
0.3651878714
 23
0.0009199792
 33
0.0
 40
0.0
 40
0.0
 40
0.0
 40
0.0
 40
0.1162393822
 40
0.2339783948
 40
0.3543711753
 40
0.4780981574
 40
0.7345378061
 40
1.0
 40
1.0
 40
1.0
 40
1.0
 10
1.9823189529
 20
-23.8378510808
 30
0.0
 10
1.9823664791
 20
-23.8237013782
 30
0.0
 10
1.9857250122
 20
-23.7951283732
 30
0.0
 10
2.0002815821
 20
-23.7541680422
 30
0.0
 10
2.0237524542
 20
-23.7164962547
 30
0.0
 10
2.0660551762
 20
-23.6721345091
 30
0.0
 10
2.1359814515
 20
-23.6323003182
 30
0.0
 10
2.2000001976
 20
-23.6214261364
 30
0.0
 10
2.2323147222
 20
-23.6213447299
 30
0.0
 11
1.9823189529
 21
-23.8378510808
 31
0.0
 11
1.9872466733
 21
-23.7956887202
 31
0.0
 11
2.0015571673
 21
-23.7551430495
 31
0.0
 11
2.0247028309
 21
-23.7177625973
 31
0.0
 11
2.0557977303
 21
-23.6849803264
 31
0.0
 11
2.1368132853
 21
-23.6380058115
 31
0.0
 11
2.2323147222
 21
-23.6213447299
 31
0.0
  0
SPLINE
  5
718
100
AcDbEntity
  8
RACCORDO
100
AcDbSpline
 62
7
  6
CONTINUOUS
 70
0
 71
3
 72
15
 73
11
 74
9
 42
0.0000001
 43
0.0000001
 44
0.0000000001
 12
0.0031667934
 22
0.3142744787
 32
0.0
 13
0.3142904334
 23
0.0
 33
0.0
 40
0.0
 40
0.0
 40
0.0
 40
0.0
 40
0.0847645112
 40
0.1757885562
 40
0.2779059284
 40
0.3943071028
 40
0.5264306674
 40
0.6737385869
 40
0.8333592401
 40
1.0
 40
1.0
 40
1.0
 40
1.0
 10
1.9765011231
 20
-23.2605008116
 30
0.0
 10
1.9765906004
 20
-23.2516210374
 30
0.0
 10
1.9798209183
 20
-23.2331271327
 30
0.0
 10
1.9933223738
 20
-23.2069289414
 30
0.0
 10
2.0151156261
 20
-23.1825305007
 30
0.0
 10
2.0448649253
 20
-23.1606201868
 30
0.0
 10
2.082105973
 20
-23.1419954045
 30
0.0
 10
2.1259471104
 20
-23.1275914347
 30
0.0
 10
2.1748288405
 20
-23.1184315258
 30
0.0
 10
2.2090390268
 20
-23.1161632443
 30
0.0
 10
2.2264968923
 20
-23.1161632443
 30
0.0
 11
1.9765011231
 21
-23.2605008116
 31
0.0
 11
1.9809405323
 21
-23.234232633
 31
0.0
 11
1.9937195428
 21
-23.2086374423
 31
0.0
 11
2.0147989606
 21
-23.1844358738
 31
0.0
 11
2.0440347783
 21
-23.1624440663
 31
0.0
 11
2.0810379277
 21
-23.1435997865
 31
0.0
 11
2.1249555892
 21
-23.128947322
 31
0.0
 11
2.1742319355
 21
-23.1195348784
 31
0.0
 11
2.2264968923
 21
-23.1161632443
 31
0.0
  0
SPLINE
  5
719
100
AcDbEntity
  8
RACCORDO
100
AcDbSpline
 62
7
  6
CONTINUOUS
 70
0
 71
3
 72
12
 73
8
 74
6
 42
0.0000001
 43
0.0000001
 44
0.0000000001
 12
-0.0345141171
 22
-0.0031148624
 32
0.0
 13
-0.0037710146
 23
-0.0344486008
 33
0.0
 40
0.0
 40
0.0
 40
0.0
 40
0.0
 40
0.4189758554
 40
0.7258150368
 40
0.9169374284
 40
0.970078621
 40
1.0
 40
1.0
 40
1.0
 40
1.0
 10
2.0103050343
 20
-22.3214243521
 30
0.0
 10
2.0054848404
 20
-22.3218593695
 30
0.0
 10
1.9971182713
 20
-22.322595322
 30
0.0
 10
1.9866286319
 20
-22.3236984807
 30
0.0
 10
1.9802656884
 20
-22.3247899792
 30
0.0
 10
1.977334212
 20
-22.3258280544
 30
0.0
 10
1.9765387344
 20
-22.3265808917
 30
0.0
 10
1.9765011231
 20
-22.3269244749
 30
0.0
 11
2.0103050343
 21
-22.3214243521
 31
0.0
 11
1.9958467637
 21
-22.322754765
 31
0.0
 11
1.9852848108
 21
-22.3239846979
 31
0.0
 11
1.9788003244
 21
-22.325333255
 31
0.0
 11
1.9771238547
 21
-22.3260953901
 31
0.0
 11
1.9765011231
 21
-22.3269244749
 31
0.0
  0
SPLINE
  5
71A
100
AcDbEntity
  8
RACCORDO
100
AcDbSpline
 62
253
  6
CONTINUOUS
 70
0
 71
3
 72
13
 73
9
 74
7
 42
0.0000001
 43
0.0000001
 44
0.0000000001
 12
-0.0012265944
 22
-0.3651869708
 32
0.0
 13
-0.3651878719
 23
-0.0009199792
 33
0.0
 40
0.0
 40
0.0
 40
0.0
 40
0.0
 40
0.1162394861
 40
0.2339784844
 40
0.3543712552
 40
0.4780982232
 40
0.7345378384
 40
1.0
 40
1.0
 40
1.0
 40
1.0
 10
23.2561217955
 20
23.8508240538
 30
0.0
 10
23.2560742693
 20
23.8366743385
 30
0.0
 10
23.2527157348
 20
23.8081013217
 30
0.0
 10
23.2381591491
 20
23.767140986
 30
0.0
 10
23.2146882771
 20
23.7294692043
 30
0.0
 10
23.1723855533
 20
23.6851074698
 30
0.0
 10
23.1024592852
 20
23.6452732879
 30
0.0
 10
23.0384405469
 20
23.6343991094
 30
0.0
 10
23.0061260263
 20
23.6343177028
 30
0.0
 11
23.2561217955
 21
23.8508240538
 31
0.0
 11
23.2511940678
 21
23.8086616557
 31
0.0
 11
23.2368835661
 21
23.7681159932
 31
0.0
 11
23.2137378998
 21
23.7307355468
 31
0.0
 11
23.1826429999
 21
23.6979532834
 31
0.0
 11
23.1016274521
 21
23.6509787802
 31
0.0
 11
23.0061260263
 21
23.6343177028
 31
0.0
  0
SPLINE
  5
71B
100
AcDbEntity
  8
RACCORDO
100
AcDbSpline
 62
7
  6
CONTINUOUS
 70
0
 71
3
 72
15
 73
11
 74
9
 42
0.0000001
 43
0.0000001
 44
0.0000000001
 12
-0.0031741023
 22
-0.314999815
 32
0.0
 13
-0.3150158065
 23
0.0
 33
0.0
 40
0.0
 40
0.0
 40
0.0
 40
0.0
 40
0.0847170201
 40
0.1757101917
 40
0.2778229544
 40
0.3942475014
 40
0.526415195
 40
0.6737696629
 40
0.833407897
 40
1.0
 40
1.0
 40
1.0
 40
1.0
 10
23.2619396253
 20
23.2734737846
 30
0.0
 10
23.2618499918
 20
23.2645785027
 30
0.0
 10
23.2586079837
 20
23.2460499524
 30
0.0
 10
23.2450588536
 20
23.2198087018
 30
0.0
 10
23.2231907547
 20
23.1953769558
 30
0.0
 10
23.1933417961
 20
23.1734468919
 30
0.0
 10
23.1559807755
 20
23.154818794
 30
0.0
 10
23.1120082117
 20
23.1404414978
 30
0.0
 10
23.0629999697
 20
23.1313057627
 30
0.0
 10
23.0287096759
 20
23.1291362173
 30
0.0
 10
23.0112166274
 20
23.1291362173
 30
0.0
 11
23.2619396253
 21
23.2734737846
 31
0.0
 11
23.2574854277
 21
23.247160921
 31
0.0
 11
23.2446629869
 21
23.2215244942
 31
0.0
 11
23.2235118479
 21
23.19728911
 31
0.0
 11
23.1941774939
 21
23.17527563
 31
0.0
 11
23.1570531928
 21
23.1564274944
 31
0.0
 11
23.1130008835
 21
23.1417947791
 31
0.0
 11
23.0635924737
 21
23.1324273345
 31
0.0
 11
23.0112166274
 21
23.1291362173
 31
0.0
  0
LINE
  5
71C
100
AcDbEntity
  8
RACCORDO
100
AcDbLine
 62
7
  6
CONTINUOUS
 10
1.9765011231
 20
-22.3269244749
 11
1.9692203742
 21
-22.3932215873
  0
SPLINE
  5
71D
100
AcDbEntity
  8
RACCORDO
100
AcDbSpline
 62
7
  6
CONTINUOUS
 70
0
 71
3
 72
15
 73
11
 74
9
 42
0.0000001
 43
0.0000001
 44
0.0000000001
 12
0.0031741023
 22
-0.314999815
 32
0.0
 13
0.3150158065
 23
-0.0
 33
0.0
 40
0.0
 40
0.0
 40
0.0
 40
0.0
 40
0.0847170201
 40
0.1757101917
 40
0.2778229544
 40
0.3942475014
 40
0.526415195
 40
0.6737696629
 40
0.833407897
 40
1.0
 40
1.0
 40
1.0
 40
1.0
 10
20.8765011231
 20
23.2734737846
 30
0.0
 10
20.8765907566
 20
23.2645785027
 30
0.0
 10
20.8798327647
 20
23.2460499524
 30
0.0
 10
20.8933818949
 20
23.2198087018
 30
0.0
 10
20.9152499937
 20
23.1953769558
 30
0.0
 10
20.9450989523
 20
23.1734468919
 30
0.0
 10
20.9824599729
 20
23.154818794
 30
0.0
 10
21.0264325368
 20
23.1404414978
 30
0.0
 10
21.0754407787
 20
23.1313057627
 30
0.0
 10
21.1097310725
 20
23.1291362173
 30
0.0
 10
21.1272241211
 20
23.1291362173
 30
0.0
 11
20.8765011231
 21
23.2734737846
 31
0.0
 11
20.8809553208
 21
23.247160921
 31
0.0
 11
20.8937777616
 21
23.2215244942
 31
0.0
 11
20.9149289006
 21
23.19728911
 31
0.0
 11
20.9442632545
 21
23.17527563
 31
0.0
 11
20.9813875556
 21
23.1564274944
 31
0.0
 11
21.0254398649
 21
23.1417947791
 31
0.0
 11
21.0748482747
 21
23.1324273345
 31
0.0
 11
21.1272241211
 21
23.1291362173
 31
0.0
  0
SPLINE
  5
71E
100
AcDbEntity
  8
RACCORDO
100
AcDbSpline
 62
253
  6
CONTINUOUS
 70
0
 71
3
 72
13
 73
9
 74
7
 42
0.0000001
 43
0.0000001
 44
0.0000000001
 12
0.0012265944
 22
-0.3651869708
 32
0.0
 13
0.3651878719
 23
-0.0009199792
 33
0.0
 40
0.0
 40
0.0
 40
0.0
 40
0.0
 40
0.1162394861
 40
0.2339784844
 40
0.3543712552
 40
0.4780982232
 40
0.7345378384
 40
1.0
 40
1.0
 40
1.0
 40
1.0
 10
20.8823189529
 20
23.8508240538
 30
0.0
 10
20.8823664792
 20
23.8366743385
 30
0.0
 10
20.8857250136
 20
23.8081013217
 30
0.0
 10
20.9002815993
 20
23.767140986
 30
0.0
 10
20.9237524713
 20
23.7294692043
 30
0.0
 10
20.9660551951
 20
23.6851074698
 30
0.0
 10
21.0359814632
 20
23.6452732879
 30
0.0
 10
21.1000002015
 20
23.6343991094
 30
0.0
 10
21.1323147222
 20
23.6343177028
 30
0.0
 11
20.8823189529
 21
23.8508240538
 31
0.0
 11
20.8872466807
 21
23.8086616557
 31
0.0
 11
20.9015571824
 21
23.7681159932
 31
0.0
 11
20.9247028486
 21
23.7307355468
 31
0.0
 11
20.9557977485
 21
23.6979532834
 31
0.0
 11
21.0368132963
 21
23.6509787802
 31
0.0
 11
21.1323147222
 21
23.6343177028
 31
0.0
  0
SPLINE
  5
71F
100
AcDbEntity
  8
RACCORDO
100
AcDbSpline
 62
253
  6
CONTINUOUS
 70
0
 71
3
 72
13
 73
9
 74
7
 42
0.0000001
 43
0.0000001
 44
0.0000000001
 12
-0.0012265944
 22
-0.3651869708
 32
0.0
 13
-0.3651878719
 23
-0.0009199792
 33
0.0
 40
0.0
 40
0.0
 40
0.0
 40
0.0
 40
0.1162394861
 40
0.2339784844
 40
0.3543712552
 40
0.4780982232
 40
0.7345378384
 40
1.0
 40
1.0
 40
1.0
 40
1.0
 10
4.3561217955
 20
23.8508240538
 30
0.0
 10
4.3560742693
 20
23.8366743385
 30
0.0
 10
4.3527157348
 20
23.8081013217
 30
0.0
 10
4.3381591491
 20
23.767140986
 30
0.0
 10
4.3146882771
 20
23.7294692043
 30
0.0
 10
4.2723855533
 20
23.6851074698
 30
0.0
 10
4.2024592852
 20
23.6452732879
 30
0.0
 10
4.1384405469
 20
23.6343991094
 30
0.0
 10
4.1061260263
 20
23.6343177028
 30
0.0
 11
4.3561217955
 21
23.8508240538
 31
0.0
 11
4.3511940678
 21
23.8086616557
 31
0.0
 11
4.3368835661
 21
23.7681159932
 31
0.0
 11
4.3137378998
 21
23.7307355468
 31
0.0
 11
4.2826429999
 21
23.6979532834
 31
0.0
 11
4.2016274521
 21
23.6509787802
 31
0.0
 11
4.1061260263
 21
23.6343177028
 31
0.0
  0
SPLINE
  5
720
100
AcDbEntity
  8
RACCORDO
100
AcDbSpline
 62
7
  6
CONTINUOUS
 70
0
 71
3
 72
15
 73
11
 74
9
 42
0.0000001
 43
0.0000001
 44
0.0000000001
 12
-0.0031741023
 22
-0.314999815
 32
0.0
 13
-0.3150158065
 23
0.0
 33
0.0
 40
0.0
 40
0.0
 40
0.0
 40
0.0
 40
0.0847170201
 40
0.1757101917
 40
0.2778229544
 40
0.3942475014
 40
0.526415195
 40
0.6737696629
 40
0.833407897
 40
1.0
 40
1.0
 40
1.0
 40
1.0
 10
4.3619396253
 20
23.2734737846
 30
0.0
 10
4.3618499918
 20
23.2645785027
 30
0.0
 10
4.3586079837
 20
23.2460499524
 30
0.0
 10
4.3450588536
 20
23.2198087018
 30
0.0
 10
4.3231907547
 20
23.1953769558
 30
0.0
 10
4.2933417961
 20
23.1734468919
 30
0.0
 10
4.2559807755
 20
23.154818794
 30
0.0
 10
4.2120082117
 20
23.1404414978
 30
0.0
 10
4.1629999697
 20
23.1313057627
 30
0.0
 10
4.1287096759
 20
23.1291362173
 30
0.0
 10
4.1112166274
 20
23.1291362173
 30
0.0
 11
4.3619396253
 21
23.2734737846
 31
0.0
 11
4.3574854277
 21
23.247160921
 31
0.0
 11
4.3446629869
 21
23.2215244942
 31
0.0
 11
4.3235118479
 21
23.19728911
 31
0.0
 11
4.2941774939
 21
23.17527563
 31
0.0
 11
4.2570531928
 21
23.1564274944
 31
0.0
 11
4.2130008835
 21
23.1417947791
 31
0.0
 11
4.1635924737
 21
23.1324273345
 31
0.0
 11
4.1112166274
 21
23.1291362173
 31
0.0
  0
SPLINE
  5
721
100
AcDbEntity
  8
RACCORDO
100
AcDbSpline
 62
7
  6
CONTINUOUS
 70
0
 71
3
 72
15
 73
11
 74
9
 42
0.0000001
 43
0.0000001
 44
0.0000000001
 12
0.0031741023
 22
-0.314999815
 32
0.0
 13
0.3150158065
 23
-0.0
 33
0.0
 40
0.0
 40
0.0
 40
0.0
 40
0.0
 40
0.0847170201
 40
0.1757101917
 40
0.2778229544
 40
0.3942475014
 40
0.526415195
 40
0.6737696629
 40
0.833407897
 40
1.0
 40
1.0
 40
1.0
 40
1.0
 10
1.9765011231
 20
23.2734737846
 30
0.0
 10
1.9765907566
 20
23.2645785027
 30
0.0
 10
1.9798327647
 20
23.2460499524
 30
0.0
 10
1.9933818949
 20
23.2198087018
 30
0.0
 10
2.0152499937
 20
23.1953769558
 30
0.0
 10
2.0450989523
 20
23.1734468919
 30
0.0
 10
2.0824599729
 20
23.154818794
 30
0.0
 10
2.1264325368
 20
23.1404414978
 30
0.0
 10
2.1754407787
 20
23.1313057627
 30
0.0
 10
2.2097310725
 20
23.1291362173
 30
0.0
 10
2.2272241211
 20
23.1291362173
 30
0.0
 11
1.9765011231
 21
23.2734737846
 31
0.0
 11
1.9809553208
 21
23.247160921
 31
0.0
 11
1.9937777616
 21
23.2215244942
 31
0.0
 11
2.0149289006
 21
23.19728911
 31
0.0
 11
2.0442632545
 21
23.17527563
 31
0.0
 11
2.0813875556
 21
23.1564274944
 31
0.0
 11
2.1254398649
 21
23.1417947791
 31
0.0
 11
2.1748482747
 21
23.1324273345
 31
0.0
 11
2.2272241211
 21
23.1291362173
 31
0.0
  0
SPLINE
  5
722
100
AcDbEntity
  8
RACCORDO
100
AcDbSpline
 62
253
  6
CONTINUOUS
 70
0
 71
3
 72
13
 73
9
 74
7
 42
0.0000001
 43
0.0000001
 44
0.0000000001
 12
0.0012265944
 22
-0.3651869708
 32
0.0
 13
0.3651878719
 23
-0.0009199792
 33
0.0
 40
0.0
 40
0.0
 40
0.0
 40
0.0
 40
0.1162394861
 40
0.2339784844
 40
0.3543712552
 40
0.4780982232
 40
0.7345378384
 40
1.0
 40
1.0
 40
1.0
 40
1.0
 10
1.9823189529
 20
23.8508240538
 30
0.0
 10
1.9823664792
 20
23.8366743385
 30
0.0
 10
1.9857250136
 20
23.8081013217
 30
0.0
 10
2.0002815993
 20
23.767140986
 30
0.0
 10
2.0237524713
 20
23.7294692043
 30
0.0
 10
2.0660551951
 20
23.6851074698
 30
0.0
 10
2.1359814632
 20
23.6452732879
 30
0.0
 10
2.2000002015
 20
23.6343991094
 30
0.0
 10
2.2323147222
 20
23.6343177028
 30
0.0
 11
1.9823189529
 21
23.8508240538
 31
0.0
 11
1.9872466807
 21
23.8086616557
 31
0.0
 11
2.0015571824
 21
23.7681159932
 31
0.0
 11
2.0247028486
 21
23.7307355468
 31
0.0
 11
2.0557977485
 21
23.6979532834
 31
0.0
 11
2.1368132963
 21
23.6509787802
 31
0.0
 11
2.2323147222
 21
23.6343177028
 31
0.0
  0
SPLINE
  5
723
100
AcDbEntity
  8
RACCORDO
100
AcDbSpline
 62
7
  6
CONTINUOUS
 70
0
 71
3
 72
12
 73
8
 74
6
 42
0.0000001
 43
0.0000001
 44
0.0000000001
 12
0.0037710146
 22
-0.0344486008
 32
0.0
 13
0.0345141171
 23
-0.0031148624
 33
0.0
 40
0.0
 40
0.0
 40
0.0
 40
0.0
 40
0.029921379
 40
0.0830625716
 40
0.2741849632
 40
0.5810241446
 40
1.0
 40
1.0
 40
1.0
 40
1.0
 10
1.9765011231
 20
22.3398974479
 30
0.0
 10
1.9765387344
 20
22.3395538647
 30
0.0
 10
1.977334212
 20
22.3388010274
 30
0.0
 10
1.9802656884
 20
22.3377629522
 30
0.0
 10
1.9866286319
 20
22.3366714536
 30
0.0
 10
1.9971182713
 20
22.335568295
 30
0.0
 10
2.0054848404
 20
22.3348323425
 30
0.0
 10
2.0103050343
 20
22.3343973251
 30
0.0
 11
1.9765011231
 21
22.3398974479
 31
0.0
 11
1.9771238547
 21
22.3390683631
 31
0.0
 11
1.9788003244
 21
22.3383062279
 31
0.0
 11
1.9852848108
 21
22.3369576709
 31
0.0
 11
1.9958467637
 21
22.335727738
 31
0.0
 11
2.0103050343
 21
22.3343973251
 31
0.0
  0
LINE
  5
724
100
AcDbEntity
  8
RACCORDO
100
AcDbLine
 62
7
  6
CONTINUOUS
 10
1.9692203742
 20
22.4061945603
 11
1.9765011231
 21
22.3398974479
  0
SPLINE
  5
725
100
AcDbEntity
  8
RACCORDO
100
AcDbSpline
 62
253
  6
CONTINUOUS
 70
0
 71
3
 72
22
 73
18
 74
16
 42
0.0000001
 43
0.0000001
 44
0.0000000001
 12
-0.5013381469
 22
-0.0003595753
 32
0.0
 13
-0.1956838549
 23
-0.4615711167
 33
0.0
 40
0.0
 40
0.0
 40
0.0
 40
0.0
 40
0.1924426354
 40
0.3776590654
 40
0.5487127745
 40
0.6268970508
 40
0.6991916151
 40
0.7649187208
 40
0.8234648914
 40
0.8742863547
 40
0.9169150492
 40
0.9509674293
 40
0.9761614218
 40
0.9853888068
 40
0.9923716027
 40
0.9971653164
 40
1.0
 40
1.0
 40
1.0
 40
1.0
 10
2.1364711827
 20
20.5689548113
 30
0.0
 10
2.1043115713
 20
20.5689317454
 30
0.0
 10
2.0411997875
 20
20.5686385278
 30
0.0
 10
1.9495094315
 20
20.5674642481
 30
0.0
 10
1.8769225033
 20
20.5658756623
 30
0.0
 10
1.8232150606
 20
20.5642353828
 30
0.0
 10
1.7871087747
 20
20.5628965354
 30
0.0
 10
1.754292401
 20
20.5614259815
 30
0.0
 10
1.7250740849
 20
20.5598394841
 30
0.0
 10
1.6997294742
 20
20.5581538659
 30
0.0
 10
1.6784916294
 20
20.5563934493
 30
0.0
 10
1.6615672974
 20
20.5545763745
 30
0.0
 10
1.6502272168
 20
20.5529332782
 30
0.0
 10
1.6434634791
 20
20.5515141355
 30
0.0
 10
1.6400622616
 20
20.5505524021
 30
0.0
 10
1.6378338347
 20
20.5496486749
 30
0.0
 10
1.6367322357
 20
20.548828479
 30
0.0
 10
1.6365473351
 20
20.548392343
 30
0.0
 11
2.1364711827
 21
20.5689548113
 31
0.0
 11
2.0399933995
 21
20.568499194
 31
0.0
 11
1.9471452144
 21
20.567287921
 31
0.0
 11
1.861410972
 21
20.5653664561
 31
0.0
 11
1.8222327418
 21
20.5641610171
 31
0.0
 11
1.7860140078
 21
20.5628070675
 31
0.0
 11
1.7530961859
 21
20.5613173475
 31
0.0
 11
1.7237890188
 21
20.5597058998
 31
0.0
 11
1.6983682603
 21
20.557987914
 31
0.0
 11
1.6770735101
 21
20.5561795475
 31
0.0
 11
1.6601057722
 21
20.5542978166
 31
0.0
 11
1.6476245039
 21
20.5523605901
 31
0.0
 11
1.6431042964
 21
20.551376729
 31
0.0
 11
1.6397467705
 21
20.550385659
 31
0.0
 11
1.6375594757
 21
20.5493899386
 31
0.0
 11
1.6365473351
 21
20.548392343
 31
0.0
  0
SPLINE
  5
726
100
AcDbEntity
  8
RACCORDO
100
AcDbSpline
 62
253
  6
CONTINUOUS
 70
0
 71
3
 72
22
 73
18
 74
16
 42
0.0000001
 43
0.0000001
 44
0.0000000001
 12
-0.5013381437
 22
0.0003595746
 32
0.0
 13
-0.1956862019
 23
0.4615701182
 33
0.0
 40
0.0
 40
0.0
 40
0.0
 40
0.0
 40
0.1924426027
 40
0.3776590047
 40
0.5487126941
 40
0.6268969647
 40
0.6991915264
 40
0.7649186326
 40
0.8234648071
 40
0.8742862776
 40
0.9169149825
 40
0.9509673761
 40
0.9761613852
 40
0.9853887794
 40
0.992371585
 40
0.9971653085
 40
1.0
 40
1.0
 40
1.0
 40
1.0
 10
2.1364711827
 20
-20.5559818323
 30
0.0
 10
2.104311577
 20
-20.5559587664
 30
0.0
 10
2.0411998038
 20
-20.555665549
 30
0.0
 10
1.9495094618
 20
-20.5544912698
 30
0.0
 10
1.8769225429
 20
-20.5529026847
 30
0.0
 10
1.8232151052
 20
-20.5512624058
 30
0.0
 10
1.7871088208
 20
-20.5499235589
 30
0.0
 10
1.7542924471
 20
-20.5484530054
 30
0.0
 10
1.7250741292
 20
-20.5468665085
 30
0.0
 10
1.6997295149
 20
-20.5451808908
 30
0.0
 10
1.678491665
 20
-20.5434204746
 30
0.0
 10
1.6615673263
 20
-20.5416034002
 30
0.0
 10
1.6502272391
 20
-20.5399603042
 30
0.0
 10
1.6434634953
 20
-20.5385411617
 30
0.0
 10
1.640062273
 20
-20.5375794287
 30
0.0
 10
1.6378338411
 20
-20.536675701
 30
0.0
 10
1.6367322385
 20
-20.5358555063
 30
0.0
 10
1.6365473351
 20
-20.53541937
 30
0.0
 11
2.1364711827
 21
-20.5559818323
 31
0.0
 11
2.0399934165
 21
-20.5555262153
 31
0.0
 11
1.9471452461
 21
-20.5543149429
 31
0.0
 11
1.861411014
 21
-20.5523934787
 31
0.0
 11
1.822232787
 21
-20.5511880401
 31
0.0
 11
1.7860140545
 21
-20.5498340911
 31
0.0
 11
1.7530962325
 21
-20.5483443715
 31
0.0
 11
1.7237890636
 21
-20.5467329243
 31
0.0
 11
1.6983683016
 21
-20.545014939
 31
0.0
 11
1.6770735463
 21
-20.5432065729
 31
0.0
 11
1.6601058016
 21
-20.5413248425
 31
0.0
 11
1.6476245249
 21
-20.5393876164
 31
0.0
 11
1.6431043127
 21
-20.5384037555
 31
0.0
 11
1.6397467817
 21
-20.5374126857
 31
0.0
 11
1.6375594815
 21
-20.5364169655
 31
0.0
 11
1.6365473351
 21
-20.53541937
 31
0.0
  0
SPLINE
  5
727
100
AcDbEntity
  8
RACCORDO
100
AcDbSpline
 62
7
  6
CONTINUOUS
 70
0
 71
3
 72
12
 73
8
 74
6
 42
0.0000001
 43
0.0000001
 44
0.0000000001
 12
-0.0037710146
 22
0.0344486008
 32
0.0
 13
-0.0345141171
 23
0.0031148624
 33
0.0
 40
0.0
 40
0.0
 40
0.0
 40
0.0
 40
0.029921379
 40
0.0830625716
 40
0.2741849632
 40
0.5810241446
 40
1.0
 40
1.0
 40
1.0
 40
1.0
 10
68.2619396253
 20
-22.3269244749
 30
0.0
 10
68.261902014
 20
-22.3265808917
 30
0.0
 10
68.2611065365
 20
-22.3258280544
 30
0.0
 10
68.25817506
 20
-22.3247899792
 30
0.0
 10
68.2518121165
 20
-22.3236984807
 30
0.0
 10
68.2413224771
 20
-22.322595322
 30
0.0
 10
68.2329559081
 20
-22.3218593695
 30
0.0
 10
68.2281357142
 20
-22.3214243521
 30
0.0
 11
68.2619396253
 21
-22.3269244749
 31
0.0
 11
68.2613168937
 21
-22.3260953901
 31
0.0
 11
68.259640424
 21
-22.325333255
 31
0.0
 11
68.2531559376
 21
-22.3239846979
 31
0.0
 11
68.2425939847
 21
-22.322754765
 31
0.0
 11
68.2281357142
 21
-22.3214243521
 31
0.0
  0
LINE
  5
728
100
AcDbEntity
  8
RACCORDO
100
AcDbLine
 62
7
  6
CONTINUOUS
 10
68.2692203742
 20
-22.3932215873
 11
68.2619396253
 21
-22.3269244749
  0
SPLINE
  5
729
100
AcDbEntity
  8
RACCORDO
100
AcDbSpline
 62
253
  6
CONTINUOUS
 70
0
 71
3
 72
22
 73
18
 74
16
 42
0.0000001
 43
0.0000001
 44
0.0000000001
 12
0.5013381469
 22
0.0003595754
 32
0.0
 13
0.1956838551
 23
0.4615711166
 33
0.0
 40
0.0
 40
0.0
 40
0.0
 40
0.0
 40
0.1924426354
 40
0.3776590654
 40
0.5487127745
 40
0.6268970508
 40
0.6991916151
 40
0.7649187208
 40
0.8234648914
 40
0.8742863547
 40
0.9169150492
 40
0.9509674293
 40
0.9761614218
 40
0.9853888068
 40
0.9923716027
 40
0.9971653164
 40
1.0
 40
1.0
 40
1.0
 40
1.0
 10
68.1019695657
 20
-20.5559818383
 30
0.0
 10
68.1341291771
 20
-20.5559587724
 30
0.0
 10
68.1972409609
 20
-20.5556655548
 30
0.0
 10
68.2889313169
 20
-20.5544912751
 30
0.0
 10
68.3615182451
 20
-20.5529026894
 30
0.0
 10
68.4152256879
 20
-20.5512624098
 30
0.0
 10
68.4513319737
 20
-20.5499235624
 30
0.0
 10
68.4841483474
 20
-20.5484530085
 30
0.0
 10
68.5133666635
 20
-20.5468665111
 30
0.0
 10
68.5387112743
 20
-20.545180893
 30
0.0
 10
68.5599491191
 20
-20.5434204763
 30
0.0
 10
68.576873451
 20
-20.5416034016
 30
0.0
 10
68.5882135317
 20
-20.5399603052
 30
0.0
 10
68.5949772694
 20
-20.5385411625
 30
0.0
 10
68.5983784868
 20
-20.5375794292
 30
0.0
 10
68.6006069137
 20
-20.5366757019
 30
0.0
 10
68.6017085127
 20
-20.535855506
 30
0.0
 10
68.6018934133
 20
-20.53541937
 30
0.0
 11
68.1019695657
 21
-20.5559818383
 31
0.0
 11
68.1984473489
 21
-20.5555262211
 31
0.0
 11
68.291295534
 21
-20.5543149481
 31
0.0
 11
68.3770297765
 21
-20.5523934831
 31
0.0
 11
68.4162080066
 21
-20.5511880441
 31
0.0
 11
68.4524267406
 21
-20.5498340945
 31
0.0
 11
68.4853445625
 21
-20.5483443745
 31
0.0
 11
68.5146517297
 21
-20.5467329269
 31
0.0
 11
68.5400724881
 21
-20.5450149411
 31
0.0
 11
68.5613672383
 21
-20.5432065745
 31
0.0
 11
68.5783349762
 21
-20.5413248437
 31
0.0
 11
68.5908162445
 21
-20.5393876171
 31
0.0
 11
68.595336452
 21
-20.538403756
 31
0.0
 11
68.598693978
 21
-20.537412686
 31
0.0
 11
68.6008812727
 21
-20.5364169657
 31
0.0
 11
68.6018934133
 21
-20.53541937
 31
0.0
  0
SPLINE
  5
72A
100
AcDbEntity
  8
RACCORDO
100
AcDbSpline
 62
253
  6
CONTINUOUS
 70
0
 71
3
 72
22
 73
18
 74
16
 42
0.0000001
 43
0.0000001
 44
0.0000000001
 12
0.5013381441
 22
-0.0003595746
 32
0.0
 13
0.1956859475
 23
-0.4615702265
 33
0.0
 40
0.0
 40
0.0
 40
0.0
 40
0.0
 40
0.1924426065
 40
0.3776590117
 40
0.5487127034
 40
0.6268969746
 40
0.6991915365
 40
0.7649186426
 40
0.8234648166
 40
0.8742862862
 40
0.9169149899
 40
0.950967382
 40
0.9761613892
 40
0.9853887824
 40
0.9923715869
 40
0.9971653093
 40
1.0
 40
1.0
 40
1.0
 40
1.0
 10
68.1019695657
 20
20.568954806
 30
0.0
 10
68.1341291721
 20
20.5689317401
 30
0.0
 10
68.1972409466
 20
20.5686385227
 30
0.0
 10
68.2889312902
 20
20.5674642434
 30
0.0
 10
68.3615182101
 20
20.5658756583
 30
0.0
 10
68.4152256483
 20
20.5642353793
 30
0.0
 10
68.4513319329
 20
20.5628965323
 30
0.0
 10
68.4841483066
 20
20.5614259788
 30
0.0
 10
68.5133666242
 20
20.5598394818
 30
0.0
 10
68.5387112381
 20
20.558153864
 30
0.0
 10
68.5599490874
 20
20.5563934478
 30
0.0
 10
68.5768734253
 20
20.5545763733
 30
0.0
 10
68.5882135118
 20
20.5529332773
 30
0.0
 10
68.5949772549
 20
20.5515141348
 30
0.0
 10
68.5983784767
 20
20.5505524018
 30
0.0
 10
68.6006069081
 20
20.549648674
 30
0.0
 10
68.6017085103
 20
20.5488284792
 30
0.0
 10
68.6018934133
 20
20.548392343
 30
0.0
 11
68.1019695657
 21
20.568954806
 31
0.0
 11
68.1984473339
 21
20.568499189
 31
0.0
 11
68.291295506
 21
20.5672879165
 31
0.0
 11
68.3770297393
 21
20.5653664522
 31
0.0
 11
68.4162079667
 21
20.5641610136
 31
0.0
 11
68.4524266993
 21
20.5628070645
 31
0.0
 11
68.4853445212
 21
20.5613173449
 31
0.0
 11
68.5146516899
 21
20.5597058976
 31
0.0
 11
68.5400724514
 21
20.5579879122
 31
0.0
 11
68.5613672061
 21
20.5561795461
 31
0.0
 11
68.5783349501
 21
20.5542978157
 31
0.0
 11
68.5908162258
 21
20.5523605895
 31
0.0
 11
68.5953364375
 21
20.5513767286
 31
0.0
 11
68.598693968
 21
20.5503856587
 31
0.0
 11
68.6008812676
 21
20.5493899385
 31
0.0
 11
68.6018934133
 21
20.548392343
 31
0.0
  0
SPLINE
  5
72B
100
AcDbEntity
  8
RACCORDO
100
AcDbSpline
 62
253
  6
CONTINUOUS
 70
0
 71
3
 72
18
 73
14
 74
12
 42
0.0000001
 43
0.0000001
 44
0.0000000001
 12
-0.2510579043
 22
0.055728658
 32
0.0
 13
-0.0750107916
 23
-0.2459860479
 33
0.0
 40
0.0
 40
0.0
 40
0.0
 40
0.0
 40
0.0170239076
 40
0.0375088548
 40
0.0635243122
 40
0.0960361582
 40
0.1354634568
 40
0.181941252
 40
0.2958996997
 40
0.4368959728
 40
0.6030010448
 40
0.7916958733
 40
1.0
 40
1.0
 40
1.0
 40
1.0
 10
8.7110307279
 20
-15.7816681422
 30
0.0
 10
8.7096060657
 20
-15.7813519023
 30
0.0
 10
8.7062581244
 20
-15.7815205675
 30
0.0
 10
8.7013018938
 20
-15.7839740387
 30
0.0
 10
8.6960783574
 20
-15.7883405236
 30
0.0
 10
8.6905026853
 20
-15.7946469473
 30
0.0
 10
8.6845618778
 20
-15.8028916012
 30
0.0
 10
8.6755529105
 20
-15.817476865
 30
0.0
 10
8.6637895087
 20
-15.8405225841
 30
0.0
 10
8.6493745073
 20
-15.8736252021
 30
0.0
 10
8.6341339667
 20
-15.9133123495
 30
0.0
 10
8.6183278751
 20
-15.9589285662
 30
0.0
 10
8.6080479861
 20
-15.9913750465
 30
0.0
 10
8.6028396336
 20
-16.0084550161
 30
0.0
 11
8.7110307279
 21
-15.7816681422
 31
0.0
 11
8.7066538657
 21
-15.7817686791
 31
0.0
 11
8.7018408739
 21
-15.783910608
 31
0.0
 11
8.6966141029
 21
-15.7880869472
 31
0.0
 11
8.6909955347
 21
-15.7942787575
 31
0.0
 11
8.6850077518
 21
-15.8024613777
 31
0.0
 11
8.6786761088
 21
-15.8125992172
 31
0.0
 11
8.6650886433
 21
-15.8385656301
 31
0.0
 11
8.6504603876
 21
-15.8717437791
 31
0.0
 11
8.6350359931
 21
-15.9115788479
 31
0.0
 11
8.6190734217
 21
-15.9574046997
 31
0.0
 11
8.6028396336
 21
-16.0084550161
 31
0.0
  0
SPLINE
  5
72C
100
AcDbEntity
  8
RACCORDO
100
AcDbSpline
 62
253
  6
CONTINUOUS
 70
0
 71
3
 72
20
 73
16
 74
14
 42
0.0000001
 43
0.0000001
 44
0.0000000001
 12
0.0410167816
 22
-0.2860933991
 32
0.0
 13
-0.2845075983
 23
-0.0508648787
 33
0.0
 40
0.0
 40
0.0
 40
0.0
 40
0.0
 40
0.0098246149
 40
0.0167496744
 40
0.0254130115
 40
0.048403599
 40
0.0792584551
 40
0.1180348556
 40
0.1646441816
 40
0.2189124456
 40
0.2806109779
 40
0.4251238546
 40
0.5954653257
 40
0.7883382707
 40
1.0
 40
1.0
 40
1.0
 40
1.0
 10
8.3242659872
 20
-15.3643662953
 30
0.0
 10
8.3244003118
 20
-15.3653032145
 30
0.0
 10
8.3236616181
 20
-15.3669621121
 30
0.0
 10
8.3219733616
 20
-15.3686977903
 30
0.0
 10
8.3190275891
 20
-15.3710023428
 30
0.0
 10
8.3137435049
 20
-15.3739249683
 30
0.0
 10
8.3055763567
 20
-15.3775331399
 30
0.0
 10
8.2950736935
 20
-15.3814340253
 30
0.0
 10
8.2822850071
 20
-15.3856197317
 30
0.0
 10
8.2672629113
 20
-15.3900589459
 30
0.0
 10
8.2430446221
 20
-15.3966378575
 30
0.0
 10
8.2077871534
 20
-15.4052026975
 30
0.0
 10
8.1599983274
 20
-15.4156472273
 30
0.0
 10
8.1056874353
 20
-15.4265059549
 30
0.0
 10
8.0673635079
 20
-15.4335945257
 30
0.0
 10
8.0472903845
 20
-15.4371832418
 30
0.0
 11
8.3242659872
 21
-15.3643662953
 31
0.0
 11
8.3234050567
 21
-15.3670721306
 31
0.0
 11
8.3220583093
 21
-15.3685527251
 31
0.0
 11
8.3201021867
 21
-15.3701157132
 31
0.0
 11
8.3143725292
 21
-15.3734807082
 31
0.0
 11
8.3062451137
 21
-15.3771507559
 31
0.0
 11
8.2957599141
 21
-15.3811080012
 31
0.0
 11
8.2829685728
 21
-15.3853327537
 31
0.0
 11
8.2679348594
 21
-15.3898040352
 31
0.0
 11
8.2507322285
 21
-15.3944998597
 31
0.0
 11
8.2101729845
 21
-15.4044710009
 31
0.0
 11
8.1620910129
 21
-15.4150493325
 31
0.0
 11
8.1074384182
 21
-15.42602544
 31
0.0
 11
8.0472903845
 21
-15.4371832418
 31
0.0
  0
SPLINE
  5
72D
100
AcDbEntity
  8
RACCORDO
100
AcDbSpline
 62
253
  6
CONTINUOUS
 70
0
 71
3
 72
26
 73
22
 74
20
 42
0.0000001
 43
0.0000001
 44
0.0000000001
 12
-0.0000324465
 22
-0.281853854
 32
0.0
 13
-0.2818532132
 23
-0.0006018905
 33
0.0
 40
0.0
 40
0.0
 40
0.0
 40
0.0
 40
0.0003039411
 40
0.0011295292
 40
0.0024926814
 40
0.0043953704
 40
0.0098199138
 40
0.0174012266
 40
0.027131167
 40
0.0389963148
 40
0.0529827975
 40
0.0690755855
 40
0.1074936675
 40
0.1540636787
 40
0.2085561635
 40
0.2707077541
 40
0.3402106923
 40
0.4167285089
 40
0.5892759062
 40
0.7849694833
 40
1.0
 40
1.0
 40
1.0
 40
1.0
 10
8.3192207078
 20
-15.2935135135
 30
0.0
 10
8.3192207045
 20
-15.2935420692
 30
0.0
 10
8.3190696282
 20
-15.2935604246
 30
0.0
 10
8.3188816514
 20
-15.2936024117
 30
0.0
 10
8.3184744344
 20
-15.2936334892
 30
0.0
 10
8.3176746429
 20
-15.2936926381
 30
0.0
 10
8.3162643659
 20
-15.2937551727
 30
0.0
 10
8.31413488
 20
-15.2938302107
 30
0.0
 10
8.3113926351
 20
-15.2939038734
 30
0.0
 10
8.3080512664
 20
-15.2939784171
 30
0.0
 10
8.3041109713
 20
-15.2940524734
 30
0.0
 10
8.2976765089
 20
-15.2941570019
 30
0.0
 10
8.2881805694
 20
-15.2942821095
 30
0.0
 10
8.2750769596
 20
-15.294422311
 30
0.0
 10
8.2597433769
 20
-15.2945586981
 30
0.0
 10
8.2422551214
 20
-15.294690483
 30
0.0
 10
8.2226974663
 20
-15.2948168701
 30
0.0
 10
8.1927680426
 20
-15.2949839497
 30
0.0
 10
8.1509827837
 20
-15.2951700245
 30
0.0
 10
8.0961839827
 20
-15.2953550426
 30
0.0
 10
8.0575960413
 20
-15.2954513985
 30
0.0
 10
8.037393694
 20
-15.2954945401
 30
0.0
 11
8.3192207078
 21
-15.2935135135
 31
0.0
 11
8.3191441708
 21
-15.2935519961
 31
0.0
 11
8.3189146794
 21
-15.2935904768
 31
0.0
 11
8.3185324
 21
-15.2936289418
 31
0.0
 11
8.3179974989
 21
-15.2936673772
 31
0.0
 11
8.3164704968
 21
-15.2937441031
 31
0.0
 11
8.3143350422
 21
-15.2938205438
 31
0.0
 11
8.3115936758
 21
-15.2938965987
 31
0.0
 11
8.3082502923
 21
-15.2939721789
 31
0.0
 11
8.3043088621
 21
-15.2940471965
 31
0.0
 11
8.2997736574
 21
-15.2941215632
 31
0.0
 11
8.2889463629
 21
-15.2942679817
 31
0.0
 11
8.2758212016
 21
-15.2944107094
 31
0.0
 11
8.2604629077
 21
-15.2945490477
 31
0.0
 11
8.2429457492
 21
-15.29468232
 31
0.0
 11
8.2233564934
 21
-15.2948098768
 31
0.0
 11
8.2017899924
 21
-15.2949310909
 31
0.0
 11
8.1531573456
 21
-15.2951521615
 31
0.0
 11
8.0980006803
 21
-15.2953412064
 31
0.0
 11
8.037393694
 21
-15.2954945401
 31
0.0
  0
LINE
  5
72E
100
AcDbEntity
  8
RACCORDO
100
AcDbLine
 62
253
  6
CONTINUOUS
 10
8.3192203742
 20
0.0064864865
 11
8.0816534769
 21
0.0064208101
  0
SPLINE
  5
72F
100
AcDbEntity
  8
RACCORDO
100
AcDbSpline
 62
253
  6
CONTINUOUS
 70
0
 71
3
 72
26
 73
22
 74
20
 42
0.0000001
 43
0.0000001
 44
0.0000000001
 12
0.0000000321
 22
0.2818532478
 32
0.0
 13
-0.2818526052
 23
0.0006018718
 33
0.0
 40
0.0
 40
0.0
 40
0.0
 40
0.0
 40
0.0003039278
 40
0.0011295007
 40
0.0024926374
 40
0.0043953108
 40
0.0098198231
 40
0.0174011048
 40
0.0271310145
 40
0.0389961319
 40
0.052982585
 40
0.0690753443
 40
0.1074933721
 40
0.1540633354
 40
0.2085557808
 40
0.2707073426
 40
0.3402102651
 40
0.4167280815
 40
0.5892755329
 40
0.7849692493
 40
1.0
 40
1.0
 40
1.0
 40
1.0
 10
8.3192203742
 20
15.3064864865
 30
0.0
 10
8.3192203742
 20
15.3065150408
 30
0.0
 10
8.3190692972
 20
15.3065334006
 30
0.0
 10
8.3188813292
 20
15.3065753843
 30
0.0
 10
8.3184741149
 20
15.3066064641
 30
0.0
 10
8.3176743327
 20
15.3066656124
 30
0.0
 10
8.3162640648
 20
15.3067281485
 30
0.0
 10
8.3141345929
 20
15.3068031867
 30
0.0
 10
8.3113923624
 20
15.3068768502
 30
0.0
 10
8.3080510095
 20
15.3069513945
 30
0.0
 10
8.3041107312
 20
15.3070254514
 30
0.0
 10
8.2976762933
 20
15.3071299808
 30
0.0
 10
8.2881803866
 20
15.3072550893
 30
0.0
 10
8.2750768183
 20
15.3073952916
 30
0.0
 10
8.2597432796
 20
15.3075316794
 30
0.0
 10
8.2422550697
 20
15.3076634647
 30
0.0
 10
8.222697461
 20
15.3077898521
 30
0.0
 10
8.1927680983
 20
15.3079569316
 30
0.0
 10
8.1509829114
 20
15.3081430055
 30
0.0
 10
8.0961841885
 20
15.3083280216
 30
0.0
 10
8.0575962952
 20
15.3084243752
 30
0.0
 10
8.0373939695
 20
15.3084675155
 30
0.0
 11
8.3192203742
 21
15.3064864865
 31
0.0
 11
8.3191438418
 21
15.3065249695
 31
0.0
 11
8.3189143553
 21
15.3065634506
 31
0.0
 11
8.3185320812
 21
15.306601916
 31
0.0
 11
8.3179971857
 21
15.3066403517
 31
0.0
 11
8.3164701957
 21
15.3067170784
 31
0.0
 11
8.3143347546
 21
15.3067935199
 31
0.0
 11
8.3115934027
 21
15.3068695754
 31
0.0
 11
8.308250035
 21
15.3069451563
 31
0.0
 11
8.3043086217
 21
15.3070201745
 31
0.0
 11
8.2997734349
 21
15.3070945418
 31
0.0
 11
8.288946179
 21
15.3072409613
 31
0.0
 11
8.2758210596
 21
15.3073836899
 31
0.0
 11
8.2604628099
 21
15.3075220289
 31
0.0
 11
8.2429456973
 21
15.3076553016
 31
0.0
 11
8.2233564881
 21
15.3077828586
 31
0.0
 11
8.2017900337
 21
15.3079040727
 31
0.0
 11
8.1531574766
 21
15.3081251424
 31
0.0
 11
8.098000891
 21
15.3083141853
 31
0.0
 11
8.0373939695
 21
15.3084675155
 31
0.0
  0
SPLINE
  5
730
100
AcDbEntity
  8
RACCORDO
100
AcDbSpline
 62
253
  6
CONTINUOUS
 70
0
 71
3
 72
20
 73
16
 74
14
 42
0.0000001
 43
0.0000001
 44
0.0000000001
 12
0.0408971689
 22
0.2861316048
 32
0.0
 13
-0.2845279659
 23
0.0508695421
 33
0.0
 40
0.0
 40
0.0
 40
0.0
 40
0.0
 40
0.0098166536
 40
0.016739766
 40
0.0254020106
 40
0.0483919774
 40
0.0792473379
 40
0.1180248424
 40
0.1646355959
 40
0.2189054411
 40
0.2806055893
 40
0.4251214617
 40
0.5954651321
 40
0.7883390119
 40
1.0
 40
1.0
 40
1.0
 40
1.0
 10
8.3242659898
 20
15.3773392679
 30
0.0
 10
8.3243998142
 20
15.3782755529
 30
0.0
 10
8.3236596213
 20
15.3799330025
 30
0.0
 10
8.3219707607
 20
15.3816666701
 30
0.0
 10
8.3190235956
 20
15.3839693612
 30
0.0
 10
8.3137379913
 20
15.3868896977
 30
0.0
 10
8.3055689628
 20
15.3904954655
 30
0.0
 10
8.2950642933
 20
15.3943940491
 30
0.0
 10
8.2822734679
 20
15.3985776084
 30
0.0
 10
8.2672491478
 20
15.4030148381
 30
0.0
 10
8.243027677
 20
15.4095912113
 30
0.0
 10
8.2077662495
 20
15.4181535608
 30
0.0
 10
8.1599727981
 20
15.4285961981
 30
0.0
 10
8.1056574376
 20
15.4394541121
 30
0.0
 10
8.0673306813
 20
15.4465429414
 30
0.0
 10
8.0472561911
 20
15.4501319739
 30
0.0
 11
8.3242659898
 21
15.3773392679
 31
0.0
 11
8.3234034863
 21
15.3800424021
 31
0.0
 11
8.3220558961
 21
15.3815216639
 31
0.0
 11
8.3200988954
 21
15.3830833359
 31
0.0
 11
8.3143673814
 21
15.3864457616
 31
0.0
 11
8.3062379868
 21
15.3901133442
 31
0.0
 11
8.2957506994
 21
15.3940682522
 31
0.0
 11
8.2829571775
 21
15.398290819
 31
0.0
 11
8.2679212075
 21
15.4027600883
 31
0.0
 11
8.2507162616
 21
15.4074540954
 31
0.0
 11
8.2101522891
 21
15.4174222624
 31
0.0
 11
8.1620655912
 21
15.4279986148
 31
0.0
 11
8.1074084403
 21
15.4389738511
 31
0.0
 11
8.0472561911
 21
15.4501319739
 31
0.0
  0
SPLINE
  5
731
100
AcDbEntity
  8
RACCORDO
100
AcDbSpline
 62
253
  6
CONTINUOUS
 70
0
 71
3
 72
18
 73
14
 74
12
 42
0.0000001
 43
0.0000001
 44
0.0000000001
 12
-0.2511513799
 22
-0.0555758649
 32
0.0
 13
-0.075016278
 23
0.2460452203
 33
0.0
 40
0.0
 40
0.0
 40
0.0
 40
0.0
 40
0.0170155733
 40
0.0374974844
 40
0.0635132914
 40
0.0960272951
 40
0.1354576261
 40
0.1819387708
 40
0.2959035889
 40
0.4369043243
 40
0.6030108023
 40
0.7917030959
 40
1.0
 40
1.0
 40
1.0
 40
1.0
 10
8.7110307217
 20
15.7946411427
 30
0.0
 10
8.7096062268
 20
15.7943259243
 30
0.0
 10
8.7062586343
 20
15.7944974416
 30
0.0
 10
8.7013041011
 20
15.7969546976
 30
0.0
 10
8.6960818663
 20
15.8013249717
 30
0.0
 10
8.6905073132
 20
15.807635516
 30
0.0
 10
8.6845674781
 20
15.8158845814
 30
0.0
 10
8.675559806
 20
15.8304764693
 30
0.0
 10
8.6637976874
 20
15.8535307146
 30
0.0
 10
8.6493836831
 20
15.8866438048
 30
0.0
 10
8.6341437274
 20
15.9263417675
 30
0.0
 10
8.6183378
 20
15.9719688355
 30
0.0
 10
8.6080576298
 20
16.004422422
 30
0.0
 10
8.602849077
 20
16.0215059079
 30
0.0
 11
8.7110307217
 21
15.7946411427
 31
0.0
 11
8.7066550904
 21
15.7947449968
 31
0.0
 11
8.7018432724
 21
15.7968905713
 31
0.0
 11
8.6966176094
 21
15.8010708652
 31
0.0
 11
8.6910000758
 21
15.8072669178
 31
0.0
 11
8.6850132472
 21
15.8154540456
 31
0.0
 11
8.6786824719
 21
15.8255966316
 31
0.0
 11
8.6650964606
 21
15.8515731396
 31
0.0
 11
8.6504692563
 21
15.8847619743
 31
0.0
 11
8.635045488
 21
15.9246080399
 31
0.0
 11
8.6190831076
 21
15.9704448967
 31
0.0
 11
8.602849077
 21
16.0215059079
 31
0.0
  0
SPLINE
  5
732
100
AcDbEntity
  8
RACCORDO
100
AcDbSpline
 62
253
  6
CONTINUOUS
 70
0
 71
3
 72
18
 73
14
 74
12
 42
0.0000001
 43
0.0000001
 44
0.0000000001
 12
0.2510579043
 22
-0.055728658
 32
0.0
 13
0.0750107916
 23
0.2459860479
 33
0.0
 40
0.0
 40
0.0
 40
0.0
 40
0.0
 40
0.0170239076
 40
0.0375088548
 40
0.0635243122
 40
0.0960361582
 40
0.1354634568
 40
0.181941252
 40
0.2958996997
 40
0.4368959728
 40
0.6030010448
 40
0.7916958733
 40
1.0
 40
1.0
 40
1.0
 40
1.0
 10
61.5274100206
 20
15.7946411151
 30
0.0
 10
61.5288346828
 20
15.7943248753
 30
0.0
 10
61.5321826241
 20
15.7944935405
 30
0.0
 10
61.5371388546
 20
15.7969470117
 30
0.0
 10
61.542362391
 20
15.8013134965
 30
0.0
 10
61.5479380632
 20
15.8076199203
 30
0.0
 10
61.5538788707
 20
15.8158645742
 30
0.0
 10
61.5628878379
 20
15.830449838
 30
0.0
 10
61.5746512397
 20
15.8534955571
 30
0.0
 10
61.5890662411
 20
15.8865981751
 30
0.0
 10
61.6043067818
 20
15.9262853224
 30
0.0
 10
61.6201128733
 20
15.9719015391
 30
0.0
 10
61.6303927623
 20
16.0043480195
 30
0.0
 10
61.6356011148
 20
16.0214279891
 30
0.0
 11
61.5274100206
 21
15.7946411151
 31
0.0
 11
61.5317868827
 21
15.7947416521
 31
0.0
 11
61.5365998745
 21
15.7968835809
 31
0.0
 11
61.5418266455
 21
15.8010599202
 31
0.0
 11
61.5474452138
 21
15.8072517305
 31
0.0
 11
61.5534329966
 21
15.8154343507
 31
0.0
 11
61.5597646397
 21
15.8255721902
 31
0.0
 11
61.5733521051
 21
15.8515386031
 31
0.0
 11
61.5879803608
 21
15.884716752
 31
0.0
 11
61.6034047554
 21
15.9245518209
 31
0.0
 11
61.6193673267
 21
15.9703776727
 31
0.0
 11
61.6356011148
 21
16.0214279891
 31
0.0
  0
SPLINE
  5
733
100
AcDbEntity
  8
RACCORDO
100
AcDbSpline
 62
253
  6
CONTINUOUS
 70
0
 71
3
 72
20
 73
16
 74
14
 42
0.0000001
 43
0.0000001
 44
0.0000000001
 12
-0.0410167816
 22
0.2860933991
 32
0.0
 13
0.2845075983
 23
0.0508648787
 33
0.0
 40
0.0
 40
0.0
 40
0.0
 40
0.0
 40
0.0098246149
 40
0.0167496744
 40
0.0254130115
 40
0.048403599
 40
0.0792584551
 40
0.1180348556
 40
0.1646441816
 40
0.2189124456
 40
0.2806109779
 40
0.4251238546
 40
0.5954653257
 40
0.7883382707
 40
1.0
 40
1.0
 40
1.0
 40
1.0
 10
61.9141747613
 20
15.3773392683
 30
0.0
 10
61.9140404366
 20
15.3782761875
 30
0.0
 10
61.9147791303
 20
15.3799350851
 30
0.0
 10
61.9164673869
 20
15.3816707633
 30
0.0
 10
61.9194131593
 20
15.3839753158
 30
0.0
 10
61.9246972436
 20
15.3868979413
 30
0.0
 10
61.9328643918
 20
15.3905061129
 30
0.0
 10
61.9433670549
 20
15.3944069983
 30
0.0
 10
61.9561557414
 20
15.3985927047
 30
0.0
 10
61.9711778372
 20
15.4030319188
 30
0.0
 10
61.9953961264
 20
15.4096108305
 30
0.0
 10
62.0306535951
 20
15.4181756705
 30
0.0
 10
62.078442421
 20
15.4286202003
 30
0.0
 10
62.1327533131
 20
15.4394789279
 30
0.0
 10
62.1710772405
 20
15.4465674987
 30
0.0
 10
62.1911503639
 20
15.4501562148
 30
0.0
 11
61.9141747613
 21
15.3773392683
 31
0.0
 11
61.9150356917
 21
15.3800451036
 31
0.0
 11
61.9163824392
 21
15.3815256981
 31
0.0
 11
61.9183385617
 21
15.3830886862
 31
0.0
 11
61.9240682193
 21
15.3864536812
 31
0.0
 11
61.9321956347
 21
15.3901237289
 31
0.0
 11
61.9426808343
 21
15.3940809741
 31
0.0
 11
61.9554721757
 21
15.3983057267
 31
0.0
 11
61.970505889
 21
15.4027770082
 31
0.0
 11
61.98770852
 21
15.4074728327
 31
0.0
 11
62.028267764
 21
15.4174439738
 31
0.0
 11
62.0763497355
 21
15.4280223055
 31
0.0
 11
62.1310023302
 21
15.438998413
 31
0.0
 11
62.1911503639
 21
15.4501562148
 31
0.0
  0
SPLINE
  5
734
100
AcDbEntity
  8
RACCORDO
100
AcDbSpline
 62
253
  6
CONTINUOUS
 70
0
 71
3
 72
26
 73
22
 74
20
 42
0.0000001
 43
0.0000001
 44
0.0000000001
 12
0.0000324465
 22
0.281853854
 32
0.0
 13
0.2818532132
 23
0.0006018905
 33
0.0
 40
0.0
 40
0.0
 40
0.0
 40
0.0
 40
0.0003039411
 40
0.0011295292
 40
0.0024926814
 40
0.0043953704
 40
0.0098199138
 40
0.0174012266
 40
0.027131167
 40
0.0389963148
 40
0.0529827975
 40
0.0690755855
 40
0.1074936675
 40
0.1540636787
 40
0.2085561635
 40
0.2707077541
 40
0.3402106923
 40
0.4167285089
 40
0.5892759062
 40
0.7849694833
 40
1.0
 40
1.0
 40
1.0
 40
1.0
 10
61.9192200406
 20
15.3064864865
 30
0.0
 10
61.9192200439
 20
15.3065150421
 30
0.0
 10
61.9193711202
 20
15.3065333975
 30
0.0
 10
61.919559097
 20
15.3065753847
 30
0.0
 10
61.9199663141
 20
15.3066064622
 30
0.0
 10
61.9207661055
 20
15.3066656111
 30
0.0
 10
61.9221763826
 20
15.3067281457
 30
0.0
 10
61.9243058685
 20
15.3068031837
 30
0.0
 10
61.9270481133
 20
15.3068768464
 30
0.0
 10
61.930389482
 20
15.3069513901
 30
0.0
 10
61.9343297771
 20
15.3070254463
 30
0.0
 10
61.9407642395
 20
15.3071299749
 30
0.0
 10
61.950260179
 20
15.3072550825
 30
0.0
 10
61.9633637889
 20
15.307395284
 30
0.0
 10
61.9786973715
 20
15.307531671
 30
0.0
 10
61.9961856271
 20
15.3076634559
 30
0.0
 10
62.0157432822
 20
15.3077898431
 30
0.0
 10
62.0456727058
 20
15.3079569227
 30
0.0
 10
62.0874579647
 20
15.3081429974
 30
0.0
 10
62.1422567657
 20
15.3083280156
 30
0.0
 10
62.1808447071
 20
15.3084243714
 30
0.0
 10
62.2010470545
 20
15.308467513
 30
0.0
 11
61.9192200406
 21
15.3064864865
 31
0.0
 11
61.9192965777
 21
15.3065249691
 31
0.0
 11
61.9195260691
 21
15.3065634498
 31
0.0
 11
61.9199083485
 21
15.3066019148
 31
0.0
 11
61.9204432496
 21
15.3066403501
 31
0.0
 11
61.9219702517
 21
15.3067170761
 31
0.0
 11
61.9241057062
 21
15.3067935168
 31
0.0
 11
61.9268470726
 21
15.3068695716
 31
0.0
 11
61.9301904561
 21
15.3069451519
 31
0.0
 11
61.9341318863
 21
15.3070201695
 31
0.0
 11
61.938667091
 21
15.3070945362
 31
0.0
 11
61.9494943856
 21
15.3072409546
 31
0.0
 11
61.9626195468
 21
15.3073836824
 31
0.0
 11
61.9779778407
 21
15.3075220207
 31
0.0
 11
61.9954949992
 21
15.3076552929
 31
0.0
 11
62.0150842551
 21
15.3077828497
 31
0.0
 11
62.0366507561
 21
15.3079040639
 31
0.0
 11
62.0852834029
 21
15.3081251345
 31
0.0
 11
62.1404400682
 21
15.3083141794
 31
0.0
 11
62.2010470545
 21
15.308467513
 31
0.0
  0
LINE
  5
735
100
AcDbEntity
  8
RACCORDO
100
AcDbLine
 62
253
  6
CONTINUOUS
 10
61.9192203742
 20
0.0064864865
 11
62.1567872715
 21
0.0065521629
  0
SPLINE
  5
736
100
AcDbEntity
  8
RACCORDO
100
AcDbSpline
 62
253
  6
CONTINUOUS
 70
0
 71
3
 72
26
 73
22
 74
20
 42
0.0000001
 43
0.0000001
 44
0.0000000001
 12
-0.0000000321
 22
-0.2818532479
 32
0.0
 13
0.2818526052
 23
-0.0006018718
 33
0.0
 40
0.0
 40
0.0
 40
0.0
 40
0.0
 40
0.0003039278
 40
0.0011295007
 40
0.0024926374
 40
0.0043953108
 40
0.0098198231
 40
0.0174011048
 40
0.0271310145
 40
0.0389961319
 40
0.052982585
 40
0.0690753443
 40
0.1074933721
 40
0.1540633354
 40
0.2085557808
 40
0.2707073426
 40
0.3402102651
 40
0.4167280815
 40
0.5892755329
 40
0.7849692493
 40
1.0
 40
1.0
 40
1.0
 40
1.0
 10
61.9192203742
 20
-15.2935135135
 30
0.0
 10
61.9192203742
 20
-15.2935420679
 30
0.0
 10
61.9193714513
 20
-15.2935604276
 30
0.0
 10
61.9195594192
 20
-15.2936024113
 30
0.0
 10
61.9199666336
 20
-15.2936334911
 30
0.0
 10
61.9207664157
 20
-15.2936926395
 30
0.0
 10
61.9221766836
 20
-15.2937551755
 30
0.0
 10
61.9243061556
 20
-15.2938302137
 30
0.0
 10
61.9270483861
 20
-15.2939038773
 30
0.0
 10
61.9303897389
 20
-15.2939784216
 30
0.0
 10
61.9343300172
 20
-15.2940524784
 30
0.0
 10
61.9407644552
 20
-15.2941570079
 30
0.0
 10
61.9502603619
 20
-15.2942821163
 30
0.0
 10
61.9633639301
 20
-15.2944223187
 30
0.0
 10
61.9786974688
 20
-15.2945587064
 30
0.0
 10
61.9961856787
 20
-15.2946904917
 30
0.0
 10
62.0157432874
 20
-15.2948168791
 30
0.0
 10
62.0456726501
 20
-15.2949839586
 30
0.0
 10
62.087457837
 20
-15.2951700326
 30
0.0
 10
62.14225656
 20
-15.2953550486
 30
0.0
 10
62.1808444532
 20
-15.2954514023
 30
0.0
 10
62.201046779
 20
-15.2954945426
 30
0.0
 11
61.9192203742
 21
-15.2935135135
 31
0.0
 11
61.9192969067
 21
-15.2935519965
 31
0.0
 11
61.9195263931
 21
-15.2935904776
 31
0.0
 11
61.9199086672
 21
-15.293628943
 31
0.0
 11
61.9204435628
 21
-15.2936673787
 31
0.0
 11
61.9219705527
 21
-15.2937441054
 31
0.0
 11
61.9241059939
 21
-15.2938205469
 31
0.0
 11
61.9268473457
 21
-15.2938966024
 31
0.0
 11
61.9301907134
 21
-15.2939721833
 31
0.0
 11
61.9341321268
 21
-15.2940472016
 31
0.0
 11
61.9386673135
 21
-15.2941215688
 31
0.0
 11
61.9494945695
 21
-15.2942679883
 31
0.0
 11
61.9626196889
 21
-15.294410717
 31
0.0
 11
61.9779779386
 21
-15.2945490559
 31
0.0
 11
61.9954950511
 21
-15.2946823287
 31
0.0
 11
62.0150842603
 21
-15.2948098857
 31
0.0
 11
62.0366507147
 21
-15.2949310998
 31
0.0
 11
62.0852832718
 21
-15.2951521694
 31
0.0
 11
62.1404398574
 21
-15.2953412123
 31
0.0
 11
62.201046779
 21
-15.2954945426
 31
0.0
  0
SPLINE
  5
737
100
AcDbEntity
  8
RACCORDO
100
AcDbSpline
 62
253
  6
CONTINUOUS
 70
0
 71
3
 72
20
 73
16
 74
14
 42
0.0000001
 43
0.0000001
 44
0.0000000001
 12
-0.0409097411
 22
-0.2861337371
 32
0.0
 13
0.2845296876
 23
-0.0508820138
 33
0.0
 40
0.0
 40
0.0
 40
0.0
 40
0.0
 40
0.0098184413
 40
0.0167421606
 40
0.025404867
 40
0.0483954579
 40
0.0792511867
 40
0.1180288846
 40
0.1646396978
 40
0.2189094923
 40
0.2806094939
 40
0.425124819
 40
0.5954676409
 40
0.7883403962
 40
1.0
 40
1.0
 40
1.0
 40
1.0
 10
61.9141717889
 20
-15.3643870391
 30
0.0
 10
61.914037899
 20
-15.3653235015
 30
0.0
 10
61.9147778878
 20
-15.3669812849
 30
0.0
 10
61.9164667019
 20
-15.3687154583
 30
0.0
 10
61.9194137087
 20
-15.3710186889
 30
0.0
 10
61.9246991737
 20
-15.3739397661
 30
0.0
 10
61.9328680609
 20
-15.3775464322
 30
0.0
 10
61.9433725952
 20
-15.3814459953
 30
0.0
 10
61.9561632897
 20
-15.3856306019
 30
0.0
 10
61.9711874884
 20
-15.3900689434
 30
0.0
 10
61.9954087898
 20
-15.3966469583
 30
0.0
 10
62.0306700518
 20
-15.4052114411
 30
0.0
 10
62.078463366
 20
-15.4156566598
 30
0.0
 10
62.1327786282
 20
-15.4265172252
 30
0.0
 10
62.1711053571
 20
-15.4336077614
 30
0.0
 10
62.1911798374
 20
-15.4371976503
 30
0.0
 11
61.9141717889
 21
-15.3643870391
 31
0.0
 11
61.9150341028
 21
-15.3670908162
 31
0.0
 11
61.9163816013
 21
-15.3685704353
 31
0.0
 11
61.9183385124
 21
-15.3701324874
 31
0.0
 11
61.9240698546
 21
-15.3734957393
 31
0.0
 11
61.9321990876
 21
-15.3771642306
 31
0.0
 11
61.9426862243
 21
-15.3811201239
 31
0.0
 11
61.9554796071
 21
-15.3853437457
 31
0.0
 11
61.9705154497
 21
-15.3898141329
 31
0.0
 11
61.9877202803
 21
-15.3945093133
 31
0.0
 11
62.0282840585
 21
-15.4044799633
 31
0.0
 11
62.076370609
 21
-15.4150589289
 31
0.0
 11
62.1310276556
 21
-15.4260368448
 31
0.0
 11
62.1911798374
 21
-15.4371976503
 31
0.0
  0
SPLINE
  5
738
100
AcDbEntity
  8
RACCORDO
100
AcDbSpline
 62
253
  6
CONTINUOUS
 70
0
 71
3
 72
18
 73
14
 74
12
 42
0.0000001
 43
0.0000001
 44
0.0000000001
 12
0.2511513799
 22
0.0555758649
 32
0.0
 13
0.075016278
 23
-0.2460452203
 33
0.0
 40
0.0
 40
0.0
 40
0.0
 40
0.0
 40
0.0170155733
 40
0.0374974844
 40
0.0635132914
 40
0.0960272951
 40
0.1354576261
 40
0.1819387708
 40
0.2959035889
 40
0.4369043243
 40
0.6030108023
 40
0.7917030959
 40
1.0
 40
1.0
 40
1.0
 40
1.0
 10
61.5274100267
 20
-15.7816681698
 30
0.0
 10
61.5288345216
 20
-15.7813529514
 30
0.0
 10
61.5321821142
 20
-15.7815244686
 30
0.0
 10
61.5371366473
 20
-15.7839817246
 30
0.0
 10
61.5423588821
 20
-15.7883519987
 30
0.0
 10
61.5479334352
 20
-15.794662543
 30
0.0
 10
61.5538732704
 20
-15.8029116084
 30
0.0
 10
61.5628809425
 20
-15.8175034964
 30
0.0
 10
61.5746430611
 20
-15.8405577417
 30
0.0
 10
61.5890570654
 20
-15.8736708318
 30
0.0
 10
61.604297021
 20
-15.9133687945
 30
0.0
 10
61.6201029484
 20
-15.9589958625
 30
0.0
 10
61.6303831186
 20
-15.9914494491
 30
0.0
 10
61.6355916714
 20
-16.0085329349
 30
0.0
 11
61.5274100267
 21
-15.7816681698
 31
0.0
 11
61.531785658
 21
-15.7817720238
 31
0.0
 11
61.536597476
 21
-15.7839175983
 31
0.0
 11
61.541823139
 21
-15.7880978922
 31
0.0
 11
61.5474406726
 21
-15.7942939449
 31
0.0
 11
61.5534275012
 21
-15.8024810726
 31
0.0
 11
61.5597582765
 21
-15.8126236586
 31
0.0
 11
61.5733442878
 21
-15.8386001666
 31
0.0
 11
61.5879714921
 21
-15.8717890013
 31
0.0
 11
61.6033952605
 21
-15.9116350669
 31
0.0
 11
61.6193576408
 21
-15.9574719238
 31
0.0
 11
61.6355916714
 21
-16.0085329349
 31
0.0
  0
SPLINE
  5
739
100
AcDbEntity
  8
RACCORDO
100
AcDbSpline
 62
253
  6
CONTINUOUS
 70
0
 71
3
 72
9
 73
5
 74
3
 42
0.0000001
 43
0.0000001
 44
0.0000000001
 12
-0.0295164818
 22
41.1249083017
 32
0.0
 13
0.0295164818
 23
41.1249083017
 33
0.0
 40
0.0
 40
0.0
 40
0.0
 40
0.0
 40
0.2499471355
 40
1.0
 40
1.0
 40
1.0
 40
1.0
 10
68.1019695596
 20
-20.5559717756
 30
0.0
 10
68.0995103729
 20
-17.1296207658
 30
0.0
 10
68.0921354148
 20
-3.4213163416
 30
0.0
 10
68.0945899192
 20
10.2869933766
 30
0.0
 10
68.1019695598
 20
20.568945134
 30
0.0
 11
68.1019695596
 21
-20.5559717756
 31
0.0
 11
68.0964377552
 21
-10.2769175872
 31
0.0
 11
68.1019695598
 21
20.568945134
 31
0.0
  0
SPLINE
  5
73A
100
AcDbEntity
  8
RACCORDO
100
AcDbSpline
 62
7
  6
CONTINUOUS
 70
0
 71
3
 72
13
 73
9
 74
7
 42
0.0000001
 43
0.0000001
 44
0.0000000001
 12
-0.4498518802
 22
-0.0034684604
 32
0.0
 13
-0.3802055312
 23
-0.2404630915
 33
0.0
 40
0.0
 40
0.0
 40
0.0
 40
0.0
 40
0.0927825722
 40
0.2002249592
 40
0.3193337266
 40
0.4469748975
 40
0.7183371303
 40
1.0
 40
1.0
 40
1.0
 40
1.0
 10
61.9154276879
 20
23.8018254533
 30
0.0
 10
61.901514883
 20
23.8017181824
 30
0.0
 10
61.8716076672
 20
23.7962874428
 30
0.0
 10
61.8264756244
 20
23.7801627048
 30
0.0
 10
61.7782321846
 20
23.7578003859
 30
0.0
 10
61.7096488804
 20
23.7212614517
 30
0.0
 10
61.6220844395
 20
23.6687255578
 30
0.0
 10
61.5519995913
 20
23.6244053461
 30
0.0
 10
61.5163029976
 20
23.601828838
 30
0.0
 11
61.9154276879
 21
23.8018254533
 31
0.0
 11
61.8741428879
 21
23.795680203
 31
0.0
 11
61.8283855993
 21
23.7801076709
 31
0.0
 11
61.7796148714
 21
23.7579143657
 31
0.0
 11
61.7288256139
 21
23.7311251856
 31
0.0
 11
61.6236645873
 21
23.669126674
 31
0.0
 11
61.5163029976
 21
23.601828838
 31
0.0
  0
SPLINE
  5
73B
100
AcDbEntity
  8
RACCORDO
100
AcDbSpline
 62
7
  6
CONTINUOUS
 70
0
 71
3
 72
13
 73
9
 74
7
 42
0.0000001
 43
0.0000001
 44
0.0000000001
 12
0.4498518802
 22
-0.0034684604
 32
0.0
 13
0.3802055312
 23
-0.2404630915
 33
0.0
 40
0.0
 40
0.0
 40
0.0
 40
0.0
 40
0.0927825722
 40
0.2002249592
 40
0.3193337266
 40
0.4469748975
 40
0.7183371303
 40
1.0
 40
1.0
 40
1.0
 40
1.0
 10
53.3230130606
 20
23.8018254533
 30
0.0
 10
53.3369258654
 20
23.8017181824
 30
0.0
 10
53.3668330812
 20
23.7962874428
 30
0.0
 10
53.4119651241
 20
23.7801627048
 30
0.0
 10
53.4602085639
 20
23.7578003859
 30
0.0
 10
53.5287918681
 20
23.7212614517
 30
0.0
 10
53.6163563089
 20
23.6687255578
 30
0.0
 10
53.6864411572
 20
23.6244053461
 30
0.0
 10
53.7221377508
 20
23.601828838
 30
0.0
 11
53.3230130606
 21
23.8018254533
 31
0.0
 11
53.3642978606
 21
23.795680203
 31
0.0
 11
53.4100551491
 21
23.7801076709
 31
0.0
 11
53.458825877
 21
23.7579143657
 31
0.0
 11
53.5096151345
 21
23.7311251856
 31
0.0
 11
53.6147761612
 21
23.669126674
 31
0.0
 11
53.7221377508
 21
23.601828838
 31
0.0
  0
SPLINE
  5
73C
100
AcDbEntity
  8
IMPORT_IGES
100
AcDbSpline
 62
7
  6
CONTINUOUS
 70
0
 71
3
 72
8
 73
4
 74
2
 42
0.0000001
 43
0.0000001
 44
0.0000000001
 12
-0.5652597771
 22
0.0575448188
 32
0.0
 13
-0.5681813271
 23
-0.0000356454
 33
0.0
 40
0.0
 40
0.0
 40
0.0
 40
0.0
 40
1.0
 40
1.0
 40
1.0
 40
1.0
 10
-24.4483991684
 20
7.6606316749
 30
0.0
 10
-24.6368190941
 20
7.6798132812
 30
0.0
 10
-24.8265545571
 20
7.687438477
 30
0.0
 10
-25.0159483328
 20
7.6874265952
 30
0.0
 11
-24.4483991684
 21
7.6606316749
 31
0.0
 11
-25.0159483328
 21
7.6874265952
 31
0.0
  0
SPLINE
  5
73D
100
AcDbEntity
  8
IMPORT_IGES
100
AcDbSpline
 62
7
  6
CONTINUOUS
 70
0
 71
3
 72
21
 73
17
 74
15
 42
0.0000001
 43
0.0000001
 44
0.0000000001
 12
0.0
 22
1.386678495
 32
0.0
 13
0.0
 23
-1.386678495
 33
0.0
 40
0.0
 40
0.0
 40
0.0
 40
0.0
 40
0.0636773518
 40
0.122915733
 40
0.1817414444
 40
0.2423074067
 40
0.3048387252
 40
0.3689774422
 40
0.499997826
 40
0.631020965
 40
0.6951609522
 40
0.7576926387
 40
0.8182585719
 40
0.877084239
 40
0.9363226153
 40
1.0
 40
1.0
 40
1.0
 40
1.0
 10
-29.2492883935
 20
7.4874265942
 30
0.0
 10
-29.2492883935
 20
7.5168599323
 30
0.0
 10
-29.2299236863
 20
7.574627464
 30
0.0
 10
-29.1653002847
 20
7.6320111132
 30
0.0
 10
-29.0875052401
 20
7.6624565859
 30
0.0
 10
-29.0046248539
 20
7.6778663796
 30
0.0
 10
-28.9182656313
 20
7.6847433121
 30
0.0
 10
-28.7991780901
 20
7.6878385036
 30
0.0
 10
-28.6484008685
 20
7.6871500827
 30
0.0
 10
-28.497623059
 20
7.6878390163
 30
0.0
 10
-28.378533484
 20
7.6847436212
 30
0.0
 10
-28.2921735486
 20
7.6778663273
 30
0.0
 10
-28.2092930257
 20
7.6624565623
 30
0.0
 10
-28.1314980175
 20
7.6320110854
 30
0.0
 10
-28.0668746078
 20
7.5746274808
 30
0.0
 10
-28.0475098298
 20
7.5168599475
 30
0.0
 10
-28.0475098298
 20
7.4874265942
 30
0.0
 11
-29.2492883935
 21
7.4874265942
 31
0.0
 11
-29.2226915
 21
7.5716257497
 31
0.0
 11
-29.1627777967
 21
7.627822562
 31
0.0
 11
-29.0876814172
 21
7.6596750641
 31
0.0
 11
-29.0053517901
 21
7.6762702335
 31
0.0
 11
-28.9189791648
 21
7.683921275
 31
0.0
 11
-28.8300839833
 21
7.6867374943
 31
0.0
 11
-28.6484021419
 21
7.6874267119
 31
0.0
 11
-28.4667164784
 21
7.686737899
 31
0.0
 11
-28.3778195399
 21
7.6839215175
 31
0.0
 11
-28.2914464257
 21
7.6762702103
 31
0.0
 11
-28.2091168423
 21
7.6596750285
 31
0.0
 11
-28.1340205174
 21
7.6278225548
 31
0.0
 11
-28.0741067924
 21
7.5716257757
 31
0.0
 11
-28.0475098298
 21
7.4874265942
 31
0.0
  0
SPLINE
  5
73E
100
AcDbEntity
  8
IMPORT_IGES
100
AcDbSpline
 62
7
  6
CONTINUOUS
 70
0
 71
3
 72
18
 73
14
 74
12
 42
0.0000001
 43
0.0000001
 44
0.0000000001
 12
-1.1759863492
 22
-0.0000737765
 32
0.0
 13
0.0
 23
-1.1759863515
 33
0.0
 40
0.0
 40
0.0
 40
0.0
 40
0.0
 40
0.2497877443
 40
0.37469485
 40
0.4996087215
 40
0.6245338674
 40
0.7494770976
 40
0.8119753317
 40
0.8744957871
 40
0.9370265729
 40
0.9683470104
 40
0.9841812334
 40
1.0
 40
1.0
 40
1.0
 40
1.0
 10
-25.0159483328
 20
7.6874265952
 30
0.0
 10
-25.1138639919
 20
7.6874204524
 30
0.0
 10
-25.260778352
 20
7.684123474
 30
0.0
 10
-25.4562886062
 20
7.6724140535
 30
0.0
 10
-25.6026394235
 20
7.6594213252
 30
0.0
 10
-25.7484541442
 20
7.6412515684
 30
0.0
 10
-25.8691891582
 20
7.6202914931
 30
0.0
 10
-25.964576984
 20
7.5977427548
 30
0.0
 10
-26.0350157493
 20
7.5763974123
 30
0.0
 10
-26.0917186373
 20
7.5528009296
 30
0.0
 10
-26.1278773298
 20
7.528262735
 30
0.0
 10
-26.1437350966
 20
7.5095610255
 30
0.0
 10
-26.1497837143
 20
7.4977280466
 30
0.0
 10
-26.1497837143
 20
7.4915271621
 30
0.0
 11
-25.0159483328
 21
7.6874265952
 31
0.0
 11
-25.3096156762
 21
7.680587114
 31
0.0
 11
-25.4562364027
 21
7.671712655
 31
0.0
 11
-25.6025433338
 21
7.6585592192
 31
0.0
 11
-25.748287956
 21
7.6400894733
 31
0.0
 11
-25.8929164898
 21
7.6141768758
 31
0.0
 11
-25.9643799456
 21
7.5970073144
 31
0.0
 11
-26.0346068262
 21
7.5752392988
 31
0.0
 11
-26.1016628902
 21
7.5450576476
 31
0.0
 11
-26.1313631346
 21
7.5232741288
 31
0.0
 11
-26.1432579851
 21
7.5089476552
 31
0.0
 11
-26.1497837143
 21
7.4915271621
 31
0.0
  0
SPLINE
  5
73F
100
AcDbEntity
  8
RACCORDO
100
AcDbSpline
 62
253
  6
CONTINUOUS
 70
0
 71
3
 72
25
 73
21
 74
19
 42
0.0000001
 43
0.0000001
 44
0.0000000001
 12
-0.4991961688
 22
-0.0261617626
 32
0.0
 13
0.0261538159
 23
-0.4991965852
 33
0.0
 40
0.0
 40
0.0
 40
0.0
 40
0.0
 40
0.0014765532
 40
0.0051831824
 40
0.0112452985
 40
0.0196716553
 40
0.0304475792
 40
0.0435527665
 40
0.0589567541
 40
0.0766227991
 40
0.1185727534
 40
0.169002226
 40
0.2274278889
 40
0.293289669
 40
0.3659555668
 40
0.4447266505
 40
0.528845105
 40
0.6175033726
 40
0.8049888566
 40
1.0
 40
1.0
 40
1.0
 40
1.0
 10
-60.4551780573
 20
22.0052117085
 30
0.0
 10
-60.4554237539
 20
22.005198832
 30
0.0
 10
-60.4557092663
 20
22.0040712824
 30
0.0
 10
-60.4559744127
 20
22.0024765923
 30
0.0
 10
-60.4562187418
 20
21.9993097006
 30
0.0
 10
-60.4564019852
 20
21.9951663637
 30
0.0
 10
-60.4565284976
 20
21.9897600035
 30
0.0
 10
-60.4565906658
 20
21.9832229182
 30
0.0
 10
-60.4565889616
 20
21.9755258296
 30
0.0
 10
-60.456493711
 20
21.9630269999
 30
0.0
 10
-60.4561915631
 20
21.9446918657
 30
0.0
 10
-60.4555945354
 20
21.9195709296
 30
0.0
 10
-60.4547456926
 20
21.8904705175
 30
0.0
 10
-60.4536525422
 20
21.8576709308
 30
0.0
 10
-60.4523244977
 20
21.821487368
 30
0.0
 10
-60.450773914
 20
21.7822680526
 30
0.0
 10
-60.4490154116
 20
21.7403902421
 30
0.0
 10
-60.4463657266
 20
21.6804192703
 30
0.0
 10
-60.4426637372
 20
21.6019992431
 30
0.0
 10
-60.4394363776
 20
21.5383465734
 30
0.0
 10
-60.4377362824
 20
21.5058969411
 30
0.0
 11
-60.4551780573
 21
22.0052117085
 31
0.0
 11
-60.4555731715
 21
22.0045882679
 31
0.0
 11
-60.4559045985
 21
22.0027652759
 31
0.0
 11
-60.4561713309
 21
21.9997466996
 31
0.0
 11
-60.4563726041
 21
21.9955393334
 31
0.0
 11
-60.4565080305
 21
21.9901543539
 31
0.0
 11
-60.4565772724
 21
21.9836036826
 31
0.0
 11
-60.4565801998
 21
21.9759035188
 31
0.0
 11
-60.4565168167
 21
21.9670728217
 31
0.0
 11
-60.4561917325
 21
21.9461053466
 31
0.0
 11
-60.4556051783
 21
21.9209034242
 31
0.0
 11
-60.4547628168
 21
21.8917096818
 31
0.0
 11
-60.4536727307
 21
21.8588046649
 31
0.0
 11
-60.452345385
 21
21.8225046056
 31
0.0
 11
-60.45079357
 21
21.7831590091
 31
0.0
 11
-60.4490322347
 21
21.741146677
 31
0.0
 11
-60.4470782886
 21
21.6968711667
 31
0.0
 11
-60.4426695351
 21
21.6032544454
 31
0.0
 11
-60.4377362824
 21
21.5058969411
 31
0.0
  0
LINE
  5
740
100
AcDbEntity
  8
RACCORDO
100
AcDbLine
 62
7
  6
CONTINUOUS
 10
-54.0498536012
 20
22.3398974479
 11
-52.7983991684
 21
22.4061945603
  0
SPLINE
  5
741
100
AcDbEntity
  8
RACCORDO
100
AcDbSpline
 62
253
  6
CONTINUOUS
 70
0
 71
3
 72
25
 73
21
 74
19
 42
0.0000001
 43
0.0000001
 44
0.0000000001
 12
-0.4991961688
 22
0.0261617626
 32
0.0
 13
0.0261538165
 23
0.4991965852
 33
0.0
 40
0.0
 40
0.0
 40
0.0
 40
0.0
 40
0.0014765532
 40
0.0051831825
 40
0.0112452985
 40
0.0196716554
 40
0.0304475792
 40
0.0435527666
 40
0.0589567541
 40
0.0766227992
 40
0.1185727535
 40
0.1690022261
 40
0.227427889
 40
0.2932896691
 40
0.3659555669
 40
0.4447266506
 40
0.5288451051
 40
0.6175033727
 40
0.8049888567
 40
1.0
 40
1.0
 40
1.0
 40
1.0
 10
-60.4551780573
 20
-21.9922387355
 30
0.0
 10
-60.4554237539
 20
-21.9922258591
 30
0.0
 10
-60.4557092663
 20
-21.9910983095
 30
0.0
 10
-60.4559744127
 20
-21.9895036193
 30
0.0
 10
-60.4562187419
 20
-21.9863367276
 30
0.0
 10
-60.4564019853
 20
-21.9821933907
 30
0.0
 10
-60.4565284977
 20
-21.9767870305
 30
0.0
 10
-60.4565906659
 20
-21.9702499452
 30
0.0
 10
-60.4565889618
 20
-21.9625528566
 30
0.0
 10
-60.4564937112
 20
-21.9500540269
 30
0.0
 10
-60.4561915633
 20
-21.9317188927
 30
0.0
 10
-60.4555945356
 20
-21.9065979566
 30
0.0
 10
-60.4547456928
 20
-21.8774975445
 30
0.0
 10
-60.4536525424
 20
-21.8446979578
 30
0.0
 10
-60.4523244979
 20
-21.8085143949
 30
0.0
 10
-60.4507739142
 20
-21.7692950796
 30
0.0
 10
-60.4490154118
 20
-21.7274172691
 30
0.0
 10
-60.4463657268
 20
-21.6674462973
 30
0.0
 10
-60.4426637373
 20
-21.5890262701
 30
0.0
 10
-60.4394363776
 20
-21.5253736004
 30
0.0
 10
-60.4377362824
 20
-21.4929239681
 30
0.0
 11
-60.4551780573
 21
-21.9922387355
 31
0.0
 11
-60.4555731715
 21
-21.9916152949
 31
0.0
 11
-60.4559045986
 21
-21.9897923029
 31
0.0
 11
-60.456171331
 21
-21.9867737266
 31
0.0
 11
-60.4563726042
 21
-21.9825663605
 31
0.0
 11
-60.4565080306
 21
-21.9771813809
 31
0.0
 11
-60.4565772725
 21
-21.9706307096
 31
0.0
 11
-60.4565802
 21
-21.9629305458
 31
0.0
 11
-60.4565168169
 21
-21.9540998487
 31
0.0
 11
-60.4561917327
 21
-21.9331323736
 31
0.0
 11
-60.4556051785
 21
-21.9079304512
 31
0.0
 11
-60.454762817
 21
-21.8787367087
 31
0.0
 11
-60.4536727309
 21
-21.8458316919
 31
0.0
 11
-60.4523453853
 21
-21.8095316326
 31
0.0
 11
-60.4507935702
 21
-21.7701860361
 31
0.0
 11
-60.4490322349
 21
-21.728173704
 31
0.0
 11
-60.4470782888
 21
-21.6838981937
 31
0.0
 11
-60.4426695352
 21
-21.5902814724
 31
0.0
 11
-60.4377362824
 21
-21.4929239681
 31
0.0
  0
SPLINE
  5
742
100
AcDbEntity
  8
RACCORDO
100
AcDbSpline
 62
7
  6
CONTINUOUS
 70
0
 71
3
 72
13
 73
9
 74
7
 42
0.0000001
 43
0.0000001
 44
0.0000000001
 12
-0.2489101935
 22
0.1437120153
 32
0.0
 13
-0.2442702477
 23
0.1515099495
 33
0.0
 40
0.0
 40
0.0
 40
0.0
 40
0.0
 40
0.3605913835
 40
0.681148095
 40
0.8116280614
 40
0.9128190649
 40
0.9774819941
 40
1.0
 40
1.0
 40
1.0
 40
1.0
 10
-54.0498536012
 20
-23.2605008116
 30
0.0
 10
-54.0797718916
 20
-23.2432270401
 30
0.0
 10
-54.1362746825
 20
-23.2105761612
 30
0.0
 10
-54.2035523093
 20
-23.1715871517
 30
0.0
 10
-54.2493112339
 20
-23.1450297158
 30
0.0
 10
-54.2738149228
 20
-23.1306923718
 30
0.0
 10
-54.2894329428
 20
-23.1216464221
 30
0.0
 10
-54.2965656754
 20
-23.1173004783
 30
0.0
 10
-54.2983991684
 20
-23.1161632443
 30
0.0
 11
-54.0498536012
 21
-23.2605008116
 31
0.0
 11
-54.1395841781
 21
-23.2086374423
 31
0.0
 11
-54.2193014057
 21
-23.1624440663
 31
0.0
 11
-54.2517254773
 21
-23.1435997865
 31
0.0
 11
-54.2768490591
 21
-23.128947322
 31
0.0
 11
-54.2928746712
 21
-23.1195348784
 31
0.0
 11
-54.2983991684
 21
-23.1161632443
 31
0.0
  0
SPLINE
  5
743
100
AcDbEntity
  8
RACCORDO
100
AcDbSpline
 62
253
  6
CONTINUOUS
 70
0
 71
3
 72
26
 73
22
 74
20
 42
0.0000001
 43
0.0000001
 44
0.0000000001
 12
-0.124641584
 22
0.2158928633
 32
0.0
 13
0.2158910366
 23
0.1246447481
 33
0.0
 40
0.0
 40
0.0
 40
0.0
 40
0.0
 40
0.1952371571
 40
0.3828765726
 40
0.5557521165
 40
0.634552892
 40
0.7072369657
 40
0.7731083045
 40
0.8315338818
 40
0.8819524705
 40
0.9238825345
 40
0.9415345162
 40
0.9569212041
 40
0.9700029814
 40
0.9807505693
 40
0.9891391953
 40
0.9951465425
 40
0.9972538056
 40
0.9987627805
 40
0.9996743239
 40
1.0
 40
1.0
 40
1.0
 40
1.0
 10
-55.0498536012
 20
-23.8378510808
 30
0.0
 10
-55.0579651574
 20
-23.8238009779
 30
0.0
 10
-55.0738592297
 20
-23.7962398131
 30
0.0
 10
-55.0968893057
 20
-23.7562109969
 30
0.0
 10
-55.1150586381
 20
-23.724548164
 30
0.0
 10
-55.1284482996
 20
-23.7011560123
 30
0.0
 10
-55.1374079399
 20
-23.6854734063
 30
0.0
 10
-55.1455138372
 20
-23.6712530004
 30
0.0
 10
-55.1526883334
 20
-23.6586313321
 30
0.0
 10
-55.1588626337
 20
-23.6477295647
 30
0.0
 10
-55.16335053
 20
-23.6397663927
 30
0.0
 10
-55.1663950715
 20
-23.6343315261
 30
0.0
 10
-55.1682611966
 20
-23.630983788
 30
0.0
 10
-55.1698389909
 20
-23.6281334176
 30
0.0
 10
-55.1711282675
 20
-23.6257845529
 30
0.0
 10
-55.1721170807
 20
-23.6239504882
 30
0.0
 10
-55.1727669878
 20
-23.6227294072
 30
0.0
 10
-55.1731146323
 20
-23.6220267791
 30
0.0
 10
-55.1732982026
 20
-23.6216687748
 30
0.0
 10
-55.1733512341
 20
-23.6214926295
 30
0.0
 10
-55.1734226053
 20
-23.6213582611
 30
0.0
 10
-55.1733991684
 20
-23.6213447299
 30
0.0
 11
-55.0498536012
 21
-23.8378510808
 31
0.0
 11
-55.0741673829
 21
-23.7956887202
 31
0.0
 11
-55.0974931807
 21
-23.7551430495
 31
0.0
 11
-55.1189401373
 21
-23.7177625973
 31
0.0
 11
-55.1286983718
 21
-23.7007135013
 31
0.0
 11
-55.1376860854
 21
-23.6849803264
 31
0.0
 11
-55.1458172058
 21
-23.67071375
 31
0.0
 11
-55.1530135798
 21
-23.6580508905
 31
0.0
 11
-55.1592060653
 21
-23.6471134102
 31
0.0
 11
-55.1643354995
 21
-23.6380058115
 31
0.0
 11
-55.1664856633
 21
-23.6341664381
 31
0.0
 11
-55.1683525567
 21
-23.6308156758
 31
0.0
 11
-55.1699313514
 21
-23.6279621684
 31
0.0
 11
-55.1712184982
 21
-23.6256123405
 31
0.0
 11
-55.1722109919
 21
-23.6237716726
 31
0.0
 11
-55.1729060933
 21
-23.6224451939
 31
0.0
 11
-55.1731416711
 21
-23.6219756594
 31
0.0
 11
-55.173302451
 21
-23.6216355787
 31
0.0
 11
-55.1733883208
 21
-23.6214251896
 31
0.0
 11
-55.1733991684
 21
-23.6213447299
 31
0.0
  0
SPLINE
  5
744
100
AcDbEntity
  8
RACCORDO
100
AcDbSpline
 62
253
  6
CONTINUOUS
 70
0
 71
3
 72
26
 73
22
 74
20
 42
0.0000001
 43
0.0000001
 44
0.0000000001
 12
0.124641584
 22
0.2158928633
 32
0.0
 13
-0.2158910366
 23
0.1246447481
 33
0.0
 40
0.0
 40
0.0
 40
0.0
 40
0.0
 40
0.1952371571
 40
0.3828765726
 40
0.5557521165
 40
0.634552892
 40
0.7072369657
 40
0.7731083045
 40
0.8315338818
 40
0.8819524705
 40
0.9238825345
 40
0.9415345162
 40
0.9569212041
 40
0.9700029814
 40
0.9807505693
 40
0.9891391953
 40
0.9951465425
 40
0.9972538056
 40
0.9987627805
 40
0.9996743239
 40
1.0
 40
1.0
 40
1.0
 40
1.0
 10
-52.0469447356
 20
-23.8378510808
 30
0.0
 10
-52.0388331794
 20
-23.8238009779
 30
0.0
 10
-52.0229391071
 20
-23.7962398131
 30
0.0
 10
-51.9999090311
 20
-23.7562109969
 30
0.0
 10
-51.9817396987
 20
-23.724548164
 30
0.0
 10
-51.9683500372
 20
-23.7011560123
 30
0.0
 10
-51.9593903969
 20
-23.6854734063
 30
0.0
 10
-51.9512844996
 20
-23.6712530004
 30
0.0
 10
-51.9441100034
 20
-23.6586313321
 30
0.0
 10
-51.9379357031
 20
-23.6477295647
 30
0.0
 10
-51.9334478068
 20
-23.6397663927
 30
0.0
 10
-51.9304032653
 20
-23.6343315261
 30
0.0
 10
-51.9285371402
 20
-23.630983788
 30
0.0
 10
-51.9269593459
 20
-23.6281334176
 30
0.0
 10
-51.9256700693
 20
-23.6257845529
 30
0.0
 10
-51.9246812561
 20
-23.6239504882
 30
0.0
 10
-51.924031349
 20
-23.6227294072
 30
0.0
 10
-51.9236837045
 20
-23.6220267791
 30
0.0
 10
-51.9235001342
 20
-23.6216687748
 30
0.0
 10
-51.9234471027
 20
-23.6214926295
 30
0.0
 10
-51.9233757315
 20
-23.6213582611
 30
0.0
 10
-51.9233991684
 20
-23.6213447299
 30
0.0
 11
-52.0469447356
 21
-23.8378510808
 31
0.0
 11
-52.0226309539
 21
-23.7956887202
 31
0.0
 11
-51.9993051561
 21
-23.7551430495
 31
0.0
 11
-51.9778581995
 21
-23.7177625973
 31
0.0
 11
-51.968099965
 21
-23.7007135013
 31
0.0
 11
-51.9591122514
 21
-23.6849803264
 31
0.0
 11
-51.950981131
 21
-23.67071375
 31
0.0
 11
-51.943784757
 21
-23.6580508905
 31
0.0
 11
-51.9375922715
 21
-23.6471134102
 31
0.0
 11
-51.9324628373
 21
-23.6380058115
 31
0.0
 11
-51.9303126735
 21
-23.6341664381
 31
0.0
 11
-51.9284457801
 21
-23.6308156758
 31
0.0
 11
-51.9268669854
 21
-23.6279621684
 31
0.0
 11
-51.9255798386
 21
-23.6256123405
 31
0.0
 11
-51.9245873449
 21
-23.6237716726
 31
0.0
 11
-51.9238922435
 21
-23.6224451939
 31
0.0
 11
-51.9236566656
 21
-23.6219756594
 31
0.0
 11
-51.9234958858
 21
-23.6216355787
 31
0.0
 11
-51.923410016
 21
-23.6214251896
 31
0.0
 11
-51.9233991684
 21
-23.6213447299
 31
0.0
  0
SPLINE
  5
745
100
AcDbEntity
  8
RACCORDO
100
AcDbSpline
 62
253
  6
CONTINUOUS
 70
0
 71
3
 72
26
 73
22
 74
20
 42
0.0000001
 43
0.0000001
 44
0.0000000001
 12
0.2500094788
 22
0.0014545126
 32
0.0
 13
-0.0014544634
 23
0.2500094792
 33
0.0
 40
0.0
 40
0.0
 40
0.0
 40
0.0
 40
0.000333553
 40
0.0012485372
 40
0.0027603109
 40
0.0048703469
 40
0.0108838606
 40
0.0192798907
 40
0.0300362273
 40
0.0431281048
 40
0.0585261484
 40
0.0761906005
 40
0.1181483191
 40
0.1685967417
 40
0.2270523335
 40
0.2929515754
 40
0.365658868
 40
0.4444754137
 40
0.6173484572
 40
0.804919802
 40
1.0
 40
1.0
 40
1.0
 40
1.0
 10
-52.0469447356
 20
-24.4891416795
 30
0.0
 10
-52.0469169384
 20
-24.4891415178
 30
0.0
 10
-52.0469037007
 20
-24.4889913926
 30
0.0
 10
-52.0468632555
 20
-24.488807862
 30
0.0
 10
-52.0468382973
 20
-24.4884060979
 30
0.0
 10
-52.0467872467
 20
-24.4876195338
 30
0.0
 10
-52.0467382749
 20
-24.486232518
 30
0.0
 10
-52.0466811228
 20
-24.4841413671
 30
0.0
 10
-52.0466294613
 20
-24.4814525945
 30
0.0
 10
-52.0465806252
 20
-24.4781830021
 30
0.0
 10
-52.0465361592
 20
-24.47433659
 30
0.0
 10
-52.0464791236
 20
-24.4680849265
 30
0.0
 10
-52.0464226809
 20
-24.4589119647
 30
0.0
 10
-52.0463758451
 20
-24.446339571
 30
0.0
 10
-52.0463478624
 20
-24.4317718456
 30
0.0
 10
-52.0463390884
 20
-24.4153491024
 30
0.0
 10
-52.0463497767
 20
-24.3972295178
 30
0.0
 10
-52.046391321
 20
-24.3701949909
 30
0.0
 10
-52.0464933054
 20
-24.3335880326
 30
0.0
 10
-52.0466825518
 20
-24.2872921551
 30
0.0
 10
-52.0468501566
 20
-24.2554032099
 30
0.0
 10
-52.0469447356
 20
-24.2391459103
 30
0.0
 11
-52.0469447356
 21
-24.4891416795
 31
0.0
 11
-52.0469095045
 21
-24.4890660942
 31
0.0
 11
-52.0468751569
 21
-24.488839929
 31
0.0
 11
-52.0468417166
 21
-24.488463447
 31
0.0
 11
-52.0468092075
 21
-24.4879369117
 31
0.0
 11
-52.0467470781
 21
-24.4864347351
 31
0.0
 11
-52.0466889448
 21
-24.4843364176
 31
0.0
 11
-52.0466349393
 21
-24.4816477283
 31
0.0
 11
-52.046585185
 21
-24.4783749576
 31
0.0
 11
-52.0465397995
 21
-24.4745255032
 31
0.0
 11
-52.0464988882
 21
-24.4701093375
 31
0.0
 11
-52.0464308895
 21
-24.459619553
 31
0.0
 11
-52.0463818452
 21
-24.447006851
 31
0.0
 11
-52.0463522293
 21
-24.4323921817
 31
0.0
 11
-52.0463423267
 21
-24.4159164707
 31
0.0
 11
-52.0463522293
 21
-24.3977386534
 31
0.0
 11
-52.046381845
 21
-24.3780334587
 31
0.0
 11
-52.0464988879
 21
-24.3348129862
 31
0.0
 11
-52.0466889443
 21
-24.2879179636
 31
0.0
 11
-52.0469447356
 21
-24.2391459103
 31
0.0
  0
SPLINE
  5
746
100
AcDbEntity
  8
RACCORDO
100
AcDbSpline
 62
7
  6
CONTINUOUS
 70
0
 71
3
 72
9
 73
5
 74
3
 42
0.0000001
 43
0.0000001
 44
0.0000000001
 12
-0.1240356311
 22
0.0065920554
 32
0.0
 13
-0.1240404534
 23
0.0065006847
 33
0.0
 40
0.0
 40
0.0
 40
0.0
 40
0.0
 40
0.517786632
 40
1.0
 40
1.0
 40
1.0
 40
1.0
 10
-54.0498536012
 20
-22.3269244749
 30
0.0
 10
-54.0712615985
 20
-22.3257867155
 30
0.0
 10
-54.1126256178
 20
-22.3239592083
 30
0.0
 10
-54.1540043221
 20
-22.3224692578
 30
0.0
 10
-54.1739423104
 20
-22.3214243521
 30
0.0
 11
-54.0498536012
 21
-22.3269244749
 31
0.0
 11
-54.1141010081
 21
-22.3239846979
 31
0.0
 11
-54.1739423104
 21
-22.3214243521
 31
0.0
  0
LINE
  5
747
100
AcDbEntity
  8
RACCORDO
100
AcDbLine
 62
7
  6
CONTINUOUS
 10
-52.7983991684
 20
-22.3932215873
 11
-54.0498536012
 21
-22.3269244749
  0
SPLINE
  5
748
100
AcDbEntity
  8
RACCORDO
100
AcDbSpline
 62
7
  6
CONTINUOUS
 70
0
 71
3
 72
21
 73
17
 74
15
 42
0.0000001
 43
0.0000001
 44
0.0000000001
 12
-0.0109034049
 22
0.4998480766
 32
0.0
 13
0.2141192684
 23
0.4517963289
 33
0.0
 40
0.0
 40
0.0
 40
0.0
 40
0.0
 40
0.1908451695
 40
0.374669374
 40
0.5447379846
 40
0.6948051352
 40
0.7605803417
 40
0.8193565136
 40
0.8705931283
 40
0.913818779
 40
0.9486365523
 40
0.9747313316
 40
0.9844344001
 40
0.9918802138
 40
0.9970619047
 40
1.0
 40
1.0
 40
1.0
 40
1.0
 10
-52.7962128394
 20
21.9063722151
 30
0.0
 10
-52.7969064601
 20
21.9381700787
 30
0.0
 10
-52.7981652451
 20
22.0005982962
 30
0.0
 10
-52.7996856186
 20
22.09136943
 30
0.0
 10
-52.8007715889
 20
22.1753503926
 30
0.0
 10
-52.8013093054
 20
22.2396627738
 30
0.0
 10
-52.8014677307
 20
22.2854292942
 30
0.0
 10
-52.8014548496
 20
22.3147255149
 30
0.0
 10
-52.8013165362
 20
22.3402631267
 30
0.0
 10
-52.8010587841
 20
22.361807622
 30
0.0
 10
-52.8006800566
 20
22.3791575916
 30
0.0
 10
-52.8002583543
 20
22.3909223802
 30
0.0
 10
-52.7998183787
 20
22.3981125078
 30
0.0
 10
-52.7995115834
 20
22.4018285467
 30
0.0
 10
-52.7991628157
 20
22.4043868138
 30
0.0
 10
-52.7989048151
 20
22.4057364423
 30
0.0
 10
-52.7986951141
 20
22.4061789158
 30
0.0
 11
-52.7962128394
 21
21.9063722151
 31
0.0
 11
-52.7981335495
 21
22.0017691649
 31
0.0
 11
-52.7996632687
 21
22.0936624664
 31
0.0
 11
-52.8007458898
 21
22.178684264
 31
0.0
 11
-52.8013415672
 21
22.2537105198
 31
0.0
 11
-52.8014491843
 21
22.2865957753
 31
0.0
 11
-52.8014282545
 21
22.3159819131
 31
0.0
 11
-52.8012789815
 21
22.3415980939
 31
0.0
 11
-52.8010026847
 21
22.3632077258
 31
0.0
 11
-52.8006018616
 21
22.3806108476
 31
0.0
 11
-52.8000805267
 21
22.3936469554
 31
0.0
 11
-52.7997758432
 21
22.3984885919
 31
0.0
 11
-52.799442423
 21
22.4021962915
 31
0.0
 11
-52.7990815676
 21
22.4047617109
 31
0.0
 11
-52.7986951141
 21
22.4061789158
 31
0.0
  0
SPLINE
  5
749
100
AcDbEntity
  8
RACCORDO
100
AcDbSpline
 62
7
  6
CONTINUOUS
 70
0
 71
3
 72
21
 73
17
 74
15
 42
0.0000001
 43
0.0000001
 44
0.0000000001
 12
-0.0109039362
 22
-0.4998724318
 32
0.0
 13
0.2141297014
 23
-0.4518183427
 33
0.0
 40
0.0
 40
0.0
 40
0.0
 40
0.0
 40
0.1908362254
 40
0.3746517887
 40
0.5447123523
 40
0.6947723216
 40
0.7605443421
 40
0.8193176229
 40
0.8705516909
 40
0.9137751444
 40
0.9485912225
 40
0.9746831318
 40
0.9843863922
 40
0.9918407656
 40
0.9970427549
 40
1.0
 40
1.0
 40
1.0
 40
1.0
 10
-52.7962128394
 20
-21.8933992421
 30
0.0
 10
-52.7969064614
 20
-21.9251971648
 30
0.0
 10
-52.7981652562
 20
-21.9876254938
 30
0.0
 10
-52.7996855977
 20
-22.0783967794
 30
0.0
 10
-52.8007716779
 20
-22.162377855
 30
0.0
 10
-52.8013091291
 20
-22.2266903036
 30
0.0
 10
-52.8014679888
 20
-22.2724568399
 30
0.0
 10
-52.8014545022
 20
-22.3017530599
 30
0.0
 10
-52.8013157056
 20
-22.3272906147
 30
0.0
 10
-52.8010648666
 20
-22.3488351994
 30
0.0
 10
-52.8006632625
 20
-22.3661845372
 30
0.0
 10
-52.8002751073
 20
-22.377949545
 30
0.0
 10
-52.7998425771
 20
-22.3851426117
 30
0.0
 10
-52.7994867423
 20
-22.388858604
 30
0.0
 10
-52.7990663334
 20
-22.3914186191
 30
0.0
 10
-52.7987582193
 20
-22.392759333
 30
0.0
 10
-52.7985471413
 20
-22.3932047122
 30
0.0
 11
-52.7962128394
 21
-21.8933992421
 31
0.0
 11
-52.7981335526
 21
-21.9887963691
 31
0.0
 11
-52.7996632737
 21
-22.0806898281
 31
0.0
 11
-52.8007459015
 21
-22.1657117453
 31
0.0
 11
-52.8013415698
 21
-22.2407380664
 31
0.0
 11
-52.801449279
 21
-22.2736233309
 31
0.0
 11
-52.8014278903
 21
-22.3030094548
 31
0.0
 11
-52.8012796993
 21
-22.3286256166
 31
0.0
 11
-52.8010026762
 21
-22.3502351937
 31
0.0
 11
-52.8005969702
 21
-22.367638203
 31
0.0
 11
-52.8000993613
 21
-22.3806744381
 31
0.0
 11
-52.7997876366
 21
-22.3855159594
 31
0.0
 11
-52.799402551
 21
-22.3892231347
 31
0.0
 11
-52.7989699507
 21
-22.3917878561
 31
0.0
 11
-52.7985471413
 21
-22.3932047122
 31
0.0
  0
SPLINE
  5
74A
100
AcDbEntity
  8
RACCORDO
100
AcDbSpline
 62
253
  6
CONTINUOUS
 70
0
 71
3
 72
26
 73
22
 74
20
 42
0.0000001
 43
0.0000001
 44
0.0000000001
 12
0.0014544634
 22
0.2500094791
 32
0.0
 13
-0.2500094788
 23
0.0014545126
 33
0.0
 40
0.0
 40
0.0
 40
0.0
 40
0.0
 40
0.1950801482
 40
0.3826514546
 40
0.5555244637
 40
0.6343410028
 40
0.7070482891
 40
0.7729475285
 40
0.8314031303
 40
0.8818515616
 40
0.9238092906
 40
0.9414737585
 40
0.9568718137
 40
0.9699636982
 40
0.9807200538
 40
0.9891160957
 40
0.9951296193
 40
0.997239666
 40
0.9987514509
 40
0.9996664438
 40
1.0
 40
1.0
 40
1.0
 40
1.0
 10
-52.0469447356
 20
24.2521188833
 30
0.0
 10
-52.0468501566
 20
24.2683761787
 30
0.0
 10
-52.0466825519
 20
24.3002651166
 30
0.0
 10
-52.0464933055
 20
24.3465609838
 30
0.0
 10
-52.0463913211
 20
24.3831679355
 30
0.0
 10
-52.0463497767
 20
24.4102024584
 30
0.0
 10
-52.0463390884
 20
24.4283220418
 30
0.0
 10
-52.0463478624
 20
24.444744785
 30
0.0
 10
-52.046375845
 20
24.4593125118
 30
0.0
 10
-52.0464226807
 20
24.4718849079
 30
0.0
 10
-52.0464791234
 20
24.4810578726
 30
0.0
 10
-52.0465361589
 20
24.4873095392
 30
0.0
 10
-52.0465806249
 20
24.4911559542
 30
0.0
 10
-52.046629461
 20
24.4944255498
 30
0.0
 10
-52.0466811224
 20
24.4971143255
 30
0.0
 10
-52.0467382745
 20
24.4992054798
 30
0.0
 10
-52.0467872465
 20
24.5005924983
 30
0.0
 10
-52.0468382973
 20
24.501379065
 30
0.0
 10
-52.0468632552
 20
24.5017808319
 30
0.0
 10
-52.046903701
 20
24.5019643638
 30
0.0
 10
-52.0469169382
 20
24.5021144908
 30
0.0
 10
-52.0469447356
 20
24.5021146525
 30
0.0
 11
-52.0469447356
 21
24.2521188833
 31
0.0
 11
-52.0466889444
 21
24.3008909241
 31
0.0
 11
-52.046498888
 21
24.3477859371
 31
0.0
 11
-52.0463818451
 21
24.391006401
 31
0.0
 11
-52.0463522293
 21
24.410711594
 31
0.0
 11
-52.0463423267
 21
24.4288894097
 31
0.0
 11
-52.0463522293
 21
24.4453651201
 31
0.0
 11
-52.0463818451
 21
24.4599797919
 31
0.0
 11
-52.0464308893
 21
24.472592496
 31
0.0
 11
-52.046498888
 21
24.4830822831
 31
0.0
 11
-52.0465397993
 21
24.4874984528
 31
0.0
 11
-52.0465851847
 21
24.4913479101
 31
0.0
 11
-52.046634939
 21
24.4946206826
 31
0.0
 11
-52.0466889444
 21
24.4973093766
 31
0.0
 11
-52.0467470777
 21
24.4994076971
 31
0.0
 11
-52.0468092073
 21
24.5009098761
 31
0.0
 11
-52.0468417165
 21
24.5014364141
 31
0.0
 11
-52.0468751568
 21
24.5018128989
 31
0.0
 11
-52.0469095045
 21
24.5020390663
 31
0.0
 11
-52.0469447356
 21
24.5021146525
 31
0.0
  0
LINE
  5
74B
100
AcDbEntity
  8
RACCORDO
100
AcDbLine
 62
7
  6
CONTINUOUS
 10
-52.7983991684
 20
24.2564907173
 11
-52.7983991684
 21
24.5064864865
  0
SPLINE
  5
74C
100
AcDbEntity
  8
RACCORDO
100
AcDbSpline
 62
253
  6
CONTINUOUS
 70
0
 71
3
 72
26
 73
22
 74
20
 42
0.0000001
 43
0.0000001
 44
0.0000000001
 12
-0.0014544634
 22
0.2500094791
 32
0.0
 13
0.2500094788
 23
0.0014545126
 33
0.0
 40
0.0
 40
0.0
 40
0.0
 40
0.0
 40
0.1950801482
 40
0.3826514546
 40
0.5555244637
 40
0.6343410028
 40
0.7070482891
 40
0.7729475285
 40
0.8314031303
 40
0.8818515616
 40
0.9238092906
 40
0.9414737585
 40
0.9568718137
 40
0.9699636982
 40
0.9807200538
 40
0.9891160957
 40
0.9951296193
 40
0.997239666
 40
0.9987514509
 40
0.9996664438
 40
1.0
 40
1.0
 40
1.0
 40
1.0
 10
-55.0498536012
 20
24.2433921386
 30
0.0
 10
-55.0499481802
 20
24.259649434
 30
0.0
 10
-55.0501157849
 20
24.2915383719
 30
0.0
 10
-55.0503050313
 20
24.3378342391
 30
0.0
 10
-55.0504070157
 20
24.3744411908
 30
0.0
 10
-55.0504485601
 20
24.4014757137
 30
0.0
 10
-55.0504592484
 20
24.419595297
 30
0.0
 10
-55.0504504744
 20
24.4360180403
 30
0.0
 10
-55.0504224918
 20
24.4505857671
 30
0.0
 10
-55.0503756561
 20
24.4631581632
 30
0.0
 10
-55.0503192134
 20
24.4723311279
 30
0.0
 10
-55.0502621779
 20
24.4785827945
 30
0.0
 10
-55.0502177119
 20
24.4824292095
 30
0.0
 10
-55.0501688758
 20
24.485698805
 30
0.0
 10
-55.0501172144
 20
24.4883875808
 30
0.0
 10
-55.0500600623
 20
24.4904787351
 30
0.0
 10
-55.0500110903
 20
24.4918657536
 30
0.0
 10
-55.0499600395
 20
24.4926523203
 30
0.0
 10
-55.0499350816
 20
24.4930540872
 30
0.0
 10
-55.0498946358
 20
24.4932376191
 30
0.0
 10
-55.0498813986
 20
24.493387746
 30
0.0
 10
-55.0498536012
 20
24.4933879078
 30
0.0
 11
-55.0498536012
 21
24.2433921386
 31
0.0
 11
-55.0501093924
 21
24.2921641794
 31
0.0
 11
-55.0502994488
 21
24.3390591924
 31
0.0
 11
-55.0504164917
 21
24.3822796562
 31
0.0
 11
-55.0504461075
 21
24.4019848493
 31
0.0
 11
-55.0504560101
 21
24.420162665
 31
0.0
 11
-55.0504461075
 21
24.4366383753
 31
0.0
 11
-55.0504164917
 21
24.4512530472
 31
0.0
 11
-55.0503674475
 21
24.4638657513
 31
0.0
 11
-55.0502994488
 21
24.4743555384
 31
0.0
 11
-55.0502585375
 21
24.4787717081
 31
0.0
 11
-55.0502131521
 21
24.4826211654
 31
0.0
 11
-55.0501633978
 21
24.4858939379
 31
0.0
 11
-55.0501093924
 21
24.4885826319
 31
0.0
 11
-55.0500512591
 21
24.4906809524
 31
0.0
 11
-55.0499891295
 21
24.4921831314
 31
0.0
 11
-55.0499566203
 21
24.4927096694
 31
0.0
 11
-55.04992318
 21
24.4930861541
 31
0.0
 11
-55.0498888323
 21
24.4933123216
 31
0.0
 11
-55.0498536012
 21
24.4933879078
 31
0.0
  0
SPLINE
  5
74D
100
AcDbEntity
  8
RACCORDO
100
AcDbSpline
 62
253
  6
CONTINUOUS
 70
0
 71
3
 72
26
 73
22
 74
20
 42
0.0000001
 43
0.0000001
 44
0.0000000001
 12
-0.124641584
 22
-0.2158928633
 32
0.0
 13
0.2158910366
 23
-0.1246447481
 33
0.0
 40
0.0
 40
0.0
 40
0.0
 40
0.0
 40
0.1952373303
 40
0.3828767077
 40
0.5557522251
 40
0.6345529812
 40
0.7072370395
 40
0.7731083627
 40
0.8315339236
 40
0.8819525002
 40
0.9238825542
 40
0.9415345305
 40
0.9569212142
 40
0.9700029891
 40
0.9807505739
 40
0.9891391978
 40
0.995146544
 40
0.9972538066
 40
0.998762781
 40
0.999674324
 40
1.0
 40
1.0
 40
1.0
 40
1.0
 10
-55.0498536012
 20
23.8508240538
 30
0.0
 10
-55.0579651646
 20
23.8367739384
 30
0.0
 10
-55.0738592425
 20
23.8092127639
 30
0.0
 10
-55.096889323
 20
23.7691839398
 30
0.0
 10
-55.1150586518
 20
23.737521113
 30
0.0
 10
-55.1284483107
 20
23.7141289657
 30
0.0
 10
-55.137407949
 20
23.6984463633
 30
0.0
 10
-55.1455138444
 20
23.6842259608
 30
0.0
 10
-55.1526883387
 20
23.6716042957
 30
0.0
 10
-55.1588626374
 20
23.6607025311
 30
0.0
 10
-55.1633505326
 20
23.652739361
 30
0.0
 10
-55.1663950733
 20
23.6473044959
 30
0.0
 10
-55.1682611979
 20
23.6439567586
 30
0.0
 10
-55.1698389918
 20
23.641106389
 30
0.0
 10
-55.1711282681
 20
23.6387575248
 30
0.0
 10
-55.172117081
 20
23.6369234605
 30
0.0
 10
-55.172766988
 20
23.6357023798
 30
0.0
 10
-55.1731146324
 20
23.6349997519
 30
0.0
 10
-55.1732982027
 20
23.6346417477
 30
0.0
 10
-55.1733512341
 20
23.6344656025
 30
0.0
 10
-55.1734226052
 20
23.6343312341
 30
0.0
 10
-55.1733991684
 20
23.6343177028
 30
0.0
 11
-55.0498536012
 21
23.8508240538
 31
0.0
 11
-55.0741674044
 21
23.8086616557
 31
0.0
 11
-55.0974931975
 21
23.7681159932
 31
0.0
 11
-55.1189401508
 21
23.7307355468
 31
0.0
 11
-55.1286983828
 21
23.713686455
 31
0.0
 11
-55.1376860946
 21
23.6979532834
 31
0.0
 11
-55.145817213
 21
23.6836867104
 31
0.0
 11
-55.153013585
 21
23.6710238544
 31
0.0
 11
-55.1592060689
 21
23.6600863767
 31
0.0
 11
-55.1643355019
 21
23.6509787802
 31
0.0
 11
-55.1664856651
 21
23.647139408
 31
0.0
 11
-55.1683525579
 21
23.6437886466
 31
0.0
 11
-55.1699313523
 21
23.6409351397
 31
0.0
 11
-55.1712184988
 21
23.6385853125
 31
0.0
 11
-55.1722109922
 21
23.636744645
 31
0.0
 11
-55.1729060935
 21
23.6354181665
 31
0.0
 11
-55.1731416713
 21
23.6349486321
 31
0.0
 11
-55.1733024511
 21
23.6346085515
 31
0.0
 11
-55.1733883208
 21
23.6343981625
 31
0.0
 11
-55.1733991684
 21
23.6343177028
 31
0.0
  0
SPLINE
  5
74E
100
AcDbEntity
  8
RACCORDO
100
AcDbSpline
 62
7
  6
CONTINUOUS
 70
0
 71
3
 72
13
 73
9
 74
7
 42
0.0000001
 43
0.0000001
 44
0.0000000001
 12
-0.2489102006
 22
-0.1437120194
 32
0.0
 13
-0.2442304678
 23
-0.1515743143
 33
0.0
 40
0.0
 40
0.0
 40
0.0
 40
0.0
 40
0.3611882381
 40
0.6821280769
 40
0.8126327776
 40
0.9136838512
 40
0.9780299327
 40
1.0
 40
1.0
 40
1.0
 40
1.0
 10
-54.0498536012
 20
23.2734737846
 30
0.0
 10
-54.0798214135
 20
23.2561714209
 30
0.0
 10
-54.1364055303
 20
23.2234736156
 30
0.0
 10
-54.2037661611
 20
23.1844358748
 30
0.0
 10
-54.2495473815
 20
23.1578656831
 30
0.0
 10
-54.2740145849
 20
23.1435479892
 30
0.0
 10
-54.289549878
 20
23.1345511788
 30
0.0
 10
-54.2966105818
 20
23.1302462499
 30
0.0
 10
-54.2983991684
 20
23.1291362173
 30
0.0
 11
-54.0498536012
 21
23.2734737846
 31
0.0
 11
-54.1397326604
 21
23.2215244942
 31
0.0
 11
-54.2195450074
 21
23.17527563
 31
0.0
 11
-54.2519750617
 21
23.1564274944
 31
0.0
 11
-54.2770636039
 21
23.1417947791
 31
0.0
 11
-54.2930100324
 21
23.1324273345
 31
0.0
 11
-54.2983991684
 21
23.1291362173
 31
0.0
  0
SPLINE
  5
74F
100
AcDbEntity
  8
RACCORDO
100
AcDbSpline
 62
253
  6
CONTINUOUS
 70
0
 71
3
 72
26
 73
22
 74
20
 42
0.0000001
 43
0.0000001
 44
0.0000000001
 12
-0.2500094788
 22
0.0014545126
 32
0.0
 13
0.0014544634
 23
0.2500094791
 33
0.0
 40
0.0
 40
0.0
 40
0.0
 40
0.0
 40
0.0003335564
 40
0.00124855
 40
0.0027603359
 40
0.0048703838
 40
0.0108839094
 40
0.0192799558
 40
0.0300363178
 40
0.0431282071
 40
0.0585262703
 40
0.0761907484
 40
0.1181484961
 40
0.1685969497
 40
0.2270525812
 40
0.2929518478
 40
0.3656591609
 40
0.4444757333
 40
0.6173487905
 40
0.8049201876
 40
1.0
 40
1.0
 40
1.0
 40
1.0
 10
-55.0498536012
 20
-24.4804149348
 30
0.0
 10
-55.0498813987
 20
-24.4804147731
 30
0.0
 10
-55.0498946358
 20
-24.480264646
 30
0.0
 10
-55.0499350816
 20
-24.480081114
 30
0.0
 10
-55.0499600395
 20
-24.4796793468
 30
0.0
 10
-55.0500110903
 20
-24.4788927798
 30
0.0
 10
-55.0500600624
 20
-24.4775057606
 30
0.0
 10
-55.0501172145
 20
-24.4754146052
 30
0.0
 10
-55.0501688759
 20
-24.4727258282
 30
0.0
 10
-55.050217712
 20
-24.469456231
 30
0.0
 10
-55.0502621779
 20
-24.4656098141
 30
0.0
 10
-55.0503192135
 20
-24.4593581444
 30
0.0
 10
-55.0503756562
 20
-24.4501851755
 30
0.0
 10
-55.0504224918
 20
-24.4376127735
 30
0.0
 10
-55.0504504744
 20
-24.4230450401
 30
0.0
 10
-55.0504592484
 20
-24.4066222899
 30
0.0
 10
-55.0504485601
 20
-24.3885026992
 30
0.0
 10
-55.0504070156
 20
-24.3614681673
 30
0.0
 10
-55.0503050311
 20
-24.3248612013
 30
0.0
 10
-55.0501157847
 20
-24.2785653505
 30
0.0
 10
-55.0499481801
 20
-24.246676433
 30
0.0
 10
-55.0498536012
 20
-24.2304191656
 30
0.0
 11
-55.0498536012
 21
-24.4804149348
 31
0.0
 11
-55.0498888323
 21
-24.4803393486
 31
0.0
 11
-55.04992318
 21
-24.4801131809
 31
0.0
 11
-55.0499566203
 21
-24.4797366959
 31
0.0
 11
-55.0499891295
 21
-24.4792101577
 31
0.0
 11
-55.0500512591
 21
-24.4777079781
 31
0.0
 11
-55.0501093925
 21
-24.4756096565
 31
0.0
 11
-55.0501633979
 21
-24.4729209609
 31
0.0
 11
-55.0502131522
 21
-24.4696481872
 31
0.0
 11
-55.0502585376
 21
-24.4657987279
 31
0.0
 11
-55.0502994489
 21
-24.4613825557
 31
0.0
 11
-55.0503674476
 21
-24.4508927639
 31
0.0
 11
-55.0504164918
 21
-24.4382800542
 31
0.0
 11
-55.0504461075
 21
-24.4236653749
 31
0.0
 11
-55.0504560101
 21
-24.4071896578
 31
0.0
 11
-55.0504461075
 21
-24.3890118354
 31
0.0
 11
-55.0504164916
 21
-24.369306634
 31
0.0
 11
-55.0502994486
 21
-24.3260861581
 31
0.0
 11
-55.050109392
 21
-24.2791911224
 31
0.0
 11
-55.0498536012
 21
-24.2304191656
 31
0.0
  0
LINE
  5
750
100
AcDbEntity
  8
RACCORDO
100
AcDbLine
 62
7
  6
CONTINUOUS
 10
-52.7983991684
 20
-24.4935135135
 11
-52.7983991684
 21
-24.2435177443
  0
SPLINE
  5
751
100
AcDbEntity
  8
RACCORDO
100
AcDbSpline
 62
253
  6
CONTINUOUS
 70
0
 71
3
 72
26
 73
22
 74
20
 42
0.0000001
 43
0.0000001
 44
0.0000000001
 12
0.124641584
 22
-0.2158928633
 32
0.0
 13
-0.2158910366
 23
-0.1246447481
 33
0.0
 40
0.0
 40
0.0
 40
0.0
 40
0.0
 40
0.1952371571
 40
0.3828765726
 40
0.5557521165
 40
0.634552892
 40
0.7072369657
 40
0.7731083045
 40
0.8315338818
 40
0.8819524705
 40
0.9238825345
 40
0.9415345162
 40
0.9569212041
 40
0.9700029814
 40
0.9807505693
 40
0.9891391953
 40
0.9951465425
 40
0.9972538056
 40
0.9987627805
 40
0.9996743239
 40
1.0
 40
1.0
 40
1.0
 40
1.0
 10
-52.0469447356
 20
23.8508240538
 30
0.0
 10
-52.0388331794
 20
23.8367739508
 30
0.0
 10
-52.0229391071
 20
23.8092127861
 30
0.0
 10
-51.9999090311
 20
23.7691839698
 30
0.0
 10
-51.9817396987
 20
23.737521137
 30
0.0
 10
-51.9683500372
 20
23.7141289853
 30
0.0
 10
-51.9593903969
 20
23.6984463793
 30
0.0
 10
-51.9512844996
 20
23.6842259734
 30
0.0
 10
-51.9441100034
 20
23.671604305
 30
0.0
 10
-51.9379357031
 20
23.6607025377
 30
0.0
 10
-51.9334478068
 20
23.6527393656
 30
0.0
 10
-51.9304032653
 20
23.6473044991
 30
0.0
 10
-51.9285371402
 20
23.6439567609
 30
0.0
 10
-51.9269593459
 20
23.6411063906
 30
0.0
 10
-51.9256700693
 20
23.6387575259
 30
0.0
 10
-51.9246812561
 20
23.6369234612
 30
0.0
 10
-51.924031349
 20
23.6357023802
 30
0.0
 10
-51.9236837045
 20
23.6349997521
 30
0.0
 10
-51.9235001342
 20
23.6346417478
 30
0.0
 10
-51.9234471027
 20
23.6344656025
 30
0.0
 10
-51.9233757315
 20
23.6343312341
 30
0.0
 10
-51.9233991684
 20
23.6343177028
 30
0.0
 11
-52.0469447356
 21
23.8508240538
 31
0.0
 11
-52.0226309539
 21
23.8086616932
 31
0.0
 11
-51.9993051561
 21
23.7681160224
 31
0.0
 11
-51.9778581995
 21
23.7307355703
 31
0.0
 11
-51.968099965
 21
23.7136864743
 31
0.0
 11
-51.9591122514
 21
23.6979532993
 31
0.0
 11
-51.950981131
 21
23.683686723
 31
0.0
 11
-51.943784757
 21
23.6710238635
 31
0.0
 11
-51.9375922715
 21
23.6600863832
 31
0.0
 11
-51.9324628373
 21
23.6509787845
 31
0.0
 11
-51.9303126735
 21
23.6471394111
 31
0.0
 11
-51.9284457801
 21
23.6437886488
 31
0.0
 11
-51.9268669854
 21
23.6409351414
 31
0.0
 11
-51.9255798386
 21
23.6385853135
 31
0.0
 11
-51.9245873449
 21
23.6367446456
 31
0.0
 11
-51.9238922435
 21
23.6354181669
 31
0.0
 11
-51.9236566656
 21
23.6349486324
 31
0.0
 11
-51.9234958858
 21
23.6346085516
 31
0.0
 11
-51.923410016
 21
23.6343981625
 31
0.0
 11
-51.9233991684
 21
23.6343177028
 31
0.0
  0
SPLINE
  5
752
100
AcDbEntity
  8
RACCORDO
100
AcDbSpline
 62
7
  6
CONTINUOUS
 70
0
 71
3
 72
9
 73
5
 74
3
 42
0.0000001
 43
0.0000001
 44
0.0000000001
 12
0.1240404534
 22
0.0065006847
 32
0.0
 13
0.1240356311
 23
0.0065920554
 33
0.0
 40
0.0
 40
0.0
 40
0.0
 40
0.0
 40
0.482213368
 40
1.0
 40
1.0
 40
1.0
 40
1.0
 10
-54.1739423104
 20
22.3343973251
 30
0.0
 10
-54.1540043221
 20
22.3354422308
 30
0.0
 10
-54.1126256178
 20
22.3369321813
 30
0.0
 10
-54.0712615985
 20
22.3387596885
 30
0.0
 10
-54.0498536012
 20
22.3398974479
 30
0.0
 11
-54.1739423104
 21
22.3343973251
 31
0.0
 11
-54.1141010081
 21
22.3369576709
 31
0.0
 11
-54.0498536012
 21
22.3398974479
 31
0.0
  0
SPLINE
  5
753
100
AcDbEntity
  8
RACCORDO
100
AcDbSpline
 62
253
  6
CONTINUOUS
 70
0
 71
3
 72
14
 73
10
 74
8
 42
0.0000001
 43
0.0000001
 44
0.0000000001
 12
0.0039936825
 22
0.0803655818
 32
0.0
 13
0.0803840527
 23
-0.0036028194
 33
0.0
 40
0.0
 40
0.0
 40
0.0
 40
0.0
 40
0.425069306
 40
0.5974193286
 40
0.7408677378
 40
0.8538327014
 40
0.9348587416
 40
0.9835113851
 40
1.0
 40
1.0
 40
1.0
 40
1.0
 10
-16.7738294471
 20
18.6354410966
 30
0.0
 10
-16.7732635832
 20
18.6468280773
 30
0.0
 10
-16.7724555081
 20
18.6628508098
 30
0.0
 10
-16.7713222855
 20
18.6826465476
 30
0.0
 10
-16.7706901318
 20
18.6942211848
 30
0.0
 10
-16.7699505471
 20
18.7030033011
 30
0.0
 10
-16.769786392
 20
18.7100601701
 30
0.0
 10
-16.7688306896
 20
18.7129644399
 30
0.0
 10
-16.7691812397
 20
18.7157369191
 30
0.0
 10
-16.7687394325
 20
18.7157171173
 30
0.0
 11
-16.7738294471
 21
18.6354410966
 31
0.0
 11
-16.772060152
 21
18.6695984001
 31
0.0
 11
-16.7712832724
 21
18.6834447247
 31
0.0
 11
-16.7705876167
 21
18.694966283
 31
0.0
 11
-16.7699802193
 21
18.7040356641
 31
0.0
 11
-16.7694677218
 21
18.7105352301
 31
0.0
 11
-16.7690535252
 21
18.7144280799
 31
0.0
 11
-16.7687394325
 21
18.7157171173
 31
0.0
  0
SPLINE
  5
754
100
AcDbEntity
  8
RACCORDO
100
AcDbSpline
 62
253
  6
CONTINUOUS
 70
0
 71
3
 72
11
 73
7
 74
5
 42
0.0000001
 43
0.0000001
 44
0.0000000001
 12
-0.0000287661
 22
1.4778358056
 32
0.0
 13
-1.1652781369
 23
0.9089144805
 33
0.0
 40
0.0
 40
0.0
 40
0.0
 40
0.0
 40
0.2512504653
 40
0.5004073724
 40
0.7496788071
 40
1.0
 40
1.0
 40
1.0
 40
1.0
 10
-15.8023930693
 20
17.0955591909
 30
0.0
 10
-15.8023954784
 20
17.2193281688
 30
0.0
 10
-15.8059703006
 20
17.4659713719
 30
0.0
 10
-15.8597447865
 20
17.8335585648
 30
0.0
 10
-16.0011026009
 20
18.1792845592
 30
0.0
 10
-16.1663262713
 20
18.3702448127
 30
0.0
 10
-16.2635575424
 20
18.4460849983
 30
0.0
 11
-15.8023930693
 21
17.0955591909
 31
0.0
 11
-15.8141328594
 21
17.466680487
 31
0.0
 11
-15.8743166014
 21
17.8299417285
 31
0.0
 11
-16.0185561627
 21
18.1689113912
 31
0.0
 11
-16.2635575424
 21
18.4460849983
 31
0.0
  0
SPLINE
  5
755
100
AcDbEntity
  8
RACCORDO
100
AcDbSpline
 62
253
  6
CONTINUOUS
 70
0
 71
3
 72
9
 73
5
 74
3
 42
0.0000001
 43
0.0000001
 44
0.0000000001
 12
-0.2932918222
 22
0.2287670006
 32
0.0
 13
-0.3606784322
 23
0.0909148066
 33
0.0
 40
0.0
 40
0.0
 40
0.0
 40
0.0
 40
0.7488537928
 40
1.0
 40
1.0
 40
1.0
 40
1.0
 10
-16.2635575424
 20
18.4460849983
 30
0.0
 10
-16.3367684402
 20
18.5031893437
 30
0.0
 10
-16.4469698404
 20
18.5656751932
 30
0.0
 10
-16.5655347073
 20
18.6023964
 30
0.0
 10
-16.5957290474
 20
18.6100073696
 30
0.0
 11
-16.2635575424
 21
18.4460849983
 31
0.0
 11
-16.5065079948
 21
18.5823265266
 31
0.0
 11
-16.5957290474
 21
18.6100073696
 31
0.0
  0
SPLINE
  5
756
100
AcDbEntity
  8
RACCORDO
100
AcDbSpline
 62
253
  6
CONTINUOUS
 70
0
 71
3
 72
24
 73
20
 74
18
 42
0.0000001
 43
0.0000001
 44
0.0000000001
 12
0.0174374937
 22
-1.9998919346
 32
0.0
 13
-1.9993135128
 23
-0.0511594923
 33
0.0
 40
0.0
 40
0.0
 40
0.0
 40
0.0
 40
0.1950371685
 40
0.3826224594
 40
0.5554597667
 40
0.6342758852
 40
0.7069735851
 40
0.7728704688
 40
0.8313167334
 40
0.8817678761
 40
0.9237255719
 40
0.9413898781
 40
0.9567915149
 40
0.9698915015
 40
0.9806518766
 40
0.9890490241
 40
0.9950719757
 40
0.9987138774
 40
1.0
 40
1.0
 40
1.0
 40
1.0
 10
-16.780946762
 20
-17.0825862178
 30
0.0
 10
-16.7798131088
 20
-17.2126039712
 30
0.0
 10
-16.7778024845
 20
-17.4676737506
 30
0.0
 10
-16.7755311782
 20
-17.8379675398
 30
0.0
 10
-16.7743091619
 20
-18.1307863914
 30
0.0
 10
-16.7738108918
 20
-18.3470164692
 30
0.0
 10
-16.7736830639
 20
-18.4919546806
 30
0.0
 10
-16.7737877549
 20
-18.6233129654
 30
0.0
 10
-16.7741232565
 20
-18.7398408989
 30
0.0
 10
-16.7746850226
 20
-18.8404060052
 30
0.0
 10
-16.7753596755
 20
-18.9137888557
 30
0.0
 10
-16.7760466426
 20
-18.9637913875
 30
0.0
 10
-16.7765731489
 20
-18.994582118
 30
0.0
 10
-16.777179779
 20
-19.0206955307
 30
0.0
 10
-16.7777427904
 20
-19.0423427851
 30
0.0
 10
-16.7785786674
 20
-19.0587262258
 30
0.0
 10
-16.7788836566
 20
-19.0716368267
 30
0.0
 10
-16.7802345747
 20
-19.0773302355
 30
0.0
 10
-16.7800896412
 20
-19.0822596757
 30
0.0
 10
-16.780946762
 20
-19.0822816081
 30
0.0
 11
-16.780946762
 21
-17.0825862178
 31
0.0
 11
-16.7778792268
 21
-17.4726422426
 31
0.0
 11
-16.7755984694
 21
-17.8477998803
 31
0.0
 11
-16.7741954811
 21
-18.1934661088
 31
0.0
 11
-16.7738403703
 21
-18.3510954202
 31
0.0
 11
-16.7737217459
 21
-18.4964884419
 31
0.0
 11
-16.7738401894
 21
-18.6282800444
 31
0.0
 11
-16.7741952062
 21
-18.7451701614
 31
0.0
 11
-16.7747829017
 21
-18.8460691185
 31
0.0
 11
-16.7755979666
 21
-18.929979207
 31
0.0
 11
-16.7760885742
 21
-18.9653038466
 31
0.0
 11
-16.7766330734
 21
-18.9961018138
 31
0.0
 11
-16.7772303328
 21
-19.0222945586
 31
0.0
 11
-16.7778791788
 21
-19.0438051802
 31
0.0
 11
-16.7785777277
 21
-19.0605846718
 31
0.0
 11
-16.7793235037
 21
-19.0726072735
 31
0.0
 11
-16.780114013
 21
-19.0798479355
 31
0.0
 11
-16.780946762
 21
-19.0822816081
 31
0.0
  0
LINE
  5
757
100
AcDbEntity
  8
RACCORDO
100
AcDbLine
 62
253
  6
CONTINUOUS
 10
-15.7983991684
 20
1.0293560215
 11
-15.8875288006
 21
1.0309122591
  0
SPLINE
  5
758
100
AcDbEntity
  8
RACCORDO
100
AcDbSpline
 62
7
  6
CONTINUOUS
 70
0
 71
3
 72
9
 73
5
 74
3
 42
0.0000001
 43
0.0000001
 44
0.0000000001
 12
-0.0000337995
 22
-0.1178887305
 32
0.0
 13
-0.0496684722
 23
-0.1069149044
 33
0.0
 40
0.0
 40
0.0
 40
0.0
 40
0.0
 40
0.2400575365
 40
1.0
 40
1.0
 40
1.0
 40
1.0
 10
-15.8429545242
 20
1.1780950451
 30
0.0
 10
-15.8429572288
 20
1.1686616857
 30
0.0
 10
-15.8454009419
 20
1.1293603599
 30
0.0
 10
-15.8575240796
 20
1.0910238064
 30
0.0
 10
-15.8701058066
 20
1.0639407478
 30
0.0
 11
-15.8429545242
 21
1.1780950451
 31
0.0
 11
-15.8446882945
 21
1.1498481244
 31
0.0
 11
-15.8701058066
 21
1.0639407478
 31
0.0
  0
LINE
  5
759
100
AcDbEntity
  8
RACCORDO
100
AcDbLine
 62
253
  6
CONTINUOUS
 10
-16.7741508002
 20
18.6354550422
 11
-16.7738044846
 21
18.3885580567
  0
LINE
  5
75A
100
AcDbEntity
  8
ASSI
100
AcDbLine
 62
253
  6
CONTINUOUS
 10
-15.7983991684
 20
1.0293560215
 11
-15.8605809474
 21
1.0304420459
  0
LINE
  5
75B
100
AcDbEntity
  8
ASSI
100
AcDbLine
 62
253
  6
CONTINUOUS
 10
-15.8605809474
 20
1.0304420459
 11
-15.8875288006
 21
1.0309122591
  0
SPLINE
  5
75C
100
AcDbEntity
  8
ASSI
100
AcDbSpline
 62
253
  6
CONTINUOUS
 70
0
 71
3
 72
8
 73
4
 74
2
 42
0.0000001
 43
0.0000001
 44
0.0000000001
 12
-0.0000150867
 22
0.7750668547
 32
0.0
 13
-0.2237335496
 23
0.7420727244
 33
0.0
 40
0.0
 40
0.0
 40
0.0
 40
0.0
 40
1.0
 40
1.0
 40
1.0
 40
1.0
 10
-15.8023930693
 20
17.0955591909
 30
0.0
 10
-15.8023980982
 20
17.3539148091
 30
0.0
 10
-15.8101836531
 20
17.6188792858
 30
0.0
 10
-15.884761503
 20
17.8662368606
 30
0.0
 11
-15.8023930693
 21
17.0955591909
 31
0.0
 11
-15.884761503
 21
17.8662368606
 31
0.0
  0
SPLINE
  5
75D
100
AcDbEntity
  8
ASSI
100
AcDbSpline
 62
253
  6
CONTINUOUS
 70
0
 71
3
 72
9
 73
5
 74
3
 42
0.0000001
 43
0.0000001
 44
0.0000000001
 12
-0.2023391882
 22
0.6711125485
 32
0.0
 13
-0.5527025508
 23
0.4311068199
 33
0.0
 40
0.0
 40
0.0
 40
0.0
 40
0.0
 40
0.4989375597
 40
1.0
 40
1.0
 40
1.0
 40
1.0
 10
-15.884761503
 20
17.8662368606
 30
0.0
 10
-15.9184130432
 20
17.9778512797
 30
0.0
 10
-16.0129458522
 20
18.194897678
 30
0.0
 10
-16.1712447127
 20
18.3740811866
 30
0.0
 10
-16.2635575424
 20
18.4460849983
 30
0.0
 11
-15.884761503
 21
17.8662368606
 31
0.0
 11
-16.0286188185
 21
18.1850109422
 31
0.0
 11
-16.2635575424
 21
18.4460849983
 31
0.0
  0
SPLINE
  5
75E
100
AcDbEntity
  8
ASSI
100
AcDbSpline
 62
253
  6
CONTINUOUS
 70
0
 71
3
 72
9
 73
5
 74
3
 42
0.0000001
 43
0.0000001
 44
0.0000000001
 12
-0.4347879196
 22
0.3391336571
 32
0.0
 13
-0.551075737
 23
0.0191756238
 33
0.0
 40
0.0
 40
0.0
 40
0.0
 40
0.0
 40
0.4997445716
 40
1.0
 40
1.0
 40
1.0
 40
1.0
 10
-16.2635575424
 20
18.4460849983
 30
0.0
 10
-16.3359851766
 20
18.5025783997
 30
0.0
 10
-16.4984181572
 20
18.5951888266
 30
0.0
 10
-16.6822578793
 20
18.6322705182
 30
0.0
 10
-16.7741507556
 20
18.6354680882
 30
0.0
 11
-16.2635575424
 21
18.4460849983
 31
0.0
 11
-16.5036813961
 21
18.5812735121
 31
0.0
 11
-16.7741507556
 21
18.6354680882
 31
0.0
  0
SPLINE
  5
75F
100
AcDbEntity
  8
ASSI
100
AcDbSpline
 62
253
  6
CONTINUOUS
 70
0
 71
3
 72
21
 73
17
 74
15
 42
0.0000001
 43
0.0000001
 44
0.0000000001
 12
0.0174374892
 22
-1.9998914186
 32
0.0
 13
-1.999312997
 23
-0.0511594791
 33
0.0
 40
0.0
 40
0.0
 40
0.0
 40
0.0
 40
0.1950372188
 40
0.3826225581
 40
0.55545991
 40
0.7069737284
 40
0.7728706292
 40
0.8313169088
 40
0.8817680645
 40
0.9237257711
 40
0.9567916636
 40
0.9806518716
 40
0.9890490213
 40
0.9950719745
 40
0.9987138771
 40
1.0
 40
1.0
 40
1.0
 40
1.0
 10
-16.780946762
 20
-17.0825862178
 30
0.0
 10
-16.7798131088
 20
-17.2126039712
 30
0.0
 10
-16.7778027277
 20
-17.4676736886
 30
0.0
 10
-16.7755303892
 20
-17.8379677411
 30
0.0
 10
-16.7741094489
 20
-18.1792496986
 30
0.0
 10
-16.7736415907
 20
-18.4394128347
 30
0.0
 10
-16.7737884402
 20
-18.6233110924
 30
0.0
 10
-16.7741206523
 20
-18.7398468216
 30
0.0
 10
-16.7746928268
 20
-18.8403884584
 30
0.0
 10
-16.7754323146
 20
-18.9241055644
 30
0.0
 10
-16.7764923207
 20
-18.9898324847
 30
0.0
 10
-16.7773356527
 20
-19.0337636754
 30
0.0
 10
-16.7785757605
 20
-19.0587320812
 30
0.0
 10
-16.7788840535
 20
-19.0716360272
 30
0.0
 10
-16.7802345459
 20
-19.0773302934
 30
0.0
 10
-16.7800896412
 20
-19.0822596757
 30
0.0
 10
-16.780946762
 20
-19.0822816081
 30
0.0
 11
-16.780946762
 21
-17.0825862178
 31
0.0
 11
-16.7778792268
 21
-17.4726422426
 31
0.0
 11
-16.7755984694
 21
-17.8477998803
 31
0.0
 11
-16.7741954811
 21
-18.1934661088
 31
0.0
 11
-16.7737217459
 21
-18.4964884419
 31
0.0
 11
-16.7738401894
 21
-18.6282800444
 31
0.0
 11
-16.7741952062
 21
-18.7451701614
 31
0.0
 11
-16.7747829017
 21
-18.8460691185
 31
0.0
 11
-16.7755979666
 21
-18.929979207
 31
0.0
 11
-16.7766330734
 21
-18.9961018138
 31
0.0
 11
-16.7778791788
 21
-19.0438051802
 31
0.0
 11
-16.7785777277
 21
-19.0605846718
 31
0.0
 11
-16.7793235037
 21
-19.0726072735
 31
0.0
 11
-16.780114013
 21
-19.0798479355
 31
0.0
 11
-16.780946762
 21
-19.0822816081
 31
0.0
  0
SPLINE
  5
760
100
AcDbEntity
  8
ASSI
100
AcDbSpline
 62
253
  6
CONTINUOUS
 70
0
 71
3
 72
11
 73
7
 74
5
 42
0.0000001
 43
0.0000001
 44
0.0000000001
 12
0.0039932317
 22
0.0803565114
 32
0.0
 13
0.0803749856
 23
-0.0036022934
 33
0.0
 40
0.0
 40
0.0
 40
0.0
 40
0.0
 40
0.4251172795
 40
0.7409506457
 40
0.9349602548
 40
1.0
 40
1.0
 40
1.0
 40
1.0
 10
-16.7738294471
 20
18.6354410966
 30
0.0
 10
-16.7732635832
 20
18.6468280772
 30
0.0
 10
-16.7716920557
 20
18.6659270488
 30
0.0
 10
-16.7720085321
 20
18.6933020412
 30
0.0
 10
-16.7679068499
 20
18.7045435368
 30
0.0
 10
-16.7704819554
 20
18.7157952147
 30
0.0
 10
-16.7687394325
 20
18.7157171173
 30
0.0
 11
-16.7738294471
 21
18.6354410966
 31
0.0
 11
-16.7720601521
 21
18.6695983995
 31
0.0
 11
-16.7705876168
 21
18.6949662822
 31
0.0
 11
-16.7694677219
 21
18.7105352295
 31
0.0
 11
-16.7687394325
 21
18.7157171173
 31
0.0
  0
LINE
  5
761
100
AcDbEntity
  8
ASSI
100
AcDbLine
 62
253
  6
CONTINUOUS
 10
-16.7741508002
 20
18.6354550422
 11
-16.7738044846
 21
18.3885580567
  0
LINE
  5
762
100
AcDbEntity
  8
ASSI
100
AcDbLine
 62
253
  6
CONTINUOUS
 10
-16.7741802599
 20
18.2013041323
 11
-16.7754461019
 21
17.8928260313
  0
SPLINE
  5
763
100
AcDbEntity
  8
ASSI
100
AcDbSpline
 62
7
  6
CONTINUOUS
 70
0
 71
3
 72
9
 73
5
 74
3
 42
0.0000001
 43
0.0000001
 44
0.0000000001
 12
-0.0000337995
 22
-0.1178887305
 32
0.0
 13
-0.0496684722
 23
-0.1069149044
 33
0.0
 40
0.0
 40
0.0
 40
0.0
 40
0.0
 40
0.2400575365
 40
1.0
 40
1.0
 40
1.0
 40
1.0
 10
-15.8429545242
 20
1.1780950451
 30
0.0
 10
-15.8429572288
 20
1.1686616857
 30
0.0
 10
-15.8454009419
 20
1.1293603599
 30
0.0
 10
-15.8575240796
 20
1.0910238064
 30
0.0
 10
-15.8701058066
 20
1.0639407478
 30
0.0
 11
-15.8429545242
 21
1.1780950451
 31
0.0
 11
-15.8446882945
 21
1.1498481244
 31
0.0
 11
-15.8701058066
 21
1.0639407478
 31
0.0
  0
SPLINE
  5
764
100
AcDbEntity
  8
INCISIONI
100
AcDbSpline
 62
253
  6
CONTINUOUS
 70
0
 71
3
 72
9
 73
5
 74
3
 42
0.0000001
 43
0.0000001
 44
0.0000000001
 12
0.6688647978
 22
0.0
 32
0.0
 13
0.0835215015
 23
-0.6637307124
 33
0.0
 40
0.0
 40
0.0
 40
0.0
 40
0.0
 40
0.498223808
 40
1.0
 40
1.0
 40
1.0
 40
1.0
 10
-47.0143473249
 20
4.1252463723
 30
0.0
 10
-46.9032658694
 20
4.1252463723
 30
0.0
 10
-46.6376851386
 20
4.0642244651
 30
0.0
 10
-46.618755165
 20
3.8041133739
 30
0.0
 10
-46.6047854646
 20
3.6930986174
 30
0.0
 11
-47.0143473249
 21
4.1252463723
 31
0.0
 11
-46.6998539517
 21
4.0150219348
 31
0.0
 11
-46.6047854646
 21
3.6930986174
 31
0.0
  0
SPLINE
  5
765
100
AcDbEntity
  8
INCISIONI
100
AcDbSpline
 62
253
  6
CONTINUOUS
 70
0
 71
3
 72
9
 73
5
 74
3
 42
0.0000001
 43
0.0000001
 44
0.0000000001
 12
0.0835215015
 22
0.6637307124
 32
0.0
 13
0.6688647978
 23
0.0
 33
0.0
 40
0.0
 40
0.0
 40
0.0
 40
0.0
 40
0.501776192
 40
1.0
 40
1.0
 40
1.0
 40
1.0
 10
-47.4239091852
 20
3.6930986174
 30
0.0
 10
-47.4099394849
 20
3.8041133739
 30
0.0
 10
-47.3910095112
 20
4.0642244651
 30
0.0
 10
-47.1254287805
 20
4.1252463723
 30
0.0
 10
-47.0143473249
 20
4.1252463723
 30
0.0
 11
-47.4239091852
 21
3.6930986174
 31
0.0
 11
-47.3288406982
 21
4.0150219348
 31
0.0
 11
-47.0143473249
 21
4.1252463723
 31
0.0
  0
SPLINE
  5
766
100
AcDbEntity
  8
INCISIONI
100
AcDbSpline
 62
253
  6
CONTINUOUS
 70
0
 71
3
 72
11
 73
7
 74
5
 42
0.0000001
 43
0.0000001
 44
0.0000000001
 12
-1.6972003026
 22
0.0
 32
0.0
 13
-0.0628503601
 23
-1.6962945267
 33
0.0
 40
0.0
 40
0.0
 40
0.0
 40
0.0
 40
0.2498658267
 40
0.4982899611
 40
0.7488214621
 40
1.0
 40
1.0
 40
1.0
 40
1.0
 10
-47.0143473249
 20
4.7880132868
 30
0.0
 10
-47.1557047772
 20
4.7880132868
 30
0.0
 10
-47.4485837649
 20
4.751638363
 30
0.0
 10
-47.7781702104
 20
4.4408295831
 30
0.0
 10
-47.892716919
 20
4.0201442562
 30
0.0
 10
-47.9004331062
 20
3.7367308037
 30
0.0
 10
-47.9056953267
 20
3.594706544
 30
0.0
 11
-47.0143473249
 21
4.7880132868
 31
0.0
 11
-47.4309341916
 21
4.708674371
 31
0.0
 11
-47.7416901263
 21
4.4236768897
 31
0.0
 11
-47.8754385749
 21
4.019996513
 31
0.0
 11
-47.9056953267
 21
3.594706544
 31
0.0
  0
SPLINE
  5
767
100
AcDbEntity
  8
INCISIONI
100
AcDbSpline
 62
253
  6
CONTINUOUS
 70
0
 71
3
 72
11
 73
7
 74
5
 42
0.0000001
 43
0.0000001
 44
0.0000000001
 12
-0.0628503601
 22
1.6962945267
 32
0.0
 13
-1.6972003026
 23
0.0
 33
0.0
 40
0.0
 40
0.0
 40
0.0
 40
0.0
 40
0.2511785379
 40
0.5017100389
 40
0.7501341733
 40
1.0
 40
1.0
 40
1.0
 40
1.0
 10
-46.1229993232
 20
3.594706544
 30
0.0
 10
-46.1282615437
 20
3.7367308037
 30
0.0
 10
-46.1359777309
 20
4.0201442562
 30
0.0
 10
-46.2505244395
 20
4.4408295831
 30
0.0
 10
-46.5801108849
 20
4.751638363
 30
0.0
 10
-46.8729898727
 20
4.7880132868
 30
0.0
 10
-47.0143473249
 20
4.7880132868
 30
0.0
 11
-46.1229993232
 21
3.594706544
 31
0.0
 11
-46.153256075
 21
4.019996513
 31
0.0
 11
-46.2870045235
 21
4.4236768897
 31
0.0
 11
-46.5977604583
 21
4.708674371
 31
0.0
 11
-47.0143473249
 21
4.7880132868
 31
0.0
  0
SPLINE
  5
768
100
AcDbEntity
  8
INCISIONI
100
AcDbSpline
 62
253
  6
CONTINUOUS
 70
0
 71
3
 72
11
 73
7
 74
5
 42
0.0000001
 43
0.0000001
 44
0.0000000001
 12
-1.0098491482
 22
-0.0157993468
 32
0.0
 13
0.1698807313
 23
-0.9958862314
 33
0.0
 40
0.0
 40
0.0
 40
0.0
 40
0.0
 40
0.2637604516
 40
0.5289501672
 40
0.7570612252
 40
1.0
 40
1.0
 40
1.0
 40
1.0
 10
-47.0742135813
 20
-5.4562335396
 30
0.0
 10
-47.1629996704
 20
-5.4576226206
 30
0.0
 10
-47.3511011497
 20
-5.5303122152
 30
0.0
 10
-47.4503125729
 20
-5.7857890196
 30
0.0
 10
-47.4507751326
 20
-6.0334010574
 30
0.0
 10
-47.433271727
 20
-6.1916683251
 30
0.0
 10
-47.4195148548
 20
-6.2723147854
 30
0.0
 11
-47.0742135813
 21
-5.4562335396
 31
0.0
 11
-47.3210572561
 21
-5.5564253373
 31
0.0
 11
-47.4365788459
 21
-5.7981392045
 31
0.0
 11
-47.4465917134
 21
-6.0283775746
 31
0.0
 11
-47.4195148548
 21
-6.2723147854
 31
0.0
  0
SPLINE
  5
769
100
AcDbEntity
  8
INCISIONI
100
AcDbSpline
 62
253
  6
CONTINUOUS
 70
0
 71
3
 72
9
 73
5
 74
3
 42
0.0000001
 43
0.0000001
 44
0.0000000001
 12
-0.0161267907
 22
0.7222376538
 32
0.0
 13
-0.722111789
 23
-0.0111458003
 33
0.0
 40
0.0
 40
0.0
 40
0.0
 40
0.0
 40
0.4793791278
 40
1.0
 40
1.0
 40
1.0
 40
1.0
 10
-46.623745952
 20
-5.9264081893
 30
0.0
 10
-46.6263229009
 20
-5.8109996371
 30
0.0
 10
-46.6751476368
 20
-5.542855578
 30
0.0
 10
-46.9488980914
 20
-5.4542992942
 30
0.0
 10
-47.0742135813
 20
-5.4562335396
 30
0.0
 11
-46.623745952
 21
-5.9264081893
 31
0.0
 11
-46.7248229277
 21
-5.5951843584
 31
0.0
 11
-47.0742135813
 21
-5.4562335396
 31
0.0
  0
SPLINE
  5
76A
100
AcDbEntity
  8
INCISIONI
100
AcDbSpline
 62
253
  6
CONTINUOUS
 70
0
 71
3
 72
8
 73
4
 74
2
 42
0.0000001
 43
0.0000001
 44
0.0000000001
 12
0.2469882588
 22
0.6195950118
 32
0.0
 13
0.6434720633
 23
0.1753694432
 33
0.0
 40
0.0
 40
0.0
 40
0.0
 40
0.0
 40
1.0
 40
1.0
 40
1.0
 40
1.0
 10
-46.3676991342
 20
-5.2989578035
 30
0.0
 10
-46.2853697146
 20
-5.0924261329
 30
0.0
 10
-46.0138059834
 20
-5.0085729548
 30
0.0
 10
-45.7993152957
 20
-4.9501164737
 30
0.0
 11
-46.3676991342
 21
-5.2989578035
 31
0.0
 11
-45.7993152957
 21
-4.9501164737
 31
0.0
  0
SPLINE
  5
76B
100
AcDbEntity
  8
INCISIONI
100
AcDbSpline
 62
253
  6
CONTINUOUS
 70
0
 71
3
 72
13
 73
9
 74
7
 42
0.0000001
 43
0.0000001
 44
0.0000000001
 12
0.610282129
 22
1.6922026116
 32
0.0
 13
0.2301439121
 23
-1.7841587491
 33
0.0
 40
0.0
 40
0.0
 40
0.0
 40
0.0
 40
0.1891133654
 40
0.3224118088
 40
0.4834850699
 40
0.6789786807
 40
0.8318713788
 40
1.0
 40
1.0
 40
1.0
 40
1.0
 10
-47.8489622555
 20
-5.3613636327
 30
0.0
 10
-47.8104914197
 20
-5.2546909225
 30
0.0
 10
-47.686587087
 20
-5.0932368566
 30
0.0
 10
-47.4389657398
 20
-4.9360054375
 30
0.0
 10
-47.1476521705
 20
-4.8722168447
 30
0.0
 10
-46.8308261246
 20
-4.9048957821
 30
0.0
 10
-46.5698248426
 20
-5.0582803636
 30
0.0
 10
-46.3977262642
 20
-5.1989684201
 30
0.0
 10
-46.384828338
 20
-5.2989578035
 30
0.0
 11
-47.8489622555
 21
-5.3613636327
 31
0.0
 11
-47.6509547452
 21
-5.0847612106
 31
0.0
 11
-47.4482098036
 21
-4.9568075165
 31
0.0
 11
-47.1661417579
 21
-4.890841076
 31
0.0
 11
-46.8171213223
 21
-4.933168183
 31
0.0
 11
-46.5752820433
 21
-5.0640444322
 31
0.0
 11
-46.384828338
 21
-5.2989578035
 31
0.0
  0
SPLINE
  5
76C
100
AcDbEntity
  8
INCISIONI
100
AcDbSpline
 62
253
  6
CONTINUOUS
 70
0
 71
3
 72
9
 73
5
 74
3
 42
0.0000001
 43
0.0000001
 44
0.0000000001
 12
-0.2183190261
 22
1.4844341707
 32
0.0
 13
0.5096586934
 23
1.4111437782
 33
0.0
 40
0.0
 40
0.0
 40
0.0
 40
0.0
 40
0.891795385
 40
1.0
 40
1.0
 40
1.0
 40
1.0
 10
-47.8794818014
 20
-6.8550808579
 30
0.0
 10
-47.9443804348
 20
-6.4138103436
 30
0.0
 10
-48.0048983858
 20
-5.894767923
 30
0.0
 10
-47.8673447297
 20
-5.4122610558
 30
0.0
 10
-47.8489622555
 20
-5.3613636327
 30
0.0
 11
-47.8794818014
 21
-6.8550808579
 31
0.0
 11
-47.8947935408
 21
-5.5171077623
 31
0.0
 11
-47.8489622555
 21
-5.3613636327
 31
0.0
  0
SPLINE
  5
76D
100
AcDbEntity
  8
INCISIONI
100
AcDbSpline
 62
253
  6
CONTINUOUS
 70
0
 71
3
 72
9
 73
5
 74
3
 42
0.0000001
 43
0.0000001
 44
0.0000000001
 12
-0.4066714547
 22
-0.1526653619
 32
0.0
 13
0.0
 23
-0.4344987651
 33
0.0
 40
0.0
 40
0.0
 40
0.0
 40
0.0
 40
0.8564136428
 40
1.0
 40
1.0
 40
1.0
 40
1.0
 10
-45.8935810305
 20
-5.590025549
 30
0.0
 10
-46.0096740245
 20
-5.6336071153
 30
0.0
 10
-46.1387323226
 20
-5.7616643001
 30
0.0
 10
-46.1489974588
 20
-5.9069168091
 30
0.0
 10
-46.1489974588
 20
-5.9277128408
 30
0.0
 11
-45.8935810305
 21
-5.590025549
 31
0.0
 11
-46.1436004282
 21
-5.8655587685
 31
0.0
 11
-46.1489974588
 21
-5.9277128408
 31
0.0
  0
SPLINE
  5
76E
100
AcDbEntity
  8
INCISIONI
100
AcDbSpline
 62
253
  6
CONTINUOUS
 70
0
 71
3
 72
9
 73
5
 74
3
 42
0.0000001
 43
0.0000001
 44
0.0000000001
 12
-0.8822314063
 22
-0.2537223522
 32
0.0
 13
-0.8593276595
 23
-0.3229358601
 33
0.0
 40
0.0
 40
0.0
 40
0.0
 40
0.0
 40
0.1342724335
 40
1.0
 40
1.0
 40
1.0
 40
1.0
 10
-45.0145789784
 20
-5.3253552519
 30
0.0
 10
-45.054065431
 20
-5.3367112244
 30
0.0
 10
-45.3476680062
 20
-5.4227223666
 30
0.0
 10
-45.645599816
 20
-5.4968340569
 30
0.0
 10
-45.8935810305
 20
-5.590025549
 30
0.0
 11
-45.0145789784
 21
-5.3253552519
 31
0.0
 11
-45.1329889477
 21
-5.3595945389
 31
0.0
 11
-45.8935810305
 21
-5.590025549
 31
0.0
  0
SPLINE
  5
76F
100
AcDbEntity
  8
INCISIONI
100
AcDbSpline
 62
253
  6
CONTINUOUS
 70
0
 71
3
 72
9
 73
5
 74
3
 42
0.0000001
 43
0.0000001
 44
0.0000000001
 12
0.7830116397
 22
0.2133990318
 32
0.0
 13
0.783181402
 23
0.2127746588
 33
0.0
 40
0.0
 40
0.0
 40
0.0
 40
0.0
 40
0.8020268617
 40
1.0
 40
1.0
 40
1.0
 40
1.0
 10
-45.7993152954
 20
-4.9501164748
 30
0.0
 10
-45.5899831727
 20
-4.8930658896
 30
0.0
 10
-45.3279092008
 20
-4.825935487
 30
0.0
 10
-45.0662619384
 20
-4.7571957506
 30
0.0
 10
-45.0145789784
 20
-4.7431545283
 30
0.0
 11
-45.7993152954
 21
-4.9501164748
 31
0.0
 11
-45.1698769219
 21
-4.7843499181
 31
0.0
 11
-45.0145789784
 21
-4.7431545283
 31
0.0
  0
ELLIPSE
  5
770
100
AcDbEntity
  8
RACCORDO
100
AcDbEllipse
 62
7
  6
CONTINUOUS
 10
1.9692965382
 20
-21.8847676065
 30
0.0
 11
0.4473055582
 21
-0.2236357461
 31
0.0
 40
0.9998096356
 41
-2.6780516535
 42
-1.5708041138
  0
ELLIPSE
  5
771
100
AcDbEntity
  8
RACCORDO
100
AcDbEllipse
 62
7
  6
CONTINUOUS
 10
68.2691442102
 20
21.8977405795
 30
0.0
 11
0.4473055582
 21
-0.2236357461
 31
0.0
 40
0.9998096356
 41
0.4635410001
 42
1.5707885398
  0
ELLIPSE
  5
772
100
AcDbEntity
  8
RACCORDO
100
AcDbEllipse
 62
7
  6
CONTINUOUS
 10
68.2691442102
 20
-21.8847676065
 30
0.0
 11
0.4473055582
 21
0.2236357461
 31
0.0
 40
0.9998096356
 41
-1.5707885397
 42
-0.4635410001
  0
ELLIPSE
  5
773
100
AcDbEntity
  8
RACCORDO
100
AcDbEllipse
 62
7
  6
CONTINUOUS
 10
1.9692965382
 20
21.8977405795
 30
0.0
 11
0.4473055582
 21
0.2236357461
 31
0.0
 40
0.9998096356
 41
1.5708041138
 42
2.6780516535
  0
ELLIPSE
  5
774
100
AcDbEntity
  8
RACCORDO
100
AcDbEllipse
 62
7
  6
CONTINUOUS
 10
53.7221377508
 20
23.8035775716
 30
0.0
 11
0.5
 21
0.0
 31
0.0
 40
0.0058178298
 41
-3.1357748894
 42
-2.495179495
  0
ELLIPSE
  5
775
100
AcDbEntity
  8
RACCORDO
100
AcDbEllipse
 62
7
  6
CONTINUOUS
 10
53.7221377508
 20
22.3802825968
 30
0.0
 11
0.5
 21
-0.0
 31
0.0
 40
0.0524077793
 41
-3.1357748894
 42
-1.5707963268
  0
ELLIPSE
  5
776
100
AcDbEntity
  8
RACCORDO
100
AcDbEllipse
 62
7
  6
CONTINUOUS
 10
61.5163029976
 20
-23.7906045986
 30
0.0
 11
0.5
 21
0.0
 31
0.0
 40
0.0058178298
 41
0.0058177642
 42
0.6464131586
  0
ELLIPSE
  5
777
100
AcDbEntity
  8
RACCORDO
100
AcDbEllipse
 62
7
  6
CONTINUOUS
 10
61.5163029976
 20
-22.3673096239
 30
0.0
 11
0.5
 21
-0.0
 31
0.0
 40
0.0524077793
 41
0.0058177642
 42
1.5707963268
  0
ELLIPSE
  5
778
100
AcDbEntity
  8
RACCORDO
100
AcDbEllipse
 62
7
  6
CONTINUOUS
 10
53.7221377508
 20
-22.3673096239
 30
0.0
 11
0.5
 21
0.0
 31
0.0
 40
0.0524077793
 41
1.5707963268
 42
3.1357748894
  0
ELLIPSE
  5
779
100
AcDbEntity
  8
RACCORDO
100
AcDbEllipse
 62
7
  6
CONTINUOUS
 10
53.7221377508
 20
-23.7906045986
 30
0.0
 11
0.5
 21
0.0
 31
0.0
 40
0.0058178298
 41
2.495179495
 42
3.1357748894
  0
ELLIPSE
  5
77A
100
AcDbEntity
  8
RACCORDO
100
AcDbEllipse
 62
7
  6
CONTINUOUS
 10
16.5163029976
 20
22.3802825968
 30
0.0
 11
0.5
 21
0.0
 31
0.0
 40
0.0524077793
 41
-1.5707963268
 42
-0.0058177642
  0
ELLIPSE
  5
77B
100
AcDbEntity
  8
RACCORDO
100
AcDbEllipse
 62
7
  6
CONTINUOUS
 10
16.5163029976
 20
23.8035775716
 30
0.0
 11
0.5
 21
0.0
 31
0.0
 40
0.0058178298
 41
-0.6464131586
 42
-0.0058177642
  0
ELLIPSE
  5
77C
100
AcDbEntity
  8
RACCORDO
100
AcDbEllipse
 62
7
  6
CONTINUOUS
 10
8.7221377508
 20
23.8035775716
 30
0.0
 11
0.5
 21
0.0
 31
0.0
 40
0.0058178298
 41
-3.1357748894
 42
-2.495179495
  0
ELLIPSE
  5
77D
100
AcDbEntity
  8
RACCORDO
100
AcDbEllipse
 62
7
  6
CONTINUOUS
 10
8.7221377508
 20
22.3802825968
 30
0.0
 11
0.5
 21
-0.0
 31
0.0
 40
0.0524077793
 41
-3.1357748894
 42
-1.5707963268
  0
ELLIPSE
  5
77E
100
AcDbEntity
  8
RACCORDO
100
AcDbEllipse
 62
7
  6
CONTINUOUS
 10
16.5163029976
 20
-23.7906045986
 30
0.0
 11
0.5
 21
0.0
 31
0.0
 40
0.0058178298
 41
0.0058177642
 42
0.6464131586
  0
ELLIPSE
  5
77F
100
AcDbEntity
  8
RACCORDO
100
AcDbEllipse
 62
7
  6
CONTINUOUS
 10
16.5163029976
 20
-22.3673096239
 30
0.0
 11
0.5
 21
0.0
 31
0.0
 40
0.0524077793
 41
0.0058177642
 42
1.5707963268
  0
ELLIPSE
  5
780
100
AcDbEntity
  8
RACCORDO
100
AcDbEllipse
 62
7
  6
CONTINUOUS
 10
8.7221377508
 20
-22.3673096239
 30
0.0
 11
0.5
 21
-0.0
 31
0.0
 40
0.0524077793
 41
1.5707963268
 42
3.1357748894
  0
ELLIPSE
  5
781
100
AcDbEntity
  8
RACCORDO
100
AcDbEllipse
 62
7
  6
CONTINUOUS
 10
8.7221377508
 20
-23.7906045986
 30
0.0
 11
0.5
 21
-0.0
 31
0.0
 40
0.0058178298
 41
2.495179495
 42
3.1357748894
  0
ELLIPSE
  5
782
100
AcDbEntity
  8
RACCORDO
100
AcDbEllipse
 62
7
  6
CONTINUOUS
 10
68.0119438561
 20
-22.3280037894
 30
0.0
 11
0.25
 21
0.0
 31
0.0
 40
0.0524077793
 41
0.5261092631
 42
1.5707963268
  0
ELLIPSE
  5
783
100
AcDbEntity
  8
RACCORDO
100
AcDbEllipse
 62
7
  6
CONTINUOUS
 10
66.1264968923
 20
-22.3280037894
 30
0.0
 11
0.25
 21
0.0
 31
0.0
 40
0.0524077793
 41
1.5707963268
 42
3.1357748894
  0
ELLIPSE
  5
784
100
AcDbEntity
  8
RACCORDO
100
AcDbEllipse
 62
7
  6
CONTINUOUS
 10
49.1119438561
 20
-22.3280037894
 30
0.0
 11
0.25
 21
-0.0
 31
0.0
 40
0.0524077793
 41
0.0058177642
 42
1.5707963268
  0
ELLIPSE
  5
785
100
AcDbEntity
  8
RACCORDO
100
AcDbEllipse
 62
7
  6
CONTINUOUS
 10
47.2264968923
 20
-22.3280037894
 30
0.0
 11
0.25
 21
0.0
 31
0.0
 40
0.0524077793
 41
1.5707963268
 42
3.1357748894
  0
ELLIPSE
  5
786
100
AcDbEntity
  8
RACCORDO
100
AcDbEllipse
 62
7
  6
CONTINUOUS
 10
68.0119438561
 20
22.3409767624
 30
0.0
 11
0.25
 21
0.0
 31
0.0
 40
0.0524077793
 41
-1.5707963268
 42
-0.5261092631
  0
ELLIPSE
  5
787
100
AcDbEntity
  8
RACCORDO
100
AcDbEllipse
 62
7
  6
CONTINUOUS
 10
66.1264968923
 20
22.3409767624
 30
0.0
 11
0.25
 21
-0.0
 31
0.0
 40
0.0524077793
 41
-3.1357748894
 42
-1.5707963268
  0
ELLIPSE
  5
788
100
AcDbEntity
  8
RACCORDO
100
AcDbEllipse
 62
7
  6
CONTINUOUS
 10
49.1119438561
 20
22.3409767624
 30
0.0
 11
0.25
 21
0.0
 31
0.0
 40
0.0524077793
 41
-1.5707963268
 42
-0.0058177642
  0
ELLIPSE
  5
789
100
AcDbEntity
  8
RACCORDO
100
AcDbEllipse
 62
7
  6
CONTINUOUS
 10
47.2264968923
 20
22.3409767624
 30
0.0
 11
0.25
 21
-0.0
 31
0.0
 40
0.0524077793
 41
-3.1357748894
 42
-1.5707963268
  0
ELLIPSE
  5
78A
100
AcDbEntity
  8
RACCORDO
100
AcDbEllipse
 62
7
  6
CONTINUOUS
 10
23.0119438561
 20
-22.3280037894
 30
0.0
 11
0.25
 21
0.0
 31
0.0
 40
0.0524077793
 41
0.0058177642
 42
1.5707963268
  0
ELLIPSE
  5
78B
100
AcDbEntity
  8
RACCORDO
100
AcDbEllipse
 62
7
  6
CONTINUOUS
 10
21.1264968923
 20
-22.3280037894
 30
0.0
 11
0.25
 21
0.0
 31
0.0
 40
0.0524077793
 41
1.5707963268
 42
3.1357748894
  0
ELLIPSE
  5
78C
100
AcDbEntity
  8
RACCORDO
100
AcDbEllipse
 62
7
  6
CONTINUOUS
 10
4.1119438561
 20
-22.3280037894
 30
0.0
 11
0.25
 21
0.0
 31
0.0
 40
0.0524077793
 41
0.0058177642
 42
1.5707963268
  0
ELLIPSE
  5
78D
100
AcDbEntity
  8
RACCORDO
100
AcDbEllipse
 62
7
  6
CONTINUOUS
 10
2.2264968923
 20
-22.3280037894
 30
0.0
 11
0.25
 21
-0.0
 31
0.0
 40
0.0524077793
 41
1.5707963268
 42
2.6154833905
  0
ELLIPSE
  5
78E
100
AcDbEntity
  8
RACCORDO
100
AcDbEllipse
 62
7
  6
CONTINUOUS
 10
23.0119438561
 20
22.3409767624
 30
0.0
 11
0.25
 21
0.0
 31
0.0
 40
0.0524077793
 41
-1.5707963268
 42
-0.0058177642
  0
ELLIPSE
  5
78F
100
AcDbEntity
  8
RACCORDO
100
AcDbEllipse
 62
7
  6
CONTINUOUS
 10
21.1264968923
 20
22.3409767624
 30
0.0
 11
0.25
 21
-0.0
 31
0.0
 40
0.0524077793
 41
-3.1357748894
 42
-1.5707963268
  0
ELLIPSE
  5
790
100
AcDbEntity
  8
RACCORDO
100
AcDbEllipse
 62
7
  6
CONTINUOUS
 10
4.1119438561
 20
22.3409767624
 30
0.0
 11
0.25
 21
-0.0
 31
0.0
 40
0.0524077793
 41
-1.5707963268
 42
-0.0058177642
  0
ELLIPSE
  5
791
100
AcDbEntity
  8
RACCORDO
100
AcDbEllipse
 62
7
  6
CONTINUOUS
 10
2.2264968923
 20
22.3409767624
 30
0.0
 11
0.25
 21
0.0
 31
0.0
 40
0.0524077793
 41
-2.6154833905
 42
-1.5707963268
  0
ELLIPSE
  5
792
100
AcDbEntity
  8
RACCORDO
100
AcDbEllipse
 62
7
  6
CONTINUOUS
 10
61.5163029976
 20
22.3802825968
 30
0.0
 11
0.5
 21
-0.0
 31
0.0
 40
0.0524077793
 41
-1.5707963268
 42
-0.0058177642
  0
ELLIPSE
  5
793
100
AcDbEntity
  8
RACCORDO
100
AcDbEllipse
 62
7
  6
CONTINUOUS
 10
61.5163029976
 20
23.8035775716
 30
0.0
 11
0.5
 21
-0.0
 31
0.0
 40
0.0058178298
 41
-0.6464131586
 42
-0.0058177642
  0
ELLIPSE
  5
794
100
AcDbEntity
  8
RACCORDO
100
AcDbEllipse
 62
7
  6
CONTINUOUS
 10
-42.2983991684
 20
-22.0594127944
 30
0.0
 11
-0.029260459
 21
0.4991430912
 31
0.0
 40
1.0
 41
-0.968782648
 42
-0.0760076648
  0
ELLIPSE
  5
795
100
AcDbEntity
  8
RACCORDO
100
AcDbEllipse
 62
7
  6
CONTINUOUS
 10
-42.2983991684
 20
22.0723857673
 30
0.0
 11
0.0096100557
 21
0.4999076383
 31
0.0
 40
1.0
 41
-3.1049180661
 42
-2.2121430829
  0
ELLIPSE
  5
796
100
AcDbEntity
  8
INCISIONI
100
AcDbEllipse
 62
253
  6
CONTINUOUS
 10
-31.1997174329
 20
14.1500184865
 30
0.0
 11
-0.0
 21
0.649823
 31
0.0
 40
0.9996954135
 41
-1.5707963268
 42
1.5707963268
  0
ELLIPSE
  5
797
100
AcDbEntity
  8
INCISIONI
100
AcDbEllipse
 62
253
  6
CONTINUOUS
 10
-37.3569484521
 20
15.9064864865
 30
0.0
 11
-0.0
 21
1.7999999246
 31
0.0
 40
0.9996954135
 41
1.5151952558
 42
2.9317381548
  0
ELLIPSE
  5
798
100
AcDbEntity
  8
INCISIONI
100
AcDbEllipse
 62
253
  6
CONTINUOUS
 10
-37.3569484521
 20
15.9064864865
 30
0.0
 11
0.0
 21
1.7999968808
 31
0.0
 40
0.9996954135
 41
-2.9317837736
 42
-1.5151529237
  0
ELLIPSE
  5
799
100
AcDbEntity
  8
INCISIONI
100
AcDbEllipse
 62
253
  6
CONTINUOUS
 10
-37.3569484521
 20
15.9064864865
 30
0.0
 11
-0.0
 21
2.5499986575
 31
0.0
 40
0.9996954135
 41
1.5315586257
 42
4.7516029566
  0
ELLIPSE
  5
79A
100
AcDbEntity
  8
INCISIONI
100
AcDbEllipse
 62
253
  6
CONTINUOUS
 10
-37.3569484521
 20
11.5213764865
 30
0.0
 11
0.0
 21
2.5499985399
 31
0.0
 40
0.9996954135
 41
1.5315586243
 42
4.7516029588
  0
ELLIPSE
  5
79B
100
AcDbEntity
  8
INCISIONI
100
AcDbEllipse
 62
253
  6
CONTINUOUS
 10
-37.3569484521
 20
11.5213764865
 30
0.0
 11
0.0
 21
1.7999999246
 31
0.0
 40
0.9996954135
 41
1.5151952558
 42
4.7679566765
  0
ENDSEC
  0
SECTION
  2
OBJECTS
  0
DICTIONARY
  5
C
100
AcDbDictionary
280
0
281
1
  3
ACAD_GROUP
350
D
  3
ACAD_MLINESTYLE
350
17
  3
ACAD_LAYOUT
350
1A
  3
ACAD_PLOTSETTINGS
350
19
  3
ACAD_PLOTSTYLENAME
350
E
  0
DICTIONARY
  5
D
102
{ACAD_REACTORS
330
C
102
}
100
AcDbDictionary
280
0
281
1
  0
ACDBDICTIONARYWDFLT
  5
E
102
{ACAD_REACTORS
330
C
102
}
100
AcDbDictionary
281
1
  3
Normal
350
F
100
AcDbDictionaryWithDefault
340
F
  0
DICTIONARY
  5
17
102
{ACAD_REACTORS
330
C
102
}
100
AcDbDictionary
280
0
281
1
  3
Standard
350
18
  0
DICTIONARY
  5
19
102
{ACAD_REACTORS
330
C
102
}
100
AcDbDictionary
281
1
  0
DICTIONARY
  5
1A
102
{ACAD_REACTORS
330
C
102
}
100
AcDbDictionary
281
1
  3
Model
350
79C
  3
Layout1
350
79D
  0
ACDBPLACEHOLDER
  5
F
102
{ACAD_REACTORS
330
E
102
}
  0
MLINESTYLE
  5
18
102
{ACAD_REACTORS
330
17
102
}
100
AcDbMlineStyle
  2
STANDARD
 70
0
  3

 62
256
 51
90.0
 52
90.0
 71
2
 49
0.5
 62
256
  6
BYLAYER
 49
-0.5
 62
256
  6
BYLAYER
  0
LAYOUT
  5
79C
102
{ACAD_REACTORS
330
1A
102
}
100
AcDbPlotSettings
  1

  2
none_device
  4
ISO_A4_(297.00_x_210.00_MM)
  6

 40
0.0
 41
0.0
 42
0.0
 43
0.0
 44
297.0
 45
210.0
 46
0.0
 47
0.0
 48
0.0
 49
0.0
140
0.0
141
0.0
142
1.0
143
1.0
 70
1024
 72
1
 73
0
 74
0
  7

 75
0
147
1.0
148
0.0
149
0.0
100
AcDbLayout
  1
Model
 70
0
 71
0
 10
0.0
 20
0.0
 11
297.0
 21
210.0
 12
0.0
 22
0.0
 32
0.0
 14
0.0
 24
0.0
 34
0.0
 15
0.0
 25
0.0
 35
0.0
146
0.0
 13
0.0
 23
0.0
 33
0.0
 16
1.0
 26
0.0
 36
0.0
 17
0.0
 27
1.0
 37
0.0
 76
0
330
317
345
0
346
0
  0
LAYOUT
  5
79D
102
{ACAD_REACTORS
330
1A
102
}
100
AcDbPlotSettings
  1

  2
none_device
  4
ISO_A4_(297.00_x_210.00_MM)
  6

 40
0.0
 41
0.0
 42
0.0
 43
0.0
 44
297.0
 45
210.0
 46
0.0
 47
0.0
 48
0.0
 49
0.0
140
0.0
141
0.0
142
1.0
143
1.0
 70
0
 72
1
 73
0
 74
0
  7

 75
0
147
1.0
148
0.0
149
0.0
100
AcDbLayout
  1
Layout1
 70
0
 71
1
 10
0.0
 20
0.0
 11
297.0
 21
210.0
 12
0.0
 22
0.0
 32
0.0
 14
0.0
 24
0.0
 34
0.0
 15
0.0
 25
0.0
 35
0.0
146
0.0
 13
0.0
 23
0.0
 33
0.0
 16
1.0
 26
0.0
 36
0.0
 17
0.0
 27
1.0
 37
0.0
 76
0
330
318
345
0
346
0
  0
ENDSEC
  0
EOF
