  0
SECTION
  2
HEADER
  9
$ACADVER
  1
AC1015
  9
$DWGCODEPAGE
  3
ANSI_1252
  9
$EXTMAX
 10
297.0
 20
210.0
 30
0.0
  9
$EXTMIN
 10
0.0
 20
0.0
 30
0.0
  9
$LIMMIN
 10
0.0
 20
0.0
  9
$LIMMAX
 10
297.0
 20
210.0
  9
$VIEWCTR
 10
148.5
 20
105.0
  9
$VIEWSIZE
 40
210.0
  9
$CLAYER
  8
0
  9
$LTSCALE
 40
16.335
  9
$CELTYPE
  6
BYLAYER
  9
$DIMSCALE
 40
1.0
  9
$DIMASZ
 40
3.0
  9
$DIMEXO
 40
1.85625
  9
$DIMDLI
 40
11.286
  9
$DIMEXE
 40
5.346
  9
$DIMCEN
 40
2.673
  9
$DIMLFAC
 40
1.0
  9
$DIMBLK
  1
_FILLED
  9
$DIMTXT
 40
3.0
  9
$DIMTOL
 70
1
  9
$DIMLIM
 70
0
  9
$DIMTFAC
 40
1.0
  9
$DIMTP
 40
0.01
  9
$DIMTM
 40
0.01
  9
$PDMODE
 70
3
  9
$PDSIZE
 40
3.0
  9
$HANDSEED
  5
6B1
  9
$TILEMODE
 70
1
  9
$MEASUREMENT
 70
1
  9
$INSUNITS
 70
4
  0
ENDSEC
  0
SECTION
  2
CLASSES
  0
CLASS
  1
ACDBDICTIONARYWDFLT
  2
AcDbDictionaryWithDefault
  3
AutoCAD 2000
 90
0
280
0
281
0
  0
CLASS
  1
ACDBPLACEHOLDER
  2
AcDbPlaceHolder
  3
AutoCAD 2000
 90
0
280
0
281
0
  0
CLASS
  1
LAYOUT
  2
AcDbLayout
  3
AutoCAD 2000
 90
0
280
0
281
0
  0
ENDSEC
  0
SECTION
  2
TABLES
  0
TABLE
  2
VPORT
  5
8
100
AcDbSymbolTable
 70
2
  0
VPORT
  5
1F4
100
AcDbSymbolTableRecord
100
AcDbViewportTableRecord
  2
*ACTIVE
 70
0
 10
0.0
 20
0.0
 11
1.0
 21
1.0
 12
148.5
 22
105.0
 13
0.0
 23
0.0
 14
1.0
 24
1.0
 15
0.0
 25
0.0
 16
0.0
 26
0.0
 36
1.0
 17
0.0
 27
0.0
 37
0.0
 40
210.0
 41
1.4142857143
 42
50.0
 43
0.0
 44
0.0
 50
0.0
 51
0.0
 71
0
 72
100
 73
1
 74
1
 75
0
 76
0
 77
0
 78
0
  0
ENDTAB
  0
TABLE
  2
LTYPE
  5
5
100
AcDbSymbolTable
 70
6
  0
LTYPE
  5
14
100
AcDbSymbolTableRecord
100
AcDbLinetypeTableRecord
  2
BYBLOCK
 70
0
  3

 72
65
 73
0
 40
0.0
  0
LTYPE
  5
15
100
AcDbSymbolTableRecord
100
AcDbLinetypeTableRecord
  2
BYLAYER
 70
0
  3

 72
65
 73
0
 40
0.0
  0
LTYPE
  5
16
100
AcDbSymbolTableRecord
100
AcDbLinetypeTableRecord
  2
CONTINUOUS
 70
64
  3
Solid line
 72
65
 73
0
 40
0.0
  0
LTYPE
  5
1F5
100
AcDbSymbolTableRecord
100
AcDbLinetypeTableRecord
  2
CENTER
 70
64
  3
____ _ ____ _ ____ _ ____ _ ____ _ ____ _ ____
 72
65
 73
4
 40
0.6
 49
0.375
 74
0
 49
-0.075
 74
0
 49
0.075
 74
0
 49
-0.075
 74
0
  0
LTYPE
  5
1F6
100
AcDbSymbolTableRecord
100
AcDbLinetypeTableRecord
  2
HIDDEN
 70
64
  3
- - - - - - - - - - - - - - - - - - - -
 72
65
 73
2
 40
0.2
 49
0.1
 74
0
 49
-0.1
 74
0
  0
LTYPE
  5
1F7
100
AcDbSymbolTableRecord
100
AcDbLinetypeTableRecord
  2
PHANTOM
 70
64
  3
_____ _ _ _____ _ _ _____ _ _ _____
 72
65
 73
6
 40
0.8
 49
0.45
 74
0
 49
-0.05
 74
0
 49
0.1
 74
0
 49
-0.05
 74
0
 49
0.1
 74
0
 49
-0.05
 74
0
  0
LTYPE
  5
1F8
100
AcDbSymbolTableRecord
100
AcDbLinetypeTableRecord
  2
DOT
 70
64
  3
. . . . . . . . . . . . . . . . . . . .
 72
65
 73
2
 40
0.2
 49
0.1
 74
0
 49
-0.1
 74
0
  0
LTYPE
  5
1F9
100
AcDbSymbolTableRecord
100
AcDbLinetypeTableRecord
  2
DASHED
 70
64
  3
- - - - - - - - - - - - - - - - - - - -
 72
65
 73
2
 40
0.2
 49
0.1
 74
0
 49
-0.1
 74
0
  0
ENDTAB
  0
TABLE
  2
LAYER
  5
2
100
AcDbSymbolTable
 70
36
  0
LAYER
  5
10
100
AcDbSymbolTableRecord
100
AcDbLayerTableRecord
  2
0
 70
0
 62
7
  6
CONTINUOUS
370
-3
390
F
  0
LAYER
  5
1FA
100
AcDbSymbolTableRecord
100
AcDbLayerTableRecord
  2
DEFAULT_1
 70
0
 62
7
  6
CENTER
370
-3
390
F
  0
LAYER
  5
1FB
100
AcDbSymbolTableRecord
100
AcDbLayerTableRecord
  2
DEFAULT_2
 70
0
 62
7
  6
HIDDEN
370
-3
390
F
  0
LAYER
  5
1FC
100
AcDbSymbolTableRecord
100
AcDbLayerTableRecord
  2
DEFAULT_3
 70
0
 62
7
  6
PHANTOM
370
-3
390
F
  0
LAYER
  5
1FD
100
AcDbSymbolTableRecord
100
AcDbLayerTableRecord
  2
_  SHELL
 70
0
 62
7
  6
CONTINUOUS
370
-3
390
F
  0
LAYER
  5
1FE
100
AcDbSymbolTableRecord
100
AcDbLayerTableRecord
  2
200A_170000
 70
0
 62
7
  6
CONTINUOUS
370
-3
390
F
  0
LAYER
  5
1FF
100
AcDbSymbolTableRecord
100
AcDbLayerTableRecord
  2
200A_170000_1
 70
0
 62
7
  6
CONTINUOUS
370
-3
390
F
  0
LAYER
  5
200
100
AcDbSymbolTableRecord
100
AcDbLayerTableRecord
  2
200A_170000_2
 70
0
 62
7
  6
CONTINUOUS
370
-3
390
F
  0
LAYER
  5
201
100
AcDbSymbolTableRecord
100
AcDbLayerTableRecord
  2
200A_170000_3
 70
0
 62
7
  6
CONTINUOUS
370
-3
390
F
  0
LAYER
  5
202
100
AcDbSymbolTableRecord
100
AcDbLayerTableRecord
  2
2125-CC-RF-VIMAR_65000
 70
0
 62
7
  6
CONTINUOUS
370
-3
390
F
  0
LAYER
  5
203
100
AcDbSymbolTableRecord
100
AcDbLayerTableRecord
  2
2125-CC-RF-VIMAR_65000_1
 70
0
 62
7
  6
CONTINUOUS
370
-3
390
F
  0
LAYER
  5
204
100
AcDbSymbolTableRecord
100
AcDbLayerTableRecord
  2
2125-CC-RF-VIMAR_65000_2
 70
0
 62
7
  6
CONTINUOUS
370
-3
390
F
  0
LAYER
  5
205
100
AcDbSymbolTableRecord
100
AcDbLayerTableRecord
  2
2125-CC-RF-VIMAR_65000_3
 70
0
 62
7
  6
CONTINUOUS
370
-3
390
F
  0
LAYER
  5
206
100
AcDbSymbolTableRecord
100
AcDbLayerTableRecord
  2
2125-CC-RF-VIMAR_65000_4
 70
0
 62
7
  6
CONTINUOUS
370
-3
390
F
  0
LAYER
  5
207
100
AcDbSymbolTableRecord
100
AcDbLayerTableRecord
  2
2125-CC-RF-VIMAR_65000_5
 70
0
 62
7
  6
CONTINUOUS
370
-3
390
F
  0
LAYER
  5
208
100
AcDbSymbolTableRecord
100
AcDbLayerTableRecord
  2
2125-CC-RF-VIMAR_65000_6
 70
0
 62
7
  6
CONTINUOUS
370
-3
390
F
  0
LAYER
  5
209
100
AcDbSymbolTableRecord
100
AcDbLayerTableRecord
  2
2125-R1-RF-VIMAR_60000
 70
0
 62
7
  6
CONTINUOUS
370
-3
390
F
  0
LAYER
  5
20A
100
AcDbSymbolTableRecord
100
AcDbLayerTableRecord
  2
2125-R1-RF-VIMAR_60000_1
 70
0
 62
7
  6
CONTINUOUS
370
-3
390
F
  0
LAYER
  5
20B
100
AcDbSymbolTableRecord
100
AcDbLayerTableRecord
  2
2125-R1-RF-VIMAR_60000_2
 70
0
 62
7
  6
CONTINUOUS
370
-3
390
F
  0
LAYER
  5
20C
100
AcDbSymbolTableRecord
100
AcDbLayerTableRecord
  2
2125-R1-RF-VIMAR_60000_3
 70
0
 62
7
  6
CONTINUOUS
370
-3
390
F
  0
LAYER
  5
20D
100
AcDbSymbolTableRecord
100
AcDbLayerTableRecord
  2
2125-R1-RF-VIMAR_60000_4
 70
0
 62
7
  6
CONTINUOUS
370
-3
390
F
  0
LAYER
  5
20E
100
AcDbSymbolTableRecord
100
AcDbLayerTableRecord
  2
3225-CF1-RF-VIMAR_260000
 70
0
 62
7
  6
CONTINUOUS
370
-3
390
F
  0
LAYER
  5
20F
100
AcDbSymbolTableRecord
100
AcDbLayerTableRecord
  2
3225-CF1-RF-VIMAR_260000_1
 70
0
 62
7
  6
CONTINUOUS
370
-3
390
F
  0
LAYER
  5
210
100
AcDbSymbolTableRecord
100
AcDbLayerTableRecord
  2
3225-CF1-RF-VIMAR_260000_2
 70
0
 62
7
  6
CONTINUOUS
370
-3
390
F
  0
LAYER
  5
211
100
AcDbSymbolTableRecord
100
AcDbLayerTableRecord
  2
43000234B0
 70
0
 62
7
  6
CONTINUOUS
370
-3
390
F
  0
LAYER
  5
212
100
AcDbSymbolTableRecord
100
AcDbLayerTableRecord
  2
6432-R-RF-VIMAR_110000
 70
0
 62
7
  6
CONTINUOUS
370
-3
390
F
  0
LAYER
  5
213
100
AcDbSymbolTableRecord
100
AcDbLayerTableRecord
  2
ALIMENTAZIONE
 70
0
 62
7
  6
CONTINUOUS
370
-3
390
F
  0
LAYER
  5
214
100
AcDbSymbolTableRecord
100
AcDbLayerTableRecord
  2
ASM0001
 70
0
 62
7
  6
CONTINUOUS
370
-3
390
F
  0
LAYER
  5
215
100
AcDbSymbolTableRecord
100
AcDbLayerTableRecord
  2
ASSI
 70
0
 62
7
  6
CONTINUOUS
370
-3
390
F
  0
LAYER
  5
216
100
AcDbSymbolTableRecord
100
AcDbLayerTableRecord
  2
CAPC1005X60N_60000
 70
0
 62
7
  6
CONTINUOUS
370
-3
390
F
  0
LAYER
  5
217
100
AcDbSymbolTableRecord
100
AcDbLayerTableRecord
  2
CAPC1005X60N_60000_1
 70
0
 62
7
  6
CONTINUOUS
370
-3
390
F
  0
LAYER
  5
218
100
AcDbSymbolTableRecord
100
AcDbLayerTableRecord
  2
CAPC1005X60N_60000_10
 70
0
 62
7
  6
CONTINUOUS
370
-3
390
F
  0
LAYER
  5
219
100
AcDbSymbolTableRecord
100
AcDbLayerTableRecord
  2
CAPC1005X60N_60000_11
 70
0
 62
7
  6
CONTINUOUS
370
-3
390
F
  0
LAYER
  5
21A
100
AcDbSymbolTableRecord
100
AcDbLayerTableRecord
  2
CAPC1005X60N_60000_12
 70
0
 62
7
  6
CONTINUOUS
370
-3
390
F
  0
LAYER
  5
21B
100
AcDbSymbolTableRecord
100
AcDbLayerTableRecord
  2
CAPC1005X60N_60000_13
 70
0
 62
7
  6
CONTINUOUS
370
-3
390
F
  0
LAYER
  5
21C
100
AcDbSymbolTableRecord
100
AcDbLayerTableRecord
  2
CAPC1005X60N_60000_14
 70
0
 62
7
  6
CONTINUOUS
370
-3
390
F
  0
LAYER
  5
21D
100
AcDbSymbolTableRecord
100
AcDbLayerTableRecord
  2
CAPC1005X60N_60000_15
 70
0
 62
7
  6
CONTINUOUS
370
-3
390
F
  0
LAYER
  5
21E
100
AcDbSymbolTableRecord
100
AcDbLayerTableRecord
  2
CAPC1005X60N_60000_16
 70
0
 62
7
  6
CONTINUOUS
370
-3
390
F
  0
LAYER
  5
21F
100
AcDbSymbolTableRecord
100
AcDbLayerTableRecord
  2
CAPC1005X60N_60000_17
 70
0
 62
7
  6
CONTINUOUS
370
-3
390
F
  0
LAYER
  5
220
100
AcDbSymbolTableRecord
100
AcDbLayerTableRecord
  2
CAPC1005X60N_60000_18
 70
0
 62
7
  6
CONTINUOUS
370
-3
390
F
  0
LAYER
  5
221
100
AcDbSymbolTableRecord
100
AcDbLayerTableRecord
  2
CAPC1005X60N_60000_19
 70
0
 62
7
  6
CONTINUOUS
370
-3
390
F
  0
LAYER
  5
222
100
AcDbSymbolTableRecord
100
AcDbLayerTableRecord
  2
CAPC1005X60N_60000_2
 70
0
 62
7
  6
CONTINUOUS
370
-3
390
F
  0
LAYER
  5
223
100
AcDbSymbolTableRecord
100
AcDbLayerTableRecord
  2
CAPC1005X60N_60000_20
 70
0
 62
7
  6
CONTINUOUS
370
-3
390
F
  0
LAYER
  5
224
100
AcDbSymbolTableRecord
100
AcDbLayerTableRecord
  2
CAPC1005X60N_60000_21
 70
0
 62
7
  6
CONTINUOUS
370
-3
390
F
  0
LAYER
  5
225
100
AcDbSymbolTableRecord
100
AcDbLayerTableRecord
  2
CAPC1005X60N_60000_22
 70
0
 62
7
  6
CONTINUOUS
370
-3
390
F
  0
LAYER
  5
226
100
AcDbSymbolTableRecord
100
AcDbLayerTableRecord
  2
CAPC1005X60N_60000_23
 70
0
 62
7
  6
CONTINUOUS
370
-3
390
F
  0
LAYER
  5
227
100
AcDbSymbolTableRecord
100
AcDbLayerTableRecord
  2
CAPC1005X60N_60000_24
 70
0
 62
7
  6
CONTINUOUS
370
-3
390
F
  0
LAYER
  5
228
100
AcDbSymbolTableRecord
100
AcDbLayerTableRecord
  2
CAPC1005X60N_60000_25
 70
0
 62
7
  6
CONTINUOUS
370
-3
390
F
  0
LAYER
  5
229
100
AcDbSymbolTableRecord
100
AcDbLayerTableRecord
  2
CAPC1005X60N_60000_26
 70
0
 62
7
  6
CONTINUOUS
370
-3
390
F
  0
LAYER
  5
22A
100
AcDbSymbolTableRecord
100
AcDbLayerTableRecord
  2
CAPC1005X60N_60000_27
 70
0
 62
7
  6
CONTINUOUS
370
-3
390
F
  0
LAYER
  5
22B
100
AcDbSymbolTableRecord
100
AcDbLayerTableRecord
  2
CAPC1005X60N_60000_28
 70
0
 62
7
  6
CONTINUOUS
370
-3
390
F
  0
LAYER
  5
22C
100
AcDbSymbolTableRecord
100
AcDbLayerTableRecord
  2
CAPC1005X60N_60000_29
 70
0
 62
7
  6
CONTINUOUS
370
-3
390
F
  0
LAYER
  5
22D
100
AcDbSymbolTableRecord
100
AcDbLayerTableRecord
  2
CAPC1005X60N_60000_3
 70
0
 62
7
  6
CONTINUOUS
370
-3
390
F
  0
LAYER
  5
22E
100
AcDbSymbolTableRecord
100
AcDbLayerTableRecord
  2
CAPC1005X60N_60000_30
 70
0
 62
7
  6
CONTINUOUS
370
-3
390
F
  0
LAYER
  5
22F
100
AcDbSymbolTableRecord
100
AcDbLayerTableRecord
  2
CAPC1005X60N_60000_31
 70
0
 62
7
  6
CONTINUOUS
370
-3
390
F
  0
LAYER
  5
230
100
AcDbSymbolTableRecord
100
AcDbLayerTableRecord
  2
CAPC1005X60N_60000_32
 70
0
 62
7
  6
CONTINUOUS
370
-3
390
F
  0
LAYER
  5
231
100
AcDbSymbolTableRecord
100
AcDbLayerTableRecord
  2
CAPC1005X60N_60000_33
 70
0
 62
7
  6
CONTINUOUS
370
-3
390
F
  0
LAYER
  5
232
100
AcDbSymbolTableRecord
100
AcDbLayerTableRecord
  2
CAPC1005X60N_60000_34
 70
0
 62
7
  6
CONTINUOUS
370
-3
390
F
  0
LAYER
  5
233
100
AcDbSymbolTableRecord
100
AcDbLayerTableRecord
  2
CAPC1005X60N_60000_35
 70
0
 62
7
  6
CONTINUOUS
370
-3
390
F
  0
LAYER
  5
234
100
AcDbSymbolTableRecord
100
AcDbLayerTableRecord
  2
CAPC1005X60N_60000_36
 70
0
 62
7
  6
CONTINUOUS
370
-3
390
F
  0
LAYER
  5
235
100
AcDbSymbolTableRecord
100
AcDbLayerTableRecord
  2
CAPC1005X60N_60000_37
 70
0
 62
7
  6
CONTINUOUS
370
-3
390
F
  0
LAYER
  5
236
100
AcDbSymbolTableRecord
100
AcDbLayerTableRecord
  2
CAPC1005X60N_60000_38
 70
0
 62
7
  6
CONTINUOUS
370
-3
390
F
  0
LAYER
  5
237
100
AcDbSymbolTableRecord
100
AcDbLayerTableRecord
  2
CAPC1005X60N_60000_39
 70
0
 62
7
  6
CONTINUOUS
370
-3
390
F
  0
LAYER
  5
238
100
AcDbSymbolTableRecord
100
AcDbLayerTableRecord
  2
CAPC1005X60N_60000_4
 70
0
 62
7
  6
CONTINUOUS
370
-3
390
F
  0
LAYER
  5
239
100
AcDbSymbolTableRecord
100
AcDbLayerTableRecord
  2
CAPC1005X60N_60000_40
 70
0
 62
7
  6
CONTINUOUS
370
-3
390
F
  0
LAYER
  5
23A
100
AcDbSymbolTableRecord
100
AcDbLayerTableRecord
  2
CAPC1005X60N_60000_41
 70
0
 62
7
  6
CONTINUOUS
370
-3
390
F
  0
LAYER
  5
23B
100
AcDbSymbolTableRecord
100
AcDbLayerTableRecord
  2
CAPC1005X60N_60000_42
 70
0
 62
7
  6
CONTINUOUS
370
-3
390
F
  0
LAYER
  5
23C
100
AcDbSymbolTableRecord
100
AcDbLayerTableRecord
  2
CAPC1005X60N_60000_5
 70
0
 62
7
  6
CONTINUOUS
370
-3
390
F
  0
LAYER
  5
23D
100
AcDbSymbolTableRecord
100
AcDbLayerTableRecord
  2
CAPC1005X60N_60000_6
 70
0
 62
7
  6
CONTINUOUS
370
-3
390
F
  0
LAYER
  5
23E
100
AcDbSymbolTableRecord
100
AcDbLayerTableRecord
  2
CAPC1005X60N_60000_7
 70
0
 62
7
  6
CONTINUOUS
370
-3
390
F
  0
LAYER
  5
23F
100
AcDbSymbolTableRecord
100
AcDbLayerTableRecord
  2
CAPC1005X60N_60000_8
 70
0
 62
7
  6
CONTINUOUS
370
-3
390
F
  0
LAYER
  5
240
100
AcDbSymbolTableRecord
100
AcDbLayerTableRecord
  2
CAPC1005X60N_60000_9
 70
0
 62
7
  6
CONTINUOUS
370
-3
390
F
  0
LAYER
  5
241
100
AcDbSymbolTableRecord
100
AcDbLayerTableRecord
  2
CAPC1608N_80000
 70
0
 62
7
  6
CONTINUOUS
370
-3
390
F
  0
LAYER
  5
242
100
AcDbSymbolTableRecord
100
AcDbLayerTableRecord
  2
CAPC1608N_80000_1
 70
0
 62
7
  6
CONTINUOUS
370
-3
390
F
  0
LAYER
  5
243
100
AcDbSymbolTableRecord
100
AcDbLayerTableRecord
  2
CAPC1608N_80000_2
 70
0
 62
7
  6
CONTINUOUS
370
-3
390
F
  0
LAYER
  5
244
100
AcDbSymbolTableRecord
100
AcDbLayerTableRecord
  2
CAPC1608N_80000_3
 70
0
 62
7
  6
CONTINUOUS
370
-3
390
F
  0
LAYER
  5
245
100
AcDbSymbolTableRecord
100
AcDbLayerTableRecord
  2
CAPC1608N_80000_4
 70
0
 62
7
  6
CONTINUOUS
370
-3
390
F
  0
LAYER
  5
246
100
AcDbSymbolTableRecord
100
AcDbLayerTableRecord
  2
CAPC1608N_80000_5
 70
0
 62
7
  6
CONTINUOUS
370
-3
390
F
  0
LAYER
  5
247
100
AcDbSymbolTableRecord
100
AcDbLayerTableRecord
  2
CAPC1608N_80000_6
 70
0
 62
7
  6
CONTINUOUS
370
-3
390
F
  0
LAYER
  5
248
100
AcDbSymbolTableRecord
100
AcDbLayerTableRecord
  2
CAPC1608N_80000_7
 70
0
 62
7
  6
CONTINUOUS
370
-3
390
F
  0
LAYER
  5
249
100
AcDbSymbolTableRecord
100
AcDbLayerTableRecord
  2
CAPC1608N_80000_8
 70
0
 62
7
  6
CONTINUOUS
370
-3
390
F
  0
LAYER
  5
24A
100
AcDbSymbolTableRecord
100
AcDbLayerTableRecord
  2
CC-0603-VIMAR_1000
 70
0
 62
7
  6
CONTINUOUS
370
-3
390
F
  0
LAYER
  5
24B
100
AcDbSymbolTableRecord
100
AcDbLayerTableRecord
  2
CN-243-VIMAR_850000
 70
0
 62
7
  6
CONTINUOUS
370
-3
390
F
  0
LAYER
  5
24C
100
AcDbSymbolTableRecord
100
AcDbLayerTableRecord
  2
CN-243-VIMAR_850000_1
 70
0
 62
7
  6
CONTINUOUS
370
-3
390
F
  0
LAYER
  5
24D
100
AcDbSymbolTableRecord
100
AcDbLayerTableRecord
  2
CN1-TP10_SMD-VIMAR_01_10000
 70
0
 62
7
  6
CONTINUOUS
370
-3
390
F
  0
LAYER
  5
24E
100
AcDbSymbolTableRecord
100
AcDbLayerTableRecord
  2
CN1-TP10_SMD-VIMAR_01_10000_1
 70
0
 62
7
  6
CONTINUOUS
370
-3
390
F
  0
LAYER
  5
24F
100
AcDbSymbolTableRecord
100
AcDbLayerTableRecord
  2
CN1-TP10_SMD-VIMAR_01_10000_10
 70
0
 62
7
  6
CONTINUOUS
370
-3
390
F
  0
LAYER
  5
250
100
AcDbSymbolTableRecord
100
AcDbLayerTableRecord
  2
CN1-TP10_SMD-VIMAR_01_10000_11
 70
0
 62
7
  6
CONTINUOUS
370
-3
390
F
  0
LAYER
  5
251
100
AcDbSymbolTableRecord
100
AcDbLayerTableRecord
  2
CN1-TP10_SMD-VIMAR_01_10000_12
 70
0
 62
7
  6
CONTINUOUS
370
-3
390
F
  0
LAYER
  5
252
100
AcDbSymbolTableRecord
100
AcDbLayerTableRecord
  2
CN1-TP10_SMD-VIMAR_01_10000_13
 70
0
 62
7
  6
CONTINUOUS
370
-3
390
F
  0
LAYER
  5
253
100
AcDbSymbolTableRecord
100
AcDbLayerTableRecord
  2
CN1-TP10_SMD-VIMAR_01_10000_14
 70
0
 62
7
  6
CONTINUOUS
370
-3
390
F
  0
LAYER
  5
254
100
AcDbSymbolTableRecord
100
AcDbLayerTableRecord
  2
CN1-TP10_SMD-VIMAR_01_10000_15
 70
0
 62
7
  6
CONTINUOUS
370
-3
390
F
  0
LAYER
  5
255
100
AcDbSymbolTableRecord
100
AcDbLayerTableRecord
  2
CN1-TP10_SMD-VIMAR_01_10000_16
 70
0
 62
7
  6
CONTINUOUS
370
-3
390
F
  0
LAYER
  5
256
100
AcDbSymbolTableRecord
100
AcDbLayerTableRecord
  2
CN1-TP10_SMD-VIMAR_01_10000_17
 70
0
 62
7
  6
CONTINUOUS
370
-3
390
F
  0
LAYER
  5
257
100
AcDbSymbolTableRecord
100
AcDbLayerTableRecord
  2
CN1-TP10_SMD-VIMAR_01_10000_18
 70
0
 62
7
  6
CONTINUOUS
370
-3
390
F
  0
LAYER
  5
258
100
AcDbSymbolTableRecord
100
AcDbLayerTableRecord
  2
CN1-TP10_SMD-VIMAR_01_10000_19
 70
0
 62
7
  6
CONTINUOUS
370
-3
390
F
  0
LAYER
  5
259
100
AcDbSymbolTableRecord
100
AcDbLayerTableRecord
  2
CN1-TP10_SMD-VIMAR_01_10000_2
 70
0
 62
7
  6
CONTINUOUS
370
-3
390
F
  0
LAYER
  5
25A
100
AcDbSymbolTableRecord
100
AcDbLayerTableRecord
  2
CN1-TP10_SMD-VIMAR_01_10000_20
 70
0
 62
7
  6
CONTINUOUS
370
-3
390
F
  0
LAYER
  5
25B
100
AcDbSymbolTableRecord
100
AcDbLayerTableRecord
  2
CN1-TP10_SMD-VIMAR_01_10000_21
 70
0
 62
7
  6
CONTINUOUS
370
-3
390
F
  0
LAYER
  5
25C
100
AcDbSymbolTableRecord
100
AcDbLayerTableRecord
  2
CN1-TP10_SMD-VIMAR_01_10000_22
 70
0
 62
7
  6
CONTINUOUS
370
-3
390
F
  0
LAYER
  5
25D
100
AcDbSymbolTableRecord
100
AcDbLayerTableRecord
  2
CN1-TP10_SMD-VIMAR_01_10000_23
 70
0
 62
7
  6
CONTINUOUS
370
-3
390
F
  0
LAYER
  5
25E
100
AcDbSymbolTableRecord
100
AcDbLayerTableRecord
  2
CN1-TP10_SMD-VIMAR_01_10000_24
 70
0
 62
7
  6
CONTINUOUS
370
-3
390
F
  0
LAYER
  5
25F
100
AcDbSymbolTableRecord
100
AcDbLayerTableRecord
  2
CN1-TP10_SMD-VIMAR_01_10000_25
 70
0
 62
7
  6
CONTINUOUS
370
-3
390
F
  0
LAYER
  5
260
100
AcDbSymbolTableRecord
100
AcDbLayerTableRecord
  2
CN1-TP10_SMD-VIMAR_01_10000_26
 70
0
 62
7
  6
CONTINUOUS
370
-3
390
F
  0
LAYER
  5
261
100
AcDbSymbolTableRecord
100
AcDbLayerTableRecord
  2
CN1-TP10_SMD-VIMAR_01_10000_27
 70
0
 62
7
  6
CONTINUOUS
370
-3
390
F
  0
LAYER
  5
262
100
AcDbSymbolTableRecord
100
AcDbLayerTableRecord
  2
CN1-TP10_SMD-VIMAR_01_10000_28
 70
0
 62
7
  6
CONTINUOUS
370
-3
390
F
  0
LAYER
  5
263
100
AcDbSymbolTableRecord
100
AcDbLayerTableRecord
  2
CN1-TP10_SMD-VIMAR_01_10000_29
 70
0
 62
7
  6
CONTINUOUS
370
-3
390
F
  0
LAYER
  5
264
100
AcDbSymbolTableRecord
100
AcDbLayerTableRecord
  2
CN1-TP10_SMD-VIMAR_01_10000_3
 70
0
 62
7
  6
CONTINUOUS
370
-3
390
F
  0
LAYER
  5
265
100
AcDbSymbolTableRecord
100
AcDbLayerTableRecord
  2
CN1-TP10_SMD-VIMAR_01_10000_30
 70
0
 62
7
  6
CONTINUOUS
370
-3
390
F
  0
LAYER
  5
266
100
AcDbSymbolTableRecord
100
AcDbLayerTableRecord
  2
CN1-TP10_SMD-VIMAR_01_10000_4
 70
0
 62
7
  6
CONTINUOUS
370
-3
390
F
  0
LAYER
  5
267
100
AcDbSymbolTableRecord
100
AcDbLayerTableRecord
  2
CN1-TP10_SMD-VIMAR_01_10000_5
 70
0
 62
7
  6
CONTINUOUS
370
-3
390
F
  0
LAYER
  5
268
100
AcDbSymbolTableRecord
100
AcDbLayerTableRecord
  2
CN1-TP10_SMD-VIMAR_01_10000_6
 70
0
 62
7
  6
CONTINUOUS
370
-3
390
F
  0
LAYER
  5
269
100
AcDbSymbolTableRecord
100
AcDbLayerTableRecord
  2
CN1-TP10_SMD-VIMAR_01_10000_7
 70
0
 62
7
  6
CONTINUOUS
370
-3
390
F
  0
LAYER
  5
26A
100
AcDbSymbolTableRecord
100
AcDbLayerTableRecord
  2
CN1-TP10_SMD-VIMAR_01_10000_8
 70
0
 62
7
  6
CONTINUOUS
370
-3
390
F
  0
LAYER
  5
26B
100
AcDbSymbolTableRecord
100
AcDbLayerTableRecord
  2
CN1-TP10_SMD-VIMAR_01_10000_9
 70
0
 62
7
  6
CONTINUOUS
370
-3
390
F
  0
LAYER
  5
26C
100
AcDbSymbolTableRecord
100
AcDbLayerTableRecord
  2
CN1-TP10_SMD-VIMAR_10000
 70
0
 62
7
  6
CONTINUOUS
370
-3
390
F
  0
LAYER
  5
26D
100
AcDbSymbolTableRecord
100
AcDbLayerTableRecord
  2
CN1-TP10_SMD-VIMAR_10000_1
 70
0
 62
7
  6
CONTINUOUS
370
-3
390
F
  0
LAYER
  5
26E
100
AcDbSymbolTableRecord
100
AcDbLayerTableRecord
  2
CN1-TP10_SMD-VIMAR_10000_2
 70
0
 62
7
  6
CONTINUOUS
370
-3
390
F
  0
LAYER
  5
26F
100
AcDbSymbolTableRecord
100
AcDbLayerTableRecord
  2
CN1-TP10_SMD-VIMAR_10000_3
 70
0
 62
7
  6
CONTINUOUS
370
-3
390
F
  0
LAYER
  5
270
100
AcDbSymbolTableRecord
100
AcDbLayerTableRecord
  2
CN1-TP15_SMD-VIMAR_5000
 70
0
 62
7
  6
CONTINUOUS
370
-3
390
F
  0
LAYER
  5
271
100
AcDbSymbolTableRecord
100
AcDbLayerTableRecord
  2
CN1-TP15_SMD-VIMAR_5000_1
 70
0
 62
7
  6
CONTINUOUS
370
-3
390
F
  0
LAYER
  5
272
100
AcDbSymbolTableRecord
100
AcDbLayerTableRecord
  2
CN10-ZIF_P0_5-VIMAR_200000
 70
0
 62
7
  6
CONTINUOUS
370
-3
390
F
  0
LAYER
  5
273
100
AcDbSymbolTableRecord
100
AcDbLayerTableRecord
  2
CN_STRIP_6_P2_5-EH-VIMAR_600000
 70
0
 62
7
  6
CONTINUOUS
370
-3
390
F
  0
LAYER
  5
274
100
AcDbSymbolTableRecord
100
AcDbLayerTableRecord
  2
COLOR11
 70
0
 62
7
  6
CONTINUOUS
370
-3
390
F
  0
LAYER
  5
275
100
AcDbSymbolTableRecord
100
AcDbLayerTableRecord
  2
COLOR2
 70
0
 62
7
  6
CONTINUOUS
370
-3
390
F
  0
LAYER
  5
276
100
AcDbSymbolTableRecord
100
AcDbLayerTableRecord
  2
COLOR5
 70
0
 62
7
  6
CONTINUOUS
370
-3
390
F
  0
LAYER
  5
277
100
AcDbSymbolTableRecord
100
AcDbLayerTableRecord
  2
COORDINATE
 70
0
 62
7
  6
CONTINUOUS
370
-3
390
F
  0
LAYER
  5
278
100
AcDbSymbolTableRecord
100
AcDbLayerTableRecord
  2
COORD_ORIGINE
 70
0
 62
7
  6
CONTINUOUS
370
-3
390
F
  0
LAYER
  5
279
100
AcDbSymbolTableRecord
100
AcDbLayerTableRecord
  2
COPY_PUBLISH
 70
0
 62
7
  6
CONTINUOUS
370
-3
390
F
  0
LAYER
  5
27A
100
AcDbSymbolTableRecord
100
AcDbLayerTableRecord
  2
COSMETIC
 70
0
 62
7
  6
CONTINUOUS
370
-3
390
F
  0
LAYER
  5
27B
100
AcDbSymbolTableRecord
100
AcDbLayerTableRecord
  2
COSMETICI
 70
0
 62
7
  6
CONTINUOUS
370
-3
390
F
  0
LAYER
  5
27C
100
AcDbSymbolTableRecord
100
AcDbLayerTableRecord
  2
CP-CE4-RF_550000
 70
0
 62
7
  6
CONTINUOUS
370
-3
390
F
  0
LAYER
  5
27D
100
AcDbSymbolTableRecord
100
AcDbLayerTableRecord
  2
CP-CE4-RF_550000_1
 70
0
 62
7
  6
CONTINUOUS
370
-3
390
F
  0
LAYER
  5
27E
100
AcDbSymbolTableRecord
100
AcDbLayerTableRecord
  2
CP-CE5-RF_650000
 70
0
 62
7
  6
CONTINUOUS
370
-3
390
F
  0
LAYER
  5
27F
100
AcDbSymbolTableRecord
100
AcDbLayerTableRecord
  2
CP-CE6-RF_820000
 70
0
 62
7
  6
CONTINUOUS
370
-3
390
F
  0
LAYER
  5
280
100
AcDbSymbolTableRecord
100
AcDbLayerTableRecord
  2
CP-CE6-RF_820000_1
 70
0
 62
7
  6
CONTINUOUS
370
-3
390
F
  0
LAYER
  5
281
100
AcDbSymbolTableRecord
100
AcDbLayerTableRecord
  2
CP-DO-214AC-D-VIMAR_240000
 70
0
 62
7
  6
CONTINUOUS
370
-3
390
F
  0
LAYER
  5
282
100
AcDbSymbolTableRecord
100
AcDbLayerTableRecord
  2
CP-DO-214AC-D-VIMAR_240000_1
 70
0
 62
7
  6
CONTINUOUS
370
-3
390
F
  0
LAYER
  5
283
100
AcDbSymbolTableRecord
100
AcDbLayerTableRecord
  2
CP-DO-214AC-VIMAR_240000
 70
0
 62
7
  6
CONTINUOUS
370
-3
390
F
  0
LAYER
  5
284
100
AcDbSymbolTableRecord
100
AcDbLayerTableRecord
  2
CURVE
 70
0
 62
7
  6
CONTINUOUS
370
-3
390
F
  0
LAYER
  5
285
100
AcDbSymbolTableRecord
100
AcDbLayerTableRecord
  2
DRAFT
 70
0
 62
7
  6
CONTINUOUS
370
-3
390
F
  0
LAYER
  5
286
100
AcDbSymbolTableRecord
100
AcDbLayerTableRecord
  2
E2_MARK_10000
 70
0
 62
7
  6
CONTINUOUS
370
-3
390
F
  0
LAYER
  5
287
100
AcDbSymbolTableRecord
100
AcDbLayerTableRecord
  2
E2_MARK_10000_1
 70
0
 62
7
  6
CONTINUOUS
370
-3
390
F
  0
LAYER
  5
288
100
AcDbSymbolTableRecord
100
AcDbLayerTableRecord
  2
ECAD_200A_170000
 70
0
 62
7
  6
CONTINUOUS
370
-3
390
F
  0
LAYER
  5
289
100
AcDbSymbolTableRecord
100
AcDbLayerTableRecord
  2
ECAD_2125-CC-RF-VIMAR_65000
 70
0
 62
7
  6
CONTINUOUS
370
-3
390
F
  0
LAYER
  5
28A
100
AcDbSymbolTableRecord
100
AcDbLayerTableRecord
  2
ECAD_2125-R1-RF-VIMAR_60000
 70
0
 62
7
  6
CONTINUOUS
370
-3
390
F
  0
LAYER
  5
28B
100
AcDbSymbolTableRecord
100
AcDbLayerTableRecord
  2
ECAD_3225-CF1-RF-VIMAR_260000
 70
0
 62
7
  6
CONTINUOUS
370
-3
390
F
  0
LAYER
  5
28C
100
AcDbSymbolTableRecord
100
AcDbLayerTableRecord
  2
ECAD_6432-R-RF-VIMAR_110000
 70
0
 62
7
  6
CONTINUOUS
370
-3
390
F
  0
LAYER
  5
28D
100
AcDbSymbolTableRecord
100
AcDbLayerTableRecord
  2
ECAD_BZ-BST-0841A_330000
 70
0
 62
7
  6
CONTINUOUS
370
-3
390
F
  0
LAYER
  5
28E
100
AcDbSymbolTableRecord
100
AcDbLayerTableRecord
  2
ECAD_CAPC1005X60N_60000
 70
0
 62
7
  6
CONTINUOUS
370
-3
390
F
  0
LAYER
  5
28F
100
AcDbSymbolTableRecord
100
AcDbLayerTableRecord
  2
ECAD_CAPC1608N_80000
 70
0
 62
7
  6
CONTINUOUS
370
-3
390
F
  0
LAYER
  5
290
100
AcDbSymbolTableRecord
100
AcDbLayerTableRecord
  2
ECAD_CC-0603-VIMAR_1000
 70
0
 62
7
  6
CONTINUOUS
370
-3
390
F
  0
LAYER
  5
291
100
AcDbSymbolTableRecord
100
AcDbLayerTableRecord
  2
ECAD_CN04-ZIF_P1-VIMAR_270000
 70
0
 62
7
  6
CONTINUOUS
370
-3
390
F
  0
LAYER
  5
292
100
AcDbSymbolTableRecord
100
AcDbLayerTableRecord
  2
ECAD_CN1-TP10_SMD-VIMAR_01_1000
 70
0
 62
7
  6
CONTINUOUS
370
-3
390
F
  0
LAYER
  5
293
100
AcDbSymbolTableRecord
100
AcDbLayerTableRecord
  2
ECAD_CN1-TP10_SMD-VIMAR_10000
 70
0
 62
7
  6
CONTINUOUS
370
-3
390
F
  0
LAYER
  5
294
100
AcDbSymbolTableRecord
100
AcDbLayerTableRecord
  2
ECAD_CN1-TP15_SMD-VIMAR_5000
 70
0
 62
7
  6
CONTINUOUS
370
-3
390
F
  0
LAYER
  5
295
100
AcDbSymbolTableRecord
100
AcDbLayerTableRecord
  2
ECAD_CP-CE4-RF_550000
 70
0
 62
7
  6
CONTINUOUS
370
-3
390
F
  0
LAYER
  5
296
100
AcDbSymbolTableRecord
100
AcDbLayerTableRecord
  2
ECAD_CP-CE5-RF_650000
 70
0
 62
7
  6
CONTINUOUS
370
-3
390
F
  0
LAYER
  5
297
100
AcDbSymbolTableRecord
100
AcDbLayerTableRecord
  2
ECAD_CP-CE6-RF_820000
 70
0
 62
7
  6
CONTINUOUS
370
-3
390
F
  0
LAYER
  5
298
100
AcDbSymbolTableRecord
100
AcDbLayerTableRecord
  2
ECAD_CP-DO-214AC-D-VIMAR_240000
 70
0
 62
7
  6
CONTINUOUS
370
-3
390
F
  0
LAYER
  5
299
100
AcDbSymbolTableRecord
100
AcDbLayerTableRecord
  2
ECAD_CP-DO-214AC-VIMAR_240000
 70
0
 62
7
  6
CONTINUOUS
370
-3
390
F
  0
LAYER
  5
29A
100
AcDbSymbolTableRecord
100
AcDbLayerTableRecord
  2
ECAD_CP-SUPERCAP-SMD_190000
 70
0
 62
7
  6
CONTINUOUS
370
-3
390
F
  0
LAYER
  5
29B
100
AcDbSymbolTableRecord
100
AcDbLayerTableRecord
  2
ECAD_E2_MARK_10000
 70
0
 62
7
  6
CONTINUOUS
370
-3
390
F
  0
LAYER
  5
29C
100
AcDbSymbolTableRecord
100
AcDbLayerTableRecord
  2
ECAD_EPL65132-VIMAR_100000
 70
0
 62
7
  6
CONTINUOUS
370
-3
390
F
  0
LAYER
  5
29D
100
AcDbSymbolTableRecord
100
AcDbLayerTableRecord
  2
ECAD_LCD-VITL_1293_370000
 70
0
 62
7
  6
CONTINUOUS
370
-3
390
F
  0
LAYER
  5
29E
100
AcDbSymbolTableRecord
100
AcDbLayerTableRecord
  2
ECAD_LOGO_RESIST-RESTYLING_1000
 70
0
 62
7
  6
CONTINUOUS
370
-3
390
F
  0
LAYER
  5
29F
100
AcDbSymbolTableRecord
100
AcDbLayerTableRecord
  2
ECAD_L_SRR0604-RF-VIMAR_480000
 70
0
 62
7
  6
CONTINUOUS
370
-3
390
F
  0
LAYER
  5
2A0
100
AcDbSymbolTableRecord
100
AcDbLayerTableRecord
  2
ECAD_MM2-X-1-VIMAR_430000
 70
0
 62
7
  6
CONTINUOUS
370
-3
390
F
  0
LAYER
  5
2A1
100
AcDbSymbolTableRecord
100
AcDbLayerTableRecord
  2
ECAD_MM2-X-2-VIMAR_250000
 70
0
 62
7
  6
CONTINUOUS
370
-3
390
F
  0
LAYER
  5
2A2
100
AcDbSymbolTableRecord
100
AcDbLayerTableRecord
  2
ECAD_MM2-X-3-VIMAR_120000
 70
0
 62
7
  6
CONTINUOUS
370
-3
390
F
  0
LAYER
  5
2A3
100
AcDbSymbolTableRecord
100
AcDbLayerTableRecord
  2
ECAD_MM3-MPAK-RF-VIMAR_120000
 70
0
 62
7
  6
CONTINUOUS
370
-3
390
F
  0
LAYER
  5
2A4
100
AcDbSymbolTableRecord
100
AcDbLayerTableRecord
  2
ECAD_MM5-FMT-RF_120000
 70
0
 62
7
  6
CONTINUOUS
370
-3
390
F
  0
LAYER
  5
2A5
100
AcDbSymbolTableRecord
100
AcDbLayerTableRecord
  2
ECAD_MSOP8-T1-RF-VIMAR_86000
 70
0
 62
7
  6
CONTINUOUS
370
-3
390
F
  0
LAYER
  5
2A6
100
AcDbSymbolTableRecord
100
AcDbLayerTableRecord
  2
ECAD_NO-PB_MARK_10000
 70
0
 62
7
  6
CONTINUOUS
370
-3
390
F
  0
LAYER
  5
2A7
100
AcDbSymbolTableRecord
100
AcDbLayerTableRecord
  2
ECAD_RESC1005X40N_40000
 70
0
 62
7
  6
CONTINUOUS
370
-3
390
F
  0
LAYER
  5
2A8
100
AcDbSymbolTableRecord
100
AcDbLayerTableRecord
  2
ECAD_RESC1608N_45000
 70
0
 62
7
  6
CONTINUOUS
370
-3
390
F
  0
LAYER
  5
2A9
100
AcDbSymbolTableRecord
100
AcDbLayerTableRecord
  2
ECAD_RUBBERPAD-R-07X22_0
 70
0
 62
7
  6
CONTINUOUS
370
-3
390
F
  0
LAYER
  5
2AA
100
AcDbSymbolTableRecord
100
AcDbLayerTableRecord
  2
ECAD_SOD123_135000
 70
0
 62
7
  6
CONTINUOUS
370
-3
390
F
  0
LAYER
  5
2AB
100
AcDbSymbolTableRecord
100
AcDbLayerTableRecord
  2
ECAD_SOD323_125000
 70
0
 62
7
  6
CONTINUOUS
370
-3
390
F
  0
LAYER
  5
2AC
100
AcDbSymbolTableRecord
100
AcDbLayerTableRecord
  2
ECAD_SOP20-1-VIMAR_270000
 70
0
 62
7
  6
CONTINUOUS
370
-3
390
F
  0
LAYER
  5
2AD
100
AcDbSymbolTableRecord
100
AcDbLayerTableRecord
  2
ECAD_TFBGA208_1-VIMAR_120000
 70
0
 62
7
  6
CONTINUOUS
370
-3
390
F
  0
LAYER
  5
2AE
100
AcDbSymbolTableRecord
100
AcDbLayerTableRecord
  2
ECAD_TP10_SMD_0
 70
0
 62
7
  6
CONTINUOUS
370
-3
390
F
  0
LAYER
  5
2AF
100
AcDbSymbolTableRecord
100
AcDbLayerTableRecord
  2
ECAD_TSOP86-TI-RF_VIMAR_120000
 70
0
 62
7
  6
CONTINUOUS
370
-3
390
F
  0
LAYER
  5
2B0
100
AcDbSymbolTableRecord
100
AcDbLayerTableRecord
  2
ECAD_TSSOP16-RF-VIMAR_150000
 70
0
 62
7
  6
CONTINUOUS
370
-3
390
F
  0
LAYER
  5
2B1
100
AcDbSymbolTableRecord
100
AcDbLayerTableRecord
  2
ECAD_TSSOP8-RF-VIMAR_110000
 70
0
 62
7
  6
CONTINUOUS
370
-3
390
F
  0
LAYER
  5
2B2
100
AcDbSymbolTableRecord
100
AcDbLayerTableRecord
  2
IGES
 70
0
 62
7
  6
CONTINUOUS
370
-3
390
F
  0
LAYER
  5
2B3
100
AcDbSymbolTableRecord
100
AcDbLayerTableRecord
  2
IMPORT_IGES
 70
0
 62
7
  6
CONTINUOUS
370
-3
390
F
  0
LAYER
  5
2B4
100
AcDbSymbolTableRecord
100
AcDbLayerTableRecord
  2
INCISIONI
 70
0
 62
7
  6
CONTINUOUS
370
-3
390
F
  0
LAYER
  5
2B5
100
AcDbSymbolTableRecord
100
AcDbLayerTableRecord
  2
INTF_10
 70
0
 62
7
  6
CONTINUOUS
370
-3
390
F
  0
LAYER
  5
2B6
100
AcDbSymbolTableRecord
100
AcDbLayerTableRecord
  2
INTF_BLANK
 70
0
 62
7
  6
CONTINUOUS
370
-3
390
F
  0
LAYER
  5
2B7
100
AcDbSymbolTableRecord
100
AcDbLayerTableRecord
  2
LOGICA
 70
0
 62
7
  6
CONTINUOUS
370
-3
390
F
  0
LAYER
  5
2B8
100
AcDbSymbolTableRecord
100
AcDbLayerTableRecord
  2
LOGO_RESIST-RESTYLING_10000
 70
0
 62
7
  6
CONTINUOUS
370
-3
390
F
  0
LAYER
  5
2B9
100
AcDbSymbolTableRecord
100
AcDbLayerTableRecord
  2
LOGO_RESIST-RESTYLING_10000_1
 70
0
 62
7
  6
CONTINUOUS
370
-3
390
F
  0
LAYER
  5
2BA
100
AcDbSymbolTableRecord
100
AcDbLayerTableRecord
  2
L_SRR0604-RF-VIMAR_480000
 70
0
 62
7
  6
CONTINUOUS
370
-3
390
F
  0
LAYER
  5
2BB
100
AcDbSymbolTableRecord
100
AcDbLayerTableRecord
  2
MM2-X-1-VIMAR_430000
 70
0
 62
7
  6
CONTINUOUS
370
-3
390
F
  0
LAYER
  5
2BC
100
AcDbSymbolTableRecord
100
AcDbLayerTableRecord
  2
MM3-MPAK-RF-VIMAR_120000
 70
0
 62
7
  6
CONTINUOUS
370
-3
390
F
  0
LAYER
  5
2BD
100
AcDbSymbolTableRecord
100
AcDbLayerTableRecord
  2
MM3-MPAK-RF-VIMAR_120000_1
 70
0
 62
7
  6
CONTINUOUS
370
-3
390
F
  0
LAYER
  5
2BE
100
AcDbSymbolTableRecord
100
AcDbLayerTableRecord
  2
MM3-MPAK-RF-VIMAR_120000_2
 70
0
 62
7
  6
CONTINUOUS
370
-3
390
F
  0
LAYER
  5
2BF
100
AcDbSymbolTableRecord
100
AcDbLayerTableRecord
  2
MM3-MPAK-RF-VIMAR_120000_3
 70
0
 62
7
  6
CONTINUOUS
370
-3
390
F
  0
LAYER
  5
2C0
100
AcDbSymbolTableRecord
100
AcDbLayerTableRecord
  2
MM3-MPAK-RF-VIMAR_120000_4
 70
0
 62
7
  6
CONTINUOUS
370
-3
390
F
  0
LAYER
  5
2C1
100
AcDbSymbolTableRecord
100
AcDbLayerTableRecord
  2
MM3-MPAK-RF-VIMAR_120000_5
 70
0
 62
7
  6
CONTINUOUS
370
-3
390
F
  0
LAYER
  5
2C2
100
AcDbSymbolTableRecord
100
AcDbLayerTableRecord
  2
MM3-MPAK-RF-VIMAR_120000_6
 70
0
 62
7
  6
CONTINUOUS
370
-3
390
F
  0
LAYER
  5
2C3
100
AcDbSymbolTableRecord
100
AcDbLayerTableRecord
  2
MSOP8-T1-RF-VIMAR_86000
 70
0
 62
7
  6
CONTINUOUS
370
-3
390
F
  0
LAYER
  5
2C4
100
AcDbSymbolTableRecord
100
AcDbLayerTableRecord
  2
NO-PB_MARK_10000
 70
0
 62
7
  6
CONTINUOUS
370
-3
390
F
  0
LAYER
  5
2C5
100
AcDbSymbolTableRecord
100
AcDbLayerTableRecord
  2
NO-PB_MARK_10000_1
 70
0
 62
7
  6
CONTINUOUS
370
-3
390
F
  0
LAYER
  5
2C6
100
AcDbSymbolTableRecord
100
AcDbLayerTableRecord
  2
NOTE
 70
0
 62
7
  6
CONTINUOUS
370
-3
390
F
  0
LAYER
  5
2C7
100
AcDbSymbolTableRecord
100
AcDbLayerTableRecord
  2
PIANI
 70
0
 62
7
  6
CONTINUOUS
370
-3
390
F
  0
LAYER
  5
2C8
100
AcDbSymbolTableRecord
100
AcDbLayerTableRecord
  2
PIANI_DI_RIFERIMENTO
 70
0
 62
7
  6
CONTINUOUS
370
-3
390
F
  0
LAYER
  5
2C9
100
AcDbSymbolTableRecord
100
AcDbLayerTableRecord
  2
PIANI_ORIGINE
 70
0
 62
7
  6
CONTINUOUS
370
-3
390
F
  0
LAYER
  5
2CA
100
AcDbSymbolTableRecord
100
AcDbLayerTableRecord
  2
PSD25-VIMAR_0
 70
0
 62
7
  6
CONTINUOUS
370
-3
390
F
  0
LAYER
  5
2CB
100
AcDbSymbolTableRecord
100
AcDbLayerTableRecord
  2
PSD25-VIMAR_0_1
 70
0
 62
7
  6
CONTINUOUS
370
-3
390
F
  0
LAYER
  5
2CC
100
AcDbSymbolTableRecord
100
AcDbLayerTableRecord
  2
PSD25-VIMAR_0_2
 70
0
 62
7
  6
CONTINUOUS
370
-3
390
F
  0
LAYER
  5
2CD
100
AcDbSymbolTableRecord
100
AcDbLayerTableRecord
  2
PSD25-VIMAR_0_3
 70
0
 62
7
  6
CONTINUOUS
370
-3
390
F
  0
LAYER
  5
2CE
100
AcDbSymbolTableRecord
100
AcDbLayerTableRecord
  2
PUNTI
 70
0
 62
7
  6
CONTINUOUS
370
-3
390
F
  0
LAYER
  5
2CF
100
AcDbSymbolTableRecord
100
AcDbLayerTableRecord
  2
RACCORDO
 70
0
 62
7
  6
CONTINUOUS
370
-3
390
F
  0
LAYER
  5
2D0
100
AcDbSymbolTableRecord
100
AcDbLayerTableRecord
  2
RESC1005X40N_40000
 70
0
 62
7
  6
CONTINUOUS
370
-3
390
F
  0
LAYER
  5
2D1
100
AcDbSymbolTableRecord
100
AcDbLayerTableRecord
  2
RESC1005X40N_40000_1
 70
0
 62
7
  6
CONTINUOUS
370
-3
390
F
  0
LAYER
  5
2D2
100
AcDbSymbolTableRecord
100
AcDbLayerTableRecord
  2
RESC1005X40N_40000_10
 70
0
 62
7
  6
CONTINUOUS
370
-3
390
F
  0
LAYER
  5
2D3
100
AcDbSymbolTableRecord
100
AcDbLayerTableRecord
  2
RESC1005X40N_40000_11
 70
0
 62
7
  6
CONTINUOUS
370
-3
390
F
  0
LAYER
  5
2D4
100
AcDbSymbolTableRecord
100
AcDbLayerTableRecord
  2
RESC1005X40N_40000_12
 70
0
 62
7
  6
CONTINUOUS
370
-3
390
F
  0
LAYER
  5
2D5
100
AcDbSymbolTableRecord
100
AcDbLayerTableRecord
  2
RESC1005X40N_40000_13
 70
0
 62
7
  6
CONTINUOUS
370
-3
390
F
  0
LAYER
  5
2D6
100
AcDbSymbolTableRecord
100
AcDbLayerTableRecord
  2
RESC1005X40N_40000_14
 70
0
 62
7
  6
CONTINUOUS
370
-3
390
F
  0
LAYER
  5
2D7
100
AcDbSymbolTableRecord
100
AcDbLayerTableRecord
  2
RESC1005X40N_40000_15
 70
0
 62
7
  6
CONTINUOUS
370
-3
390
F
  0
LAYER
  5
2D8
100
AcDbSymbolTableRecord
100
AcDbLayerTableRecord
  2
RESC1005X40N_40000_16
 70
0
 62
7
  6
CONTINUOUS
370
-3
390
F
  0
LAYER
  5
2D9
100
AcDbSymbolTableRecord
100
AcDbLayerTableRecord
  2
RESC1005X40N_40000_17
 70
0
 62
7
  6
CONTINUOUS
370
-3
390
F
  0
LAYER
  5
2DA
100
AcDbSymbolTableRecord
100
AcDbLayerTableRecord
  2
RESC1005X40N_40000_18
 70
0
 62
7
  6
CONTINUOUS
370
-3
390
F
  0
LAYER
  5
2DB
100
AcDbSymbolTableRecord
100
AcDbLayerTableRecord
  2
RESC1005X40N_40000_19
 70
0
 62
7
  6
CONTINUOUS
370
-3
390
F
  0
LAYER
  5
2DC
100
AcDbSymbolTableRecord
100
AcDbLayerTableRecord
  2
RESC1005X40N_40000_2
 70
0
 62
7
  6
CONTINUOUS
370
-3
390
F
  0
LAYER
  5
2DD
100
AcDbSymbolTableRecord
100
AcDbLayerTableRecord
  2
RESC1005X40N_40000_20
 70
0
 62
7
  6
CONTINUOUS
370
-3
390
F
  0
LAYER
  5
2DE
100
AcDbSymbolTableRecord
100
AcDbLayerTableRecord
  2
RESC1005X40N_40000_21
 70
0
 62
7
  6
CONTINUOUS
370
-3
390
F
  0
LAYER
  5
2DF
100
AcDbSymbolTableRecord
100
AcDbLayerTableRecord
  2
RESC1005X40N_40000_22
 70
0
 62
7
  6
CONTINUOUS
370
-3
390
F
  0
LAYER
  5
2E0
100
AcDbSymbolTableRecord
100
AcDbLayerTableRecord
  2
RESC1005X40N_40000_23
 70
0
 62
7
  6
CONTINUOUS
370
-3
390
F
  0
LAYER
  5
2E1
100
AcDbSymbolTableRecord
100
AcDbLayerTableRecord
  2
RESC1005X40N_40000_24
 70
0
 62
7
  6
CONTINUOUS
370
-3
390
F
  0
LAYER
  5
2E2
100
AcDbSymbolTableRecord
100
AcDbLayerTableRecord
  2
RESC1005X40N_40000_25
 70
0
 62
7
  6
CONTINUOUS
370
-3
390
F
  0
LAYER
  5
2E3
100
AcDbSymbolTableRecord
100
AcDbLayerTableRecord
  2
RESC1005X40N_40000_26
 70
0
 62
7
  6
CONTINUOUS
370
-3
390
F
  0
LAYER
  5
2E4
100
AcDbSymbolTableRecord
100
AcDbLayerTableRecord
  2
RESC1005X40N_40000_27
 70
0
 62
7
  6
CONTINUOUS
370
-3
390
F
  0
LAYER
  5
2E5
100
AcDbSymbolTableRecord
100
AcDbLayerTableRecord
  2
RESC1005X40N_40000_3
 70
0
 62
7
  6
CONTINUOUS
370
-3
390
F
  0
LAYER
  5
2E6
100
AcDbSymbolTableRecord
100
AcDbLayerTableRecord
  2
RESC1005X40N_40000_4
 70
0
 62
7
  6
CONTINUOUS
370
-3
390
F
  0
LAYER
  5
2E7
100
AcDbSymbolTableRecord
100
AcDbLayerTableRecord
  2
RESC1005X40N_40000_5
 70
0
 62
7
  6
CONTINUOUS
370
-3
390
F
  0
LAYER
  5
2E8
100
AcDbSymbolTableRecord
100
AcDbLayerTableRecord
  2
RESC1005X40N_40000_6
 70
0
 62
7
  6
CONTINUOUS
370
-3
390
F
  0
LAYER
  5
2E9
100
AcDbSymbolTableRecord
100
AcDbLayerTableRecord
  2
RESC1005X40N_40000_7
 70
0
 62
7
  6
CONTINUOUS
370
-3
390
F
  0
LAYER
  5
2EA
100
AcDbSymbolTableRecord
100
AcDbLayerTableRecord
  2
RESC1005X40N_40000_8
 70
0
 62
7
  6
CONTINUOUS
370
-3
390
F
  0
LAYER
  5
2EB
100
AcDbSymbolTableRecord
100
AcDbLayerTableRecord
  2
RESC1005X40N_40000_9
 70
0
 62
7
  6
CONTINUOUS
370
-3
390
F
  0
LAYER
  5
2EC
100
AcDbSymbolTableRecord
100
AcDbLayerTableRecord
  2
RESC1608N_45000
 70
0
 62
7
  6
CONTINUOUS
370
-3
390
F
  0
LAYER
  5
2ED
100
AcDbSymbolTableRecord
100
AcDbLayerTableRecord
  2
RESC1608N_45000_1
 70
0
 62
7
  6
CONTINUOUS
370
-3
390
F
  0
LAYER
  5
2EE
100
AcDbSymbolTableRecord
100
AcDbLayerTableRecord
  2
RESC1608N_45000_10
 70
0
 62
7
  6
CONTINUOUS
370
-3
390
F
  0
LAYER
  5
2EF
100
AcDbSymbolTableRecord
100
AcDbLayerTableRecord
  2
RESC1608N_45000_11
 70
0
 62
7
  6
CONTINUOUS
370
-3
390
F
  0
LAYER
  5
2F0
100
AcDbSymbolTableRecord
100
AcDbLayerTableRecord
  2
RESC1608N_45000_12
 70
0
 62
7
  6
CONTINUOUS
370
-3
390
F
  0
LAYER
  5
2F1
100
AcDbSymbolTableRecord
100
AcDbLayerTableRecord
  2
RESC1608N_45000_13
 70
0
 62
7
  6
CONTINUOUS
370
-3
390
F
  0
LAYER
  5
2F2
100
AcDbSymbolTableRecord
100
AcDbLayerTableRecord
  2
RESC1608N_45000_14
 70
0
 62
7
  6
CONTINUOUS
370
-3
390
F
  0
LAYER
  5
2F3
100
AcDbSymbolTableRecord
100
AcDbLayerTableRecord
  2
RESC1608N_45000_15
 70
0
 62
7
  6
CONTINUOUS
370
-3
390
F
  0
LAYER
  5
2F4
100
AcDbSymbolTableRecord
100
AcDbLayerTableRecord
  2
RESC1608N_45000_16
 70
0
 62
7
  6
CONTINUOUS
370
-3
390
F
  0
LAYER
  5
2F5
100
AcDbSymbolTableRecord
100
AcDbLayerTableRecord
  2
RESC1608N_45000_17
 70
0
 62
7
  6
CONTINUOUS
370
-3
390
F
  0
LAYER
  5
2F6
100
AcDbSymbolTableRecord
100
AcDbLayerTableRecord
  2
RESC1608N_45000_18
 70
0
 62
7
  6
CONTINUOUS
370
-3
390
F
  0
LAYER
  5
2F7
100
AcDbSymbolTableRecord
100
AcDbLayerTableRecord
  2
RESC1608N_45000_19
 70
0
 62
7
  6
CONTINUOUS
370
-3
390
F
  0
LAYER
  5
2F8
100
AcDbSymbolTableRecord
100
AcDbLayerTableRecord
  2
RESC1608N_45000_2
 70
0
 62
7
  6
CONTINUOUS
370
-3
390
F
  0
LAYER
  5
2F9
100
AcDbSymbolTableRecord
100
AcDbLayerTableRecord
  2
RESC1608N_45000_3
 70
0
 62
7
  6
CONTINUOUS
370
-3
390
F
  0
LAYER
  5
2FA
100
AcDbSymbolTableRecord
100
AcDbLayerTableRecord
  2
RESC1608N_45000_4
 70
0
 62
7
  6
CONTINUOUS
370
-3
390
F
  0
LAYER
  5
2FB
100
AcDbSymbolTableRecord
100
AcDbLayerTableRecord
  2
RESC1608N_45000_5
 70
0
 62
7
  6
CONTINUOUS
370
-3
390
F
  0
LAYER
  5
2FC
100
AcDbSymbolTableRecord
100
AcDbLayerTableRecord
  2
RESC1608N_45000_6
 70
0
 62
7
  6
CONTINUOUS
370
-3
390
F
  0
LAYER
  5
2FD
100
AcDbSymbolTableRecord
100
AcDbLayerTableRecord
  2
RESC1608N_45000_7
 70
0
 62
7
  6
CONTINUOUS
370
-3
390
F
  0
LAYER
  5
2FE
100
AcDbSymbolTableRecord
100
AcDbLayerTableRecord
  2
RESC1608N_45000_8
 70
0
 62
7
  6
CONTINUOUS
370
-3
390
F
  0
LAYER
  5
2FF
100
AcDbSymbolTableRecord
100
AcDbLayerTableRecord
  2
RESC1608N_45000_9
 70
0
 62
7
  6
CONTINUOUS
370
-3
390
F
  0
LAYER
  5
300
100
AcDbSymbolTableRecord
100
AcDbLayerTableRecord
  2
RUBBERPAD-R-07X22_0
 70
0
 62
7
  6
CONTINUOUS
370
-3
390
F
  0
LAYER
  5
301
100
AcDbSymbolTableRecord
100
AcDbLayerTableRecord
  2
RUBBERPAD-R-07X22_0_1
 70
0
 62
7
  6
CONTINUOUS
370
-3
390
F
  0
LAYER
  5
302
100
AcDbSymbolTableRecord
100
AcDbLayerTableRecord
  2
SMUSSO
 70
0
 62
7
  6
CONTINUOUS
370
-3
390
F
  0
LAYER
  5
303
100
AcDbSymbolTableRecord
100
AcDbLayerTableRecord
  2
SNAPLINE
 70
0
 62
7
  6
CONTINUOUS
370
-3
390
F
  0
LAYER
  5
304
100
AcDbSymbolTableRecord
100
AcDbLayerTableRecord
  2
SOD323_125000
 70
0
 62
7
  6
CONTINUOUS
370
-3
390
F
  0
LAYER
  5
305
100
AcDbSymbolTableRecord
100
AcDbLayerTableRecord
  2
SOLIDO
 70
0
 62
7
  6
CONTINUOUS
370
-3
390
F
  0
LAYER
  5
306
100
AcDbSymbolTableRecord
100
AcDbLayerTableRecord
  2
SOP20-1-VIMAR_270000
 70
0
 62
7
  6
CONTINUOUS
370
-3
390
F
  0
LAYER
  5
307
100
AcDbSymbolTableRecord
100
AcDbLayerTableRecord
  2
SUPERFICI
 70
0
 62
7
  6
CONTINUOUS
370
-3
390
F
  0
LAYER
  5
308
100
AcDbSymbolTableRecord
100
AcDbLayerTableRecord
  2
TP10_SMD_0
 70
0
 62
7
  6
CONTINUOUS
370
-3
390
F
  0
LAYER
  5
309
100
AcDbSymbolTableRecord
100
AcDbLayerTableRecord
  2
TP10_SMD_0_1
 70
0
 62
7
  6
CONTINUOUS
370
-3
390
F
  0
LAYER
  5
30A
100
AcDbSymbolTableRecord
100
AcDbLayerTableRecord
  2
TP10_SMD_0_2
 70
0
 62
7
  6
CONTINUOUS
370
-3
390
F
  0
LAYER
  5
30B
100
AcDbSymbolTableRecord
100
AcDbLayerTableRecord
  2
TP10_SMD_0_3
 70
0
 62
7
  6
CONTINUOUS
370
-3
390
F
  0
LAYER
  5
30C
100
AcDbSymbolTableRecord
100
AcDbLayerTableRecord
  2
TP10_SMD_0_4
 70
0
 62
7
  6
CONTINUOUS
370
-3
390
F
  0
LAYER
  5
30D
100
AcDbSymbolTableRecord
100
AcDbLayerTableRecord
  2
TP10_SMD_0_5
 70
0
 62
7
  6
CONTINUOUS
370
-3
390
F
  0
LAYER
  5
30E
100
AcDbSymbolTableRecord
100
AcDbLayerTableRecord
  2
TRASH
 70
0
 62
7
  6
CONTINUOUS
370
-3
390
F
  0
LAYER
  5
30F
100
AcDbSymbolTableRecord
100
AcDbLayerTableRecord
  2
TSSOP8-RF-VIMAR_110000
 70
0
 62
7
  6
CONTINUOUS
370
-3
390
F
  0
LAYER
  5
310
100
AcDbSymbolTableRecord
100
AcDbLayerTableRecord
  2
TSSOP8-RF-VIMAR_110000_1
 70
0
 62
7
  6
CONTINUOUS
370
-3
390
F
  0
LAYER
  5
311
100
AcDbSymbolTableRecord
100
AcDbLayerTableRecord
  2
WHITE
 70
0
 62
7
  6
CONTINUOUS
370
-3
390
F
  0
LAYER
  5
312
100
AcDbSymbolTableRecord
100
AcDbLayerTableRecord
  2
XSEC_DATUMS
 70
0
 62
7
  6
CONTINUOUS
370
-3
390
F
  0
LAYER
  5
313
100
AcDbSymbolTableRecord
100
AcDbLayerTableRecord
  2
___SHELL
 70
0
 62
7
  6
CONTINUOUS
370
-3
390
F
  0
ENDTAB
  0
TABLE
  2
STYLE
  5
3
100
AcDbSymbolTable
 70
1
  0
STYLE
  5
11
100
AcDbSymbolTableRecord
100
AcDbTextStyleTableRecord
  2
STANDARD
 70
0
 40
0.0
 41
0.8
 50
0.0
 71
0
 42
0.2
  3
txt
  4

  0
STYLE
  5
314
100
AcDbSymbolTableRecord
100
AcDbTextStyleTableRecord
  2
TEXTSTYLE_1
 70
0
 40
0.0
 41
0.8
 50
0.0
 71
0
 42
0.2
  3
gdt
  4

  0
ENDTAB
  0
TABLE
  2
VIEW
  5
6
100
AcDbSymbolTable
 70
0
  0
ENDTAB
  0
TABLE
  2
UCS
  5
7
100
AcDbSymbolTable
 70
0
  0
ENDTAB
  0
TABLE
  2
APPID
  5
9
100
AcDbSymbolTable
 70
1
  0
APPID
  5
315
100
AcDbSymbolTableRecord
100
AcDbRegAppTableRecord
  2
ACAD
 70
0
  0
ENDTAB
  0
TABLE
  2
BLOCK_RECORD
  5
1
100
AcDbSymbolTable
 70
0
  0
BLOCK_RECORD
  5
316
100
AcDbSymbolTableRecord
100
AcDbBlockTableRecord
  2
*Model_Space
  0
BLOCK_RECORD
  5
317
100
AcDbSymbolTableRecord
100
AcDbBlockTableRecord
  2
*Paper_Space
  0
BLOCK_RECORD
  5
318
100
AcDbSymbolTableRecord
100
AcDbBlockTableRecord
  2
_FILLED
  0
BLOCK_RECORD
  5
319
100
AcDbSymbolTableRecord
100
AcDbBlockTableRecord
  2
*D0
  0
BLOCK_RECORD
  5
31A
100
AcDbSymbolTableRecord
100
AcDbBlockTableRecord
  2
*D1
  0
BLOCK_RECORD
  5
31B
100
AcDbSymbolTableRecord
100
AcDbBlockTableRecord
  2
*D2
  0
BLOCK_RECORD
  5
31C
100
AcDbSymbolTableRecord
100
AcDbBlockTableRecord
  2
*D3
  0
ENDTAB
  0
TABLE
  2
DIMSTYLE
  5
A
100
AcDbSymbolTable
 70
1
100
AcDbDimStyleTable
 71
0
  0
DIMSTYLE
105
31D
100
AcDbSymbolTableRecord
100
AcDbDimStyleTableRecord
  2
STANDARD
 70
0
  3

  4

 40
1.0
 41
3.0
 42
0.0625
 43
0.38
 44
0.18
 45
0.0
 46
0.0
 47
0.01
 48
0.01
140
3.0
141
0.09
142
0.0
143
25.4
144
1.0
145
0.0
146
1.0
147
0.09
 71
1.0
 72
0.0
 73
0
 74
0
 75
0
 76
0
 77
1
 78
8
170
0
171
2
172
0
173
0
174
0
175
0
176
0
177
0
178
0
270
2
271
2
272
2
273
2
274
2
275
0
280
0
281
0
282
0
283
1
284
8
285
0
286
0
287
3
288
0
340
11
341
318
342
318
343
318
344
318
  0
DIMSTYLE
105
31E
100
AcDbSymbolTableRecord
100
AcDbDimStyleTableRecord
  2
DIMSTYLE_1
 70
0
  3

  4

 40
1.0
 41
3.0
 42
0.0625
 43
0.38
 44
0.18
 45
0.0
 46
0.0
 47
0.0
 48
0.0
140
3.0
141
0.09
142
0.0
143
25.4
144
1.0
145
0.0
146
1.0
147
0.09
 71
0.0
 72
0.0
 73
0
 74
0
 75
0
 76
0
 77
1
 78
8
170
0
171
2
172
0
173
0
174
0
175
0
176
0
177
0
178
0
270
2
271
2
272
2
273
2
274
2
275
0
280
0
281
0
282
0
283
1
284
8
285
0
286
0
287
3
288
0
340
11
341
318
342
318
343
318
344
318
  0
DIMSTYLE
105
31F
100
AcDbSymbolTableRecord
100
AcDbDimStyleTableRecord
  2
DIMSTYLE_2
 70
0
  3

  4

 40
1.0
 41
3.0
 42
0.0625
 43
0.38
 44
0.18
 45
0.0
 46
0.0
 47
0.0
 48
0.0
140
3.0
141
0.09
142
0.0
143
25.4
144
1.0
145
0.0
146
1.0
147
0.09
 71
0.0
 72
0.0
 73
0
 74
0
 75
0
 76
0
 77
1
 78
8
170
0
171
2
172
0
173
0
174
0
175
0
176
0
177
0
178
0
270
2
271
1
272
1
273
2
274
2
275
0
280
0
281
0
282
0
283
1
284
8
285
0
286
0
287
3
288
0
340
11
341
318
342
318
343
318
344
318
  0
ENDTAB
  0
ENDSEC
  0
SECTION
  2
BLOCKS
  0
BLOCK
  5
20
100
AcDbEntity
  8
0
100
AcDbBlockBegin
  2
*Model_Space
 70
0
 10
0.0
 20
0.0
 30
0.0
  3
*Model_Space
  1

  0
ENDBLK
  5
21
100
AcDbEntity
  8
0
100
AcDbBlockEnd
  0
BLOCK
  5
1C
100
AcDbEntity
  8
0
100
AcDbBlockBegin
  2
*Paper_Space
 70
0
 10
0.0
 20
0.0
 30
0.0
  3
*Paper_Space
  1

  0
ENDBLK
  5
1D
100
AcDbEntity
  8
0
100
AcDbBlockEnd
  0
BLOCK
  5
320
100
AcDbEntity
  8
0
100
AcDbBlockBegin
  2
_FILLED
 70
64
 10
0.0
 20
0.0
  3
_FILLED
  1

  0
SOLID
  5
321
100
AcDbEntity
  8
0
  6
BYBLOCK
 62
0
100
AcDbTrace
 10
0.0
 20
0.0
 11
-1.0
 21
0.3166666667
 12
-1.0
 22
-0.3166666667
 13
-1.0
 23
-0.3166666667
  0
ENDBLK
  5
322
100
AcDbEntity
  8
0
  6
BYBLOCK
 62
0
100
AcDbBlockEnd
  0
BLOCK
  5
323
100
AcDbEntity
  8
0
100
AcDbBlockBegin
 62
7
  6
CONTINUOUS
  2
*D0
 70
65
 10
0.0
 20
0.0
  3
*D0
  1

  0
MTEXT
  5
324
100
AcDbEntity
  8
0
100
AcDbMText
 62
7
  6
CONTINUOUS
  7
STANDARD
 71
2
 72
1
 10
45.7769918627
 20
36.5514846264
 30
0.0
 11
1.0
 21
0.0
 31
0.0
 44
0.9
  1
74,8
 40
3.0
 41
8.7857142857
  0
LINE
  5
325
100
AcDbEntity
  8
0
100
AcDbLine
 62
7
  6
CONTINUOUS
 10
83.1769918627
 20
23.9661459281
 11
83.1769918627
 21
34.3014846264
  0
LINE
  5
326
100
AcDbEntity
  8
0
100
AcDbLine
 62
7
  6
CONTINUOUS
 10
8.3769918627
 20
23.9661459281
 11
8.3769918627
 21
34.3014846264
  0
LINE
  5
327
100
AcDbEntity
  8
0
100
AcDbLine
 62
7
  6
CONTINUOUS
 10
83.1769918627
 20
32.8014846264
 11
45.7769918627
 21
32.8014846264
  0
LINE
  5
328
100
AcDbEntity
  8
0
100
AcDbLine
 62
7
  6
CONTINUOUS
 10
8.3769918627
 20
32.8014846264
 11
45.7769918627
 21
32.8014846264
  0
INSERT
  5
329
100
AcDbEntity
  8
0
100
AcDbBlockReference
 62
7
  6
CONTINUOUS
  2
_FILLED
 10
83.1769918627
 20
32.8014846264
 41
3.0
 42
3.0
 43
3.0
 50
0.0
  0
INSERT
  5
32A
100
AcDbEntity
  8
0
100
AcDbBlockReference
 62
7
  6
CONTINUOUS
  2
_FILLED
 10
8.3769918627
 20
32.8014846264
 41
3.0
 42
3.0
 43
3.0
 50
180.0
  0
ENDBLK
  5
32B
100
AcDbEntity
  8
0
  6
BYBLOCK
 62
0
100
AcDbBlockEnd
  0
BLOCK
  5
32C
100
AcDbEntity
  8
0
100
AcDbBlockBegin
 62
7
  6
CONTINUOUS
  2
*D1
 70
65
 10
0.0
 20
0.0
  3
*D1
  1

  0
MTEXT
  5
32D
100
AcDbEntity
  8
0
100
AcDbMText
 62
7
  6
CONTINUOUS
  7
STANDARD
 71
2
 72
1
 10
90.0069664111
 20
-0.2838540719
 30
0.0
 11
0.0
 21
1.0
 31
0.0
 44
0.9
  1
50,2
 40
3.0
 41
8.5714285714
  0
LINE
  5
32E
100
AcDbEntity
  8
0
100
AcDbLine
 62
7
  6
CONTINUOUS
 10
77.2769918627
 20
24.8014846264
 11
95.2569664111
 21
24.8014846264
  0
LINE
  5
32F
100
AcDbEntity
  8
0
100
AcDbLine
 62
7
  6
CONTINUOUS
 10
77.2769918627
 20
-25.3691927703
 11
95.2569664111
 21
-25.3691927703
  0
LINE
  5
330
100
AcDbEntity
  8
0
100
AcDbLine
 62
7
  6
CONTINUOUS
 10
93.7569664111
 20
24.8014846264
 11
93.7569664111
 21
-0.2838540719
  0
LINE
  5
331
100
AcDbEntity
  8
0
100
AcDbLine
 62
7
  6
CONTINUOUS
 10
93.7569664111
 20
-25.3691927703
 11
93.7569664111
 21
-0.2838540719
  0
INSERT
  5
332
100
AcDbEntity
  8
0
100
AcDbBlockReference
 62
7
  6
CONTINUOUS
  2
_FILLED
 10
93.7569664111
 20
24.8014846264
 41
3.0
 42
3.0
 43
3.0
 50
90.0
  0
INSERT
  5
333
100
AcDbEntity
  8
0
100
AcDbBlockReference
 62
7
  6
CONTINUOUS
  2
_FILLED
 10
93.7569664111
 20
-25.3691927703
 41
3.0
 42
3.0
 43
3.0
 50
270.0
  0
ENDBLK
  5
334
100
AcDbEntity
  8
0
  6
BYBLOCK
 62
0
100
AcDbBlockEnd
  0
BLOCK
  5
335
100
AcDbEntity
  8
0
100
AcDbBlockBegin
 62
7
  6
CONTINUOUS
  2
*D2
 70
65
 10
0.0
 20
0.0
  3
*D2
  1

  0
MTEXT
  5
336
100
AcDbEntity
  8
0
100
AcDbMText
 62
7
  6
CONTINUOUS
  7
STANDARD
 71
2
 72
1
 10
-28.9507014001
 20
36.5514865451
 30
0.0
 11
1.0
 21
0.0
 31
0.0
 44
0.9
  1
36,8
 40
3.0
 41
8.5714285714
  0
LINE
  5
337
100
AcDbEntity
  8
0
100
AcDbLine
 62
7
  6
CONTINUOUS
 10
-10.5526962519
 20
17.3052186325
 11
-10.5526973922
 21
34.3014877794
  0
LINE
  5
338
100
AcDbEntity
  8
0
100
AcDbLine
 62
7
  6
CONTINUOUS
 10
-47.3487046366
 20
24.3014846264
 11
-47.3487053075
 21
34.3014853108
  0
LINE
  5
339
100
AcDbEntity
  8
0
100
AcDbLine
 62
7
  6
CONTINUOUS
 10
-10.5526972915
 20
32.8014877794
 11
-28.9507012492
 21
32.8014865451
  0
LINE
  5
33A
100
AcDbEntity
  8
0
100
AcDbLine
 62
7
  6
CONTINUOUS
 10
-47.3487052069
 20
32.8014853108
 11
-28.9507012492
 21
32.8014865451
  0
INSERT
  5
33B
100
AcDbEntity
  8
0
100
AcDbBlockReference
 62
7
  6
CONTINUOUS
  2
_FILLED
 10
-10.5526972915
 20
32.8014877794
 41
3.0
 42
3.0
 43
3.0
 50
0.000003844
  0
INSERT
  5
33C
100
AcDbEntity
  8
0
100
AcDbBlockReference
 62
7
  6
CONTINUOUS
  2
_FILLED
 10
-47.3487052069
 20
32.8014853108
 41
3.0
 42
3.0
 43
3.0
 50
180.000003844
  0
ENDBLK
  5
33D
100
AcDbEntity
  8
0
  6
BYBLOCK
 62
0
100
AcDbBlockEnd
  0
BLOCK
  5
33E
100
AcDbEntity
  8
0
100
AcDbBlockBegin
 62
7
  6
CONTINUOUS
  2
*D3
 70
65
 10
0.0
 20
0.0
  3
*D3
  1

  0
MTEXT
  5
33F
100
AcDbEntity
  8
0
100
AcDbMText
 62
7
  6
CONTINUOUS
  7
STANDARD
 71
2
 72
1
 10
-34.050702879
 20
46.5514862029
 30
0.0
 11
1.0
 21
0.0
 31
0.0
 44
0.9
  1
47
 40
3.0
 41
4.7142857143
  0
LINE
  5
340
100
AcDbEntity
  8
0
100
AcDbLine
 62
7
  6
CONTINUOUS
 10
-10.5526962519
 20
17.3052186325
 11
-10.5526980631
 21
44.3014877794
  0
LINE
  5
341
100
AcDbEntity
  8
0
100
AcDbLine
 62
7
  6
CONTINUOUS
 10
-57.5487046366
 20
0.2161174143
 11
-57.5487075943
 21
44.3014846264
  0
LINE
  5
342
100
AcDbEntity
  8
0
100
AcDbLine
 62
7
  6
CONTINUOUS
 10
-10.5526979624
 20
42.8014877794
 11
-34.0507027281
 21
42.8014862029
  0
LINE
  5
343
100
AcDbEntity
  8
0
100
AcDbLine
 62
7
  6
CONTINUOUS
 10
-57.5487074937
 20
42.8014846264
 11
-34.0507027281
 21
42.8014862029
  0
INSERT
  5
344
100
AcDbEntity
  8
0
100
AcDbBlockReference
 62
7
  6
CONTINUOUS
  2
_FILLED
 10
-10.5526979624
 20
42.8014877794
 41
3.0
 42
3.0
 43
3.0
 50
0.000003844
  0
INSERT
  5
345
100
AcDbEntity
  8
0
100
AcDbBlockReference
 62
7
  6
CONTINUOUS
  2
_FILLED
 10
-57.5487074937
 20
42.8014846264
 41
3.0
 42
3.0
 43
3.0
 50
180.000003844
  0
ENDBLK
  5
346
100
AcDbEntity
  8
0
  6
BYBLOCK
 62
0
100
AcDbBlockEnd
  0
ENDSEC
  0
SECTION
  2
ENTITIES
  0
DIMENSION
  5
347
100
AcDbEntity
  8
0
100
AcDbDimension
 62
7
  6
CONTINUOUS
  2
*D0
 10
8.3769918627
 20
32.8014846264
 11
41.3841347198
 21
35.0514846264
 70
160
 71
2
 42
74.8
  3
DIMSTYLE_1
100
AcDbAlignedDimension
 13
83.1769918627
 23
23.9661459281
 14
8.3769918627
 24
23.9661459281
 50
180.0
100
AcDbRotatedDimension
  0
DIMENSION
  5
348
100
AcDbEntity
  8
0
100
AcDbDimension
 62
7
  6
CONTINUOUS
  2
*D1
 10
93.7569664111
 20
-25.3691927703
 11
93.4272819088
 21
-4.1152683445
 70
160
 71
2
 42
50.1706773967
  3
DIMSTYLE_2
100
AcDbAlignedDimension
 13
77.2769918627
 23
24.8014846264
 14
77.2769918627
 24
-25.3691927703
 50
270.0
100
AcDbRotatedDimension
  0
DIMENSION
  5
349
100
AcDbEntity
  8
0
100
AcDbDimension
 62
7
  6
CONTINUOUS
  2
*D2
 10
-47.3487052069
 20
32.8014853108
 11
-33.2364156859
 21
35.0514865451
 70
160
 71
2
 42
36.7960079153
  3
DIMSTYLE_1
100
AcDbAlignedDimension
 13
-10.5526962519
 23
17.3052186325
 14
-47.3487046366
 24
24.3014846264
 50
180.000003844
100
AcDbRotatedDimension
  0
DIMENSION
  5
34A
100
AcDbEntity
  8
0
100
AcDbDimension
 62
7
  6
CONTINUOUS
  2
*D3
 10
-57.5487074937
 20
42.8014846264
 11
-36.4078457362
 21
45.0514862029
 70
160
 71
2
 42
46.9960095312
  3
DIMSTYLE_1
100
AcDbAlignedDimension
 13
-10.5526962519
 23
17.3052186325
 14
-57.5487046366
 24
0.2161174143
 50
180.000003844
100
AcDbRotatedDimension
  0
LINE
  5
34B
100
AcDbEntity
  8
DRAFT
100
AcDbLine
 62
7
  6
CONTINUOUS
 10
10.4834677587
 20
22.3226218241
 11
10.3769918627
 21
22.2161459281
  0
LINE
  5
34C
100
AcDbEntity
  8
RACCORDO
100
AcDbLine
 62
7
  6
CONTINUOUS
 10
10.3769918627
 20
22.2161459281
 11
10.3411651756
 21
22.1803192411
  0
LINE
  5
34D
100
AcDbEntity
  8
DRAFT
100
AcDbLine
 62
7
  6
CONTINUOUS
 10
10.4834677587
 20
-22.890329968
 11
10.3769918627
 21
-22.7838540719
  0
LINE
  5
34E
100
AcDbEntity
  8
RACCORDO
100
AcDbLine
 62
7
  6
CONTINUOUS
 10
10.3769918627
 20
-22.7838540719
 11
10.3411651756
 21
-22.7480273849
  0
LINE
  5
34F
100
AcDbEntity
  8
RACCORDO
100
AcDbLine
 62
7
  6
CONTINUOUS
 10
8.3769918627
 20
-24.0338540719
 11
8.3769918627
 21
23.4661459281
  0
LINE
  5
350
100
AcDbEntity
  8
RACCORDO
100
AcDbLine
 62
253
  6
CONTINUOUS
 10
8.4128185497
 20
-22.4980654611
 11
8.4128185497
 21
-24.0338540719
  0
LINE
  5
351
100
AcDbEntity
  8
RACCORDO
100
AcDbLine
 62
253
  6
CONTINUOUS
 10
8.4128185497
 20
21.9303573173
 11
8.4128185497
 21
23.4661459281
  0
LINE
  5
352
100
AcDbEntity
  8
RACCORDO
100
AcDbLine
 62
7
  6
CONTINUOUS
 10
14.5769918627
 20
22.3226218241
 11
14.4133260805
 21
22.158956042
  0
LINE
  5
353
100
AcDbEntity
  8
RACCORDO
100
AcDbLine
 62
7
  6
CONTINUOUS
 10
14.4133260805
 20
-22.7266641858
 11
14.5769918627
 21
-22.890329968
  0
LINE
  5
354
100
AcDbEntity
  8
RACCORDO
100
AcDbLine
 62
253
  6
CONTINUOUS
 10
10.3411651756
 20
-22.7480273849
 11
10.3411651756
 21
-24.0338540719
  0
LINE
  5
355
100
AcDbEntity
  8
RACCORDO
100
AcDbLine
 62
253
  6
CONTINUOUS
 10
10.3411651756
 20
22.1803192411
 11
10.3411651756
 21
23.4661459281
  0
LINE
  5
356
100
AcDbEntity
  8
RACCORDO
100
AcDbLine
 62
7
  6
CONTINUOUS
 10
10.3769918627
 20
-24.0338540719
 11
10.3769918627
 21
-22.7838540719
  0
LINE
  5
357
100
AcDbEntity
  8
RACCORDO
100
AcDbLine
 62
7
  6
CONTINUOUS
 10
10.3769918627
 20
22.2161459281
 11
10.3769918627
 21
23.4661459281
  0
LINE
  5
358
100
AcDbEntity
  8
RACCORDO
100
AcDbLine
 62
7
  6
CONTINUOUS
 10
12.7769918627
 20
22.7161459281
 11
12.7769918627
 21
22.3226218241
  0
LINE
  5
359
100
AcDbEntity
  8
RACCORDO
100
AcDbLine
 62
7
  6
CONTINUOUS
 10
12.7769918627
 20
-22.890329968
 11
12.7769918627
 21
-23.2838540719
  0
LINE
  5
35A
100
AcDbEntity
  8
RACCORDO
100
AcDbLine
 62
253
  6
CONTINUOUS
 10
12.9406576448
 20
22.7161459281
 11
12.9406576448
 21
22.158956042
  0
LINE
  5
35B
100
AcDbEntity
  8
RACCORDO
100
AcDbLine
 62
253
  6
CONTINUOUS
 10
12.9406576448
 20
-23.2838540719
 11
12.9406576448
 21
-22.7266641858
  0
LINE
  5
35C
100
AcDbEntity
  8
RACCORDO
100
AcDbLine
 62
253
  6
CONTINUOUS
 10
14.4133260805
 20
22.7161459281
 11
14.4133260805
 21
22.158956042
  0
LINE
  5
35D
100
AcDbEntity
  8
RACCORDO
100
AcDbLine
 62
253
  6
CONTINUOUS
 10
14.4133260805
 20
-23.2838540719
 11
14.4133260805
 21
-22.7266641858
  0
LINE
  5
35E
100
AcDbEntity
  8
RACCORDO
100
AcDbLine
 62
7
  6
CONTINUOUS
 10
14.5769918627
 20
-23.2838540719
 11
14.5769918627
 21
-22.890329968
  0
LINE
  5
35F
100
AcDbEntity
  8
RACCORDO
100
AcDbLine
 62
7
  6
CONTINUOUS
 10
14.5769918627
 20
22.3226218241
 11
14.5769918627
 21
22.7161459281
  0
LINE
  5
360
100
AcDbEntity
  8
0
100
AcDbLine
 62
7
  6
CONTINUOUS
 10
14.7769918627
 20
23.8014846264
 11
14.7769918627
 21
22.2522334749
  0
LINE
  5
361
100
AcDbEntity
  8
0
100
AcDbLine
 62
7
  6
CONTINUOUS
 10
14.7769918627
 20
-24.3691927703
 11
14.7769918627
 21
-22.8199416188
  0
LINE
  5
362
100
AcDbEntity
  8
0
100
AcDbLine
 62
7
  6
CONTINUOUS
 10
14.7769918627
 20
-24.3691927703
 11
14.7769918627
 21
-25.3691927703
  0
LINE
  5
363
100
AcDbEntity
  8
0
100
AcDbLine
 62
7
  6
CONTINUOUS
 10
14.7769918627
 20
23.8014846264
 11
14.7769918627
 21
24.8014846264
  0
LINE
  5
364
100
AcDbEntity
  8
0
100
AcDbLine
 62
253
  6
CONTINUOUS
 10
15.4019918627
 20
-17.1588540754
 11
15.4019918626
 21
16.5911360585
  0
LINE
  5
365
100
AcDbEntity
  8
RACCORDO
100
AcDbLine
 62
7
  6
CONTINUOUS
 10
16.2769918627
 20
23.8014846264
 11
16.2769918627
 21
23.3412748786
  0
LINE
  5
366
100
AcDbEntity
  8
RACCORDO
100
AcDbLine
 62
7
  6
CONTINUOUS
 10
16.2769918627
 20
-23.9089830225
 11
16.2769918627
 21
-24.3691927703
  0
LINE
  5
367
100
AcDbEntity
  8
RACCORDO
100
AcDbLine
 62
253
  6
CONTINUOUS
 10
16.4769918627
 20
23.6598940863
 11
16.4769918627
 21
23.2794714798
  0
LINE
  5
368
100
AcDbEntity
  8
RACCORDO
100
AcDbLine
 62
253
  6
CONTINUOUS
 10
16.4769918627
 20
-24.2276022301
 11
16.4769918627
 21
-23.8471796236
  0
LINE
  5
369
100
AcDbEntity
  8
RACCORDO
100
AcDbLine
 62
7
  6
CONTINUOUS
 10
17.0269918627
 20
-22.7454529291
 11
17.0269918627
 21
-22.7581382199
  0
LINE
  5
36A
100
AcDbEntity
  8
RACCORDO
100
AcDbLine
 62
7
  6
CONTINUOUS
 10
17.0269918627
 20
22.1777447852
 11
17.0269918627
 21
22.1904300761
  0
LINE
  5
36B
100
AcDbEntity
  8
DRAFT
100
AcDbLine
 62
7
  6
CONTINUOUS
 10
24.6769918627
 20
22.1777447852
 11
24.7175615698
 21
22.2570572349
  0
LINE
  5
36C
100
AcDbEntity
  8
RACCORDO
100
AcDbLine
 62
7
  6
CONTINUOUS
 10
28.7769918627
 20
22.3226218241
 11
28.6133260805
 21
22.158956042
  0
LINE
  5
36D
100
AcDbEntity
  8
RACCORDO
100
AcDbLine
 62
7
  6
CONTINUOUS
 10
28.6133260805
 20
-22.7266641858
 11
28.7769918627
 21
-22.890329968
  0
LINE
  5
36E
100
AcDbEntity
  8
DRAFT
100
AcDbLine
 62
7
  6
CONTINUOUS
 10
24.7175615698
 20
-22.8247653788
 11
24.6769918627
 21
-22.7454529291
  0
LINE
  5
36F
100
AcDbEntity
  8
RACCORDO
100
AcDbLine
 62
7
  6
CONTINUOUS
 10
17.0429645675
 20
23.618915775
 11
17.1690506913
 21
22.1777447852
  0
LINE
  5
370
100
AcDbEntity
  8
RACCORDO
100
AcDbLine
 62
7
  6
CONTINUOUS
 10
18.9769918627
 20
15.0161432594
 11
18.9769918627
 21
-15.5838511312
  0
LINE
  5
371
100
AcDbEntity
  8
RACCORDO
100
AcDbLine
 62
253
  6
CONTINUOUS
 10
19.4769918627
 20
-16.0838540719
 11
19.4769918627
 21
-16.4045948692
  0
LINE
  5
372
100
AcDbEntity
  8
RACCORDO
100
AcDbLine
 62
253
  6
CONTINUOUS
 10
19.4769918627
 20
15.5161459281
 11
19.4769918627
 21
15.8368867253
  0
LINE
  5
373
100
AcDbEntity
  8
RACCORDO
100
AcDbLine
 62
7
  6
CONTINUOUS
 10
17.1690506913
 20
-22.7454529291
 11
17.0429645675
 21
-24.1866239188
  0
LINE
  5
374
100
AcDbEntity
  8
0
100
AcDbLine
 62
7
  6
CONTINUOUS
 10
14.7769918627
 20
-25.3691927703
 11
26.7769918627
 21
-25.3691927703
  0
LINE
  5
375
100
AcDbEntity
  8
0
100
AcDbLine
 62
7
  6
CONTINUOUS
 10
64.7769918627
 20
-25.3691927703
 11
76.7769918627
 21
-25.3691927703
  0
LINE
  5
376
100
AcDbEntity
  8
RACCORDO
100
AcDbLine
 62
7
  6
CONTINUOUS
 10
24.5110191578
 20
-24.1866239188
 11
24.384933034
 21
-22.7454529291
  0
LINE
  5
377
100
AcDbEntity
  8
RACCORDO
100
AcDbLine
 62
7
  6
CONTINUOUS
 10
24.384933034
 20
22.1777447852
 11
24.5110191578
 21
23.618915775
  0
LINE
  5
378
100
AcDbEntity
  8
0
100
AcDbLine
 62
253
  6
CONTINUOUS
 10
14.7769918627
 20
-24.6691927703
 11
26.7769918627
 21
-24.6691927703
  0
LINE
  5
379
100
AcDbEntity
  8
0
100
AcDbLine
 62
253
  6
CONTINUOUS
 10
64.7769918627
 20
-24.6691927703
 11
76.7769918627
 21
-24.6691927703
  0
LINE
  5
37A
100
AcDbEntity
  8
RACCORDO
100
AcDbLine
 62
7
  6
CONTINUOUS
 10
14.7769918627
 20
-24.3691927703
 11
16.8437256279
 21
-24.3691927703
  0
LINE
  5
37B
100
AcDbEntity
  8
RACCORDO
100
AcDbLine
 62
7
  6
CONTINUOUS
 10
24.7102580975
 20
-24.3691927703
 11
26.7769918627
 21
-24.3691927703
  0
LINE
  5
37C
100
AcDbEntity
  8
RACCORDO
100
AcDbLine
 62
7
  6
CONTINUOUS
 10
64.7769918627
 20
-24.3691927703
 11
66.8437256279
 21
-24.3691927703
  0
LINE
  5
37D
100
AcDbEntity
  8
RACCORDO
100
AcDbLine
 62
7
  6
CONTINUOUS
 10
74.7102580975
 20
-24.3691927703
 11
76.7769918627
 21
-24.3691927703
  0
LINE
  5
37E
100
AcDbEntity
  8
RACCORDO
100
AcDbLine
 62
7
  6
CONTINUOUS
 10
8.6270299447
 20
-24.2838540719
 11
10.1269537806
 21
-24.2838540719
  0
LINE
  5
37F
100
AcDbEntity
  8
RACCORDO
100
AcDbLine
 62
7
  6
CONTINUOUS
 10
31.4269918627
 20
-24.2838540719
 11
32.9269918627
 21
-24.2838540719
  0
LINE
  5
380
100
AcDbEntity
  8
RACCORDO
100
AcDbLine
 62
7
  6
CONTINUOUS
 10
58.6269918627
 20
-24.2838540719
 11
60.1269918627
 21
-24.2838540719
  0
LINE
  5
381
100
AcDbEntity
  8
RACCORDO
100
AcDbLine
 62
7
  6
CONTINUOUS
 10
81.4270299447
 20
-24.2838540719
 11
82.9269537806
 21
-24.2838540719
  0
LINE
  5
382
100
AcDbEntity
  8
RACCORDO
100
AcDbLine
 62
7
  6
CONTINUOUS
 10
75.0769918627
 20
-24.2276022301
 11
74.5190734775
 21
-24.2276022301
  0
LINE
  5
383
100
AcDbEntity
  8
RACCORDO
100
AcDbLine
 62
7
  6
CONTINUOUS
 10
67.0349102478
 20
-24.2276022301
 11
66.4769918627
 21
-24.2276022301
  0
LINE
  5
384
100
AcDbEntity
  8
RACCORDO
100
AcDbLine
 62
7
  6
CONTINUOUS
 10
25.0769918627
 20
-24.2276022301
 11
24.5190734775
 21
-24.2276022301
  0
LINE
  5
385
100
AcDbEntity
  8
RACCORDO
100
AcDbLine
 62
7
  6
CONTINUOUS
 10
17.0349102478
 20
-24.2276022301
 11
16.4769918627
 21
-24.2276022301
  0
LINE
  5
386
100
AcDbEntity
  8
RACCORDO
100
AcDbLine
 62
253
  6
CONTINUOUS
 10
8.3769918627
 20
-24.0338540719
 11
10.3769918627
 21
-24.0338540719
  0
LINE
  5
387
100
AcDbEntity
  8
RACCORDO
100
AcDbLine
 62
253
  6
CONTINUOUS
 10
31.1769918627
 20
-24.0338540719
 11
33.1769918627
 21
-24.0338540719
  0
LINE
  5
388
100
AcDbEntity
  8
RACCORDO
100
AcDbLine
 62
253
  6
CONTINUOUS
 10
58.3769918627
 20
-24.0338540719
 11
60.3769918627
 21
-24.0338540719
  0
LINE
  5
389
100
AcDbEntity
  8
RACCORDO
100
AcDbLine
 62
253
  6
CONTINUOUS
 10
81.1769918627
 20
-24.0338540719
 11
83.1769918627
 21
-24.0338540719
  0
LINE
  5
38A
100
AcDbEntity
  8
RACCORDO
100
AcDbLine
 62
7
  6
CONTINUOUS
 10
75.0769918627
 20
-23.8471796236
 11
74.4813216301
 21
-23.8471796236
  0
LINE
  5
38B
100
AcDbEntity
  8
RACCORDO
100
AcDbLine
 62
7
  6
CONTINUOUS
 10
67.0726620952
 20
-23.8471796236
 11
66.4769918627
 21
-23.8471796236
  0
LINE
  5
38C
100
AcDbEntity
  8
RACCORDO
100
AcDbLine
 62
7
  6
CONTINUOUS
 10
25.0769918627
 20
-23.8471796236
 11
24.4813216301
 21
-23.8471796236
  0
LINE
  5
38D
100
AcDbEntity
  8
RACCORDO
100
AcDbLine
 62
7
  6
CONTINUOUS
 10
17.0726620952
 20
-23.8471796236
 11
16.4769918627
 21
-23.8471796236
  0
LINE
  5
38E
100
AcDbEntity
  8
RACCORDO
100
AcDbLine
 62
7
  6
CONTINUOUS
 10
78.5269537806
 20
-23.5338540719
 11
76.7769918627
 21
-23.5338540719
  0
LINE
  5
38F
100
AcDbEntity
  8
RACCORDO
100
AcDbLine
 62
7
  6
CONTINUOUS
 10
64.7769918627
 20
-23.5338540719
 11
63.0270299447
 21
-23.5338540719
  0
LINE
  5
390
100
AcDbEntity
  8
RACCORDO
100
AcDbLine
 62
7
  6
CONTINUOUS
 10
28.5269537806
 20
-23.5338540719
 11
26.7769918627
 21
-23.5338540719
  0
LINE
  5
391
100
AcDbEntity
  8
RACCORDO
100
AcDbLine
 62
7
  6
CONTINUOUS
 10
14.7769918627
 20
-23.5338540719
 11
13.0270299447
 21
-23.5338540719
  0
LINE
  5
392
100
AcDbEntity
  8
RACCORDO
100
AcDbLine
 62
253
  6
CONTINUOUS
 10
78.7769918627
 20
-23.2838540719
 11
76.9769918627
 21
-23.2838540719
  0
LINE
  5
393
100
AcDbEntity
  8
RACCORDO
100
AcDbLine
 62
253
  6
CONTINUOUS
 10
64.5769918627
 20
-23.2838540719
 11
62.7769918627
 21
-23.2838540719
  0
LINE
  5
394
100
AcDbEntity
  8
RACCORDO
100
AcDbLine
 62
253
  6
CONTINUOUS
 10
28.7769918627
 20
-23.2838540719
 11
26.9769918627
 21
-23.2838540719
  0
LINE
  5
395
100
AcDbEntity
  8
RACCORDO
100
AcDbLine
 62
253
  6
CONTINUOUS
 10
14.5769918627
 20
-23.2838540719
 11
12.7769918627
 21
-23.2838540719
  0
LINE
  5
396
100
AcDbEntity
  8
DRAFT
100
AcDbLine
 62
7
  6
CONTINUOUS
 10
81.0705159666
 20
-22.890329968
 11
78.7769918627
 21
-22.890329968
  0
LINE
  5
397
100
AcDbEntity
  8
DRAFT
100
AcDbLine
 62
7
  6
CONTINUOUS
 10
62.7769918627
 20
-22.890329968
 11
60.4834677587
 21
-22.890329968
  0
LINE
  5
398
100
AcDbEntity
  8
DRAFT
100
AcDbLine
 62
7
  6
CONTINUOUS
 10
31.0705159666
 20
-22.890329968
 11
28.7769918627
 21
-22.890329968
  0
LINE
  5
399
100
AcDbEntity
  8
DRAFT
100
AcDbLine
 62
7
  6
CONTINUOUS
 10
12.7769918627
 20
-22.890329968
 11
10.4834677587
 21
-22.890329968
  0
LINE
  5
39A
100
AcDbEntity
  8
DRAFT
100
AcDbLine
 62
7
  6
CONTINUOUS
 10
14.5769918627
 20
-22.890329968
 11
14.7769918627
 21
-22.890329968
  0
LINE
  5
39B
100
AcDbEntity
  8
DRAFT
100
AcDbLine
 62
7
  6
CONTINUOUS
 10
26.7769918627
 20
-22.890329968
 11
26.9769918627
 21
-22.890329968
  0
LINE
  5
39C
100
AcDbEntity
  8
DRAFT
100
AcDbLine
 62
7
  6
CONTINUOUS
 10
64.5769918627
 20
-22.890329968
 11
64.7769918627
 21
-22.890329968
  0
LINE
  5
39D
100
AcDbEntity
  8
DRAFT
100
AcDbLine
 62
7
  6
CONTINUOUS
 10
76.7769918627
 20
-22.890329968
 11
76.9769918627
 21
-22.890329968
  0
LINE
  5
39E
100
AcDbEntity
  8
DRAFT
100
AcDbLine
 62
7
  6
CONTINUOUS
 10
58.3769918627
 20
-22.766399007
 11
33.1769918627
 21
-22.766399007
  0
LINE
  5
39F
100
AcDbEntity
  8
DRAFT
100
AcDbLine
 62
7
  6
CONTINUOUS
 10
16.8769918627
 20
-22.7454529291
 11
24.6769918627
 21
-22.7454529291
  0
LINE
  5
3A0
100
AcDbEntity
  8
DRAFT
100
AcDbLine
 62
7
  6
CONTINUOUS
 10
66.8769918627
 20
-22.7454529291
 11
74.6769918627
 21
-22.7454529291
  0
LINE
  5
3A1
100
AcDbEntity
  8
RACCORDO
100
AcDbLine
 62
253
  6
CONTINUOUS
 10
8.8099043357
 20
-22.6009035226
 11
82.7440793896
 21
-22.6009035226
  0
LINE
  5
3A2
100
AcDbEntity
  8
RACCORDO
100
AcDbLine
 62
7
  6
CONTINUOUS
 10
24.5269918627
 20
-22.7454529291
 11
24.5269918627
 21
-22.7581382199
  0
LINE
  5
3A3
100
AcDbEntity
  8
RACCORDO
100
AcDbLine
 62
7
  6
CONTINUOUS
 10
24.5269918627
 20
22.1777447852
 11
24.5269918627
 21
22.1904300761
  0
LINE
  5
3A4
100
AcDbEntity
  8
RACCORDO
100
AcDbLine
 62
253
  6
CONTINUOUS
 10
25.0769918627
 20
23.6598940863
 11
25.0769918627
 21
23.2794714798
  0
LINE
  5
3A5
100
AcDbEntity
  8
RACCORDO
100
AcDbLine
 62
253
  6
CONTINUOUS
 10
25.0769918627
 20
-24.2276022301
 11
25.0769918627
 21
-23.8471796236
  0
LINE
  5
3A6
100
AcDbEntity
  8
RACCORDO
100
AcDbLine
 62
7
  6
CONTINUOUS
 10
25.2769918627
 20
-24.3691927703
 11
25.2769918627
 21
-23.9089830225
  0
LINE
  5
3A7
100
AcDbEntity
  8
RACCORDO
100
AcDbLine
 62
7
  6
CONTINUOUS
 10
25.2769918627
 20
23.3412748786
 11
25.2769918627
 21
23.8014846264
  0
LINE
  5
3A8
100
AcDbEntity
  8
0
100
AcDbLine
 62
7
  6
CONTINUOUS
 10
26.7769918627
 20
23.8014846264
 11
26.7769918627
 21
22.2522334749
  0
LINE
  5
3A9
100
AcDbEntity
  8
0
100
AcDbLine
 62
7
  6
CONTINUOUS
 10
26.7769918627
 20
-24.3691927703
 11
26.7769918627
 21
-22.8199416188
  0
LINE
  5
3AA
100
AcDbEntity
  8
0
100
AcDbLine
 62
7
  6
CONTINUOUS
 10
26.7769918627
 20
-24.3691927703
 11
26.7769918627
 21
-25.3691927703
  0
LINE
  5
3AB
100
AcDbEntity
  8
0
100
AcDbLine
 62
7
  6
CONTINUOUS
 10
26.7769918627
 20
23.8014846264
 11
26.7769918627
 21
24.8014846264
  0
LINE
  5
3AC
100
AcDbEntity
  8
RACCORDO
100
AcDbLine
 62
7
  6
CONTINUOUS
 10
26.9769918627
 20
22.7161459281
 11
26.9769918627
 21
22.3226218241
  0
LINE
  5
3AD
100
AcDbEntity
  8
RACCORDO
100
AcDbLine
 62
7
  6
CONTINUOUS
 10
26.9769918627
 20
-22.890329968
 11
26.9769918627
 21
-23.2838540719
  0
LINE
  5
3AE
100
AcDbEntity
  8
RACCORDO
100
AcDbLine
 62
253
  6
CONTINUOUS
 10
27.1406576448
 20
22.7161459281
 11
27.1406576448
 21
22.158956042
  0
LINE
  5
3AF
100
AcDbEntity
  8
RACCORDO
100
AcDbLine
 62
253
  6
CONTINUOUS
 10
27.1406576448
 20
-22.7266641858
 11
27.1406576448
 21
-23.2838540719
  0
LINE
  5
3B0
100
AcDbEntity
  8
RACCORDO
100
AcDbLine
 62
253
  6
CONTINUOUS
 10
8.822750733
 20
-21.6513255522
 11
82.7312329923
 21
-21.6513255522
  0
LINE
  5
3B1
100
AcDbEntity
  8
0
100
AcDbLine
 62
253
  6
CONTINUOUS
 10
17.9019918627
 20
-19.6588540719
 11
73.6519918627
 21
-19.6588540719
  0
LINE
  5
3B2
100
AcDbEntity
  8
RACCORDO
100
AcDbLine
 62
253
  6
CONTINUOUS
 10
28.6133260805
 20
22.7161459281
 11
28.6133260805
 21
22.158956042
  0
LINE
  5
3B3
100
AcDbEntity
  8
RACCORDO
100
AcDbLine
 62
253
  6
CONTINUOUS
 10
28.6133260805
 20
-22.7266641858
 11
28.6133260805
 21
-23.2838540719
  0
LINE
  5
3B4
100
AcDbEntity
  8
RACCORDO
100
AcDbLine
 62
7
  6
CONTINUOUS
 10
28.7769918627
 20
-23.2838540719
 11
28.7769918627
 21
-22.890329968
  0
LINE
  5
3B5
100
AcDbEntity
  8
RACCORDO
100
AcDbLine
 62
7
  6
CONTINUOUS
 10
28.7769918627
 20
22.3226218241
 11
28.7769918627
 21
22.7161459281
  0
LINE
  5
3B6
100
AcDbEntity
  8
RACCORDO
100
AcDbLine
 62
253
  6
CONTINUOUS
 10
17.9019918627
 20
-19.6588540719
 11
19.3400804105
 21
-16.394563985
  0
LINE
  5
3B7
100
AcDbEntity
  8
DRAFT
100
AcDbLine
 62
7
  6
CONTINUOUS
 10
16.8769918627
 20
-22.7454529291
 11
16.8364221555
 21
-22.8247653788
  0
LINE
  5
3B8
100
AcDbEntity
  8
RACCORDO
100
AcDbLine
 62
253
  6
CONTINUOUS
 10
19.4769918627
 20
-16.4045948692
 11
72.0769918627
 21
-16.4045948692
  0
LINE
  5
3B9
100
AcDbEntity
  8
RACCORDO
100
AcDbLine
 62
7
  6
CONTINUOUS
 10
19.4769946468
 20
-16.0838540719
 11
72.076988828
 21
-16.0838540719
  0
LINE
  5
3BA
100
AcDbEntity
  8
DRAFT
100
AcDbLine
 62
7
  6
CONTINUOUS
 10
16.8364221555
 20
22.2570572349
 11
16.8769918627
 21
22.1777447852
  0
LINE
  5
3BB
100
AcDbEntity
  8
RACCORDO
100
AcDbLine
 62
253
  6
CONTINUOUS
 10
17.9019918627
 20
19.0911459281
 11
19.3400804105
 21
15.8268558412
  0
LINE
  5
3BC
100
AcDbEntity
  8
RACCORDO
100
AcDbLine
 62
7
  6
CONTINUOUS
 10
31.1769918627
 20
-22.7489439421
 11
31.1769918627
 21
-24.0338540719
  0
LINE
  5
3BD
100
AcDbEntity
  8
RACCORDO
100
AcDbLine
 62
7
  6
CONTINUOUS
 10
31.1769918627
 20
22.1812357982
 11
31.1769918627
 21
23.4661459281
  0
LINE
  5
3BE
100
AcDbEntity
  8
RACCORDO
100
AcDbLine
 62
7
  6
CONTINUOUS
 10
33.1769918627
 20
-22.7489439421
 11
33.1769918627
 21
-24.0338540719
  0
LINE
  5
3BF
100
AcDbEntity
  8
RACCORDO
100
AcDbLine
 62
7
  6
CONTINUOUS
 10
33.1769918627
 20
22.1812357982
 11
33.1769918627
 21
23.4661459281
  0
LINE
  5
3C0
100
AcDbEntity
  8
RACCORDO
100
AcDbLine
 62
253
  6
CONTINUOUS
 10
8.4128185497
 20
-22.4980654611
 11
8.5599425361
 21
-22.3509414747
  0
LINE
  5
3C1
100
AcDbEntity
  8
RACCORDO
100
AcDbLine
 62
253
  6
CONTINUOUS
 10
8.6740087472
 20
-22.7367991111
 11
8.8099043357
 21
-22.6009035226
  0
LINE
  5
3C2
100
AcDbEntity
  8
RACCORDO
100
AcDbLine
 62
253
  6
CONTINUOUS
 10
8.5599425361
 20
21.7832333308
 11
8.4128185497
 21
21.9303573173
  0
LINE
  5
3C3
100
AcDbEntity
  8
RACCORDO
100
AcDbLine
 62
253
  6
CONTINUOUS
 10
8.6740087472
 20
22.1690909673
 11
8.8099043357
 21
22.0331953788
  0
LINE
  5
3C4
100
AcDbEntity
  8
RACCORDO
100
AcDbLine
 62
7
  6
CONTINUOUS
 10
12.7769918627
 20
-22.890329968
 11
12.9406576448
 21
-22.7266641858
  0
LINE
  5
3C5
100
AcDbEntity
  8
RACCORDO
100
AcDbLine
 62
7
  6
CONTINUOUS
 10
12.9406576448
 20
22.158956042
 11
12.7769918627
 21
22.3226218241
  0
LINE
  5
3C6
100
AcDbEntity
  8
DRAFT
100
AcDbLine
 62
7
  6
CONTINUOUS
 10
60.3769918627
 20
22.2161459281
 11
60.4834677587
 21
22.3226218241
  0
LINE
  5
3C7
100
AcDbEntity
  8
RACCORDO
100
AcDbLine
 62
253
  6
CONTINUOUS
 10
76.1519915108
 20
16.5911457731
 11
72.8697314016
 21
15.1451151041
  0
LINE
  5
3C8
100
AcDbEntity
  8
RACCORDO
100
AcDbLine
 62
253
  6
CONTINUOUS
 10
76.1519918627
 20
-17.1588540719
 11
72.8697314016
 21
-15.7128232479
  0
LINE
  5
3C9
100
AcDbEntity
  8
DRAFT
100
AcDbLine
 62
7
  6
CONTINUOUS
 10
60.4834677587
 20
-22.890329968
 11
60.3769918627
 21
-22.7838540719
  0
LINE
  5
3CA
100
AcDbEntity
  8
RACCORDO
100
AcDbLine
 62
7
  6
CONTINUOUS
 10
64.5769918627
 20
22.3226218241
 11
64.4133260805
 21
22.158956042
  0
LINE
  5
3CB
100
AcDbEntity
  8
RACCORDO
100
AcDbLine
 62
253
  6
CONTINUOUS
 10
76.1519918627
 20
-0.2838540719
 11
72.5769918627
 21
-0.2840330865
  0
LINE
  5
3CC
100
AcDbEntity
  8
RACCORDO
100
AcDbLine
 62
253
  6
CONTINUOUS
 10
15.4019918627
 20
-0.2838540719
 11
18.7393011854
 21
-0.2838540719
  0
LINE
  5
3CD
100
AcDbEntity
  8
RACCORDO
100
AcDbLine
 62
7
  6
CONTINUOUS
 10
64.4133260805
 20
-22.7266641858
 11
64.5769918627
 21
-22.890329968
  0
LINE
  5
3CE
100
AcDbEntity
  8
RACCORDO
100
AcDbLine
 62
7
  6
CONTINUOUS
 10
26.9769918627
 20
-22.890329968
 11
27.1406576448
 21
-22.7266641858
  0
LINE
  5
3CF
100
AcDbEntity
  8
RACCORDO
100
AcDbLine
 62
253
  6
CONTINUOUS
 10
15.4019918627
 20
-17.1588540719
 11
18.6842523238
 21
-15.7128232492
  0
LINE
  5
3D0
100
AcDbEntity
  8
RACCORDO
100
AcDbLine
 62
253
  6
CONTINUOUS
 10
15.4019918627
 20
16.5911459246
 11
18.6842068682
 21
15.1451475357
  0
LINE
  5
3D1
100
AcDbEntity
  8
RACCORDO
100
AcDbLine
 62
7
  6
CONTINUOUS
 10
27.1406576448
 20
22.158956042
 11
26.9769918627
 21
22.3226218241
  0
LINE
  5
3D2
100
AcDbEntity
  8
DRAFT
100
AcDbLine
 62
7
  6
CONTINUOUS
 10
31.1769918627
 20
-22.7838540719
 11
31.0705159666
 21
-22.890329968
  0
LINE
  5
3D3
100
AcDbEntity
  8
DRAFT
100
AcDbLine
 62
7
  6
CONTINUOUS
 10
31.0705159666
 20
22.3226218241
 11
31.1769918627
 21
22.2161459281
  0
LINE
  5
3D4
100
AcDbEntity
  8
RACCORDO
100
AcDbLine
 62
7
  6
CONTINUOUS
 10
78.7769918627
 20
22.3226218241
 11
78.6133260805
 21
22.158956042
  0
LINE
  5
3D5
100
AcDbEntity
  8
RACCORDO
100
AcDbLine
 62
7
  6
CONTINUOUS
 10
78.6133260805
 20
-22.7266641858
 11
78.7769918627
 21
-22.890329968
  0
LINE
  5
3D6
100
AcDbEntity
  8
RACCORDO
100
AcDbLine
 62
7
  6
CONTINUOUS
 10
58.3769918627
 20
-22.7489439421
 11
58.3769918627
 21
-24.0338540719
  0
LINE
  5
3D7
100
AcDbEntity
  8
RACCORDO
100
AcDbLine
 62
7
  6
CONTINUOUS
 10
58.3769918627
 20
22.1812357982
 11
58.3769918627
 21
23.4661459281
  0
LINE
  5
3D8
100
AcDbEntity
  8
RACCORDO
100
AcDbLine
 62
253
  6
CONTINUOUS
 10
82.7440793896
 20
22.0331953788
 11
82.8799749781
 21
22.1690909673
  0
LINE
  5
3D9
100
AcDbEntity
  8
RACCORDO
100
AcDbLine
 62
253
  6
CONTINUOUS
 10
83.1411651756
 20
21.9303573173
 11
82.9940411892
 21
21.7832333308
  0
LINE
  5
3DA
100
AcDbEntity
  8
RACCORDO
100
AcDbLine
 62
253
  6
CONTINUOUS
 10
82.8799749781
 20
-22.7367991111
 11
82.7440793896
 21
-22.6009035226
  0
LINE
  5
3DB
100
AcDbEntity
  8
RACCORDO
100
AcDbLine
 62
253
  6
CONTINUOUS
 10
82.9940411892
 20
-22.3509414747
 11
83.1411651756
 21
-22.4980654611
  0
LINE
  5
3DC
100
AcDbEntity
  8
RACCORDO
100
AcDbLine
 62
7
  6
CONTINUOUS
 10
60.3769918627
 20
-22.7489439421
 11
60.3769918627
 21
-24.0338540719
  0
LINE
  5
3DD
100
AcDbEntity
  8
RACCORDO
100
AcDbLine
 62
7
  6
CONTINUOUS
 10
60.3769918627
 20
22.1812357982
 11
60.3769918627
 21
23.4661459281
  0
LINE
  5
3DE
100
AcDbEntity
  8
DRAFT
100
AcDbLine
 62
7
  6
CONTINUOUS
 10
74.6769918627
 20
22.1777447852
 11
74.7175615698
 21
22.2570572349
  0
LINE
  5
3DF
100
AcDbEntity
  8
RACCORDO
100
AcDbLine
 62
7
  6
CONTINUOUS
 10
72.0769890785
 20
15.5161459281
 11
19.4769948973
 21
15.5161459281
  0
LINE
  5
3E0
100
AcDbEntity
  8
RACCORDO
100
AcDbLine
 62
253
  6
CONTINUOUS
 10
72.0769918627
 20
15.8368867253
 11
19.4769918627
 21
15.8368867253
  0
LINE
  5
3E1
100
AcDbEntity
  8
DRAFT
100
AcDbLine
 62
7
  6
CONTINUOUS
 10
74.7175615698
 20
-22.8247653788
 11
74.6769918627
 21
-22.7454529291
  0
LINE
  5
3E2
100
AcDbEntity
  8
RACCORDO
100
AcDbLine
 62
7
  6
CONTINUOUS
 10
62.7769918627
 20
22.7161459281
 11
62.7769918627
 21
22.3226218241
  0
LINE
  5
3E3
100
AcDbEntity
  8
RACCORDO
100
AcDbLine
 62
7
  6
CONTINUOUS
 10
62.7769918627
 20
-22.890329968
 11
62.7769918627
 21
-23.2838540719
  0
LINE
  5
3E4
100
AcDbEntity
  8
RACCORDO
100
AcDbLine
 62
253
  6
CONTINUOUS
 10
62.9406576448
 20
22.7161459281
 11
62.9406576448
 21
22.158956042
  0
LINE
  5
3E5
100
AcDbEntity
  8
RACCORDO
100
AcDbLine
 62
253
  6
CONTINUOUS
 10
62.9406576448
 20
-23.2838540719
 11
62.9406576448
 21
-22.7266641858
  0
LINE
  5
3E6
100
AcDbEntity
  8
RACCORDO
100
AcDbLine
 62
253
  6
CONTINUOUS
 10
64.4133260805
 20
22.7161459281
 11
64.4133260805
 21
22.158956042
  0
LINE
  5
3E7
100
AcDbEntity
  8
RACCORDO
100
AcDbLine
 62
253
  6
CONTINUOUS
 10
64.4133260805
 20
-23.2838540719
 11
64.4133260805
 21
-22.7266641858
  0
LINE
  5
3E8
100
AcDbEntity
  8
RACCORDO
100
AcDbLine
 62
7
  6
CONTINUOUS
 10
64.5769918627
 20
-23.2838540719
 11
64.5769918627
 21
-22.890329968
  0
LINE
  5
3E9
100
AcDbEntity
  8
RACCORDO
100
AcDbLine
 62
7
  6
CONTINUOUS
 10
64.5769918627
 20
22.3226218241
 11
64.5769918627
 21
22.7161459281
  0
LINE
  5
3EA
100
AcDbEntity
  8
0
100
AcDbLine
 62
7
  6
CONTINUOUS
 10
64.7769918627
 20
23.8014846264
 11
64.7769918627
 21
22.2522334749
  0
LINE
  5
3EB
100
AcDbEntity
  8
0
100
AcDbLine
 62
7
  6
CONTINUOUS
 10
64.7769918627
 20
-24.3691927703
 11
64.7769918627
 21
-22.8199416188
  0
LINE
  5
3EC
100
AcDbEntity
  8
0
100
AcDbLine
 62
7
  6
CONTINUOUS
 10
64.7769918627
 20
-24.3691927703
 11
64.7769918627
 21
-25.3691927703
  0
LINE
  5
3ED
100
AcDbEntity
  8
0
100
AcDbLine
 62
7
  6
CONTINUOUS
 10
64.7769918627
 20
23.8014846264
 11
64.7769918627
 21
24.8014846264
  0
LINE
  5
3EE
100
AcDbEntity
  8
RACCORDO
100
AcDbLine
 62
253
  6
CONTINUOUS
 10
73.6519918627
 20
19.0911459281
 11
72.2139033148
 21
15.8268558412
  0
LINE
  5
3EF
100
AcDbEntity
  8
RACCORDO
100
AcDbLine
 62
253
  6
CONTINUOUS
 10
73.6519918627
 20
-19.6588540719
 11
72.2139033148
 21
-16.394563985
  0
LINE
  5
3F0
100
AcDbEntity
  8
RACCORDO
100
AcDbLine
 62
7
  6
CONTINUOUS
 10
66.2769918627
 20
23.8014846264
 11
66.2769918627
 21
23.3412748786
  0
LINE
  5
3F1
100
AcDbEntity
  8
RACCORDO
100
AcDbLine
 62
7
  6
CONTINUOUS
 10
66.2769918627
 20
-23.9089830225
 11
66.2769918627
 21
-24.3691927703
  0
LINE
  5
3F2
100
AcDbEntity
  8
RACCORDO
100
AcDbLine
 62
253
  6
CONTINUOUS
 10
66.4769918627
 20
23.6598940863
 11
66.4769918627
 21
23.2794714798
  0
LINE
  5
3F3
100
AcDbEntity
  8
RACCORDO
100
AcDbLine
 62
253
  6
CONTINUOUS
 10
66.4769918627
 20
-24.2276022301
 11
66.4769918627
 21
-23.8471796236
  0
LINE
  5
3F4
100
AcDbEntity
  8
RACCORDO
100
AcDbLine
 62
7
  6
CONTINUOUS
 10
67.0269918627
 20
-22.7454529291
 11
67.0269918627
 21
-22.7581382199
  0
LINE
  5
3F5
100
AcDbEntity
  8
RACCORDO
100
AcDbLine
 62
7
  6
CONTINUOUS
 10
67.0269918627
 20
22.1777447852
 11
67.0269918627
 21
22.1904300761
  0
LINE
  5
3F6
100
AcDbEntity
  8
0
100
AcDbLine
 62
253
  6
CONTINUOUS
 10
17.9019918627
 20
19.0911459281
 11
73.6519918627
 21
19.0911459281
  0
LINE
  5
3F7
100
AcDbEntity
  8
RACCORDO
100
AcDbLine
 62
253
  6
CONTINUOUS
 10
82.7312329923
 20
21.0836174085
 11
8.822750733
 21
21.0836174084
  0
LINE
  5
3F8
100
AcDbEntity
  8
RACCORDO
100
AcDbLine
 62
253
  6
CONTINUOUS
 10
82.7440793896
 20
22.0331953788
 11
8.8099043357
 21
22.0331953788
  0
LINE
  5
3F9
100
AcDbEntity
  8
RACCORDO
100
AcDbLine
 62
7
  6
CONTINUOUS
 10
67.0429645675
 20
23.618915775
 11
67.1690506913
 21
22.1777447852
  0
LINE
  5
3FA
100
AcDbEntity
  8
RACCORDO
100
AcDbLine
 62
7
  6
CONTINUOUS
 10
67.1690506913
 20
-22.7454529291
 11
67.0429645675
 21
-24.1866239188
  0
LINE
  5
3FB
100
AcDbEntity
  8
DRAFT
100
AcDbLine
 62
7
  6
CONTINUOUS
 10
16.8769918627
 20
22.1777447852
 11
24.6769918627
 21
22.1777447852
  0
LINE
  5
3FC
100
AcDbEntity
  8
DRAFT
100
AcDbLine
 62
7
  6
CONTINUOUS
 10
66.8769918627
 20
22.1777447852
 11
74.6769918627
 21
22.1777447852
  0
LINE
  5
3FD
100
AcDbEntity
  8
DRAFT
100
AcDbLine
 62
7
  6
CONTINUOUS
 10
58.3769918627
 20
22.1986908632
 11
33.1769918627
 21
22.1986908632
  0
LINE
  5
3FE
100
AcDbEntity
  8
DRAFT
100
AcDbLine
 62
7
  6
CONTINUOUS
 10
10.4834677587
 20
22.3226218241
 11
12.7769918627
 21
22.3226218241
  0
LINE
  5
3FF
100
AcDbEntity
  8
DRAFT
100
AcDbLine
 62
7
  6
CONTINUOUS
 10
14.5769918627
 20
22.3226218241
 11
14.7769918627
 21
22.3226218241
  0
LINE
  5
400
100
AcDbEntity
  8
DRAFT
100
AcDbLine
 62
7
  6
CONTINUOUS
 10
26.7769918627
 20
22.3226218241
 11
26.9769918627
 21
22.3226218241
  0
LINE
  5
401
100
AcDbEntity
  8
DRAFT
100
AcDbLine
 62
7
  6
CONTINUOUS
 10
28.7769918627
 20
22.3226218241
 11
31.0705159666
 21
22.3226218241
  0
LINE
  5
402
100
AcDbEntity
  8
DRAFT
100
AcDbLine
 62
7
  6
CONTINUOUS
 10
60.4834677587
 20
22.3226218241
 11
62.7769918627
 21
22.3226218241
  0
LINE
  5
403
100
AcDbEntity
  8
DRAFT
100
AcDbLine
 62
7
  6
CONTINUOUS
 10
64.5769918627
 20
22.3226218241
 11
64.7769918627
 21
22.3226218241
  0
LINE
  5
404
100
AcDbEntity
  8
DRAFT
100
AcDbLine
 62
7
  6
CONTINUOUS
 10
76.7769918627
 20
22.3226218241
 11
76.9769918627
 21
22.3226218241
  0
LINE
  5
405
100
AcDbEntity
  8
DRAFT
100
AcDbLine
 62
7
  6
CONTINUOUS
 10
78.7769918627
 20
22.3226218241
 11
81.0705159666
 21
22.3226218241
  0
LINE
  5
406
100
AcDbEntity
  8
RACCORDO
100
AcDbLine
 62
253
  6
CONTINUOUS
 10
12.7769918627
 20
22.7161459281
 11
14.5769918627
 21
22.7161459281
  0
LINE
  5
407
100
AcDbEntity
  8
RACCORDO
100
AcDbLine
 62
253
  6
CONTINUOUS
 10
26.9769918627
 20
22.7161459281
 11
28.7769918627
 21
22.7161459281
  0
LINE
  5
408
100
AcDbEntity
  8
RACCORDO
100
AcDbLine
 62
253
  6
CONTINUOUS
 10
62.7769918627
 20
22.7161459281
 11
64.5769918627
 21
22.7161459281
  0
LINE
  5
409
100
AcDbEntity
  8
RACCORDO
100
AcDbLine
 62
253
  6
CONTINUOUS
 10
76.9769918627
 20
22.7161459281
 11
78.7769918627
 21
22.7161459281
  0
LINE
  5
40A
100
AcDbEntity
  8
RACCORDO
100
AcDbLine
 62
7
  6
CONTINUOUS
 10
13.0270299447
 20
22.9661459281
 11
14.7769918627
 21
22.9661459281
  0
LINE
  5
40B
100
AcDbEntity
  8
RACCORDO
100
AcDbLine
 62
7
  6
CONTINUOUS
 10
26.7769918627
 20
22.9661459281
 11
28.5269537806
 21
22.9661459281
  0
LINE
  5
40C
100
AcDbEntity
  8
RACCORDO
100
AcDbLine
 62
7
  6
CONTINUOUS
 10
63.0270299447
 20
22.9661459281
 11
64.7769918627
 21
22.9661459281
  0
LINE
  5
40D
100
AcDbEntity
  8
RACCORDO
100
AcDbLine
 62
7
  6
CONTINUOUS
 10
76.7769918627
 20
22.9661459281
 11
78.5269537806
 21
22.9661459281
  0
LINE
  5
40E
100
AcDbEntity
  8
RACCORDO
100
AcDbLine
 62
7
  6
CONTINUOUS
 10
16.4769918627
 20
23.2794714798
 11
17.0726620952
 21
23.2794714798
  0
LINE
  5
40F
100
AcDbEntity
  8
RACCORDO
100
AcDbLine
 62
7
  6
CONTINUOUS
 10
24.4813216301
 20
23.2794714798
 11
25.0769918627
 21
23.2794714798
  0
LINE
  5
410
100
AcDbEntity
  8
RACCORDO
100
AcDbLine
 62
7
  6
CONTINUOUS
 10
66.4769918627
 20
23.2794714798
 11
67.0726620952
 21
23.2794714798
  0
LINE
  5
411
100
AcDbEntity
  8
RACCORDO
100
AcDbLine
 62
7
  6
CONTINUOUS
 10
74.4813216301
 20
23.2794714798
 11
75.0769918627
 21
23.2794714798
  0
LINE
  5
412
100
AcDbEntity
  8
RACCORDO
100
AcDbLine
 62
253
  6
CONTINUOUS
 10
83.1769918627
 20
23.4661459281
 11
81.1769918627
 21
23.4661459281
  0
LINE
  5
413
100
AcDbEntity
  8
RACCORDO
100
AcDbLine
 62
253
  6
CONTINUOUS
 10
60.3769918627
 20
23.4661459281
 11
58.3769918627
 21
23.4661459281
  0
LINE
  5
414
100
AcDbEntity
  8
RACCORDO
100
AcDbLine
 62
253
  6
CONTINUOUS
 10
33.1769918627
 20
23.4661459281
 11
31.1769918627
 21
23.4661459281
  0
LINE
  5
415
100
AcDbEntity
  8
RACCORDO
100
AcDbLine
 62
253
  6
CONTINUOUS
 10
10.3769918627
 20
23.4661459281
 11
8.3769918627
 21
23.4661459281
  0
LINE
  5
416
100
AcDbEntity
  8
RACCORDO
100
AcDbLine
 62
7
  6
CONTINUOUS
 10
16.4769918627
 20
23.6598940863
 11
17.0349102478
 21
23.6598940863
  0
LINE
  5
417
100
AcDbEntity
  8
RACCORDO
100
AcDbLine
 62
7
  6
CONTINUOUS
 10
24.5190734775
 20
23.6598940863
 11
25.0769918627
 21
23.6598940863
  0
LINE
  5
418
100
AcDbEntity
  8
RACCORDO
100
AcDbLine
 62
7
  6
CONTINUOUS
 10
66.4769918627
 20
23.6598940863
 11
67.0349102478
 21
23.6598940863
  0
LINE
  5
419
100
AcDbEntity
  8
RACCORDO
100
AcDbLine
 62
7
  6
CONTINUOUS
 10
74.5190734775
 20
23.6598940863
 11
75.0769918627
 21
23.6598940863
  0
LINE
  5
41A
100
AcDbEntity
  8
RACCORDO
100
AcDbLine
 62
7
  6
CONTINUOUS
 10
82.9269537806
 20
23.7161459281
 11
81.4270299447
 21
23.7161459281
  0
LINE
  5
41B
100
AcDbEntity
  8
RACCORDO
100
AcDbLine
 62
7
  6
CONTINUOUS
 10
60.1269918627
 20
23.7161459281
 11
58.6269918627
 21
23.7161459281
  0
LINE
  5
41C
100
AcDbEntity
  8
RACCORDO
100
AcDbLine
 62
7
  6
CONTINUOUS
 10
32.9269918627
 20
23.7161459281
 11
31.4269918627
 21
23.7161459281
  0
LINE
  5
41D
100
AcDbEntity
  8
RACCORDO
100
AcDbLine
 62
7
  6
CONTINUOUS
 10
10.1269537806
 20
23.7161459281
 11
8.6270299447
 21
23.7161459281
  0
LINE
  5
41E
100
AcDbEntity
  8
RACCORDO
100
AcDbLine
 62
7
  6
CONTINUOUS
 10
76.7769918627
 20
23.8014846264
 11
74.7102580975
 21
23.8014846264
  0
LINE
  5
41F
100
AcDbEntity
  8
RACCORDO
100
AcDbLine
 62
7
  6
CONTINUOUS
 10
66.8437256279
 20
23.8014846264
 11
64.7769918627
 21
23.8014846264
  0
LINE
  5
420
100
AcDbEntity
  8
RACCORDO
100
AcDbLine
 62
7
  6
CONTINUOUS
 10
26.7769918627
 20
23.8014846264
 11
24.7102580975
 21
23.8014846264
  0
LINE
  5
421
100
AcDbEntity
  8
RACCORDO
100
AcDbLine
 62
7
  6
CONTINUOUS
 10
16.8437256279
 20
23.8014846264
 11
14.7769918627
 21
23.8014846264
  0
LINE
  5
422
100
AcDbEntity
  8
0
100
AcDbLine
 62
253
  6
CONTINUOUS
 10
76.7769918627
 20
24.1014846264
 11
64.7769918627
 21
24.1014846264
  0
LINE
  5
423
100
AcDbEntity
  8
0
100
AcDbLine
 62
253
  6
CONTINUOUS
 10
26.7769918627
 20
24.1014846264
 11
14.7769918627
 21
24.1014846264
  0
LINE
  5
424
100
AcDbEntity
  8
0
100
AcDbLine
 62
7
  6
CONTINUOUS
 10
76.7769918627
 20
24.8014846264
 11
64.7769918627
 21
24.8014846264
  0
LINE
  5
425
100
AcDbEntity
  8
0
100
AcDbLine
 62
7
  6
CONTINUOUS
 10
26.7769918627
 20
24.8014846264
 11
14.7769918627
 21
24.8014846264
  0
LINE
  5
426
100
AcDbEntity
  8
RACCORDO
100
AcDbLine
 62
7
  6
CONTINUOUS
 10
74.5110191578
 20
-24.1866239188
 11
74.384933034
 21
-22.7454529291
  0
LINE
  5
427
100
AcDbEntity
  8
RACCORDO
100
AcDbLine
 62
253
  6
CONTINUOUS
 10
72.0769918627
 20
-16.0838540719
 11
72.0769918627
 21
-16.4045948692
  0
LINE
  5
428
100
AcDbEntity
  8
RACCORDO
100
AcDbLine
 62
253
  6
CONTINUOUS
 10
72.0769918627
 20
15.5161459281
 11
72.0769918627
 21
15.8368867253
  0
LINE
  5
429
100
AcDbEntity
  8
RACCORDO
100
AcDbLine
 62
7
  6
CONTINUOUS
 10
72.5769918627
 20
-15.5838514032
 11
72.5769918627
 21
15.0161429874
  0
LINE
  5
42A
100
AcDbEntity
  8
RACCORDO
100
AcDbLine
 62
7
  6
CONTINUOUS
 10
74.384933034
 20
22.1777447852
 11
74.5110191578
 21
23.618915775
  0
LINE
  5
42B
100
AcDbEntity
  8
RACCORDO
100
AcDbLine
 62
7
  6
CONTINUOUS
 10
62.7769918627
 20
-22.890329968
 11
62.9406576448
 21
-22.7266641858
  0
LINE
  5
42C
100
AcDbEntity
  8
RACCORDO
100
AcDbLine
 62
7
  6
CONTINUOUS
 10
62.9406576448
 20
22.158956042
 11
62.7769918627
 21
22.3226218241
  0
LINE
  5
42D
100
AcDbEntity
  8
RACCORDO
100
AcDbLine
 62
7
  6
CONTINUOUS
 10
74.5269918627
 20
-22.7454529291
 11
74.5269918627
 21
-22.7581382199
  0
LINE
  5
42E
100
AcDbEntity
  8
RACCORDO
100
AcDbLine
 62
7
  6
CONTINUOUS
 10
74.5269918627
 20
22.1777447852
 11
74.5269918627
 21
22.1904300761
  0
LINE
  5
42F
100
AcDbEntity
  8
RACCORDO
100
AcDbLine
 62
253
  6
CONTINUOUS
 10
75.0769918627
 20
23.6598940863
 11
75.0769918627
 21
23.2794714798
  0
LINE
  5
430
100
AcDbEntity
  8
RACCORDO
100
AcDbLine
 62
253
  6
CONTINUOUS
 10
75.0769918627
 20
-24.2276022301
 11
75.0769918627
 21
-23.8471796236
  0
LINE
  5
431
100
AcDbEntity
  8
RACCORDO
100
AcDbLine
 62
7
  6
CONTINUOUS
 10
75.2769918627
 20
-24.3691927703
 11
75.2769918627
 21
-23.9089830225
  0
LINE
  5
432
100
AcDbEntity
  8
RACCORDO
100
AcDbLine
 62
7
  6
CONTINUOUS
 10
75.2769918627
 20
23.3412748786
 11
75.2769918627
 21
23.8014846264
  0
LINE
  5
433
100
AcDbEntity
  8
0
100
AcDbLine
 62
253
  6
CONTINUOUS
 10
76.1519918627
 20
-17.1588540754
 11
76.1519918627
 21
16.5911360753
  0
LINE
  5
434
100
AcDbEntity
  8
0
100
AcDbLine
 62
7
  6
CONTINUOUS
 10
76.7769918627
 20
23.8014846264
 11
76.7769918627
 21
22.2522334749
  0
LINE
  5
435
100
AcDbEntity
  8
0
100
AcDbLine
 62
7
  6
CONTINUOUS
 10
76.7769918627
 20
-24.3691927703
 11
76.7769918627
 21
-22.8199416188
  0
LINE
  5
436
100
AcDbEntity
  8
0
100
AcDbLine
 62
7
  6
CONTINUOUS
 10
76.7769918627
 20
-24.3691927703
 11
76.7769918627
 21
-25.3691927703
  0
LINE
  5
437
100
AcDbEntity
  8
0
100
AcDbLine
 62
7
  6
CONTINUOUS
 10
76.7769918627
 20
23.8014846264
 11
76.7769918627
 21
24.8014846264
  0
LINE
  5
438
100
AcDbEntity
  8
RACCORDO
100
AcDbLine
 62
7
  6
CONTINUOUS
 10
76.9769918627
 20
22.7161459281
 11
76.9769918627
 21
22.3226218241
  0
LINE
  5
439
100
AcDbEntity
  8
RACCORDO
100
AcDbLine
 62
7
  6
CONTINUOUS
 10
76.9769918627
 20
-22.890329968
 11
76.9769918627
 21
-23.2838540719
  0
LINE
  5
43A
100
AcDbEntity
  8
RACCORDO
100
AcDbLine
 62
253
  6
CONTINUOUS
 10
77.1406576448
 20
22.7161459281
 11
77.1406576448
 21
22.158956042
  0
LINE
  5
43B
100
AcDbEntity
  8
RACCORDO
100
AcDbLine
 62
253
  6
CONTINUOUS
 10
77.1406576448
 20
-23.2838540719
 11
77.1406576448
 21
-22.7266641858
  0
LINE
  5
43C
100
AcDbEntity
  8
DRAFT
100
AcDbLine
 62
7
  6
CONTINUOUS
 10
66.8769918627
 20
-22.7454529291
 11
66.8364221555
 21
-22.8247653788
  0
LINE
  5
43D
100
AcDbEntity
  8
DRAFT
100
AcDbLine
 62
7
  6
CONTINUOUS
 10
66.8364221555
 20
22.2570572349
 11
66.8769918627
 21
22.1777447852
  0
LINE
  5
43E
100
AcDbEntity
  8
RACCORDO
100
AcDbLine
 62
253
  6
CONTINUOUS
 10
78.6133260805
 20
22.7161459281
 11
78.6133260805
 21
22.158956042
  0
LINE
  5
43F
100
AcDbEntity
  8
RACCORDO
100
AcDbLine
 62
253
  6
CONTINUOUS
 10
78.6133260805
 20
-23.2838540719
 11
78.6133260805
 21
-22.7266641858
  0
LINE
  5
440
100
AcDbEntity
  8
RACCORDO
100
AcDbLine
 62
7
  6
CONTINUOUS
 10
78.7769918627
 20
-23.2838540719
 11
78.7769918627
 21
-22.890329968
  0
LINE
  5
441
100
AcDbEntity
  8
RACCORDO
100
AcDbLine
 62
7
  6
CONTINUOUS
 10
78.7769918627
 20
22.3226218241
 11
78.7769918627
 21
22.7161459281
  0
LINE
  5
442
100
AcDbEntity
  8
RACCORDO
100
AcDbLine
 62
7
  6
CONTINUOUS
 10
81.1769918627
 20
23.4661459281
 11
81.1769918627
 21
22.2161459281
  0
LINE
  5
443
100
AcDbEntity
  8
RACCORDO
100
AcDbLine
 62
7
  6
CONTINUOUS
 10
81.1769918627
 20
-22.7838540719
 11
81.1769918627
 21
-24.0338540719
  0
LINE
  5
444
100
AcDbEntity
  8
RACCORDO
100
AcDbLine
 62
253
  6
CONTINUOUS
 10
81.2128185497
 20
-22.7480273849
 11
81.2128185497
 21
-24.0338540719
  0
LINE
  5
445
100
AcDbEntity
  8
RACCORDO
100
AcDbLine
 62
253
  6
CONTINUOUS
 10
81.2128185497
 20
22.1803192411
 11
81.2128185497
 21
23.4661459281
  0
LINE
  5
446
100
AcDbEntity
  8
RACCORDO
100
AcDbLine
 62
253
  6
CONTINUOUS
 10
83.1411651756
 20
-22.4980654611
 11
83.1411651756
 21
-24.0338540719
  0
LINE
  5
447
100
AcDbEntity
  8
RACCORDO
100
AcDbLine
 62
253
  6
CONTINUOUS
 10
83.1411651756
 20
21.9303573173
 11
83.1411651756
 21
23.4661459281
  0
LINE
  5
448
100
AcDbEntity
  8
RACCORDO
100
AcDbLine
 62
7
  6
CONTINUOUS
 10
83.1769918627
 20
23.4661459281
 11
83.1769918627
 21
-24.0338540719
  0
LINE
  5
449
100
AcDbEntity
  8
RACCORDO
100
AcDbLine
 62
7
  6
CONTINUOUS
 10
76.9769918627
 20
-22.890329968
 11
77.1406576448
 21
-22.7266641858
  0
LINE
  5
44A
100
AcDbEntity
  8
RACCORDO
100
AcDbLine
 62
7
  6
CONTINUOUS
 10
77.1406576448
 20
22.158956042
 11
76.9769918627
 21
22.3226218241
  0
LINE
  5
44B
100
AcDbEntity
  8
DRAFT
100
AcDbLine
 62
7
  6
CONTINUOUS
 10
81.0705159666
 20
-22.890329968
 11
81.1769918627
 21
-22.7838540719
  0
LINE
  5
44C
100
AcDbEntity
  8
RACCORDO
100
AcDbLine
 62
7
  6
CONTINUOUS
 10
81.1769918627
 20
-22.7838540719
 11
81.2128185497
 21
-22.7480273849
  0
LINE
  5
44D
100
AcDbEntity
  8
DRAFT
100
AcDbLine
 62
7
  6
CONTINUOUS
 10
81.0705159666
 20
22.3226218241
 11
81.1769918627
 21
22.2161459281
  0
LINE
  5
44E
100
AcDbEntity
  8
RACCORDO
100
AcDbLine
 62
7
  6
CONTINUOUS
 10
81.1769918627
 20
22.2161459281
 11
81.2128185497
 21
22.1803192411
  0
LINE
  5
44F
100
AcDbEntity
  8
0
100
AcDbLine
 62
7
  6
CONTINUOUS
 10
-47.048704603
 20
-25.3691927703
 11
-46.5345416191
 21
-25.3691927703
  0
LINE
  5
450
100
AcDbEntity
  8
0
100
AcDbLine
 62
7
  6
CONTINUOUS
 10
-47.048704603
 20
-24.9691927703
 11
-46.5345416191
 21
-24.9691927703
  0
LINE
  5
451
100
AcDbEntity
  8
0
100
AcDbLine
 62
253
  6
CONTINUOUS
 10
-47.348704603
 20
-24.6691927703
 11
-47.748704603
 21
-24.6691927703
  0
LINE
  5
452
100
AcDbEntity
  8
0
100
AcDbLine
 62
7
  6
CONTINUOUS
 10
-47.348704603
 20
-24.3691927703
 11
-47.748704603
 21
-24.3691927703
  0
LINE
  5
453
100
AcDbEntity
  8
RACCORDO
100
AcDbLine
 62
7
  6
CONTINUOUS
 10
-48.2987032948
 20
-24.2838540719
 11
-45.548704603
 21
-24.2838540719
  0
LINE
  5
454
100
AcDbEntity
  8
RACCORDO
100
AcDbLine
 62
253
  6
CONTINUOUS
 10
-48.548704603
 20
-24.0338540719
 11
-45.548704603
 21
-24.0338540719
  0
LINE
  5
455
100
AcDbEntity
  8
RACCORDO
100
AcDbLine
 62
7
  6
CONTINUOUS
 10
-37.2987105351
 20
-23.5338540719
 11
-45.548704603
 21
-23.5338540719
  0
LINE
  5
456
100
AcDbEntity
  8
RACCORDO
100
AcDbLine
 62
7
  6
CONTINUOUS
 10
-48.548704603
 20
-23.5338540719
 11
-49.2987034459
 21
-23.5338540719
  0
LINE
  5
457
100
AcDbEntity
  8
RACCORDO
100
AcDbLine
 62
253
  6
CONTINUOUS
 10
-37.2943415014
 20
-23.2838540719
 11
-45.548704603
 21
-23.2838540719
  0
LINE
  5
458
100
AcDbEntity
  8
RACCORDO
100
AcDbLine
 62
253
  6
CONTINUOUS
 10
-48.548704603
 20
-23.2838540719
 11
-49.548704603
 21
-23.2838540719
  0
LINE
  5
459
100
AcDbEntity
  8
DRAFT
100
AcDbLine
 62
7
  6
CONTINUOUS
 10
-39.448704603
 20
-22.890329968
 11
-45.548704603
 21
-22.7838540719
  0
LINE
  5
45A
100
AcDbEntity
  8
RACCORDO
100
AcDbLine
 62
7
  6
CONTINUOUS
 10
-48.2444815001
 20
-22.7367991111
 11
-56.0299345514
 21
-22.6009035226
  0
LINE
  5
45B
100
AcDbEntity
  8
RACCORDO
100
AcDbLine
 62
7
  6
CONTINUOUS
 10
-36.548704603
 20
-22.7890597365
 11
-39.448704603
 21
-22.890329968
  0
LINE
  5
45C
100
AcDbEntity
  8
RACCORDO
100
AcDbLine
 62
253
  6
CONTINUOUS
 10
-56.0299416648
 20
-22.3509414747
 11
-47.6012141272
 21
-22.4980654611
  0
LINE
  5
45D
100
AcDbEntity
  8
RACCORDO
100
AcDbLine
 62
7
  6
CONTINUOUS
 10
-36.548704603
 20
-21.3409496563
 11
-45.548704603
 21
-21.1838540719
  0
LINE
  5
45E
100
AcDbEntity
  8
0
100
AcDbLine
 62
253
  6
CONTINUOUS
 10
-46.4418365208
 20
24.3868015813
 11
-46.318229723
 21
24.7672241878
  0
LINE
  5
45F
100
AcDbEntity
  8
RACCORDO
100
AcDbLine
 62
253
  6
CONTINUOUS
 10
-56.7659038658
 20
-21.6387630175
 11
-57.0112244846
 21
-21.6513321165
  0
LINE
  5
460
100
AcDbEntity
  8
DRAFT
100
AcDbLine
 62
7
  6
CONTINUOUS
 10
-41.41970844
 20
-20.0943271109
 11
-36.548704603
 21
-20.0093034226
  0
LINE
  5
461
100
AcDbEntity
  8
ASSI
100
AcDbLine
 62
7
  6
CONTINUOUS
 10
-41.41970844
 20
-20.0943271109
 11
-36.548704603
 21
-20.0093034226
  0
LINE
  5
462
100
AcDbEntity
  8
RACCORDO
100
AcDbLine
 62
7
  6
CONTINUOUS
 10
-45.548704603
 20
-19.966399007
 11
-11.5312521966
 21
-19.3726221665
  0
LINE
  5
463
100
AcDbEntity
  8
ASSI
100
AcDbLine
 62
7
  6
CONTINUOUS
 10
-45.548704603
 20
-19.966399007
 11
-11.5312521966
 21
-19.3726221665
  0
LINE
  5
464
100
AcDbEntity
  8
0
100
AcDbLine
 62
7
  6
CONTINUOUS
 10
-45.548704603
 20
-20.0222552148
 11
-36.548704603
 21
-20.1793507991
  0
LINE
  5
465
100
AcDbEntity
  8
RACCORDO
100
AcDbLine
 62
253
  6
CONTINUOUS
 10
-44.8470542398
 20
-18.2158842783
 11
-44.6449526822
 21
-18.2194119741
  0
LINE
  5
466
100
AcDbEntity
  8
0
100
AcDbLine
 62
253
  6
CONTINUOUS
 10
-46.4418365208
 20
-24.9545097252
 11
-46.318229723
 21
-25.3349323317
  0
LINE
  5
467
100
AcDbEntity
  8
RACCORDO
100
AcDbLine
 62
7
  6
CONTINUOUS
 10
-45.548704603
 20
-18.6963654084
 11
-44.8312734545
 21
-18.633598316
  0
LINE
  5
468
100
AcDbEntity
  8
ASSI
100
AcDbLine
 62
7
  6
CONTINUOUS
 10
-45.548704603
 20
-18.6963654084
 11
-44.8312734545
 21
-18.633598316
  0
LINE
  5
469
100
AcDbEntity
  8
RACCORDO
100
AcDbLine
 62
7
  6
CONTINUOUS
 10
-45.548704603
 20
-18.4463654084
 11
-45.2051267317
 21
-18.4163062396
  0
LINE
  5
46A
100
AcDbEntity
  8
0
100
AcDbLine
 62
253
  6
CONTINUOUS
 10
-44.648704603
 20
-17.9509940582
 11
-11.5312521966
 21
-17.3729267762
  0
LINE
  5
46B
100
AcDbEntity
  8
ASSI
100
AcDbLine
 62
253
  6
CONTINUOUS
 10
-44.648704603
 20
-17.9509940582
 11
-11.5312521966
 21
-17.3729267762
  0
LINE
  5
46C
100
AcDbEntity
  8
RACCORDO
100
AcDbLine
 62
253
  6
CONTINUOUS
 10
-10.548704603
 20
-17.3729267762
 11
-11.5312521966
 21
-17.3729267706
  0
LINE
  5
46D
100
AcDbEntity
  8
ASSI
100
AcDbLine
 62
253
  6
CONTINUOUS
 10
-10.548704603
 20
-17.3729267762
 11
-11.5312521966
 21
-17.3729267706
  0
LINE
  5
46E
100
AcDbEntity
  8
INCISIONI
100
AcDbLine
 62
253
  6
CONTINUOUS
 10
-42.6636545701
 20
-14.5042640719
 11
-40.6683415006
 21
-15.0738750719
  0
LINE
  5
46F
100
AcDbEntity
  8
RACCORDO
100
AcDbLine
 62
7
  6
CONTINUOUS
 10
-49.548704603
 20
22.7161459281
 11
-49.548704603
 21
22.1463256684
  0
LINE
  5
470
100
AcDbEntity
  8
RACCORDO
100
AcDbLine
 62
7
  6
CONTINUOUS
 10
-49.548704603
 20
-23.2838540719
 11
-49.548704603
 21
-22.7140338122
  0
LINE
  5
471
100
AcDbEntity
  8
RACCORDO
100
AcDbLine
 62
253
  6
CONTINUOUS
 10
-48.8251109824
 20
22.7161459281
 11
-48.8251109824
 21
22.158956042
  0
LINE
  5
472
100
AcDbEntity
  8
RACCORDO
100
AcDbLine
 62
253
  6
CONTINUOUS
 10
-48.8251109824
 20
-23.2838540719
 11
-48.8251109824
 21
-22.7266641858
  0
LINE
  5
473
100
AcDbEntity
  8
RACCORDO
100
AcDbLine
 62
7
  6
CONTINUOUS
 10
-48.548704603
 20
-22.7315067588
 11
-48.548704603
 21
-24.0338540719
  0
LINE
  5
474
100
AcDbEntity
  8
RACCORDO
100
AcDbLine
 62
7
  6
CONTINUOUS
 10
-48.548704603
 20
22.163798615
 11
-48.548704603
 21
23.4661459281
  0
LINE
  5
475
100
AcDbEntity
  8
RACCORDO
100
AcDbLine
 62
7
  6
CONTINUOUS
 10
-47.748704603
 20
-24.3691927703
 11
-47.748704603
 21
-24.2838540719
  0
LINE
  5
476
100
AcDbEntity
  8
0
100
AcDbLine
 62
7
  6
CONTINUOUS
 10
-47.748704603
 20
-24.3691927703
 11
-47.748704603
 21
-24.6691927703
  0
LINE
  5
477
100
AcDbEntity
  8
RACCORDO
100
AcDbLine
 62
7
  6
CONTINUOUS
 10
-47.748704603
 20
23.7161459281
 11
-47.748704603
 21
23.8014846264
  0
LINE
  5
478
100
AcDbEntity
  8
0
100
AcDbLine
 62
7
  6
CONTINUOUS
 10
-47.748704603
 20
23.8014846264
 11
-47.748704603
 21
24.1014846264
  0
LINE
  5
479
100
AcDbEntity
  8
RACCORDO
100
AcDbLine
 62
253
  6
CONTINUOUS
 10
-47.6012141272
 20
-22.4980654611
 11
-47.6012141272
 21
-24.0338540719
  0
LINE
  5
47A
100
AcDbEntity
  8
RACCORDO
100
AcDbLine
 62
253
  6
CONTINUOUS
 10
-47.6012141272
 20
21.9303573173
 11
-47.6012141272
 21
23.4661459281
  0
LINE
  5
47B
100
AcDbEntity
  8
0
100
AcDbLine
 62
253
  6
CONTINUOUS
 10
-38.2772760478
 20
15.7304317071
 11
-38.548704603
 21
15.4590032651
  0
LINE
  5
47C
100
AcDbEntity
  8
INCISIONI
100
AcDbLine
 62
253
  6
CONTINUOUS
 10
-39.7648847652
 20
-14.8314710719
 11
-42.6636545701
 21
-13.8994060719
  0
LINE
  5
47D
100
AcDbEntity
  8
RACCORDO
100
AcDbLine
 62
7
  6
CONTINUOUS
 10
-47.348704603
 20
23.8014846264
 11
-47.348704603
 21
23.7161459281
  0
LINE
  5
47E
100
AcDbEntity
  8
RACCORDO
100
AcDbLine
 62
7
  6
CONTINUOUS
 10
-47.348704603
 20
-24.2838540719
 11
-47.348704603
 21
-24.3691927703
  0
LINE
  5
47F
100
AcDbEntity
  8
0
100
AcDbLine
 62
7
  6
CONTINUOUS
 10
-47.348704603
 20
-24.3691927703
 11
-47.348704603
 21
-24.6691927703
  0
LINE
  5
480
100
AcDbEntity
  8
0
100
AcDbLine
 62
7
  6
CONTINUOUS
 10
-47.348704603
 20
23.8014846264
 11
-47.348704603
 21
24.1014846264
  0
LINE
  5
481
100
AcDbEntity
  8
0
100
AcDbLine
 62
253
  6
CONTINUOUS
 10
-47.048704603
 20
-24.9691927703
 11
-47.048704603
 21
-25.3691927703
  0
LINE
  5
482
100
AcDbEntity
  8
0
100
AcDbLine
 62
253
  6
CONTINUOUS
 10
-47.048704603
 20
24.4014846264
 11
-47.048704603
 21
24.8014846264
  0
LINE
  5
483
100
AcDbEntity
  8
0
100
AcDbLine
 62
253
  6
CONTINUOUS
 10
-46.5345416191
 20
-24.9691927703
 11
-46.5345416191
 21
-25.3691927703
  0
LINE
  5
484
100
AcDbEntity
  8
0
100
AcDbLine
 62
253
  6
CONTINUOUS
 10
-46.5345416191
 20
24.4014846264
 11
-46.5345416191
 21
24.8014846264
  0
LINE
  5
485
100
AcDbEntity
  8
RACCORDO
100
AcDbLine
 62
7
  6
CONTINUOUS
 10
-45.548704603
 20
23.7161459281
 11
-45.548704603
 21
-24.2838540719
  0
LINE
  5
486
100
AcDbEntity
  8
0
100
AcDbLine
 62
253
  6
CONTINUOUS
 10
-37.7344189373
 20
14.7804317071
 11
-37.4629903254
 21
15.0518601491
  0
LINE
  5
487
100
AcDbEntity
  8
0
100
AcDbLine
 62
253
  6
CONTINUOUS
 10
-37.7344189373
 20
12.4732888176
 11
-37.4629903254
 21
12.7447172596
  0
LINE
  5
488
100
AcDbEntity
  8
0
100
AcDbLine
 62
253
  6
CONTINUOUS
 10
-38.2772760478
 20
12.6542411877
 11
-38.548704603
 21
12.4732888176
  0
LINE
  5
489
100
AcDbEntity
  8
INCISIONI
100
AcDbLine
 62
253
  6
CONTINUOUS
 10
-40.6683415006
 20
-15.0738750719
 11
-42.6636545701
 21
-15.6266020719
  0
LINE
  5
48A
100
AcDbEntity
  8
INCISIONI
100
AcDbLine
 62
253
  6
CONTINUOUS
 10
-39.7648847652
 20
-13.6747890719
 11
-42.6638285171
 21
-13.6747890719
  0
LINE
  5
48B
100
AcDbEntity
  8
INCISIONI
100
AcDbLine
 62
253
  6
CONTINUOUS
 10
-42.6638285171
 20
-13.0695180719
 11
-39.7648847652
 21
-13.0695180719
  0
LINE
  5
48C
100
AcDbEntity
  8
INCISIONI
100
AcDbLine
 62
253
  6
CONTINUOUS
 10
-39.7648847652
 20
-12.1646330719
 11
-41.6577270553
 21
-12.0340160719
  0
LINE
  5
48D
100
AcDbEntity
  8
INCISIONI
100
AcDbLine
 62
253
  6
CONTINUOUS
 10
-42.6636545701
 20
-12.4818590719
 11
-39.7648847652
 21
-12.7436810719
  0
LINE
  5
48E
100
AcDbEntity
  8
INCISIONI
100
AcDbLine
 62
253
  6
CONTINUOUS
 10
-42.6636545701
 20
-10.6729380719
 11
-41.0542489226
 21
-11.2782090719
  0
LINE
  5
48F
100
AcDbEntity
  8
INCISIONI
100
AcDbLine
 62
253
  6
CONTINUOUS
 10
-39.7648847652
 20
-11.2390700719
 11
-41.6498364594
 21
-10.5194020719
  0
LINE
  5
490
100
AcDbEntity
  8
SMUSSO
100
AcDbLine
 62
7
  6
CONTINUOUS
 10
-44.748704603
 20
6.1004185283
 11
-44.748704603
 21
-6.6681266722
  0
LINE
  5
491
100
AcDbEntity
  8
RACCORDO
100
AcDbLine
 62
7
  6
CONTINUOUS
 10
-44.748704603
 20
-17.9182088906
 11
-44.748704603
 21
-6.6681266722
  0
LINE
  5
492
100
AcDbEntity
  8
RACCORDO
100
AcDbLine
 62
7
  6
CONTINUOUS
 10
-44.748704603
 20
6.1004185283
 11
-44.748704603
 21
17.3505007467
  0
LINE
  5
493
100
AcDbEntity
  8
RACCORDO
100
AcDbLine
 62
7
  6
CONTINUOUS
 10
-44.648704603
 20
17.8666512326
 11
-44.648704603
 21
17.3832859144
  0
LINE
  5
494
100
AcDbEntity
  8
RACCORDO
100
AcDbLine
 62
7
  6
CONTINUOUS
 10
-44.648704603
 20
-17.9509940582
 11
-44.648704603
 21
-18.4343593764
  0
LINE
  5
495
100
AcDbEntity
  8
0
100
AcDbLine
 62
7
  6
CONTINUOUS
 10
-44.648704603
 20
-17.9509940582
 11
-44.648704603
 21
17.3832859144
  0
LINE
  5
496
100
AcDbEntity
  8
ASSI
100
AcDbLine
 62
7
  6
CONTINUOUS
 10
-44.648704603
 20
-18.4343593764
 11
-44.648704603
 21
17.8666512326
  0
LINE
  5
497
100
AcDbEntity
  8
0
100
AcDbLine
 62
253
  6
CONTINUOUS
 10
-37.8701331583
 20
11.8851935579
 11
-37.7344189373
 21
12.0661459281
  0
LINE
  5
498
100
AcDbEntity
  8
0
100
AcDbLine
 62
253
  6
CONTINUOUS
 10
-37.4629903254
 20
11.2518601491
 11
-37.7344189373
 21
10.9804315938
  0
LINE
  5
499
100
AcDbEntity
  8
0
100
AcDbLine
 62
253
  6
CONTINUOUS
 10
-36.648704603
 20
12.0661459281
 11
-36.9201331866
 21
11.7947172596
  0
LINE
  5
49A
100
AcDbEntity
  8
0
100
AcDbLine
 62
253
  6
CONTINUOUS
 10
-36.9201331866
 20
10.3018602623
 11
-36.648704603
 21
10.5732888176
  0
LINE
  5
49B
100
AcDbEntity
  8
INCISIONI
100
AcDbLine
 62
253
  6
CONTINUOUS
 10
-26.5996469405
 20
12.7063069281
 11
-25.3003977948
 21
13.2799219281
  0
LINE
  5
49C
100
AcDbEntity
  8
INCISIONI
100
AcDbLine
 62
253
  6
CONTINUOUS
 10
-39.7648847652
 20
-9.8029310719
 11
-42.6636545701
 21
-10.0740810719
  0
LINE
  5
49D
100
AcDbEntity
  8
INCISIONI
100
AcDbLine
 62
253
  6
CONTINUOUS
 10
-41.6498364594
 20
-10.5194020719
 11
-39.7648847652
 21
-10.3950470719
  0
LINE
  5
49E
100
AcDbEntity
  8
INCISIONI
100
AcDbLine
 62
253
  6
CONTINUOUS
 10
-40.7913760146
 20
-8.8183540719
 11
-41.8671462496
 21
-8.5169800719
  0
LINE
  5
49F
100
AcDbEntity
  8
INCISIONI
100
AcDbLine
 62
253
  6
CONTINUOUS
 10
-39.7648847652
 20
-9.1091830719
 11
-40.343582448
 21
-8.9421660719
  0
LINE
  5
4A0
100
AcDbEntity
  8
INCISIONI
100
AcDbLine
 62
253
  6
CONTINUOUS
 10
-42.6636545701
 20
-8.7983710719
 11
-39.7648847652
 21
-9.7078870719
  0
LINE
  5
4A1
100
AcDbEntity
  8
INCISIONI
100
AcDbLine
 62
253
  6
CONTINUOUS
 10
-42.7548767765
 20
15.3123999281
 11
-42.7548767765
 21
13.9274959281
  0
LINE
  5
4A2
100
AcDbEntity
  8
INCISIONI
100
AcDbLine
 62
253
  6
CONTINUOUS
 10
-42.7548767765
 20
12.3574099281
 11
-42.7548767765
 21
11.1786509281
  0
LINE
  5
4A3
100
AcDbEntity
  8
INCISIONI
100
AcDbLine
 62
253
  6
CONTINUOUS
 10
-42.7548767765
 20
8.5533379281
 11
-42.7548767765
 21
9.3122329281
  0
LINE
  5
4A4
100
AcDbEntity
  8
INCISIONI
100
AcDbLine
 62
253
  6
CONTINUOUS
 10
-42.6638285171
 20
-13.6747890719
 11
-42.6638285171
 21
-13.0695180719
  0
LINE
  5
4A5
100
AcDbEntity
  8
INCISIONI
100
AcDbLine
 62
253
  6
CONTINUOUS
 10
-42.6636545701
 20
-8.2128440719
 11
-42.6636545701
 21
-8.7983710719
  0
LINE
  5
4A6
100
AcDbEntity
  8
INCISIONI
100
AcDbLine
 62
253
  6
CONTINUOUS
 10
-42.6636545701
 20
-10.0740810719
 11
-42.6636545701
 21
-10.6729380719
  0
LINE
  5
4A7
100
AcDbEntity
  8
INCISIONI
100
AcDbLine
 62
253
  6
CONTINUOUS
 10
-42.6636545701
 20
-11.8770880719
 11
-42.6636545701
 21
-12.4818590719
  0
LINE
  5
4A8
100
AcDbEntity
  8
INCISIONI
100
AcDbLine
 62
253
  6
CONTINUOUS
 10
-42.6636545701
 20
-13.8994060719
 11
-42.6636545701
 21
-14.5042640719
  0
LINE
  5
4A9
100
AcDbEntity
  8
INCISIONI
100
AcDbLine
 62
253
  6
CONTINUOUS
 10
-42.6636545701
 20
-15.6266020719
 11
-42.6636545701
 21
-16.2841140719
  0
LINE
  5
4AA
100
AcDbEntity
  8
INCISIONI
100
AcDbLine
 62
253
  6
CONTINUOUS
 10
-41.3740513866
 20
-6.5626553438
 11
-41.3740513866
 21
-6.2167487477
  0
LINE
  5
4AB
100
AcDbEntity
  8
INCISIONI
100
AcDbLine
 62
253
  6
CONTINUOUS
 10
-40.8993028934
 20
-6.2180533992
 11
-40.8993028934
 21
-6.5425854551
  0
LINE
  5
4AC
100
AcDbEntity
  8
INCISIONI
100
AcDbLine
 62
253
  6
CONTINUOUS
 10
-40.7913760146
 20
-8.2388500719
 11
-40.7913760146
 21
-8.8183540719
  0
LINE
  5
4AD
100
AcDbEntity
  8
RACCORDO
100
AcDbLine
 62
7
  6
CONTINUOUS
 10
-40.648704603
 20
19.5400768891
 11
-40.648704603
 21
19.513161045
  0
LINE
  5
4AE
100
AcDbEntity
  8
RACCORDO
100
AcDbLine
 62
7
  6
CONTINUOUS
 10
-40.648704603
 20
-20.0808691888
 11
-40.648704603
 21
-20.1077850329
  0
LINE
  5
4AF
100
AcDbEntity
  8
INCISIONI
100
AcDbLine
 62
253
  6
CONTINUOUS
 10
-26.5996469405
 20
10.7161459281
 11
-25.3003977948
 21
11.3391029281
  0
LINE
  5
4B0
100
AcDbEntity
  8
INCISIONI
100
AcDbLine
 62
253
  6
CONTINUOUS
 10
-22.8627275025
 20
13.0430999281
 11
-21.5624266772
 21
13.6141759281
  0
LINE
  5
4B1
100
AcDbEntity
  8
0
100
AcDbLine
 62
7
  6
CONTINUOUS
 10
-44.648704603
 20
-7.3138540719
 11
-44.748704603
 21
-7.3138540719
  0
LINE
  5
4B2
100
AcDbEntity
  8
INCISIONI
100
AcDbLine
 62
253
  6
CONTINUOUS
 10
-39.764884413
 20
-7.1454214163
 11
-42.6297872361
 21
-7.1454214163
  0
LINE
  5
4B3
100
AcDbEntity
  8
INCISIONI
100
AcDbLine
 62
253
  6
CONTINUOUS
 10
-40.343582448
 20
-8.9421660719
 11
-40.343582448
 21
-8.1178870719
  0
LINE
  5
4B4
100
AcDbEntity
  8
INCISIONI
100
AcDbLine
 62
253
  6
CONTINUOUS
 10
-39.764884413
 20
-5.0334950867
 11
-39.764884413
 21
-5.6156958103
  0
LINE
  5
4B5
100
AcDbEntity
  8
INCISIONI
100
AcDbLine
 62
253
  6
CONTINUOUS
 10
-39.764884413
 20
-6.5425854551
 11
-39.764884413
 21
-7.1454214163
  0
LINE
  5
4B6
100
AcDbEntity
  8
INCISIONI
100
AcDbLine
 62
253
  6
CONTINUOUS
 10
-39.7648847652
 20
-13.0695180719
 11
-39.7648847652
 21
-13.6747890719
  0
LINE
  5
4B7
100
AcDbEntity
  8
INCISIONI
100
AcDbLine
 62
253
  6
CONTINUOUS
 10
-39.7648847652
 20
-15.3648670719
 11
-39.7648847652
 21
-14.8314710719
  0
LINE
  5
4B8
100
AcDbEntity
  8
INCISIONI
100
AcDbLine
 62
253
  6
CONTINUOUS
 10
-39.7648847652
 20
-12.7436810719
 11
-39.7648847652
 21
-12.1646330719
  0
LINE
  5
4B9
100
AcDbEntity
  8
INCISIONI
100
AcDbLine
 62
253
  6
CONTINUOUS
 10
-39.7648847652
 20
-11.3239590719
 11
-39.7648847652
 21
-11.2390700719
  0
LINE
  5
4BA
100
AcDbEntity
  8
INCISIONI
100
AcDbLine
 62
253
  6
CONTINUOUS
 10
-39.7648847652
 20
-10.3950470719
 11
-39.7648847652
 21
-9.8029310719
  0
LINE
  5
4BB
100
AcDbEntity
  8
INCISIONI
100
AcDbLine
 62
253
  6
CONTINUOUS
 10
-39.7648847652
 20
-9.7078870719
 11
-39.7648847652
 21
-9.1091830719
  0
LINE
  5
4BC
100
AcDbEntity
  8
INCISIONI
100
AcDbLine
 62
253
  6
CONTINUOUS
 10
-39.7648847652
 20
-7.9610890719
 11
-39.7648847652
 21
-7.3231580719
  0
LINE
  5
4BD
100
AcDbEntity
  8
INCISIONI
100
AcDbLine
 62
253
  6
CONTINUOUS
 10
-39.7568832031
 20
9.4527969281
 11
-39.7568832031
 21
7.7004989281
  0
LINE
  5
4BE
100
AcDbEntity
  8
INCISIONI
100
AcDbLine
 62
253
  6
CONTINUOUS
 10
-39.7568832031
 20
6.5877539281
 11
-39.7568832031
 21
5.6306559281
  0
LINE
  5
4BF
100
AcDbEntity
  8
INCISIONI
100
AcDbLine
 62
253
  6
CONTINUOUS
 10
-39.7568832031
 20
10.4779779281
 11
-39.7568832031
 21
11.9687649281
  0
LINE
  5
4C0
100
AcDbEntity
  8
INCISIONI
100
AcDbLine
 62
253
  6
CONTINUOUS
 10
-39.7568832031
 20
13.3269009281
 11
-39.7568832031
 21
15.0758209281
  0
LINE
  5
4C1
100
AcDbEntity
  8
RACCORDO
100
AcDbLine
 62
7
  6
CONTINUOUS
 10
-39.448704603
 20
-23.2838540719
 11
-39.448704603
 21
-22.890329968
  0
LINE
  5
4C2
100
AcDbEntity
  8
RACCORDO
100
AcDbLine
 62
7
  6
CONTINUOUS
 10
-39.448704603
 20
22.3226218241
 11
-39.448704603
 21
22.7161459281
  0
LINE
  5
4C3
100
AcDbEntity
  8
0
100
AcDbLine
 62
253
  6
CONTINUOUS
 10
-38.548704603
 20
15.4590032651
 11
-38.548704603
 21
15.0518601491
  0
LINE
  5
4C4
100
AcDbEntity
  8
0
100
AcDbLine
 62
253
  6
CONTINUOUS
 10
-38.548704603
 20
12.4732888176
 11
-38.548704603
 21
12.0661459281
  0
LINE
  5
4C5
100
AcDbEntity
  8
INCISIONI
100
AcDbLine
 62
253
  6
CONTINUOUS
 10
-24.7306623814
 20
12.9353219281
 11
-23.431412236
 21
13.9675739281
  0
LINE
  5
4C6
100
AcDbEntity
  8
INCISIONI
100
AcDbLine
 62
253
  6
CONTINUOUS
 10
-22.1349632372
 20
14.9762709281
 11
-22.8627275025
 21
14.4999439281
  0
LINE
  5
4C7
100
AcDbEntity
  8
INCISIONI
100
AcDbLine
 62
253
  6
CONTINUOUS
 10
-40.343582448
 20
-8.1178870719
 11
-39.7648847652
 21
-7.9610890719
  0
LINE
  5
4C8
100
AcDbEntity
  8
INCISIONI
100
AcDbLine
 62
253
  6
CONTINUOUS
 10
-41.8671462496
 20
-8.5169800719
 11
-40.7913760146
 21
-8.2388500719
  0
LINE
  5
4C9
100
AcDbEntity
  8
SMUSSO
100
AcDbLine
 62
7
  6
CONTINUOUS
 10
-44.748704603
 20
-6.6681457113
 11
-45.548704603
 21
-6.6751272056
  0
LINE
  5
4CA
100
AcDbEntity
  8
SMUSSO
100
AcDbLine
 62
7
  6
CONTINUOUS
 10
-44.748704603
 20
-6.1681266722
 11
-45.548704603
 21
-6.1751081664
  0
LINE
  5
4CB
100
AcDbEntity
  8
INCISIONI
100
AcDbLine
 62
253
  6
CONTINUOUS
 10
-42.1698202894
 20
-6.5626553438
 11
-41.3740513866
 21
-6.5626553438
  0
LINE
  5
4CC
100
AcDbEntity
  8
INCISIONI
100
AcDbLine
 62
253
  6
CONTINUOUS
 10
-40.8993028934
 20
-6.5425854551
 11
-39.764884413
 21
-6.5425854551
  0
LINE
  5
4CD
100
AcDbEntity
  8
0
100
AcDbLine
 62
7
  6
CONTINUOUS
 10
-44.648704603
 20
-4.7838540719
 11
-44.748704603
 21
-4.7838540719
  0
LINE
  5
4CE
100
AcDbEntity
  8
INCISIONI
100
AcDbLine
 62
253
  6
CONTINUOUS
 10
-44.2535371658
 20
7.7556499281
 11
-43.7985427931
 21
6.7073459281
  0
LINE
  5
4CF
100
AcDbEntity
  8
INCISIONI
100
AcDbLine
 62
253
  6
CONTINUOUS
 10
-42.9039353615
 20
6.4717839281
 11
-43.3604982562
 21
7.5237049281
  0
LINE
  5
4D0
100
AcDbEntity
  8
INCISIONI
100
AcDbLine
 62
253
  6
CONTINUOUS
 10
-43.809932323
 20
9.5986279281
 11
-44.2535371658
 21
10.6206919281
  0
LINE
  5
4D1
100
AcDbEntity
  8
INCISIONI
100
AcDbLine
 62
253
  6
CONTINUOUS
 10
-42.2911380681
 20
6.2979569281
 11
-42.7548767765
 21
7.3664099281
  0
LINE
  5
4D2
100
AcDbEntity
  8
0
100
AcDbLine
 62
253
  6
CONTINUOUS
 10
-37.7344189373
 20
10.9804315938
 11
-37.7344189373
 21
10.3923364474
  0
LINE
  5
4D3
100
AcDbEntity
  8
0
100
AcDbLine
 62
253
  6
CONTINUOUS
 10
-37.7344189373
 20
12.0661459281
 11
-37.7344189373
 21
12.4732888176
  0
LINE
  5
4D4
100
AcDbEntity
  8
RACCORDO
100
AcDbLine
 62
253
  6
CONTINUOUS
 10
-37.5312521966
 20
-22.8233710545
 11
-37.5312521966
 21
-21.3237992242
  0
LINE
  5
4D5
100
AcDbEntity
  8
RACCORDO
100
AcDbLine
 62
253
  6
CONTINUOUS
 10
-37.5312521966
 20
20.7560910804
 11
-37.5312521966
 21
22.2556629106
  0
LINE
  5
4D6
100
AcDbEntity
  8
0
100
AcDbLine
 62
253
  6
CONTINUOUS
 10
-37.4629903254
 20
15.0518601491
 11
-37.4629903254
 21
15.6399554087
  0
LINE
  5
4D7
100
AcDbEntity
  8
0
100
AcDbLine
 62
253
  6
CONTINUOUS
 10
-37.0558474642
 20
14.2375743701
 11
-37.0558474642
 21
13.2875743701
  0
LINE
  5
4D8
100
AcDbEntity
  8
0
100
AcDbLine
 62
253
  6
CONTINUOUS
 10
-36.648704603
 20
12.4732888176
 11
-36.648704603
 21
12.0661459281
  0
LINE
  5
4D9
100
AcDbEntity
  8
0
100
AcDbLine
 62
253
  6
CONTINUOUS
 10
-36.648704603
 20
10.5732888176
 11
-36.648704603
 21
10.9804315938
  0
LINE
  5
4DA
100
AcDbEntity
  8
RACCORDO
100
AcDbLine
 62
7
  6
CONTINUOUS
 10
-36.548704603
 20
-22.7890597365
 11
-36.548704603
 21
-21.3409496563
  0
LINE
  5
4DB
100
AcDbEntity
  8
DRAFT
100
AcDbLine
 62
7
  6
CONTINUOUS
 10
-36.548704603
 20
-21.3409496563
 11
-36.548704603
 21
-19.8093034226
  0
LINE
  5
4DC
100
AcDbEntity
  8
ASSI
100
AcDbLine
 62
7
  6
CONTINUOUS
 10
-36.548704603
 20
-20.1937698569
 11
-36.548704603
 21
-19.8093034226
  0
LINE
  5
4DD
100
AcDbEntity
  8
DRAFT
100
AcDbLine
 62
7
  6
CONTINUOUS
 10
-36.548704603
 20
19.2415952788
 11
-36.548704603
 21
20.7732415124
  0
LINE
  5
4DE
100
AcDbEntity
  8
ASSI
100
AcDbLine
 62
7
  6
CONTINUOUS
 10
-36.548704603
 20
19.2415952788
 11
-36.548704603
 21
19.6260617131
  0
LINE
  5
4DF
100
AcDbEntity
  8
RACCORDO
100
AcDbLine
 62
7
  6
CONTINUOUS
 10
-36.548704603
 20
20.7732415124
 11
-36.548704603
 21
22.2213515926
  0
LINE
  5
4E0
100
AcDbEntity
  8
INCISIONI
100
AcDbLine
 62
253
  6
CONTINUOUS
 10
-41.2853525102
 20
11.7085559281
 11
-41.0631442124
 21
11.1965879281
  0
LINE
  5
4E1
100
AcDbEntity
  8
INCISIONI
100
AcDbLine
 62
253
  6
CONTINUOUS
 10
-40.6099582888
 20
11.0690379281
 11
-41.2992532749
 21
12.6571729281
  0
LINE
  5
4E2
100
AcDbEntity
  8
INCISIONI
100
AcDbLine
 62
253
  6
CONTINUOUS
 10
-41.5193112278
 20
13.1641859281
 11
-41.9369119935
 21
14.1263369281
  0
LINE
  5
4E3
100
AcDbEntity
  8
INCISIONI
100
AcDbLine
 62
253
  6
CONTINUOUS
 10
-40.7249052668
 20
12.5079999281
 11
-40.2713254632
 21
11.4629529281
  0
LINE
  5
4E4
100
AcDbEntity
  8
INCISIONI
100
AcDbLine
 62
253
  6
CONTINUOUS
 10
-41.6219629519
 20
14.5748189281
 11
-40.9449632197
 21
13.0150129281
  0
LINE
  5
4E5
100
AcDbEntity
  8
INCISIONI
100
AcDbLine
 62
253
  6
CONTINUOUS
 10
-41.0034773917
 20
13.9690429281
 11
-41.2212270479
 21
14.4707379281
  0
LINE
  5
4E6
100
AcDbEntity
  8
INCISIONI
100
AcDbLine
 62
253
  6
CONTINUOUS
 10
-32.4821396668
 20
15.3161459281
 11
-32.4821396668
 21
13.8556459281
  0
LINE
  5
4E7
100
AcDbEntity
  8
INCISIONI
100
AcDbLine
 62
253
  6
CONTINUOUS
 10
-31.7323681067
 20
13.8556459281
 11
-31.7323681067
 21
15.3161459281
  0
LINE
  5
4E8
100
AcDbEntity
  8
INCISIONI
100
AcDbLine
 62
253
  6
CONTINUOUS
 10
-18.5633404367
 20
14.2161459281
 11
-17.0637973164
 21
15.7161459281
  0
LINE
  5
4E9
100
AcDbEntity
  8
DRAFT
100
AcDbLine
 62
7
  6
CONTINUOUS
 10
-44.748704603
 20
-13.8838540719
 11
-44.648704603
 21
-13.7838540719
  0
LINE
  5
4EA
100
AcDbEntity
  8
DRAFT
100
AcDbLine
 62
7
  6
CONTINUOUS
 10
-44.648704603
 20
13.2161459281
 11
-44.748704603
 21
13.3161459281
  0
LINE
  5
4EB
100
AcDbEntity
  8
INCISIONI
100
AcDbLine
 62
253
  6
CONTINUOUS
 10
-14.1146958466
 20
14.4875749281
 11
-14.3860411733
 21
14.2161459281
  0
LINE
  5
4EC
100
AcDbEntity
  8
INCISIONI
100
AcDbLine
 62
253
  6
CONTINUOUS
 10
-12.8936388774
 20
15.0304319281
 11
-12.622292551
 21
15.3018599281
  0
LINE
  5
4ED
100
AcDbEntity
  8
INCISIONI
100
AcDbLine
 62
253
  6
CONTINUOUS
 10
-39.7568832031
 20
5.6306559281
 11
-42.2911380681
 21
6.2979569281
  0
LINE
  5
4EE
100
AcDbEntity
  8
INCISIONI
100
AcDbLine
 62
253
  6
CONTINUOUS
 10
-43.7985427931
 20
6.7073459281
 11
-42.9039353615
 21
6.4717839281
  0
LINE
  5
4EF
100
AcDbEntity
  8
0
100
AcDbLine
 62
253
  6
CONTINUOUS
 10
-38.0058474925
 20
9.2161459281
 11
-38.548704603
 21
9.7590030952
  0
LINE
  5
4F0
100
AcDbEntity
  8
0
100
AcDbLine
 62
253
  6
CONTINUOUS
 10
-38.548704603
 20
10.9804315938
 11
-38.1415617135
 21
10.5732888176
  0
LINE
  5
4F1
100
AcDbEntity
  8
0
100
AcDbLine
 62
253
  6
CONTINUOUS
 10
-37.7344189373
 20
12.4732888176
 11
-37.8701331583
 21
12.6542411877
  0
LINE
  5
4F2
100
AcDbEntity
  8
DRAFT
100
AcDbLine
 62
7
  6
CONTINUOUS
 10
-27.248704603
 20
9.3161459281
 11
-27.248704603
 21
5.3161459281
  0
LINE
  5
4F3
100
AcDbEntity
  8
ASSI
100
AcDbLine
 62
7
  6
CONTINUOUS
 10
-27.248704603
 20
9.3161459281
 11
-27.248704603
 21
5.3161459281
  0
LINE
  5
4F4
100
AcDbEntity
  8
INCISIONI
100
AcDbLine
 62
253
  6
CONTINUOUS
 10
-39.7648847652
 20
-7.3231580719
 11
-42.6636545701
 21
-8.2128440719
  0
LINE
  5
4F5
100
AcDbEntity
  8
SMUSSO
100
AcDbLine
 62
7
  6
CONTINUOUS
 10
-44.748704603
 20
5.6004185283
 11
-45.548704603
 21
5.6074000225
  0
LINE
  5
4F6
100
AcDbEntity
  8
SMUSSO
100
AcDbLine
 62
7
  6
CONTINUOUS
 10
-44.748704603
 20
6.1004375675
 11
-45.548704603
 21
6.1074190617
  0
LINE
  5
4F7
100
AcDbEntity
  8
RACCORDO
100
AcDbLine
 62
7
  6
CONTINUOUS
 10
-27.248704603
 20
5.3161459281
 11
-10.5933590953
 21
3.858992009
  0
LINE
  5
4F8
100
AcDbEntity
  8
ASSI
100
AcDbLine
 62
7
  6
CONTINUOUS
 10
-27.248704603
 20
5.3161459281
 11
-10.5933590953
 21
3.858992009
  0
LINE
  5
4F9
100
AcDbEntity
  8
INCISIONI
100
AcDbLine
 62
253
  6
CONTINUOUS
 10
-42.7548767765
 20
7.3664099281
 11
-39.7568832031
 21
6.5877539281
  0
LINE
  5
4FA
100
AcDbEntity
  8
INCISIONI
100
AcDbLine
 62
253
  6
CONTINUOUS
 10
-43.3604982562
 20
7.5237049281
 11
-44.2535371658
 21
7.7556499281
  0
LINE
  5
4FB
100
AcDbEntity
  8
INCISIONI
100
AcDbLine
 62
253
  6
CONTINUOUS
 10
-40.3740121767
 20
7.2807709281
 11
-42.4367477039
 21
7.8165159281
  0
LINE
  5
4FC
100
AcDbEntity
  8
INCISIONI
100
AcDbLine
 62
253
  6
CONTINUOUS
 10
-40.3999632699
 20
8.2003399281
 11
-42.2911380681
 21
8.6915259281
  0
LINE
  5
4FD
100
AcDbEntity
  8
INCISIONI
100
AcDbLine
 62
253
  6
CONTINUOUS
 10
-42.4404515754
 20
9.2132629281
 11
-40.0731528423
 21
8.5984149281
  0
LINE
  5
4FE
100
AcDbEntity
  8
INCISIONI
100
AcDbLine
 62
253
  6
CONTINUOUS
 10
-42.7548767765
 20
9.3122329281
 11
-43.809932323
 21
9.5986279281
  0
LINE
  5
4FF
100
AcDbEntity
  8
0
100
AcDbLine
 62
253
  6
CONTINUOUS
 10
-37.4629903254
 20
11.7947172596
 11
-37.7344189373
 21
12.0661459281
  0
LINE
  5
500
100
AcDbEntity
  8
0
100
AcDbLine
 62
253
  6
CONTINUOUS
 10
-36.648704603
 20
10.9804315938
 11
-36.9201331866
 21
11.2518601491
  0
LINE
  5
501
100
AcDbEntity
  8
INCISIONI
100
AcDbLine
 62
253
  6
CONTINUOUS
 10
-26.5996469405
 20
13.4469789281
 11
-26.5996469405
 21
13.8596779281
  0
LINE
  5
502
100
AcDbEntity
  8
INCISIONI
100
AcDbLine
 62
253
  6
CONTINUOUS
 10
-26.5996469405
 20
14.7634489281
 11
-26.5996469405
 21
15.7105289281
  0
LINE
  5
503
100
AcDbEntity
  8
INCISIONI
100
AcDbLine
 62
253
  6
CONTINUOUS
 10
-25.9500228675
 20
15.6507499281
 11
-25.9500228675
 21
14.7634489281
  0
LINE
  5
504
100
AcDbEntity
  8
INCISIONI
100
AcDbLine
 62
253
  6
CONTINUOUS
 10
-25.7583532653
 20
13.0777359281
 11
-25.7583532653
 21
12.3348789281
  0
LINE
  5
505
100
AcDbEntity
  8
INCISIONI
100
AcDbLine
 62
253
  6
CONTINUOUS
 10
-25.3003977948
 20
15.7232519281
 11
-25.3003977948
 21
14.7634489281
  0
LINE
  5
506
100
AcDbEntity
  8
INCISIONI
100
AcDbLine
 62
253
  6
CONTINUOUS
 10
-25.3003977948
 20
13.8596779281
 11
-25.3003977948
 21
13.4469789281
  0
LINE
  5
507
100
AcDbEntity
  8
IMPORT_IGES
100
AcDbLine
 62
7
  6
CONTINUOUS
 10
-24.698704603
 20
7.1970860358
 11
-24.698704603
 21
5.0930498361
  0
LINE
  5
508
100
AcDbEntity
  8
INCISIONI
100
AcDbLine
 62
253
  6
CONTINUOUS
 10
-41.6577270553
 20
-12.0340160719
 11
-39.7648847652
 21
-11.3239590719
  0
LINE
  5
509
100
AcDbEntity
  8
INCISIONI
100
AcDbLine
 62
253
  6
CONTINUOUS
 10
-41.0542489226
 20
-11.2782090719
 11
-42.6636545701
 21
-11.8770880719
  0
LINE
  5
50A
100
AcDbEntity
  8
RACCORDO
100
AcDbLine
 62
7
  6
CONTINUOUS
 10
-10.5515837837
 20
10.7769547133
 11
-27.248704603
 21
9.3161459281
  0
LINE
  5
50B
100
AcDbEntity
  8
ASSI
100
AcDbLine
 62
7
  6
CONTINUOUS
 10
-10.5515837837
 20
10.7769547133
 11
-27.248704603
 21
9.3161459281
  0
LINE
  5
50C
100
AcDbEntity
  8
IMPORT_IGES
100
AcDbLine
 62
253
  6
CONTINUOUS
 10
-27.248704603
 20
7.1970860358
 11
-24.698704603
 21
7.1970860358
  0
LINE
  5
50D
100
AcDbEntity
  8
IMPORT_IGES
100
AcDbLine
 62
253
  6
CONTINUOUS
 10
-23.498704603
 20
7.1970860358
 11
-21.6000891489
 21
7.1970860358
  0
LINE
  5
50E
100
AcDbEntity
  8
IMPORT_IGES
100
AcDbLine
 62
7
  6
CONTINUOUS
 10
-27.248704603
 20
7.3970860358
 11
-20.4658199042
 21
7.3970860358
  0
LINE
  5
50F
100
AcDbEntity
  8
INCISIONI
100
AcDbLine
 62
253
  6
CONTINUOUS
 10
-44.2535371658
 20
10.6206919281
 11
-39.7568832031
 21
9.4527969281
  0
LINE
  5
510
100
AcDbEntity
  8
INCISIONI
100
AcDbLine
 62
253
  6
CONTINUOUS
 10
-42.4814750764
 20
10.6482479281
 11
-40.2545355787
 21
10.0698549281
  0
LINE
  5
511
100
AcDbEntity
  8
INCISIONI
100
AcDbLine
 62
253
  6
CONTINUOUS
 10
-41.0631442124
 20
11.1965879281
 11
-42.2303535879
 21
11.4997419281
  0
LINE
  5
512
100
AcDbEntity
  8
0
100
AcDbLine
 62
253
  6
CONTINUOUS
 10
-38.1415617135
 20
10.5732888176
 11
-37.598704603
 21
10.3018602623
  0
LINE
  5
513
100
AcDbEntity
  8
0
100
AcDbLine
 62
253
  6
CONTINUOUS
 10
-38.548704603
 20
12.0661459281
 11
-38.2772760478
 21
11.8851935579
  0
LINE
  5
514
100
AcDbEntity
  8
0
100
AcDbLine
 62
253
  6
CONTINUOUS
 10
-36.9201331866
 20
12.7447172596
 11
-36.648704603
 21
12.4732888176
  0
LINE
  5
515
100
AcDbEntity
  8
0
100
AcDbLine
 62
253
  6
CONTINUOUS
 10
-38.548704603
 20
15.0518601491
 11
-38.2772760478
 21
14.7804317071
  0
LINE
  5
516
100
AcDbEntity
  8
0
100
AcDbLine
 62
253
  6
CONTINUOUS
 10
-36.648704603
 20
15.0518601491
 11
-37.1915617702
 21
15.5947174861
  0
LINE
  5
517
100
AcDbEntity
  8
IMPORT_IGES
100
AcDbLine
 62
7
  6
CONTINUOUS
 10
-23.498704603
 20
4.9880634399
 11
-23.498704603
 21
7.1970860358
  0
LINE
  5
518
100
AcDbEntity
  8
INCISIONI
100
AcDbLine
 62
253
  6
CONTINUOUS
 10
-22.8627275025
 20
12.4038979281
 11
-22.8627275025
 21
11.3481989281
  0
LINE
  5
519
100
AcDbEntity
  8
0
100
AcDbLine
 62
253
  6
CONTINUOUS
 10
-38.548704603
 20
9.7590030952
 11
-36.648704603
 21
9.7590030952
  0
LINE
  5
51A
100
AcDbEntity
  8
0
100
AcDbLine
 62
253
  6
CONTINUOUS
 10
-37.598704603
 20
10.3018602623
 11
-36.9201331866
 21
10.3018602623
  0
LINE
  5
51B
100
AcDbEntity
  8
INCISIONI
100
AcDbLine
 62
253
  6
CONTINUOUS
 10
-16.3140257563
 20
10.7161459281
 11
-17.8135688766
 21
10.7161459281
  0
LINE
  5
51C
100
AcDbEntity
  8
INCISIONI
100
AcDbLine
 62
253
  6
CONTINUOUS
 10
-25.3003977948
 20
10.7161459281
 11
-26.5996469405
 21
10.7161459281
  0
LINE
  5
51D
100
AcDbEntity
  8
INCISIONI
100
AcDbLine
 62
253
  6
CONTINUOUS
 10
-21.5624266772
 20
11.0719189281
 11
-22.8627275025
 21
11.0719189281
  0
LINE
  5
51E
100
AcDbEntity
  8
0
100
AcDbLine
 62
253
  6
CONTINUOUS
 10
-36.9201331866
 20
11.2518601491
 11
-37.4629903254
 21
11.2518601491
  0
LINE
  5
51F
100
AcDbEntity
  8
INCISIONI
100
AcDbLine
 62
253
  6
CONTINUOUS
 10
-34.6545177882
 20
11.3310359281
 11
-33.9039264778
 21
11.3310359281
  0
LINE
  5
520
100
AcDbEntity
  8
INCISIONI
100
AcDbLine
 62
253
  6
CONTINUOUS
 10
-30.3105812957
 20
11.3310359281
 11
-29.5599899853
 21
11.3310359281
  0
LINE
  5
521
100
AcDbEntity
  8
INCISIONI
100
AcDbLine
 62
253
  6
CONTINUOUS
 10
-42.4318571939
 20
12.0063329281
 11
-41.2853525102
 21
11.7085559281
  0
LINE
  5
522
100
AcDbEntity
  8
INCISIONI
100
AcDbLine
 62
253
  6
CONTINUOUS
 10
-41.2992532749
 20
12.6571729281
 11
-42.0963454174
 21
12.8641979281
  0
LINE
  5
523
100
AcDbEntity
  8
INCISIONI
100
AcDbLine
 62
253
  6
CONTINUOUS
 10
-40.1144402629
 20
12.3494469281
 11
-40.7249052668
 21
12.5079999281
  0
LINE
  5
524
100
AcDbEntity
  8
INCISIONI
100
AcDbLine
 62
253
  6
CONTINUOUS
 10
-42.3265302848
 20
13.3738409281
 11
-41.5193112278
 21
13.1641859281
  0
LINE
  5
525
100
AcDbEntity
  8
INCISIONI
100
AcDbLine
 62
253
  6
CONTINUOUS
 10
-40.9449632197
 20
13.0150129281
 11
-40.357249284
 21
12.8623689281
  0
LINE
  5
526
100
AcDbEntity
  8
INCISIONI
100
AcDbLine
 62
253
  6
CONTINUOUS
 10
-22.017010175
 20
12.6716719281
 11
-22.017010175
 21
13.4145289281
  0
LINE
  5
527
100
AcDbEntity
  8
IMPORT_IGES
100
AcDbLine
 62
7
  6
CONTINUOUS
 10
-21.6000891489
 20
7.2011866036
 11
-21.6000891489
 21
4.8219561112
  0
LINE
  5
528
100
AcDbEntity
  8
INCISIONI
100
AcDbLine
 62
253
  6
CONTINUOUS
 10
-21.5624266772
 20
14.6095099281
 11
-21.5624266772
 21
13.8625289281
  0
LINE
  5
529
100
AcDbEntity
  8
INCISIONI
100
AcDbLine
 62
253
  6
CONTINUOUS
 10
-42.6636545701
 20
-16.2841140719
 11
-39.7648847652
 21
-15.3648670719
  0
LINE
  5
52A
100
AcDbEntity
  8
0
100
AcDbLine
 62
253
  6
CONTINUOUS
 10
-36.9201331866
 20
11.7947172596
 11
-37.4629903254
 21
11.7947172596
  0
LINE
  5
52B
100
AcDbEntity
  8
INCISIONI
100
AcDbLine
 62
253
  6
CONTINUOUS
 10
-21.5624266772
 20
11.8760479281
 11
-22.8627275025
 21
11.8760479281
  0
LINE
  5
52C
100
AcDbEntity
  8
0
100
AcDbLine
 62
253
  6
CONTINUOUS
 10
-38.2772760478
 20
11.8851935579
 11
-37.8701331583
 21
11.8851935579
  0
LINE
  5
52D
100
AcDbEntity
  8
INCISIONI
100
AcDbLine
 62
253
  6
CONTINUOUS
 10
-26.5996469405
 20
11.9620599281
 11
-25.3003977948
 21
11.9620599281
  0
LINE
  5
52E
100
AcDbEntity
  8
INCISIONI
100
AcDbLine
 62
253
  6
CONTINUOUS
 10
-23.431412236
 20
12.5469529281
 11
-24.7306623814
 21
12.5469529281
  0
LINE
  5
52F
100
AcDbEntity
  8
0
100
AcDbLine
 62
253
  6
CONTINUOUS
 10
-37.8701331583
 20
12.6542411877
 11
-38.2772760478
 21
12.6542411877
  0
LINE
  5
530
100
AcDbEntity
  8
0
100
AcDbLine
 62
253
  6
CONTINUOUS
 10
-37.4629903254
 20
12.7447172596
 11
-36.9201331866
 21
12.7447172596
  0
LINE
  5
531
100
AcDbEntity
  8
INCISIONI
100
AcDbLine
 62
253
  6
CONTINUOUS
 10
-23.431412236
 20
12.9353219281
 11
-24.7306623814
 21
12.9353219281
  0
LINE
  5
532
100
AcDbEntity
  8
INCISIONI
100
AcDbLine
 62
253
  6
CONTINUOUS
 10
-25.3003977948
 20
13.4469789281
 11
-26.5996469405
 21
13.4469789281
  0
LINE
  5
533
100
AcDbEntity
  8
INCISIONI
100
AcDbLine
 62
253
  6
CONTINUOUS
 10
-40.469865972
 20
13.8304499281
 11
-41.0034773917
 21
13.9690429281
  0
LINE
  5
534
100
AcDbEntity
  8
INCISIONI
100
AcDbLine
 62
253
  6
CONTINUOUS
 10
-42.4462378124
 20
14.7889049281
 11
-41.6219629519
 21
14.5748189281
  0
LINE
  5
535
100
AcDbEntity
  8
INCISIONI
100
AcDbLine
 62
253
  6
CONTINUOUS
 10
-41.2212270479
 20
14.4707379281
 11
-40.0452513433
 21
14.1653069281
  0
LINE
  5
536
100
AcDbEntity
  8
INCISIONI
100
AcDbLine
 62
253
  6
CONTINUOUS
 10
-39.7568832031
 20
15.0758209281
 11
-42.2222740496
 21
15.7161459281
  0
LINE
  5
537
100
AcDbEntity
  8
0
100
AcDbLine
 62
253
  6
CONTINUOUS
 10
-37.0558474642
 20
13.2875743701
 11
-38.548704603
 21
13.6947174861
  0
LINE
  5
538
100
AcDbEntity
  8
IMPORT_IGES
100
AcDbLine
 62
7
  6
CONTINUOUS
 10
-19.898704603
 20
7.3702911165
 11
-19.898704603
 21
4.6731042512
  0
LINE
  5
539
100
AcDbEntity
  8
RACCORDO
100
AcDbLine
 62
7
  6
CONTINUOUS
 10
-19.598704603
 20
18.6664413932
 11
-19.598704603
 21
18.9457319283
  0
LINE
  5
53A
100
AcDbEntity
  8
ASSI
100
AcDbLine
 62
7
  6
CONTINUOUS
 10
-19.598704603
 20
18.6664413932
 11
-19.598704603
 21
18.9457319283
  0
LINE
  5
53B
100
AcDbEntity
  8
IMPORT_IGES
100
AcDbLine
 62
7
  6
CONTINUOUS
 10
-18.898704603
 20
10.0466762685
 11
-18.898704603
 21
4.5856155876
  0
LINE
  5
53C
100
AcDbEntity
  8
INCISIONI
100
AcDbLine
 62
253
  6
CONTINUOUS
 10
-17.8135688766
 20
10.7161459281
 11
-17.8135688766
 21
14.2161459281
  0
LINE
  5
53D
100
AcDbEntity
  8
INCISIONI
100
AcDbLine
 62
253
  6
CONTINUOUS
 10
-21.5624266772
 20
13.8625289281
 11
-22.8627275025
 21
13.8625289281
  0
LINE
  5
53E
100
AcDbEntity
  8
0
100
AcDbLine
 62
253
  6
CONTINUOUS
 10
-36.648704603
 20
13.9209080054
 11
-37.598704603
 21
13.9209080054
  0
LINE
  5
53F
100
AcDbEntity
  8
INCISIONI
100
AcDbLine
 62
253
  6
CONTINUOUS
 10
-23.431412236
 20
13.9675739281
 11
-24.7306623814
 21
13.9675739281
  0
LINE
  5
540
100
AcDbEntity
  8
INCISIONI
100
AcDbLine
 62
253
  6
CONTINUOUS
 10
-14.3860411733
 20
14.2161459281
 11
-14.793060163
 21
14.2161459281
  0
LINE
  5
541
100
AcDbEntity
  8
INCISIONI
100
AcDbLine
 62
253
  6
CONTINUOUS
 10
-15.5642541962
 20
14.2161459281
 11
-16.3140257563
 21
14.2161459281
  0
LINE
  5
542
100
AcDbEntity
  8
INCISIONI
100
AcDbLine
 62
253
  6
CONTINUOUS
 10
-17.8135688766
 20
14.2161459281
 11
-18.5633404367
 21
14.2161459281
  0
LINE
  5
543
100
AcDbEntity
  8
INCISIONI
100
AcDbLine
 62
253
  6
CONTINUOUS
 10
-25.3003977948
 20
14.7634489281
 11
-26.5996469405
 21
14.7634489281
  0
LINE
  5
544
100
AcDbEntity
  8
0
100
AcDbLine
 62
253
  6
CONTINUOUS
 10
-38.2772760478
 20
14.7804317071
 11
-37.7344189373
 21
14.7804317071
  0
LINE
  5
545
100
AcDbEntity
  8
INCISIONI
100
AcDbLine
 62
253
  6
CONTINUOUS
 10
-22.1349632372
 20
14.9762709281
 11
-21.5624266772
 21
14.9762709281
  0
LINE
  5
546
100
AcDbEntity
  8
INCISIONI
100
AcDbLine
 62
253
  6
CONTINUOUS
 10
-13.5720031938
 20
15.0304319281
 11
-12.8936388774
 21
15.0304319281
  0
LINE
  5
547
100
AcDbEntity
  8
INCISIONI
100
AcDbLine
 62
253
  6
CONTINUOUS
 10
-31.7323681067
 20
15.3161459281
 11
-32.4821396668
 21
15.3161459281
  0
LINE
  5
548
100
AcDbEntity
  8
INCISIONI
100
AcDbLine
 62
253
  6
CONTINUOUS
 10
-29.5599899853
 20
15.7161459281
 11
-30.3105812957
 21
15.7161459281
  0
LINE
  5
549
100
AcDbEntity
  8
INCISIONI
100
AcDbLine
 62
253
  6
CONTINUOUS
 10
-33.9039264778
 20
15.7161459281
 11
-34.6545177882
 21
15.7161459281
  0
LINE
  5
54A
100
AcDbEntity
  8
0
100
AcDbLine
 62
253
  6
CONTINUOUS
 10
-37.7344189373
 20
15.7304317071
 11
-38.2772760478
 21
15.7304317071
  0
LINE
  5
54B
100
AcDbEntity
  8
0
100
AcDbLine
 62
253
  6
CONTINUOUS
 10
-37.1915617702
 20
15.5947174861
 11
-37.7344189373
 21
15.7304317071
  0
LINE
  5
54C
100
AcDbEntity
  8
INCISIONI
100
AcDbLine
 62
253
  6
CONTINUOUS
 10
-25.3003977948
 20
12.1326929281
 11
-26.5996469405
 21
12.7063069281
  0
LINE
  5
54D
100
AcDbEntity
  8
INCISIONI
100
AcDbLine
 62
253
  6
CONTINUOUS
 10
-25.3003977948
 20
11.3391029281
 11
-26.5996469405
 21
11.9620599281
  0
LINE
  5
54E
100
AcDbEntity
  8
INCISIONI
100
AcDbLine
 62
253
  6
CONTINUOUS
 10
-16.3140257563
 20
14.2161459281
 11
-16.3140257563
 21
10.7161459281
  0
LINE
  5
54F
100
AcDbEntity
  8
RACCORDO
100
AcDbLine
 62
253
  6
CONTINUOUS
 10
-44.6449526822
 20
17.6517038303
 11
-44.8470542398
 21
17.6481761345
  0
LINE
  5
550
100
AcDbEntity
  8
INCISIONI
100
AcDbLine
 62
253
  6
CONTINUOUS
 10
-12.8936388774
 20
16.1161459281
 11
-13.5720031938
 21
16.1161459281
  0
LINE
  5
551
100
AcDbEntity
  8
RACCORDO
100
AcDbLine
 62
253
  6
CONTINUOUS
 10
-10.5512988901
 20
16.8052182408
 11
-11.5312521966
 21
16.8052186324
  0
LINE
  5
552
100
AcDbEntity
  8
ASSI
100
AcDbLine
 62
253
  6
CONTINUOUS
 10
-10.5512988901
 20
16.8052182408
 11
-11.5312521966
 21
16.8052186324
  0
LINE
  5
553
100
AcDbEntity
  8
RACCORDO
100
AcDbLine
 62
253
  6
CONTINUOUS
 10
-10.6900137818
 20
17.8050663264
 11
-10.548704603
 21
17.8050663275
  0
LINE
  5
554
100
AcDbEntity
  8
ASSI
100
AcDbLine
 62
253
  6
CONTINUOUS
 10
-10.6900137818
 20
17.8050663264
 11
-10.548704603
 21
17.8050663275
  0
LINE
  5
555
100
AcDbEntity
  8
0
100
AcDbLine
 62
253
  6
CONTINUOUS
 10
-44.648704603
 20
17.3832859144
 11
-11.5312521966
 21
16.8052186324
  0
LINE
  5
556
100
AcDbEntity
  8
ASSI
100
AcDbLine
 62
253
  6
CONTINUOUS
 10
-44.648704603
 20
17.3832859144
 11
-11.5312521966
 21
16.8052186324
  0
LINE
  5
557
100
AcDbEntity
  8
RACCORDO
100
AcDbLine
 62
7
  6
CONTINUOUS
 10
-45.548704603
 20
17.8786572646
 11
-45.2051267317
 21
17.8485980958
  0
LINE
  5
558
100
AcDbEntity
  8
RACCORDO
100
AcDbLine
 62
7
  6
CONTINUOUS
 10
-44.8312734545
 20
18.0658901722
 11
-45.548704603
 21
18.1286572646
  0
LINE
  5
559
100
AcDbEntity
  8
ASSI
100
AcDbLine
 62
7
  6
CONTINUOUS
 10
-44.8312734545
 20
18.0658901722
 11
-45.548704603
 21
18.1286572646
  0
LINE
  5
55A
100
AcDbEntity
  8
INCISIONI
100
AcDbLine
 62
253
  6
CONTINUOUS
 10
-21.5624266772
 20
12.4720249281
 11
-22.8627275025
 21
13.0430999281
  0
LINE
  5
55B
100
AcDbEntity
  8
INCISIONI
100
AcDbLine
 62
253
  6
CONTINUOUS
 10
-15.0644064894
 20
14.4875749281
 11
-15.0644064894
 21
16.1161459281
  0
LINE
  5
55C
100
AcDbEntity
  8
INCISIONI
100
AcDbLine
 62
253
  6
CONTINUOUS
 10
-14.1146958466
 20
16.1161459281
 11
-14.1146958466
 21
14.4875749281
  0
LINE
  5
55D
100
AcDbEntity
  8
INCISIONI
100
AcDbLine
 62
253
  6
CONTINUOUS
 10
-13.5720031938
 20
16.1161459281
 11
-13.5720031938
 21
14.2161459281
  0
LINE
  5
55E
100
AcDbEntity
  8
DRAFT
100
AcDbLine
 62
7
  6
CONTINUOUS
 10
-13.248704603
 20
4.0913046387
 11
-13.248704603
 21
10.5409872174
  0
LINE
  5
55F
100
AcDbEntity
  8
ASSI
100
AcDbLine
 62
7
  6
CONTINUOUS
 10
-13.248704603
 20
4.0913046387
 11
-13.248704603
 21
10.5409872174
  0
LINE
  5
560
100
AcDbEntity
  8
0
100
AcDbLine
 62
7
  6
CONTINUOUS
 10
-46.4418365208
 20
-24.9545097252
 11
-42.0695080048
 21
-23.5338540719
  0
LINE
  5
561
100
AcDbEntity
  8
0
100
AcDbLine
 62
7
  6
CONTINUOUS
 10
-46.318229723
 20
-25.3349323317
 11
-40.7750808138
 21
-23.5338540719
  0
LINE
  5
562
100
AcDbEntity
  8
0
100
AcDbLine
 62
7
  6
CONTINUOUS
 10
-36.548704603
 20
19.6116426553
 11
-45.548704603
 21
19.4545470709
  0
LINE
  5
563
100
AcDbEntity
  8
RACCORDO
100
AcDbLine
 62
7
  6
CONTINUOUS
 10
-11.5312521966
 20
18.8049140227
 11
-45.548704603
 21
19.3986908632
  0
LINE
  5
564
100
AcDbEntity
  8
ASSI
100
AcDbLine
 62
7
  6
CONTINUOUS
 10
-11.5312521966
 20
18.8049140227
 11
-45.548704603
 21
19.3986908632
  0
LINE
  5
565
100
AcDbEntity
  8
DRAFT
100
AcDbLine
 62
7
  6
CONTINUOUS
 10
-41.41970844
 20
19.526618967
 11
-36.548704603
 21
19.4415952788
  0
LINE
  5
566
100
AcDbEntity
  8
ASSI
100
AcDbLine
 62
7
  6
CONTINUOUS
 10
-41.41970844
 20
19.526618967
 11
-36.548704603
 21
19.4415952788
  0
LINE
  5
567
100
AcDbEntity
  8
ASSI
100
AcDbLine
 62
7
  6
CONTINUOUS
 10
-18.9229316074
 20
18.6929333448
 11
-19.598704603
 21
18.7153845052
  0
LWPOLYLINE
  5
568
100
AcDbEntity
  8
ASSI
100
AcDbPolyline
 62
7
  6
CONTINUOUS
 90
7
 70
0
 10
-12.8400953136
 20
18.476334425
 10
-13.828297664
 20
18.5134877444
 10
-14.8351448664
 20
18.5505235384
 10
-15.8606369037
 20
18.5874243547
 10
-16.9047731214
 20
18.6241750227
 10
-17.9675533417
 20
18.6607628381
 10
-18.9229316074
 20
18.6929333448
  0
LWPOLYLINE
  5
569
100
AcDbEntity
  8
RACCORDO
100
AcDbPolyline
 62
7
  6
CONTINUOUS
 90
10
 70
0
 10
-11.519044801
 20
18.4253782524
 10
-12.2425218699
 20
18.4534702908
 10
-13.1251346047
 20
18.4871342315
 10
-14.0230212487
 20
18.5207140363
 10
-14.9361822456
 20
18.5541955376
 10
-15.8646175753
 20
18.5875660171
 10
-16.8083267505
 20
18.6208142928
 10
-17.7673096431
 20
18.6539308371
 10
-18.7415664813
 20
18.6869078635
 10
-19.598704603
 20
18.7153845052
  0
LINE
  5
56A
100
AcDbEntity
  8
ASSI
100
AcDbLine
 62
7
  6
CONTINUOUS
 10
-11.519044801
 20
18.4253782524
 11
-12.8400953136
 21
18.476334425
  0
LINE
  5
56B
100
AcDbEntity
  8
RACCORDO
100
AcDbLine
 62
253
  6
CONTINUOUS
 10
-56.7659038658
 20
21.0710548737
 11
-57.0112245994
 21
21.0836239784
  0
LINE
  5
56C
100
AcDbEntity
  8
0
100
AcDbLine
 62
7
  6
CONTINUOUS
 10
-46.4418365208
 20
24.3868015813
 11
-42.0695080048
 21
22.9661459281
  0
LINE
  5
56D
100
AcDbEntity
  8
0
100
AcDbLine
 62
7
  6
CONTINUOUS
 10
-46.318229723
 20
24.7672241878
 11
-40.7750808138
 21
22.9661459281
  0
LINE
  5
56E
100
AcDbEntity
  8
INCISIONI
100
AcDbLine
 62
253
  6
CONTINUOUS
 10
-22.8627275025
 20
15.4515979281
 11
-22.1349632372
 21
14.9762709281
  0
LINE
  5
56F
100
AcDbEntity
  8
INCISIONI
100
AcDbLine
 62
253
  6
CONTINUOUS
 10
-12.622292551
 20
15.3018599281
 11
-12.622292551
 21
15.8447169281
  0
LINE
  5
570
100
AcDbEntity
  8
RACCORDO
100
AcDbLine
 62
253
  6
CONTINUOUS
 10
-11.5312521966
 20
16.8052186324
 11
-11.5312521966
 21
10.6912448332
  0
LINE
  5
571
100
AcDbEntity
  8
ASSI
100
AcDbLine
 62
253
  6
CONTINUOUS
 10
-11.5312521966
 20
16.8052186324
 11
-11.5312521966
 21
10.6912448332
  0
LINE
  5
572
100
AcDbEntity
  8
RACCORDO
100
AcDbLine
 62
253
  6
CONTINUOUS
 10
-11.5312521966
 20
3.941047023
 11
-11.5312521966
 21
-17.3729267762
  0
LINE
  5
573
100
AcDbEntity
  8
ASSI
100
AcDbLine
 62
253
  6
CONTINUOUS
 10
-11.5312521966
 20
3.941047023
 11
-11.5312521966
 21
-17.3729267762
  0
LINE
  5
574
100
AcDbEntity
  8
RACCORDO
100
AcDbLine
 62
253
  6
CONTINUOUS
 10
-11.0312548547
 20
10.7349889324
 11
-11.0312548547
 21
3.8973029238
  0
LINE
  5
575
100
AcDbEntity
  8
ASSI
100
AcDbLine
 62
253
  6
CONTINUOUS
 10
-11.0312548547
 20
10.7349889324
 11
-11.0312548547
 21
3.8973029238
  0
LINE
  5
576
100
AcDbEntity
  8
RACCORDO
100
AcDbLine
 62
7
  6
CONTINUOUS
 10
-36.548704603
 20
20.7732415124
 11
-45.548704603
 21
20.6161459281
  0
LINE
  5
577
100
AcDbEntity
  8
RACCORDO
100
AcDbLine
 62
253
  6
CONTINUOUS
 10
-47.6012141272
 20
21.9303573173
 11
-56.0299416648
 21
21.7832333308
  0
LINE
  5
578
100
AcDbEntity
  8
RACCORDO
100
AcDbLine
 62
7
  6
CONTINUOUS
 10
-56.0299345514
 20
22.0331953788
 11
-48.2444815001
 21
22.1690909673
  0
LINE
  5
579
100
AcDbEntity
  8
DRAFT
100
AcDbLine
 62
7
  6
CONTINUOUS
 10
-39.448704603
 20
22.3226218241
 11
-45.548704603
 21
22.2161459281
  0
LINE
  5
57A
100
AcDbEntity
  8
RACCORDO
100
AcDbLine
 62
253
  6
CONTINUOUS
 10
-49.548704603
 20
22.7161459281
 11
-48.548704603
 21
22.7161459281
  0
LINE
  5
57B
100
AcDbEntity
  8
RACCORDO
100
AcDbLine
 62
253
  6
CONTINUOUS
 10
-37.2943415014
 20
22.7161459281
 11
-45.548704603
 21
22.7161459281
  0
LINE
  5
57C
100
AcDbEntity
  8
RACCORDO
100
AcDbLine
 62
7
  6
CONTINUOUS
 10
-36.548704603
 20
22.2213515926
 11
-39.448704603
 21
22.3226218241
  0
LWPOLYLINE
  5
57D
100
AcDbEntity
  8
RACCORDO
100
AcDbPolyline
 62
7
  6
CONTINUOUS
 90
3
 70
0
 10
-11.3868619214
 20
18.4098049943
 10
-11.4849355838
 20
18.4232575738
 10
-11.5190490144
 20
18.4252681756
  0
LWPOLYLINE
  5
57E
100
AcDbEntity
  8
RACCORDO
100
AcDbPolyline
 62
7
  6
CONTINUOUS
 90
18
 70
0
 10
-10.551311341
 20
16.8214410275
 10
-10.5523351249
 20
16.9579067509
 10
-10.5555631326
 20
17.0907570485
 10
-10.5622704895
 20
17.2208156066
 10
-10.5739740036
 20
17.3481102047
 10
-10.5920304681
 20
17.4719719469
 10
-10.6173133712
 20
17.5910534563
 10
-10.6504334718
 20
17.7047837939
 10
-10.6920462401
 20
17.8133904647
 10
-10.7422024024
 20
17.9157074641
 10
-10.8004630763
 20
18.0104355272
 10
-10.8668593674
 20
18.097357591
 10
-10.9406530624
 20
18.1753619459
 10
-11.0205201501
 20
18.2434083449
 10
-11.1063268222
 20
18.3014782871
 10
-11.1969183273
 20
18.3487879635
 10
-11.290520491
 20
18.3848784551
 10
-11.3868619214
 20
18.4098049943
  0
LWPOLYLINE
  5
57F
100
AcDbEntity
  8
ASSI
100
AcDbPolyline
 62
7
  6
CONTINUOUS
 90
6
 70
0
 10
-10.5513001937
 20
16.8052197811
 10
-10.5522260504
 20
16.9501638017
 10
-10.5591726812
 20
17.1709187273
 10
-10.5786547741
 20
17.385553559
 10
-10.6176372238
 20
17.5923466217
 10
-10.6810342521
 20
17.7872642943
  0
LINE
  5
580
100
AcDbEntity
  8
RACCORDO
100
AcDbLine
 62
253
  6
CONTINUOUS
 10
-10.6378342353
 20
3.8628830796
 11
-10.6378342353
 21
0.7405717007
  0
LINE
  5
581
100
AcDbEntity
  8
ASSI
100
AcDbLine
 62
253
  6
CONTINUOUS
 10
-10.6378342353
 20
3.8628830796
 11
-10.6378342353
 21
0.7405717007
  0
LINE
  5
582
100
AcDbEntity
  8
RACCORDO
100
AcDbLine
 62
7
  6
CONTINUOUS
 10
-10.5932694192
 20
3.8594710538
 11
-10.5932694192
 21
0.8871999002
  0
LINE
  5
583
100
AcDbEntity
  8
ASSI
100
AcDbLine
 62
7
  6
CONTINUOUS
 10
-10.5932694192
 20
3.8594710538
 11
-10.5932694192
 21
0.8871999002
  0
LINE
  5
584
100
AcDbEntity
  8
RACCORDO
100
AcDbLine
 62
253
  6
CONTINUOUS
 10
-10.5526958139
 20
10.7768574233
 11
-10.5526962183
 21
16.8052186325
  0
LINE
  5
585
100
AcDbEntity
  8
ASSI
100
AcDbLine
 62
253
  6
CONTINUOUS
 10
-10.5526958139
 20
10.7768574233
 11
-10.5526962183
 21
16.8052186325
  0
LINE
  5
586
100
AcDbEntity
  8
RACCORDO
100
AcDbLine
 62
7
  6
CONTINUOUS
 10
-10.5512988901
 20
10.7765411007
 11
-10.551311341
 21
16.8214410275
  0
LINE
  5
587
100
AcDbEntity
  8
ASSI
100
AcDbLine
 62
7
  6
CONTINUOUS
 10
-10.5512988901
 20
10.7765411007
 11
-10.5512988901
 21
16.8052179986
  0
LINE
  5
588
100
AcDbEntity
  8
RACCORDO
100
AcDbLine
 62
7
  6
CONTINUOUS
 10
-10.548704603
 20
17.8050663275
 11
-10.548704603
 21
16.8052182408
  0
LINE
  5
589
100
AcDbEntity
  8
ASSI
100
AcDbLine
 62
7
  6
CONTINUOUS
 10
-10.548704603
 20
17.8050663275
 11
-10.548704603
 21
16.8052182408
  0
LINE
  5
58A
100
AcDbEntity
  8
RACCORDO
100
AcDbLine
 62
7
  6
CONTINUOUS
 10
-10.548704603
 20
10.7768574233
 11
-10.548704603
 21
-18.3727744714
  0
LINE
  5
58B
100
AcDbEntity
  8
ASSI
100
AcDbLine
 62
7
  6
CONTINUOUS
 10
-10.548704603
 20
10.7768574233
 11
-10.548704603
 21
-18.3727744714
  0
LINE
  5
58C
100
AcDbEntity
  8
RACCORDO
100
AcDbLine
 62
7
  6
CONTINUOUS
 10
-49.2987034459
 20
22.9661459281
 11
-48.548704603
 21
22.9661459281
  0
LINE
  5
58D
100
AcDbEntity
  8
RACCORDO
100
AcDbLine
 62
7
  6
CONTINUOUS
 10
-37.2987104671
 20
22.9661459281
 11
-45.548704603
 21
22.9661459281
  0
LINE
  5
58E
100
AcDbEntity
  8
RACCORDO
100
AcDbLine
 62
253
  6
CONTINUOUS
 10
-45.548704603
 20
23.4661459281
 11
-48.548704603
 21
23.4661459281
  0
LINE
  5
58F
100
AcDbEntity
  8
RACCORDO
100
AcDbLine
 62
7
  6
CONTINUOUS
 10
-45.548704603
 20
23.7161459281
 11
-48.2987032948
 21
23.7161459281
  0
LINE
  5
590
100
AcDbEntity
  8
0
100
AcDbLine
 62
7
  6
CONTINUOUS
 10
-47.348704603
 20
23.8014846264
 11
-47.748704603
 21
23.8014846264
  0
LINE
  5
591
100
AcDbEntity
  8
0
100
AcDbLine
 62
253
  6
CONTINUOUS
 10
-47.348704603
 20
24.1014846264
 11
-47.748704603
 21
24.1014846264
  0
LINE
  5
592
100
AcDbEntity
  8
0
100
AcDbLine
 62
7
  6
CONTINUOUS
 10
-47.048704603
 20
24.4014846264
 11
-46.5345416191
 21
24.4014846264
  0
LINE
  5
593
100
AcDbEntity
  8
0
100
AcDbLine
 62
7
  6
CONTINUOUS
 10
-47.048704603
 20
24.8014846264
 11
-46.5345416191
 21
24.8014846264
  0
LINE
  5
594
100
AcDbEntity
  8
INCISIONI
100
AcDbLine
 62
253
  6
CONTINUOUS
 10
-17.0637973164
 20
15.7161459281
 11
-15.5642541962
 21
14.2161459281
  0
LINE
  5
595
100
AcDbEntity
  8
INCISIONI
100
AcDbLine
 62
253
  6
CONTINUOUS
 10
-14.793060163
 20
14.2161459281
 11
-15.0644064894
 21
14.4875749281
  0
LINE
  5
596
100
AcDbEntity
  8
INCISIONI
100
AcDbLine
 62
253
  6
CONTINUOUS
 10
-12.622292551
 20
15.8447169281
 11
-12.8936388774
 21
16.1161459281
  0
LWPOLYLINE
  5
597
100
AcDbEntity
  8
ASSI
100
AcDbPolyline
 62
7
  6
CONTINUOUS
 90
8
 70
0
 10
-10.6810342521
 20
17.7872642943
 10
-10.76962926
 20
17.9629050286
 10
-10.8814987499
 20
18.1141984241
 10
-11.0153204841
 20
18.2394195321
 10
-11.1649539232
 20
18.3335775757
 10
-11.3221237082
 20
18.3943799158
 10
-11.4828342201
 20
18.4230894003
 10
-11.5190490793
 20
18.4252681783
  0
ARC
  5
598
100
AcDbEntity
  8
RACCORDO
100
AcDbCircle
 62
253
  6
CONTINUOUS
 10
-1983.1294699007
 20
-0.8160473351
 40
2001.8688418274
100
AcDbArc
 50
0.015231981
 51
0.4532243167
  0
ARC
  5
599
100
AcDbEntity
  8
RACCORDO
100
AcDbCircle
 62
253
  6
CONTINUOUS
 10
19.4770697622
 20
-15.4641645604
 40
0.9404303121
100
AcDbArc
 50
261.6241135465
 51
269.995253968
  0
ARC
  5
59A
100
AcDbEntity
  8
RACCORDO
100
AcDbCircle
 62
253
  6
CONTINUOUS
 10
19.6137054384
 20
-15.5945579232
 40
0.9369959972
100
AcDbArc
 50
179.5251110984
 51
187.2520627571
  0
ARC
  5
59B
100
AcDbEntity
  8
RACCORDO
100
AcDbCircle
 62
7
  6
CONTINUOUS
 10
19.4769918627
 20
-15.5838540719
 40
0.5
100
AcDbArc
 50
179.9996630208
 51
270.0003190383
  0
ARC
  5
59C
100
AcDbEntity
  8
RACCORDO
100
AcDbCircle
 62
253
  6
CONTINUOUS
 10
8.8099958228
 20
-22.3508501118
 40
0.2500538636
100
AcDbArc
 50
180.0209343653
 51
269.9790656347
  0
ARC
  5
59D
100
AcDbEntity
  8
RACCORDO
100
AcDbCircle
 62
7
  6
CONTINUOUS
 10
13.0270087221
 20
-23.2838328448
 40
0.2500190442
100
AcDbArc
 50
180.0048645742
 51
270.0048634405
  0
ARC
  5
59E
100
AcDbEntity
  8
RACCORDO
100
AcDbCircle
 62
7
  6
CONTINUOUS
 10
28.5269749712
 20
-23.2838328128
 40
0.2500190442
100
AcDbArc
 50
269.9951438845
 51
359.9951281005
  0
ARC
  5
59F
100
AcDbEntity
  8
RACCORDO
100
AcDbCircle
 62
7
  6
CONTINUOUS
 10
31.4269918627
 20
-24.0338540719
 40
0.25
100
AcDbArc
 50
180.0
 51
270.0
  0
ARC
  5
5A0
100
AcDbEntity
  8
RACCORDO
100
AcDbCircle
 62
7
  6
CONTINUOUS
 10
32.9269918627
 20
-24.0338540719
 40
0.25
100
AcDbArc
 50
270.0
 51
360.0
  0
ARC
  5
5A1
100
AcDbEntity
  8
RACCORDO
100
AcDbCircle
 62
253
  6
CONTINUOUS
 10
8.6628050018
 20
-24.0338726764
 40
0.2499847637
100
AcDbArc
 50
179.9957359353
 51
269.99711637
  0
ARC
  5
5A2
100
AcDbEntity
  8
RACCORDO
100
AcDbCircle
 62
253
  6
CONTINUOUS
 10
10.0911787235
 20
-24.0338726764
 40
0.2499847637
100
AcDbArc
 50
270.00288363
 51
0.0042640652
  0
ARC
  5
5A3
100
AcDbEntity
  8
RACCORDO
100
AcDbCircle
 62
253
  6
CONTINUOUS
 10
13.1906407916
 20
-23.2838752923
 40
0.2499809641
100
AcDbArc
 50
179.995136308
 51
269.9951356429
  0
ARC
  5
5A4
100
AcDbEntity
  8
RACCORDO
100
AcDbCircle
 62
253
  6
CONTINUOUS
 10
14.1633429338
 20
-23.2838752923
 40
0.2499809641
100
AcDbArc
 50
270.0048643571
 51
0.004863692
  0
ARC
  5
5A5
100
AcDbEntity
  8
RACCORDO
100
AcDbCircle
 62
253
  6
CONTINUOUS
 10
27.3906407916
 20
-23.2838752923
 40
0.2499809641
100
AcDbArc
 50
179.995136308
 51
269.9951356429
  0
ARC
  5
5A6
100
AcDbEntity
  8
RACCORDO
100
AcDbCircle
 62
253
  6
CONTINUOUS
 10
28.3633429338
 20
-23.2838752923
 40
0.2499809641
100
AcDbArc
 50
270.0048643571
 51
0.004863692
  0
ARC
  5
5A7
100
AcDbEntity
  8
RACCORDO
100
AcDbCircle
 62
7
  6
CONTINUOUS
 10
16.8437256279
 20
-24.1691927703
 40
0.2
100
AcDbArc
 50
270.0
 51
355.0
  0
ARC
  5
5A8
100
AcDbEntity
  8
RACCORDO
100
AcDbCircle
 62
7
  6
CONTINUOUS
 10
24.7102580975
 20
-24.1691927703
 40
0.2
100
AcDbArc
 50
185.0
 51
270.0
  0
ARC
  5
5A9
100
AcDbEntity
  8
RACCORDO
100
AcDbCircle
 62
253
  6
CONTINUOUS
 10
-1983.1301278942
 20
0.2483418811
 40
2001.8694998216
100
AcDbArc
 50
359.5467757553
 51
359.984767947
  0
ARC
  5
5AA
100
AcDbEntity
  8
RACCORDO
100
AcDbCircle
 62
253
  6
CONTINUOUS
 10
19.4770686951
 20
14.896470982
 40
0.9404157465
100
AcDbArc
 50
90.0046810924
 51
98.3759514002
  0
ARC
  5
5AB
100
AcDbEntity
  8
RACCORDO
100
AcDbCircle
 62
253
  6
CONTINUOUS
 10
19.6137147568
 20
15.0268510216
 40
0.9370053256
100
AcDbArc
 50
172.7470777361
 51
180.4749601336
  0
ARC
  5
5AC
100
AcDbEntity
  8
RACCORDO
100
AcDbCircle
 62
7
  6
CONTINUOUS
 10
19.4769918627
 20
15.0161459281
 40
0.5
100
AcDbArc
 50
89.9996522509
 51
180.0003058093
  0
ARC
  5
5AD
100
AcDbEntity
  8
RACCORDO
100
AcDbCircle
 62
253
  6
CONTINUOUS
 10
8.8099958228
 20
21.783141968
 40
0.2500538636
100
AcDbArc
 50
90.0209343639
 51
179.9790656361
  0
ARC
  5
5AE
100
AcDbEntity
  8
RACCORDO
100
AcDbCircle
 62
7
  6
CONTINUOUS
 10
13.0270087221
 20
22.7161247009
 40
0.2500190442
100
AcDbArc
 50
89.9951365595
 51
179.9951354258
  0
ARC
  5
5AF
100
AcDbEntity
  8
RACCORDO
100
AcDbCircle
 62
7
  6
CONTINUOUS
 10
28.5269749704
 20
22.7161246681
 40
0.2500190442
100
AcDbArc
 50
0.0048721005
 51
90.0048559147
  0
ARC
  5
5B0
100
AcDbEntity
  8
RACCORDO
100
AcDbCircle
 62
7
  6
CONTINUOUS
 10
32.9269918627
 20
23.4661459281
 40
0.25
100
AcDbArc
 50
0.0
 51
90.0
  0
ARC
  5
5B1
100
AcDbEntity
  8
RACCORDO
100
AcDbCircle
 62
7
  6
CONTINUOUS
 10
31.4269918627
 20
23.4661459281
 40
0.25
100
AcDbArc
 50
90.0
 51
180.0
  0
ARC
  5
5B2
100
AcDbEntity
  8
RACCORDO
100
AcDbCircle
 62
253
  6
CONTINUOUS
 10
13.1906408235
 20
22.7161671166
 40
0.2499809641
100
AcDbArc
 50
90.0048716834
 51
180.0048563682
  0
ARC
  5
5B3
100
AcDbEntity
  8
RACCORDO
100
AcDbCircle
 62
253
  6
CONTINUOUS
 10
14.1633429007
 20
22.7161671155
 40
0.2499809641
100
AcDbArc
 50
359.9951438723
 51
89.9951280773
  0
ARC
  5
5B4
100
AcDbEntity
  8
RACCORDO
100
AcDbCircle
 62
253
  6
CONTINUOUS
 10
27.3906408235
 20
22.7161671166
 40
0.2499809641
100
AcDbArc
 50
90.0048716828
 51
180.0048563676
  0
ARC
  5
5B5
100
AcDbEntity
  8
RACCORDO
100
AcDbCircle
 62
253
  6
CONTINUOUS
 10
28.3633429007
 20
22.7161671155
 40
0.2499809641
100
AcDbArc
 50
359.9951438718
 51
89.9951280767
  0
ARC
  5
5B6
100
AcDbEntity
  8
RACCORDO
100
AcDbCircle
 62
253
  6
CONTINUOUS
 10
10.0911819959
 20
23.4661671155
 40
0.2499809641
100
AcDbArc
 50
359.9951438714
 51
89.9951280771
  0
ARC
  5
5B7
100
AcDbEntity
  8
RACCORDO
100
AcDbCircle
 62
253
  6
CONTINUOUS
 10
8.6628017284
 20
23.4661671166
 40
0.2499809641
100
AcDbArc
 50
90.0048716825
 51
180.0048563679
  0
ARC
  5
5B8
100
AcDbEntity
  8
RACCORDO
100
AcDbCircle
 62
7
  6
CONTINUOUS
 10
24.7102580975
 20
23.6014846264
 40
0.2
100
AcDbArc
 50
90.0
 51
175.0
  0
ARC
  5
5B9
100
AcDbEntity
  8
RACCORDO
100
AcDbCircle
 62
7
  6
CONTINUOUS
 10
16.8437256279
 20
23.6014846264
 40
0.2
100
AcDbArc
 50
5.0
 51
90.0
  0
ARC
  5
5BA
100
AcDbEntity
  8
RACCORDO
100
AcDbCircle
 62
253
  6
CONTINUOUS
 10
2074.6586943755
 20
-0.8159072077
 40
2001.8440822431
100
AcDbArc
 50
179.5467740883
 51
179.9847718412
  0
ARC
  5
5BB
100
AcDbEntity
  8
RACCORDO
100
AcDbCircle
 62
253
  6
CONTINUOUS
 10
72.0769150302
 20
-15.4641791258
 40
0.9404157465
100
AcDbArc
 50
270.0046810924
 51
278.3759514002
  0
ARC
  5
5BC
100
AcDbEntity
  8
RACCORDO
100
AcDbCircle
 62
253
  6
CONTINUOUS
 10
71.9403183672
 20
-15.594560302
 40
0.936955938
100
AcDbArc
 50
352.7477708712
 51
0.4750546768
  0
ARC
  5
5BD
100
AcDbEntity
  8
RACCORDO
100
AcDbCircle
 62
7
  6
CONTINUOUS
 10
72.0769918627
 20
-15.5838540719
 40
0.5
100
AcDbArc
 50
269.999652251
 51
0.0003058093
  0
ARC
  5
5BE
100
AcDbEntity
  8
RACCORDO
100
AcDbCircle
 62
253
  6
CONTINUOUS
 10
82.7439878828
 20
-22.3508500921
 40
0.2500538636
100
AcDbArc
 50
270.0209388899
 51
359.9790611101
  0
ARC
  5
5BF
100
AcDbEntity
  8
RACCORDO
100
AcDbCircle
 62
7
  6
CONTINUOUS
 10
78.5269749712
 20
-23.2838328128
 40
0.2500190442
100
AcDbArc
 50
269.9951438846
 51
359.9951281006
  0
ARC
  5
5C0
100
AcDbEntity
  8
RACCORDO
100
AcDbCircle
 62
7
  6
CONTINUOUS
 10
63.0270087221
 20
-23.2838328448
 40
0.2500190442
100
AcDbArc
 50
180.0048645742
 51
270.0048634405
  0
ARC
  5
5C1
100
AcDbEntity
  8
RACCORDO
100
AcDbCircle
 62
7
  6
CONTINUOUS
 10
58.6269918627
 20
-24.0338540719
 40
0.25
100
AcDbArc
 50
180.0
 51
270.0
  0
ARC
  5
5C2
100
AcDbEntity
  8
RACCORDO
100
AcDbCircle
 62
7
  6
CONTINUOUS
 10
60.1269918627
 20
-24.0338540719
 40
0.25
100
AcDbArc
 50
270.0
 51
360.0
  0
ARC
  5
5C3
100
AcDbEntity
  8
RACCORDO
100
AcDbCircle
 62
253
  6
CONTINUOUS
 10
81.4628016964
 20
-24.0338752923
 40
0.2499809641
100
AcDbArc
 50
179.995136308
 51
269.995135643
  0
ARC
  5
5C4
100
AcDbEntity
  8
RACCORDO
100
AcDbCircle
 62
253
  6
CONTINUOUS
 10
82.8911820289
 20
-24.0338752923
 40
0.2499809641
100
AcDbArc
 50
270.0048643571
 51
0.004863692
  0
ARC
  5
5C5
100
AcDbEntity
  8
RACCORDO
100
AcDbCircle
 62
253
  6
CONTINUOUS
 10
63.1906407916
 20
-23.2838752923
 40
0.2499809641
100
AcDbArc
 50
179.995136308
 51
269.9951356429
  0
ARC
  5
5C6
100
AcDbEntity
  8
RACCORDO
100
AcDbCircle
 62
253
  6
CONTINUOUS
 10
77.3906407916
 20
-23.2838752923
 40
0.2499809641
100
AcDbArc
 50
179.995136308
 51
269.9951356429
  0
ARC
  5
5C7
100
AcDbEntity
  8
RACCORDO
100
AcDbCircle
 62
253
  6
CONTINUOUS
 10
78.3633429338
 20
-23.2838752923
 40
0.2499809641
100
AcDbArc
 50
270.0048643571
 51
0.004863692
  0
ARC
  5
5C8
100
AcDbEntity
  8
RACCORDO
100
AcDbCircle
 62
253
  6
CONTINUOUS
 10
64.1633429338
 20
-23.2838752923
 40
0.2499809641
100
AcDbArc
 50
270.0048643571
 51
0.004863692
  0
ARC
  5
5C9
100
AcDbEntity
  8
RACCORDO
100
AcDbCircle
 62
7
  6
CONTINUOUS
 10
66.8437256279
 20
-24.1691927703
 40
0.2
100
AcDbArc
 50
270.0
 51
355.0
  0
ARC
  5
5CA
100
AcDbEntity
  8
RACCORDO
100
AcDbCircle
 62
7
  6
CONTINUOUS
 10
74.7102580975
 20
-24.1691927703
 40
0.2
100
AcDbArc
 50
185.0
 51
270.0
  0
ARC
  5
5CB
100
AcDbEntity
  8
RACCORDO
100
AcDbCircle
 62
253
  6
CONTINUOUS
 10
2074.6584998158
 20
0.2481982685
 40
2001.8438876832
100
AcDbArc
 50
180.0152281375
 51
180.4532259329
  0
ARC
  5
5CC
100
AcDbEntity
  8
RACCORDO
100
AcDbCircle
 62
253
  6
CONTINUOUS
 10
72.0769139632
 20
14.8964564165
 40
0.9404303121
100
AcDbArc
 50
81.6241135466
 51
89.995253968
  0
ARC
  5
5CD
100
AcDbEntity
  8
RACCORDO
100
AcDbCircle
 62
253
  6
CONTINUOUS
 10
71.9402781189
 20
15.0268497752
 40
0.9369961652
100
AcDbArc
 50
359.5251114402
 51
7.2520629941
  0
ARC
  5
5CE
100
AcDbEntity
  8
RACCORDO
100
AcDbCircle
 62
7
  6
CONTINUOUS
 10
72.0769918627
 20
15.0161459281
 40
0.5
100
AcDbArc
 50
359.9996630208
 51
90.0003190383
  0
ARC
  5
5CF
100
AcDbEntity
  8
RACCORDO
100
AcDbCircle
 62
253
  6
CONTINUOUS
 10
82.7439878828
 20
21.7831419482
 40
0.2500538636
100
AcDbArc
 50
0.0209388913
 51
89.9790611087
  0
ARC
  5
5D0
100
AcDbEntity
  8
RACCORDO
100
AcDbCircle
 62
7
  6
CONTINUOUS
 10
78.5269749704
 20
22.7161246681
 40
0.2500190442
100
AcDbArc
 50
0.0048720997
 51
90.004855914
  0
ARC
  5
5D1
100
AcDbEntity
  8
RACCORDO
100
AcDbCircle
 62
7
  6
CONTINUOUS
 10
63.0270087221
 20
22.7161247009
 40
0.2500190442
100
AcDbArc
 50
89.9951365595
 51
179.9951354258
  0
ARC
  5
5D2
100
AcDbEntity
  8
RACCORDO
100
AcDbCircle
 62
7
  6
CONTINUOUS
 10
60.1269918627
 20
23.4661459281
 40
0.25
100
AcDbArc
 50
0.0
 51
90.0
  0
ARC
  5
5D3
100
AcDbEntity
  8
RACCORDO
100
AcDbCircle
 62
7
  6
CONTINUOUS
 10
58.6269918627
 20
23.4661459281
 40
0.25
100
AcDbArc
 50
90.0
 51
180.0
  0
ARC
  5
5D4
100
AcDbEntity
  8
RACCORDO
100
AcDbCircle
 62
253
  6
CONTINUOUS
 10
82.8911787362
 20
23.4661645187
 40
0.2499847637
100
AcDbArc
 50
359.9957391038
 51
89.99711637
  0
ARC
  5
5D5
100
AcDbEntity
  8
RACCORDO
100
AcDbCircle
 62
253
  6
CONTINUOUS
 10
81.4628049891
 20
23.4661645187
 40
0.2499847637
100
AcDbArc
 50
90.0028836299
 51
180.0042608961
  0
ARC
  5
5D6
100
AcDbEntity
  8
RACCORDO
100
AcDbCircle
 62
253
  6
CONTINUOUS
 10
77.3906408235
 20
22.7161671166
 40
0.2499809641
100
AcDbArc
 50
90.0048716822
 51
180.004856367
  0
ARC
  5
5D7
100
AcDbEntity
  8
RACCORDO
100
AcDbCircle
 62
253
  6
CONTINUOUS
 10
63.1906408235
 20
22.7161671166
 40
0.2499809641
100
AcDbArc
 50
90.0048716822
 51
180.004856367
  0
ARC
  5
5D8
100
AcDbEntity
  8
RACCORDO
100
AcDbCircle
 62
253
  6
CONTINUOUS
 10
64.1633429007
 20
22.7161671155
 40
0.2499809641
100
AcDbArc
 50
359.9951438718
 51
89.9951280767
  0
ARC
  5
5D9
100
AcDbEntity
  8
RACCORDO
100
AcDbCircle
 62
253
  6
CONTINUOUS
 10
78.3633429007
 20
22.7161671155
 40
0.2499809641
100
AcDbArc
 50
359.9951438718
 51
89.9951280767
  0
ARC
  5
5DA
100
AcDbEntity
  8
RACCORDO
100
AcDbCircle
 62
7
  6
CONTINUOUS
 10
74.7102580975
 20
23.6014846264
 40
0.2
100
AcDbArc
 50
90.0
 51
175.0
  0
ARC
  5
5DB
100
AcDbEntity
  8
RACCORDO
100
AcDbCircle
 62
7
  6
CONTINUOUS
 10
66.8437256279
 20
23.6014846264
 40
0.2
100
AcDbArc
 50
5.0
 51
90.0
  0
ARC
  5
5DC
100
AcDbEntity
  8
RACCORDO
100
AcDbCircle
 62
253
  6
CONTINUOUS
 10
-58.4401198642
 20
-1058.9389271214
 40
1078.3051450267
100
AcDbArc
 50
87.5063474898
 51
87.9357135511
  0
ARC
  5
5DD
100
AcDbEntity
  8
ASSI
100
AcDbCircle
 62
253
  6
CONTINUOUS
 10
-58.4401198642
 20
-1058.9389271214
 40
1078.3051450267
100
AcDbArc
 50
87.5063474898
 51
87.9357135511
  0
ARC
  5
5DE
100
AcDbEntity
  8
ASSI
100
AcDbCircle
 62
253
  6
CONTINUOUS
 10
-213.0283960498
 20
18.5940797257
 40
201.5050843155
100
AcDbArc
 50
359.4913501193
 51
359.7180498191
  0
ARC
  5
5DF
100
AcDbEntity
  8
RACCORDO
100
AcDbCircle
 62
253
  6
CONTINUOUS
 10
-209.7534066073
 20
18.5711136166
 40
198.230020139
100
AcDbArc
 50
359.4895845349
 51
359.8091919621
  0
ARC
  5
5E0
100
AcDbEntity
  8
RACCORDO
100
AcDbCircle
 62
7
  6
CONTINUOUS
 10
-56.0124892584
 20
-21.6010557033
 40
1.0
100
AcDbArc
 50
182.8814646548
 51
269.0004076316
  0
ARC
  5
5E1
100
AcDbEntity
  8
RACCORDO
100
AcDbCircle
 62
7
  6
CONTINUOUS
 10
-11.548704603
 20
-18.3727744714
 40
1.0
100
AcDbArc
 50
271.0
 51
360.0
  0
ARC
  5
5E2
100
AcDbEntity
  8
ASSI
100
AcDbCircle
 62
7
  6
CONTINUOUS
 10
-11.548704603
 20
-18.3727744714
 40
1.0
100
AcDbArc
 50
271.0
 51
360.0
  0
ARC
  5
5E3
100
AcDbEntity
  8
RACCORDO
100
AcDbCircle
 62
253
  6
CONTINUOUS
 10
-56.0168523552
 20
-21.6010556984
 40
0.750000005
100
AcDbArc
 50
182.8818419225
 51
268.9999996431
  0
ARC
  5
5E4
100
AcDbEntity
  8
RACCORDO
100
AcDbCircle
 62
7
  6
CONTINUOUS
 10
-37.298704603
 20
-22.7838540719
 40
0.75
100
AcDbArc
 50
269.9995468273
 51
359.6022651213
  0
ARC
  5
5E5
100
AcDbEntity
  8
0
100
AcDbCircle
 62
7
  6
CONTINUOUS
 10
-46.5345416191
 20
-24.6691927703
 40
0.7
100
AcDbArc
 50
270.0
 51
288.0
  0
ARC
  5
5E6
100
AcDbEntity
  8
0
100
AcDbCircle
 62
7
  6
CONTINUOUS
 10
-47.048704603
 20
-24.6691927703
 40
0.7
100
AcDbArc
 50
180.0
 51
270.0
  0
ARC
  5
5E7
100
AcDbEntity
  8
RACCORDO
100
AcDbCircle
 62
253
  6
CONTINUOUS
 10
-37.2943415679
 20
-22.7838540036
 40
0.5000000683
100
AcDbArc
 50
270.000007616
 51
358.4195587792
  0
ARC
  5
5E8
100
AcDbEntity
  8
RACCORDO
100
AcDbCircle
 62
7
  6
CONTINUOUS
 10
-45.248704603
 20
-17.9182088906
 40
0.5
100
AcDbArc
 50
275.0
 51
360.0
  0
ARC
  5
5E9
100
AcDbEntity
  8
0
100
AcDbCircle
 62
7
  6
CONTINUOUS
 10
-46.5345416191
 20
-24.6691927703
 40
0.3
100
AcDbArc
 50
270.0
 51
288.0
  0
ARC
  5
5EA
100
AcDbEntity
  8
0
100
AcDbCircle
 62
7
  6
CONTINUOUS
 10
-47.048704603
 20
-24.6691927703
 40
0.3
100
AcDbArc
 50
180.0
 51
270.0
  0
ARC
  5
5EB
100
AcDbEntity
  8
RACCORDO
100
AcDbCircle
 62
7
  6
CONTINUOUS
 10
-49.298704603
 20
-23.2838540719
 40
0.25
100
AcDbArc
 50
180.0
 51
270.000000574
  0
ARC
  5
5EC
100
AcDbEntity
  8
RACCORDO
100
AcDbCircle
 62
7
  6
CONTINUOUS
 10
-48.298704603
 20
-24.0338540719
 40
0.25
100
AcDbArc
 50
180.0
 51
270.0000000278
  0
ARC
  5
5ED
100
AcDbEntity
  8
RACCORDO
100
AcDbCircle
 62
7
  6
CONTINUOUS
 10
-44.848704603
 20
-18.4343593764
 40
0.2
100
AcDbArc
 50
275.0
 51
360.0
  0
ARC
  5
5EE
100
AcDbEntity
  8
ASSI
100
AcDbCircle
 62
7
  6
CONTINUOUS
 10
-44.848704603
 20
-18.4343593764
 40
0.2
100
AcDbArc
 50
275.0
 51
360.0
  0
ARC
  5
5EF
100
AcDbEntity
  8
INCISIONI
100
AcDbCircle
 62
253
  6
CONTINUOUS
 10
-42.0158856883
 20
9.0525334928
 40
0.4539715232
100
AcDbArc
 50
159.2646573604
 51
232.6760740862
  0
ARC
  5
5F0
100
AcDbEntity
  8
INCISIONI
100
AcDbCircle
 62
253
  6
CONTINUOUS
 10
-42.0065911219
 20
11.8821174652
 40
0.4430357923
100
AcDbArc
 50
163.7175068128
 51
239.6642419907
  0
ARC
  5
5F1
100
AcDbEntity
  8
RACCORDO
100
AcDbCircle
 62
253
  6
CONTINUOUS
 10
-72.7243285005
 20
18.1274048339
 40
61.2002255412
100
AcDbArc
 50
359.797366816
 51
359.9726747542
  0
ARC
  5
5F2
100
AcDbEntity
  8
ASSI
100
AcDbCircle
 62
253
  6
CONTINUOUS
 10
-72.7243285005
 20
18.1274048339
 40
61.2002255412
100
AcDbArc
 50
359.797366816
 51
359.9726747542
  0
ARC
  5
5F3
100
AcDbEntity
  8
RACCORDO
100
AcDbCircle
 62
7
  6
CONTINUOUS
 10
-56.0124892584
 20
21.0333475595
 40
1.0
100
AcDbArc
 50
90.9995923699
 51
177.1185353436
  0
ARC
  5
5F4
100
AcDbEntity
  8
RACCORDO
100
AcDbCircle
 62
253
  6
CONTINUOUS
 10
-56.0168523552
 20
21.0333475546
 40
0.750000005
100
AcDbArc
 50
91.0000003569
 51
177.1181580775
  0
ARC
  5
5F5
100
AcDbEntity
  8
0
100
AcDbCircle
 62
7
  6
CONTINUOUS
 10
-46.5345416191
 20
24.1014846264
 40
0.7
100
AcDbArc
 50
72.0
 51
90.0
  0
ARC
  5
5F6
100
AcDbEntity
  8
0
100
AcDbCircle
 62
7
  6
CONTINUOUS
 10
-47.048704603
 20
24.1014846264
 40
0.7
100
AcDbArc
 50
90.0
 51
180.0
  0
ARC
  5
5F7
100
AcDbEntity
  8
INCISIONI
100
AcDbCircle
 62
253
  6
CONTINUOUS
 10
-42.1694117065
 20
15.0932476995
 40
0.6251372893
100
AcDbArc
 50
94.8507911417
 51
159.4780391273
  0
ARC
  5
5F8
100
AcDbEntity
  8
INCISIONI
100
AcDbCircle
 62
253
  6
CONTINUOUS
 10
-42.1824452575
 20
13.9276161745
 40
0.5729053872
100
AcDbArc
 50
180.0120257434
 51
255.4158191096
  0
ARC
  5
5F9
100
AcDbEntity
  8
RACCORDO
100
AcDbCircle
 62
7
  6
CONTINUOUS
 10
-45.248704603
 20
17.3505007467
 40
0.5
100
AcDbArc
 50
0.0
 51
85.0
  0
ARC
  5
5FA
100
AcDbEntity
  8
0
100
AcDbCircle
 62
7
  6
CONTINUOUS
 10
-46.5345416191
 20
24.1014846264
 40
0.3
100
AcDbArc
 50
72.0
 51
90.0
  0
ARC
  5
5FB
100
AcDbEntity
  8
0
100
AcDbCircle
 62
7
  6
CONTINUOUS
 10
-47.048704603
 20
24.1014846264
 40
0.3
100
AcDbArc
 50
90.0
 51
180.0
  0
ARC
  5
5FC
100
AcDbEntity
  8
RACCORDO
100
AcDbCircle
 62
7
  6
CONTINUOUS
 10
-49.298704603
 20
22.7161459281
 40
0.25
100
AcDbArc
 50
89.999999426
 51
180.0
  0
ARC
  5
5FD
100
AcDbEntity
  8
RACCORDO
100
AcDbCircle
 62
7
  6
CONTINUOUS
 10
-48.298704603
 20
23.4661459281
 40
0.25
100
AcDbArc
 50
89.9999999722
 51
180.0
  0
ARC
  5
5FE
100
AcDbEntity
  8
RACCORDO
100
AcDbCircle
 62
7
  6
CONTINUOUS
 10
-44.848704603
 20
17.8666512326
 40
0.2
100
AcDbArc
 50
0.0
 51
85.0
  0
ARC
  5
5FF
100
AcDbEntity
  8
ASSI
100
AcDbCircle
 62
7
  6
CONTINUOUS
 10
-44.848704603
 20
17.8666512326
 40
0.2
100
AcDbArc
 50
0.0
 51
85.0
  0
ARC
  5
600
100
AcDbEntity
  8
INCISIONI
100
AcDbCircle
 62
253
  6
CONTINUOUS
 10
-32.1085759035
 20
11.2306782399
 40
2.5479161043
100
AcDbArc
 50
177.7426416028
 51
182.2481311189
  0
ARC
  5
601
100
AcDbEntity
  8
INCISIONI
100
AcDbCircle
 62
253
  6
CONTINUOUS
 10
-32.0764773187
 20
11.2325459295
 40
1.7686404507
100
AcDbArc
 50
357.5303069292
 51
3.1922686691
  0
ARC
  5
602
100
AcDbEntity
  8
INCISIONI
100
AcDbCircle
 62
253
  6
CONTINUOUS
 10
-40.3169861324
 20
10.6534773372
 40
0.5869541618
100
AcDbArc
 50
276.1076981324
 51
342.6024413514
  0
ARC
  5
603
100
AcDbEntity
  8
INCISIONI
100
AcDbCircle
 62
253
  6
CONTINUOUS
 10
-40.2969230724
 20
11.8197887028
 40
0.5602115458
100
AcDbArc
 50
15.4221326894
 51
70.9896665843
  0
ARC
  5
604
100
AcDbEntity
  8
INCISIONI
100
AcDbCircle
 62
253
  6
CONTINUOUS
 10
-40.2926359782
 20
7.8246498632
 40
0.5499154518
100
AcDbArc
 50
261.4904225157
 51
346.9530336697
  0
ARC
  5
605
100
AcDbEntity
  8
RACCORDO
100
AcDbCircle
 62
7
  6
CONTINUOUS
 10
-11.048704603
 20
0.739015463
 40
0.5
100
AcDbArc
 50
0.0
 51
24.2744652495
  0
ARC
  5
606
100
AcDbEntity
  8
ASSI
100
AcDbCircle
 62
7
  6
CONTINUOUS
 10
-11.048704603
 20
0.739015463
 40
0.5
100
AcDbArc
 50
0.0
 51
28.9504707216
  0
ARC
  5
607
100
AcDbEntity
  8
RACCORDO
100
AcDbCircle
 62
7
  6
CONTINUOUS
 10
-10.9649710401
 20
0.9342506649
 40
0.3801710539
100
AcDbArc
 50
329.3726547829
 51
335.0027860739
  0
ARC
  5
608
100
AcDbEntity
  8
ASSI
100
AcDbCircle
 62
7
  6
CONTINUOUS
 10
-10.9649710401
 20
0.9342506649
 40
0.3801710539
100
AcDbArc
 50
329.3726547828
 51
335.0027860739
  0
ARC
  5
609
100
AcDbEntity
  8
INCISIONI
100
AcDbCircle
 62
253
  6
CONTINUOUS
 10
-40.4366534305
 20
8.5636390102
 40
0.3651320556
100
AcDbArc
 50
275.7668403556
 51
5.4648262675
  0
ARC
  5
60A
100
AcDbEntity
  8
INCISIONI
100
AcDbCircle
 62
253
  6
CONTINUOUS
 10
-32.1059318676
 20
15.6157882393
 40
2.5479162196
100
AcDbArc
 50
357.7518645849
 51
2.2573557664
  0
ARC
  5
60B
100
AcDbEntity
  8
RACCORDO
100
AcDbCircle
 62
7
  6
CONTINUOUS
 10
-11.548704603
 20
17.8050663275
 40
1.0
100
AcDbArc
 50
0.0
 51
18.3247930725
  0
ARC
  5
60C
100
AcDbEntity
  8
RACCORDO
100
AcDbCircle
 62
7
  6
CONTINUOUS
 10
-11.548704603
 20
17.8050663275
 40
1.0
100
AcDbArc
 50
34.7632869653
 51
89.0
  0
ARC
  5
60D
100
AcDbEntity
  8
ASSI
100
AcDbCircle
 62
7
  6
CONTINUOUS
 10
-11.548704603
 20
17.8050663275
 40
1.0
100
AcDbArc
 50
0.0
 51
23.733333324
  0
ARC
  5
60E
100
AcDbEntity
  8
ASSI
100
AcDbCircle
 62
7
  6
CONTINUOUS
 10
-11.548704603
 20
17.8050663275
 40
1.0
100
AcDbArc
 50
34.7632869653
 51
89.0
  0
ARC
  5
60F
100
AcDbEntity
  8
RACCORDO
100
AcDbCircle
 62
253
  6
CONTINUOUS
 10
-11.5551524819
 20
17.4921208948
 40
0.8535587746
100
AcDbArc
 50
75.8184362848
 51
87.9390437577
  0
ARC
  5
610
100
AcDbEntity
  8
RACCORDO
100
AcDbCircle
 62
7
  6
CONTINUOUS
 10
-37.298704603
 20
22.2161459281
 40
0.75
100
AcDbArc
 50
0.3977348785
 51
90.0004479825
  0
ARC
  5
611
100
AcDbEntity
  8
RACCORDO
100
AcDbCircle
 62
253
  6
CONTINUOUS
 10
-37.2943415698
 20
22.2161458577
 40
0.5000000703
100
AcDbArc
 50
1.580441445
 51
89.9999921599
  0
ARC
  5
612
100
AcDbEntity
  8
RACCORDO
100
AcDbCircle
 62
7
  6
CONTINUOUS
 10
-11.1379472366
 20
18.0901599717
 40
0.5
100
AcDbArc
 50
329.7547420532
 51
34.7632869653
  0
ARC
  5
613
100
AcDbEntity
  8
ASSI
100
AcDbCircle
 62
7
  6
CONTINUOUS
 10
-11.1379472366
 20
18.0901599717
 40
0.5
100
AcDbArc
 50
329.7547420532
 51
34.7632869653
  0
ARC
  5
614
100
AcDbEntity
  8
INCISIONI
100
AcDbCircle
 62
253
  6
CONTINUOUS
 10
-40.446986196
 20
14.2380812752
 40
0.4082729471
100
AcDbArc
 50
266.7874390336
 51
349.7322059388
  0
ARC
  5
615
100
AcDbEntity
  8
0
100
AcDbCircle
 62
7
  6
CONTINUOUS
 10
367.451295397
 20
-0.2838540719
 40
425.0
100
AcDbArc
 50
177.5450300007
 51
180.0
  0
ARC
  5
616
100
AcDbEntity
  8
0
100
AcDbCircle
 62
7
  6
CONTINUOUS
 10
367.451295397
 20
-0.2838540719
 40
425.0
100
AcDbArc
 50
180.0600766806
 51
182.6129190774
  0
ARC
  5
617
100
AcDbEntity
  8
RACCORDO
100
AcDbCircle
 62
7
  6
CONTINUOUS
 10
367.451295397
 20
-0.2838540719
 40
425.0
100
AcDbArc
 50
177.1181593212
 51
182.8818406788
  0
ARC
  5
618
100
AcDbEntity
  8
RACCORDO
100
AcDbCircle
 62
253
  6
CONTINUOUS
 10
367.4469476381
 20
-0.2838540719
 40
424.7500153233
100
AcDbArc
 50
177.1181585384
 51
182.8818414616
  0
SPLINE
  5
619
100
AcDbEntity
  8
RACCORDO
100
AcDbSpline
 62
7
  6
CONTINUOUS
 70
0
 71
3
 72
16
 73
12
 74
10
 42
0.0000001
 43
0.0000001
 44
0.0000000001
 12
-0.2199226121
 22
0.0
 32
0.0
 13
0.0
 23
-0.2199226121
 33
0.0
 40
0.0
 40
0.0
 40
0.0
 40
0.0
 40
0.1774994007
 40
0.3488464951
 40
0.508201906
 40
0.6503734101
 40
0.771222152
 40
0.8682943316
 40
0.9080160673
 40
0.942457687
 40
1.0
 40
1.0
 40
1.0
 40
1.0
 10
16.4769918627
 20
-24.2276022301
 30
0.0
 10
16.4639798187
 20
-24.2276022301
 30
0.0
 10
16.4383997877
 20
-24.2283673376
 30
0.0
 10
16.4012761105
 20
-24.2317830224
 30
0.0
 10
16.367026303
 20
-24.2373214423
 30
0.0
 10
16.3369161408
 20
-24.2447523403
 30
0.0
 10
16.3120632656
 20
-24.2537890583
 30
0.0
 10
16.2953411315
 20
-24.2628833979
 30
0.0
 10
16.2857115325
 20
-24.2710325235
 30
0.0
 10
16.2794808337
 20
-24.2784177776
 30
0.0
 10
16.2769918627
 20
-24.2851873437
 30
0.0
 10
16.2769918627
 20
-24.289405629
 30
0.0
 11
16.4769918627
 21
-24.2276022301
 31
0.0
 11
16.4379737983
 21
-24.2287897651
 31
0.0
 11
16.4004551762
 21
-24.2323067337
 31
0.0
 11
16.3658778161
 21
-24.2380179809
 31
0.0
 11
16.3355705064
 21
-24.2457040266
 31
0.0
 11
16.3106979402
 21
-24.2550695003
 31
0.0
 11
16.2922159562
 21
-24.2657544922
 31
0.0
 11
16.2856045471
 21
-24.2714642962
 31
0.0
 11
16.2808348066
 21
-24.277348384
 31
0.0
 11
16.2769918627
 21
-24.289405629
 31
0.0
  0
SPLINE
  5
61A
100
AcDbEntity
  8
RACCORDO
100
AcDbSpline
 62
7
  6
CONTINUOUS
 70
0
 71
3
 72
16
 73
12
 74
10
 42
0.0000001
 43
0.0000001
 44
0.0000000001
 12
0.0
 22
0.2199226121
 32
0.0
 13
-0.2199226121
 23
0.0
 33
0.0
 40
0.0
 40
0.0
 40
0.0
 40
0.0
 40
0.057542313
 40
0.0919839327
 40
0.1317056684
 40
0.228777848
 40
0.3496265899
 40
0.491798094
 40
0.6511535049
 40
0.8225005993
 40
1.0
 40
1.0
 40
1.0
 40
1.0
 10
25.2769918627
 20
-24.289405629
 30
0.0
 10
25.2769918627
 20
-24.2851873437
 30
0.0
 10
25.2745028916
 20
-24.2784177776
 30
0.0
 10
25.2682721928
 20
-24.2710325235
 30
0.0
 10
25.2586425938
 20
-24.2628833979
 30
0.0
 10
25.2419204597
 20
-24.2537890583
 30
0.0
 10
25.2170675845
 20
-24.2447523403
 30
0.0
 10
25.1869574223
 20
-24.2373214423
 30
0.0
 10
25.1527076149
 20
-24.2317830224
 30
0.0
 10
25.1155839376
 20
-24.2283673376
 30
0.0
 10
25.0900039066
 20
-24.2276022301
 30
0.0
 10
25.0769918627
 20
-24.2276022301
 30
0.0
 11
25.2769918627
 21
-24.289405629
 31
0.0
 11
25.2731489187
 21
-24.277348384
 31
0.0
 11
25.2683791782
 21
-24.2714642962
 31
0.0
 11
25.2617677692
 21
-24.2657544922
 31
0.0
 11
25.2432857851
 21
-24.2550695003
 31
0.0
 11
25.2184132189
 21
-24.2457040266
 31
0.0
 11
25.1881059093
 21
-24.2380179809
 31
0.0
 11
25.1535285491
 21
-24.2323067337
 31
0.0
 11
25.1160099271
 21
-24.2287897651
 31
0.0
 11
25.0769918627
 21
-24.2276022301
 31
0.0
  0
SPLINE
  5
61B
100
AcDbEntity
  8
RACCORDO
100
AcDbSpline
 62
7
  6
CONTINUOUS
 70
0
 71
3
 72
16
 73
12
 74
10
 42
0.0000001
 43
0.0000001
 44
0.0000000001
 12
-0.2199226121
 22
0.0
 32
0.0
 13
0.0
 23
-0.2199226121
 33
0.0
 40
0.0
 40
0.0
 40
0.0
 40
0.0
 40
0.1774994007
 40
0.3488464951
 40
0.508201906
 40
0.6503734101
 40
0.771222152
 40
0.8682943316
 40
0.9080160673
 40
0.942457687
 40
1.0
 40
1.0
 40
1.0
 40
1.0
 10
66.4769918627
 20
-24.2276022301
 30
0.0
 10
66.4639798187
 20
-24.2276022301
 30
0.0
 10
66.4383997877
 20
-24.2283673376
 30
0.0
 10
66.4012761105
 20
-24.2317830224
 30
0.0
 10
66.367026303
 20
-24.2373214423
 30
0.0
 10
66.3369161408
 20
-24.2447523403
 30
0.0
 10
66.3120632656
 20
-24.2537890583
 30
0.0
 10
66.2953411315
 20
-24.2628833979
 30
0.0
 10
66.2857115325
 20
-24.2710325235
 30
0.0
 10
66.2794808337
 20
-24.2784177776
 30
0.0
 10
66.2769918627
 20
-24.2851873437
 30
0.0
 10
66.2769918627
 20
-24.289405629
 30
0.0
 11
66.4769918627
 21
-24.2276022301
 31
0.0
 11
66.4379737983
 21
-24.2287897651
 31
0.0
 11
66.4004551762
 21
-24.2323067337
 31
0.0
 11
66.3658778161
 21
-24.2380179809
 31
0.0
 11
66.3355705064
 21
-24.2457040266
 31
0.0
 11
66.3106979402
 21
-24.2550695003
 31
0.0
 11
66.2922159562
 21
-24.2657544922
 31
0.0
 11
66.2856045471
 21
-24.2714642962
 31
0.0
 11
66.2808348066
 21
-24.277348384
 31
0.0
 11
66.2769918627
 21
-24.289405629
 31
0.0
  0
SPLINE
  5
61C
100
AcDbEntity
  8
RACCORDO
100
AcDbSpline
 62
7
  6
CONTINUOUS
 70
0
 71
3
 72
16
 73
12
 74
10
 42
0.0000001
 43
0.0000001
 44
0.0000000001
 12
0.0
 22
0.2199226121
 32
0.0
 13
-0.2199226121
 23
0.0
 33
0.0
 40
0.0
 40
0.0
 40
0.0
 40
0.0
 40
0.057542313
 40
0.0919839327
 40
0.1317056684
 40
0.228777848
 40
0.3496265899
 40
0.491798094
 40
0.6511535049
 40
0.8225005993
 40
1.0
 40
1.0
 40
1.0
 40
1.0
 10
75.2769918627
 20
-24.289405629
 30
0.0
 10
75.2769918627
 20
-24.2851873437
 30
0.0
 10
75.2745028916
 20
-24.2784177776
 30
0.0
 10
75.2682721928
 20
-24.2710325235
 30
0.0
 10
75.2586425938
 20
-24.2628833979
 30
0.0
 10
75.2419204597
 20
-24.2537890583
 30
0.0
 10
75.2170675845
 20
-24.2447523403
 30
0.0
 10
75.1869574223
 20
-24.2373214423
 30
0.0
 10
75.1527076149
 20
-24.2317830224
 30
0.0
 10
75.1155839376
 20
-24.2283673376
 30
0.0
 10
75.0900039066
 20
-24.2276022301
 30
0.0
 10
75.0769918627
 20
-24.2276022301
 30
0.0
 11
75.2769918627
 21
-24.289405629
 31
0.0
 11
75.2731489187
 21
-24.277348384
 31
0.0
 11
75.2683791782
 21
-24.2714642962
 31
0.0
 11
75.2617677692
 21
-24.2657544922
 31
0.0
 11
75.2432857851
 21
-24.2550695003
 31
0.0
 11
75.2184132189
 21
-24.2457040266
 31
0.0
 11
75.1881059093
 21
-24.2380179809
 31
0.0
 11
75.1535285491
 21
-24.2323067337
 31
0.0
 11
75.1160099271
 21
-24.2287897651
 31
0.0
 11
75.0769918627
 21
-24.2276022301
 31
0.0
  0
SPLINE
  5
61D
100
AcDbEntity
  8
RACCORDO
100
AcDbSpline
 62
7
  6
CONTINUOUS
 70
0
 71
3
 72
16
 73
12
 74
10
 42
0.0000001
 43
0.0000001
 44
0.0000000001
 12
0.2199226121
 22
0.0
 32
0.0
 13
0.0
 23
0.2199226121
 33
0.0
 40
0.0
 40
0.0
 40
0.0
 40
0.0
 40
0.1774994007
 40
0.3488464951
 40
0.508201906
 40
0.6503734101
 40
0.771222152
 40
0.8682943316
 40
0.9080160673
 40
0.942457687
 40
1.0
 40
1.0
 40
1.0
 40
1.0
 10
25.0769918627
 20
23.6598940863
 30
0.0
 10
25.0900039066
 20
23.6598940863
 30
0.0
 10
25.1155839376
 20
23.6606591938
 30
0.0
 10
25.1527076149
 20
23.6640748785
 30
0.0
 10
25.1869574223
 20
23.6696132985
 30
0.0
 10
25.2170675845
 20
23.6770441965
 30
0.0
 10
25.2419204597
 20
23.6860809145
 30
0.0
 10
25.2586425938
 20
23.6951752541
 30
0.0
 10
25.2682721928
 20
23.7033243796
 30
0.0
 10
25.2745028916
 20
23.7107096338
 30
0.0
 10
25.2769918627
 20
23.7174791999
 30
0.0
 10
25.2769918627
 20
23.7216974852
 30
0.0
 11
25.0769918627
 21
23.6598940863
 31
0.0
 11
25.1160099271
 21
23.6610816213
 31
0.0
 11
25.1535285491
 21
23.6645985899
 31
0.0
 11
25.1881059093
 21
23.6703098371
 31
0.0
 11
25.2184132189
 21
23.6779958827
 31
0.0
 11
25.2432857851
 21
23.6873613565
 31
0.0
 11
25.2617677692
 21
23.6980463484
 31
0.0
 11
25.2683791782
 21
23.7037561524
 31
0.0
 11
25.2731489187
 21
23.7096402402
 31
0.0
 11
25.2769918627
 21
23.7216974852
 31
0.0
  0
SPLINE
  5
61E
100
AcDbEntity
  8
RACCORDO
100
AcDbSpline
 62
7
  6
CONTINUOUS
 70
0
 71
3
 72
16
 73
12
 74
10
 42
0.0000001
 43
0.0000001
 44
0.0000000001
 12
0.0
 22
-0.2199226121
 32
0.0
 13
0.2199226121
 23
0.0
 33
0.0
 40
0.0
 40
0.0
 40
0.0
 40
0.0
 40
0.057542313
 40
0.0919839327
 40
0.1317056684
 40
0.228777848
 40
0.3496265899
 40
0.491798094
 40
0.6511535049
 40
0.8225005993
 40
1.0
 40
1.0
 40
1.0
 40
1.0
 10
16.2769918627
 20
23.7216974852
 30
0.0
 10
16.2769918627
 20
23.7174791999
 30
0.0
 10
16.2794808337
 20
23.7107096338
 30
0.0
 10
16.2857115325
 20
23.7033243796
 30
0.0
 10
16.2953411315
 20
23.6951752541
 30
0.0
 10
16.3120632656
 20
23.6860809145
 30
0.0
 10
16.3369161408
 20
23.6770441965
 30
0.0
 10
16.367026303
 20
23.6696132985
 30
0.0
 10
16.4012761105
 20
23.6640748785
 30
0.0
 10
16.4383997877
 20
23.6606591938
 30
0.0
 10
16.4639798187
 20
23.6598940863
 30
0.0
 10
16.4769918627
 20
23.6598940863
 30
0.0
 11
16.2769918627
 21
23.7216974852
 31
0.0
 11
16.2808348066
 21
23.7096402402
 31
0.0
 11
16.2856045471
 21
23.7037561524
 31
0.0
 11
16.2922159562
 21
23.6980463484
 31
0.0
 11
16.3106979402
 21
23.6873613565
 31
0.0
 11
16.3355705064
 21
23.6779958827
 31
0.0
 11
16.3658778161
 21
23.6703098371
 31
0.0
 11
16.4004551762
 21
23.6645985899
 31
0.0
 11
16.4379737983
 21
23.6610816213
 31
0.0
 11
16.4769918627
 21
23.6598940863
 31
0.0
  0
SPLINE
  5
61F
100
AcDbEntity
  8
RACCORDO
100
AcDbSpline
 62
7
  6
CONTINUOUS
 70
0
 71
3
 72
16
 73
12
 74
10
 42
0.0000001
 43
0.0000001
 44
0.0000000001
 12
0.2199226121
 22
0.0
 32
0.0
 13
0.0
 23
0.2199226121
 33
0.0
 40
0.0
 40
0.0
 40
0.0
 40
0.0
 40
0.1774994007
 40
0.3488464951
 40
0.508201906
 40
0.6503734101
 40
0.771222152
 40
0.8682943316
 40
0.9080160673
 40
0.942457687
 40
1.0
 40
1.0
 40
1.0
 40
1.0
 10
75.0769918627
 20
23.6598940863
 30
0.0
 10
75.0900039066
 20
23.6598940863
 30
0.0
 10
75.1155839376
 20
23.6606591938
 30
0.0
 10
75.1527076149
 20
23.6640748785
 30
0.0
 10
75.1869574223
 20
23.6696132985
 30
0.0
 10
75.2170675845
 20
23.6770441965
 30
0.0
 10
75.2419204597
 20
23.6860809145
 30
0.0
 10
75.2586425938
 20
23.6951752541
 30
0.0
 10
75.2682721928
 20
23.7033243796
 30
0.0
 10
75.2745028916
 20
23.7107096338
 30
0.0
 10
75.2769918627
 20
23.7174791999
 30
0.0
 10
75.2769918627
 20
23.7216974852
 30
0.0
 11
75.0769918627
 21
23.6598940863
 31
0.0
 11
75.1160099271
 21
23.6610816213
 31
0.0
 11
75.1535285491
 21
23.6645985899
 31
0.0
 11
75.1881059093
 21
23.6703098371
 31
0.0
 11
75.2184132189
 21
23.6779958827
 31
0.0
 11
75.2432857851
 21
23.6873613565
 31
0.0
 11
75.2617677692
 21
23.6980463484
 31
0.0
 11
75.2683791782
 21
23.7037561524
 31
0.0
 11
75.2731489187
 21
23.7096402402
 31
0.0
 11
75.2769918627
 21
23.7216974852
 31
0.0
  0
SPLINE
  5
620
100
AcDbEntity
  8
RACCORDO
100
AcDbSpline
 62
7
  6
CONTINUOUS
 70
0
 71
3
 72
16
 73
12
 74
10
 42
0.0000001
 43
0.0000001
 44
0.0000000001
 12
0.0
 22
-0.2199226121
 32
0.0
 13
0.2199226121
 23
0.0
 33
0.0
 40
0.0
 40
0.0
 40
0.0
 40
0.0
 40
0.057542313
 40
0.0919839327
 40
0.1317056684
 40
0.228777848
 40
0.3496265899
 40
0.491798094
 40
0.6511535049
 40
0.8225005993
 40
1.0
 40
1.0
 40
1.0
 40
1.0
 10
66.2769918627
 20
23.7216974852
 30
0.0
 10
66.2769918627
 20
23.7174791999
 30
0.0
 10
66.2794808337
 20
23.7107096338
 30
0.0
 10
66.2857115325
 20
23.7033243796
 30
0.0
 10
66.2953411315
 20
23.6951752541
 30
0.0
 10
66.3120632656
 20
23.6860809145
 30
0.0
 10
66.3369161408
 20
23.6770441965
 30
0.0
 10
66.367026303
 20
23.6696132985
 30
0.0
 10
66.4012761105
 20
23.6640748785
 30
0.0
 10
66.4383997877
 20
23.6606591938
 30
0.0
 10
66.4639798187
 20
23.6598940863
 30
0.0
 10
66.4769918627
 20
23.6598940863
 30
0.0
 11
66.2769918627
 21
23.7216974852
 31
0.0
 11
66.2808348066
 21
23.7096402402
 31
0.0
 11
66.2856045471
 21
23.7037561524
 31
0.0
 11
66.2922159562
 21
23.6980463484
 31
0.0
 11
66.3106979402
 21
23.6873613565
 31
0.0
 11
66.3355705064
 21
23.6779958827
 31
0.0
 11
66.3658778161
 21
23.6703098371
 31
0.0
 11
66.4004551762
 21
23.6645985899
 31
0.0
 11
66.4379737983
 21
23.6610816213
 31
0.0
 11
66.4769918627
 21
23.6598940863
 31
0.0
  0
SPLINE
  5
621
100
AcDbEntity
  8
0
100
AcDbSpline
 62
253
  6
CONTINUOUS
 70
0
 71
3
 72
16
 73
12
 74
10
 42
0.0000001
 43
0.0000001
 44
0.0000000001
 12
-0.0004225567
 22
-3.9211993358
 32
0.0
 13
3.9211993413
 23
-0.000368079
 33
0.0
 40
0.0
 40
0.0
 40
0.0
 40
0.0
 40
0.12493671
 40
0.2498755681
 40
0.3748255707
 40
0.4997923041
 40
0.6247795478
 40
0.7497891625
 40
0.8748141685
 40
0.9374059571
 40
1.0
 40
1.0
 40
1.0
 40
1.0
 10
15.4019918627
 20
-17.1588540754
 30
0.0
 10
15.401974265
 20
-17.3221546569
 30
0.0
 10
15.4342369819
 20
-17.6496460953
 30
0.0
 10
15.5771793794
 20
-18.121429485
 30
0.0
 10
15.8099943493
 20
-18.5561364791
 30
0.0
 10
16.1223393367
 20
-18.9377934675
 30
0.0
 10
16.5039413743
 20
-19.2503992163
 30
0.0
 10
16.9386857134
 20
-19.4833687058
 30
0.0
 10
17.3325211911
 20
-19.6027575066
 30
0.0
 10
17.656421732
 20
-19.650803738
 30
0.0
 10
17.8201772894
 20
-19.6588463921
 30
0.0
 10
17.9019918627
 20
-19.6588540719
 30
0.0
 11
15.4019918627
 21
-17.1588540754
 31
0.0
 11
15.4499937107
 21
-17.6463984781
 31
0.0
 11
15.5921497562
 21
-18.1152306797
 31
0.0
 11
15.8232311582
 21
-18.5472679242
 31
0.0
 11
16.1338539167
 21
-18.9262568258
 31
0.0
 11
16.5127635634
 21
-19.2371030766
 31
0.0
 11
16.9449500485
 21
-19.4684010356
 31
0.0
 11
17.4140672037
 21
-19.6107814056
 31
0.0
 11
17.6568440966
 21
-19.6468044734
 31
0.0
 11
17.9019918627
 21
-19.6588540719
 31
0.0
  0
SPLINE
  5
622
100
AcDbEntity
  8
RACCORDO
100
AcDbSpline
 62
253
  6
CONTINUOUS
 70
0
 71
3
 72
9
 73
5
 74
3
 42
0.0000001
 43
0.0000001
 44
0.0000000001
 12
0.0375286337
 22
42.7349295685
 32
0.0
 13
-0.0375286339
 23
42.7349295685
 33
0.0
 40
0.0
 40
0.0
 40
0.0
 40
0.0
 40
0.2499209271
 40
1.0
 40
1.0
 40
1.0
 40
1.0
 10
8.822750733
 20
-21.6513255522
 30
0.0
 10
8.82587713
 20
-18.0912078131
 30
0.0
 10
8.8352513749
 20
-3.8462287111
 30
0.0
 10
8.8321338807
 20
10.3987586248
 30
0.0
 10
8.822750733
 20
21.0836174084
 30
0.0
 11
8.822750733
 21
-21.6513255522
 31
0.0
 11
8.82978253
 21
-10.9709705314
 31
0.0
 11
8.822750733
 21
21.0836174084
 31
0.0
  0
SPLINE
  5
623
100
AcDbEntity
  8
RACCORDO
100
AcDbSpline
 62
7
  6
CONTINUOUS
 70
0
 71
3
 72
15
 73
11
 74
9
 42
0.0000001
 43
0.0000001
 44
0.0000000001
 12
0.391117923
 22
-0.0072705333
 32
0.0
 13
0.0138734379
 23
0.3909394046
 33
0.0
 40
0.0
 40
0.0
 40
0.0
 40
0.0
 40
0.1567797517
 40
0.2995325727
 40
0.4313408699
 40
0.554717882
 40
0.6716932584
 40
0.7839513148
 40
0.8929469716
 40
1.0
 40
1.0
 40
1.0
 40
1.0
 10
82.8799749781
 20
-22.7367991111
 30
0.0
 10
82.9004147684
 20
-22.7371790686
 30
0.0
 10
82.9397100104
 20
-22.7333243288
 30
0.0
 10
82.9934611217
 20
-22.7154448808
 30
0.0
 10
83.0386120161
 20
-22.6891726872
 30
0.0
 10
83.0752701228
 20
-22.6569333713
 30
0.0
 10
83.1037346845
 20
-22.6204983519
 30
0.0
 10
83.1242837964
 20
-22.5812037405
 30
0.0
 10
83.1371323748
 20
-22.5401420365
 30
0.0
 10
83.1406701111
 20
-22.5120158769
 30
0.0
 10
83.1411651756
 20
-22.4980654611
 30
0.0
 11
82.8799749781
 21
-22.7367991111
 31
0.0
 11
82.9410106705
 21
-22.7307983781
 31
0.0
 11
82.9939972503
 21
-22.7131676002
 31
0.0
 11
83.0385500548
 21
-22.6872131158
 31
0.0
 11
83.0747749381
 21
-22.6553210525
 31
0.0
 11
83.1029234428
 21
-22.6192439932
 31
0.0
 11
83.1232506511
 21
-22.5803181704
 31
0.0
 11
83.1359568131
 21
-22.5396179057
 31
0.0
 11
83.1411651756
 21
-22.4980654611
 31
0.0
  0
SPLINE
  5
624
100
AcDbEntity
  8
RACCORDO
100
AcDbSpline
 62
7
  6
CONTINUOUS
 70
0
 71
3
 72
15
 73
11
 74
9
 42
0.0000001
 43
0.0000001
 44
0.0000000001
 12
0.0138734378
 22
-0.3909394033
 32
0.0
 13
0.3911179218
 23
0.0072705333
 33
0.0
 40
0.0
 40
0.0
 40
0.0
 40
0.0
 40
0.1070530562
 40
0.2160487494
 40
0.328306825
 40
0.445282221
 40
0.5686593351
 40
0.7004678828
 40
0.8432207497
 40
1.0
 40
1.0
 40
1.0
 40
1.0
 10
8.4128185497
 20
-22.4980654611
 30
0.0
 10
8.4133136143
 20
-22.5120158804
 30
0.0
 10
8.4168513531
 20
-22.5401420481
 30
0.0
 10
8.4296999358
 20
-22.5812037624
 30
0.0
 10
8.4502490591
 20
-22.6204983788
 30
0.0
 10
8.478713638
 20
-22.6569334088
 30
0.0
 10
8.5153717904
 20
-22.6891727439
 30
0.0
 10
8.5605227318
 20
-22.7154449689
 30
0.0
 10
8.6142738478
 20
-22.733324317
 30
0.0
 10
8.6535690224
 20
-22.7371790674
 30
0.0
 10
8.6740087472
 20
-22.7367991111
 30
0.0
 11
8.4128185497
 21
-22.4980654611
 31
0.0
 11
8.4180269148
 21
-22.5396179162
 31
0.0
 11
8.4307330832
 21
-22.5803181936
 31
0.0
 11
8.4510603007
 21
-22.61924402
 31
0.0
 11
8.4792088162
 21
-22.6553210804
 31
0.0
 11
8.5154337359
 21
-22.6872131625
 31
0.0
 11
8.5599866324
 21
-22.7131676831
 31
0.0
 11
8.6129732493
 21
-22.7307984059
 31
0.0
 11
8.6740087472
 21
-22.7367991111
 31
0.0
  0
SPLINE
  5
625
100
AcDbEntity
  8
RACCORDO
100
AcDbSpline
 62
7
  6
CONTINUOUS
 70
0
 71
3
 72
15
 73
11
 74
9
 42
0.0000001
 43
0.0000001
 44
0.0000000001
 12
-0.391117923
 22
0.0072705333
 32
0.0
 13
-0.0138734379
 23
-0.3909394046
 33
0.0
 40
0.0
 40
0.0
 40
0.0
 40
0.0
 40
0.1567797517
 40
0.2995325727
 40
0.4313408699
 40
0.554717882
 40
0.6716932584
 40
0.7839513148
 40
0.8929469716
 40
1.0
 40
1.0
 40
1.0
 40
1.0
 10
8.6740087472
 20
22.1690909673
 30
0.0
 10
8.6535689569
 20
22.1694709248
 30
0.0
 10
8.6142737149
 20
22.165616185
 30
0.0
 10
8.5605226036
 20
22.147736737
 30
0.0
 10
8.5153717092
 20
22.1214645434
 30
0.0
 10
8.4787136025
 20
22.0892252274
 30
0.0
 10
8.4502490408
 20
22.0527902081
 30
0.0
 10
8.4296999289
 20
22.0134955967
 30
0.0
 10
8.4168513505
 20
21.9724338926
 30
0.0
 10
8.4133136142
 20
21.944307733
 30
0.0
 10
8.4128185497
 20
21.9303573173
 30
0.0
 11
8.6740087472
 21
22.1690909673
 31
0.0
 11
8.6129730548
 21
22.1630902343
 31
0.0
 11
8.559986475
 21
22.1454594563
 31
0.0
 11
8.5154336705
 21
22.119504972
 31
0.0
 11
8.4792087872
 21
22.0876129086
 31
0.0
 11
8.4510602826
 21
22.0515358494
 31
0.0
 11
8.4307330742
 21
22.0126100265
 31
0.0
 11
8.4180269123
 21
21.9719097619
 31
0.0
 11
8.4128185497
 21
21.9303573173
 31
0.0
  0
SPLINE
  5
626
100
AcDbEntity
  8
RACCORDO
100
AcDbSpline
 62
7
  6
CONTINUOUS
 70
0
 71
3
 72
15
 73
11
 74
9
 42
0.0000001
 43
0.0000001
 44
0.0000000001
 12
-0.0138734378
 22
0.3909394034
 32
0.0
 13
-0.3911179218
 23
-0.0072705333
 33
0.0
 40
0.0
 40
0.0
 40
0.0
 40
0.0
 40
0.1070530562
 40
0.2160487494
 40
0.328306825
 40
0.445282221
 40
0.5686593351
 40
0.7004678828
 40
0.8432207497
 40
1.0
 40
1.0
 40
1.0
 40
1.0
 10
83.1411651756
 20
21.9303573173
 30
0.0
 10
83.140670111
 20
21.9443077366
 30
0.0
 10
83.1371323722
 20
21.9724339043
 30
0.0
 10
83.1242837895
 20
22.0134956185
 30
0.0
 10
83.1037346662
 20
22.052790235
 30
0.0
 10
83.0752700874
 20
22.089225265
 30
0.0
 10
83.0386119349
 20
22.1214646001
 30
0.0
 10
82.9934609935
 20
22.147736825
 30
0.0
 10
82.9397098775
 20
22.1656161732
 30
0.0
 10
82.9004147029
 20
22.1694709236
 30
0.0
 10
82.8799749781
 20
22.1690909673
 30
0.0
 11
83.1411651756
 21
21.9303573173
 31
0.0
 11
83.1359568105
 21
21.9719097723
 31
0.0
 11
83.1232506421
 21
22.0126100498
 31
0.0
 11
83.1029234246
 21
22.0515358762
 31
0.0
 11
83.0747749091
 21
22.0876129365
 31
0.0
 11
83.0385499894
 21
22.1195050187
 31
0.0
 11
82.9939970929
 21
22.1454595393
 31
0.0
 11
82.941010476
 21
22.163090262
 31
0.0
 11
82.8799749781
 21
22.1690909673
 31
0.0
  0
SPLINE
  5
627
100
AcDbEntity
  8
RACCORDO
100
AcDbSpline
 62
253
  6
CONTINUOUS
 70
0
 71
3
 72
9
 73
5
 74
3
 42
0.0000001
 43
0.0000001
 44
0.0000000001
 12
-0.0375286339
 22
-42.7349295685
 32
0.0
 13
0.0375286337
 23
-42.7349295685
 33
0.0
 40
0.0
 40
0.0
 40
0.0
 40
0.0
 40
0.2499209271
 40
1.0
 40
1.0
 40
1.0
 40
1.0
 10
82.7312329923
 20
21.0836174085
 30
0.0
 10
82.7281065953
 20
17.5234996694
 30
0.0
 10
82.7187323504
 20
3.2785205674
 30
0.0
 10
82.7218498447
 20
-10.9664667685
 30
0.0
 10
82.7312329923
 20
-21.6513255522
 30
0.0
 11
82.7312329923
 21
21.0836174085
 31
0.0
 11
82.7242011953
 21
10.4032623876
 31
0.0
 11
82.7312329923
 21
-21.6513255522
 31
0.0
  0
SPLINE
  5
628
100
AcDbEntity
  8
0
100
AcDbSpline
 62
253
  6
CONTINUOUS
 70
0
 71
3
 72
16
 73
12
 74
10
 42
0.0000001
 43
0.0000001
 44
0.0000000001
 12
0.0004225567
 22
-3.9211993358
 32
0.0
 13
-3.9211993413
 23
-0.000368079
 33
0.0
 40
0.0
 40
0.0
 40
0.0
 40
0.0
 40
0.12493671
 40
0.2498755681
 40
0.3748255707
 40
0.4997923041
 40
0.6247795478
 40
0.7497891625
 40
0.8748141685
 40
0.9374059571
 40
1.0
 40
1.0
 40
1.0
 40
1.0
 10
76.1519918627
 20
-17.1588540754
 30
0.0
 10
76.1520094603
 20
-17.3221546569
 30
0.0
 10
76.1197467434
 20
-17.6496460953
 30
0.0
 10
75.9768043459
 20
-18.121429485
 30
0.0
 10
75.743989376
 20
-18.5561364791
 30
0.0
 10
75.4316443886
 20
-18.9377934675
 30
0.0
 10
75.050042351
 20
-19.2503992163
 30
0.0
 10
74.6152980119
 20
-19.4833687058
 30
0.0
 10
74.2214625342
 20
-19.6027575066
 30
0.0
 10
73.8975619933
 20
-19.650803738
 30
0.0
 10
73.7338064359
 20
-19.6588463921
 30
0.0
 10
73.6519918627
 20
-19.6588540719
 30
0.0
 11
76.1519918627
 21
-17.1588540754
 31
0.0
 11
76.1039900146
 21
-17.6463984781
 31
0.0
 11
75.9618339691
 21
-18.1152306797
 31
0.0
 11
75.7307525671
 21
-18.5472679242
 31
0.0
 11
75.4201298086
 21
-18.9262568258
 31
0.0
 11
75.041220162
 21
-19.2371030766
 31
0.0
 11
74.6090336768
 21
-19.4684010356
 31
0.0
 11
74.1399165216
 21
-19.6107814056
 31
0.0
 11
73.8971396287
 21
-19.6468044734
 31
0.0
 11
73.6519918627
 21
-19.6588540719
 31
0.0
  0
SPLINE
  5
629
100
AcDbEntity
  8
0
100
AcDbSpline
 62
253
  6
CONTINUOUS
 70
0
 71
3
 72
16
 73
12
 74
10
 42
0.0000001
 43
0.0000001
 44
0.0000000001
 12
0.0004222783
 22
3.9212091482
 32
0.0
 13
-3.9212091536
 23
0.0003680799
 33
0.0
 40
0.0
 40
0.0
 40
0.0
 40
0.0
 40
0.1249367111
 40
0.2498755687
 40
0.374825571
 40
0.4997923041
 40
0.6247795475
 40
0.749789162
 40
0.8748141678
 40
0.9374059568
 40
1.0
 40
1.0
 40
1.0
 40
1.0
 10
76.1519918627
 20
16.5911360753
 30
0.0
 10
76.1520094487
 20
16.7544370668
 30
0.0
 10
76.1197488107
 20
17.0819294557
 30
0.0
 10
75.9768071894
 20
17.5537145022
 30
0.0
 10
75.7439929061
 20
17.9884232263
 30
0.0
 10
75.4316479462
 20
18.3700818724
 30
0.0
 10
75.0500454906
 20
18.6826890741
 30
0.0
 10
74.6153003339
 20
18.9156596856
 30
0.0
 10
74.2214639462
 20
19.0350490822
 30
0.0
 10
73.8975626097
 20
19.0830955537
 30
0.0
 10
73.733806641
 20
19.0911382482
 30
0.0
 10
73.6519918627
 20
19.0911459281
 30
0.0
 11
76.1519918627
 21
16.5911360753
 31
0.0
 11
76.103991691
 21
17.0786818791
 31
0.0
 11
75.9618367975
 21
17.5475157092
 31
0.0
 11
75.7307559875
 21
17.9795546591
 31
0.0
 11
75.4201332919
 21
18.3585451966
 31
0.0
 11
75.0412232352
 21
18.669392879
 31
0.0
 11
74.6090359533
 21
18.9006919474
 31
0.0
 11
74.1399177303
 21
19.0430730212
 31
0.0
 11
73.897140242
 21
19.0790962692
 31
0.0
 11
73.6519918627
 21
19.0911459281
 31
0.0
  0
SPLINE
  5
62A
100
AcDbEntity
  8
RACCORDO
100
AcDbSpline
 62
253
  6
CONTINUOUS
 70
0
 71
3
 72
15
 73
11
 74
9
 42
0.0000001
 43
0.0000001
 44
0.0000000001
 12
0.0556897211
 22
-1.0288963648
 32
0.0
 13
1.0280473703
 23
-0.0696252755
 33
0.0
 40
0.0
 40
0.0
 40
0.0
 40
0.0
 40
0.12497298
 40
0.2499638153
 40
0.3749706106
 40
0.4999914982
 40
0.6250179201
 40
0.7500379325
 40
0.875038797
 40
1.0
 40
1.0
 40
1.0
 40
1.0
 10
18.6842523238
 20
-15.7128232492
 30
0.0
 10
18.6865722272
 20
-15.7556846641
 30
0.0
 10
18.6991137459
 20
-15.841171822
 30
0.0
 10
18.7401269664
 20
-15.9639228391
 30
0.0
 10
18.8020057348
 20
-16.0776556279
 30
0.0
 10
18.8827222809
 20
-16.1788942162
 30
0.0
 10
18.9799321115
 20
-16.2644445142
 30
0.0
 10
19.0907903157
 20
-16.3314351829
 30
0.0
 10
19.2119732666
 20
-16.3770920933
 30
0.0
 10
19.2972478455
 20
-16.3916949794
 30
0.0
 10
19.3400698575
 20
-16.3945951321
 30
0.0
 11
18.6842523238
 21
-15.7128232492
 31
0.0
 11
18.7028120249
 21
-15.8402512016
 31
0.0
 11
18.7436012902
 21
-15.9624122434
 31
0.0
 11
18.8051416015
 21
-16.0755674935
 31
0.0
 11
18.8854694015
 21
-16.176277503
 31
0.0
 11
18.9822096189
 21
-16.261353123
 31
0.0
 11
19.0925204701
 21
-16.3278839073
 31
0.0
 11
19.2131100262
 21
-16.3731376937
 31
0.0
 11
19.3400698575
 21
-16.3945951321
 31
0.0
  0
SPLINE
  5
62B
100
AcDbEntity
  8
RACCORDO
100
AcDbSpline
 62
253
  6
CONTINUOUS
 70
0
 71
3
 72
20
 73
16
 74
14
 42
0.0000001
 43
0.0000001
 44
0.0000000001
 12
-0.0822038821
 22
0.2371466896
 32
0.0
 13
-0.2509900043
 23
0.0002199848
 33
0.0
 40
0.0
 40
0.0
 40
0.0
 40
0.0
 40
0.0031569446
 40
0.0081434656
 40
0.0245567956
 40
0.0498635474
 40
0.083974898
 40
0.126624096
 40
0.1774364913
 40
0.2359517765
 40
0.3016286957
 40
0.4519563757
 40
0.6228142866
 40
0.8078000993
 40
1.0
 40
1.0
 40
1.0
 40
1.0
 10
82.9811949212
 20
21.0710548737
 30
0.0
 10
82.9811084168
 20
21.0713044267
 30
0.0
 10
82.9805833515
 20
21.0718087842
 30
0.0
 10
82.9787509544
 20
21.07271055
 30
0.0
 10
82.974931796
 20
21.0737150935
 30
0.0
 10
82.9687028126
 20
21.0748379281
 30
0.0
 10
82.9602255737
 20
21.075943415
 30
0.0
 10
82.9496090945
 20
21.0770220306
 30
0.0
 10
82.9369342899
 20
21.0780517573
 30
0.0
 10
82.9223249384
 20
21.0790219679
 30
0.0
 10
82.8993914786
 20
21.0802773807
 30
0.0
 10
82.8670499047
 20
21.0815785366
 30
0.0
 10
82.8247161796
 20
21.0827133234
 30
0.0
 10
82.7788697827
 20
21.0834305075
 30
0.0
 10
82.7473130821
 20
21.0836098847
 30
0.0
 10
82.7312329974
 20
21.0836239784
 30
0.0
 11
82.9811949212
 21
21.0710548737
 31
0.0
 11
82.9806889049
 21
21.0716646153
 31
0.0
 11
82.9795953001
 21
21.0722732609
 31
0.0
 11
82.9756565925
 21
21.0734805509
 31
0.0
 11
82.9694162049
 21
21.0746647035
 31
0.0
 11
82.9609322093
 21
21.075814924
 31
0.0
 11
82.9502849106
 21
21.0769203281
 31
0.0
 11
82.9375748122
 21
21.0779704796
 31
0.0
 11
82.922921124
 21
21.0789554992
 31
0.0
 11
82.906462038
 21
21.0798661043
 31
0.0
 11
82.8687637273
 21
21.0814305815
 31
0.0
 11
82.8258961699
 21
21.0826050866
 31
0.0
 11
82.779472466
 21
21.0833454887
 31
0.0
 11
82.7312329974
 21
21.0836239784
 31
0.0
  0
SPLINE
  5
62C
100
AcDbEntity
  8
RACCORDO
100
AcDbSpline
 62
253
  6
CONTINUOUS
 70
0
 71
3
 72
20
 73
16
 74
14
 42
0.0000001
 43
0.0000001
 44
0.0000000001
 12
-0.0822055683
 22
-0.2371461015
 32
0.0
 13
-0.2509900008
 23
-0.0002199844
 33
0.0
 40
0.0
 40
0.0
 40
0.0
 40
0.0
 40
0.003156956
 40
0.008143492
 40
0.0245568519
 40
0.04986363
 40
0.083975002
 40
0.1266242165
 40
0.177436623
 40
0.2359519142
 40
0.3016288342
 40
0.4519565008
 40
0.622814381
 40
0.8078001501
 40
1.0
 40
1.0
 40
1.0
 40
1.0
 10
82.9811949212
 20
-21.6387630175
 30
0.0
 10
82.9811084148
 20
-21.6390125708
 30
0.0
 10
82.9805833461
 20
-21.6395169273
 30
0.0
 10
82.9787509437
 20
-21.6404186931
 30
0.0
 10
82.9749317793
 20
-21.6414232361
 30
0.0
 10
82.9687027893
 20
-21.6425460706
 30
0.0
 10
82.9602255451
 20
-21.643651557
 30
0.0
 10
82.9496090619
 20
-21.6447301722
 30
0.0
 10
82.9369342545
 20
-21.6457598985
 30
0.0
 10
82.9223249017
 20
-21.6467301087
 30
0.0
 10
82.8993914428
 20
-21.6479855208
 30
0.0
 10
82.8670498729
 20
-21.649286676
 30
0.0
 10
82.8247161557
 20
-21.6504214621
 30
0.0
 10
82.7788697699
 20
-21.6511386458
 30
0.0
 10
82.7473130776
 20
-21.6513180228
 30
0.0
 10
82.7312329974
 20
-21.6513321165
 30
0.0
 11
82.9811949212
 21
-21.6387630175
 31
0.0
 11
82.9806889002
 21
-21.6393727589
 31
0.0
 11
82.9795952911
 21
-21.6399814044
 31
0.0
 11
82.9756565755
 21
-21.641188694
 31
0.0
 11
82.9694161813
 21
-21.6423728462
 31
0.0
 11
82.9609321803
 21
-21.6435230662
 31
0.0
 11
82.9502848775
 21
-21.6446284699
 31
0.0
 11
82.9375747764
 21
-21.6456786208
 31
0.0
 11
82.9229210869
 21
-21.64666364
 31
0.0
 11
82.9064620009
 21
-21.6475742447
 31
0.0
 11
82.868763694
 21
-21.649138721
 31
0.0
 11
82.8258961449
 21
-21.6503132254
 31
0.0
 11
82.7794724526
 21
-21.651053627
 31
0.0
 11
82.7312329974
 21
-21.6513321165
 31
0.0
  0
SPLINE
  5
62D
100
AcDbEntity
  8
RACCORDO
100
AcDbSpline
 62
253
  6
CONTINUOUS
 70
0
 71
3
 72
20
 73
16
 74
14
 42
0.0000001
 43
0.0000001
 44
0.0000000001
 12
0.082203883
 22
-0.2371466894
 32
0.0
 13
0.2509900043
 23
-0.0002199848
 33
0.0
 40
0.0
 40
0.0
 40
0.0
 40
0.0
 40
0.0031569446
 40
0.0081434656
 40
0.0245567956
 40
0.0498635475
 40
0.083974898
 40
0.126624096
 40
0.1774364913
 40
0.2359517766
 40
0.3016286957
 40
0.4519563757
 40
0.6228142866
 40
0.8078000994
 40
1.0
 40
1.0
 40
1.0
 40
1.0
 10
8.5727888041
 20
-21.6387630175
 30
0.0
 10
8.5728753085
 20
-21.6390125705
 30
0.0
 10
8.5734003738
 20
-21.639516928
 30
0.0
 10
8.5752327709
 20
-21.6404186939
 30
0.0
 10
8.5790519293
 20
-21.6414232374
 30
0.0
 10
8.5852809127
 20
-21.642546072
 30
0.0
 10
8.5937581516
 20
-21.6436515588
 30
0.0
 10
8.6043746308
 20
-21.6447301744
 30
0.0
 10
8.6170494354
 20
-21.6457599012
 30
0.0
 10
8.631658787
 20
-21.6467301118
 30
0.0
 10
8.6545922467
 20
-21.6479855246
 30
0.0
 10
8.6869338207
 20
-21.6492866805
 30
0.0
 10
8.7292675458
 20
-21.6504214672
 30
0.0
 10
8.7751139426
 20
-21.6511386514
 30
0.0
 10
8.8066706433
 20
-21.6513180286
 30
0.0
 10
8.8227507279
 20
-21.6513321223
 30
0.0
 11
8.5727888041
 21
-21.6387630175
 31
0.0
 11
8.5732948204
 21
-21.6393727591
 31
0.0
 11
8.5743884252
 21
-21.6399814048
 31
0.0
 11
8.5783271329
 21
-21.6411886947
 31
0.0
 11
8.5845675204
 21
-21.6423728473
 31
0.0
 11
8.593051516
 21
-21.6435230678
 31
0.0
 11
8.6036988147
 21
-21.644628472
 31
0.0
 11
8.6164089131
 21
-21.6456786234
 31
0.0
 11
8.6310626013
 21
-21.646663643
 31
0.0
 11
8.6475216873
 21
-21.6475742482
 31
0.0
 11
8.685219998
 21
-21.6491387253
 31
0.0
 11
8.7280875555
 21
-21.6503132305
 31
0.0
 11
8.7745112593
 21
-21.6510536325
 31
0.0
 11
8.8227507279
 21
-21.6513321223
 31
0.0
  0
SPLINE
  5
62E
100
AcDbEntity
  8
RACCORDO
100
AcDbSpline
 62
253
  6
CONTINUOUS
 70
0
 71
3
 72
20
 73
16
 74
14
 42
0.0000001
 43
0.0000001
 44
0.0000000001
 12
0.0822055683
 22
0.2371461015
 32
0.0
 13
0.2509900008
 23
0.0002199844
 33
0.0
 40
0.0
 40
0.0
 40
0.0
 40
0.0
 40
0.003156956
 40
0.008143492
 40
0.0245568519
 40
0.04986363
 40
0.083975002
 40
0.1266242165
 40
0.177436623
 40
0.2359519142
 40
0.3016288342
 40
0.4519565008
 40
0.622814381
 40
0.8078001501
 40
1.0
 40
1.0
 40
1.0
 40
1.0
 10
8.5727888041
 20
21.0710548737
 30
0.0
 10
8.5728753106
 20
21.071304427
 30
0.0
 10
8.5734003792
 20
21.0718087835
 30
0.0
 10
8.5752327816
 20
21.0727105492
 30
0.0
 10
8.579051946
 20
21.0737150923
 30
0.0
 10
8.585280936
 20
21.0748379267
 30
0.0
 10
8.5937581803
 20
21.0759434132
 30
0.0
 10
8.6043746634
 20
21.0770220284
 30
0.0
 10
8.6170494708
 20
21.0780517547
 30
0.0
 10
8.6316588236
 20
21.0790219648
 30
0.0
 10
8.6545922825
 20
21.0802773769
 30
0.0
 10
8.6869338525
 20
21.0815785321
 30
0.0
 10
8.7292675696
 20
21.0827133182
 30
0.0
 10
8.7751139554
 20
21.0834305019
 30
0.0
 10
8.8066706477
 20
21.083609879
 30
0.0
 10
8.8227507279
 20
21.0836239726
 30
0.0
 11
8.5727888041
 21
21.0710548737
 31
0.0
 11
8.5732948251
 21
21.0716646151
 31
0.0
 11
8.5743884342
 21
21.0722732606
 31
0.0
 11
8.5783271498
 21
21.0734805501
 31
0.0
 11
8.5845675441
 21
21.0746647023
 31
0.0
 11
8.593051545
 21
21.0758149224
 31
0.0
 11
8.6036988478
 21
21.0769203261
 31
0.0
 11
8.6164089489
 21
21.077970477
 31
0.0
 11
8.6310626384
 21
21.0789554962
 31
0.0
 11
8.6475217244
 21
21.0798661008
 31
0.0
 11
8.6852200313
 21
21.0814305771
 31
0.0
 11
8.7280875804
 21
21.0826050816
 31
0.0
 11
8.7745112727
 21
21.0833454831
 31
0.0
 11
8.8227507279
 21
21.0836239726
 31
0.0
  0
SPLINE
  5
62F
100
AcDbEntity
  8
RACCORDO
100
AcDbSpline
 62
253
  6
CONTINUOUS
 70
0
 71
3
 72
27
 73
23
 74
21
 42
0.0000001
 43
0.0000001
 44
0.0000000001
 12
-0.569856135
 22
-0.7599684713
 32
0.0
 13
-0.000626218
 23
-0.9498882565
 33
0.0
 40
0.0
 40
0.0
 40
0.0
 40
0.0
 40
0.0007908587
 40
0.0021320847
 40
0.0040404357
 40
0.0065206087
 40
0.0131996086
 40
0.0221629596
 40
0.0333950533
 40
0.0468719654
 40
0.0625657711
 40
0.0804416616
 40
0.1225803722
 40
0.1729188467
 40
0.2310145619
 40
0.2963561633
 40
0.3683681464
 40
0.4464160079
 40
0.5298118795
 40
0.6178206151
 40
0.8045390202
 40
1.0
 40
1.0
 40
1.0
 40
1.0
 10
82.7440793583
 20
22.0331953788
 30
0.0
 10
82.7439291331
 20
22.0329950362
 30
0.0
 10
82.7437044039
 20
22.0323407299
 30
0.0
 10
82.7434122961
 20
22.0311037922
 30
0.0
 10
82.7431204555
 20
22.0293079248
 30
0.0
 10
82.7426763134
 20
22.0258339629
 30
0.0
 10
82.7421591829
 20
22.0201160441
 30
0.0
 10
82.7415711485
 20
22.0116278931
 30
0.0
 10
82.7409857778
 20
22.0009816501
 30
0.0
 10
82.7404027106
 20
21.9882022497
 30
0.0
 10
82.7398263083
 20
21.9733169212
 30
0.0
 10
82.7390240871
 20
21.9493587747
 30
0.0
 10
82.7380769902
 20
21.9144302512
 30
0.0
 10
82.7370386937
 20
21.8667656153
 30
0.0
 10
82.7360593753
 20
21.8117516684
 30
0.0
 10
82.735148502
 20
21.7498732873
 30
0.0
 10
82.7343155121
 20
21.6816758642
 30
0.0
 10
82.7335683416
 20
21.6077606306
 30
0.0
 10
82.7329139858
 20
21.5287792944
 30
0.0
 10
82.7321587022
 20
21.4153894628
 30
0.0
 10
82.7314999527
 20
21.2665152954
 30
0.0
 10
82.7312737895
 20
21.1455061049
 30
0.0
 10
82.7312329891
 20
21.0836174085
 30
0.0
 11
82.7440793583
 21
22.0331953788
 31
0.0
 11
82.7437721268
 21
22.0325098486
 31
0.0
 11
82.7434651224
 21
22.0312733767
 31
0.0
 11
82.7431585465
 21
22.029486769
 31
0.0
 11
82.7428526003
 21
22.0271508314
 31
0.0
 11
82.7422433446
 21
22.0208358483
 31
0.0
 11
82.7416386784
 21
22.012343163
 31
0.0
 11
82.7410398797
 21
22.0016907435
 31
0.0
 11
82.7404482745
 21
21.9889028576
 31
0.0
 11
82.739865189
 21
21.9740069004
 31
0.0
 11
82.739291903
 21
21.9570364787
 31
0.0
 11
82.7381797523
 21
21.9170248572
 31
0.0
 11
82.7371216319
 21
21.86922063
 31
0.0
 11
82.7361268721
 21
21.814045147
 31
0.0
 11
82.7352042464
 21
21.7519847714
 31
0.0
 11
82.7343618924
 21
21.6835866062
 31
0.0
 11
82.7336072405
 21
21.609453684
 31
0.0
 11
82.7329469487
 21
21.5302396597
 31
0.0
 11
82.7323868418
 21
21.4466430534
 31
0.0
 11
82.7315860251
 21
21.2692832025
 31
0.0
 11
82.7312329891
 21
21.0836174085
 31
0.0
  0
SPLINE
  5
630
100
AcDbEntity
  8
RACCORDO
100
AcDbSpline
 62
253
  6
CONTINUOUS
 70
0
 71
3
 72
27
 73
23
 74
21
 42
0.0000001
 43
0.0000001
 44
0.0000000001
 12
-0.000626218
 22
0.9498882565
 32
0.0
 13
-0.5698561349
 23
0.7599684714
 33
0.0
 40
0.0
 40
0.0
 40
0.0
 40
0.0
 40
0.1954609798
 40
0.3821793849
 40
0.4701881205
 40
0.553583992
 40
0.6316318536
 40
0.7036438367
 40
0.7689854381
 40
0.8270811532
 40
0.8774196278
 40
0.9195583384
 40
0.9374342289
 40
0.9531280346
 40
0.9666049466
 40
0.9778370404
 40
0.9868003914
 40
0.9934793912
 40
0.9959595643
 40
0.9978679153
 40
0.9992091413
 40
1.0
 40
1.0
 40
1.0
 40
1.0
 10
8.8227507362
 20
21.0836174084
 30
0.0
 10
8.8227099359
 20
21.1455061049
 30
0.0
 10
8.8224837726
 20
21.2665152953
 30
0.0
 10
8.8218250231
 20
21.4153894627
 30
0.0
 10
8.8210697395
 20
21.5287792944
 30
0.0
 10
8.8204153837
 20
21.6077606306
 30
0.0
 10
8.8196682132
 20
21.6816758642
 30
0.0
 10
8.8188352234
 20
21.7498732873
 30
0.0
 10
8.81792435
 20
21.8117516684
 30
0.0
 10
8.8169450317
 20
21.8667656153
 30
0.0
 10
8.8159067351
 20
21.9144302512
 30
0.0
 10
8.8149596382
 20
21.9493587747
 30
0.0
 10
8.814157417
 20
21.9733169212
 30
0.0
 10
8.8135810147
 20
21.9882022497
 30
0.0
 10
8.8129979475
 20
22.0009816501
 30
0.0
 10
8.8124125768
 20
22.0116278931
 30
0.0
 10
8.8118245424
 20
22.0201160441
 30
0.0
 10
8.8113074119
 20
22.0258339629
 30
0.0
 10
8.8108632698
 20
22.0293079248
 30
0.0
 10
8.8105714292
 20
22.0311037922
 30
0.0
 10
8.8102793214
 20
22.0323407299
 30
0.0
 10
8.8100545922
 20
22.0329950362
 30
0.0
 10
8.809904367
 20
22.0331953788
 30
0.0
 11
8.8227507362
 21
21.0836174084
 31
0.0
 11
8.8223977002
 21
21.2692832024
 31
0.0
 11
8.8215968835
 21
21.4466430534
 31
0.0
 11
8.8210367766
 21
21.5302396596
 31
0.0
 11
8.8203764848
 21
21.6094536839
 31
0.0
 11
8.8196218329
 21
21.6835866062
 31
0.0
 11
8.8187794789
 21
21.7519847713
 31
0.0
 11
8.8178568532
 21
21.8140451469
 31
0.0
 11
8.8168620934
 21
21.8692206299
 31
0.0
 11
8.815803973
 21
21.9170248572
 31
0.0
 11
8.8146918223
 21
21.9570364787
 31
0.0
 11
8.8141185364
 21
21.9740069004
 31
0.0
 11
8.8135354509
 21
21.9889028576
 31
0.0
 11
8.8129438456
 21
22.0016907435
 31
0.0
 11
8.8123450469
 21
22.012343163
 31
0.0
 11
8.8117403807
 21
22.0208358483
 31
0.0
 11
8.811131125
 21
22.0271508314
 31
0.0
 11
8.8108251788
 21
22.029486769
 31
0.0
 11
8.8105186029
 21
22.0312733767
 31
0.0
 11
8.8102115986
 21
22.0325098486
 31
0.0
 11
8.809904367
 21
22.0331953788
 31
0.0
  0
SPLINE
  5
631
100
AcDbEntity
  8
RACCORDO
100
AcDbSpline
 62
253
  6
CONTINUOUS
 70
0
 71
3
 72
27
 73
23
 74
21
 42
0.0000001
 43
0.0000001
 44
0.0000000001
 12
0.000626218
 22
-0.9498882566
 32
0.0
 13
0.5698561349
 23
-0.7599684715
 33
0.0
 40
0.0
 40
0.0
 40
0.0
 40
0.0
 40
0.1954609798
 40
0.3821793849
 40
0.4701881205
 40
0.553583992
 40
0.6316318536
 40
0.7036438367
 40
0.7689854381
 40
0.8270811532
 40
0.8774196278
 40
0.9195583384
 40
0.9374342289
 40
0.9531280346
 40
0.9666049466
 40
0.9778370404
 40
0.9868003914
 40
0.9934793912
 40
0.9959595643
 40
0.9978679153
 40
0.9992091413
 40
1.0
 40
1.0
 40
1.0
 40
1.0
 10
82.7312329891
 20
-21.6513255522
 30
0.0
 10
82.7312737895
 20
-21.7132142486
 30
0.0
 10
82.7314999527
 20
-21.8342234391
 30
0.0
 10
82.7321587022
 20
-21.9830976065
 30
0.0
 10
82.7329139858
 20
-22.0964874381
 30
0.0
 10
82.7335683416
 20
-22.1754687744
 30
0.0
 10
82.7343155121
 20
-22.249384008
 30
0.0
 10
82.735148502
 20
-22.3175814311
 30
0.0
 10
82.7360593753
 20
-22.3794598122
 30
0.0
 10
82.7370386937
 20
-22.4344737591
 30
0.0
 10
82.7380769902
 20
-22.482138395
 30
0.0
 10
82.7390240871
 20
-22.5170669186
 30
0.0
 10
82.7398263083
 20
-22.541025065
 30
0.0
 10
82.7404027106
 20
-22.5559103936
 30
0.0
 10
82.7409857778
 20
-22.568689794
 30
0.0
 10
82.7415711485
 20
-22.5793360369
 30
0.0
 10
82.7421591829
 20
-22.587824188
 30
0.0
 10
82.7426763134
 20
-22.5935421067
 30
0.0
 10
82.7431204555
 20
-22.5970160686
 30
0.0
 10
82.7434122961
 20
-22.598811936
 30
0.0
 10
82.7437044039
 20
-22.6000488738
 30
0.0
 10
82.7439291331
 20
-22.6007031801
 30
0.0
 10
82.7440793583
 20
-22.6009035226
 30
0.0
 11
82.7312329891
 21
-21.6513255522
 31
0.0
 11
82.7315860251
 21
-21.8369913462
 31
0.0
 11
82.7323868418
 21
-22.0143511971
 31
0.0
 11
82.7329469487
 21
-22.0979478034
 31
0.0
 11
82.7336072405
 21
-22.1771618277
 31
0.0
 11
82.7343618924
 21
-22.25129475
 31
0.0
 11
82.7352042464
 21
-22.3196929152
 31
0.0
 11
82.7361268721
 21
-22.3817532908
 31
0.0
 11
82.7371216319
 21
-22.4369287738
 31
0.0
 11
82.7381797523
 21
-22.484733001
 31
0.0
 11
82.739291903
 21
-22.5247446225
 31
0.0
 11
82.739865189
 21
-22.5417150442
 31
0.0
 11
82.7404482745
 21
-22.5566110014
 31
0.0
 11
82.7410398797
 21
-22.5693988873
 31
0.0
 11
82.7416386784
 21
-22.5800513068
 31
0.0
 11
82.7422433446
 21
-22.5885439921
 31
0.0
 11
82.7428526003
 21
-22.5948589753
 31
0.0
 11
82.7431585465
 21
-22.5971949128
 31
0.0
 11
82.7434651224
 21
-22.5989815205
 31
0.0
 11
82.7437721268
 21
-22.6002179925
 31
0.0
 11
82.7440793583
 21
-22.6009035226
 31
0.0
  0
SPLINE
  5
632
100
AcDbEntity
  8
RACCORDO
100
AcDbSpline
 62
253
  6
CONTINUOUS
 70
0
 71
3
 72
27
 73
23
 74
21
 42
0.0000001
 43
0.0000001
 44
0.0000000001
 12
0.569856135
 22
0.7599684714
 32
0.0
 13
0.000626218
 23
0.9498882566
 33
0.0
 40
0.0
 40
0.0
 40
0.0
 40
0.0
 40
0.0007908587
 40
0.0021320847
 40
0.0040404357
 40
0.0065206088
 40
0.0131996086
 40
0.0221629596
 40
0.0333950533
 40
0.0468719654
 40
0.0625657711
 40
0.0804416616
 40
0.1225803722
 40
0.1729188467
 40
0.2310145619
 40
0.2963561633
 40
0.3683681464
 40
0.4464160079
 40
0.5298118795
 40
0.6178206151
 40
0.8045390202
 40
1.0
 40
1.0
 40
1.0
 40
1.0
 10
8.809904367
 20
-22.6009035226
 30
0.0
 10
8.8100545922
 20
-22.6007031801
 30
0.0
 10
8.8102793214
 20
-22.6000488738
 30
0.0
 10
8.8105714292
 20
-22.598811936
 30
0.0
 10
8.8108632698
 20
-22.5970160686
 30
0.0
 10
8.8113074119
 20
-22.5935421068
 30
0.0
 10
8.8118245424
 20
-22.587824188
 30
0.0
 10
8.8124125768
 20
-22.5793360369
 30
0.0
 10
8.8129979475
 20
-22.568689794
 30
0.0
 10
8.8135810147
 20
-22.5559103936
 30
0.0
 10
8.814157417
 20
-22.541025065
 30
0.0
 10
8.8149596382
 20
-22.5170669186
 30
0.0
 10
8.8159067351
 20
-22.482138395
 30
0.0
 10
8.8169450317
 20
-22.4344737592
 30
0.0
 10
8.81792435
 20
-22.3794598123
 30
0.0
 10
8.8188352234
 20
-22.3175814311
 30
0.0
 10
8.8196682132
 20
-22.249384008
 30
0.0
 10
8.8204153837
 20
-22.1754687744
 30
0.0
 10
8.8210697395
 20
-22.0964874382
 30
0.0
 10
8.8218250231
 20
-21.9830976066
 30
0.0
 10
8.8224837726
 20
-21.8342234392
 30
0.0
 10
8.8227099359
 20
-21.7132142487
 30
0.0
 10
8.8227507362
 20
-21.6513255522
 30
0.0
 11
8.809904367
 21
-22.6009035226
 31
0.0
 11
8.8102115986
 21
-22.6002179925
 31
0.0
 11
8.8105186029
 21
-22.5989815205
 31
0.0
 11
8.8108251788
 21
-22.5971949128
 31
0.0
 11
8.811131125
 21
-22.5948589753
 31
0.0
 11
8.8117403807
 21
-22.5885439921
 31
0.0
 11
8.8123450469
 21
-22.5800513068
 31
0.0
 11
8.8129438456
 21
-22.5693988873
 31
0.0
 11
8.8135354509
 21
-22.5566110014
 31
0.0
 11
8.8141185364
 21
-22.5417150442
 31
0.0
 11
8.8146918223
 21
-22.5247446225
 31
0.0
 11
8.815803973
 21
-22.484733001
 31
0.0
 11
8.8168620934
 21
-22.4369287738
 31
0.0
 11
8.8178568532
 21
-22.3817532908
 31
0.0
 11
8.8187794789
 21
-22.3196929152
 31
0.0
 11
8.8196218329
 21
-22.25129475
 31
0.0
 11
8.8203764848
 21
-22.1771618278
 31
0.0
 11
8.8210367766
 21
-22.0979478034
 31
0.0
 11
8.8215968835
 21
-22.0143511972
 31
0.0
 11
8.8223977002
 21
-21.8369913463
 31
0.0
 11
8.8227507362
 21
-21.6513255522
 31
0.0
  0
SPLINE
  5
633
100
AcDbEntity
  8
RACCORDO
100
AcDbSpline
 62
253
  6
CONTINUOUS
 70
0
 71
3
 72
15
 73
11
 74
9
 42
0.0000001
 43
0.0000001
 44
0.0000000001
 12
-1.0280320556
 22
-0.0696063027
 32
0.0
 13
-0.0556714487
 23
-1.0288807679
 33
0.0
 40
0.0
 40
0.0
 40
0.0
 40
0.0
 40
0.1249612096
 40
0.2499620671
 40
0.374982073
 40
0.5000085015
 40
0.6250293885
 40
0.7500361955
 40
0.8750270309
 40
1.0
 40
1.0
 40
1.0
 40
1.0
 10
19.3400698575
 20
15.8268869883
 30
0.0
 10
19.2972484811
 20
15.8239876257
 30
0.0
 10
19.2119753483
 20
15.8093840041
 30
0.0
 10
19.0907941219
 20
15.7637288479
 30
0.0
 10
18.9799372449
 20
15.6967399549
 30
0.0
 10
18.8827281169
 20
15.6111920498
 30
0.0
 10
18.8020116634
 20
15.5099561111
 30
0.0
 10
18.7401318757
 20
15.3962261431
 30
0.0
 10
18.6991180407
 20
15.2734778094
 30
0.0
 10
18.6865726204
 20
15.187992422
 30
0.0
 10
18.6842534783
 20
15.1451316605
 30
0.0
 11
19.3400698575
 21
15.8268869883
 31
0.0
 11
19.2131120288
 21
15.8054300793
 31
0.0
 11
19.09252421
 21
15.7601775759
 31
0.0
 11
18.9822146521
 21
15.6936486693
 31
0.0
 11
18.8854751349
 21
15.6085753784
 31
0.0
 11
18.8051473469
 21
15.5078680085
 31
0.0
 11
18.7436062652
 21
15.3947155204
 31
0.0
 11
18.7028154454
 21
15.2725571801
 31
0.0
 11
18.6842534783
 21
15.1451316605
 31
0.0
  0
SPLINE
  5
634
100
AcDbEntity
  8
RACCORDO
100
AcDbSpline
 62
253
  6
CONTINUOUS
 70
0
 71
3
 72
15
 73
11
 74
9
 42
0.0000001
 43
0.0000001
 44
0.0000000001
 12
-0.0556897196
 22
1.0288963661
 32
0.0
 13
-1.0280473715
 23
0.0696252755
 33
0.0
 40
0.0
 40
0.0
 40
0.0
 40
0.0
 40
0.12497298
 40
0.2499638153
 40
0.3749706106
 40
0.4999914982
 40
0.6250179201
 40
0.7500379325
 40
0.875038797
 40
1.0
 40
1.0
 40
1.0
 40
1.0
 10
72.8697314016
 20
15.1451151041
 30
0.0
 10
72.8674114982
 20
15.1879765191
 30
0.0
 10
72.8548699796
 20
15.2734636771
 30
0.0
 10
72.8138567593
 20
15.3962146945
 30
0.0
 10
72.7519779909
 20
15.5099474835
 30
0.0
 10
72.6712614449
 20
15.611186072
 30
0.0
 10
72.5740516142
 20
15.6967363701
 30
0.0
 10
72.4631934099
 20
15.763727039
 30
0.0
 10
72.3420104589
 20
15.8093839495
 30
0.0
 10
72.2567358799
 20
15.8239868356
 30
0.0
 10
72.2139138678
 20
15.8268869883
 30
0.0
 11
72.8697314016
 21
15.1451151041
 31
0.0
 11
72.8511717006
 21
15.2725430567
 31
0.0
 11
72.8103824355
 21
15.3947040987
 31
0.0
 11
72.7488421243
 21
15.507859349
 31
0.0
 11
72.6685143242
 21
15.6085693588
 31
0.0
 11
72.5717741068
 21
15.6936449788
 31
0.0
 11
72.4614632555
 21
15.7601757633
 31
0.0
 11
72.3408736992
 21
15.8054295498
 31
0.0
 11
72.2139138678
 21
15.8268869883
 31
0.0
  0
SPLINE
  5
635
100
AcDbEntity
  8
RACCORDO
100
AcDbSpline
 62
253
  6
CONTINUOUS
 70
0
 71
3
 72
15
 73
11
 74
9
 42
0.0000001
 43
0.0000001
 44
0.0000000001
 12
1.0280485626
 22
0.0696074204
 32
0.0
 13
0.0556468794
 23
1.0288986659
 33
0.0
 40
0.0
 40
0.0
 40
0.0
 40
0.0
 40
0.1249612074
 40
0.2499620638
 40
0.3749820689
 40
0.500008496
 40
0.6250293814
 40
0.7500361846
 40
0.8750270116
 40
1.0
 40
1.0
 40
1.0
 40
1.0
 10
72.2139138678
 20
-16.3945951321
 30
0.0
 10
72.256735931
 20
-16.391695723
 30
0.0
 10
72.3420104282
 20
-16.377091724
 30
0.0
 10
72.4631934133
 20
-16.3314352813
 30
0.0
 10
72.5740515985
 20
-16.2644444938
 30
0.0
 10
72.6712614523
 20
-16.1788942341
 30
0.0
 10
72.7519779194
 20
-16.0776556328
 30
0.0
 10
72.8138569914
 20
-15.9639228666
 30
0.0
 10
72.8548690239
 20
-15.8411717543
 30
0.0
 10
72.8674132827
 20
-15.7556847616
 30
0.0
 10
72.8697314016
 20
-15.7128232479
 30
0.0
 11
72.2139138678
 21
-16.3945951321
 31
0.0
 11
72.3408736991
 21
-16.3731376795
 31
0.0
 11
72.4614632499
 21
-16.3278839081
 31
0.0
 11
72.5717740944
 21
-16.2613531314
 31
0.0
 11
72.6685143158
 21
-16.1762775112
 31
0.0
 11
72.748842115
 21
-16.0755675065
 31
0.0
 11
72.810382421
 21
-15.9624122467
 31
0.0
 11
72.8511716268
 21
-15.8402511963
 31
0.0
 11
72.8697314016
 21
-15.7128232479
 31
0.0
  0
SPLINE
  5
636
100
AcDbEntity
  8
RACCORDO
100
AcDbSpline
 62
253
  6
CONTINUOUS
 70
0
 71
3
 72
26
 73
22
 74
20
 42
0.0000001
 43
0.0000001
 44
0.0000000001
 12
-0.0006263206
 22
0.712587314
 32
0.0
 13
-0.5036578783
 23
0.5040930609
 33
0.0
 40
0.0
 40
0.0
 40
0.0
 40
0.0
 40
0.1954185674
 40
0.3820960848
 40
0.4700855208
 40
0.5534632537
 40
0.6314945285
 40
0.7034919404
 40
0.7688215391
 40
0.8269084855
 40
0.8772422606
 40
0.9193814566
 40
0.9372601003
 40
0.9529586805
 40
0.9664428318
 40
0.9776854559
 40
0.9866639712
 40
0.9933651685
 40
0.9977884146
 40
0.9991593202
 40
1.0
 40
1.0
 40
1.0
 40
1.0
 10
8.5727888041
 20
21.0710548737
 30
0.0
 10
8.5727480059
 20
21.117472471
 30
0.0
 10
8.5725218147
 20
21.2082313505
 30
0.0
 10
8.5718630292
 20
21.3198887113
 30
0.0
 10
8.5711077146
 20
21.4049314787
 30
0.0
 10
8.5704533375
 20
21.4641673288
 30
0.0
 10
8.5697061505
 20
21.5196031946
 30
0.0
 10
8.5688731477
 20
21.5707503722
 30
0.0
 10
8.5679622705
 20
21.6171580544
 30
0.0
 10
8.5669829395
 20
21.6584173632
 30
0.0
 10
8.5659446657
 20
21.6941648527
 30
0.0
 10
8.5649975138
 20
21.7203598363
 30
0.0
 10
8.5641954488
 20
21.7383269821
 30
0.0
 10
8.5636187785
 20
21.7494904998
 30
0.0
 10
8.5630364804
 20
21.7590756935
 30
0.0
 10
8.5624487975
 20
21.7670590099
 30
0.0
 10
8.5618665585
 20
21.7734314051
 30
0.0
 10
8.561279977
 20
21.7781630157
 30
0.0
 10
8.5607783584
 20
21.781105912
 30
0.0
 10
8.560317333
 20
21.7826034094
 30
0.0
 10
8.5600836744
 20
21.7830920706
 30
0.0
 10
8.5599425361
 20
21.7832333308
 30
0.0
 11
8.5727888041
 21
21.0710548737
 31
0.0
 11
8.5724357409
 21
21.2103072719
 31
0.0
 11
8.5716348808
 21
21.3433289433
 31
0.0
 11
8.571074752
 21
21.4060266214
 31
0.0
 11
8.5704144406
 21
21.4654368897
 31
0.0
 11
8.5696597745
 21
21.5210358862
 31
0.0
 11
8.5688174129
 21
21.5723334326
 31
0.0
 11
8.5678947879
 21
21.6188773503
 31
0.0
 11
8.5669000383
 21
21.6602574326
 31
0.0
 11
8.5658419376
 21
21.6961090454
 31
0.0
 11
8.5647298166
 21
21.726116312
 31
0.0
 11
8.5641565472
 21
21.7388435073
 31
0.0
 11
8.5635734814
 21
21.7500149152
 31
0.0
 11
8.5629819004
 21
21.7596053257
 31
0.0
 11
8.5623831258
 21
21.7675942723
 31
0.0
 11
8.5617784796
 21
21.7739636155
 31
0.0
 11
8.5611692443
 21
21.7786997819
 31
0.0
 11
8.5605567475
 21
21.7817916484
 31
0.0
 11
8.5602497561
 21
21.7827190485
 31
0.0
 11
8.5599425361
 21
21.7832333308
 31
0.0
  0
SPLINE
  5
637
100
AcDbEntity
  8
RACCORDO
100
AcDbSpline
 62
253
  6
CONTINUOUS
 70
0
 71
3
 72
9
 73
5
 74
3
 42
0.0000001
 43
0.0000001
 44
0.0000000001
 12
0.0375286453
 22
42.7098044911
 32
0.0
 13
-0.0375286454
 23
42.7098044911
 33
0.0
 40
0.0
 40
0.0
 40
0.0
 40
0.0
 40
0.2499209271
 40
1.0
 40
1.0
 40
1.0
 40
1.0
 10
8.5727888041
 20
-21.6387630175
 30
0.0
 10
8.575915202
 20
-18.0807383731
 30
0.0
 10
8.5852894539
 20
-3.8441342954
 30
0.0
 10
8.5821719546
 20
10.3924780211
 30
0.0
 10
8.5727888041
 20
21.0710548737
 30
0.0
 11
8.5727888041
 21
-21.6387630175
 31
0.0
 11
8.5798206048
 21
-10.9646872796
 31
0.0
 11
8.5727888041
 21
21.0710548737
 31
0.0
  0
SPLINE
  5
638
100
AcDbEntity
  8
RACCORDO
100
AcDbSpline
 62
253
  6
CONTINUOUS
 70
0
 71
3
 72
26
 73
22
 74
20
 42
0.0000001
 43
0.0000001
 44
0.0000000001
 12
0.5036578767
 22
0.5040930625
 32
0.0
 13
0.0006263206
 23
0.712587314
 33
0.0
 40
0.0
 40
0.0
 40
0.0
 40
0.0
 40
0.0008406798
 40
0.0022115854
 40
0.0066348315
 40
0.0133360288
 40
0.0223145441
 40
0.0335571682
 40
0.0470413195
 40
0.0627398997
 40
0.0806185434
 40
0.1227577394
 40
0.1730915145
 40
0.2311784609
 40
0.2965080596
 40
0.3685054715
 40
0.4465367463
 40
0.5299144792
 40
0.6179039152
 40
0.8045814326
 40
1.0
 40
1.0
 40
1.0
 40
1.0
 10
8.5599425361
 20
-22.3509414747
 30
0.0
 10
8.5600836744
 20
-22.3508002144
 30
0.0
 10
8.560317333
 20
-22.3503115533
 30
0.0
 10
8.5607783584
 20
-22.3488140559
 30
0.0
 10
8.561279977
 20
-22.3458711596
 30
0.0
 10
8.5618665585
 20
-22.3411395489
 30
0.0
 10
8.5624487975
 20
-22.3347671537
 30
0.0
 10
8.5630364804
 20
-22.3267838374
 30
0.0
 10
8.5636187785
 20
-22.3171986437
 30
0.0
 10
8.5641954488
 20
-22.3060351259
 30
0.0
 10
8.5649975138
 20
-22.2880679802
 30
0.0
 10
8.5659446657
 20
-22.2618729966
 30
0.0
 10
8.5669829395
 20
-22.226125507
 30
0.0
 10
8.5679622705
 20
-22.1848661983
 30
0.0
 10
8.5688731477
 20
-22.138458516
 30
0.0
 10
8.5697061505
 20
-22.0873113384
 30
0.0
 10
8.5704533375
 20
-22.0318754726
 30
0.0
 10
8.5711077146
 20
-21.9726396225
 30
0.0
 10
8.5718630292
 20
-21.8875968551
 30
0.0
 10
8.5725218147
 20
-21.7759394944
 30
0.0
 10
8.5727480059
 20
-21.6851806149
 30
0.0
 10
8.5727888041
 20
-21.6387630175
 30
0.0
 11
8.5599425361
 21
-22.3509414747
 31
0.0
 11
8.5602497561
 21
-22.3504271923
 31
0.0
 11
8.5605567475
 21
-22.3494997923
 31
0.0
 11
8.5611692443
 21
-22.3464079257
 31
0.0
 11
8.5617784796
 21
-22.3416717594
 31
0.0
 11
8.5623831258
 21
-22.3353024162
 31
0.0
 11
8.5629819004
 21
-22.3273134695
 31
0.0
 11
8.5635734814
 21
-22.3177230591
 31
0.0
 11
8.5641565472
 21
-22.3065516511
 31
0.0
 11
8.5647298166
 21
-22.2938244558
 31
0.0
 11
8.5658419376
 21
-22.2638171893
 31
0.0
 11
8.5669000383
 21
-22.2279655765
 31
0.0
 11
8.5678947879
 21
-22.1865854942
 31
0.0
 11
8.5688174129
 21
-22.1400415765
 31
0.0
 11
8.5696597745
 21
-22.0887440301
 31
0.0
 11
8.5704144406
 21
-22.0331450335
 31
0.0
 11
8.571074752
 21
-21.9737347652
 31
0.0
 11
8.5716348808
 21
-21.9110370871
 31
0.0
 11
8.5724357409
 21
-21.7780154158
 31
0.0
 11
8.5727888041
 21
-21.6387630175
 31
0.0
  0
SPLINE
  5
639
100
AcDbEntity
  8
RACCORDO
100
AcDbSpline
 62
253
  6
CONTINUOUS
 70
0
 71
3
 72
26
 73
22
 74
20
 42
0.0000001
 43
0.0000001
 44
0.0000000001
 12
0.0006263206
 22
-0.712587314
 32
0.0
 13
0.5036578783
 23
-0.5040930609
 33
0.0
 40
0.0
 40
0.0
 40
0.0
 40
0.0
 40
0.1954185674
 40
0.3820960848
 40
0.4700855208
 40
0.5534632537
 40
0.6314945285
 40
0.7034919404
 40
0.7688215391
 40
0.8269084855
 40
0.8772422606
 40
0.9193814566
 40
0.9372601003
 40
0.9529586805
 40
0.9664428318
 40
0.9776854559
 40
0.9866639712
 40
0.9933651685
 40
0.9977884146
 40
0.9991593202
 40
1.0
 40
1.0
 40
1.0
 40
1.0
 10
82.9811949212
 20
-21.6387630175
 30
0.0
 10
82.9812357194
 20
-21.6851806149
 30
0.0
 10
82.9814619106
 20
-21.7759394944
 30
0.0
 10
82.9821206961
 20
-21.8875968551
 30
0.0
 10
82.9828760107
 20
-21.9726396225
 30
0.0
 10
82.9835303878
 20
-22.0318754726
 30
0.0
 10
82.9842775748
 20
-22.0873113384
 30
0.0
 10
82.9851105776
 20
-22.138458516
 30
0.0
 10
82.9860214548
 20
-22.1848661983
 30
0.0
 10
82.9870007858
 20
-22.226125507
 30
0.0
 10
82.9880390596
 20
-22.2618729966
 30
0.0
 10
82.9889862115
 20
-22.2880679802
 30
0.0
 10
82.9897882765
 20
-22.3060351259
 30
0.0
 10
82.9903649468
 20
-22.3171986437
 30
0.0
 10
82.9909472449
 20
-22.3267838374
 30
0.0
 10
82.9915349278
 20
-22.3347671537
 30
0.0
 10
82.9921171668
 20
-22.3411395489
 30
0.0
 10
82.9927037483
 20
-22.3458711596
 30
0.0
 10
82.9932053669
 20
-22.3488140559
 30
0.0
 10
82.9936663923
 20
-22.3503115533
 30
0.0
 10
82.9939000509
 20
-22.3508002144
 30
0.0
 10
82.9940411892
 20
-22.3509414747
 30
0.0
 11
82.9811949212
 21
-21.6387630175
 31
0.0
 11
82.9815479844
 21
-21.7780154158
 31
0.0
 11
82.9823488445
 21
-21.9110370871
 31
0.0
 11
82.9829089733
 21
-21.9737347652
 31
0.0
 11
82.9835692847
 21
-22.0331450335
 31
0.0
 11
82.9843239508
 21
-22.0887440301
 31
0.0
 11
82.9851663124
 21
-22.1400415765
 31
0.0
 11
82.9860889374
 21
-22.1865854942
 31
0.0
 11
82.987083687
 21
-22.2279655765
 31
0.0
 11
82.9881417877
 21
-22.2638171893
 31
0.0
 11
82.9892539087
 21
-22.2938244558
 31
0.0
 11
82.9898271781
 21
-22.3065516511
 31
0.0
 11
82.9904102439
 21
-22.3177230591
 31
0.0
 11
82.9910018249
 21
-22.3273134695
 31
0.0
 11
82.9916005995
 21
-22.3353024162
 31
0.0
 11
82.9922052457
 21
-22.3416717594
 31
0.0
 11
82.992814481
 21
-22.3464079257
 31
0.0
 11
82.9934269778
 21
-22.3494997923
 31
0.0
 11
82.9937339693
 21
-22.3504271923
 31
0.0
 11
82.9940411892
 21
-22.3509414747
 31
0.0
  0
SPLINE
  5
63A
100
AcDbEntity
  8
RACCORDO
100
AcDbSpline
 62
253
  6
CONTINUOUS
 70
0
 71
3
 72
9
 73
5
 74
3
 42
0.0000001
 43
0.0000001
 44
0.0000000001
 12
-0.0375286454
 22
-42.7098044911
 32
0.0
 13
0.0375286453
 23
-42.7098044911
 33
0.0
 40
0.0
 40
0.0
 40
0.0
 40
0.0
 40
0.2499209271
 40
1.0
 40
1.0
 40
1.0
 40
1.0
 10
82.9811949212
 20
21.0710548737
 30
0.0
 10
82.9780685233
 20
17.5130302292
 30
0.0
 10
82.9686942714
 20
3.2764261515
 30
0.0
 10
82.9718117707
 20
-10.960186165
 30
0.0
 10
82.9811949212
 20
-21.6387630175
 30
0.0
 11
82.9811949212
 21
21.0710548737
 31
0.0
 11
82.9741631205
 21
10.3969791358
 31
0.0
 11
82.9811949212
 21
-21.6387630175
 31
0.0
  0
SPLINE
  5
63B
100
AcDbEntity
  8
RACCORDO
100
AcDbSpline
 62
253
  6
CONTINUOUS
 70
0
 71
3
 72
18
 73
14
 74
12
 42
0.0000001
 43
0.0000001
 44
0.0000000001
 12
0.3213531414
 22
0.0442839001
 32
0.0
 13
0.0508640133
 23
-0.3203775233
 33
0.0
 40
0.0
 40
0.0
 40
0.0
 40
0.0
 40
0.0075244993
 40
0.0137862651
 40
0.0220138515
 40
0.0446057159
 40
0.0754907177
 40
0.1617450627
 40
0.2791918869
 40
0.4252856367
 40
0.5967727092
 40
0.7897921434
 40
1.0
 40
1.0
 40
1.0
 40
1.0
 10
72.1454534354
 20
-16.0791448806
 30
0.0
 10
72.1462594426
 20
-16.0790338092
 30
0.0
 10
72.147656421
 20
-16.0801640182
 30
0.0
 10
72.1489710501
 20
-16.0820439827
 30
0.0
 10
72.1509416524
 20
-16.0855909084
 30
0.0
 10
72.1534447597
 20
-16.0917612965
 30
0.0
 10
72.158257986
 20
-16.1061029052
 30
0.0
 10
72.1647393817
 20
-16.1306363942
 30
0.0
 10
72.1731613572
 20
-16.1675140354
 30
0.0
 10
72.1825358652
 20
-16.2136134545
 30
0.0
 10
72.1926728909
 20
-16.2678876598
 30
0.0
 10
72.2033139994
 20
-16.3291150776
 30
0.0
 10
72.210338333
 20
-16.3721472639
 30
0.0
 10
72.213902338
 20
-16.394595888
 30
0.0
 11
72.1454534354
 21
-16.0791448806
 31
0.0
 11
72.1476134774
 21
-16.0802815768
 31
0.0
 11
72.1488358609
 21
-16.0819038509
 31
0.0
 11
72.1501506692
 21
-16.0842264698
 31
0.0
 11
72.1530499317
 21
-16.0909571684
 31
0.0
 11
72.1562952018
 21
-16.1004357929
 31
0.0
 11
72.1637478264
 21
-16.1274050654
 31
0.0
 11
72.1723393295
 21
-16.1645222848
 31
0.0
 11
72.1818746725
 21
-16.2109444577
 31
0.0
 11
72.1921374836
 21
-16.2656182814
 31
0.0
 11
72.2028945567
 21
-16.327300907
 31
0.0
 11
72.213902338
 21
-16.394595888
 31
0.0
  0
SPLINE
  5
63C
100
AcDbEntity
  8
RACCORDO
100
AcDbSpline
 62
253
  6
CONTINUOUS
 70
0
 71
3
 72
19
 73
15
 74
13
 42
0.0000001
 43
0.0000001
 44
0.0000000001
 12
-0.0384355697
 22
-0.3035987947
 32
0.0
 13
0.3024663382
 23
-0.0465148946
 33
0.0
 40
0.0
 40
0.0
 40
0.0
 40
0.0
 40
0.008439221
 40
0.0149419329
 40
0.0233158371
 40
0.0460053602
 40
0.0768114034
 40
0.1157135018
 40
0.1625774052
 40
0.2792902641
 40
0.4246617887
 40
0.5956995777
 40
0.7888250324
 40
1.0
 40
1.0
 40
1.0
 40
1.0
 10
72.5730028353
 20
-15.6468867378
 30
0.0
 10
72.5728947132
 20
-15.6477407836
 30
0.0
 10
72.5738503511
 20
-15.649237538
 30
0.0
 10
72.5756605083
 20
-15.6506958111
 30
0.0
 10
72.5789331018
 20
-15.6527529461
 30
0.0
 10
72.5846922224
 20
-15.6553395771
 30
0.0
 10
72.5935552845
 20
-15.6585701592
 30
0.0
 10
72.6049201537
 20
-15.662076196
 30
0.0
 10
72.624845789
 20
-15.6675247529
 30
0.0
 10
72.6555377856
 20
-15.6747163859
 30
0.0
 10
72.6988098042
 20
-15.6836471581
 30
0.0
 10
72.7499096398
 20
-15.6931675014
 30
0.0
 10
72.8077577651
 20
-15.7030737001
 30
0.0
 10
72.8484893143
 20
-15.7095465053
 30
0.0
 10
72.8697804207
 20
-15.7128207658
 30
0.0
 11
72.5730028353
 21
-15.6468867378
 31
0.0
 11
72.5740394076
 21
-15.649252172
 31
0.0
 11
72.5755421792
 21
-15.6505566535
 31
0.0
 11
72.5776994648
 21
-15.651939779
 31
0.0
 11
72.5839640074
 21
-15.6549343796
 31
0.0
 11
72.59280005
 21
-15.6582205473
 31
0.0
 11
72.6041601068
 21
-15.661780855
 31
0.0
 11
72.6179846136
 21
-15.6655964118
 31
0.0
 11
72.6527200333
 21
-15.6739111115
 31
0.0
 11
72.6962709434
 21
-15.6829886847
 31
0.0
 11
72.7477153391
 21
-15.6926370131
 31
0.0
 11
72.8059613536
 21
-15.7026514684
 31
0.0
 11
72.8697804207
 21
-15.7128207658
 31
0.0
  0
SPLINE
  5
63D
100
AcDbEntity
  8
RACCORDO
100
AcDbSpline
 62
253
  6
CONTINUOUS
 70
0
 71
3
 72
26
 73
22
 74
20
 42
0.0000001
 43
0.0000001
 44
0.0000000001
 12
0.00000026
 22
-0.3003058515
 32
0.0
 13
0.3003046801
 23
-0.0008387631
 33
0.0
 40
0.0
 40
0.0
 40
0.0
 40
0.0
 40
0.0003350021
 40
0.0011779155
 40
0.0025582243
 40
0.0044803565
 40
0.0099535443
 40
0.0175978898
 40
0.0274039896
 40
0.0393589155
 40
0.0534490395
 40
0.0696557458
 40
0.1083289765
 40
0.1551784803
 40
0.2099576191
 40
0.272378347
 40
0.3421149581
 40
0.4187989387
 40
0.5913698083
 40
0.78646248
 40
1.0
 40
1.0
 40
1.0
 40
1.0
 10
72.5769918627
 20
-15.5838540719
 30
0.0
 10
72.5769918627
 20
-15.5838876063
 30
0.0
 10
72.5771438097
 20
-15.5839342155
 30
0.0
 10
72.5773594083
 20
-15.583981775
 30
0.0
 10
72.5777904749
 20
-15.5840377879
 30
0.0
 10
72.5786531541
 20
-15.5841215237
 30
0.0
 10
72.5801644633
 20
-15.5842198961
 30
0.0
 10
72.5824522455
 20
-15.5843310405
 30
0.0
 10
72.5853953573
 20
-15.5844428122
 30
0.0
 10
72.5889817969
 20
-15.5845548153
 30
0.0
 10
72.5932100251
 20
-15.5846663769
 30
0.0
 10
72.6001121968
 20
-15.5848235678
 30
0.0
 10
72.6102938712
 20
-15.5850115173
 30
0.0
 10
72.6243367829
 20
-15.5852217183
 30
0.0
 10
72.6407572
 20
-15.5854256942
 30
0.0
 10
72.6594688799
 20
-15.5856222176
 30
0.0
 10
72.6803734678
 20
-15.5858099668
 30
0.0
 10
72.7123041864
 20
-15.5860569213
 30
0.0
 10
72.7567834332
 20
-15.5863294794
 30
0.0
 10
72.8149621967
 20
-15.5865963398
 30
0.0
 10
72.855866662
 20
-15.5867321355
 30
0.0
 10
72.8772421008
 20
-15.586791838
 30
0.0
 11
72.5769918627
 21
-15.5838540719
 31
0.0
 11
72.5770740302
 21
-15.5839121191
 31
0.0
 11
72.5773204177
 21
-15.5839701613
 31
0.0
 11
72.5777308527
 21
-15.5840281761
 31
0.0
 11
72.5783051625
 21
-15.5840861408
 31
0.0
 11
72.5799447162
 21
-15.58420183
 31
0.0
 11
72.5822374645
 21
-15.5843170519
 31
0.0
 11
72.5851800629
 21
-15.584431653
 31
0.0
 11
72.5887683919
 21
-15.5845454903
 31
0.0
 11
72.5929982313
 21
-15.5846584208
 31
0.0
 11
72.597863914
 21
-15.5847702984
 31
0.0
 11
72.6094756275
 21
-15.5849903021
 31
0.0
 11
72.6235431795
 21
-15.5852043346
 31
0.0
 11
72.6399923737
 21
-15.5854112744
 31
0.0
 11
72.6587366298
 21
-15.5856100369
 31
0.0
 11
72.6796780845
 21
-15.5857995749
 31
0.0
 11
72.7027060343
 21
-15.585978895
 31
0.0
 11
72.7545290617
 21
-15.5863031716
 31
0.0
 11
72.8131158971
 21
-15.5865760571
 31
0.0
 11
72.8772421008
 21
-15.586791838
 31
0.0
  0
SPLINE
  5
63E
100
AcDbEntity
  8
RACCORDO
100
AcDbSpline
 62
253
  6
CONTINUOUS
 70
0
 71
3
 72
26
 73
22
 74
20
 42
0.0000001
 43
0.0000001
 44
0.0000000001
 12
0.000008338
 22
0.3003060891
 32
0.0
 13
0.3003049178
 23
0.0008387737
 33
0.0
 40
0.0
 40
0.0
 40
0.0
 40
0.0
 40
0.0003350059
 40
0.0011779241
 40
0.0025582381
 40
0.0044803755
 40
0.0099535738
 40
0.01759793
 40
0.0274040406
 40
0.0393589772
 40
0.0534491118
 40
0.0696558285
 40
0.1083290791
 40
0.1551786007
 40
0.2099577546
 40
0.2723784939
 40
0.3421151117
 40
0.4187990933
 40
0.5913699446
 40
0.786462566
 40
1.0
 40
1.0
 40
1.0
 40
1.0
 10
72.5769917226
 20
15.0161459281
 30
0.0
 10
72.5769917235
 20
15.0161794628
 30
0.0
 10
72.5771436712
 20
15.0162260705
 30
0.0
 10
72.5773592718
 20
15.0162736311
 30
0.0
 10
72.5777903401
 20
15.0163296431
 30
0.0
 10
72.5786530223
 20
15.016413379
 30
0.0
 10
72.5801643352
 20
15.0165117507
 30
0.0
 10
72.5824521226
 20
15.016622895
 30
0.0
 10
72.5853952399
 20
15.0167346662
 30
0.0
 10
72.5889816855
 20
15.0168466689
 30
0.0
 10
72.5932099203
 20
15.0169582302
 30
0.0
 10
72.6001121016
 20
15.0171154206
 30
0.0
 10
72.6102937889
 20
15.0173033697
 30
0.0
 10
72.6243367169
 20
15.0175135701
 30
0.0
 10
72.6407571515
 20
15.0177175457
 30
0.0
 10
72.6594688496
 20
15.0179140689
 30
0.0
 10
72.6803734559
 20
15.0181018179
 30
0.0
 10
72.7123041987
 20
15.0183487724
 30
0.0
 10
72.7567834739
 20
15.018621331
 30
0.0
 10
72.814962268
 20
15.0188881926
 30
0.0
 10
72.855866752
 20
15.0190239895
 30
0.0
 10
72.8772421992
 20
15.0190836927
 30
0.0
 11
72.5769917226
 21
15.0161459281
 31
0.0
 11
72.5770738917
 21
15.016203975
 31
0.0
 11
72.577320281
 21
15.016262017
 31
0.0
 11
72.5777307179
 21
15.0163200316
 31
0.0
 11
72.5783050297
 21
15.0163779961
 31
0.0
 11
72.579944588
 21
15.0164936849
 31
0.0
 11
72.5822373414
 21
15.0166089064
 31
0.0
 11
72.5851799454
 21
15.0167235071
 31
0.0
 11
72.5887682803
 21
15.016837344
 31
0.0
 11
72.5929981263
 21
15.0169502741
 31
0.0
 11
72.597863816
 21
15.0170621514
 31
0.0
 11
72.6094755447
 21
15.0172821545
 31
0.0
 11
72.6235431132
 21
15.0174961865
 31
0.0
 11
72.639992325
 21
15.0177031259
 31
0.0
 11
72.6587365993
 21
15.0179018882
 31
0.0
 11
72.6796780726
 21
15.0180914261
 31
0.0
 11
72.702706041
 21
15.0182707462
 31
0.0
 11
72.7545291039
 21
15.0185950233
 31
0.0
 11
72.8131159706
 21
15.0188679099
 31
0.0
 11
72.8772421992
 21
15.0190836927
 31
0.0
  0
SPLINE
  5
63F
100
AcDbEntity
  8
RACCORDO
100
AcDbSpline
 62
253
  6
CONTINUOUS
 70
0
 71
3
 72
19
 73
15
 74
13
 42
0.0000001
 43
0.0000001
 44
0.0000000001
 12
-0.0387174229
 22
0.3035267768
 32
0.0
 13
0.3024314326
 23
0.0465056088
 33
0.0
 40
0.0
 40
0.0
 40
0.0
 40
0.0
 40
0.0084464744
 40
0.014949973
 40
0.0233237352
 40
0.0460115357
 40
0.0768150603
 40
0.1157144163
 40
0.1625756453
 40
0.2792840062
 40
0.424652913
 40
0.5956905704
 40
0.7888188537
 40
1.0
 40
1.0
 40
1.0
 40
1.0
 10
72.5730028198
 20
15.079178592
 30
0.0
 10
72.5728938112
 20
15.0800331691
 30
0.0
 10
72.573846946
 20
15.0815320894
 30
0.0
 10
72.5756562902
 20
15.0829926247
 30
0.0
 10
72.5789266602
 20
15.085052063
 30
0.0
 10
72.5846834515
 20
15.0876413789
 30
0.0
 10
72.5935434955
 20
15.0908748101
 30
0.0
 10
72.6049052567
 20
15.0943835597
 30
0.0
 10
72.6248263217
 20
15.0998357987
 30
0.0
 10
72.6555126576
 20
15.1070311772
 30
0.0
 10
72.6987779729
 20
15.1159651523
 30
0.0
 10
72.7498712589
 20
15.1254874641
 30
0.0
 10
72.8077132208
 20
15.1353942518
 30
0.0
 10
72.8484409054
 20
15.1418664236
 30
0.0
 10
72.8697301776
 20
15.1451401262
 30
0.0
 11
72.5730028198
 21
15.079178592
 31
0.0
 11
72.5740367723
 21
15.0815472637
 31
0.0
 11
72.5755381656
 21
15.0828533423
 31
0.0
 11
72.5776940306
 21
15.0842380442
 31
0.0
 11
72.5839556149
 21
15.0872357192
 31
0.0
 11
72.5927885598
 21
15.0905248297
 31
0.0
 11
72.6041454015
 21
15.0940879168
 31
0.0
 11
72.6179665996
 21
15.0979060587
 31
0.0
 11
72.6526952231
 21
15.1062252312
 31
0.0
 11
72.6962392798
 21
15.1153061734
 31
0.0
 11
72.7476769941
 21
15.124956587
 31
0.0
 11
72.8059167364
 21
15.1349717006
 31
0.0
 11
72.8697301776
 21
15.1451401262
 31
0.0
  0
SPLINE
  5
640
100
AcDbEntity
  8
RACCORDO
100
AcDbSpline
 62
253
  6
CONTINUOUS
 70
0
 71
3
 72
18
 73
14
 74
12
 42
0.0000001
 43
0.0000001
 44
0.0000000001
 12
0.3212896561
 22
-0.0445454023
 32
0.0
 13
0.0508581637
 23
0.3203510311
 33
0.0
 40
0.0
 40
0.0
 40
0.0
 40
0.0
 40
0.0075256641
 40
0.0137866362
 40
0.0220131087
 40
0.0446024058
 40
0.0754848527
 40
0.1617349058
 40
0.279179147
 40
0.425272405
 40
0.5967613276
 40
0.7897851318
 40
1.0
 40
1.0
 40
1.0
 40
1.0
 10
72.1454534386
 20
15.51143676
 30
0.0
 10
72.1462594113
 20
15.5113250154
 30
0.0
 10
72.14765755
 20
15.5124536378
 30
0.0
 10
72.1489728666
 20
15.5143329444
 30
0.0
 10
72.1509443868
 20
15.5178783574
 30
0.0
 10
72.1534484225
 20
15.5240471339
 30
0.0
 10
72.1582632722
 20
15.5383857537
 30
0.0
 10
72.1647462377
 20
15.5629156565
 30
0.0
 10
72.1731697007
 20
15.599788883
 30
0.0
 10
72.1825452663
 20
15.6458839607
 30
0.0
 10
72.1926828809
 20
15.7001539969
 30
0.0
 10
72.2033240282
 20
15.7613775981
 30
0.0
 10
72.2103479703
 20
15.8044074083
 30
0.0
 10
72.2139116844
 20
15.8268549249
 30
0.0
 11
72.1454534386
 21
15.51143676
 31
0.0
 11
72.1476146616
 21
15.5125715835
 31
0.0
 11
72.1488376278
 21
15.5141928836
 31
0.0
 11
72.1501530109
 21
15.5165145056
 31
0.0
 11
72.1530533933
 21
15.5232431487
 31
0.0
 11
72.156299732
 21
15.5327196471
 31
0.0
 11
72.1637542892
 21
15.5596845176
 31
0.0
 11
72.1723473718
 21
15.5967972466
 31
0.0
 11
72.1818838562
 21
15.6432149831
 31
0.0
 11
72.192147299
 21
15.6978845735
 31
0.0
 11
72.202904439
 21
15.7595633201
 31
0.0
 11
72.2139116844
 21
15.8268549249
 31
0.0
  0
SPLINE
  5
641
100
AcDbEntity
  8
RACCORDO
100
AcDbSpline
 62
253
  6
CONTINUOUS
 70
0
 71
3
 72
18
 73
14
 74
12
 42
0.0000001
 43
0.0000001
 44
0.0000000001
 12
-0.3213531414
 22
-0.0442839001
 32
0.0
 13
-0.0508640133
 23
0.3203775233
 33
0.0
 40
0.0
 40
0.0
 40
0.0
 40
0.0
 40
0.0075244993
 40
0.0137862651
 40
0.0220138515
 40
0.0446057159
 40
0.0754907177
 40
0.1617450627
 40
0.2791918869
 40
0.4252856367
 40
0.5967727092
 40
0.7897921434
 40
1.0
 40
1.0
 40
1.0
 40
1.0
 10
19.4085302899
 20
15.5114367367
 30
0.0
 10
19.4077242827
 20
15.5113256653
 30
0.0
 10
19.4063273043
 20
15.5124558743
 30
0.0
 10
19.4050126753
 20
15.5143358389
 30
0.0
 10
19.4030420729
 20
15.5178827646
 30
0.0
 10
19.4005389656
 20
15.5240531526
 30
0.0
 10
19.3957257393
 20
15.5383947614
 30
0.0
 10
19.3892443436
 20
15.5629282504
 30
0.0
 10
19.3808223681
 20
15.5998058916
 30
0.0
 10
19.3714478601
 20
15.6459053106
 30
0.0
 10
19.3613108344
 20
15.700179516
 30
0.0
 10
19.3506697259
 20
15.7614069337
 30
0.0
 10
19.3436453924
 20
15.80443912
 30
0.0
 10
19.3400813873
 20
15.8268877442
 30
0.0
 11
19.4085302899
 21
15.5114367367
 31
0.0
 11
19.4063702479
 21
15.5125734329
 31
0.0
 11
19.4051478644
 21
15.5141957071
 31
0.0
 11
19.4038330561
 21
15.516518326
 31
0.0
 11
19.4009337936
 21
15.5232490245
 31
0.0
 11
19.3976885235
 21
15.532727649
 31
0.0
 11
19.3902358989
 21
15.5596969216
 31
0.0
 11
19.3816443958
 21
15.5968141409
 31
0.0
 11
19.3721090528
 21
15.6432363138
 31
0.0
 11
19.3618462417
 21
15.6979101375
 31
0.0
 11
19.3510891687
 21
15.7595927631
 31
0.0
 11
19.3400813873
 21
15.8268877442
 31
0.0
  0
SPLINE
  5
642
100
AcDbEntity
  8
RACCORDO
100
AcDbSpline
 62
253
  6
CONTINUOUS
 70
0
 71
3
 72
19
 73
15
 74
13
 42
0.0000001
 43
0.0000001
 44
0.0000000001
 12
0.0384414007
 22
0.3035994886
 32
0.0
 13
-0.302466876
 23
0.0465207445
 33
0.0
 40
0.0
 40
0.0
 40
0.0
 40
0.0
 40
0.0084399068
 40
0.0149428317
 40
0.0233168931
 40
0.0460066233
 40
0.0768127857
 40
0.1157149441
 40
0.1625788623
 40
0.2792916427
 40
0.4246629705
 40
0.5957004593
 40
0.7888255184
 40
1.0
 40
1.0
 40
1.0
 40
1.0
 10
18.9809820571
 20
15.0791877769
 30
0.0
 10
18.9810902044
 20
15.080041894
 30
0.0
 10
18.9801346632
 20
15.0815388048
 30
0.0
 10
18.9783245047
 20
15.0829972897
 30
0.0
 10
18.9750519765
 20
15.0850546616
 30
0.0
 10
18.9692929054
 20
15.0876416165
 30
0.0
 10
18.9604299015
 20
15.0908725954
 30
0.0
 10
18.9490650868
 20
15.0943790695
 30
0.0
 10
18.9291395378
 20
15.0998283042
 30
0.0
 10
18.8984476275
 20
15.1070208409
 30
0.0
 10
18.8551756909
 20
15.1159527368
 30
0.0
 10
18.8040759244
 20
15.1254742759
 30
0.0
 10
18.7462278565
 20
15.135381712
 30
0.0
 10
18.7054963319
 20
15.1418553203
 30
0.0
 10
18.6842052366
 20
15.145129985
 30
0.0
 11
18.9809820571
 21
15.0791877769
 31
0.0
 11
18.9799455571
 21
15.081553485
 31
0.0
 11
18.9784428209
 21
15.0828581208
 31
0.0
 11
18.97628557
 21
15.0842414115
 31
0.0
 11
18.9700210947
 21
15.0872363747
 31
0.0
 11
18.9611851164
 21
15.0905229455
 31
0.0
 11
18.9498251205
 21
15.094083694
 31
0.0
 11
18.9360006713
 21
15.0978997263
 31
0.0
 11
18.9012653553
 21
15.1062154682
 31
0.0
 11
18.8577145335
 21
15.1152941822
 31
0.0
 11
18.8062702111
 21
15.1249437214
 31
0.0
 11
18.7480242561
 21
15.1349594274
 31
0.0
 11
18.6842052366
 21
15.145129985
 31
0.0
  0
SPLINE
  5
643
100
AcDbEntity
  8
RACCORDO
100
AcDbSpline
 62
253
  6
CONTINUOUS
 70
0
 71
3
 72
26
 73
22
 74
20
 42
0.0000001
 43
0.0000001
 44
0.0000000001
 12
-0.0000002601
 22
0.3003058515
 32
0.0
 13
-0.3003046801
 23
0.0008387631
 33
0.0
 40
0.0
 40
0.0
 40
0.0
 40
0.0
 40
0.0003350021
 40
0.0011779155
 40
0.0025582243
 40
0.0044803565
 40
0.0099535443
 40
0.0175978898
 40
0.0274039896
 40
0.0393589155
 40
0.0534490395
 40
0.0696557458
 40
0.1083289765
 40
0.1551784803
 40
0.2099576191
 40
0.272378347
 40
0.3421149581
 40
0.4187989387
 40
0.5913698083
 40
0.78646248
 40
1.0
 40
1.0
 40
1.0
 40
1.0
 10
18.9769918627
 20
15.0161459281
 30
0.0
 10
18.9769918626
 20
15.0161794624
 30
0.0
 10
18.9768399156
 20
15.0162260716
 30
0.0
 10
18.9766243171
 20
15.0162736312
 30
0.0
 10
18.9761932504
 20
15.016329644
 30
0.0
 10
18.9753305712
 20
15.0164133799
 30
0.0
 10
18.973819262
 20
15.0165117522
 30
0.0
 10
18.9715314798
 20
15.0166228967
 30
0.0
 10
18.968588368
 20
15.0167346684
 30
0.0
 10
18.9650019285
 20
15.0168466714
 30
0.0
 10
18.9607737002
 20
15.016958233
 30
0.0
 10
18.9538715285
 20
15.0171154239
 30
0.0
 10
18.9436898541
 20
15.0173033735
 30
0.0
 10
18.9296469424
 20
15.0175135744
 30
0.0
 10
18.9132265253
 20
15.0177175503
 30
0.0
 10
18.8945148454
 20
15.0179140738
 30
0.0
 10
18.8736102575
 20
15.0181018229
 30
0.0
 10
18.8416795389
 20
15.0183487774
 30
0.0
 10
18.7972002921
 20
15.0186213356
 30
0.0
 10
18.7390215286
 20
15.018888196
 30
0.0
 10
18.6981170634
 20
15.0190239917
 30
0.0
 10
18.6767416245
 20
15.0190836941
 30
0.0
 11
18.9769918627
 21
15.0161459281
 31
0.0
 11
18.9769096951
 21
15.0162039753
 31
0.0
 11
18.9766633076
 21
15.0162620175
 31
0.0
 11
18.9762528726
 21
15.0163200322
 31
0.0
 11
18.9756785629
 21
15.0163779969
 31
0.0
 11
18.9740390091
 21
15.0164936862
 31
0.0
 11
18.9717462608
 21
15.0166089081
 31
0.0
 11
18.9688036624
 21
15.0167235092
 31
0.0
 11
18.9652153334
 21
15.0168373465
 31
0.0
 11
18.960985494
 21
15.0169502769
 31
0.0
 11
18.9561198113
 21
15.0170621545
 31
0.0
 11
18.9445080978
 21
15.0172821583
 31
0.0
 11
18.9304405458
 21
15.0174961908
 31
0.0
 11
18.9139913516
 21
15.0177031305
 31
0.0
 11
18.8952470955
 21
15.0179018931
 31
0.0
 11
18.8743056409
 21
15.0180914311
 31
0.0
 11
18.851277691
 21
15.0182707512
 31
0.0
 11
18.7994546636
 21
15.0185950278
 31
0.0
 11
18.7408678282
 21
15.0188679132
 31
0.0
 11
18.6767416245
 21
15.0190836941
 31
0.0
  0
LINE
  5
644
100
AcDbEntity
  8
RACCORDO
100
AcDbLine
 62
253
  6
CONTINUOUS
 10
18.9769918627
 20
-0.2838540719
 11
18.7393010346
 21
-0.2839435792
  0
SPLINE
  5
645
100
AcDbEntity
  8
RACCORDO
100
AcDbSpline
 62
253
  6
CONTINUOUS
 70
0
 71
3
 72
26
 73
22
 74
20
 42
0.0000001
 43
0.0000001
 44
0.0000000001
 12
-0.000008338
 22
-0.3003060891
 32
0.0
 13
-0.3003049178
 23
-0.0008387737
 33
0.0
 40
0.0
 40
0.0
 40
0.0
 40
0.0
 40
0.0003350059
 40
0.0011779241
 40
0.0025582381
 40
0.0044803755
 40
0.0099535738
 40
0.01759793
 40
0.0274040406
 40
0.0393589772
 40
0.0534491118
 40
0.0696558285
 40
0.1083290791
 40
0.1551786007
 40
0.2099577546
 40
0.2723784939
 40
0.3421151117
 40
0.4187990933
 40
0.5913699446
 40
0.786462566
 40
1.0
 40
1.0
 40
1.0
 40
1.0
 10
18.9769920028
 20
-15.5838540719
 30
0.0
 10
18.9769920018
 20
-15.5838876067
 30
0.0
 10
18.9768400541
 20
-15.5839342143
 30
0.0
 10
18.9766244535
 20
-15.5839817749
 30
0.0
 10
18.9761933852
 20
-15.5840377869
 30
0.0
 10
18.975330703
 20
-15.5841215229
 30
0.0
 10
18.9738193901
 20
-15.5842198946
 30
0.0
 10
18.9715316027
 20
-15.5843310388
 30
0.0
 10
18.9685884854
 20
-15.5844428101
 30
0.0
 10
18.9650020398
 20
-15.5845548128
 30
0.0
 10
18.9607738051
 20
-15.584666374
 30
0.0
 10
18.9538716237
 20
-15.5848235645
 30
0.0
 10
18.9436899364
 20
-15.5850115135
 30
0.0
 10
18.9296470084
 20
-15.585221714
 30
0.0
 10
18.9132265738
 20
-15.5854256895
 30
0.0
 10
18.8945148757
 20
-15.5856222127
 30
0.0
 10
18.8736102694
 20
-15.5858099617
 30
0.0
 10
18.8416795266
 20
-15.5860569162
 30
0.0
 10
18.7972002514
 20
-15.5863294748
 30
0.0
 10
18.7390214573
 20
-15.5865963364
 30
0.0
 10
18.6981169733
 20
-15.5867321333
 30
0.0
 10
18.6767415261
 20
-15.5867918365
 30
0.0
 11
18.9769920028
 21
-15.5838540719
 31
0.0
 11
18.9769098336
 21
-15.5839121189
 31
0.0
 11
18.9766634443
 21
-15.5839701609
 31
0.0
 11
18.9762530074
 21
-15.5840281754
 31
0.0
 11
18.9756786956
 21
-15.5840861399
 31
0.0
 11
18.9740391373
 21
-15.5842018287
 31
0.0
 11
18.971746384
 21
-15.5843170502
 31
0.0
 11
18.96880378
 21
-15.5844316509
 31
0.0
 11
18.965215445
 21
-15.5845454879
 31
0.0
 11
18.960985599
 21
-15.584658418
 31
0.0
 11
18.9561199093
 21
-15.5847702952
 31
0.0
 11
18.9445081807
 21
-15.5849902984
 31
0.0
 11
18.9304406121
 21
-15.5852043304
 31
0.0
 11
18.9139914003
 21
-15.5854112698
 31
0.0
 11
18.895247126
 21
-15.585610032
 31
0.0
 11
18.8743056528
 21
-15.5857995699
 31
0.0
 11
18.8512776843
 21
-15.58597889
 31
0.0
 11
18.7994546214
 21
-15.5863031671
 31
0.0
 11
18.7408677548
 21
-15.5865760537
 31
0.0
 11
18.6767415261
 21
-15.5867918365
 31
0.0
  0
SPLINE
  5
646
100
AcDbEntity
  8
RACCORDO
100
AcDbSpline
 62
253
  6
CONTINUOUS
 70
0
 71
3
 72
19
 73
15
 74
13
 42
0.0000001
 43
0.0000001
 44
0.0000000001
 12
0.0387174234
 22
-0.3035267769
 32
0.0
 13
-0.3024314327
 23
-0.0465056092
 33
0.0
 40
0.0
 40
0.0
 40
0.0
 40
0.0
 40
0.0084464744
 40
0.014949973
 40
0.0233237352
 40
0.0460115357
 40
0.0768150603
 40
0.1157144163
 40
0.1625756453
 40
0.2792840062
 40
0.424652913
 40
0.5956905704
 40
0.7888188537
 40
1.0
 40
1.0
 40
1.0
 40
1.0
 10
18.9809809056
 20
-15.6468867365
 30
0.0
 10
18.9810899142
 20
-15.6477413136
 30
0.0
 10
18.9801367794
 20
-15.6492402339
 30
0.0
 10
18.9783274352
 20
-15.6507007693
 30
0.0
 10
18.9750570652
 20
-15.6527602075
 30
0.0
 10
18.9693002739
 20
-15.6553495234
 30
0.0
 10
18.9604402299
 20
-15.6585829546
 30
0.0
 10
18.9490784688
 20
-15.6620917043
 30
0.0
 10
18.9291574037
 20
-15.6675439433
 30
0.0
 10
18.8984710678
 20
-15.6747393218
 30
0.0
 10
18.8552057525
 20
-15.6836732969
 30
0.0
 10
18.8041124665
 20
-15.6931956089
 30
0.0
 10
18.7462705046
 20
-15.7031023967
 30
0.0
 10
18.70554282
 20
-15.7095745685
 30
0.0
 10
18.6842535478
 20
-15.7128482711
 30
0.0
 11
18.9809809056
 21
-15.6468867365
 31
0.0
 11
18.9799469531
 21
-15.6492554082
 31
0.0
 11
18.9784455598
 21
-15.6505614868
 31
0.0
 11
18.9762896948
 21
-15.6519461887
 31
0.0
 11
18.9700281105
 21
-15.6549438638
 31
0.0
 11
18.9611951656
 21
-15.6582329742
 31
0.0
 11
18.9498383239
 21
-15.6617960613
 31
0.0
 11
18.9360171258
 21
-15.6656142033
 31
0.0
 11
18.9012885023
 21
-15.6739333758
 31
0.0
 11
18.8577444456
 21
-15.6830143181
 31
0.0
 11
18.8063067313
 21
-15.6926647318
 31
0.0
 11
18.748066989
 21
-15.7026798454
 31
0.0
 11
18.6842535478
 21
-15.7128482711
 31
0.0
  0
SPLINE
  5
647
100
AcDbEntity
  8
RACCORDO
100
AcDbSpline
 62
253
  6
CONTINUOUS
 70
0
 71
3
 72
18
 73
14
 74
12
 42
0.0000001
 43
0.0000001
 44
0.0000000001
 12
-0.3212896561
 22
0.0445454023
 32
0.0
 13
-0.0508581637
 23
-0.3203510311
 33
0.0
 40
0.0
 40
0.0
 40
0.0
 40
0.0
 40
0.0075256641
 40
0.0137866362
 40
0.0220131087
 40
0.0446024058
 40
0.0754848527
 40
0.1617349058
 40
0.279179147
 40
0.425272405
 40
0.5967613276
 40
0.7897851318
 40
1.0
 40
1.0
 40
1.0
 40
1.0
 10
19.4085302867
 20
-16.0791449038
 30
0.0
 10
19.407724314
 20
-16.0790331592
 30
0.0
 10
19.4063261753
 20
-16.0801617817
 30
0.0
 10
19.4050108587
 20
-16.0820410883
 30
0.0
 10
19.4030393385
 20
-16.0855865012
 30
0.0
 10
19.4005353028
 20
-16.0917552778
 30
0.0
 10
19.3957204531
 20
-16.1060938975
 30
0.0
 10
19.3892374876
 20
-16.1306238004
 30
0.0
 10
19.3808140246
 20
-16.1674970268
 30
0.0
 10
19.371438459
 20
-16.2135921045
 30
0.0
 10
19.3613008444
 20
-16.2678621407
 30
0.0
 10
19.3506596971
 20
-16.3290857419
 30
0.0
 10
19.343635755
 20
-16.3721155522
 30
0.0
 10
19.3400720409
 20
-16.3945630687
 30
0.0
 11
19.4085302867
 21
-16.0791449038
 31
0.0
 11
19.4063690637
 21
-16.0802797274
 31
0.0
 11
19.4051460975
 21
-16.0819010275
 31
0.0
 11
19.4038307144
 21
-16.0842226494
 31
0.0
 11
19.4009303321
 21
-16.0909512925
 31
0.0
 11
19.3976839933
 21
-16.1004277909
 31
0.0
 11
19.3902294361
 21
-16.1273926615
 31
0.0
 11
19.3816363535
 21
-16.1645053904
 31
0.0
 11
19.3720998691
 21
-16.2109231269
 31
0.0
 11
19.3618364263
 21
-16.2655927173
 31
0.0
 11
19.3510792863
 21
-16.3272714639
 31
0.0
 11
19.3400720409
 21
-16.3945630687
 31
0.0
  0
SPLINE
  5
648
100
AcDbEntity
  8
RACCORDO
100
AcDbSpline
 62
253
  6
CONTINUOUS
 70
0
 71
3
 72
26
 73
22
 74
20
 42
0.0000001
 43
0.0000001
 44
0.0000000001
 12
-0.5036578767
 22
-0.5040930625
 32
0.0
 13
-0.0006263206
 23
-0.712587314
 33
0.0
 40
0.0
 40
0.0
 40
0.0
 40
0.0
 40
0.0008406798
 40
0.0022115854
 40
0.0066348315
 40
0.0133360288
 40
0.0223145441
 40
0.0335571682
 40
0.0470413195
 40
0.0627398997
 40
0.0806185434
 40
0.1227577394
 40
0.1730915145
 40
0.2311784609
 40
0.2965080596
 40
0.3685054715
 40
0.4465367463
 40
0.5299144792
 40
0.6179039152
 40
0.8045814326
 40
1.0
 40
1.0
 40
1.0
 40
1.0
 10
82.9940411892
 20
21.7832333308
 30
0.0
 10
82.9939000509
 20
21.7830920706
 30
0.0
 10
82.9936663923
 20
21.7826034094
 30
0.0
 10
82.9932053669
 20
21.781105912
 30
0.0
 10
82.9927037483
 20
21.7781630157
 30
0.0
 10
82.9921171668
 20
21.7734314051
 30
0.0
 10
82.9915349278
 20
21.7670590099
 30
0.0
 10
82.9909472449
 20
21.7590756935
 30
0.0
 10
82.9903649468
 20
21.7494904998
 30
0.0
 10
82.9897882765
 20
21.7383269821
 30
0.0
 10
82.9889862115
 20
21.7203598363
 30
0.0
 10
82.9880390596
 20
21.6941648527
 30
0.0
 10
82.9870007858
 20
21.6584173632
 30
0.0
 10
82.9860214548
 20
21.6171580544
 30
0.0
 10
82.9851105776
 20
21.5707503722
 30
0.0
 10
82.9842775748
 20
21.5196031946
 30
0.0
 10
82.9835303878
 20
21.4641673288
 30
0.0
 10
82.9828760107
 20
21.4049314787
 30
0.0
 10
82.9821206961
 20
21.3198887113
 30
0.0
 10
82.9814619106
 20
21.2082313505
 30
0.0
 10
82.9812357194
 20
21.117472471
 30
0.0
 10
82.9811949212
 20
21.0710548737
 30
0.0
 11
82.9940411892
 21
21.7832333308
 31
0.0
 11
82.9937339693
 21
21.7827190485
 31
0.0
 11
82.9934269778
 21
21.7817916484
 31
0.0
 11
82.992814481
 21
21.7786997819
 31
0.0
 11
82.9922052457
 21
21.7739636155
 31
0.0
 11
82.9916005995
 21
21.7675942723
 31
0.0
 11
82.9910018249
 21
21.7596053257
 31
0.0
 11
82.9904102439
 21
21.7500149152
 31
0.0
 11
82.9898271781
 21
21.7388435073
 31
0.0
 11
82.9892539087
 21
21.726116312
 31
0.0
 11
82.9881417877
 21
21.6961090454
 31
0.0
 11
82.987083687
 21
21.6602574326
 31
0.0
 11
82.9860889374
 21
21.6188773503
 31
0.0
 11
82.9851663124
 21
21.5723334326
 31
0.0
 11
82.9843239508
 21
21.5210358862
 31
0.0
 11
82.9835692847
 21
21.4654368897
 31
0.0
 11
82.9829089733
 21
21.4060266214
 31
0.0
 11
82.9823488445
 21
21.3433289433
 31
0.0
 11
82.9815479844
 21
21.2103072719
 31
0.0
 11
82.9811949212
 21
21.0710548737
 31
0.0
  0
SPLINE
  5
649
100
AcDbEntity
  8
0
100
AcDbSpline
 62
253
  6
CONTINUOUS
 70
0
 71
3
 72
16
 73
12
 74
10
 42
0.0000001
 43
0.0000001
 44
0.0000000001
 12
-3.9212091738
 22
-0.0003680799
 32
0.0
 13
0.0004222782
 23
-3.9212091684
 33
0.0
 40
0.0
 40
0.0
 40
0.0
 40
0.0
 40
0.0625940715
 40
0.1251858449
 40
0.2502108423
 40
0.3752204652
 40
0.500207687
 40
0.625174453
 40
0.7501244323
 40
0.8750633077
 40
1.0
 40
1.0
 40
1.0
 40
1.0
 10
17.9019918627
 20
19.0911459281
 30
0.0
 10
17.8201770468
 20
19.0911382482
 30
0.0
 10
17.6564210605
 20
19.0830955496
 30
0.0
 10
17.3325197187
 20
19.0350490652
 30
0.0
 10
16.9386833513
 20
18.9156596675
 30
0.0
 10
16.5039382191
 20
18.6826890634
 30
0.0
 10
16.1223357464
 20
18.3700818394
 30
0.0
 10
15.8099908014
 20
17.9884231967
 30
0.0
 10
15.5771764911
 20
17.553714444
 30
0.0
 10
15.4342349029
 20
17.0819294146
 30
0.0
 10
15.4019742766
 20
16.7544370263
 30
0.0
 10
15.4019918626
 20
16.5911360585
 30
0.0
 11
17.9019918627
 21
19.0911459281
 31
0.0
 11
17.6568433714
 21
19.0790962584
 31
0.0
 11
17.4140659436
 21
19.0430730106
 31
0.0
 11
16.9449477518
 21
18.9006919381
 31
0.0
 11
16.5127604421
 21
18.6693928474
 31
0.0
 11
16.1338504519
 21
18.3585452129
 31
0.0
 11
15.8232276775
 21
17.9795545704
 31
0.0
 11
15.5921469087
 21
17.5475156977
 31
0.0
 11
15.449992012
 21
17.0786817929
 31
0.0
 11
15.4019918626
 21
16.5911360585
 31
0.0
  0
SPLINE
  5
64A
100
AcDbEntity
  8
RACCORDO
100
AcDbSpline
 62
7
  6
CONTINUOUS
 70
0
 71
3
 72
15
 73
11
 74
9
 42
0.0000001
 43
0.0000001
 44
0.0000000001
 12
-0.2078864865
 22
0.0038573998
 32
0.0
 13
0.0
 23
0.2079222711
 33
0.0
 40
0.0
 40
0.0
 40
0.0
 40
0.0
 40
0.1795079733
 40
0.3513469665
 40
0.5102360971
 40
0.6514329831
 40
0.7712636596
 40
0.8676910506
 40
0.9416341703
 40
1.0
 40
1.0
 40
1.0
 40
1.0
 10
24.7150278899
 20
-22.8198305754
 30
0.0
 10
24.702588796
 20
-22.819599764
 30
0.0
 10
24.6782481218
 20
-22.8184502506
 30
0.0
 10
24.6430689262
 20
-22.8146322047
 30
0.0
 10
24.6108370963
 20
-22.8088902625
 30
0.0
 10
24.5826666235
 20
-22.8014324398
 30
0.0
 10
24.559460671
 20
-22.792549174
 30
0.0
 10
24.5419436952
 20
-22.7824689006
 30
0.0
 10
24.5302491223
 20
-22.7713542768
 30
0.0
 10
24.5269918627
 20
-22.7621834052
 30
0.0
 10
24.5269918627
 20
-22.7581382199
 30
0.0
 11
24.7150278899
 21
-22.8198305754
 31
0.0
 11
24.6777472108
 21
-22.8180389406
 31
0.0
 11
24.6422339534
 21
-22.8141170825
 31
0.0
 11
24.6097307683
 21
-22.8082044546
 31
0.0
 11
24.5813986803
 21
-22.8005113658
 31
0.0
 11
24.558244009
 21
-22.7913112754
 31
0.0
 11
24.5410905052
 21
-22.7809316882
 31
0.0
 11
24.5305481424
 21
-22.7697410036
 31
0.0
 11
24.5269918627
 21
-22.7581382199
 31
0.0
  0
SPLINE
  5
64B
100
AcDbEntity
  8
RACCORDO
100
AcDbSpline
 62
7
  6
CONTINUOUS
 70
0
 71
3
 72
15
 73
11
 74
9
 42
0.0000001
 43
0.0000001
 44
0.0000000001
 12
0.0
 22
-0.2079222711
 32
0.0
 13
-0.2078864865
 23
-0.0038573998
 33
0.0
 40
0.0
 40
0.0
 40
0.0
 40
0.0
 40
0.0583658297
 40
0.1323089494
 40
0.2287363404
 40
0.3485670169
 40
0.4897639029
 40
0.6486530335
 40
0.8204920267
 40
1.0
 40
1.0
 40
1.0
 40
1.0
 10
17.0269918627
 20
-22.7581382199
 30
0.0
 10
17.0269918627
 20
-22.7621834052
 30
0.0
 10
17.023734603
 20
-22.7713542768
 30
0.0
 10
17.0120400302
 20
-22.7824689006
 30
0.0
 10
16.9945230543
 20
-22.792549174
 30
0.0
 10
16.9713171018
 20
-22.8014324398
 30
0.0
 10
16.943146629
 20
-22.8088902625
 30
0.0
 10
16.9109147992
 20
-22.8146322047
 30
0.0
 10
16.8757356035
 20
-22.8184502506
 30
0.0
 10
16.8513949293
 20
-22.819599764
 30
0.0
 10
16.8389558354
 20
-22.8198305754
 30
0.0
 11
17.0269918627
 21
-22.7581382199
 31
0.0
 11
17.0234355829
 21
-22.7697410036
 31
0.0
 11
17.0128932201
 21
-22.7809316882
 31
0.0
 11
16.9957397163
 21
-22.7913112754
 31
0.0
 11
16.972585045
 21
-22.8005113658
 31
0.0
 11
16.944252957
 21
-22.8082044546
 31
0.0
 11
16.911749772
 21
-22.8141170825
 31
0.0
 11
16.8762365145
 21
-22.8180389406
 31
0.0
 11
16.8389558354
 21
-22.8198305754
 31
0.0
  0
SPLINE
  5
64C
100
AcDbEntity
  8
RACCORDO
100
AcDbSpline
 62
7
  6
CONTINUOUS
 70
0
 71
3
 72
16
 73
12
 74
10
 42
0.0000001
 43
0.0000001
 44
0.0000000001
 12
0.0
 22
0.2199226121
 32
0.0
 13
0.2199226121
 23
0.0
 33
0.0
 40
0.0
 40
0.0
 40
0.0
 40
0.0
 40
0.057542313
 40
0.0919839327
 40
0.1317056684
 40
0.228777848
 40
0.3496265899
 40
0.491798094
 40
0.6511535049
 40
0.8225005993
 40
1.0
 40
1.0
 40
1.0
 40
1.0
 10
16.2769918627
 20
-23.9089830225
 30
0.0
 10
16.2769918627
 20
-23.9047647372
 30
0.0
 10
16.2794808337
 20
-23.8979951711
 30
0.0
 10
16.2857115325
 20
-23.890609917
 30
0.0
 10
16.2953411315
 20
-23.8824607914
 30
0.0
 10
16.3120632656
 20
-23.8733664518
 30
0.0
 10
16.3369161408
 20
-23.8643297338
 30
0.0
 10
16.367026303
 20
-23.8568988358
 30
0.0
 10
16.4012761105
 20
-23.8513604158
 30
0.0
 10
16.4383997877
 20
-23.8479447311
 30
0.0
 10
16.4639798187
 20
-23.8471796236
 30
0.0
 10
16.4769918627
 20
-23.8471796236
 30
0.0
 11
16.2769918627
 21
-23.9089830225
 31
0.0
 11
16.2808348066
 21
-23.8969257775
 31
0.0
 11
16.2856045471
 21
-23.8910416897
 31
0.0
 11
16.2922159562
 21
-23.8853318857
 31
0.0
 11
16.3106979402
 21
-23.8746468938
 31
0.0
 11
16.3355705064
 21
-23.86528142
 31
0.0
 11
16.3658778161
 21
-23.8575953744
 31
0.0
 11
16.4004551762
 21
-23.8518841272
 31
0.0
 11
16.4379737983
 21
-23.8483671586
 31
0.0
 11
16.4769918627
 21
-23.8471796236
 31
0.0
  0
SPLINE
  5
64D
100
AcDbEntity
  8
RACCORDO
100
AcDbSpline
 62
7
  6
CONTINUOUS
 70
0
 71
3
 72
16
 73
12
 74
10
 42
0.0000001
 43
0.0000001
 44
0.0000000001
 12
0.2199226121
 22
0.0
 32
0.0
 13
0.0
 23
-0.2199226121
 33
0.0
 40
0.0
 40
0.0
 40
0.0
 40
0.0
 40
0.1774994007
 40
0.3488464951
 40
0.508201906
 40
0.6503734101
 40
0.771222152
 40
0.8682943316
 40
0.9080160673
 40
0.942457687
 40
1.0
 40
1.0
 40
1.0
 40
1.0
 10
25.0769918627
 20
-23.8471796236
 30
0.0
 10
25.0900039066
 20
-23.8471796236
 30
0.0
 10
25.1155839376
 20
-23.8479447311
 30
0.0
 10
25.1527076149
 20
-23.8513604158
 30
0.0
 10
25.1869574223
 20
-23.8568988358
 30
0.0
 10
25.2170675845
 20
-23.8643297338
 30
0.0
 10
25.2419204597
 20
-23.8733664518
 30
0.0
 10
25.2586425938
 20
-23.8824607914
 30
0.0
 10
25.2682721928
 20
-23.890609917
 30
0.0
 10
25.2745028916
 20
-23.8979951711
 30
0.0
 10
25.2769918627
 20
-23.9047647372
 30
0.0
 10
25.2769918627
 20
-23.9089830225
 30
0.0
 11
25.0769918627
 21
-23.8471796236
 31
0.0
 11
25.1160099271
 21
-23.8483671586
 31
0.0
 11
25.1535285491
 21
-23.8518841272
 31
0.0
 11
25.1881059093
 21
-23.8575953744
 31
0.0
 11
25.2184132189
 21
-23.86528142
 31
0.0
 11
25.2432857851
 21
-23.8746468938
 31
0.0
 11
25.2617677692
 21
-23.8853318857
 31
0.0
 11
25.2683791782
 21
-23.8910416897
 31
0.0
 11
25.2731489187
 21
-23.8969257775
 31
0.0
 11
25.2769918627
 21
-23.9089830225
 31
0.0
  0
SPLINE
  5
64E
100
AcDbEntity
  8
RACCORDO
100
AcDbSpline
 62
7
  6
CONTINUOUS
 70
0
 71
3
 72
15
 73
11
 74
9
 42
0.0000001
 43
0.0000001
 44
0.0000000001
 12
-0.2078864865
 22
0.0038573998
 32
0.0
 13
0.0
 23
0.2079222711
 33
0.0
 40
0.0
 40
0.0
 40
0.0
 40
0.0
 40
0.1795079733
 40
0.3513469665
 40
0.5102360971
 40
0.6514329831
 40
0.7712636596
 40
0.8676910506
 40
0.9416341703
 40
1.0
 40
1.0
 40
1.0
 40
1.0
 10
74.7150278899
 20
-22.8198305754
 30
0.0
 10
74.702588796
 20
-22.819599764
 30
0.0
 10
74.6782481218
 20
-22.8184502506
 30
0.0
 10
74.6430689262
 20
-22.8146322047
 30
0.0
 10
74.6108370963
 20
-22.8088902625
 30
0.0
 10
74.5826666235
 20
-22.8014324398
 30
0.0
 10
74.559460671
 20
-22.792549174
 30
0.0
 10
74.5419436952
 20
-22.7824689006
 30
0.0
 10
74.5302491223
 20
-22.7713542768
 30
0.0
 10
74.5269918627
 20
-22.7621834052
 30
0.0
 10
74.5269918627
 20
-22.7581382199
 30
0.0
 11
74.7150278899
 21
-22.8198305754
 31
0.0
 11
74.6777472108
 21
-22.8180389406
 31
0.0
 11
74.6422339534
 21
-22.8141170825
 31
0.0
 11
74.6097307683
 21
-22.8082044546
 31
0.0
 11
74.5813986803
 21
-22.8005113658
 31
0.0
 11
74.558244009
 21
-22.7913112754
 31
0.0
 11
74.5410905052
 21
-22.7809316882
 31
0.0
 11
74.5305481424
 21
-22.7697410036
 31
0.0
 11
74.5269918627
 21
-22.7581382199
 31
0.0
  0
SPLINE
  5
64F
100
AcDbEntity
  8
RACCORDO
100
AcDbSpline
 62
7
  6
CONTINUOUS
 70
0
 71
3
 72
15
 73
11
 74
9
 42
0.0000001
 43
0.0000001
 44
0.0000000001
 12
0.0
 22
-0.2079222711
 32
0.0
 13
-0.2078864865
 23
-0.0038573998
 33
0.0
 40
0.0
 40
0.0
 40
0.0
 40
0.0
 40
0.0583658297
 40
0.1323089494
 40
0.2287363404
 40
0.3485670169
 40
0.4897639029
 40
0.6486530335
 40
0.8204920267
 40
1.0
 40
1.0
 40
1.0
 40
1.0
 10
67.0269918627
 20
-22.7581382199
 30
0.0
 10
67.0269918627
 20
-22.7621834052
 30
0.0
 10
67.023734603
 20
-22.7713542768
 30
0.0
 10
67.0120400302
 20
-22.7824689006
 30
0.0
 10
66.9945230543
 20
-22.792549174
 30
0.0
 10
66.9713171018
 20
-22.8014324398
 30
0.0
 10
66.943146629
 20
-22.8088902625
 30
0.0
 10
66.9109147992
 20
-22.8146322047
 30
0.0
 10
66.8757356035
 20
-22.8184502506
 30
0.0
 10
66.8513949293
 20
-22.819599764
 30
0.0
 10
66.8389558354
 20
-22.8198305754
 30
0.0
 11
67.0269918627
 21
-22.7581382199
 31
0.0
 11
67.0234355829
 21
-22.7697410036
 31
0.0
 11
67.0128932201
 21
-22.7809316882
 31
0.0
 11
66.9957397163
 21
-22.7913112754
 31
0.0
 11
66.972585045
 21
-22.8005113658
 31
0.0
 11
66.944252957
 21
-22.8082044546
 31
0.0
 11
66.911749772
 21
-22.8141170825
 31
0.0
 11
66.8762365145
 21
-22.8180389406
 31
0.0
 11
66.8389558354
 21
-22.8198305754
 31
0.0
  0
SPLINE
  5
650
100
AcDbEntity
  8
RACCORDO
100
AcDbSpline
 62
7
  6
CONTINUOUS
 70
0
 71
3
 72
16
 73
12
 74
10
 42
0.0000001
 43
0.0000001
 44
0.0000000001
 12
0.0
 22
0.2199226121
 32
0.0
 13
0.2199226121
 23
-0.0
 33
0.0
 40
0.0
 40
0.0
 40
0.0
 40
0.0
 40
0.057542313
 40
0.0919839327
 40
0.1317056684
 40
0.228777848
 40
0.3496265899
 40
0.491798094
 40
0.6511535049
 40
0.8225005993
 40
1.0
 40
1.0
 40
1.0
 40
1.0
 10
66.2769918627
 20
-23.9089830225
 30
0.0
 10
66.2769918627
 20
-23.9047647372
 30
0.0
 10
66.2794808337
 20
-23.8979951711
 30
0.0
 10
66.2857115325
 20
-23.890609917
 30
0.0
 10
66.2953411315
 20
-23.8824607914
 30
0.0
 10
66.3120632656
 20
-23.8733664518
 30
0.0
 10
66.3369161408
 20
-23.8643297338
 30
0.0
 10
66.367026303
 20
-23.8568988358
 30
0.0
 10
66.4012761105
 20
-23.8513604158
 30
0.0
 10
66.4383997877
 20
-23.8479447311
 30
0.0
 10
66.4639798187
 20
-23.8471796236
 30
0.0
 10
66.4769918627
 20
-23.8471796236
 30
0.0
 11
66.2769918627
 21
-23.9089830225
 31
0.0
 11
66.2808348066
 21
-23.8969257775
 31
0.0
 11
66.2856045471
 21
-23.8910416897
 31
0.0
 11
66.2922159562
 21
-23.8853318857
 31
0.0
 11
66.3106979402
 21
-23.8746468938
 31
0.0
 11
66.3355705064
 21
-23.86528142
 31
0.0
 11
66.3658778161
 21
-23.8575953744
 31
0.0
 11
66.4004551762
 21
-23.8518841272
 31
0.0
 11
66.4379737983
 21
-23.8483671586
 31
0.0
 11
66.4769918627
 21
-23.8471796236
 31
0.0
  0
SPLINE
  5
651
100
AcDbEntity
  8
RACCORDO
100
AcDbSpline
 62
7
  6
CONTINUOUS
 70
0
 71
3
 72
16
 73
12
 74
10
 42
0.0000001
 43
0.0000001
 44
0.0000000001
 12
0.2199226121
 22
0.0
 32
0.0
 13
0.0
 23
-0.2199226121
 33
0.0
 40
0.0
 40
0.0
 40
0.0
 40
0.0
 40
0.1774994007
 40
0.3488464951
 40
0.508201906
 40
0.6503734101
 40
0.771222152
 40
0.8682943316
 40
0.9080160673
 40
0.942457687
 40
1.0
 40
1.0
 40
1.0
 40
1.0
 10
75.0769918627
 20
-23.8471796236
 30
0.0
 10
75.0900039066
 20
-23.8471796236
 30
0.0
 10
75.1155839376
 20
-23.8479447311
 30
0.0
 10
75.1527076149
 20
-23.8513604158
 30
0.0
 10
75.1869574223
 20
-23.8568988358
 30
0.0
 10
75.2170675845
 20
-23.8643297338
 30
0.0
 10
75.2419204597
 20
-23.8733664518
 30
0.0
 10
75.2586425938
 20
-23.8824607914
 30
0.0
 10
75.2682721928
 20
-23.890609917
 30
0.0
 10
75.2745028916
 20
-23.8979951711
 30
0.0
 10
75.2769918627
 20
-23.9047647372
 30
0.0
 10
75.2769918627
 20
-23.9089830225
 30
0.0
 11
75.0769918627
 21
-23.8471796236
 31
0.0
 11
75.1160099271
 21
-23.8483671586
 31
0.0
 11
75.1535285491
 21
-23.8518841272
 31
0.0
 11
75.1881059093
 21
-23.8575953744
 31
0.0
 11
75.2184132189
 21
-23.86528142
 31
0.0
 11
75.2432857851
 21
-23.8746468938
 31
0.0
 11
75.2617677692
 21
-23.8853318857
 31
0.0
 11
75.2683791782
 21
-23.8910416897
 31
0.0
 11
75.2731489187
 21
-23.8969257775
 31
0.0
 11
75.2769918627
 21
-23.9089830225
 31
0.0
  0
SPLINE
  5
652
100
AcDbEntity
  8
RACCORDO
100
AcDbSpline
 62
7
  6
CONTINUOUS
 70
0
 71
3
 72
15
 73
11
 74
9
 42
0.0000001
 43
0.0000001
 44
0.0000000001
 12
0.2078864865
 22
-0.0038573998
 32
0.0
 13
0.0
 23
-0.2079222711
 33
0.0
 40
0.0
 40
0.0
 40
0.0
 40
0.0
 40
0.1795079733
 40
0.3513469665
 40
0.5102360971
 40
0.6514329831
 40
0.7712636596
 40
0.8676910506
 40
0.9416341703
 40
1.0
 40
1.0
 40
1.0
 40
1.0
 10
16.8389558354
 20
22.2521224315
 30
0.0
 10
16.8513949293
 20
22.2518916202
 30
0.0
 10
16.8757356035
 20
22.2507421067
 30
0.0
 10
16.9109147992
 20
22.2469240609
 30
0.0
 10
16.943146629
 20
22.2411821186
 30
0.0
 10
16.9713171018
 20
22.2337242959
 30
0.0
 10
16.9945230543
 20
22.2248410302
 30
0.0
 10
17.0120400302
 20
22.2147607568
 30
0.0
 10
17.023734603
 20
22.203646133
 30
0.0
 10
17.0269918627
 20
22.1944752614
 30
0.0
 10
17.0269918627
 20
22.1904300761
 30
0.0
 11
16.8389558354
 21
22.2521224315
 31
0.0
 11
16.8762365145
 21
22.2503307967
 31
0.0
 11
16.911749772
 21
22.2464089387
 31
0.0
 11
16.944252957
 21
22.2404963108
 31
0.0
 11
16.972585045
 21
22.2328032219
 31
0.0
 11
16.9957397163
 21
22.2236031316
 31
0.0
 11
17.0128932201
 21
22.2132235443
 31
0.0
 11
17.0234355829
 21
22.2020328598
 31
0.0
 11
17.0269918627
 21
22.1904300761
 31
0.0
  0
SPLINE
  5
653
100
AcDbEntity
  8
RACCORDO
100
AcDbSpline
 62
7
  6
CONTINUOUS
 70
0
 71
3
 72
15
 73
11
 74
9
 42
0.0000001
 43
0.0000001
 44
0.0000000001
 12
0.0
 22
0.2079222711
 32
0.0
 13
0.2078864865
 23
0.0038573998
 33
0.0
 40
0.0
 40
0.0
 40
0.0
 40
0.0
 40
0.0583658297
 40
0.1323089494
 40
0.2287363404
 40
0.3485670169
 40
0.4897639029
 40
0.6486530335
 40
0.8204920267
 40
1.0
 40
1.0
 40
1.0
 40
1.0
 10
24.5269918627
 20
22.1904300761
 30
0.0
 10
24.5269918627
 20
22.1944752614
 30
0.0
 10
24.5302491223
 20
22.203646133
 30
0.0
 10
24.5419436952
 20
22.2147607568
 30
0.0
 10
24.559460671
 20
22.2248410302
 30
0.0
 10
24.5826666235
 20
22.2337242959
 30
0.0
 10
24.6108370963
 20
22.2411821186
 30
0.0
 10
24.6430689262
 20
22.2469240609
 30
0.0
 10
24.6782481218
 20
22.2507421067
 30
0.0
 10
24.702588796
 20
22.2518916202
 30
0.0
 10
24.7150278899
 20
22.2521224315
 30
0.0
 11
24.5269918627
 21
22.1904300761
 31
0.0
 11
24.5305481424
 21
22.2020328598
 31
0.0
 11
24.5410905052
 21
22.2132235443
 31
0.0
 11
24.558244009
 21
22.2236031316
 31
0.0
 11
24.5813986803
 21
22.2328032219
 31
0.0
 11
24.6097307683
 21
22.2404963108
 31
0.0
 11
24.6422339534
 21
22.2464089387
 31
0.0
 11
24.6777472108
 21
22.2503307967
 31
0.0
 11
24.7150278899
 21
22.2521224315
 31
0.0
  0
SPLINE
  5
654
100
AcDbEntity
  8
RACCORDO
100
AcDbSpline
 62
7
  6
CONTINUOUS
 70
0
 71
3
 72
16
 73
12
 74
10
 42
0.0000001
 43
0.0000001
 44
0.0000000001
 12
0.0
 22
-0.2199226121
 32
0.0
 13
-0.2199226121
 23
0.0
 33
0.0
 40
0.0
 40
0.0
 40
0.0
 40
0.0
 40
0.057542313
 40
0.0919839327
 40
0.1317056684
 40
0.228777848
 40
0.3496265899
 40
0.491798094
 40
0.6511535049
 40
0.8225005993
 40
1.0
 40
1.0
 40
1.0
 40
1.0
 10
25.2769918627
 20
23.3412748786
 30
0.0
 10
25.2769918627
 20
23.3370565934
 30
0.0
 10
25.2745028916
 20
23.3302870272
 30
0.0
 10
25.2682721928
 20
23.3229017731
 30
0.0
 10
25.2586425938
 20
23.3147526476
 30
0.0
 10
25.2419204597
 20
23.305658308
 30
0.0
 10
25.2170675845
 20
23.29662159
 30
0.0
 10
25.1869574223
 20
23.2891906919
 30
0.0
 10
25.1527076149
 20
23.283652272
 30
0.0
 10
25.1155839376
 20
23.2802365873
 30
0.0
 10
25.0900039066
 20
23.2794714798
 30
0.0
 10
25.0769918627
 20
23.2794714798
 30
0.0
 11
25.2769918627
 21
23.3412748786
 31
0.0
 11
25.2731489187
 21
23.3292176337
 31
0.0
 11
25.2683791782
 21
23.3233335459
 31
0.0
 11
25.2617677692
 21
23.3176237418
 31
0.0
 11
25.2432857851
 21
23.3069387499
 31
0.0
 11
25.2184132189
 21
23.2975732762
 31
0.0
 11
25.1881059093
 21
23.2898872305
 31
0.0
 11
25.1535285491
 21
23.2841759834
 31
0.0
 11
25.1160099271
 21
23.2806590148
 31
0.0
 11
25.0769918627
 21
23.2794714798
 31
0.0
  0
SPLINE
  5
655
100
AcDbEntity
  8
RACCORDO
100
AcDbSpline
 62
7
  6
CONTINUOUS
 70
0
 71
3
 72
16
 73
12
 74
10
 42
0.0000001
 43
0.0000001
 44
0.0000000001
 12
-0.2199226121
 22
0.0
 32
0.0
 13
0.0
 23
0.2199226121
 33
0.0
 40
0.0
 40
0.0
 40
0.0
 40
0.0
 40
0.1774994007
 40
0.3488464951
 40
0.508201906
 40
0.6503734101
 40
0.771222152
 40
0.8682943316
 40
0.9080160673
 40
0.942457687
 40
1.0
 40
1.0
 40
1.0
 40
1.0
 10
16.4769918627
 20
23.2794714798
 30
0.0
 10
16.4639798187
 20
23.2794714798
 30
0.0
 10
16.4383997877
 20
23.2802365873
 30
0.0
 10
16.4012761105
 20
23.283652272
 30
0.0
 10
16.367026303
 20
23.2891906919
 30
0.0
 10
16.3369161408
 20
23.29662159
 30
0.0
 10
16.3120632656
 20
23.305658308
 30
0.0
 10
16.2953411315
 20
23.3147526476
 30
0.0
 10
16.2857115325
 20
23.3229017731
 30
0.0
 10
16.2794808337
 20
23.3302870272
 30
0.0
 10
16.2769918627
 20
23.3370565934
 30
0.0
 10
16.2769918627
 20
23.3412748786
 30
0.0
 11
16.4769918627
 21
23.2794714798
 31
0.0
 11
16.4379737983
 21
23.2806590148
 31
0.0
 11
16.4004551762
 21
23.2841759834
 31
0.0
 11
16.3658778161
 21
23.2898872305
 31
0.0
 11
16.3355705064
 21
23.2975732762
 31
0.0
 11
16.3106979402
 21
23.3069387499
 31
0.0
 11
16.2922159562
 21
23.3176237418
 31
0.0
 11
16.2856045471
 21
23.3233335459
 31
0.0
 11
16.2808348066
 21
23.3292176337
 31
0.0
 11
16.2769918627
 21
23.3412748786
 31
0.0
  0
SPLINE
  5
656
100
AcDbEntity
  8
RACCORDO
100
AcDbSpline
 62
7
  6
CONTINUOUS
 70
0
 71
3
 72
15
 73
11
 74
9
 42
0.0000001
 43
0.0000001
 44
0.0000000001
 12
0.2078864865
 22
-0.0038573998
 32
0.0
 13
0.0
 23
-0.2079222711
 33
0.0
 40
0.0
 40
0.0
 40
0.0
 40
0.0
 40
0.1795079733
 40
0.3513469665
 40
0.5102360971
 40
0.6514329831
 40
0.7712636596
 40
0.8676910506
 40
0.9416341703
 40
1.0
 40
1.0
 40
1.0
 40
1.0
 10
66.8389558354
 20
22.2521224315
 30
0.0
 10
66.8513949293
 20
22.2518916202
 30
0.0
 10
66.8757356035
 20
22.2507421067
 30
0.0
 10
66.9109147992
 20
22.2469240609
 30
0.0
 10
66.943146629
 20
22.2411821186
 30
0.0
 10
66.9713171018
 20
22.2337242959
 30
0.0
 10
66.9945230543
 20
22.2248410302
 30
0.0
 10
67.0120400302
 20
22.2147607568
 30
0.0
 10
67.023734603
 20
22.203646133
 30
0.0
 10
67.0269918627
 20
22.1944752614
 30
0.0
 10
67.0269918627
 20
22.1904300761
 30
0.0
 11
66.8389558354
 21
22.2521224315
 31
0.0
 11
66.8762365145
 21
22.2503307967
 31
0.0
 11
66.911749772
 21
22.2464089387
 31
0.0
 11
66.944252957
 21
22.2404963108
 31
0.0
 11
66.972585045
 21
22.2328032219
 31
0.0
 11
66.9957397163
 21
22.2236031316
 31
0.0
 11
67.0128932201
 21
22.2132235443
 31
0.0
 11
67.0234355829
 21
22.2020328598
 31
0.0
 11
67.0269918627
 21
22.1904300761
 31
0.0
  0
SPLINE
  5
657
100
AcDbEntity
  8
RACCORDO
100
AcDbSpline
 62
7
  6
CONTINUOUS
 70
0
 71
3
 72
15
 73
11
 74
9
 42
0.0000001
 43
0.0000001
 44
0.0000000001
 12
0.0
 22
0.2079222711
 32
0.0
 13
0.2078864865
 23
0.0038573998
 33
0.0
 40
0.0
 40
0.0
 40
0.0
 40
0.0
 40
0.0583658297
 40
0.1323089494
 40
0.2287363404
 40
0.3485670169
 40
0.4897639029
 40
0.6486530335
 40
0.8204920267
 40
1.0
 40
1.0
 40
1.0
 40
1.0
 10
74.5269918627
 20
22.1904300761
 30
0.0
 10
74.5269918627
 20
22.1944752614
 30
0.0
 10
74.5302491223
 20
22.203646133
 30
0.0
 10
74.5419436952
 20
22.2147607568
 30
0.0
 10
74.559460671
 20
22.2248410302
 30
0.0
 10
74.5826666235
 20
22.2337242959
 30
0.0
 10
74.6108370963
 20
22.2411821186
 30
0.0
 10
74.6430689262
 20
22.2469240609
 30
0.0
 10
74.6782481218
 20
22.2507421067
 30
0.0
 10
74.702588796
 20
22.2518916202
 30
0.0
 10
74.7150278899
 20
22.2521224315
 30
0.0
 11
74.5269918627
 21
22.1904300761
 31
0.0
 11
74.5305481424
 21
22.2020328598
 31
0.0
 11
74.5410905052
 21
22.2132235443
 31
0.0
 11
74.558244009
 21
22.2236031316
 31
0.0
 11
74.5813986803
 21
22.2328032219
 31
0.0
 11
74.6097307683
 21
22.2404963108
 31
0.0
 11
74.6422339534
 21
22.2464089387
 31
0.0
 11
74.6777472108
 21
22.2503307967
 31
0.0
 11
74.7150278899
 21
22.2521224315
 31
0.0
  0
SPLINE
  5
658
100
AcDbEntity
  8
RACCORDO
100
AcDbSpline
 62
7
  6
CONTINUOUS
 70
0
 71
3
 72
16
 73
12
 74
10
 42
0.0000001
 43
0.0000001
 44
0.0000000001
 12
0.0
 22
-0.2199226121
 32
0.0
 13
-0.2199226121
 23
0.0
 33
0.0
 40
0.0
 40
0.0
 40
0.0
 40
0.0
 40
0.057542313
 40
0.0919839327
 40
0.1317056684
 40
0.228777848
 40
0.3496265899
 40
0.491798094
 40
0.6511535049
 40
0.8225005993
 40
1.0
 40
1.0
 40
1.0
 40
1.0
 10
75.2769918627
 20
23.3412748786
 30
0.0
 10
75.2769918627
 20
23.3370565934
 30
0.0
 10
75.2745028916
 20
23.3302870272
 30
0.0
 10
75.2682721928
 20
23.3229017731
 30
0.0
 10
75.2586425938
 20
23.3147526476
 30
0.0
 10
75.2419204597
 20
23.305658308
 30
0.0
 10
75.2170675845
 20
23.29662159
 30
0.0
 10
75.1869574223
 20
23.2891906919
 30
0.0
 10
75.1527076149
 20
23.283652272
 30
0.0
 10
75.1155839376
 20
23.2802365873
 30
0.0
 10
75.0900039066
 20
23.2794714798
 30
0.0
 10
75.0769918627
 20
23.2794714798
 30
0.0
 11
75.2769918627
 21
23.3412748786
 31
0.0
 11
75.2731489187
 21
23.3292176337
 31
0.0
 11
75.2683791782
 21
23.3233335459
 31
0.0
 11
75.2617677692
 21
23.3176237418
 31
0.0
 11
75.2432857851
 21
23.3069387499
 31
0.0
 11
75.2184132189
 21
23.2975732762
 31
0.0
 11
75.1881059093
 21
23.2898872305
 31
0.0
 11
75.1535285491
 21
23.2841759834
 31
0.0
 11
75.1160099271
 21
23.2806590148
 31
0.0
 11
75.0769918627
 21
23.2794714798
 31
0.0
  0
SPLINE
  5
659
100
AcDbEntity
  8
RACCORDO
100
AcDbSpline
 62
7
  6
CONTINUOUS
 70
0
 71
3
 72
16
 73
12
 74
10
 42
0.0000001
 43
0.0000001
 44
0.0000000001
 12
-0.2199226121
 22
0.0
 32
0.0
 13
0.0
 23
0.2199226121
 33
0.0
 40
0.0
 40
0.0
 40
0.0
 40
0.0
 40
0.1774994007
 40
0.3488464951
 40
0.508201906
 40
0.6503734101
 40
0.771222152
 40
0.8682943316
 40
0.9080160673
 40
0.942457687
 40
1.0
 40
1.0
 40
1.0
 40
1.0
 10
66.4769918627
 20
23.2794714798
 30
0.0
 10
66.4639798187
 20
23.2794714798
 30
0.0
 10
66.4383997877
 20
23.2802365873
 30
0.0
 10
66.4012761105
 20
23.283652272
 30
0.0
 10
66.367026303
 20
23.2891906919
 30
0.0
 10
66.3369161408
 20
23.29662159
 30
0.0
 10
66.3120632656
 20
23.305658308
 30
0.0
 10
66.2953411315
 20
23.3147526476
 30
0.0
 10
66.2857115325
 20
23.3229017731
 30
0.0
 10
66.2794808337
 20
23.3302870272
 30
0.0
 10
66.2769918627
 20
23.3370565934
 30
0.0
 10
66.2769918627
 20
23.3412748786
 30
0.0
 11
66.4769918627
 21
23.2794714798
 31
0.0
 11
66.4379737983
 21
23.2806590148
 31
0.0
 11
66.4004551762
 21
23.2841759834
 31
0.0
 11
66.3658778161
 21
23.2898872305
 31
0.0
 11
66.3355705064
 21
23.2975732762
 31
0.0
 11
66.3106979402
 21
23.3069387499
 31
0.0
 11
66.2922159562
 21
23.3176237418
 31
0.0
 11
66.2856045471
 21
23.3233335459
 31
0.0
 11
66.2808348066
 21
23.3292176337
 31
0.0
 11
66.2769918627
 21
23.3412748786
 31
0.0
  0
SPLINE
  5
65A
100
AcDbEntity
  8
IMPORT_IGES
100
AcDbSpline
 62
7
  6
CONTINUOUS
 70
0
 71
3
 72
8
 73
4
 74
2
 42
0.0000001
 43
0.0000001
 44
0.0000000001
 12
-0.5652597771
 22
0.0575448188
 32
0.0
 13
-0.5681813271
 23
-0.0000356454
 33
0.0
 40
0.0
 40
0.0
 40
0.0
 40
0.0
 40
1.0
 40
1.0
 40
1.0
 40
1.0
 10
-19.898704603
 20
7.3702911165
 30
0.0
 10
-20.0871245287
 20
7.3894727228
 30
0.0
 10
-20.2768599917
 20
7.3970979186
 30
0.0
 10
-20.4662537674
 20
7.3970860368
 30
0.0
 11
-19.898704603
 21
7.3702911165
 31
0.0
 11
-20.4662537674
 21
7.3970860368
 31
0.0
  0
SPLINE
  5
65B
100
AcDbEntity
  8
IMPORT_IGES
100
AcDbSpline
 62
7
  6
CONTINUOUS
 70
0
 71
3
 72
21
 73
17
 74
15
 42
0.0000001
 43
0.0000001
 44
0.0000000001
 12
0.0
 22
1.386678495
 32
0.0
 13
0.0
 23
-1.386678495
 33
0.0
 40
0.0
 40
0.0
 40
0.0
 40
0.0
 40
0.0636773518
 40
0.122915733
 40
0.1817414444
 40
0.2423074067
 40
0.3048387252
 40
0.3689774422
 40
0.499997826
 40
0.631020965
 40
0.6951609522
 40
0.7576926387
 40
0.8182585719
 40
0.877084239
 40
0.9363226153
 40
1.0
 40
1.0
 40
1.0
 40
1.0
 10
-24.6995938281
 20
7.1970860358
 30
0.0
 10
-24.6995938281
 20
7.2265193739
 30
0.0
 10
-24.6802291209
 20
7.2842869056
 30
0.0
 10
-24.6156057193
 20
7.3416705548
 30
0.0
 10
-24.5378106748
 20
7.3721160275
 30
0.0
 10
-24.4549302885
 20
7.3875258212
 30
0.0
 10
-24.3685710659
 20
7.3944027537
 30
0.0
 10
-24.2494835248
 20
7.3974979452
 30
0.0
 10
-24.0987063031
 20
7.3968095243
 30
0.0
 10
-23.9479284936
 20
7.3974984579
 30
0.0
 10
-23.8288389186
 20
7.3944030628
 30
0.0
 10
-23.7424789832
 20
7.3875257689
 30
0.0
 10
-23.6595984604
 20
7.3721160039
 30
0.0
 10
-23.5818034521
 20
7.341670527
 30
0.0
 10
-23.5171800424
 20
7.2842869224
 30
0.0
 10
-23.4978152644
 20
7.2265193891
 30
0.0
 10
-23.4978152644
 20
7.1970860358
 30
0.0
 11
-24.6995938281
 21
7.1970860358
 31
0.0
 11
-24.6729969346
 21
7.2812851913
 31
0.0
 11
-24.6130832313
 21
7.3374820036
 31
0.0
 11
-24.5379868518
 21
7.3693345057
 31
0.0
 11
-24.4556572248
 21
7.3859296751
 31
0.0
 11
-24.3692845995
 21
7.3935807166
 31
0.0
 11
-24.2803894179
 21
7.3963969359
 31
0.0
 11
-24.0987075765
 21
7.3970861535
 31
0.0
 11
-23.917021913
 21
7.3963973406
 31
0.0
 11
-23.8281249745
 21
7.3935809591
 31
0.0
 11
-23.7417518604
 21
7.3859296519
 31
0.0
 11
-23.6594222769
 21
7.3693344701
 31
0.0
 11
-23.5843259521
 21
7.3374819964
 31
0.0
 11
-23.5244122271
 21
7.2812852173
 31
0.0
 11
-23.4978152644
 21
7.1970860358
 31
0.0
  0
SPLINE
  5
65C
100
AcDbEntity
  8
IMPORT_IGES
100
AcDbSpline
 62
7
  6
CONTINUOUS
 70
0
 71
3
 72
18
 73
14
 74
12
 42
0.0000001
 43
0.0000001
 44
0.0000000001
 12
-1.1759863492
 22
-0.0000737765
 32
0.0
 13
0.0
 23
-1.1759863515
 33
0.0
 40
0.0
 40
0.0
 40
0.0
 40
0.0
 40
0.2497877443
 40
0.37469485
 40
0.4996087215
 40
0.6245338674
 40
0.7494770976
 40
0.8119753317
 40
0.8744957871
 40
0.9370265729
 40
0.9683470104
 40
0.9841812334
 40
1.0
 40
1.0
 40
1.0
 40
1.0
 10
-20.4662537674
 20
7.3970860368
 30
0.0
 10
-20.5641694266
 20
7.397079894
 30
0.0
 10
-20.7110837866
 20
7.3937829156
 30
0.0
 10
-20.9065940408
 20
7.3820734951
 30
0.0
 10
-21.0529448581
 20
7.3690807668
 30
0.0
 10
-21.1987595789
 20
7.35091101
 30
0.0
 10
-21.3194945929
 20
7.3299509347
 30
0.0
 10
-21.4148824187
 20
7.3074021964
 30
0.0
 10
-21.4853211839
 20
7.2860568539
 30
0.0
 10
-21.542024072
 20
7.2624603712
 30
0.0
 10
-21.5781827644
 20
7.2379221766
 30
0.0
 10
-21.5940405312
 20
7.2192204671
 30
0.0
 10
-21.6000891489
 20
7.2073874882
 30
0.0
 10
-21.6000891489
 20
7.2011866036
 30
0.0
 11
-20.4662537674
 21
7.3970860368
 31
0.0
 11
-20.7599211108
 21
7.3902465556
 31
0.0
 11
-20.9065418373
 21
7.3813720966
 31
0.0
 11
-21.0528487685
 21
7.3682186608
 31
0.0
 11
-21.1985933907
 21
7.3497489149
 31
0.0
 11
-21.3432219245
 21
7.3238363174
 31
0.0
 11
-21.4146853803
 21
7.306666756
 31
0.0
 11
-21.4849122609
 21
7.2848987404
 31
0.0
 11
-21.5519683249
 21
7.2547170892
 31
0.0
 11
-21.5816685692
 21
7.2329335704
 31
0.0
 11
-21.5935634198
 21
7.2186070968
 31
0.0
 11
-21.6000891489
 21
7.2011866036
 31
0.0
  0
SPLINE
  5
65D
100
AcDbEntity
  8
RACCORDO
100
AcDbSpline
 62
253
  6
CONTINUOUS
 70
0
 71
3
 72
23
 73
19
 74
17
 42
0.0000001
 43
0.0000001
 44
0.0000000001
 12
0.2501693122
 22
0.0
 32
0.0
 13
0.0
 23
0.2501693122
 33
0.0
 40
0.0
 40
0.0
 40
0.0
 40
0.0
 40
0.0014773113
 40
0.0051850127
 40
0.0112487112
 40
0.0196771813
 40
0.0304557313
 40
0.0435640309
 40
0.0766413344
 40
0.1186001374
 40
0.1690392531
 40
0.2274747002
 40
0.2933456616
 40
0.366019315
 40
0.4447958416
 40
0.617572649
 40
0.8050376186
 40
1.0
 40
1.0
 40
1.0
 40
1.0
 10
-37.298704603
 20
-23.5338540719
 30
0.0
 10
-37.2985814104
 20
-23.5338540719
 30
0.0
 10
-37.2984088976
 20
-23.5332980014
 30
0.0
 10
-37.2982345169
 20
-23.5325076307
 30
0.0
 10
-37.2980292006
 20
-23.530930984
 30
0.0
 10
-37.2978289234
 20
-23.5288645129
 30
0.0
 10
-37.2976238333
 20
-23.5261653377
 30
0.0
 10
-37.29733062
 20
-23.5214297734
 30
0.0
 10
-37.296987308
 20
-23.5140834294
 30
0.0
 10
-37.2966106035
 20
-23.5036283715
 30
0.0
 10
-37.2962510836
 20
-23.4910548905
 30
0.0
 10
-37.295912734
 20
-23.4764869715
 30
0.0
 10
-37.2955998201
 20
-23.4600637301
 30
0.0
 10
-37.2953156419
 20
-23.4419435886
 30
0.0
 10
-37.2949684568
 20
-23.4149085676
 30
0.0
 10
-37.2946354922
 20
-23.3783003157
 30
0.0
 10
-37.2943952464
 20
-23.3320024997
 30
0.0
 10
-37.2943415014
 20
-23.3001119402
 30
0.0
 10
-37.2943415014
 20
-23.2838540719
 30
0.0
 11
-37.298704603
 21
-23.5338540719
 31
0.0
 11
-37.2984905852
 21
-23.5335527677
 31
0.0
 11
-37.2982769787
 21
-23.5326501454
 31
0.0
 11
-37.2980643924
 21
-23.5311481639
 31
0.0
 11
-37.2978533875
 21
-23.5290502037
 31
0.0
 11
-37.2976444516
 21
-23.5263618482
 31
0.0
 11
-37.2974380667
 21
-23.5230890548
 31
0.0
 11
-37.2970349163
 21
-23.514823955
 31
0.0
 11
-37.2966478513
 21
-23.504334289
 31
0.0
 11
-37.2962805959
 21
-23.4917213157
 31
0.0
 11
-37.2959366819
 21
-23.4771066061
 31
0.0
 11
-37.2956194243
 21
-23.4606307672
 31
0.0
 11
-37.2953318813
 21
-23.4424523234
 31
0.0
 11
-37.2950768194
 21
-23.4227465045
 31
0.0
 11
-37.2946736228
 21
-23.37952493
 31
0.0
 11
-37.2944253405
 21
-23.3326276047
 31
0.0
 11
-37.2943415014
 21
-23.2838540719
 31
0.0
  0
LINE
  5
65E
100
AcDbEntity
  8
RACCORDO
100
AcDbLine
 62
7
  6
CONTINUOUS
 10
-39.448704603
 20
-23.2838540719
 11
-39.448704603
 21
-23.5338540719
  0
SPLINE
  5
65F
100
AcDbEntity
  8
RACCORDO
100
AcDbSpline
 62
253
  6
CONTINUOUS
 70
0
 71
3
 72
23
 73
19
 74
17
 42
0.0000001
 43
0.0000001
 44
0.0000000001
 12
-0.2501693122
 22
0.0
 32
0.0
 13
0.0
 23
0.2501693122
 33
0.0
 40
0.0
 40
0.0
 40
0.0
 40
0.0
 40
0.0014773113
 40
0.0051850127
 40
0.0112487112
 40
0.0196771813
 40
0.0304557313
 40
0.0435640309
 40
0.0766413344
 40
0.1186001374
 40
0.1690392531
 40
0.2274747002
 40
0.2933456616
 40
0.366019315
 40
0.4447958416
 40
0.617572649
 40
0.8050376186
 40
1.0
 40
1.0
 40
1.0
 40
1.0
 10
-48.8207478808
 20
-23.5338540719
 30
0.0
 10
-48.8208710735
 20
-23.5338540719
 30
0.0
 10
-48.8210435862
 20
-23.5332980014
 30
0.0
 10
-48.821217967
 20
-23.5325076307
 30
0.0
 10
-48.8214232833
 20
-23.530930984
 30
0.0
 10
-48.8216235605
 20
-23.5288645129
 30
0.0
 10
-48.8218286505
 20
-23.5261653377
 30
0.0
 10
-48.8221218638
 20
-23.5214297734
 30
0.0
 10
-48.8224651758
 20
-23.5140834294
 30
0.0
 10
-48.8228418803
 20
-23.5036283715
 30
0.0
 10
-48.8232014003
 20
-23.4910548905
 30
0.0
 10
-48.8235397498
 20
-23.4764869715
 30
0.0
 10
-48.8238526638
 20
-23.4600637301
 30
0.0
 10
-48.8241368419
 20
-23.4419435886
 30
0.0
 10
-48.8244840271
 20
-23.4149085676
 30
0.0
 10
-48.8248169916
 20
-23.3783003157
 30
0.0
 10
-48.8250572374
 20
-23.3320024997
 30
0.0
 10
-48.8251109824
 20
-23.3001119402
 30
0.0
 10
-48.8251109824
 20
-23.2838540719
 30
0.0
 11
-48.8207478808
 21
-23.5338540719
 31
0.0
 11
-48.8209618987
 21
-23.5335527677
 31
0.0
 11
-48.8211755051
 21
-23.5326501454
 31
0.0
 11
-48.8213880914
 21
-23.5311481639
 31
0.0
 11
-48.8215990963
 21
-23.5290502037
 31
0.0
 11
-48.8218080322
 21
-23.5263618482
 31
0.0
 11
-48.8220144172
 21
-23.5230890548
 31
0.0
 11
-48.8224175675
 21
-23.514823955
 31
0.0
 11
-48.8228046326
 21
-23.504334289
 31
0.0
 11
-48.823171888
 21
-23.4917213157
 31
0.0
 11
-48.823515802
 21
-23.4771066061
 31
0.0
 11
-48.8238330595
 21
-23.4606307672
 31
0.0
 11
-48.8241206026
 21
-23.4424523234
 31
0.0
 11
-48.8243756644
 21
-23.4227465045
 31
0.0
 11
-48.8247788611
 21
-23.37952493
 31
0.0
 11
-48.8250271434
 21
-23.3326276047
 31
0.0
 11
-48.8251109824
 21
-23.2838540719
 31
0.0
  0
SPLINE
  5
660
100
AcDbEntity
  8
RACCORDO
100
AcDbSpline
 62
253
  6
CONTINUOUS
 70
0
 71
3
 72
23
 73
19
 74
17
 42
0.0000001
 43
0.0000001
 44
0.0000000001
 12
0.0
 22
0.2501693122
 32
0.0
 13
-0.2501693122
 23
0.0
 33
0.0
 40
0.0
 40
0.0
 40
0.0
 40
0.0
 40
0.1949623814
 40
0.382427351
 40
0.5552041584
 40
0.633980685
 40
0.7066543384
 40
0.7725252998
 40
0.8309607469
 40
0.8813998626
 40
0.9233586656
 40
0.9564359691
 40
0.9695442687
 40
0.9803228187
 40
0.9887512888
 40
0.9948149873
 40
0.9985226887
 40
1.0
 40
1.0
 40
1.0
 40
1.0
 10
-37.2943415014
 20
22.7161459281
 30
0.0
 10
-37.2943415014
 20
22.7324037964
 30
0.0
 10
-37.2943952464
 20
22.7642943559
 30
0.0
 10
-37.2946354922
 20
22.8105921719
 30
0.0
 10
-37.2949684568
 20
22.8472004237
 30
0.0
 10
-37.2953156419
 20
22.8742354448
 30
0.0
 10
-37.2955998201
 20
22.8923555862
 30
0.0
 10
-37.295912734
 20
22.9087788277
 30
0.0
 10
-37.2962510836
 20
22.9233467467
 30
0.0
 10
-37.2966106035
 20
22.9359202277
 30
0.0
 10
-37.296987308
 20
22.9463752855
 30
0.0
 10
-37.29733062
 20
22.9537216296
 30
0.0
 10
-37.2976238333
 20
22.9584571939
 30
0.0
 10
-37.2978289234
 20
22.961156369
 30
0.0
 10
-37.2980292006
 20
22.9632228402
 30
0.0
 10
-37.2982345169
 20
22.9647994868
 30
0.0
 10
-37.2984088976
 20
22.9655898576
 30
0.0
 10
-37.2985814104
 20
22.9661459281
 30
0.0
 10
-37.298704603
 20
22.9661459281
 30
0.0
 11
-37.2943415014
 21
22.7161459281
 31
0.0
 11
-37.2944253405
 21
22.7649194609
 31
0.0
 11
-37.2946736228
 21
22.8118167862
 31
0.0
 11
-37.2950768194
 21
22.8550383606
 31
0.0
 11
-37.2953318813
 21
22.8747441795
 31
0.0
 11
-37.2956194243
 21
22.8929226234
 31
0.0
 11
-37.2959366819
 21
22.9093984622
 31
0.0
 11
-37.2962805959
 21
22.9240131719
 31
0.0
 11
-37.2966478513
 21
22.9366261452
 31
0.0
 11
-37.2970349163
 21
22.9471158112
 31
0.0
 11
-37.2974380667
 21
22.955380911
 31
0.0
 11
-37.2976444516
 21
22.9586537043
 31
0.0
 11
-37.2978533875
 21
22.9613420599
 31
0.0
 11
-37.2980643924
 21
22.9634400201
 31
0.0
 11
-37.2982769787
 21
22.9649420016
 31
0.0
 11
-37.2984905852
 21
22.9658446239
 31
0.0
 11
-37.298704603
 21
22.9661459281
 31
0.0
  0
SPLINE
  5
661
100
AcDbEntity
  8
RACCORDO
100
AcDbSpline
 62
253
  6
CONTINUOUS
 70
0
 71
3
 72
23
 73
19
 74
17
 42
0.0000001
 43
0.0000001
 44
0.0000000001
 12
-0.2501693122
 22
0.0
 32
0.0
 13
0.0
 23
-0.2501693122
 33
0.0
 40
0.0
 40
0.0
 40
0.0
 40
0.0
 40
0.0014773113
 40
0.0051850127
 40
0.0112487112
 40
0.0196771813
 40
0.0304557313
 40
0.0435640309
 40
0.0766413344
 40
0.1186001374
 40
0.1690392531
 40
0.2274747002
 40
0.2933456616
 40
0.366019315
 40
0.4447958416
 40
0.617572649
 40
0.8050376186
 40
1.0
 40
1.0
 40
1.0
 40
1.0
 10
-48.8207478808
 20
22.9661459281
 30
0.0
 10
-48.8208710735
 20
22.9661459281
 30
0.0
 10
-48.8210435862
 20
22.9655898576
 30
0.0
 10
-48.821217967
 20
22.9647994868
 30
0.0
 10
-48.8214232833
 20
22.9632228402
 30
0.0
 10
-48.8216235605
 20
22.961156369
 30
0.0
 10
-48.8218286505
 20
22.9584571939
 30
0.0
 10
-48.8221218638
 20
22.9537216296
 30
0.0
 10
-48.8224651758
 20
22.9463752855
 30
0.0
 10
-48.8228418803
 20
22.9359202277
 30
0.0
 10
-48.8232014003
 20
22.9233467467
 30
0.0
 10
-48.8235397498
 20
22.9087788277
 30
0.0
 10
-48.8238526638
 20
22.8923555862
 30
0.0
 10
-48.8241368419
 20
22.8742354448
 30
0.0
 10
-48.8244840271
 20
22.8472004237
 30
0.0
 10
-48.8248169916
 20
22.8105921719
 30
0.0
 10
-48.8250572374
 20
22.7642943559
 30
0.0
 10
-48.8251109824
 20
22.7324037964
 30
0.0
 10
-48.8251109824
 20
22.7161459281
 30
0.0
 11
-48.8207478808
 21
22.9661459281
 31
0.0
 11
-48.8209618987
 21
22.9658446239
 31
0.0
 11
-48.8211755051
 21
22.9649420016
 31
0.0
 11
-48.8213880914
 21
22.9634400201
 31
0.0
 11
-48.8215990963
 21
22.9613420599
 31
0.0
 11
-48.8218080322
 21
22.9586537043
 31
0.0
 11
-48.8220144172
 21
22.955380911
 31
0.0
 11
-48.8224175675
 21
22.9471158112
 31
0.0
 11
-48.8228046326
 21
22.9366261452
 31
0.0
 11
-48.823171888
 21
22.9240131719
 31
0.0
 11
-48.823515802
 21
22.9093984622
 31
0.0
 11
-48.8238330595
 21
22.8929226234
 31
0.0
 11
-48.8241206026
 21
22.8747441795
 31
0.0
 11
-48.8243756644
 21
22.8550383606
 31
0.0
 11
-48.8247788611
 21
22.8118167862
 31
0.0
 11
-48.8250271434
 21
22.7649194609
 31
0.0
 11
-48.8251109824
 21
22.7161459281
 31
0.0
  0
LINE
  5
662
100
AcDbEntity
  8
RACCORDO
100
AcDbLine
 62
7
  6
CONTINUOUS
 10
-39.448704603
 20
22.7161459281
 11
-39.448704603
 21
22.9661459281
  0
SPLINE
  5
663
100
AcDbEntity
  8
RACCORDO
100
AcDbSpline
 62
253
  6
CONTINUOUS
 70
0
 71
3
 72
23
 73
19
 74
17
 42
0.0000001
 43
0.0000001
 44
0.0000000001
 12
-0.004363398
 22
0.2500550537
 32
0.0
 13
0.2500550305
 23
0.0043647268
 33
0.0
 40
0.0
 40
0.0
 40
0.0
 40
0.0
 40
0.1949785909
 40
0.382450352
 40
0.5552270519
 40
0.6340017449
 40
0.7066727964
 40
0.7725406842
 40
0.8309728611
 40
0.881408759
 40
0.9233646159
 40
0.9564394304
 40
0.9695467039
 40
0.9803243946
 40
0.9887521831
 40
0.9948153884
 40
0.9985227911
 40
1.0
 40
1.0
 40
1.0
 40
1.0
 10
-56.0299416648
 20
21.7832333308
 30
0.0
 10
-56.0302252545
 20
21.7994851249
 30
0.0
 10
-56.0307278124
 20
21.8313639734
 30
0.0
 10
-56.0312952835
 20
21.8776467419
 30
0.0
 10
-56.0316010636
 20
21.914244485
 30
0.0
 10
-56.0317256391
 20
21.941272835
 30
0.0
 10
-56.0317576841
 20
21.959389031
 30
0.0
 10
-56.0317314097
 20
21.9758094837
 30
0.0
 10
-56.0316473509
 20
21.9903758537
 30
0.0
 10
-56.0315073438
 20
22.0029490767
 30
0.0
 10
-56.0313132088
 20
22.0134052094
 30
0.0
 10
-56.0310982215
 20
22.0207536479
 30
0.0
 10
-56.0308877653
 20
22.0254918003
 30
0.0
 10
-56.0307298639
 20
22.0281931049
 30
0.0
 10
-56.0305657373
 20
22.0302619606
 30
0.0
 10
-56.0303880256
 20
22.0318413368
 30
0.0
 10
-56.0302275245
 20
22.0326343309
 30
0.0
 10
-56.0300647926
 20
22.0331931054
 30
0.0
 10
-56.0299416648
 20
22.0331952546
 30
0.0
 11
-56.0299416648
 21
21.7832333308
 31
0.0
 11
-56.0307086516
 21
21.8319901028
 31
0.0
 11
-56.031278542
 21
21.878872037
 31
0.0
 11
-56.0316294785
 21
21.922080876
 31
0.0
 11
-56.0317182827
 21
21.9417816847
 31
0.0
 11
-56.0317479813
 21
21.9599561905
 31
0.0
 11
-56.0317182827
 21
21.9764292694
 31
0.0
 11
-56.0316294785
 21
21.991042485
 31
0.0
 11
-56.0314824286
 21
22.003655299
 31
0.0
 11
-56.031278542
 21
22.0141461891
 31
0.0
 11
-56.031019774
 21
22.0224139241
 31
0.0
 11
-56.0308705852
 21
22.0256885664
 31
0.0
 11
-56.0307086516
 21
22.0283791241
 31
0.0
 11
-56.0305343509
 21
22.0304796367
 31
0.0
 11
-56.030348073
 21
22.0319845174
 31
0.0
 11
-56.0301503196
 21
22.0328903794
 31
0.0
 11
-56.0299416648
 21
22.0331952546
 31
0.0
  0
SPLINE
  5
664
100
AcDbEntity
  8
RACCORDO
100
AcDbSpline
 62
253
  6
CONTINUOUS
 70
0
 71
3
 72
23
 73
19
 74
17
 42
0.0000001
 43
0.0000001
 44
0.0000000001
 12
-0.0043633978
 22
-0.2500550537
 32
0.0
 13
0.2500550305
 23
-0.0043647268
 33
0.0
 40
0.0
 40
0.0
 40
0.0
 40
0.0
 40
0.194978591
 40
0.3824503521
 40
0.5552270522
 40
0.6340017451
 40
0.7066727966
 40
0.7725406844
 40
0.8309728612
 40
0.8814087591
 40
0.923364616
 40
0.9564394304
 40
0.969546704
 40
0.9803243947
 40
0.9887521832
 40
0.9948153884
 40
0.9985227911
 40
1.0
 40
1.0
 40
1.0
 40
1.0
 10
-56.0299416648
 20
-22.3509414747
 30
0.0
 10
-56.0302252545
 20
-22.3671932687
 30
0.0
 10
-56.0307278123
 20
-22.3990721173
 30
0.0
 10
-56.0312952835
 20
-22.4453548858
 30
0.0
 10
-56.0316010635
 20
-22.4819526289
 30
0.0
 10
-56.031725639
 20
-22.5089809789
 30
0.0
 10
-56.031757684
 20
-22.5270971749
 30
0.0
 10
-56.0317314096
 20
-22.5435176276
 30
0.0
 10
-56.0316473508
 20
-22.5580839976
 30
0.0
 10
-56.0315073437
 20
-22.5706572206
 30
0.0
 10
-56.0313132087
 20
-22.5811133532
 30
0.0
 10
-56.0310982214
 20
-22.5884617917
 30
0.0
 10
-56.0308877652
 20
-22.5931999441
 30
0.0
 10
-56.0307298638
 20
-22.5959012488
 30
0.0
 10
-56.0305657373
 20
-22.5979701044
 30
0.0
 10
-56.0303880256
 20
-22.5995494807
 30
0.0
 10
-56.0302275245
 20
-22.6003424748
 30
0.0
 10
-56.0300647926
 20
-22.6009012493
 30
0.0
 10
-56.0299416648
 20
-22.6009033985
 30
0.0
 11
-56.0299416648
 21
-22.3509414747
 31
0.0
 11
-56.0307086515
 21
-22.3996982467
 31
0.0
 11
-56.0312785419
 21
-22.4465801809
 31
0.0
 11
-56.0316294784
 21
-22.4897890199
 31
0.0
 11
-56.0317182826
 21
-22.5094898286
 31
0.0
 11
-56.0317479812
 21
-22.5276643344
 31
0.0
 11
-56.0317182826
 21
-22.5441374132
 31
0.0
 11
-56.0316294784
 21
-22.5587506289
 31
0.0
 11
-56.0314824285
 21
-22.5713634428
 31
0.0
 11
-56.0312785419
 21
-22.581854333
 31
0.0
 11
-56.031019774
 21
-22.590122068
 31
0.0
 11
-56.0308705851
 21
-22.5933967103
 31
0.0
 11
-56.0307086515
 21
-22.5960872679
 31
0.0
 11
-56.0305343509
 21
-22.5981877805
 31
0.0
 11
-56.030348073
 21
-22.5996926613
 31
0.0
 11
-56.0301503196
 21
-22.6005985232
 31
0.0
 11
-56.0299416648
 21
-22.6009033985
 31
0.0
  0
SPLINE
  5
665
100
AcDbEntity
  8
RACCORDO
100
AcDbSpline
 62
253
  6
CONTINUOUS
 70
0
 71
3
 72
23
 73
19
 74
17
 42
0.0000001
 43
0.0000001
 44
0.0000000001
 12
0.0
 22
0.2501693122
 32
0.0
 13
0.2501693122
 23
0.0
 33
0.0
 40
0.0
 40
0.0
 40
0.0
 40
0.0
 40
0.1949623814
 40
0.382427351
 40
0.5552041584
 40
0.633980685
 40
0.7066543384
 40
0.7725252998
 40
0.8309607469
 40
0.8813998626
 40
0.9233586656
 40
0.9564359691
 40
0.9695442687
 40
0.9803228187
 40
0.9887512888
 40
0.9948149873
 40
0.9985226887
 40
1.0
 40
1.0
 40
1.0
 40
1.0
 10
-47.6012141272
 20
23.4661459281
 30
0.0
 10
-47.6012141272
 20
23.4824037964
 30
0.0
 10
-47.6011603822
 20
23.5142943559
 30
0.0
 10
-47.6009201364
 20
23.5605921719
 30
0.0
 10
-47.6005871718
 20
23.5972004237
 30
0.0
 10
-47.6002399867
 20
23.6242354448
 30
0.0
 10
-47.5999558086
 20
23.6423555862
 30
0.0
 10
-47.5996428946
 20
23.6587788277
 30
0.0
 10
-47.599304545
 20
23.6733467467
 30
0.0
 10
-47.5989450251
 20
23.6859202277
 30
0.0
 10
-47.5985683206
 20
23.6963752855
 30
0.0
 10
-47.5982250086
 20
23.7037216296
 30
0.0
 10
-47.5979317953
 20
23.7084571939
 30
0.0
 10
-47.5977267052
 20
23.711156369
 30
0.0
 10
-47.5975264281
 20
23.7132228402
 30
0.0
 10
-47.5973211117
 20
23.7147994868
 30
0.0
 10
-47.597146731
 20
23.7155898576
 30
0.0
 10
-47.5969742182
 20
23.7161459281
 30
0.0
 10
-47.5968510256
 20
23.7161459281
 30
0.0
 11
-47.6012141272
 21
23.4661459281
 31
0.0
 11
-47.6011302881
 21
23.5149194609
 31
0.0
 11
-47.6008820059
 21
23.5618167862
 31
0.0
 11
-47.6004788092
 21
23.6050383606
 31
0.0
 11
-47.6002237474
 21
23.6247441795
 31
0.0
 11
-47.5999362043
 21
23.6429226234
 31
0.0
 11
-47.5996189467
 21
23.6593984622
 31
0.0
 11
-47.5992750328
 21
23.6740131719
 31
0.0
 11
-47.5989077773
 21
23.6866261452
 31
0.0
 11
-47.5985207123
 21
23.6971158112
 31
0.0
 11
-47.598117562
 21
23.705380911
 31
0.0
 11
-47.597911177
 21
23.7086537043
 31
0.0
 11
-47.5977022411
 21
23.7113420599
 31
0.0
 11
-47.5974912362
 21
23.7134400201
 31
0.0
 11
-47.5972786499
 21
23.7149420016
 31
0.0
 11
-47.5970650434
 21
23.7158446239
 31
0.0
 11
-47.5968510256
 21
23.7161459281
 31
0.0
  0
SPLINE
  5
666
100
AcDbEntity
  8
RACCORDO
100
AcDbSpline
 62
253
  6
CONTINUOUS
 70
0
 71
3
 72
23
 73
19
 74
17
 42
0.0000001
 43
0.0000001
 44
0.0000000001
 12
0.0
 22
-0.2501693122
 32
0.0
 13
0.2501693122
 23
-0.0
 33
0.0
 40
0.0
 40
0.0
 40
0.0
 40
0.0
 40
0.1949623814
 40
0.382427351
 40
0.5552041584
 40
0.633980685
 40
0.7066543384
 40
0.7725252998
 40
0.8309607469
 40
0.8813998626
 40
0.9233586656
 40
0.9564359691
 40
0.9695442687
 40
0.9803228187
 40
0.9887512888
 40
0.9948149873
 40
0.9985226887
 40
1.0
 40
1.0
 40
1.0
 40
1.0
 10
-47.6012141272
 20
-24.0338540719
 30
0.0
 10
-47.6012141272
 20
-24.0501119402
 30
0.0
 10
-47.6011603822
 20
-24.0820024997
 30
0.0
 10
-47.6009201364
 20
-24.1283003157
 30
0.0
 10
-47.6005871718
 20
-24.1649085676
 30
0.0
 10
-47.6002399867
 20
-24.1919435886
 30
0.0
 10
-47.5999558086
 20
-24.2100637301
 30
0.0
 10
-47.5996428946
 20
-24.2264869715
 30
0.0
 10
-47.599304545
 20
-24.2410548905
 30
0.0
 10
-47.5989450251
 20
-24.2536283715
 30
0.0
 10
-47.5985683206
 20
-24.2640834294
 30
0.0
 10
-47.5982250086
 20
-24.2714297734
 30
0.0
 10
-47.5979317953
 20
-24.2761653377
 30
0.0
 10
-47.5977267052
 20
-24.2788645129
 30
0.0
 10
-47.5975264281
 20
-24.280930984
 30
0.0
 10
-47.5973211117
 20
-24.2825076307
 30
0.0
 10
-47.597146731
 20
-24.2832980014
 30
0.0
 10
-47.5969742182
 20
-24.2838540719
 30
0.0
 10
-47.5968510256
 20
-24.2838540719
 30
0.0
 11
-47.6012141272
 21
-24.0338540719
 31
0.0
 11
-47.6011302881
 21
-24.0826276047
 31
0.0
 11
-47.6008820059
 21
-24.12952493
 31
0.0
 11
-47.6004788092
 21
-24.1727465045
 31
0.0
 11
-47.6002237474
 21
-24.1924523234
 31
0.0
 11
-47.5999362043
 21
-24.2106307672
 31
0.0
 11
-47.5996189467
 21
-24.2271066061
 31
0.0
 11
-47.5992750328
 21
-24.2417213157
 31
0.0
 11
-47.5989077773
 21
-24.254334289
 31
0.0
 11
-47.5985207123
 21
-24.264823955
 31
0.0
 11
-47.598117562
 21
-24.2730890548
 31
0.0
 11
-47.597911177
 21
-24.2763618482
 31
0.0
 11
-47.5977022411
 21
-24.2790502037
 31
0.0
 11
-47.5974912362
 21
-24.2811481639
 31
0.0
 11
-47.5972786499
 21
-24.2826501454
 31
0.0
 11
-47.5970650434
 21
-24.2835527677
 31
0.0
 11
-47.5968510256
 21
-24.2838540719
 31
0.0
  0
SPLINE
  5
667
100
AcDbEntity
  8
RACCORDO
100
AcDbSpline
 62
7
  6
CONTINUOUS
 70
0
 71
3
 72
14
 73
10
 74
8
 42
0.0000001
 43
0.0000001
 44
0.0000000001
 12
0.6907284013
 22
-0.0120567091
 32
0.0
 13
0.6199041207
 23
0.3049097731
 33
0.0
 40
0.0
 40
0.0
 40
0.0
 40
0.0
 40
0.1041781222
 40
0.217270579
 40
0.337778033
 40
0.4640188262
 40
0.5945122435
 40
0.7280197214
 40
1.0
 40
1.0
 40
1.0
 40
1.0
 10
-48.2444815001
 20
-22.7367991111
 30
0.0
 10
-48.2204952375
 20
-22.7372177929
 30
0.0
 10
-48.1703767119
 20
-22.7321325501
 30
0.0
 10
-48.0946873666
 20
-22.7137942163
 30
0.0
 10
-48.0160303688
 20
-22.6874939945
 30
0.0
 10
-47.9352658721
 20
-22.6554356011
 30
0.0
 10
-47.8529815319
 20
-22.6192803859
 30
0.0
 10
-47.7411693932
 20
-22.5669998314
 30
0.0
 10
-47.6574146923
 20
-22.5257086095
 30
0.0
 10
-47.6012141272
 20
-22.4980654611
 30
0.0
 11
-48.2444815001
 21
-22.7367991111
 31
0.0
 11
-48.1727623535
 21
-22.7307983781
 31
0.0
 11
-48.0966496005
 21
-22.7131676002
 31
0.0
 11
-48.0175482274
 21
-22.6872131158
 31
0.0
 11
-47.9363772856
 21
-22.6553210525
 31
0.0
 11
-47.8537617228
 21
-22.6192439932
 31
0.0
 11
-47.7701470026
 21
-22.5803181704
 31
0.0
 11
-47.6012141272
 21
-22.4980654611
 31
0.0
  0
SPLINE
  5
668
100
AcDbEntity
  8
RACCORDO
100
AcDbSpline
 62
7
  6
CONTINUOUS
 70
0
 71
3
 72
14
 73
10
 74
8
 42
0.0000001
 43
0.0000001
 44
0.0000000001
 12
-0.6199041201
 22
0.3049097728
 32
0.0
 13
-0.6907284006
 23
-0.0120567091
 33
0.0
 40
0.0
 40
0.0
 40
0.0
 40
0.0
 40
0.2719803573
 40
0.405487854
 40
0.5359812873
 40
0.6622221663
 40
0.7827298001
 40
0.8958222511
 40
1.0
 40
1.0
 40
1.0
 40
1.0
 10
-47.6012141272
 20
21.9303573173
 30
0.0
 10
-47.6574147086
 20
21.9580004736
 30
0.0
 10
-47.7411694293
 20
21.9992917061
 30
0.0
 10
-47.8529815927
 20
22.0515722685
 30
0.0
 10
-47.9352659595
 20
22.0877274932
 30
0.0
 10
-48.0160305195
 20
22.1197858996
 30
0.0
 10
-48.0946875686
 20
22.1460861639
 30
0.0
 10
-48.1703768896
 20
22.1644244009
 30
0.0
 10
-48.2204953235
 20
22.1695096476
 30
0.0
 10
-48.2444815001
 20
22.1690909673
 30
0.0
 11
-47.6012141272
 21
21.9303573173
 31
0.0
 11
-47.7701470516
 21
22.0126100498
 31
0.0
 11
-47.8537617843
 21
22.0515358762
 31
0.0
 11
-47.9363773585
 21
22.0876129365
 31
0.0
 11
-48.0175483566
 21
22.1195050187
 31
0.0
 11
-48.0966498484
 21
22.1454595393
 31
0.0
 11
-48.17276261
 21
22.163090262
 31
0.0
 11
-48.2444815001
 21
22.1690909673
 31
0.0
  0
SPLINE
  5
669
100
AcDbEntity
  8
RACCORDO
100
AcDbSpline
 62
253
  6
CONTINUOUS
 70
0
 71
3
 72
14
 73
10
 74
8
 42
0.0000001
 43
0.0000001
 44
0.0000000001
 12
0.0039936825
 22
0.0803655818
 32
0.0
 13
0.0803840527
 23
-0.0036028194
 33
0.0
 40
0.0
 40
0.0
 40
0.0
 40
0.0
 40
0.425069306
 40
0.5974193286
 40
0.7408677378
 40
0.8538327014
 40
0.9348587416
 40
0.9835113851
 40
1.0
 40
1.0
 40
1.0
 40
1.0
 10
-11.5241348818
 20
18.3451005382
 30
0.0
 10
-11.5235690178
 20
18.3564875189
 30
0.0
 10
-11.5227609428
 20
18.3725102513
 30
0.0
 10
-11.5216277202
 20
18.3923059892
 30
0.0
 10
-11.5209955665
 20
18.4038806264
 30
0.0
 10
-11.5202559818
 20
18.4126627427
 30
0.0
 10
-11.5200918267
 20
18.4197196117
 30
0.0
 10
-11.5191361242
 20
18.4226238815
 30
0.0
 10
-11.5194866743
 20
18.4253963607
 30
0.0
 10
-11.5190448671
 20
18.4253765589
 30
0.0
 11
-11.5241348818
 21
18.3451005382
 31
0.0
 11
-11.5223655867
 21
18.3792578417
 31
0.0
 11
-11.521588707
 21
18.3931041662
 31
0.0
 11
-11.5208930514
 21
18.4046257246
 31
0.0
 11
-11.5202856539
 21
18.4136951057
 31
0.0
 11
-11.5197731565
 21
18.4201946717
 31
0.0
 11
-11.5193589598
 21
18.4240875215
 31
0.0
 11
-11.5190448671
 21
18.4253765589
 31
0.0
  0
SPLINE
  5
66A
100
AcDbEntity
  8
RACCORDO
100
AcDbSpline
 62
253
  6
CONTINUOUS
 70
0
 71
3
 72
11
 73
7
 74
5
 42
0.0000001
 43
0.0000001
 44
0.0000000001
 12
-0.0000287661
 22
1.4778358056
 32
0.0
 13
-1.1652781369
 23
0.9089144805
 33
0.0
 40
0.0
 40
0.0
 40
0.0
 40
0.0
 40
0.2512504653
 40
0.5004073724
 40
0.7496788071
 40
1.0
 40
1.0
 40
1.0
 40
1.0
 10
-10.5526985039
 20
16.8052186325
 30
0.0
 10
-10.5527009131
 20
16.9289876104
 30
0.0
 10
-10.5562757353
 20
17.1756308135
 30
0.0
 10
-10.6100502212
 20
17.5432180064
 30
0.0
 10
-10.7514080355
 20
17.8889440008
 30
0.0
 10
-10.9166317059
 20
18.0799042543
 30
0.0
 10
-11.013862977
 20
18.1557444399
 30
0.0
 11
-10.5526985039
 21
16.8052186325
 31
0.0
 11
-10.564438294
 21
17.1763399286
 31
0.0
 11
-10.624622036
 21
17.5396011701
 31
0.0
 11
-10.7688615973
 21
17.8785708328
 31
0.0
 11
-11.013862977
 21
18.1557444399
 31
0.0
  0
SPLINE
  5
66B
100
AcDbEntity
  8
RACCORDO
100
AcDbSpline
 62
253
  6
CONTINUOUS
 70
0
 71
3
 72
9
 73
5
 74
3
 42
0.0000001
 43
0.0000001
 44
0.0000000001
 12
-0.2932918222
 22
0.2287670006
 32
0.0
 13
-0.3606784322
 23
0.0909148066
 33
0.0
 40
0.0
 40
0.0
 40
0.0
 40
0.0
 40
0.7488537928
 40
1.0
 40
1.0
 40
1.0
 40
1.0
 10
-11.013862977
 20
18.1557444399
 30
0.0
 10
-11.0870738748
 20
18.2128487853
 30
0.0
 10
-11.1972752751
 20
18.2753346348
 30
0.0
 10
-11.3158401419
 20
18.3120558416
 30
0.0
 10
-11.346034482
 20
18.3196668112
 30
0.0
 11
-11.013862977
 21
18.1557444399
 31
0.0
 11
-11.2568134295
 21
18.2919859681
 31
0.0
 11
-11.346034482
 21
18.3196668112
 31
0.0
  0
SPLINE
  5
66C
100
AcDbEntity
  8
RACCORDO
100
AcDbSpline
 62
253
  6
CONTINUOUS
 70
0
 71
3
 72
24
 73
20
 74
18
 42
0.0000001
 43
0.0000001
 44
0.0000000001
 12
0.0174374937
 22
-1.9998919346
 32
0.0
 13
-1.9993135128
 23
-0.0511594923
 33
0.0
 40
0.0
 40
0.0
 40
0.0
 40
0.0
 40
0.1950371685
 40
0.3826224594
 40
0.5554597667
 40
0.6342758852
 40
0.7069735851
 40
0.7728704688
 40
0.8313167334
 40
0.8817678761
 40
0.9237255719
 40
0.9413898781
 40
0.9567915149
 40
0.9698915015
 40
0.9806518766
 40
0.9890490241
 40
0.9950719757
 40
0.9987138774
 40
1.0
 40
1.0
 40
1.0
 40
1.0
 10
-11.5312521966
 20
-17.3729267762
 30
0.0
 10
-11.5301185435
 20
-17.5029445296
 30
0.0
 10
-11.5281079191
 20
-17.758014309
 30
0.0
 10
-11.5258366129
 20
-18.1283080982
 30
0.0
 10
-11.5246145966
 20
-18.4211269498
 30
0.0
 10
-11.5241163264
 20
-18.6373570276
 30
0.0
 10
-11.5239884985
 20
-18.782295239
 30
0.0
 10
-11.5240931895
 20
-18.9136535238
 30
0.0
 10
-11.5244286911
 20
-19.0301814573
 30
0.0
 10
-11.5249904573
 20
-19.1307465636
 30
0.0
 10
-11.5256651102
 20
-19.2041294141
 30
0.0
 10
-11.5263520773
 20
-19.2541319459
 30
0.0
 10
-11.5268785835
 20
-19.2849226764
 30
0.0
 10
-11.5274852137
 20
-19.3110360892
 30
0.0
 10
-11.5280482251
 20
-19.3326833435
 30
0.0
 10
-11.528884102
 20
-19.3490667842
 30
0.0
 10
-11.5291890913
 20
-19.3619773851
 30
0.0
 10
-11.5305400093
 20
-19.3676707939
 30
0.0
 10
-11.5303950759
 20
-19.3726002341
 30
0.0
 10
-11.5312521966
 20
-19.3726221665
 30
0.0
 11
-11.5312521966
 21
-17.3729267762
 31
0.0
 11
-11.5281846615
 21
-17.762982801
 31
0.0
 11
-11.5259039041
 21
-18.1381404387
 31
0.0
 11
-11.5245009157
 21
-18.4838066673
 31
0.0
 11
-11.524145805
 21
-18.6414359786
 31
0.0
 11
-11.5240271806
 21
-18.7868290003
 31
0.0
 11
-11.5241456241
 21
-18.9186206028
 31
0.0
 11
-11.5245006408
 21
-19.0355107198
 31
0.0
 11
-11.5250883364
 21
-19.1364096769
 31
0.0
 11
-11.5259034013
 21
-19.2203197654
 31
0.0
 11
-11.5263940089
 21
-19.2556444051
 31
0.0
 11
-11.5269385081
 21
-19.2864423722
 31
0.0
 11
-11.5275357674
 21
-19.312635117
 31
0.0
 11
-11.5281846134
 21
-19.3341457386
 31
0.0
 11
-11.5288831623
 21
-19.3509252302
 31
0.0
 11
-11.5296289383
 21
-19.3629478319
 31
0.0
 11
-11.5304194477
 21
-19.3701884939
 31
0.0
 11
-11.5312521966
 21
-19.3726221665
 31
0.0
  0
LINE
  5
66D
100
AcDbEntity
  8
RACCORDO
100
AcDbLine
 62
253
  6
CONTINUOUS
 10
-10.548704603
 20
0.739015463
 11
-10.6378342353
 21
0.7405717007
  0
SPLINE
  5
66E
100
AcDbEntity
  8
RACCORDO
100
AcDbSpline
 62
7
  6
CONTINUOUS
 70
0
 71
3
 72
9
 73
5
 74
3
 42
0.0000001
 43
0.0000001
 44
0.0000000001
 12
-0.0000337995
 22
-0.1178887305
 32
0.0
 13
-0.0496684722
 23
-0.1069149044
 33
0.0
 40
0.0
 40
0.0
 40
0.0
 40
0.0
 40
0.2400575365
 40
1.0
 40
1.0
 40
1.0
 40
1.0
 10
-10.5932599589
 20
0.8877544867
 30
0.0
 10
-10.5932626635
 20
0.8783211273
 30
0.0
 10
-10.5957063765
 20
0.8390198015
 30
0.0
 10
-10.6078295143
 20
0.800683248
 30
0.0
 10
-10.6204112413
 20
0.7736001894
 30
0.0
 11
-10.5932599589
 21
0.8877544867
 31
0.0
 11
-10.5949937292
 21
0.8595075659
 31
0.0
 11
-10.6204112413
 21
0.7736001894
 31
0.0
  0
LINE
  5
66F
100
AcDbEntity
  8
RACCORDO
100
AcDbLine
 62
253
  6
CONTINUOUS
 10
-11.5244562348
 20
18.3451144838
 11
-11.5241099193
 21
18.0982174983
  0
LINE
  5
670
100
AcDbEntity
  8
ASSI
100
AcDbLine
 62
253
  6
CONTINUOUS
 10
-10.548704603
 20
0.739015463
 11
-10.6108863821
 21
0.7401014875
  0
LINE
  5
671
100
AcDbEntity
  8
ASSI
100
AcDbLine
 62
253
  6
CONTINUOUS
 10
-10.6108863821
 20
0.7401014875
 11
-10.6378342353
 21
0.7405717007
  0
SPLINE
  5
672
100
AcDbEntity
  8
ASSI
100
AcDbSpline
 62
253
  6
CONTINUOUS
 70
0
 71
3
 72
8
 73
4
 74
2
 42
0.0000001
 43
0.0000001
 44
0.0000000001
 12
-0.0000150867
 22
0.7750668547
 32
0.0
 13
-0.2237335496
 23
0.7420727244
 33
0.0
 40
0.0
 40
0.0
 40
0.0
 40
0.0
 40
1.0
 40
1.0
 40
1.0
 40
1.0
 10
-10.5526985039
 20
16.8052186325
 30
0.0
 10
-10.5527035328
 20
17.0635742507
 30
0.0
 10
-10.5604890877
 20
17.3285387274
 30
0.0
 10
-10.6350669376
 20
17.5758963022
 30
0.0
 11
-10.5526985039
 21
16.8052186325
 31
0.0
 11
-10.6350669376
 21
17.5758963022
 31
0.0
  0
SPLINE
  5
673
100
AcDbEntity
  8
ASSI
100
AcDbSpline
 62
253
  6
CONTINUOUS
 70
0
 71
3
 72
9
 73
5
 74
3
 42
0.0000001
 43
0.0000001
 44
0.0000000001
 12
-0.2023391882
 22
0.6711125485
 32
0.0
 13
-0.5527025508
 23
0.4311068199
 33
0.0
 40
0.0
 40
0.0
 40
0.0
 40
0.0
 40
0.4989375597
 40
1.0
 40
1.0
 40
1.0
 40
1.0
 10
-10.6350669376
 20
17.5758963022
 30
0.0
 10
-10.6687184779
 20
17.6875107212
 30
0.0
 10
-10.7632512868
 20
17.9045571196
 30
0.0
 10
-10.9215501474
 20
18.0837406282
 30
0.0
 10
-11.013862977
 20
18.1557444399
 30
0.0
 11
-10.6350669376
 21
17.5758963022
 31
0.0
 11
-10.7789242531
 21
17.8946703838
 31
0.0
 11
-11.013862977
 21
18.1557444399
 31
0.0
  0
SPLINE
  5
674
100
AcDbEntity
  8
ASSI
100
AcDbSpline
 62
253
  6
CONTINUOUS
 70
0
 71
3
 72
9
 73
5
 74
3
 42
0.0000001
 43
0.0000001
 44
0.0000000001
 12
-0.4347879196
 22
0.3391336571
 32
0.0
 13
-0.551075737
 23
0.0191756238
 33
0.0
 40
0.0
 40
0.0
 40
0.0
 40
0.0
 40
0.4997445716
 40
1.0
 40
1.0
 40
1.0
 40
1.0
 10
-11.013862977
 20
18.1557444399
 30
0.0
 10
-11.0862906112
 20
18.2122378413
 30
0.0
 10
-11.2487235919
 20
18.3048482682
 30
0.0
 10
-11.4325633139
 20
18.3419299598
 30
0.0
 10
-11.5244561902
 20
18.3451275298
 30
0.0
 11
-11.013862977
 21
18.1557444399
 31
0.0
 11
-11.2539868307
 21
18.2909329537
 31
0.0
 11
-11.5244561902
 21
18.3451275298
 31
0.0
  0
SPLINE
  5
675
100
AcDbEntity
  8
ASSI
100
AcDbSpline
 62
253
  6
CONTINUOUS
 70
0
 71
3
 72
21
 73
17
 74
15
 42
0.0000001
 43
0.0000001
 44
0.0000000001
 12
0.0174374892
 22
-1.9998914186
 32
0.0
 13
-1.999312997
 23
-0.0511594791
 33
0.0
 40
0.0
 40
0.0
 40
0.0
 40
0.0
 40
0.1950372188
 40
0.3826225581
 40
0.55545991
 40
0.7069737284
 40
0.7728706292
 40
0.8313169088
 40
0.8817680645
 40
0.9237257711
 40
0.9567916636
 40
0.9806518716
 40
0.9890490213
 40
0.9950719745
 40
0.9987138771
 40
1.0
 40
1.0
 40
1.0
 40
1.0
 10
-11.5312521966
 20
-17.3729267762
 30
0.0
 10
-11.5301185435
 20
-17.5029445296
 30
0.0
 10
-11.5281081623
 20
-17.758014247
 30
0.0
 10
-11.5258358238
 20
-18.1283082995
 30
0.0
 10
-11.5244148835
 20
-18.4695902571
 30
0.0
 10
-11.5239470253
 20
-18.7297533931
 30
0.0
 10
-11.5240938748
 20
-18.9136516508
 30
0.0
 10
-11.524426087
 20
-19.03018738
 30
0.0
 10
-11.5249982614
 20
-19.1307290168
 30
0.0
 10
-11.5257377492
 20
-19.2144461228
 30
0.0
 10
-11.5267977554
 20
-19.2801730431
 30
0.0
 10
-11.5276410873
 20
-19.3241042339
 30
0.0
 10
-11.5288811951
 20
-19.3490726396
 30
0.0
 10
-11.5291894882
 20
-19.3619765856
 30
0.0
 10
-11.5305399806
 20
-19.3676708518
 30
0.0
 10
-11.5303950759
 20
-19.3726002341
 30
0.0
 10
-11.5312521966
 20
-19.3726221665
 30
0.0
 11
-11.5312521966
 21
-17.3729267762
 31
0.0
 11
-11.5281846615
 21
-17.762982801
 31
0.0
 11
-11.5259039041
 21
-18.1381404387
 31
0.0
 11
-11.5245009157
 21
-18.4838066673
 31
0.0
 11
-11.5240271806
 21
-18.7868290003
 31
0.0
 11
-11.5241456241
 21
-18.9186206028
 31
0.0
 11
-11.5245006408
 21
-19.0355107198
 31
0.0
 11
-11.5250883364
 21
-19.1364096769
 31
0.0
 11
-11.5259034013
 21
-19.2203197654
 31
0.0
 11
-11.5269385081
 21
-19.2864423722
 31
0.0
 11
-11.5281846134
 21
-19.3341457386
 31
0.0
 11
-11.5288831623
 21
-19.3509252302
 31
0.0
 11
-11.5296289383
 21
-19.3629478319
 31
0.0
 11
-11.5304194477
 21
-19.3701884939
 31
0.0
 11
-11.5312521966
 21
-19.3726221665
 31
0.0
  0
LINE
  5
676
100
AcDbEntity
  8
ASSI
100
AcDbLine
 62
253
  6
CONTINUOUS
 10
-11.5244562348
 20
18.3451144838
 11
-11.5241099193
 21
18.0982174983
  0
LINE
  5
677
100
AcDbEntity
  8
ASSI
100
AcDbLine
 62
253
  6
CONTINUOUS
 10
-11.5244856945
 20
17.9109635739
 11
-11.5257515365
 21
17.6024854729
  0
SPLINE
  5
678
100
AcDbEntity
  8
ASSI
100
AcDbSpline
 62
7
  6
CONTINUOUS
 70
0
 71
3
 72
9
 73
5
 74
3
 42
0.0000001
 43
0.0000001
 44
0.0000000001
 12
-0.0000337995
 22
-0.1178887305
 32
0.0
 13
-0.0496684722
 23
-0.1069149044
 33
0.0
 40
0.0
 40
0.0
 40
0.0
 40
0.0
 40
0.2400575365
 40
1.0
 40
1.0
 40
1.0
 40
1.0
 10
-10.5932599589
 20
0.8877544867
 30
0.0
 10
-10.5932626635
 20
0.8783211273
 30
0.0
 10
-10.5957063765
 20
0.8390198015
 30
0.0
 10
-10.6078295143
 20
0.800683248
 30
0.0
 10
-10.6204112413
 20
0.7736001894
 30
0.0
 11
-10.5932599589
 21
0.8877544867
 31
0.0
 11
-10.5949937292
 21
0.8595075659
 31
0.0
 11
-10.6204112413
 21
0.7736001894
 31
0.0
  0
SPLINE
  5
679
100
AcDbEntity
  8
ASSI
100
AcDbSpline
 62
253
  6
CONTINUOUS
 70
0
 71
3
 72
11
 73
7
 74
5
 42
0.0000001
 43
0.0000001
 44
0.0000000001
 12
0.0039932317
 22
0.0803565114
 32
0.0
 13
0.0803749856
 23
-0.0036022934
 33
0.0
 40
0.0
 40
0.0
 40
0.0
 40
0.0
 40
0.4251172795
 40
0.7409506457
 40
0.9349602548
 40
1.0
 40
1.0
 40
1.0
 40
1.0
 10
-11.5241348818
 20
18.3451005382
 30
0.0
 10
-11.5235690178
 20
18.3564875188
 30
0.0
 10
-11.5219974904
 20
18.3755864904
 30
0.0
 10
-11.5223139668
 20
18.4029614828
 30
0.0
 10
-11.5182122845
 20
18.4142029784
 30
0.0
 10
-11.52078739
 20
18.4254546563
 30
0.0
 10
-11.5190448672
 20
18.4253765589
 30
0.0
 11
-11.5241348818
 21
18.3451005382
 31
0.0
 11
-11.5223655867
 21
18.3792578411
 31
0.0
 11
-11.5208930514
 21
18.4046257238
 31
0.0
 11
-11.5197731565
 21
18.4201946711
 31
0.0
 11
-11.5190448672
 21
18.4253765589
 31
0.0
  0
SPLINE
  5
67A
100
AcDbEntity
  8
INCISIONI
100
AcDbSpline
 62
253
  6
CONTINUOUS
 70
0
 71
3
 72
13
 73
9
 74
7
 42
0.0000001
 43
0.0000001
 44
0.0000000001
 12
0.1516030796
 22
-2.725390764
 32
0.0
 13
-2.5668610191
 23
-0.5469273566
 33
0.0
 40
0.0
 40
0.0
 40
0.0
 40
0.0
 40
0.1666666667
 40
0.3333333333
 40
0.5
 40
0.6666666667
 40
0.8333333333
 40
1.0
 40
1.0
 40
1.0
 40
1.0
 10
-30.310584497
 20
15.7161486942
 30
0.0
 10
-30.3021621037
 20
15.5647380962
 30
0.0
 10
-30.3232474554
 20
15.2835242176
 30
0.0
 10
-30.4461828446
 20
14.8799594516
 30
0.0
 10
-30.6718604371
 20
14.5017028098
 30
0.0
 10
-30.9806547576
 20
14.1909117827
 30
0.0
 10
-31.3329837813
 20
13.9753727574
 30
0.0
 10
-31.5897647167
 20
13.8860297812
 30
0.0
 10
-31.7323681067
 20
13.8556449281
 30
0.0
 11
-30.310584497
 21
15.7161486942
 31
0.0
 11
-30.338465349
 21
15.2865668929
 31
0.0
 11
-30.4633065452
 21
14.8841774723
 31
0.0
 11
-30.6857132251
 21
14.5129470789
 31
0.0
 11
-30.9879105415
 21
14.2067871164
 31
0.0
 11
-31.3384575112
 21
13.9889601843
 31
0.0
 11
-31.7323681067
 21
13.8556449281
 31
0.0
  0
SPLINE
  5
67B
100
AcDbEntity
  8
INCISIONI
100
AcDbSpline
 62
253
  6
CONTINUOUS
 70
0
 71
3
 72
28
 73
24
 74
22
 42
0.0000001
 43
0.0000001
 44
0.0000000001
 12
-0.5042730652
 22
-9.0656576593
 32
0.0
 13
0.191047602
 23
4.4361686101
 33
0.0
 40
0.0
 40
0.0
 40
0.0
 40
0.0
 40
0.0519480519
 40
0.1038961039
 40
0.1558441558
 40
0.2077922078
 40
0.2597402597
 40
0.2857142857
 40
0.3116883117
 40
0.3376623377
 40
0.3636363636
 40
0.4155844156
 40
0.4675324675
 40
0.5194805195
 40
0.5714285714
 40
0.6233766234
 40
0.6753246753
 40
0.7272727273
 40
0.8311688312
 40
0.8831168831
 40
0.9350649351
 40
0.987012987
 40
1.0
 40
1.0
 40
1.0
 40
1.0
 10
-33.9039264778
 20
11.3310359281
 30
0.0
 10
-33.9126584789
 20
11.1740548431
 30
0.0
 10
-33.8885793785
 20
10.8825936007
 30
0.0
 10
-33.7622996826
 20
10.4853513479
 30
0.0
 10
-33.5541475618
 20
10.1371559337
 30
0.0
 10
-33.2869415221
 20
9.8553120546
 30
0.0
 10
-33.0378686412
 20
9.6822872329
 30
0.0
 10
-32.8262190486
 20
9.5781941357
 30
0.0
 10
-32.6698066786
 20
9.5191826771
 30
0.0
 10
-32.5188343946
 20
9.4769688307
 30
0.0
 10
-32.3211189717
 20
9.439188282
 30
0.0
 10
-32.0807434073
 20
9.4236767197
 30
0.0
 10
-31.8038158387
 20
9.4502515923
 30
0.0
 10
-31.5450250902
 20
9.5150202502
 30
0.0
 10
-31.3062391921
 20
9.6125844512
 30
0.0
 10
-31.0906221636
 20
9.7391688181
 30
0.0
 10
-30.9040921291
 20
9.8863198692
 30
0.0
 10
-30.6868178276
 20
10.1081924675
 30
0.0
 10
-30.5180464755
 20
10.3623429554
 30
0.0
 10
-30.4003097867
 20
10.6467982936
 30
0.0
 10
-30.3397706549
 20
10.8702951327
 30
0.0
 10
-30.3159865062
 20
11.0413551403
 30
0.0
 10
-30.3103067075
 20
11.1371293763
 30
0.0
 10
-30.3094796616
 20
11.1563335694
 30
0.0
 11
-33.9039264778
 21
11.3310359281
 31
0.0
 11
-33.8735525376
 21
10.8892518692
 31
0.0
 11
-33.7486542784
 21
10.493525821
 31
0.0
 11
-33.544305242
 21
10.1482145229
 31
0.0
 11
-33.2816612859
 21
9.8676810701
 31
0.0
 11
-32.9839236358
 21
9.6591245219
 31
0.0
 11
-32.8266065194
 21
9.5813705298
 31
0.0
 11
-32.6707133596
 21
9.5219822791
 31
0.0
 11
-32.5192820141
 21
9.4792819032
 31
0.0
 11
-32.370999075
 21
9.4507476941
 31
0.0
 11
-32.0826639254
 21
9.4312081776
 31
0.0
 11
-31.8068386421
 21
9.4566172232
 31
0.0
 11
-31.5483592319
 21
9.520486174
 31
0.0
 11
-31.3101006703
 21
9.6174211455
 31
0.0
 11
-31.0954699959
 21
9.7425965988
 31
0.0
 11
-30.9080211805
 21
9.8895287688
 31
0.0
 11
-30.7451783155
 21
10.055414142
 31
0.0
 11
-30.4928651919
 21
10.4359821941
 31
0.0
 11
-30.4049370175
 21
10.6484908495
 31
0.0
 11
-30.3445751438
 21
10.8710589945
 31
0.0
 11
-30.3128799717
 21
11.0988493178
 31
0.0
 11
-30.3094796616
 21
11.1563335694
 31
0.0
  0
SPLINE
  5
67C
100
AcDbEntity
  8
INCISIONI
100
AcDbSpline
 62
253
  6
CONTINUOUS
 70
0
 71
3
 72
23
 73
19
 74
17
 42
0.0000001
 43
0.0000001
 44
0.0000000001
 12
0.298386316
 22
-7.6053191628
 32
0.0
 13
-0.2974820383
 23
7.5502746019
 33
0.0
 40
0.0
 40
0.0
 40
0.0
 40
0.0
 40
0.0789473684
 40
0.1578947368
 40
0.2368421053
 40
0.3157894737
 40
0.3947368421
 40
0.4342105263
 40
0.4736842105
 40
0.5131578947
 40
0.5526315789
 40
0.5921052632
 40
0.6315789474
 40
0.7105263158
 40
0.7894736842
 40
0.8684210526
 40
0.9473684211
 40
1.0
 40
1.0
 40
1.0
 40
1.0
 10
-29.5599929798
 20
11.3310358105
 30
0.0
 10
-29.5521407083
 20
11.1308958326
 30
0.0
 10
-29.5834559925
 20
10.7394390263
 30
0.0
 10
-29.7632921213
 20
10.1694174666
 30
0.0
 10
-30.0792075945
 20
9.6452839894
 30
0.0
 10
-30.538569392
 20
9.1833310987
 30
0.0
 10
-31.0361607993
 20
8.8983250066
 30
0.0
 10
-31.4614231039
 20
8.7565204173
 30
0.0
 10
-31.7917723827
 20
8.6935112841
 30
0.0
 10
-32.1194552847
 20
8.6745609629
 30
0.0
 10
-32.4468657615
 20
8.6965326043
 30
0.0
 10
-32.7797027093
 20
8.7634745459
 30
0.0
 10
-33.2060208219
 20
8.9112155941
 30
0.0
 10
-33.6932526403
 20
9.1984063476
 30
0.0
 10
-34.1379292402
 20
9.6506478754
 30
0.0
 10
-34.4493309849
 20
10.1660168446
 30
0.0
 10
-34.6103289913
 20
10.6722759522
 30
0.0
 10
-34.6493119352
 20
10.9982696094
 30
0.0
 10
-34.6545309183
 20
11.1307305673
 30
0.0
 11
-29.5599929798
 21
11.3310358105
 31
0.0
 11
-29.6055998596
 21
10.7422996346
 31
0.0
 11
-29.7859720121
 21
10.1770654803
 31
0.0
 11
-30.1031153153
 21
9.6556474205
 31
0.0
 11
-30.5615273739
 21
9.2033220288
 31
0.0
 11
-31.1447421403
 21
8.8700572163
 31
0.0
 11
-31.4633235289
 21
8.7637444688
 31
0.0
 11
-31.7913279865
 21
8.7008544194
 31
0.0
 11
-32.1194098805
 21
8.68138129
 31
0.0
 11
-32.4477701733
 21
8.7040276543
 31
0.0
 11
-32.7775196488
 21
8.7707851867
 31
0.0
 11
-33.0963969056
 21
8.8811146283
 31
0.0
 11
-33.6699190433
 21
9.2163417849
 31
0.0
 11
-34.1157167643
 21
9.6611691156
 31
0.0
 11
-34.4276178203
 21
10.1750455991
 31
0.0
 11
-34.6082630505
 21
10.739007758
 31
0.0
 11
-34.6545309183
 21
11.1307305673
 31
0.0
  0
SPLINE
  5
67D
100
AcDbEntity
  8
INCISIONI
100
AcDbSpline
 62
253
  6
CONTINUOUS
 70
0
 71
3
 72
23
 73
19
 74
17
 42
0.0000001
 43
0.0000001
 44
0.0000000001
 12
0.9081791229
 22
-0.2358771646
 32
0.0
 13
-0.0
 23
0.9630072841
 33
0.0
 40
0.0
 40
0.0
 40
0.0
 40
0.0
 40
0.0416666667
 40
0.0833333333
 40
0.125
 40
0.1666666667
 40
0.25
 40
0.3333333333
 40
0.4166666667
 40
0.5
 40
0.5833333333
 40
0.6666666667
 40
0.75
 40
0.8333333333
 40
0.875
 40
0.9166666667
 40
0.9583333333
 40
1.0
 40
1.0
 40
1.0
 40
1.0
 10
-40.357249284
 20
12.8623689281
 30
0.0
 10
-40.3446356851
 20
12.8590928563
 30
0.0
 10
-40.3217220774
 20
12.8541521778
 30
0.0
 10
-40.2853953034
 20
12.8490807485
 30
0.0
 10
-40.2497045167
 20
12.8468658321
 30
0.0
 10
-40.2022823251
 20
12.847361598
 30
0.0
 10
-40.1437976153
 20
12.8544314267
 30
0.0
 10
-40.0761464077
 20
12.872707421
 30
0.0
 10
-40.0090789696
 20
12.9022830426
 30
0.0
 10
-39.9443867081
 20
12.9439785443
 30
0.0
 10
-39.8870597584
 20
12.9955075131
 30
0.0
 10
-39.8406185887
 20
13.0527604522
 30
0.0
 10
-39.8048489287
 20
13.1139857237
 30
0.0
 10
-39.7824666011
 20
13.169569953
 30
0.0
 10
-39.7695139463
 20
13.2162243137
 30
0.0
 10
-39.7623568991
 20
13.2521121721
 30
0.0
 10
-39.7579152922
 20
13.2894482688
 30
0.0
 10
-39.7568830867
 20
13.3135258269
 30
0.0
 10
-39.7568830867
 20
13.3269009281
 30
0.0
 11
-40.357249284
 21
12.8623689281
 31
0.0
 11
-40.321396017
 21
12.8545421092
 31
0.0
 11
-40.2855013013
 21
12.849556834
 31
0.0
 11
-40.2497252072
 21
12.8472969555
 31
0.0
 11
-40.2141907416
 21
12.8476676646
 31
0.0
 11
-40.144219356
 21
12.85606346
 31
0.0
 11
-40.0762437026
 21
12.8745906922
 31
0.0
 11
-40.0094748324
 21
12.9043030226
 31
0.0
 11
-39.9456142601
 21
12.9456174555
 31
0.0
 11
-39.888874055
 21
12.9964615082
 31
0.0
 11
-39.8423971737
 21
13.0534225076
 31
0.0
 11
-39.8063340732
 21
13.1148983576
 31
0.0
 11
-39.7796412047
 21
13.1814157913
 31
0.0
 11
-39.769940187
 21
13.2163738283
 31
0.0
 11
-39.7628094725
 21
13.2523535451
 31
0.0
 11
-39.7583975086
 21
13.2892449756
 31
0.0
 11
-39.7568830867
 21
13.3269009281
 31
0.0
  0
SPLINE
  5
67E
100
AcDbEntity
  8
INCISIONI
100
AcDbSpline
 62
253
  6
CONTINUOUS
 70
0
 71
3
 72
34
 73
30
 74
28
 42
0.0000001
 43
0.0000001
 44
0.0000000001
 12
-0.5633047497
 22
0.8180709917
 32
0.0
 13
0.2610553927
 23
0.9714075011
 33
0.0
 40
0.0
 40
0.0
 40
0.0
 40
0.0
 40
0.03125
 40
0.0625
 40
0.09375
 40
0.125
 40
0.15625
 40
0.1875
 40
0.25
 40
0.3125
 40
0.34375
 40
0.375
 40
0.40625
 40
0.4375
 40
0.46875
 40
0.5
 40
0.53125
 40
0.5625
 40
0.59375
 40
0.625
 40
0.65625
 40
0.6875
 40
0.71875
 40
0.75
 40
0.78125
 40
0.8125
 40
0.84375
 40
0.875
 40
1.0
 40
1.0
 40
1.0
 40
1.0
 10
-41.9369119308
 20
14.1263368177
 30
0.0
 10
-41.9427796886
 20
14.1348583905
 30
0.0
 10
-41.9552619745
 20
14.1515993321
 30
0.0
 10
-41.9763346265
 20
14.1752284549
 30
0.0
 10
-41.9998654143
 20
14.1967996108
 30
0.0
 10
-42.0257964964
 20
14.2155415948
 30
0.0
 10
-42.0532158413
 20
14.2307290932
 30
0.0
 10
-42.0903860611
 20
14.2474328934
 30
0.0
 10
-42.1365624764
 20
14.2637168663
 30
0.0
 10
-42.1827911488
 20
14.2786052768
 30
0.0
 10
-42.2194187457
 20
14.2917611112
 30
0.0
 10
-42.2463106535
 20
14.3026081334
 30
0.0
 10
-42.2721474441
 20
14.3150418255
 30
0.0
 10
-42.2964846567
 20
14.3292026953
 30
0.0
 10
-42.3191250854
 20
14.3451215508
 30
0.0
 10
-42.3400016936
 20
14.3629495222
 30
0.0
 10
-42.3587884294
 20
14.3831965652
 30
0.0
 10
-42.3747923841
 20
14.4058716904
 30
0.0
 10
-42.389360707
 20
14.4297928781
 30
0.0
 10
-42.4034201015
 20
14.454162486
 30
0.0
 10
-42.4160818083
 20
14.4793670191
 30
0.0
 10
-42.4267982287
 20
14.5055385233
 30
0.0
 10
-42.4360743315
 20
14.5322376557
 30
0.0
 10
-42.4441856206
 20
14.5590942793
 30
0.0
 10
-42.4506759725
 20
14.5863272269
 30
0.0
 10
-42.4552212493
 20
14.6142175884
 30
0.0
 10
-42.4581408497
 20
14.6425222383
 30
0.0
 10
-42.4611301606
 20
14.700040278
 30
0.0
 10
-42.4571155419
 20
14.7484293843
 30
0.0
 10
-42.4462382339
 20
14.7889046969
 30
0.0
 11
-41.9369119308
 21
14.1263368177
 31
0.0
 11
-41.9556535117
 21
14.1513522838
 31
0.0
 11
-41.9767443158
 21
14.1748854604
 31
0.0
 11
-42.0002654633
 21
14.1963280822
 31
0.0
 11
-42.0260445402
 21
14.2149491805
 31
0.0
 11
-42.0532922279
 21
14.2302858185
 31
0.0
 11
-42.0810744155
 21
14.2429505582
 31
0.0
 11
-42.1365729278
 21
14.2634377538
 31
0.0
 11
-42.1919184362
 21
14.2819979942
 31
0.0
 11
-42.2193222807
 21
14.2919244689
 31
0.0
 11
-42.2461348006
 21
14.3028725784
 31
0.0
 11
-42.2718975144
 21
14.3153296885
 31
0.0
 11
-42.2962018594
 21
14.3294956929
 31
0.0
 11
-42.3188311153
 21
14.3454397368
 31
0.0
 11
-42.3396533816
 21
14.3633527008
 31
0.0
 11
-42.3583246326
 21
14.3836012456
 31
0.0
 11
-42.3745531122
 21
14.4060793675
 31
0.0
 11
-42.3892758856
 21
14.4298676148
 31
0.0
 11
-42.4031871536
 21
14.4543016402
 31
0.0
 11
-42.4157575939
 21
14.4795281809
 31
0.0
 11
-42.4265581758
 21
14.5056264613
 31
0.0
 11
-42.4358801959
 21
14.5322639042
 31
0.0
 11
-42.4439154644
 21
14.5591569999
 31
0.0
 11
-42.4503517933
 21
14.5864367959
 31
0.0
 11
-42.4549503032
 21
14.6142866365
 31
0.0
 11
-42.4579033589
 21
14.6425979666
 31
0.0
 11
-42.4593752767
 21
14.6712995544
 31
0.0
 11
-42.4462382339
 21
14.7889046969
 31
0.0
  0
SPLINE
  5
67F
100
AcDbEntity
  8
INCISIONI
100
AcDbSpline
 62
253
  6
CONTINUOUS
 70
0
 71
3
 72
10
 73
6
 74
4
 42
0.0000001
 43
0.0000001
 44
0.0000000001
 12
0.1091206988
 22
-0.6105738555
 32
0.0
 13
0.5731299051
 23
-0.2735490443
 33
0.0
 40
0.0
 40
0.0
 40
0.0
 40
0.0
 40
0.3333333333
 40
0.6666666667
 40
1.0
 40
1.0
 40
1.0
 40
1.0
 10
-42.7548766732
 20
11.1786511397
 30
0.0
 10
-42.7427521512
 20
11.1108096002
 30
0.0
 10
-42.7199834701
 20
10.9781406467
 30
0.0
 10
-42.6420129588
 20
10.7730759175
 30
0.0
 10
-42.5451558536
 20
10.6786421759
 30
0.0
 10
-42.481474753
 20
10.6482478377
 30
0.0
 11
-42.7548766732
 21
11.1786511397
 31
0.0
 11
-42.7126805551
 21
10.9771304302
 31
0.0
 11
-42.6307937677
 21
10.783644937
 31
0.0
 11
-42.481474753
 21
10.6482478377
 31
0.0
  0
SPLINE
  5
680
100
AcDbEntity
  8
INCISIONI
100
AcDbSpline
 62
253
  6
CONTINUOUS
 70
0
 71
3
 72
22
 73
18
 74
16
 42
0.0000001
 43
0.0000001
 44
0.0000000001
 12
-1.0417219905
 22
0.2763896021
 32
0.0
 13
0.0
 23
-1.0251815544
 33
0.0
 40
0.0
 40
0.0
 40
0.0
 40
0.0
 40
0.0416666667
 40
0.0833333333
 40
0.125
 40
0.1666666667
 40
0.25
 40
0.3333333333
 40
0.5
 40
0.5833333333
 40
0.6666666667
 40
0.75
 40
0.8333333333
 40
0.875
 40
0.9166666667
 40
0.9583333333
 40
1.0
 40
1.0
 40
1.0
 40
1.0
 10
-42.0963454174
 20
12.8641979281
 30
0.0
 10
-42.1108137784
 20
12.8680366726
 30
0.0
 10
-42.1372509659
 20
12.8738196869
 30
0.0
 10
-42.1789029627
 20
12.879592812
 30
0.0
 10
-42.2196908505
 20
12.8819410603
 30
0.0
 10
-42.2735853241
 20
12.8809723958
 30
0.0
 10
-42.3394407712
 20
12.8721952116
 30
0.0
 10
-42.4393847816
 20
12.843519865
 30
0.0
 10
-42.5362227423
 20
12.789442268
 30
0.0
 10
-42.6176814345
 20
12.7140306023
 30
0.0
 10
-42.6669010653
 20
12.6516720635
 30
0.0
 10
-42.7046949935
 20
12.585277827
 30
0.0
 10
-42.7281815944
 20
12.5254647399
 30
0.0
 10
-42.7417246023
 20
12.4754700186
 30
0.0
 10
-42.7491869211
 20
12.4371101068
 30
0.0
 10
-42.7538060586
 20
12.3972854142
 30
0.0
 10
-42.7548765287
 20
12.3716485608
 30
0.0
 10
-42.7548765287
 20
12.3574099281
 30
0.0
 11
-42.0963454174
 21
12.8641979281
 31
0.0
 11
-42.1375836685
 21
12.8733361208
 31
0.0
 11
-42.1787589445
 21
12.8790219992
 31
0.0
 11
-42.2196296784
 21
12.8814286025
 31
0.0
 11
-42.2600108627
 21
12.8807101383
 31
0.0
 11
-42.3387626831
 21
12.8703662301
 31
0.0
 11
-42.4141399415
 21
12.8485718475
 31
0.0
 11
-42.5553058097
 21
12.7688115126
 31
0.0
 11
-42.6157023698
 21
12.7130639707
 31
0.0
 11
-42.6649967815
 21
12.6509994472
 31
0.0
 11
-42.7030933256
 21
12.5843809157
 31
0.0
 11
-42.731130157
 21
12.512787372
 31
0.0
 11
-42.7412754461
 21
12.4753260401
 31
0.0
 11
-42.7487130576
 21
12.4368659767
 31
0.0
 11
-42.7533038199
 21
12.3975136496
 31
0.0
 11
-42.7548765287
 21
12.3574099281
 31
0.0
  0
SPLINE
  5
681
100
AcDbEntity
  8
INCISIONI
100
AcDbSpline
 62
253
  6
CONTINUOUS
 70
0
 71
3
 72
46
 73
42
 74
40
 42
0.0000001
 43
0.0000001
 44
0.0000000001
 12
0.7637424163
 22
-0.3678117346
 32
0.0
 13
-1.1473807565
 23
0.2258050844
 33
0.0
 40
0.0
 40
0.0
 40
0.0
 40
0.0
 40
0.0336134454
 40
0.0672268908
 40
0.1008403361
 40
0.1344537815
 40
0.1680672269
 40
0.2016806723
 40
0.218487395
 40
0.2352941176
 40
0.2521008403
 40
0.268907563
 40
0.3025210084
 40
0.3361344538
 40
0.3529411765
 40
0.3697478992
 40
0.3865546218
 40
0.4033613445
 40
0.4369747899
 40
0.4705882353
 40
0.487394958
 40
0.5042016807
 40
0.5210084034
 40
0.5378151261
 40
0.5714285714
 40
0.6050420168
 40
0.6722689076
 40
0.7058823529
 40
0.7394957983
 40
0.7731092437
 40
0.8067226891
 40
0.8403361345
 40
0.8571428571
 40
0.8739495798
 40
0.8907563025
 40
0.9075630252
 40
0.9243697479
 40
0.9411764706
 40
0.9579831933
 40
0.974789916
 40
1.0
 40
1.0
 40
1.0
 40
1.0
 10
-40.2713256273
 20
11.4629525424
 30
0.0
 10
-40.2627682893
 20
11.4588314026
 30
0.0
 10
-40.2449818034
 20
11.4524538011
 30
0.0
 10
-40.217682936
 20
11.4463581267
 30
0.0
 10
-40.1911612214
 20
11.4416098729
 30
0.0
 10
-40.1655100203
 20
11.436284796
 30
0.0
 10
-40.1402764453
 20
11.4288751666
 30
0.0
 10
-40.1204956168
 20
11.4198426831
 30
0.0
 10
-40.1065086024
 20
11.4105763533
 30
0.0
 10
-40.0971422865
 20
11.4026284887
 30
0.0
 10
-40.0890255762
 20
11.3937319102
 30
0.0
 10
-40.0797711859
 20
11.3809678851
 30
0.0
 10
-40.0705493308
 20
11.362982603
 30
0.0
 10
-40.0649048748
 20
11.3426977571
 30
0.0
 10
-40.0631648442
 20
11.3259051737
 30
0.0
 10
-40.0634195112
 20
11.3133048714
 30
0.0
 10
-40.0652739393
 20
11.3009956681
 30
0.0
 10
-40.0694750802
 20
11.2852637873
 30
0.0
 10
-40.0775604406
 20
11.266218382
 30
0.0
 10
-40.0887727142
 20
11.2471831314
 30
0.0
 10
-40.0989131085
 20
11.2320381014
 30
0.0
 10
-40.1069045296
 20
11.2207079539
 30
0.0
 10
-40.1150376521
 20
11.2093805811
 30
0.0
 10
-40.125929549
 20
11.1944218973
 30
0.0
 10
-40.1401238946
 20
11.1757546036
 30
0.0
 10
-40.1651180718
 20
11.1462707441
 30
0.0
 10
-40.1945117416
 20
11.1190102044
 30
0.0
 10
-40.2280760589
 20
11.0951573984
 30
0.0
 10
-40.2555352217
 20
11.0791957095
 30
0.0
 10
-40.2852165867
 20
11.0657995875
 30
0.0
 10
-40.3167660296
 20
11.055469651
 30
0.0
 10
-40.3448007178
 20
11.0486992798
 30
0.0
 10
-40.3681574928
 20
11.0440290518
 30
0.0
 10
-40.3859961138
 20
11.0408075819
 30
0.0
 10
-40.4040658902
 20
11.037701548
 30
0.0
 10
-40.422260035
 20
11.034849495
 30
0.0
 10
-40.4405811977
 20
11.0325420015
 30
0.0
 10
-40.4589931962
 20
11.0310360033
 30
0.0
 10
-40.4776335296
 20
11.0306019152
 30
0.0
 10
-40.4997918893
 20
11.0316760499
 30
0.0
 10
-40.5158208011
 20
11.0338859206
 30
0.0
 10
-40.5254626562
 20
11.0357834423
 30
0.0
 11
-40.2713256273
 21
11.4629525424
 31
0.0
 11
-40.2448786136
 21
11.4530322557
 31
0.0
 11
-40.2178124614
 21
11.4465826968
 31
0.0
 11
-40.191306307
 21
11.4415137357
 31
0.0
 11
-40.1655796247
 21
11.4359373706
 31
0.0
 11
-40.1405258754
 21
11.4283036081
 31
0.0
 11
-40.1171520006
 21
11.4173560721
 31
0.0
 11
-40.1066959266
 21
11.4104100004
 31
0.0
 11
-40.0973505541
 21
11.4024703697
 31
0.0
 11
-40.0892215625
 21
11.3936191702
 31
0.0
 11
-40.0822411923
 21
11.3840235414
 31
0.0
 11
-40.0712648106
 21
11.3625226903
 31
0.0
 11
-40.0647011617
 21
11.3384525523
 31
0.0
 11
-40.0634247925
 21
11.3259041962
 31
0.0
 11
-40.0636861381
 21
11.3133533879
 31
0.0
 11
-40.0654900106
 21
11.3010807169
 31
0.0
 11
-40.0686137239
 21
11.2892380539
 31
0.0
 11
-40.0781858233
 21
11.2662204129
 31
0.0
 11
-40.0914053607
 21
11.2434038048
 31
0.0
 11
-40.0989774627
 21
11.2320428723
 31
0.0
 11
-40.1069281465
 21
11.2207084163
 31
0.0
 11
-40.1150436188
 21
11.209398641
 31
0.0
 11
-40.1232452064
 21
11.198163639
 31
0.0
 11
-40.1404092976
 21
11.1758025799
 31
0.0
 11
-40.1592361519
 21
11.1538269857
 31
0.0
 11
-40.2032503749
 21
11.1133309807
 31
0.0
 11
-40.2284570464
 21
11.0954787177
 31
0.0
 11
-40.2559055887
 21
11.079623304
 31
0.0
 11
-40.285527933
 21
11.0663106184
 31
0.0
 11
-40.3171147267
 21
11.0558372328
 31
0.0
 11
-40.3507173303
 21
11.0475938952
 31
0.0
 11
-40.3682109994
 21
11.0440759186
 31
0.0
 11
-40.3860346397
 21
11.0408268212
 31
0.0
 11
-40.4040866183
 21
11.0377438782
 31
0.0
 11
-40.4222812047
 21
11.0349402549
 31
0.0
 11
-40.440596337
 21
11.032675584
 31
0.0
 11
-40.459031252
 21
11.031214655
 31
0.0
 11
-40.4776922873
 21
11.0308277111
 31
0.0
 11
-40.4966586513
 21
11.0317534232
 31
0.0
 11
-40.5254626562
 21
11.0357834423
 31
0.0
  0
SPLINE
  5
682
100
AcDbEntity
  8
INCISIONI
100
AcDbSpline
 62
253
  6
CONTINUOUS
 70
0
 71
3
 72
17
 73
13
 74
11
 42
0.0000001
 43
0.0000001
 44
0.0000000001
 12
-0.9120943996
 22
0.4244215912
 32
0.0
 13
-0.0341383726
 23
0.8418543433
 33
0.0
 40
0.0
 40
0.0
 40
0.0
 40
0.0
 40
0.0625
 40
0.125
 40
0.1875
 40
0.25
 40
0.375
 40
0.5
 40
0.625
 40
0.75
 40
0.875
 40
1.0
 40
1.0
 40
1.0
 40
1.0
 10
-42.4367478983
 20
7.816515627
 30
0.0
 10
-42.4557498649
 20
7.8253577434
 30
0.0
 10
-42.4904469567
 20
7.8441585141
 30
0.0
 10
-42.5387019377
 20
7.8778120713
 30
0.0
 10
-42.5811387018
 20
7.915382107
 30
0.0
 10
-42.6302190877
 20
7.9701948585
 30
0.0
 10
-42.6772836096
 20
8.046925599
 30
0.0
 10
-42.714231054
 20
8.1464578091
 30
0.0
 10
-42.7353033383
 20
8.2451651191
 30
0.0
 10
-42.746494925
 20
8.3458761061
 30
0.0
 10
-42.7514710967
 20
8.4489773765
 30
0.0
 10
-42.7534542411
 20
8.5182605136
 30
0.0
 10
-42.7548766732
 20
8.5533377779
 30
0.0
 11
-42.4367478983
 21
7.816515627
 31
0.0
 11
-42.4898151806
 21
7.8450672476
 31
0.0
 11
-42.5377322349
 21
7.8784648177
 31
0.0
 11
-42.5802009561
 21
7.9159720283
 31
0.0
 11
-42.6169965939
 21
7.957039324
 31
0.0
 11
-42.6740286126
 21
8.0481681526
 31
0.0
 11
-42.711585194
 21
8.1463203257
 31
0.0
 11
-42.7336565553
 21
8.2454990653
 31
0.0
 11
-42.7454590225
 21
8.3462744866
 31
0.0
 11
-42.7511375208
 21
8.4491146157
 31
0.0
 11
-42.7548766732
 21
8.5533377779
 31
0.0
  0
SPLINE
  5
683
100
AcDbEntity
  8
INCISIONI
100
AcDbSpline
 62
253
  6
CONTINUOUS
 70
0
 71
3
 72
28
 73
24
 74
22
 42
0.0000001
 43
0.0000001
 44
0.0000000001
 12
-0.9606181593
 22
-0.0150291154
 32
0.0
 13
0.2051413354
 23
-1.2025933125
 33
0.0
 40
0.0
 40
0.0
 40
0.0
 40
0.0
 40
0.015625
 40
0.03125
 40
0.046875
 40
0.0625
 40
0.09375
 40
0.125
 40
0.15625
 40
0.1875
 40
0.25
 40
0.3125
 40
0.375
 40
0.4375
 40
0.5
 40
0.5625
 40
0.625
 40
0.6875
 40
0.75
 40
0.8125
 40
0.875
 40
0.9375
 40
1.0
 40
1.0
 40
1.0
 40
1.0
 10
-41.8245190159
 20
-5.746574098
 30
0.0
 10
-41.8295222355
 20
-5.7466523747
 30
0.0
 10
-41.8380636107
 20
-5.7469714619
 30
0.0
 10
-41.8519695087
 20
-5.7480021355
 30
0.0
 10
-41.8654826551
 20
-5.7495430179
 30
0.0
 10
-41.8834863003
 20
-5.7522652728
 30
0.0
 10
-41.9057004822
 20
-5.7568823912
 30
0.0
 10
-41.9319080451
 20
-5.7642987177
 30
0.0
 10
-41.9575773501
 20
-5.7735569404
 30
0.0
 10
-41.9910355035
 20
-5.7884071898
 30
0.0
 10
-42.0309234372
 20
-5.8115559167
 30
0.0
 10
-42.0759392501
 20
-5.8485380966
 30
0.0
 10
-42.1150750689
 20
-5.8962434292
 30
0.0
 10
-42.1461841383
 20
-5.9516846837
 30
0.0
 10
-42.1690103794
 20
-6.0109459093
 30
0.0
 10
-42.1849980666
 20
-6.0729937887
 30
0.0
 10
-42.1950839599
 20
-6.1385756302
 30
0.0
 10
-42.1994848935
 20
-6.2062930144
 30
0.0
 10
-42.1992000409
 20
-6.2750700843
 30
0.0
 10
-42.1957447278
 20
-6.3446122019
 30
0.0
 10
-42.1899784293
 20
-6.4157855227
 30
0.0
 10
-42.1815387684
 20
-6.4884789376
 30
0.0
 10
-42.1740940672
 20
-6.5376013164
 30
0.0
 10
-42.1698202894
 20
-6.5626553438
 30
0.0
 11
-41.8245190159
 21
-5.746574098
 31
0.0
 11
-41.8382459166
 21
-5.747063469
 31
0.0
 11
-41.8519040501
 21
-5.7480871703
 31
0.0
 11
-41.8654809197
 21
-5.749626486
 31
0.0
 11
-41.8789660307
 21
-5.7516656624
 31
0.0
 11
-41.9056255729
 21
-5.7571950219
 31
0.0
 11
-41.9318183355
 21
-5.7646057004
 31
0.0
 11
-41.9574814018
 21
-5.7738701844
 31
0.0
 11
-41.9825419813
 21
-5.7850003551
 31
0.0
 11
-42.0304484859
 21
-5.813089868
 31
0.0
 11
-42.0749592511
 21
-5.8503252887
 31
0.0
 11
-42.1137372773
 21
-5.8975327495
 31
0.0
 11
-42.1448036669
 21
-5.9523213456
 31
0.0
 11
-42.1678706204
 21
-6.0114103516
 31
0.0
 11
-42.1840144343
 21
-6.0735827824
 31
0.0
 11
-42.1941364666
 21
-6.138931554
 31
0.0
 11
-42.1987039291
 21
-6.2064696287
 31
0.0
 11
-42.1986716308
 21
-6.2751975923
 31
0.0
 11
-42.1953595635
 21
-6.3448840691
 31
0.0
 11
-42.1895328689
 21
-6.4160388717
 31
0.0
 11
-42.1810842033
 21
-6.4886439631
 31
0.0
 11
-42.1698202894
 21
-6.5626553438
 31
0.0
  0
SPLINE
  5
684
100
AcDbEntity
  8
INCISIONI
100
AcDbSpline
 62
253
  6
CONTINUOUS
 70
0
 71
3
 72
15
 73
11
 74
9
 42
0.0000001
 43
0.0000001
 44
0.0000000001
 12
-0.0154588781
 22
0.692325216
 32
0.0
 13
-0.8801135644
 23
-0.0135845588
 33
0.0
 40
0.0
 40
0.0
 40
0.0
 40
0.0
 40
0.1666666667
 40
0.3333333333
 40
0.5
 40
0.6666666667
 40
0.75
 40
0.8333333333
 40
0.9166666667
 40
1.0
 40
1.0
 40
1.0
 40
1.0
 10
-41.3740513866
 20
-6.2167487477
 30
0.0
 10
-41.3749102132
 20
-6.1782862357
 30
0.0
 10
-41.3808690594
 20
-6.1022204142
 30
0.0
 10
-41.410103998
 20
-5.9853442106
 30
0.0
 10
-41.4680375234
 20
-5.8821010002
 30
0.0
 10
-41.5467801226
 20
-5.8190132353
 30
0.0
 10
-41.6231170231
 20
-5.7822305043
 30
0.0
 10
-41.6859890636
 20
-5.7617403424
 30
0.0
 10
-41.7536226872
 20
-5.7489689075
 30
0.0
 10
-41.8000714169
 20
-5.7461967492
 30
0.0
 10
-41.8245190159
 20
-5.746574098
 30
0.0
 11
-41.3740513866
 21
-6.2167487477
 31
0.0
 11
-41.3842518376
 21
-6.1017575023
 31
0.0
 11
-41.4148870958
 21
-5.9876163762
 31
0.0
 11
-41.4741304557
 21
-5.886690649
 31
0.0
 11
-41.5669762495
 21
-5.810958176
 31
0.0
 11
-41.624053584
 21
-5.7834133187
 31
0.0
 11
-41.6867826608
 21
-5.7630267969
 31
0.0
 11
-41.753962599
 21
-5.7504044404
 31
0.0
 11
-41.8245190159
 21
-5.746574098
 31
0.0
  0
SPLINE
  5
685
100
AcDbEntity
  8
INCISIONI
100
AcDbSpline
 62
253
  6
CONTINUOUS
 70
0
 71
3
 72
31
 73
27
 74
25
 42
0.0000001
 43
0.0000001
 44
0.0000000001
 12
0.8299414916
 22
2.3012785283
 32
0.0
 13
0.1728170012
 23
-1.3397398259
 33
0.0
 40
0.0
 40
0.0
 40
0.0
 40
0.0
 40
0.0357142857
 40
0.0714285714
 40
0.1071428571
 40
0.1428571429
 40
0.2142857143
 40
0.25
 40
0.2857142857
 40
0.3214285714
 40
0.3571428571
 40
0.4285714286
 40
0.5
 40
0.5357142857
 40
0.5714285714
 40
0.6071428571
 40
0.6428571429
 40
0.7142857143
 40
0.75
 40
0.7857142857
 40
0.8214285714
 40
0.8571428571
 40
0.8928571429
 40
0.9285714286
 40
0.9642857143
 40
1.0
 40
1.0
 40
1.0
 40
1.0
 10
-42.5992676901
 20
-5.6517041911
 30
0.0
 10
-42.5893874342
 20
-5.6243080182
 30
0.0
 10
-42.5666269678
 20
-5.5744607142
 30
0.0
 10
-42.5223774282
 20
-5.5042679279
 30
0.0
 10
-42.4712488034
 20
-5.4415252846
 30
0.0
 10
-42.3962275959
 20
-5.3668540189
 30
0.0
 10
-42.3101211205
 20
-5.3029799215
 30
0.0
 10
-42.2169841988
 20
-5.2539371753
 30
0.0
 10
-42.1469631845
 20
-5.2259017853
 30
0.0
 10
-42.0775409838
 20
-5.2053616997
 30
0.0
 10
-41.9838848674
 20
-5.186071844
 30
0.0
 10
-41.8685793276
 20
-5.1760255037
 30
0.0
 10
-41.7603255935
 20
-5.1809146156
 30
0.0
 10
-41.6776575156
 20
-5.1934083853
 30
0.0
 10
-41.6182619958
 20
-5.2069685011
 30
0.0
 10
-41.5612264554
 20
-5.22482409
 30
0.0
 10
-41.4884716366
 20
-5.2545457574
 30
0.0
 10
-41.421473299
 20
-5.2911161321
 30
0.0
 10
-41.3601387532
 20
-5.3304065291
 30
0.0
 10
-41.3157060108
 20
-5.3610214506
 30
0.0
 10
-41.2729888458
 20
-5.3924230397
 30
0.0
 10
-41.2333027984
 20
-5.4254735093
 30
0.0
 10
-41.1976956726
 20
-5.4610011624
 30
0.0
 10
-41.1676439582
 20
-5.4997777226
 30
0.0
 10
-41.1451615282
 20
-5.5428578199
 30
0.0
 10
-41.1371911179
 20
-5.5733490783
 30
0.0
 10
-41.1351337727
 20
-5.589298362
 30
0.0
 11
-42.5992676901
 21
-5.6517041911
 31
0.0
 11
-42.5649421612
 21
-5.5752237425
 31
0.0
 11
-42.521230914
 21
-5.5055096184
 31
0.0
 11
-42.4703925899
 21
-5.4426484836
 31
0.0
 11
-42.4140591254
 21
-5.3864215993
 31
0.0
 11
-42.2862510196
 21
-5.2919551809
 31
0.0
 11
-42.216956145
 21
-5.2553949536
 31
0.0
 11
-42.1470629868
 21
-5.2271510027
 31
0.0
 11
-42.0774043361
 21
-5.2063738154
 31
0.0
 11
-42.0074165369
 21
-5.1918320399
 31
0.0
 11
-41.8699896887
 21
-5.1790125941
 31
0.0
 11
-41.7399864831
 21
-5.1847532647
 31
0.0
 11
-41.678091772
 21
-5.1941066834
 31
0.0
 11
-41.6186553257
 21
-5.2076844133
 31
0.0
 11
-41.5616380265
 21
-5.225563367
 31
0.0
 11
-41.5071400481
 21
-5.2476860662
 31
0.0
 11
-41.4066116452
 21
-5.3011653999
 31
0.0
 11
-41.3604001144
 21
-5.3305977164
 31
0.0
 11
-41.3159919403
 21
-5.3611525619
 31
0.0
 11
-41.2734940321
 21
-5.3926978531
 31
0.0
 11
-41.2339826187
 21
-5.4258863732
 31
0.0
 11
-41.1986215745
 21
-5.461542647
 31
0.0
 11
-41.1689055056
 21
-5.5004949788
 31
0.0
 11
-41.1469159973
 21
-5.5433006183
 31
0.0
 11
-41.1351337727
 21
-5.589298362
 31
0.0
  0
SPLINE
  5
686
100
AcDbEntity
  8
INCISIONI
100
AcDbSpline
 62
253
  6
CONTINUOUS
 70
0
 71
3
 72
14
 73
10
 74
8
 42
0.0000001
 43
0.0000001
 44
0.0000000001
 12
-0.2448939432
 22
1.665127149
 32
0.0
 13
0.4600510604
 23
1.2737900873
 33
0.0
 40
0.0
 40
0.0
 40
0.0
 40
0.0
 40
0.3333333333
 40
0.5
 40
0.6666666667
 40
0.75
 40
0.8333333333
 40
0.9166666667
 40
1.0
 40
1.0
 40
1.0
 40
1.0
 10
-42.6297872361
 20
-7.1454214163
 30
0.0
 10
-42.6569976742
 20
-6.9604072886
 30
0.0
 10
-42.6920873333
 20
-6.6939512547
 30
0.0
 10
-42.7065845362
 20
-6.3502645773
 30
0.0
 10
-42.6984075744
 20
-6.1444705375
 30
0.0
 10
-42.6801759932
 20
-5.9865925196
 30
0.0
 10
-42.6603278258
 20
-5.8712849597
 30
0.0
 10
-42.6341946202
 20
-5.7590591076
 30
0.0
 10
-42.6120468862
 20
-5.6870872491
 30
0.0
 10
-42.5992676901
 20
-5.6517041911
 30
0.0
 11
-42.6297872361
 21
-7.1454214163
 31
0.0
 11
-42.6930208833
 21
-6.6089952549
 31
0.0
 11
-42.7031369935
 21
-6.352066604
 31
0.0
 11
-42.6928755114
 21
-6.1055641342
 31
0.0
 11
-42.6791469129
 21
-5.9871093452
 31
0.0
 11
-42.6592803194
 21
-5.8717985777
 31
0.0
 11
-42.633013221
 21
-5.7597704517
 31
0.0
 11
-42.5992676901
 21
-5.6517041911
 31
0.0
  0
SPLINE
  5
687
100
AcDbEntity
  8
INCISIONI
100
AcDbSpline
 62
253
  6
CONTINUOUS
 70
0
 71
3
 72
18
 73
14
 74
12
 42
0.0000001
 43
0.0000001
 44
0.0000000001
 12
-0.5293121603
 22
-0.1987049536
 32
0.0
 13
0.0
 23
-0.3843141402
 33
0.0
 40
0.0
 40
0.0
 40
0.0
 40
0.0
 40
0.125
 40
0.25
 40
0.375
 40
0.5
 40
0.625
 40
0.6875
 40
0.75
 40
0.8125
 40
0.875
 40
0.9375
 40
1.0
 40
1.0
 40
1.0
 40
1.0
 10
-40.6438864651
 20
-5.8803661074
 30
0.0
 10
-40.6659411385
 20
-5.8886454805
 30
0.0
 10
-40.7058451034
 20
-5.9082744541
 30
0.0
 10
-40.7588962139
 20
-5.9451510066
 30
0.0
 10
-40.8034959957
 20
-5.9864919253
 30
0.0
 10
-40.8399316326
 20
-6.0309020095
 30
0.0
 10
-40.8629770028
 20
-6.0688885828
 30
0.0
 10
-40.8772832581
 20
-6.099824729
 30
0.0
 10
-40.8859081089
 20
-6.1232660932
 30
0.0
 10
-40.8923986241
 20
-6.146894912
 30
0.0
 10
-40.8966421233
 20
-6.1706009176
 30
0.0
 10
-40.89887783
 20
-6.1944126229
 30
0.0
 10
-40.8993028934
 20
-6.2100468546
 30
0.0
 10
-40.8993028934
 20
-6.2180533992
 30
0.0
 11
-40.6438864651
 21
-5.8803661074
 31
0.0
 11
-40.7047109639
 21
-5.9095133028
 31
0.0
 11
-40.7574876591
 21
-5.9458950676
 31
0.0
 11
-40.8021353049
 21
-5.9870034528
 31
0.0
 11
-40.8384681005
 21
-6.0310976434
 31
0.0
 11
-40.8662093966
 21
-6.0766681933
 31
0.0
 11
-40.8769324513
 21
-6.0998646048
 31
0.0
 11
-40.8855523863
 21
-6.1232973356
 31
0.0
 11
-40.8920241214
 21
-6.1469077765
 31
0.0
 11
-40.8963074912
 21
-6.1706185342
 31
0.0
 11
-40.8986114781
 21
-6.1943525633
 31
0.0
 11
-40.8993028934
 21
-6.2180533992
 31
0.0
  0
SPLINE
  5
688
100
AcDbEntity
  8
INCISIONI
100
AcDbSpline
 62
253
  6
CONTINUOUS
 70
0
 71
3
 72
13
 73
9
 74
7
 42
0.0000001
 43
0.0000001
 44
0.0000000001
 12
-0.8394288787
 22
-0.2414127043
 32
0.0
 13
-0.9019393107
 23
-0.3389493446
 33
0.0
 40
0.0
 40
0.0
 40
0.0
 40
0.0
 40
0.125
 40
0.25
 40
0.375
 40
0.5
 40
0.75
 40
1.0
 40
1.0
 40
1.0
 40
1.0
 10
-39.764884413
 20
-5.6156958103
 30
0.0
 10
-39.7998606163
 20
-5.6257546729
 30
0.0
 10
-39.8700572804
 20
-5.6463018489
 30
0.0
 10
-39.9771263455
 20
-5.6765941838
 30
0.0
 10
-40.0857011047
 20
-5.7066938861
 30
0.0
 10
-40.2322299968
 20
-5.7475256917
 30
0.0
 10
-40.4182230253
 20
-5.8015613061
 30
0.0
 10
-40.5687248559
 20
-5.8521203287
 30
0.0
 10
-40.6438864651
 20
-5.8803661074
 30
0.0
 11
-39.764884413
 21
-5.6156958103
 31
0.0
 11
-39.8703529585
 21
-5.6462137774
 31
0.0
 11
-39.9773772945
 21
-5.6765620784
 31
0.0
 11
-40.085921423
 21
-5.7067812448
 31
0.0
 11
-40.195786568
 21
-5.7375174641
 31
0.0
 11
-40.4186498773
 21
-5.8033939388
 31
0.0
 11
-40.6438864651
 21
-5.8803661074
 31
0.0
  0
SPLINE
  5
689
100
AcDbEntity
  8
INCISIONI
100
AcDbSpline
 62
253
  6
CONTINUOUS
 70
0
 71
3
 72
9
 73
5
 74
3
 42
0.0000001
 43
0.0000001
 44
0.0000000001
 12
0.8049980536
 22
0.2193842828
 32
0.0
 13
0.7608708374
 23
0.2067133264
 33
0.0
 40
0.0
 40
0.0
 40
0.0
 40
0.0
 40
0.5
 40
1.0
 40
1.0
 40
1.0
 40
1.0
 10
-40.5494584681
 20
-5.2404128117
 30
0.0
 10
-40.4152921259
 20
-5.2038487645
 30
0.0
 10
-40.1500085705
 20
-5.1341087386
 30
0.0
 10
-39.8916962193
 20
-5.0679473078
 30
0.0
 10
-39.764884413
 20
-5.0334950867
 30
0.0
 11
-40.5494584681
 21
-5.2404128117
 31
0.0
 11
-40.1517513715
 21
-5.1350033874
 31
0.0
 11
-39.764884413
 21
-5.0334950867
 31
0.0
  0
SPLINE
  5
68A
100
AcDbEntity
  8
INCISIONI
100
AcDbSpline
 62
253
  6
CONTINUOUS
 70
0
 71
3
 72
16
 73
12
 74
10
 42
0.0000001
 43
0.0000001
 44
0.0000000001
 12
0.2056833414
 22
0.5159774517
 32
0.0
 13
0.7592033267
 23
0.2068928681
 33
0.0
 40
0.0
 40
0.0
 40
0.0
 40
0.0
 40
0.1
 40
0.2
 40
0.3
 40
0.4
 40
0.5
 40
0.6
 40
0.7
 40
0.8
 40
1.0
 40
1.0
 40
1.0
 40
1.0
 10
-41.1180045688
 20
-5.589298362
 30
0.0
 10
-41.1111484574
 20
-5.5720991136
 30
0.0
 10
-41.0945866125
 20
-5.5388277455
 30
0.0
 10
-41.0609449953
 20
-5.4919419002
 30
0.0
 10
-41.0178573877
 20
-5.4477718173
 30
0.0
 10
-40.9664319763
 20
-5.4075082256
 30
0.0
 10
-40.9084256068
 20
-5.3716105825
 30
0.0
 10
-40.8441659879
 20
-5.3393358295
 30
0.0
 10
-40.7735789581
 20
-5.3100315438
 30
0.0
 10
-40.6743418735
 20
-5.2752773533
 30
0.0
 10
-40.6000720232
 20
-5.2542056695
 30
0.0
 10
-40.5494584681
 20
-5.2404128117
 30
0.0
 11
-41.1180045688
 21
-5.589298362
 31
0.0
 11
-41.0931201375
 21
-5.53933128
 31
0.0
 11
-41.0593706635
 21
-5.4923945273
 31
0.0
 11
-41.0164677537
 21
-5.4484228992
 31
0.0
 11
-40.9653351499
 21
-5.4082358837
 31
0.0
 11
-40.9073833986
 21
-5.3722143975
 31
0.0
 11
-40.8431114194
 21
-5.3398309074
 31
0.0
 11
-40.7729388275
 21
-5.3105713176
 31
0.0
 11
-40.6991686961
 21
-5.2845207853
 31
0.0
 11
-40.5494584681
 21
-5.2404128117
 31
0.0
  0
SPLINE
  5
68B
100
AcDbEntity
  8
INCISIONI
100
AcDbSpline
 62
253
  6
CONTINUOUS
 70
0
 71
3
 72
32
 73
28
 74
26
 42
0.0000001
 43
0.0000001
 44
0.0000000001
 12
0.0
 22
2.2360574236
 32
0.0
 13
0.0
 23
-2.1053099726
 33
0.0
 40
0.0
 40
0.0
 40
0.0
 40
0.0
 40
0.0125
 40
0.025
 40
0.0375
 40
0.05
 40
0.075
 40
0.1
 40
0.15
 40
0.2
 40
0.25
 40
0.3
 40
0.35
 40
0.4
 40
0.5
 40
0.55
 40
0.6
 40
0.65
 40
0.7
 40
0.75
 40
0.8
 40
0.85
 40
0.9
 40
0.925
 40
0.95
 40
0.975
 40
1.0
 40
1.0
 40
1.0
 40
1.0
 10
-26.5996479402
 20
13.8596779281
 30
0.0
 10
-26.5996479402
 20
13.868994834
 30
0.0
 10
-26.5992809043
 20
13.8856789778
 30
0.0
 10
-26.5976665085
 20
13.911982502
 30
0.0
 10
-26.5950238601
 20
13.9376125013
 30
0.0
 10
-26.5901739758
 20
13.9715322061
 30
0.0
 10
-26.5817000862
 20
14.0130870577
 30
0.0
 10
-26.5632952776
 20
14.0776735877
 30
0.0
 10
-26.5314625025
 20
14.1546807397
 30
0.0
 10
-26.4804675471
 20
14.2394060363
 30
0.0
 10
-26.4138893669
 20
14.3184671976
 30
0.0
 10
-26.3315118865
 20
14.3890095714
 30
0.0
 10
-26.2380221998
 20
14.445184588
 30
0.0
 10
-26.1098029984
 20
14.4962247066
 30
0.0
 10
-25.9691552755
 20
14.5157539854
 30
0.0
 10
-25.826220361
 20
14.5003905858
 30
0.0
 10
-25.7275994297
 20
14.4730502226
 30
0.0
 10
-25.6351805845
 20
14.430927079
 30
0.0
 10
-25.5473005902
 20
14.3727622101
 30
0.0
 10
-25.4705057579
 20
14.3018884445
 30
0.0
 10
-25.4089065989
 20
14.2236536895
 30
0.0
 10
-25.3620652151
 20
14.1408952047
 30
0.0
 10
-25.3331157929
 20
14.0667329216
 30
0.0
 10
-25.3164896042
 20
14.0049708862
 30
0.0
 10
-25.3073494277
 20
13.9576898411
 30
0.0
 10
-25.3017036227
 20
13.9086503937
 30
0.0
 10
-25.3003977948
 20
13.8772221779
 30
0.0
 10
-25.3003977948
 20
13.8596779281
 30
0.0
 11
-26.5996479402
 21
13.8596779281
 31
0.0
 11
-26.5991035973
 21
13.8858918626
 31
0.0
 11
-26.597495133
 21
13.9118702479
 31
0.0
 11
-26.5948580659
 21
13.9375807978
 31
0.0
 11
-26.5912256779
 21
13.9629959613
 31
0.0
 11
-26.581094263
 21
14.0128494036
 31
0.0
 11
-26.5673080288
 21
14.0612785545
 31
0.0
 11
-26.5293298982
 21
14.1534001921
 31
0.0
 11
-26.4778703429
 21
14.2384620137
 31
0.0
 11
-26.4112561502
 21
14.3170473997
 31
0.0
 11
-26.3296598521
 21
14.3866150119
 31
0.0
 11
-26.2375764141
 21
14.4422021001
 31
0.0
 11
-26.1408220886
 21
14.4808387736
 31
0.0
 11
-25.9332309475
 21
14.5090054123
 31
0.0
 11
-25.8276504034
 21
14.4977542835
 31
0.0
 11
-25.7286331107
 21
14.4705864258
 31
0.0
 11
-25.6359370597
 21
14.4282534581
 31
0.0
 11
-25.5491481172
 21
14.3706440607
 31
0.0
 11
-25.4730383701
 21
14.3006616129
 31
0.0
 11
-25.4113662281
 21
14.2228997345
 31
0.0
 11
-25.364082228
 21
14.1398558289
 31
0.0
 11
-25.3295036915
 21
14.0510897287
 31
0.0
 11
-25.3170445151
 21
14.0048109665
 31
0.0
 11
-25.307931823
 21
13.957396774
 31
0.0
 11
-25.3023181332
 21
13.908966581
 31
0.0
 11
-25.3003977948
 21
13.8596779281
 31
0.0
  0
SPLINE
  5
68C
100
AcDbEntity
  8
INCISIONI
100
AcDbSpline
 62
253
  6
CONTINUOUS
 70
0
 71
3
 72
23
 73
19
 74
17
 42
0.0000001
 43
0.0000001
 44
0.0000000001
 12
-0.2983957313
 22
-7.6053220289
 32
0.0
 13
0.2974827273
 23
7.5502776668
 33
0.0
 40
0.0
 40
0.0
 40
0.0
 40
0.0
 40
0.0789473684
 40
0.1578947368
 40
0.2368421053
 40
0.3157894737
 40
0.3947368421
 40
0.4342105263
 40
0.4736842105
 40
0.5131578947
 40
0.5526315789
 40
0.5921052632
 40
0.6315789474
 40
0.7105263158
 40
0.7894736842
 40
0.8684210526
 40
0.9473684211
 40
1.0
 40
1.0
 40
1.0
 40
1.0
 10
-34.6545147891
 20
15.7161489281
 30
0.0
 10
-34.6623673083
 20
15.5160088747
 30
0.0
 10
-34.6310524719
 20
15.1245518727
 30
0.0
 10
-34.4512168916
 20
14.5545298748
 30
0.0
 10
-34.1353018221
 20
14.0303958727
 30
0.0
 10
-33.6759402685
 20
13.5684423665
 30
0.0
 10
-33.1783488763
 20
13.2834357362
 30
0.0
 10
-32.7530864974
 20
13.1416307668
 30
0.0
 10
-32.4227371223
 20
13.0786213755
 30
0.0
 10
-32.0950541008
 20
13.0596708331
 30
0.0
 10
-31.7676434788
 20
13.0816422833
 30
0.0
 10
-31.4348063501
 20
13.1485840669
 30
0.0
 10
-31.0084879787
 20
13.2963249621
 30
0.0
 10
-30.5212558223
 20
13.5835156314
 30
0.0
 10
-30.0765788926
 20
14.0357571943
 30
0.0
 10
-29.7651768918
 20
14.5511262897
 30
0.0
 10
-29.6041787342
 20
15.0573855757
 30
0.0
 10
-29.5651957403
 20
15.3833793596
 30
0.0
 10
-29.5599767451
 20
15.5158403713
 30
0.0
 11
-34.6545147891
 21
15.7161489281
 31
0.0
 11
-34.6089085843
 21
15.1274124569
 31
0.0
 11
-34.4285369768
 21
14.5621778741
 31
0.0
 11
-34.1113940748
 21
14.0407592887
 31
0.0
 11
-33.652982249
 21
13.5884332915
 31
0.0
 11
-33.0697675095
 21
13.2551678551
 31
0.0
 11
-32.7511860656
 21
13.1488548227
 31
0.0
 11
-32.4231815146
 21
13.085964517
 31
0.0
 11
-32.0950995007
 21
13.0664911652
 31
0.0
 11
-31.766739061
 21
13.0891373388
 31
0.0
 11
-31.4369894085
 21
13.1558947148
 31
0.0
 11
-31.1181119588
 21
13.2662240416
 31
0.0
 11
-30.544589432
 21
13.6014510913
 31
0.0
 11
-30.0987913808
 21
14.0462784497
 31
0.0
 11
-29.7868900707
 21
14.5601550566
 31
0.0
 11
-29.6062446722
 21
15.1241174093
 31
0.0
 11
-29.5599767451
 21
15.5158403713
 31
0.0
  0
SPLINE
  5
68D
100
AcDbEntity
  8
INCISIONI
100
AcDbSpline
 62
253
  6
CONTINUOUS
 70
0
 71
3
 72
13
 73
9
 74
7
 42
0.0000001
 43
0.0000001
 44
0.0000000001
 12
-2.6685564358
 22
0.5685943315
 32
0.0
 13
0.1458187978
 23
2.6214830661
 33
0.0
 40
0.0
 40
0.0
 40
0.0
 40
0.0
 40
0.1666666667
 40
0.3333333333
 40
0.5
 40
0.6666666667
 40
0.8333333333
 40
1.0
 40
1.0
 40
1.0
 40
1.0
 10
-32.4821393444
 20
13.8556417474
 30
0.0
 10
-32.6303924797
 20
13.8872303214
 30
0.0
 10
-32.8961114476
 20
13.9813432538
 30
0.0
 10
-33.2531551864
 20
14.2058528862
 30
0.0
 10
-33.5588616659
 20
14.5229132074
 30
0.0
 10
-33.7776864914
 20
14.902519891
 30
0.0
 10
-33.8932001676
 20
15.2991788565
 30
0.0
 10
-33.9120275221
 20
15.57050798
 30
0.0
 10
-33.9039264778
 20
15.7161459281
 30
0.0
 11
-32.4821393444
 21
13.8556417474
 31
0.0
 11
-32.8891889954
 21
13.9952332927
 31
0.0
 11
-33.2445989765
 21
14.221278001
 31
0.0
 11
-33.5443813902
 21
14.5333376011
 31
0.0
 11
-33.7604679665
 21
14.905361938
 31
0.0
 11
-33.8786547269
 21
15.3009013098
 31
0.0
 11
-33.9039264778
 21
15.7161459281
 31
0.0
  0
SPLINE
  5
68E
100
AcDbEntity
  8
INCISIONI
100
AcDbSpline
 62
253
  6
CONTINUOUS
 70
0
 71
3
 72
10
 73
6
 74
4
 42
0.0000001
 43
0.0000001
 44
0.0000000001
 12
-0.0867766959
 22
0.0170776955
 32
0.0
 13
-0.0807732229
 23
0.0512696427
 33
0.0
 40
0.0
 40
0.0
 40
0.0
 40
0.0
 40
0.1111111111
 40
0.5555555556
 40
1.0
 40
1.0
 40
1.0
 40
1.0
 10
-40.5254626562
 20
11.0357834423
 30
0.0
 10
-40.5286766079
 20
11.0364159495
 30
0.0
 10
-40.5447599819
 20
11.0398960409
 30
0.0
 10
-40.5737525349
 20
11.0491052886
 30
0.0
 10
-40.5979919432
 20
11.0614422872
 30
0.0
 10
-40.6099583466
 20
11.0690377898
 30
0.0
 11
-40.5254626562
 21
11.0357834423
 31
0.0
 11
-40.5351109015
 21
11.0378734324
 31
0.0
 11
-40.5733695974
 21
11.0501430388
 31
0.0
 11
-40.6099583466
 21
11.0690377898
 31
0.0
  0
ELLIPSE
  5
68F
100
AcDbEntity
  8
RACCORDO
100
AcDbEllipse
 62
7
  6
CONTINUOUS
 10
8.6270299447
 20
-24.0338540719
 30
0.0
 11
0.250038082
 21
0.0
 31
0.0
 40
0.9998476952
 41
3.1415926536
 42
4.7123889804
  0
ELLIPSE
  5
690
100
AcDbEntity
  8
RACCORDO
100
AcDbEllipse
 62
7
  6
CONTINUOUS
 10
8.6270299447
 20
23.4661459281
 30
0.0
 11
0.250038082
 21
-0.0
 31
0.0
 40
0.9998476952
 41
1.5707963268
 42
3.1415926536
  0
ELLIPSE
  5
691
100
AcDbEntity
  8
RACCORDO
100
AcDbEllipse
 62
7
  6
CONTINUOUS
 10
10.1269537806
 20
23.4661459281
 30
0.0
 11
0.250038082
 21
0.0
 31
0.0
 40
0.9998476952
 41
-0.0
 42
1.5707963268
  0
ELLIPSE
  5
692
100
AcDbEntity
  8
RACCORDO
100
AcDbEllipse
 62
7
  6
CONTINUOUS
 10
10.1269537806
 20
-24.0338540719
 30
0.0
 11
0.250038082
 21
0.0
 31
0.0
 40
0.9998476952
 41
-1.5707963268
 42
-0.0
  0
ELLIPSE
  5
693
100
AcDbEntity
  8
RACCORDO
100
AcDbEllipse
 62
7
  6
CONTINUOUS
 10
81.4270299447
 20
-24.0338540719
 30
0.0
 11
0.250038082
 21
0.0
 31
0.0
 40
0.9998476952
 41
3.1415926536
 42
4.7123889804
  0
ELLIPSE
  5
694
100
AcDbEntity
  8
RACCORDO
100
AcDbEllipse
 62
7
  6
CONTINUOUS
 10
81.4270299447
 20
23.4661459281
 30
0.0
 11
0.250038082
 21
-0.0
 31
0.0
 40
0.9998476952
 41
1.5707963268
 42
3.1415926536
  0
ELLIPSE
  5
695
100
AcDbEntity
  8
RACCORDO
100
AcDbEllipse
 62
7
  6
CONTINUOUS
 10
82.9269537806
 20
23.4661459281
 30
0.0
 11
0.250038082
 21
-0.0
 31
0.0
 40
0.9998476952
 41
0.0
 42
1.5707963268
  0
ELLIPSE
  5
696
100
AcDbEntity
  8
RACCORDO
100
AcDbEllipse
 62
7
  6
CONTINUOUS
 10
82.9269537806
 20
-24.0338540719
 30
0.0
 11
0.250038082
 21
-0.0
 31
0.0
 40
0.9998476952
 41
-1.5707963268
 42
0.0
  0
ELLIPSE
  5
697
100
AcDbEntity
  8
RACCORDO
100
AcDbEllipse
 62
7
  6
CONTINUOUS
 10
82.1769918627
 20
-22.7483211486
 30
0.0
 11
0.9643201836
 21
0.0
 31
0.0
 40
0.0174550649
 41
0.7539459478
 42
3.1241393611
  0
ELLIPSE
  5
698
100
AcDbEntity
  8
RACCORDO
100
AcDbEllipse
 62
7
  6
CONTINUOUS
 10
59.3769918627
 20
-22.7489439421
 30
0.0
 11
1.0
 21
0.0
 31
0.0
 40
0.0174550649
 41
0.0
 42
3.1415926536
  0
ELLIPSE
  5
699
100
AcDbEntity
  8
RACCORDO
100
AcDbEllipse
 62
7
  6
CONTINUOUS
 10
32.1769918627
 20
-22.7489439421
 30
0.0
 11
1.0
 21
0.0
 31
0.0
 40
0.0174550649
 41
0.0
 42
3.1415926536
  0
ELLIPSE
  5
69A
100
AcDbEntity
  8
RACCORDO
100
AcDbEllipse
 62
7
  6
CONTINUOUS
 10
9.3769918627
 20
-22.7483211486
 30
0.0
 11
0.9643201836
 21
0.0
 31
0.0
 40
0.0174550649
 41
0.0174532925
 42
2.3876467058
  0
ELLIPSE
  5
69B
100
AcDbEntity
  8
RACCORDO
100
AcDbEllipse
 62
7
  6
CONTINUOUS
 10
9.3769918627
 20
22.1806130047
 30
0.0
 11
0.9643201836
 21
-0.0
 31
0.0
 40
0.0174550649
 41
-2.3876467058
 42
-0.0174532925
  0
ELLIPSE
  5
69C
100
AcDbEntity
  8
RACCORDO
100
AcDbEllipse
 62
7
  6
CONTINUOUS
 10
32.1769918627
 20
22.1812357982
 30
0.0
 11
1.0
 21
0.0
 31
0.0
 40
0.0174550649
 41
3.1415926536
 42
6.2831853072
  0
ELLIPSE
  5
69D
100
AcDbEntity
  8
RACCORDO
100
AcDbEllipse
 62
7
  6
CONTINUOUS
 10
59.3769918627
 20
22.1812357982
 30
0.0
 11
1.0
 21
-0.0
 31
0.0
 40
0.0174550649
 41
3.1415926536
 42
6.2831853072
  0
ELLIPSE
  5
69E
100
AcDbEntity
  8
RACCORDO
100
AcDbEllipse
 62
7
  6
CONTINUOUS
 10
82.1769918627
 20
22.1806130047
 30
0.0
 11
0.9643201836
 21
0.0
 31
0.0
 40
0.0174550649
 41
-3.1241393611
 42
-0.7539459478
  0
ELLIPSE
  5
69F
100
AcDbEntity
  8
RACCORDO
100
AcDbEllipse
 62
7
  6
CONTINUOUS
 10
77.2270299447
 20
-23.2838540719
 30
0.0
 11
0.250038082
 21
-0.0
 31
0.0
 40
0.9998476952
 41
-3.1415926536
 42
-1.5707963268
  0
ELLIPSE
  5
6A0
100
AcDbEntity
  8
RACCORDO
100
AcDbEllipse
 62
7
  6
CONTINUOUS
 10
64.3269537806
 20
22.7161459281
 30
0.0
 11
0.250038082
 21
-0.0
 31
0.0
 40
0.9998476952
 41
0.0
 42
1.5707963268
  0
ELLIPSE
  5
6A1
100
AcDbEntity
  8
RACCORDO
100
AcDbEllipse
 62
7
  6
CONTINUOUS
 10
14.3269537806
 20
22.7161459281
 30
0.0
 11
0.250038082
 21
-0.0
 31
0.0
 40
0.9998476952
 41
0.0
 42
1.5707963268
  0
ELLIPSE
  5
6A2
100
AcDbEntity
  8
RACCORDO
100
AcDbEllipse
 62
7
  6
CONTINUOUS
 10
64.3269537806
 20
-23.2838540719
 30
0.0
 11
0.250038082
 21
-0.0
 31
0.0
 40
0.9998476952
 41
-1.5707963268
 42
0.0
  0
ELLIPSE
  5
6A3
100
AcDbEntity
  8
RACCORDO
100
AcDbEllipse
 62
7
  6
CONTINUOUS
 10
77.2270299447
 20
22.7161459281
 30
0.0
 11
0.250038082
 21
-0.0
 31
0.0
 40
0.9998476952
 41
1.5707963268
 42
3.1415926536
  0
ELLIPSE
  5
6A4
100
AcDbEntity
  8
RACCORDO
100
AcDbEllipse
 62
7
  6
CONTINUOUS
 10
14.3269537806
 20
-23.2838540719
 30
0.0
 11
0.250038082
 21
-0.0
 31
0.0
 40
0.9998476952
 41
-1.5707963268
 42
0.0
  0
ELLIPSE
  5
6A5
100
AcDbEntity
  8
RACCORDO
100
AcDbEllipse
 62
7
  6
CONTINUOUS
 10
27.2270299447
 20
-23.2838540719
 30
0.0
 11
0.250038082
 21
-0.0
 31
0.0
 40
0.9998476952
 41
-3.1415926536
 42
-1.5707963268
  0
ELLIPSE
  5
6A6
100
AcDbEntity
  8
RACCORDO
100
AcDbEllipse
 62
7
  6
CONTINUOUS
 10
27.2270299447
 20
22.7161459281
 30
0.0
 11
0.250038082
 21
0.0
 31
0.0
 40
0.9998476952
 41
1.5707963268
 42
3.1415926536
  0
ELLIPSE
  5
6A7
100
AcDbEntity
  8
RACCORDO
100
AcDbEllipse
 62
7
  6
CONTINUOUS
 10
77.8769918627
 20
-22.7268885316
 30
0.0
 11
0.7364463822
 21
0.0
 31
0.0
 40
0.0174550649
 41
0.0174532925
 42
3.1241393611
  0
ELLIPSE
  5
6A8
100
AcDbEntity
  8
RACCORDO
100
AcDbEllipse
 62
7
  6
CONTINUOUS
 10
63.6769918627
 20
-22.7268885316
 30
0.0
 11
0.7364463822
 21
0.0
 31
0.0
 40
0.0174550649
 41
0.0174532925
 42
3.1241393611
  0
ELLIPSE
  5
6A9
100
AcDbEntity
  8
RACCORDO
100
AcDbEllipse
 62
7
  6
CONTINUOUS
 10
77.8769918627
 20
22.1591803878
 30
0.0
 11
0.7364463822
 21
0.0
 31
0.0
 40
0.0174550649
 41
-3.1241393611
 42
-0.0174532925
  0
ELLIPSE
  5
6AA
100
AcDbEntity
  8
RACCORDO
100
AcDbEllipse
 62
7
  6
CONTINUOUS
 10
63.6769918627
 20
22.1591803878
 30
0.0
 11
0.7364463822
 21
0.0
 31
0.0
 40
0.0174550649
 41
-3.1241393611
 42
-0.0174532925
  0
ELLIPSE
  5
6AB
100
AcDbEntity
  8
RACCORDO
100
AcDbEllipse
 62
7
  6
CONTINUOUS
 10
27.8769918627
 20
22.1591803878
 30
0.0
 11
0.7364463822
 21
0.0
 31
0.0
 40
0.0174550649
 41
-3.1241393611
 42
-0.0174532925
  0
ELLIPSE
  5
6AC
100
AcDbEntity
  8
RACCORDO
100
AcDbEllipse
 62
7
  6
CONTINUOUS
 10
13.6769918627
 20
22.1591803878
 30
0.0
 11
0.7364463822
 21
-0.0
 31
0.0
 40
0.0174550649
 41
-3.1241393611
 42
-0.0174532925
  0
ELLIPSE
  5
6AD
100
AcDbEntity
  8
RACCORDO
100
AcDbEllipse
 62
7
  6
CONTINUOUS
 10
13.6769918627
 20
-22.7268885316
 30
0.0
 11
0.7364463822
 21
0.0
 31
0.0
 40
0.0174550649
 41
0.0174532925
 42
3.1241393611
  0
ELLIPSE
  5
6AE
100
AcDbEntity
  8
RACCORDO
100
AcDbEllipse
 62
7
  6
CONTINUOUS
 10
27.8769918627
 20
-22.7268885316
 30
0.0
 11
0.7364463822
 21
0.0
 31
0.0
 40
0.0174550649
 41
0.0174532925
 42
3.1241393611
  0
ENDSEC
  0
SECTION
  2
OBJECTS
  0
DICTIONARY
  5
C
100
AcDbDictionary
280
0
281
1
  3
ACAD_GROUP
350
D
  3
ACAD_MLINESTYLE
350
17
  3
ACAD_LAYOUT
350
1A
  3
ACAD_PLOTSETTINGS
350
19
  3
ACAD_PLOTSTYLENAME
350
E
  0
DICTIONARY
  5
D
102
{ACAD_REACTORS
330
C
102
}
100
AcDbDictionary
280
0
281
1
  0
ACDBDICTIONARYWDFLT
  5
E
102
{ACAD_REACTORS
330
C
102
}
100
AcDbDictionary
281
1
  3
Normal
350
F
100
AcDbDictionaryWithDefault
340
F
  0
DICTIONARY
  5
17
102
{ACAD_REACTORS
330
C
102
}
100
AcDbDictionary
280
0
281
1
  3
Standard
350
18
  0
DICTIONARY
  5
19
102
{ACAD_REACTORS
330
C
102
}
100
AcDbDictionary
281
1
  0
DICTIONARY
  5
1A
102
{ACAD_REACTORS
330
C
102
}
100
AcDbDictionary
281
1
  3
Model
350
6AF
  3
Layout1
350
6B0
  0
ACDBPLACEHOLDER
  5
F
102
{ACAD_REACTORS
330
E
102
}
  0
MLINESTYLE
  5
18
102
{ACAD_REACTORS
330
17
102
}
100
AcDbMlineStyle
  2
STANDARD
 70
0
  3

 62
256
 51
90.0
 52
90.0
 71
2
 49
0.5
 62
256
  6
BYLAYER
 49
-0.5
 62
256
  6
BYLAYER
  0
LAYOUT
  5
6AF
102
{ACAD_REACTORS
330
1A
102
}
100
AcDbPlotSettings
  1

  2
none_device
  4
ISO_A4_(297.00_x_210.00_MM)
  6

 40
0.0
 41
0.0
 42
0.0
 43
0.0
 44
297.0
 45
210.0
 46
0.0
 47
0.0
 48
0.0
 49
0.0
140
0.0
141
0.0
142
1.0
143
1.0
 70
1024
 72
1
 73
0
 74
0
  7

 75
0
147
1.0
148
0.0
149
0.0
100
AcDbLayout
  1
Model
 70
0
 71
0
 10
0.0
 20
0.0
 11
297.0
 21
210.0
 12
0.0
 22
0.0
 32
0.0
 14
0.0
 24
0.0
 34
0.0
 15
0.0
 25
0.0
 35
0.0
146
0.0
 13
0.0
 23
0.0
 33
0.0
 16
1.0
 26
0.0
 36
0.0
 17
0.0
 27
1.0
 37
0.0
 76
0
330
316
345
0
346
0
  0
LAYOUT
  5
6B0
102
{ACAD_REACTORS
330
1A
102
}
100
AcDbPlotSettings
  1

  2
none_device
  4
ISO_A4_(297.00_x_210.00_MM)
  6

 40
0.0
 41
0.0
 42
0.0
 43
0.0
 44
297.0
 45
210.0
 46
0.0
 47
0.0
 48
0.0
 49
0.0
140
0.0
141
0.0
142
1.0
143
1.0
 70
0
 72
1
 73
0
 74
0
  7

 75
0
147
1.0
148
0.0
149
0.0
100
AcDbLayout
  1
Layout1
 70
0
 71
1
 10
0.0
 20
0.0
 11
297.0
 21
210.0
 12
0.0
 22
0.0
 32
0.0
 14
0.0
 24
0.0
 34
0.0
 15
0.0
 25
0.0
 35
0.0
146
0.0
 13
0.0
 23
0.0
 33
0.0
 16
1.0
 26
0.0
 36
0.0
 17
0.0
 27
1.0
 37
0.0
 76
0
330
317
345
0
346
0
  0
ENDSEC
  0
EOF
