0
SECTION
2
HEADER
9
$ACADVER
1
AC1014
9
$HANDSEED
5
       343
9
$EXTMAX
10
297.0000000000
20
210.0000000000
9
$EXTMIN
10
0.0000000000
20
0.0000000000
9
$LIMMIN
10
0.0000000000
20
0.0000000000
9
$LIMMAX
10
297.0000000000
20
210.0000000000
9
$VIEWCTR
10
148.5000000000
20
105.0000000000
9
$VIEWSIZE
40
210.0000000000
9
$CLAYER
8
0
9
$LTSCALE
40
16.3350000000
9
$CELTYPE
6
BYLAYER
9
$DIMSCALE
40
1
9
$DIMASZ
40
3.0000000000
9
$DIMEXO
40
1.8562500000
9
$DIMDLI
40
11.2860000000
9
$DIMEXE
40
5.3460000000
9
$DIMCEN
40
2.6730000000
9
$DIMLFAC
40
1.0000000000
9
$DIMTXT
40
3.0000000000
9
$DIMTOL
70
1
9
$DIMLIM
70
0
9
$DIMTFAC
40
1.0000000000
9
$DIMTP
40
0.0100000000
9
$DIMTM
40
0.0100000000
9
$MEASUREMENT
70
1
0
ENDSEC
0
SECTION
2
CLASSES
0
ENDSEC
0
SECTION
2
TABLES
0
TABLE
2
VPORT
5
8
100
AcDbSymbolTable
70
2
0
VPORT
5
1F4
100
AcDbSymbolTableRecord
100
AcDbViewportTableRecord
2
*ACTIVE
70
0
10
0.0
20
0.0
11
1.0
21
1.0
12
148.5000000000
22
105.0000000000
13
0.0
23
0.0
14
1.0
24
1.0
15
0.0
25
0.0
16
0.0
26
0.0
36
1.0
17
0.0
27
0.0
37
0.0
40
210.0000000000
41
1.4142857143
42
50.0
43
0.0
44
0.0
50
0.0
51
0.0
71
0
72
100
73
1
74
1
75
0
76
0
77
0
78
0
0
ENDTAB
0
TABLE
2
LTYPE
5
5
100
AcDbSymbolTable
70
6
0
LTYPE
5
14
100
AcDbSymbolTableRecord
100
AcDbLinetypeTableRecord
2
BYBLOCK
70
0
3

72
65
73
0
40
0.0
0
LTYPE
5
15
100
AcDbSymbolTableRecord
100
AcDbLinetypeTableRecord
2
BYLAYER
70
0
3

72
65
73
0
40
0.0
0
LTYPE
5
16
100
AcDbSymbolTableRecord
100
AcDbLinetypeTableRecord
2
CONTINUOUS
70
64
3
Solid line
72
65
73
0
40
0
0
LTYPE
5
1F5
100
AcDbSymbolTableRecord
100
AcDbLinetypeTableRecord
2
CENTER
70
64
3
____ _ ____ _ ____ _ ____ _ ____ _ ____ _ ____
72
65
73
4
40
0.6
49
0.375
74
0
49
-0.075
74
0
49
0.075
74
0
49
-0.075
74
0
0
LTYPE
5
1F6
100
AcDbSymbolTableRecord
100
AcDbLinetypeTableRecord
2
HIDDEN
70
64
3
- - - - - - - - - - - - - - - - - - - -
72
65
73
2
40
0.2
49
0.1
74
0
49
-0.1
74
0
0
LTYPE
5
1F7
100
AcDbSymbolTableRecord
100
AcDbLinetypeTableRecord
2
PHANTOM
70
64
3
_____ _ _ _____ _ _ _____ _ _ _____
72
65
73
6
40
0.8
49
0.45
74
0
49
-0.05
74
0
49
0.1
74
0
49
-0.05
74
0
49
0.1
74
0
49
-0.05
74
0
0
LTYPE
5
1F8
100
AcDbSymbolTableRecord
100
AcDbLinetypeTableRecord
2
DOT
70
64
3
. . . . . . . . . . . . . . . . . . . .
72
65
73
2
40
0.2
49
0.1
74
0
49
-0.1
74
0
0
LTYPE
5
1F9
100
AcDbSymbolTableRecord
100
AcDbLinetypeTableRecord
2
DASHED
70
64
3
- - - - - - - - - - - - - - - - - - - -
72
65
73
2
40
0.2
49
0.1
74
0
49
-0.1
74
0
0
ENDTAB
0
TABLE
2
LAYER
5
2
100
AcDbSymbolTable
70
36
0
LAYER
5
10
100
AcDbSymbolTableRecord
100
AcDbLayerTableRecord
2
0
70
0
62
7
6
CONTINUOUS
0
LAYER
5
1FA
100
AcDbSymbolTableRecord
100
AcDbLayerTableRecord
2
DEFAULT_1
70
0
62
7
6
CENTER
0
LAYER
5
1FB
100
AcDbSymbolTableRecord
100
AcDbLayerTableRecord
2
DEFAULT_2
70
0
62
8
6
HIDDEN
0
LAYER
5
1FC
100
AcDbSymbolTableRecord
100
AcDbLayerTableRecord
2
DEFAULT_3
70
0
62
7
6
PHANTOM
0
LAYER
5
1FD
100
AcDbSymbolTableRecord
100
AcDbLayerTableRecord
2
ASSI
70
0
62
7
6
CONTINUOUS
0
LAYER
5
1FE
100
AcDbSymbolTableRecord
100
AcDbLayerTableRecord
2
COLOR9
70
0
62
7
6
CONTINUOUS
0
LAYER
5
1FF
100
AcDbSymbolTableRecord
100
AcDbLayerTableRecord
2
COORDINATE
70
0
62
7
6
CONTINUOUS
0
LAYER
5
200
100
AcDbSymbolTableRecord
100
AcDbLayerTableRecord
2
COORD_ORIGINE
70
0
62
7
6
CONTINUOUS
0
LAYER
5
201
100
AcDbSymbolTableRecord
100
AcDbLayerTableRecord
2
COPY_0
70
0
62
7
6
CONTINUOUS
0
LAYER
5
202
100
AcDbSymbolTableRecord
100
AcDbLayerTableRecord
2
CURVE
70
0
62
7
6
CONTINUOUS
0
LAYER
5
203
100
AcDbSymbolTableRecord
100
AcDbLayerTableRecord
2
DRAFT
70
0
62
7
6
CONTINUOUS
0
LAYER
5
204
100
AcDbSymbolTableRecord
100
AcDbLayerTableRecord
2
IGS_SIMBOLO
70
0
62
7
6
CONTINUOUS
0
LAYER
5
205
100
AcDbSymbolTableRecord
100
AcDbLayerTableRecord
2
NOTE
70
0
62
7
6
CONTINUOUS
0
LAYER
5
206
100
AcDbSymbolTableRecord
100
AcDbLayerTableRecord
2
PIANI
70
0
62
7
6
CONTINUOUS
0
LAYER
5
207
100
AcDbSymbolTableRecord
100
AcDbLayerTableRecord
2
PIANI_ORIGINE
70
0
62
7
6
CONTINUOUS
0
LAYER
5
208
100
AcDbSymbolTableRecord
100
AcDbLayerTableRecord
2
PIANI_RIFERIMENTO
70
0
62
7
6
CONTINUOUS
0
LAYER
5
209
100
AcDbSymbolTableRecord
100
AcDbLayerTableRecord
2
PUNTI
70
0
62
7
6
CONTINUOUS
0
LAYER
5
20A
100
AcDbSymbolTableRecord
100
AcDbLayerTableRecord
2
RACCORDO
70
0
62
7
6
CONTINUOUS
0
LAYER
5
20B
100
AcDbSymbolTableRecord
100
AcDbLayerTableRecord
2
SNAPLINE
70
0
62
7
6
CONTINUOUS
0
LAYER
5
20C
100
AcDbSymbolTableRecord
100
AcDbLayerTableRecord
2
SUPERFICI
70
0
62
7
6
CONTINUOUS
0
LAYER
5
20D
100
AcDbSymbolTableRecord
100
AcDbLayerTableRecord
2
TRASH
70
0
62
7
6
CONTINUOUS
0
LAYER
5
20E
100
AcDbSymbolTableRecord
100
AcDbLayerTableRecord
2
XSEC_DATUMS
70
0
62
7
6
CONTINUOUS
0
ENDTAB
0
TABLE
2
STYLE
5
3
100
AcDbSymbolTable
70
1
0
STYLE
5
11
100
AcDbSymbolTableRecord
100
AcDbTextStyleTableRecord
2
STANDARD
70
0
40
0.0
41
0.8000000000
50
0.0
71
0
42
0.2
3
txt
4

0
ENDTAB
0
TABLE
2
VIEW
5
6
100
AcDbSymbolTable
70
0
0
ENDTAB
0
TABLE
2
UCS
5
7
100
AcDbSymbolTable
70
0
0
ENDTAB
0
TABLE
2
APPID
5
9
100
AcDbSymbolTable
70
1
0
APPID
5
20F
100
AcDbSymbolTableRecord
100
AcDbRegAppTableRecord
2
ACAD
70
0
0
ENDTAB
0
TABLE
2
DIMSTYLE
5
A
100
AcDbSymbolTable
70
1
0
DIMSTYLE
105
210
100
AcDbSymbolTableRecord
100
AcDbDimStyleTableRecord
2
STANDARD
70
0
3

4

5

6

7

40
1.0
41
3.0000000000
42
0.0625
43
0.38
44
0.18
45
0.0
46
0.0
47
0.0100000000
48
0.0100000000
140
3.0000000000
141
0.09
142
0.0
143
25.4
144
1.0000000000
145
0.0
146
1.0000000000
147
0.09
71
1
72
0
73
0
74
0
75
0
76
0
77
1
78
8
170
0
171
2
172
0
173
0
174
0
175
0
176
0
177
0
178
0
270
2
271
2
272
2
273
2
274
2
340
11
275
0
280
0
281
0
282
0
283
1
284
8
285
0
286
0
287
3
288
0
0
DIMSTYLE
105
211
100
AcDbSymbolTableRecord
100
AcDbDimStyleTableRecord
2
DIMSTYLE_1
70
0
3

4

5

6

7

40
1.0
41
3.0000000000
42
0.0625
43
0.38
44
0.18
45
0.0
46
0.0
47
0.0000000000
48
0.0000000000
140
3.0000000000
141
0.09
142
0.0
143
25.4
144
1.0000000000
145
0.0
146
1.0000000000
147
0.09
71
0
72
0
73
0
74
0
75
0
76
0
77
1
78
8
170
0
171
2
172
0
173
0
174
0
175
0
176
0
177
0
178
0
270
2
271
2
272
2
273
2
274
2
340
11
275
0
280
0
281
0
282
0
283
1
284
8
285
0
286
0
287
3
288
0
0
ENDTAB
0
TABLE
2
BLOCK_RECORD
5
1
100
AcDbSymbolTable
70
0
0
BLOCK_RECORD
5
1B
100
AcDbSymbolTableRecord
100
AcDbBlockTableRecord
2
*MODEL_SPACE
0
BLOCK_RECORD
5
1C
100
AcDbSymbolTableRecord
100
AcDbBlockTableRecord
2
*PAPER_SPACE
0
BLOCK_RECORD
5
212
100
AcDbSymbolTableRecord
100
AcDbBlockTableRecord
2
*D0
0
BLOCK_RECORD
5
213
100
AcDbSymbolTableRecord
100
AcDbBlockTableRecord
2
*D1
0
BLOCK_RECORD
5
214
100
AcDbSymbolTableRecord
100
AcDbBlockTableRecord
2
*D2
0
ENDTAB
0
ENDSEC
0
SECTION
2
BLOCKS
0
BLOCK
5
1E
100
AcDbEntity
8
0
100
AcDbBlockBegin
2
*MODEL_SPACE
70
0
10
0.0
20
0.0
30
0.0
3
*MODEL_SPACE
1

0
ENDBLK
5
1F
100
AcDbEntity
8
0
100
AcDbBlockEnd
0
BLOCK
5
20
100
AcDbEntity
8
0
100
AcDbBlockBegin
2
*PAPER_SPACE
70
0
10
0.0
20
0.0
30
0.0
3
*PAPER_SPACE
1

0
ENDBLK
5
21
100
AcDbEntity
8
0
100
AcDbBlockEnd
0
BLOCK
5
215
100
AcDbEntity
8
0
100
AcDbBlockBegin
62
7
6
CONTINUOUS
2
*D0
70
65
10
0.0000000000
20
0.0000000000
3
*D0
1

0
TEXT
5
216
100
AcDbEntity
8
0
100
AcDbText
62
7
6
CONTINUOUS
10
-13.0176760008
20
31.2104299830
7
STANDARD
40
3.0000000000
1
6
41
0.7857142857
72
0
100
AcDbText
0
LINE
5
217
100
AcDbEntity
8
0
100
AcDbLine
62
7
6
CONTINUOUS
10
-9.1928283478
20
22.0606013205
11
-9.1928283478
21
31.9604299830
0
LINE
5
218
100
AcDbEntity
8
0
100
AcDbLine
62
7
6
CONTINUOUS
10
-15.1928283478
20
0.4604299830
11
-15.1928283478
21
31.9604299830
0
LINE
5
219
100
AcDbEntity
8
0
100
AcDbLine
62
7
6
CONTINUOUS
10
-9.1928283478
20
30.4604299830
11
-5.1928283478
21
30.4604299830
0
LINE
5
21A
100
AcDbEntity
8
0
100
AcDbLine
62
7
6
CONTINUOUS
10
-5.1928283478
20
30.4604299830
11
-12.1928283478
21
30.4604299830
0
LINE
5
21B
100
AcDbEntity
8
0
100
AcDbLine
62
7
6
CONTINUOUS
10
-15.1928283478
20
30.4604299830
11
-19.1928283478
21
30.4604299830
0
LINE
5
21C
100
AcDbEntity
8
0
100
AcDbLine
62
7
6
CONTINUOUS
10
-19.1928283478
20
30.4604299830
11
-12.1928283478
21
30.4604299830
0
SOLID
5
21D
100
AcDbEntity
8
0
100
AcDbTrace
62
7
6
CONTINUOUS
10
-6.1928283478
20
31.4104299830
11
-9.1928283478
21
30.4604299830
12
-6.1928283478
22
29.5104299830
13
-6.1928283478
23
29.5104299830
0
SOLID
5
21E
100
AcDbEntity
8
0
100
AcDbTrace
62
7
6
CONTINUOUS
10
-18.1928283478
20
29.5104299830
11
-15.1928283478
21
30.4604299830
12
-18.1928283478
22
31.4104299830
13
-18.1928283478
23
31.4104299830
0
ENDBLK
5
21F
100
AcDbEntity
8
0
100
AcDbBlockEnd
0
BLOCK
5
220
100
AcDbEntity
8
0
100
AcDbBlockBegin
62
7
6
CONTINUOUS
2
*D1
70
65
10
0.0000000000
20
0.0000000000
3
*D1
1

0
TEXT
5
221
100
AcDbEntity
8
0
100
AcDbText
62
7
6
CONTINUOUS
10
18.5514870906
20
31.2104299830
7
STANDARD
40
3.0000000000
1
22
41
0.7857142857
72
0
100
AcDbText
0
LINE
5
222
100
AcDbEntity
8
0
100
AcDbLine
62
7
6
CONTINUOUS
10
9.6190210955
20
22.0606013205
11
9.6190210955
21
31.9604299830
0
LINE
5
223
100
AcDbEntity
8
0
100
AcDbLine
62
7
6
CONTINUOUS
10
31.6190210955
20
22.0606013205
11
31.6190210955
21
31.9604299830
0
LINE
5
224
100
AcDbEntity
8
0
100
AcDbLine
62
7
6
CONTINUOUS
10
9.6190210955
20
30.4604299830
11
20.6190210955
21
30.4604299830
0
LINE
5
225
100
AcDbEntity
8
0
100
AcDbLine
62
7
6
CONTINUOUS
10
31.6190210955
20
30.4604299830
11
20.6190210955
21
30.4604299830
0
SOLID
5
226
100
AcDbEntity
8
0
100
AcDbTrace
62
7
6
CONTINUOUS
10
12.6190210955
20
31.4104299830
11
9.6190210955
21
30.4604299830
12
12.6190210955
22
29.5104299830
13
12.6190210955
23
29.5104299830
0
SOLID
5
227
100
AcDbEntity
8
0
100
AcDbTrace
62
7
6
CONTINUOUS
10
28.6190210955
20
29.5104299830
11
31.6190210955
21
30.4604299830
12
28.6190210955
22
31.4104299830
13
28.6190210955
23
31.4104299830
0
ENDBLK
5
228
100
AcDbEntity
8
0
100
AcDbBlockEnd
0
BLOCK
5
229
100
AcDbEntity
8
0
100
AcDbBlockBegin
62
7
6
CONTINUOUS
2
*D2
70
65
10
0.0000000000
20
0.0000000000
3
*D2
1

0
TEXT
5
22A
100
AcDbEntity
8
0
100
AcDbText
62
7
6
CONTINUOUS
10
39.1190210955
20
-4.7479024861
7
STANDARD
40
3.0000000000
1
44,2
50
90.0000000000
41
0.7321428571
72
0
100
AcDbText
0
LINE
5
22B
100
AcDbEntity
8
0
100
AcDbLine
62
7
6
CONTINUOUS
10
31.6191924330
20
-22.1395700170
11
41.3690210955
21
-22.1395700170
0
LINE
5
22C
100
AcDbEntity
8
0
100
AcDbLine
62
7
6
CONTINUOUS
10
31.6191924330
20
22.0604299830
11
41.3690210955
21
22.0604299830
0
LINE
5
22D
100
AcDbEntity
8
0
100
AcDbLine
62
7
6
CONTINUOUS
10
39.8690210955
20
-22.1395700170
11
39.8690210955
21
-0.0395700170
0
LINE
5
22E
100
AcDbEntity
8
0
100
AcDbLine
62
7
6
CONTINUOUS
10
39.8690210955
20
22.0604299830
11
39.8690210955
21
-0.0395700170
0
SOLID
5
22F
100
AcDbEntity
8
0
100
AcDbTrace
62
7
6
CONTINUOUS
10
38.9190210955
20
-19.1395700170
11
39.8690210955
21
-22.1395700170
12
40.8190210955
22
-19.1395700170
13
40.8190210955
23
-19.1395700170
0
SOLID
5
230
100
AcDbEntity
8
0
100
AcDbTrace
62
7
6
CONTINUOUS
10
40.8190210955
20
19.0604299830
11
39.8690210955
21
22.0604299830
12
38.9190210955
22
19.0604299830
13
38.9190210955
23
19.0604299830
0
ENDBLK
5
231
100
AcDbEntity
8
0
100
AcDbBlockEnd
0
ENDSEC
0
SECTION
2
ENTITIES
0
DIMENSION
5
232
100
AcDbEntity
8
0
100
AcDbDimension
62
7
6
CONTINUOUS
2
*D0
10
-15.1928283478
20
30.4604299830
11
-11.8391045722
21
32.7104299830
70
160
3
DIMSTYLE_1
100
AcDbAlignedDimension
13
-9.1928283478
23
22.0606013205
14
-15.1928283478
24
0.4604299830
50
180.000000
100
AcDbRotatedDimension
0
DIMENSION
5
233
100
AcDbEntity
8
0
100
AcDbDimension
62
7
6
CONTINUOUS
2
*D1
10
31.6190210955
20
30.4604299830
11
20.9086299478
21
32.7104299830
70
160
3
DIMSTYLE_1
100
AcDbAlignedDimension
13
9.6190210955
23
22.0606013205
14
31.6190210955
24
22.0606013205
100
AcDbRotatedDimension
0
DIMENSION
5
234
100
AcDbEntity
8
0
100
AcDbDimension
62
7
6
CONTINUOUS
2
*D2
10
39.8690210955
20
22.0604299830
11
37.6190210955
21
-0.3550453432
70
160
3
DIMSTYLE_1
100
AcDbAlignedDimension
13
31.6191924330
23
-22.1395700170
14
31.6191924330
24
22.0604299830
50
90.000000
100
AcDbRotatedDimension
0
LINE
5
235
100
AcDbEntity
8
0
100
AcDbLine
62
7
6
CONTINUOUS
10
10.1188497580
20
-22.1395700170
11
31.1191924330
21
-22.1395700170
0
LINE
5
236
100
AcDbEntity
8
0
100
AcDbLine
62
9
6
CONTINUOUS
10
10.2227260530
20
-22.0356937220
11
31.0153161381
21
-22.0356937220
0
LINE
5
237
100
AcDbEntity
8
0
100
AcDbLine
62
9
6
CONTINUOUS
10
10.2353313321
20
-21.1844236598
11
31.0027108589
21
-21.1844236598
0
LINE
5
238
100
AcDbEntity
8
0
100
AcDbLine
62
7
6
CONTINUOUS
10
9.6190210955
20
-21.6397413545
11
9.6190210955
21
21.5606013205
0
LINE
5
239
100
AcDbEntity
8
0
100
AcDbLine
62
9
6
CONTINUOUS
10
10.2608539311
20
-9.5395700170
11
10.2608539311
21
9.4604299830
0
LINE
5
23A
100
AcDbEntity
8
0
100
AcDbLine
62
9
6
CONTINUOUS
10
31.1191924330
20
22.0604299830
11
31.0153161381
21
21.9565536880
0
LINE
5
23B
100
AcDbEntity
8
0
100
AcDbLine
62
9
6
CONTINUOUS
10
10.2608539311
20
-9.5395700170
11
30.9771882599
21
-9.5395700170
0
LINE
5
23C
100
AcDbEntity
8
0
100
AcDbLine
62
9
6
CONTINUOUS
10
31.0153161381
20
-22.0356937220
11
31.1191924330
21
-22.1395700170
0
LINE
5
23D
100
AcDbEntity
8
0
100
AcDbLine
62
9
6
CONTINUOUS
10
31.6190210955
20
21.5606013205
11
31.5151448005
21
21.4567250255
0
LINE
5
23E
100
AcDbEntity
8
0
100
AcDbLine
62
9
6
CONTINUOUS
10
31.5151448005
20
-21.5358650596
11
31.6190210955
21
-21.6397413545
0
LINE
5
23F
100
AcDbEntity
8
0
100
AcDbLine
62
9
6
CONTINUOUS
10
9.6190210955
20
-21.6397413545
11
9.7228973905
21
-21.5358650596
0
LINE
5
240
100
AcDbEntity
8
0
100
AcDbLine
62
9
6
CONTINUOUS
10
10.1188497580
20
-22.1395700170
11
10.2227260530
21
-22.0356937220
0
LINE
5
241
100
AcDbEntity
8
0
100
AcDbLine
62
9
6
CONTINUOUS
10
9.7228973905
20
21.4567250255
11
9.6190210955
21
21.5606013205
0
LINE
5
242
100
AcDbEntity
8
0
100
AcDbLine
62
9
6
CONTINUOUS
10
10.2227260530
20
21.9565536880
11
10.1188497580
21
22.0604299830
0
LINE
5
243
100
AcDbEntity
8
0
100
AcDbLine
62
9
6
CONTINUOUS
10
10.2608539311
20
9.4604299830
11
30.9771882599
21
9.4604299830
0
LINE
5
244
100
AcDbEntity
8
0
100
AcDbLine
62
9
6
CONTINUOUS
10
30.9771882599
20
9.4604299830
11
30.9771882599
21
-9.5395700170
0
LINE
5
245
100
AcDbEntity
8
0
100
AcDbLine
62
7
6
CONTINUOUS
10
31.6190210955
20
-21.6397413545
11
31.6190210955
21
21.5606013205
0
LINE
5
246
100
AcDbEntity
8
0
100
AcDbLine
62
9
6
CONTINUOUS
10
10.2353313321
20
21.1052836258
11
31.0027108589
21
21.1052836258
0
LINE
5
247
100
AcDbEntity
8
0
100
AcDbLine
62
9
6
CONTINUOUS
10
10.2227260530
20
21.9565536880
11
31.0153161381
21
21.9565536880
0
LINE
5
248
100
AcDbEntity
8
0
100
AcDbLine
62
7
6
CONTINUOUS
10
10.1188497580
20
22.0604299830
11
31.1191924330
21
22.0604299830
0
LINE
5
249
100
AcDbEntity
8
0
100
AcDbLine
62
7
6
CONTINUOUS
10
-13.1597040100
20
-22.0356937220
11
-9.1928283478
21
-22.1395700170
0
LINE
5
24A
100
AcDbEntity
8
0
100
AcDbLine
62
9
6
CONTINUOUS
10
-13.1597040100
20
-21.5358650596
11
-9.1928283478
21
-21.6397413545
0
LINE
5
24B
100
AcDbEntity
8
0
100
AcDbLine
62
9
6
CONTINUOUS
10
-14.6157489336
20
-9.5300700170
11
-15.1025701785
21
-9.5395700166
0
LINE
5
24C
100
AcDbEntity
8
0
100
AcDbLine
62
7
6
CONTINUOUS
10
-9.1928283478
20
-22.1395700170
11
-9.1928283478
21
22.0604299830
0
LINE
5
24D
100
AcDbEntity
8
0
100
AcDbLine
62
9
6
CONTINUOUS
10
-14.6157489336
20
9.4509299830
11
-15.1025702008
21
9.4604299830
0
LINE
5
24E
100
AcDbEntity
8
0
100
AcDbLine
62
9
6
CONTINUOUS
10
-9.1928283478
20
21.5606013205
11
-13.1597040100
21
21.4567250255
0
LINE
5
24F
100
AcDbEntity
8
0
100
AcDbLine
62
7
6
CONTINUOUS
10
-9.1928283478
20
22.0604299830
11
-13.1597040100
21
21.9565536880
0
ARC
5
250
100
AcDbEntity
8
0
100
AcDbCircle
62
7
6
CONTINUOUS
10
-13.1335270617
20
20.9568963631
40
1.0000000000
100
AcDbArc
50
91.5000000000
51
171.4665223736
0
ARC
5
251
100
AcDbEntity
8
0
100
AcDbCircle
62
7
6
CONTINUOUS
10
74.8811833323
20
7.7504299830
40
90.0000000000
100
AcDbArc
50
171.4665223736
51
178.9113146800
0
ARC
5
252
100
AcDbEntity
8
0
100
AcDbCircle
62
7
6
CONTINUOUS
10
484.8071716522
20
-0.0395700170
40
500.0000000000
100
AcDbArc
50
178.9113146800
51
181.0886853200
0
ARC
5
253
100
AcDbEntity
8
0
100
AcDbCircle
62
7
6
CONTINUOUS
10
74.8811833323
20
-7.8295700170
40
90.0000000000
100
AcDbArc
50
181.0886853200
51
188.5334776264
0
ARC
5
254
100
AcDbEntity
8
0
100
AcDbCircle
62
7
6
CONTINUOUS
10
-13.1335270617
20
-21.0360363971
40
1.0000000000
100
AcDbArc
50
188.5334776264
51
268.5000000000
0
SPLINE
5
255
100
AcDbEntity
8
0
100
AcDbSpline
62
7
6
CONTINUOUS
70
0
71
3
72
8
73
4
74
2
42
0.0000001000
43
0.0000001000
44
0.0000000001
12
-0.0231729166
22
0.0027970073
32
0.0000000000
13
-0.0231860080
23
0.0026879417
33
0.0000000000
40
0.0000000000
40
0.0000000000
40
0.0000000000
40
0.0000000000
40
1.0000000000
40
1.0000000000
40
1.0000000000
40
1.0000000000
10
21.2135863656
20
14.2359121052
30
0.0000000000
10
21.2058620600
20
14.2368444410
30
0.0000000000
10
21.1981355244
20
14.2377586047
30
0.0000000000
10
21.1904068551
20
14.2386545853
30
0.0000000000
11
21.2135863656
21
14.2359121052
31
0.0000000000
11
21.1904068551
21
14.2386545853
31
0.0000000000
0
SPLINE
5
256
100
AcDbEntity
8
0
100
AcDbSpline
62
7
6
CONTINUOUS
70
0
71
3
72
8
73
4
74
2
42
0.0000001000
43
0.0000001000
44
0.0000000001
12
-0.0058492265
22
0.0006780978
32
0.0000000000
13
-0.0058500367
23
0.0006711539
33
0.0000000000
40
0.0000000000
40
0.0000000000
40
0.0000000000
40
0.0000000000
40
1.0000000000
40
1.0000000000
40
1.0000000000
40
1.0000000000
10
21.1904068551
20
14.2386545853
30
0.0000000000
10
21.1884571129
20
14.2388806179
30
0.0000000000
10
21.1865072349
20
14.2391054933
30
0.0000000000
10
21.1845572227
20
14.2393292112
30
0.0000000000
11
21.1904068551
21
14.2386545853
31
0.0000000000
11
21.1845572227
21
14.2393292112
31
0.0000000000
0
SPLINE
5
257
100
AcDbEntity
8
0
100
AcDbSpline
62
7
6
CONTINUOUS
70
0
71
3
72
8
73
4
74
2
42
0.0000001000
43
0.0000001000
44
0.0000000001
12
-0.0231951147
22
0.0026610931
32
0.0000000000
13
-0.0232074888
23
0.0025518885
33
0.0000000000
40
0.0000000000
40
0.0000000000
40
0.0000000000
40
0.0000000000
40
1.0000000000
40
1.0000000000
40
1.0000000000
40
1.0000000000
10
21.1845572227
20
14.2393292112
30
0.0000000000
10
21.1768255178
20
14.2402162423
30
0.0000000000
10
21.1690917024
20
14.2410850781
30
0.0000000000
10
21.1613558728
20
14.2419357076
30
0.0000000000
11
21.1845572227
21
14.2393292112
31
0.0000000000
11
21.1613558728
21
14.2419357076
31
0.0000000000
0
SPLINE
5
258
100
AcDbEntity
8
0
100
AcDbSpline
62
7
6
CONTINUOUS
70
0
71
3
72
8
73
4
74
2
42
0.0000001000
43
0.0000001000
44
0.0000000001
12
-0.0232312943
22
0.0025545062
32
0.0000000000
13
-0.0232431141
23
0.0024450106
33
0.0000000000
40
0.0000000000
40
0.0000000000
40
0.0000000000
40
0.0000000000
40
1.0000000000
40
1.0000000000
40
1.0000000000
40
1.0000000000
10
21.1613558728
20
14.2419357076
30
0.0000000000
10
21.1536121080
20
14.2427872097
30
0.0000000000
10
21.1458663250
20
14.2436204680
30
0.0000000000
10
21.1381186202
20
14.2444354715
30
0.0000000000
11
21.1613558728
21
14.2419357076
31
0.0000000000
11
21.1381186202
21
14.2444354715
31
0.0000000000
0
SPLINE
5
259
100
AcDbEntity
8
0
100
AcDbSpline
62
7
6
CONTINUOUS
70
0
71
3
72
9
73
5
74
3
42
0.0000001000
43
0.0000001000
44
0.0000000001
12
-0.0057999666
22
0.0006101153
32
0.0000000000
13
-0.0058006801
23
0.0006032947
33
0.0000000000
40
0.0000000000
40
0.0000000000
40
0.0000000000
40
0.0000000000
40
0.5004965129
40
1.0000000000
40
1.0000000000
40
1.0000000000
40
1.0000000000
10
21.1381186202
20
14.2444354715
30
0.0000000000
10
21.1371509992
20
14.2445372584
30
0.0000000000
10
21.1352176171
20
14.2447400613
30
0.0000000000
10
21.1332841161
20
14.2449417274
30
0.0000000000
10
21.1323182961
20
14.2450421766
30
0.0000000000
11
21.1381186202
21
14.2444354715
31
0.0000000000
11
21.1352156674
21
14.2447399779
31
0.0000000000
11
21.1323182961
21
14.2450421766
31
0.0000000000
0
SPLINE
5
25A
100
AcDbEntity
8
0
100
AcDbSpline
62
7
6
CONTINUOUS
70
0
71
3
72
8
73
4
74
2
42
0.0000001000
43
0.0000001000
44
0.0000000001
12
-0.0464945209
22
0.0048356223
32
0.0000000000
13
-0.0465377401
23
0.0043971786
33
0.0000000000
40
0.0000000000
40
0.0000000000
40
0.0000000000
40
0.0000000000
40
1.0000000000
40
1.0000000000
40
1.0000000000
40
1.0000000000
10
21.1323182961
20
14.2450421766
30
0.0000000000
10
21.1168201225
20
14.2466540507
30
0.0000000000
10
21.1013143581
20
14.2481928873
30
0.0000000000
10
21.0858017781
20
14.2496586135
30
0.0000000000
11
21.1323182961
21
14.2450421766
31
0.0000000000
11
21.0858017781
21
14.2496586135
31
0.0000000000
0
SPLINE
5
25B
100
AcDbEntity
8
0
100
AcDbSpline
62
7
6
CONTINUOUS
70
0
71
3
72
8
73
4
74
2
42
0.0000001000
43
0.0000001000
44
0.0000000001
12
-0.0058046433
22
0.0005484592
32
0.0000000000
13
-0.0058052750
23
0.0005416343
33
0.0000000000
40
0.0000000000
40
0.0000000000
40
0.0000000000
40
0.0000000000
40
1.0000000000
40
1.0000000000
40
1.0000000000
40
1.0000000000
10
21.0858017781
20
14.2496586135
30
0.0000000000
10
21.0838668970
20
14.2498414332
30
0.0000000000
10
21.0819319098
20
14.2500231156
30
0.0000000000
10
21.0799968181
20
14.2502036604
30
0.0000000000
11
21.0858017781
21
14.2496586135
31
0.0000000000
11
21.0799968181
21
14.2502036604
31
0.0000000000
0
SPLINE
5
25C
100
AcDbEntity
8
0
100
AcDbSpline
62
7
6
CONTINUOUS
70
0
71
3
72
8
73
4
74
2
42
0.0000001000
43
0.0000001000
44
0.0000000001
12
-0.0232735852
22
0.0021714342
32
0.0000000000
13
-0.0232833747
23
0.0020617072
33
0.0000000000
40
0.0000000000
40
0.0000000000
40
0.0000000000
40
0.0000000000
40
1.0000000000
40
1.0000000000
40
1.0000000000
40
1.0000000000
10
21.0799968181
20
14.2502036604
30
0.0000000000
10
21.0722389564
20
14.2509274717
30
0.0000000000
10
21.0644794146
20
14.2516329998
30
0.0000000000
10
21.0567182897
20
14.2523202356
30
0.0000000000
11
21.0799968181
21
14.2502036604
31
0.0000000000
11
21.0567182897
21
14.2523202356
31
0.0000000000
0
SPLINE
5
25D
100
AcDbEntity
8
0
100
AcDbSpline
62
7
6
CONTINUOUS
70
0
71
3
72
10
73
6
74
4
42
0.0000001000
43
0.0000001000
44
0.0000000001
12
-0.0477163718
22
0.0042945843
32
0.0000000000
13
-0.0444016683
23
-0.0182625935
33
0.0000000000
40
0.0000000000
40
0.0000000000
40
0.0000000000
40
0.0000000000
40
0.4956290564
40
0.9787076851
40
1.0000000000
40
1.0000000000
40
1.0000000000
40
1.0000000000
10
21.0567182897
20
14.2523202356
30
0.0000000000
10
21.0488350830
20
14.2530297425
30
0.0000000000
10
21.0330362824
20
14.2525716898
30
0.0000000000
10
21.0174893540
20
14.2483665822
30
0.0000000000
10
21.0100087725
20
14.2453344747
30
0.0000000000
10
21.0096936344
20
14.2452048571
30
0.0000000000
11
21.0567182897
21
14.2523202356
31
0.0000000000
11
21.0329831739
21
14.2516278350
31
0.0000000000
11
21.0106410098
21
14.2455888552
31
0.0000000000
11
21.0096936344
21
14.2452048571
31
0.0000000000
0
SPLINE
5
25E
100
AcDbEntity
8
0
100
AcDbSpline
62
7
6
CONTINUOUS
70
0
71
3
72
8
73
4
74
2
42
0.0000001000
43
0.0000001000
44
0.0000000001
12
-0.0065530551
22
-0.0026952992
32
0.0000000000
13
-0.0063471344
23
-0.0031525641
33
0.0000000000
40
0.0000000000
40
0.0000000000
40
0.0000000000
40
0.0000000000
40
1.0000000000
40
1.0000000000
40
1.0000000000
40
1.0000000000
10
21.0096936344
20
14.2452048571
30
0.0000000000
10
21.0075092827
20
14.2443064240
30
0.0000000000
10
21.0053565937
20
14.2433303783
30
0.0000000000
10
21.0032408822
20
14.2422795235
30
0.0000000000
11
21.0096936344
21
14.2452048571
31
0.0000000000
11
21.0032408822
21
14.2422795235
31
0.0000000000
0
SPLINE
5
25F
100
AcDbEntity
8
0
100
AcDbSpline
62
7
6
CONTINUOUS
70
0
71
3
72
8
73
4
74
2
42
0.0000001000
43
0.0000001000
44
0.0000000001
12
-0.0073864770
22
-0.0036687962
32
0.0000000000
13
-0.0070608712
23
-0.0042634288
33
0.0000000000
40
0.0000000000
40
0.0000000000
40
0.0000000000
40
0.0000000000
40
1.0000000000
40
1.0000000000
40
1.0000000000
40
1.0000000000
10
21.0032408822
20
14.2422795235
30
0.0000000000
10
21.0007787232
20
14.2410565915
30
0.0000000000
10
20.9983666434
20
14.2397323446
30
0.0000000000
10
20.9960130197
20
14.2383112017
30
0.0000000000
11
21.0032408822
21
14.2422795235
31
0.0000000000
11
20.9960130197
21
14.2383112017
31
0.0000000000
0
SPLINE
5
260
100
AcDbEntity
8
0
100
AcDbSpline
62
7
6
CONTINUOUS
70
0
71
3
72
8
73
4
74
2
42
0.0000001000
43
0.0000001000
44
0.0000000001
12
-0.0054186305
22
-0.0032718264
32
0.0000000000
13
-0.0052007144
23
-0.0036082240
33
0.0000000000
40
0.0000000000
40
0.0000000000
40
0.0000000000
40
0.0000000000
40
1.0000000000
40
1.0000000000
40
1.0000000000
40
1.0000000000
10
20.9960130197
20
14.2383112017
30
0.0000000000
10
20.9942068095
20
14.2372205928
30
0.0000000000
10
20.9924350258
20
14.2360729192
30
0.0000000000
10
20.9907014543
20
14.2348701779
30
0.0000000000
11
20.9960130197
21
14.2383112017
31
0.0000000000
11
20.9907014543
21
14.2348701779
31
0.0000000000
0
SPLINE
5
261
100
AcDbEntity
8
0
100
AcDbSpline
62
7
6
CONTINUOUS
70
0
71
3
72
9
73
5
74
3
42
0.0000001000
43
0.0000001000
44
0.0000000001
12
-0.0079575941
22
-0.0055209305
32
0.0000000000
13
-0.0073858178
23
-0.0062649837
33
0.0000000000
40
0.0000000000
40
0.0000000000
40
0.0000000000
40
0.0000000000
40
0.0921699578
40
1.0000000000
40
1.0000000000
40
1.0000000000
40
1.0000000000
10
20.9907014543
20
14.2348701779
30
0.0000000000
10
20.9904569706
20
14.2347005566
30
0.0000000000
10
20.9878126850
20
14.2328483635
30
0.0000000000
10
20.9852591118
20
14.2308679055
30
0.0000000000
10
20.9830240894
20
14.2289720587
30
0.0000000000
11
20.9907014543
21
14.2348701779
31
0.0000000000
11
20.9899702938
21
14.2343580338
31
0.0000000000
11
20.9830240894
21
14.2289720587
31
0.0000000000
0
SPLINE
5
262
100
AcDbEntity
8
0
100
AcDbSpline
62
7
6
CONTINUOUS
70
0
71
3
72
8
73
4
74
2
42
0.0000001000
43
0.0000001000
44
0.0000000001
12
-0.0039265745
22
-0.0033306975
32
0.0000000000
13
-0.0037503251
23
-0.0035275098
33
0.0000000000
40
0.0000000000
40
0.0000000000
40
0.0000000000
40
0.0000000000
40
1.0000000000
40
1.0000000000
40
1.0000000000
40
1.0000000000
10
20.9830240894
20
14.2289720587
30
0.0000000000
10
20.9817152312
20
14.2278618262
30
0.0000000000
10
20.9804349018
20
14.2267180102
30
0.0000000000
10
20.9791847934
20
14.2255421736
30
0.0000000000
11
20.9830240894
21
14.2289720587
31
0.0000000000
11
20.9791847934
21
14.2255421736
31
0.0000000000
0
SPLINE
5
263
100
AcDbEntity
8
0
100
AcDbSpline
62
7
6
CONTINUOUS
70
0
71
3
72
8
73
4
74
2
42
0.0000001000
43
0.0000001000
44
0.0000000001
12
-0.0070551542
22
-0.0066359915
32
0.0000000000
13
-0.0063796478
23
-0.0072846903
33
0.0000000000
40
0.0000000000
40
0.0000000000
40
0.0000000000
40
0.0000000000
40
1.0000000000
40
1.0000000000
40
1.0000000000
40
1.0000000000
10
20.9791847934
20
14.2255421736
30
0.0000000000
10
20.9768330753
20
14.2233301764
30
0.0000000000
10
20.9745883086
20
14.2210048598
30
0.0000000000
10
20.9724617593
20
14.2185766297
30
0.0000000000
11
20.9791847934
21
14.2255421736
31
0.0000000000
11
20.9724617593
21
14.2185766297
31
0.0000000000
0
SPLINE
5
264
100
AcDbEntity
8
0
100
AcDbSpline
62
7
6
CONTINUOUS
70
0
71
3
72
9
73
5
74
3
42
0.0000001000
43
0.0000001000
44
0.0000000001
12
-0.0306154413
22
-0.0349586710
32
0.0000000000
13
-0.0116849957
23
-0.0448771928
33
0.0000000000
40
0.0000000000
40
0.0000000000
40
0.0000000000
40
0.0000000000
40
0.4936391808
40
1.0000000000
40
1.0000000000
40
1.0000000000
40
1.0000000000
10
20.9724617593
20
14.2185766297
30
0.0000000000
10
20.9674240988
20
14.2128243064
30
0.0000000000
10
20.9585625750
20
14.2000015936
30
0.0000000000
10
20.9528801416
20
14.1854436709
30
0.0000000000
10
20.9509078670
20
14.1778689869
30
0.0000000000
11
20.9724617593
21
14.2185766297
31
0.0000000000
11
20.9594499877
21
14.1997418842
31
0.0000000000
11
20.9509078670
21
14.1778689869
31
0.0000000000
0
SPLINE
5
265
100
AcDbEntity
8
0
100
AcDbSpline
62
7
6
CONTINUOUS
70
0
71
3
72
8
73
4
74
2
42
0.0000001000
43
0.0000001000
44
0.0000000001
12
-0.0413056816
22
-0.1592772193
32
0.0000000000
13
-0.0145630386
23
-0.1640544944
33
0.0000000000
40
0.0000000000
40
0.0000000000
40
0.0000000000
40
0.0000000000
40
1.0000000000
40
1.0000000000
40
1.0000000000
40
1.0000000000
10
20.9509078690
20
14.1778689862
30
0.0000000000
10
20.9371393084
20
14.1247765797
30
0.0000000000
10
20.9276966777
20
14.0704081643
30
0.0000000000
10
20.9228423316
20
14.0157233328
30
0.0000000000
11
20.9509078690
21
14.1778689862
31
0.0000000000
11
20.9228423316
21
14.0157233328
31
0.0000000000
0
SPLINE
5
266
100
AcDbEntity
8
0
100
AcDbSpline
62
7
6
CONTINUOUS
70
0
71
3
72
9
73
5
74
3
42
0.0000001000
43
0.0000001000
44
0.0000000001
12
-0.0004613042
22
-0.0051966505
32
0.0000000000
13
-0.0004336594
23
-0.0051984658
33
0.0000000000
40
0.0000000000
40
0.0000000000
40
0.0000000000
40
0.0000000000
40
0.7756177390
40
1.0000000000
40
1.0000000000
40
1.0000000000
40
1.0000000000
10
20.9228423316
20
14.0157233328
30
0.0000000000
10
20.9227230663
20
14.0143797947
30
0.0000000000
10
20.9225728691
20
14.0126473316
30
0.0000000000
10
20.9224272822
20
14.0109145747
30
0.0000000000
10
20.9223948470
20
14.0105257602
30
0.0000000000
11
20.9228423316
21
14.0157233328
31
0.0000000000
11
20.9224928485
21
14.0116921598
31
0.0000000000
11
20.9223948470
21
14.0105257602
31
0.0000000000
0
SPLINE
5
267
100
AcDbEntity
8
0
100
AcDbSpline
62
7
6
CONTINUOUS
70
0
71
3
72
9
73
5
74
3
42
0.0000001000
43
0.0000001000
44
0.0000000001
12
-0.0140478022
22
-0.1683971816
32
0.0000000000
13
0.0142696802
23
-0.1683836899
33
0.0000000000
40
0.0000000000
40
0.0000000000
40
0.0000000000
40
0.0000000000
40
0.4957948876
40
1.0000000000
40
1.0000000000
40
1.0000000000
40
1.0000000000
10
20.9223948470
20
14.0105257602
30
0.0000000000
10
20.9200732375
20
13.9826956063
30
0.0000000000
10
20.9177875978
20
13.9264124471
30
0.0000000000
10
20.9201045627
20
13.8701290185
30
0.0000000000
10
20.9225028446
20
13.8418290460
30
0.0000000000
11
20.9223948470
21
14.0105257602
31
0.0000000000
11
20.9189381986
21
13.9268857349
31
0.0000000000
11
20.9225028446
21
13.8418290460
31
0.0000000000
0
SPLINE
5
268
100
AcDbEntity
8
0
100
AcDbSpline
62
7
6
CONTINUOUS
70
0
71
3
72
8
73
4
74
2
42
0.0000001000
43
0.0000001000
44
0.0000000001
12
0.0142425651
22
-0.1680637291
32
0.0000000000
13
0.0423123417
23
-0.1631235514
33
0.0000000000
40
0.0000000000
40
0.0000000000
40
0.0000000000
40
0.0000000000
40
1.0000000000
40
1.0000000000
40
1.0000000000
40
1.0000000000
10
20.9225028446
20
13.8418290460
30
0.0000000000
10
20.9272503663
20
13.7858078030
30
0.0000000000
10
20.9368169991
20
13.7300944326
30
0.0000000000
10
20.9509211130
20
13.6757199155
30
0.0000000000
11
20.9225028446
21
13.8418290460
31
0.0000000000
11
20.9509211130
21
13.6757199155
31
0.0000000000
0
SPLINE
5
269
100
AcDbEntity
8
0
100
AcDbSpline
62
7
6
CONTINUOUS
70
0
71
3
72
10
73
6
74
4
42
0.0000001000
43
0.0000001000
44
0.0000000001
12
0.0105684799
22
-0.0406058897
32
0.0000000000
13
0.0262521914
23
-0.0328176565
33
0.0000000000
40
0.0000000000
40
0.0000000000
40
0.0000000000
40
0.0000000000
40
0.4902752661
40
0.9704901806
40
1.0000000000
40
1.0000000000
40
1.0000000000
40
1.0000000000
10
20.9509211131
20
13.6757199155
30
0.0000000000
10
20.9526482678
20
13.6690838944
30
0.0000000000
10
20.9574375876
20
13.6562614384
30
0.0000000000
10
20.9649326792
20
13.6443464600
30
0.0000000000
10
20.9693584766
20
13.6387428680
30
0.0000000000
10
20.9696167090
20
13.6384200536
30
0.0000000000
11
20.9509211131
21
13.6757199155
31
0.0000000000
11
20.9581213279
21
13.6564498489
31
0.0000000000
11
20.9688480545
21
13.6393932671
31
0.0000000000
11
20.9696167090
21
13.6384200536
31
0.0000000000
0
SPLINE
5
26A
100
AcDbEntity
8
0
100
AcDbSpline
62
7
6
CONTINUOUS
70
0
71
3
72
8
73
4
74
2
42
0.0000001000
43
0.0000001000
44
0.0000000001
12
0.0043431117
22
-0.0054292895
32
0.0000000000
13
0.0047099382
23
-0.0051155539
33
0.0000000000
40
0.0000000000
40
0.0000000000
40
0.0000000000
40
0.0000000000
40
1.0000000000
40
1.0000000000
40
1.0000000000
40
1.0000000000
10
20.9696167090
20
13.6384200536
30
0.0000000000
10
20.9710644129
20
13.6366102904
30
0.0000000000
10
20.9725751946
20
13.6348507503
30
0.0000000000
10
20.9741451740
20
13.6331455657
30
0.0000000000
11
20.9696167090
21
13.6384200536
31
0.0000000000
11
20.9741451740
21
13.6331455657
31
0.0000000000
0
SPLINE
5
26B
100
AcDbEntity
8
0
100
AcDbSpline
62
7
6
CONTINUOUS
70
0
71
3
72
8
73
4
74
2
42
0.0000001000
43
0.0000001000
44
0.0000000001
12
0.0041434072
22
-0.0045002337
32
0.0000000000
13
0.0044103607
23
-0.0042393994
33
0.0000000000
40
0.0000000000
40
0.0000000000
40
0.0000000000
40
0.0000000000
40
1.0000000000
40
1.0000000000
40
1.0000000000
40
1.0000000000
10
20.9741451740
20
13.6331455657
30
0.0000000000
10
20.9755263098
20
13.6316454878
30
0.0000000000
10
20.9769532586
20
13.6301874756
30
0.0000000000
10
20.9784233788
20
13.6287743425
30
0.0000000000
11
20.9741451740
21
13.6331455657
31
0.0000000000
11
20.9784233788
21
13.6287743425
31
0.0000000000
0
SPLINE
5
26C
100
AcDbEntity
8
0
100
AcDbSpline
62
7
6
CONTINUOUS
70
0
71
3
72
9
73
5
74
3
42
0.0000001000
43
0.0000001000
44
0.0000000001
12
0.0051887034
22
-0.0049875707
32
0.0000000000
13
0.0055342565
23
-0.0046011991
33
0.0000000000
40
0.0000000000
40
0.0000000000
40
0.0000000000
40
0.0000000000
40
0.8454962893
40
1.0000000000
40
1.0000000000
40
1.0000000000
40
1.0000000000
10
20.9784233788
20
13.6287743425
30
0.0000000000
10
20.9798857220
20
13.6273686850
30
0.0000000000
10
20.9816658114
20
13.6257586815
30
0.0000000000
10
20.9835020178
20
13.6242146688
30
0.0000000000
10
20.9837870388
20
13.6239777014
30
0.0000000000
11
20.9784233788
21
13.6287743425
31
0.0000000000
11
20.9829359560
21
13.6246933555
31
0.0000000000
11
20.9837870388
21
13.6239777014
31
0.0000000000
0
SPLINE
5
26D
100
AcDbEntity
8
0
100
AcDbSpline
62
7
6
CONTINUOUS
70
0
71
3
72
8
73
4
74
2
42
0.0000001000
43
0.0000001000
44
0.0000000001
12
0.0051968055
22
-0.0043206412
32
0.0000000000
13
0.0054764910
23
-0.0039599241
33
0.0000000000
40
0.0000000000
40
0.0000000000
40
0.0000000000
40
0.0000000000
40
1.0000000000
40
1.0000000000
40
1.0000000000
40
1.0000000000
10
20.9837870388
20
13.6239777014
30
0.0000000000
10
20.9855193073
20
13.6225374876
30
0.0000000000
10
20.9873003478
20
13.6211559406
30
0.0000000000
10
20.9891258448
20
13.6198359659
30
0.0000000000
11
20.9837870388
21
13.6239777014
31
0.0000000000
11
20.9891258448
21
13.6198359659
31
0.0000000000
0
SPLINE
5
26E
100
AcDbEntity
8
0
100
AcDbSpline
62
7
6
CONTINUOUS
70
0
71
3
72
8
73
4
74
2
42
0.0000001000
43
0.0000001000
44
0.0000000001
12
0.0047215218
22
-0.0034140233
32
0.0000000000
13
0.0049114903
23
-0.0031338401
33
0.0000000000
40
0.0000000000
40
0.0000000000
40
0.0000000000
40
0.0000000000
40
1.0000000000
40
1.0000000000
40
1.0000000000
40
1.0000000000
10
20.9891258448
20
13.6198359659
30
0.0000000000
10
20.9906996854
20
13.6186979582
30
0.0000000000
10
20.9923065702
20
13.6176057166
30
0.0000000000
10
20.9939437336
20
13.6165611032
30
0.0000000000
11
20.9891258448
21
13.6198359659
31
0.0000000000
11
20.9939437336
21
13.6165611032
31
0.0000000000
0
SPLINE
5
26F
100
AcDbEntity
8
0
100
AcDbSpline
62
7
6
CONTINUOUS
70
0
71
3
72
9
73
5
74
3
42
0.0000001000
43
0.0000001000
44
0.0000000001
12
0.0060375835
22
-0.0038523585
32
0.0000000000
13
0.0062966984
23
-0.0034101658
33
0.0000000000
40
0.0000000000
40
0.0000000000
40
0.0000000000
40
0.0000000000
40
0.9302096128
40
1.0000000000
40
1.0000000000
40
1.0000000000
40
1.0000000000
10
20.9939437336
20
13.6165611032
30
0.0000000000
10
20.9958158064
20
13.6153666029
30
0.0000000000
10
20.9978708957
20
13.6141494325
30
0.0000000000
10
20.9999669613
20
13.6130074516
30
0.0000000000
10
21.0001134443
20
13.6129281194
30
0.0000000000
11
20.9939437336
21
13.6165611032
31
0.0000000000
11
20.9996745904
21
13.6131672164
31
0.0000000000
11
21.0001134443
21
13.6129281194
31
0.0000000000
0
SPLINE
5
270
100
AcDbEntity
8
0
100
AcDbSpline
62
7
6
CONTINUOUS
70
0
71
3
72
9
73
5
74
3
42
0.0000001000
43
0.0000001000
44
0.0000000001
12
0.0351302860
22
-0.0190258596
32
0.0000000000
13
0.0397019993
23
-0.0038644719
33
0.0000000000
40
0.0000000000
40
0.0000000000
40
0.0000000000
40
0.0000000000
40
0.4895385930
40
1.0000000000
40
1.0000000000
40
1.0000000000
40
1.0000000000
10
21.0001134443
20
13.6129281194
30
0.0000000000
10
21.0058459879
20
13.6098234885
30
0.0000000000
10
21.0181748338
20
13.6046297684
30
0.0000000000
10
21.0313167842
20
13.6019818321
30
0.0000000000
10
21.0380722303
20
13.6013242775
30
0.0000000000
11
21.0001134443
21
13.6129281194
31
0.0000000000
11
21.0181117385
21
13.6053485277
31
0.0000000000
11
21.0380722303
21
13.6013242775
31
0.0000000000
0
SPLINE
5
271
100
AcDbEntity
8
0
100
AcDbSpline
62
7
6
CONTINUOUS
70
0
71
3
72
8
73
4
74
2
42
0.0000001000
43
0.0000001000
44
0.0000000001
12
0.0144509488
22
-0.0014063837
32
0.0000000000
13
0.0144461838
23
-0.0014551040
33
0.0000000000
40
0.0000000000
40
0.0000000000
40
0.0000000000
40
0.0000000000
40
1.0000000000
40
1.0000000000
40
1.0000000000
40
1.0000000000
10
21.0380722741
20
13.6013247274
30
0.0000000000
10
21.0428892571
20
13.6008559328
30
0.0000000000
10
21.0477054612
20
13.6003790166
30
0.0000000000
10
21.0525208558
20
13.5998939820
30
0.0000000000
11
21.0380722741
21
13.6013247274
31
0.0000000000
11
21.0525208558
21
13.5998939820
31
0.0000000000
0
SPLINE
5
272
100
AcDbEntity
8
0
100
AcDbSpline
62
7
6
CONTINUOUS
70
0
71
3
72
8
73
4
74
2
42
0.0000001000
43
0.0000001000
44
0.0000000001
12
0.0323756322
22
-0.0032610629
32
0.0000000000
13
0.0323501955
23
-0.0035056144
33
0.0000000000
40
0.0000000000
40
0.0000000000
40
0.0000000000
40
0.0000000000
40
1.0000000000
40
1.0000000000
40
1.0000000000
40
1.0000000000
10
21.0525208558
20
13.5998939820
30
0.0000000000
10
21.0633127332
20
13.5988069610
30
0.0000000000
10
21.0741005445
20
13.5976791639
30
0.0000000000
10
21.0848839430
20
13.5965106258
30
0.0000000000
11
21.0525208558
21
13.5998939820
31
0.0000000000
11
21.0848839430
21
13.5965106258
31
0.0000000000
0
SPLINE
5
273
100
AcDbEntity
8
0
100
AcDbSpline
62
7
6
CONTINUOUS
70
0
71
3
72
9
73
5
74
3
42
0.0000001000
43
0.0000001000
44
0.0000000001
12
0.0179140911
22
-0.0019412524
32
0.0000000000
13
0.0179057959
23
-0.0020161906
33
0.0000000000
40
0.0000000000
40
0.0000000000
40
0.0000000000
40
0.0000000000
40
0.0991844248
40
1.0000000000
40
1.0000000000
40
1.0000000000
40
1.0000000000
10
21.0848839430
20
13.5965106258
30
0.0000000000
10
21.0854762092
20
13.5964464451
30
0.0000000000
10
21.0914474387
20
13.5957981219
30
0.0000000000
10
21.0974173092
20
13.5951373062
30
0.0000000000
10
21.1027939158
20
13.5945319009
30
0.0000000000
11
21.0848839430
21
13.5965106258
31
0.0000000000
11
21.0866607018
21
13.5963177151
31
0.0000000000
11
21.1027939158
21
13.5945319009
31
0.0000000000
0
SPLINE
5
274
100
AcDbEntity
8
0
100
AcDbSpline
62
7
6
CONTINUOUS
70
0
71
3
72
8
73
4
74
2
42
0.0000001000
43
0.0000001000
44
0.0000000001
12
0.0143929229
22
-0.0016206415
32
0.0000000000
13
0.0143873578
23
-0.0016690364
33
0.0000000000
40
0.0000000000
40
0.0000000000
40
0.0000000000
40
0.0000000000
40
1.0000000000
40
1.0000000000
40
1.0000000000
40
1.0000000000
10
21.1027939158
20
13.5945319009
30
0.0000000000
10
21.1075915568
20
13.5939916870
30
0.0000000000
10
21.1123882855
20
13.5934434056
30
0.0000000000
10
21.1171840714
20
13.5928870601
30
0.0000000000
11
21.1027939158
21
13.5945319009
31
0.0000000000
11
21.1171840714
21
13.5928870601
31
0.0000000000
0
SPLINE
5
275
100
AcDbEntity
8
0
100
AcDbSpline
62
7
6
CONTINUOUS
70
0
71
3
72
8
73
4
74
2
42
0.0000001000
43
0.0000001000
44
0.0000000001
12
0.0180116434
22
-0.0020894795
32
0.0000000000
13
0.0180025983
23
-0.0021652899
33
0.0000000000
40
0.0000000000
40
0.0000000000
40
0.0000000000
40
0.0000000000
40
1.0000000000
40
1.0000000000
40
1.0000000000
40
1.0000000000
10
21.1171840714
20
13.5928870601
30
0.0000000000
10
21.1231879525
20
13.5921905669
30
0.0000000000
10
21.1291903561
20
13.5914814352
30
0.0000000000
10
21.1351912222
20
13.5907596719
30
0.0000000000
11
21.1171840714
21
13.5928870601
31
0.0000000000
11
21.1351912222
21
13.5907596719
31
0.0000000000
0
SPLINE
5
276
100
AcDbEntity
8
0
100
AcDbSpline
62
7
6
CONTINUOUS
70
0
71
3
72
9
73
5
74
3
42
0.0000001000
43
0.0000001000
44
0.0000000001
12
0.1473248115
22
-0.0177196429
32
0.0000000000
13
0.1412899594
23
-0.0459860711
33
0.0000000000
40
0.0000000000
40
0.0000000000
40
0.0000000000
40
0.0000000000
40
0.8634201713
40
1.0000000000
40
1.0000000000
40
1.0000000000
40
1.0000000000
10
21.1351912167
20
13.5907596267
30
0.0000000000
10
21.1775922881
20
13.5856597944
30
0.0000000000
10
21.2263017142
20
13.5755934502
30
0.0000000000
10
21.2736058313
20
13.5608915897
30
0.0000000000
10
21.2800382841
20
13.5587979998
30
0.0000000000
11
21.1351912167
21
13.5907596267
31
0.0000000000
11
21.2606580402
21
13.5648210737
31
0.0000000000
11
21.2800382841
21
13.5587979998
31
0.0000000000
0
SPLINE
5
277
100
AcDbEntity
8
0
100
AcDbSpline
62
7
6
CONTINUOUS
70
0
71
3
72
9
73
5
74
3
42
0.0000001000
43
0.0000001000
44
0.0000000001
12
0.0671299709
22
-0.1331122355
32
0.0000000000
13
0.0399239050
23
-0.1434297352
33
0.0000000000
40
0.0000000000
40
0.0000000000
40
0.0000000000
40
0.0000000000
40
0.1385320567
40
1.0000000000
40
1.0000000000
40
1.0000000000
40
1.0000000000
10
21.7246029404
20
13.1773131452
30
0.0000000000
10
21.7277028247
20
13.1711663746
30
0.0000000000
10
21.7494790401
20
13.1264890615
30
0.0000000000
10
21.7668567006
20
13.0797067138
30
0.0000000000
10
21.7783210887
20
13.0385200074
30
0.0000000000
11
21.7246029404
21
13.1773131452
31
0.0000000000
11
21.7336518193
21
13.1587474965
31
0.0000000000
11
21.7783210887
21
13.0385200074
31
0.0000000000
0
SPLINE
5
278
100
AcDbEntity
8
0
100
AcDbSpline
62
7
6
CONTINUOUS
70
0
71
3
72
8
73
4
74
2
42
0.0000001000
43
0.0000001000
44
0.0000000001
12
0.0794157522
22
-0.2852804582
32
0.0000000000
13
0.0620909972
23
-0.2896233589
33
0.0000000000
40
0.0000000000
40
0.0000000000
40
0.0000000000
40
0.0000000000
40
1.0000000000
40
1.0000000000
40
1.0000000000
40
1.0000000000
10
21.7783210887
20
13.0385200074
30
0.0000000000
10
21.8047930061
20
12.9434265213
30
0.0000000000
10
21.8284030098
20
12.8475060999
30
0.0000000000
10
21.8491000089
20
12.7509649803
30
0.0000000000
11
21.7783210887
21
13.0385200074
31
0.0000000000
11
21.8491000089
21
12.7509649803
31
0.0000000000
0
SPLINE
5
279
100
AcDbEntity
8
0
100
AcDbSpline
62
7
6
CONTINUOUS
70
0
71
3
72
15
73
11
74
9
42
0.0000001000
43
0.0000001000
44
0.0000000001
12
0.4968522967
22
-2.3175667554
32
0.0000000000
13
-0.6354946479
23
-2.2828121758
33
0.0000000000
40
0.0000000000
40
0.0000000000
40
0.0000000000
40
0.0000000000
40
0.0155897850
40
0.1561863956
40
0.2967856683
40
0.4373997615
40
0.5780352203
40
0.7186923895
40
0.8593681508
40
1.0000000000
40
1.0000000000
40
1.0000000000
40
1.0000000000
10
21.8491000089
20
12.7509649803
30
0.0000000000
10
21.8516819491
20
12.7389215244
30
0.0000000000
10
21.8770949653
20
12.6181672838
30
0.0000000000
10
21.9167197195
20
12.3869439089
30
0.0000000000
10
21.9506252832
20
12.0552371105
30
0.0000000000
10
21.9619573249
20
11.7219677072
30
0.0000000000
10
21.9506579046
20
11.3886513257
30
0.0000000000
10
21.9167672610
20
11.0568169108
30
0.0000000000
10
21.8604459585
20
10.7280643647
30
0.0000000000
10
21.8081058026
20
10.5119120595
30
0.0000000000
10
21.7783155401
20
10.4049000269
30
0.0000000000
11
21.8491000089
21
12.7509649803
31
0.0000000000
11
21.8567097299
21
12.7148060344
31
0.0000000000
11
21.9129843170
21
12.3864330172
31
0.0000000000
11
21.9468619711
21
12.0549934671
31
0.0000000000
11
21.9581854441
21
11.7219843800
31
0.0000000000
11
21.9468944012
21
11.3889235346
31
0.0000000000
11
21.9130304502
21
11.0573446775
31
0.0000000000
11
21.8567407126
21
10.7287839659
31
0.0000000000
11
21.7783155401
21
10.4049000269
31
0.0000000000
0
SPLINE
5
27A
100
AcDbEntity
8
0
100
AcDbSpline
62
7
6
CONTINUOUS
70
0
71
3
72
13
73
9
74
7
42
0.0000001000
43
0.0000001000
44
0.0000000001
12
-0.2008662289
22
-0.7215220285
32
0.0000000000
13
-0.7129951352
23
-0.2325540431
33
0.0000000000
40
0.0000000000
40
0.0000000000
40
0.0000000000
40
0.0000000000
40
0.1708977917
40
0.3421159822
40
0.5133415268
40
0.6845801470
40
0.8558348878
40
1.0000000000
40
1.0000000000
40
1.0000000000
40
1.0000000000
10
21.7783144501
20
10.4048930169
30
0.0000000000
10
21.7668719184
20
10.3637908432
30
0.0000000000
10
21.7369760599
20
10.2832749941
30
0.0000000000
10
21.6725657923
20
10.1718100260
30
0.0000000000
10
21.5903064673
20
10.0726240361
30
0.0000000000
10
21.4925784999
20
9.9886405614
30
0.0000000000
10
21.3879561489
20
9.9257312794
30
0.0000000000
10
21.3147550426
20
9.8959650386
30
0.0000000000
10
21.2804920347
20
9.8847896454
30
0.0000000000
11
21.7783144501
21
10.4048930169
31
0.0000000000
11
21.7337525806
21
10.2849050142
31
0.0000000000
11
21.6695992238
21
10.1738702980
31
0.0000000000
11
21.5877317401
21
10.0751611843
31
0.0000000000
11
21.4904630349
21
9.9915723998
31
0.0000000000
11
21.3805429596
21
9.9254742910
31
0.0000000000
11
21.2804920347
21
9.8847896454
31
0.0000000000
0
SPLINE
5
27B
100
AcDbEntity
8
0
100
AcDbSpline
62
7
6
CONTINUOUS
70
0
71
3
72
9
73
5
74
3
42
0.0000001000
43
0.0000001000
44
0.0000000001
12
-0.1413986710
22
-0.0461192945
32
0.0000000000
13
-0.1474605117
23
-0.0178011738
33
0.0000000000
40
0.0000000000
40
0.0000000000
40
0.0000000000
40
0.0000000000
40
0.1366778324
40
1.0000000000
40
1.0000000000
40
1.0000000000
40
1.0000000000
10
21.2804920347
20
9.8847896454
30
0.0000000000
10
21.2740500134
20
9.8826884836
30
0.0000000000
10
21.2267086932
20
9.8679437507
30
0.0000000000
10
21.1779564286
20
9.8578427018
30
0.0000000000
10
21.1355211190
20
9.8527199858
30
0.0000000000
11
21.2804920347
21
9.8847896454
31
0.0000000000
11
21.2610826377
21
9.8787446752
31
0.0000000000
11
21.1355211190
21
9.8527199858
31
0.0000000000
0
SPLINE
5
27C
100
AcDbEntity
8
0
100
AcDbSpline
62
7
6
CONTINUOUS
70
0
71
3
72
8
73
4
74
2
42
0.0000001000
43
0.0000001000
44
0.0000000001
12
-0.3427902674
22
-0.0413727199
32
0.0000000000
13
-0.3451120644
23
-0.0138165220
33
0.0000000000
40
0.0000000000
40
0.0000000000
40
0.0000000000
40
0.0000000000
40
1.0000000000
40
1.0000000000
40
1.0000000000
40
1.0000000000
10
21.1355211190
20
9.8527199858
30
0.0000000000
10
21.0212576966
20
9.8389290792
30
0.0000000000
10
20.9063865494
20
9.8297124058
30
0.0000000000
10
20.7913491946
20
9.8251068985
30
0.0000000000
11
21.1355211190
21
9.8527199858
31
0.0000000000
11
20.7913491946
21
9.8251068985
31
0.0000000000
0
SPLINE
5
27D
100
AcDbEntity
8
0
100
AcDbSpline
62
7
6
CONTINUOUS
70
0
71
3
72
8
73
4
74
2
42
0.0000001000
43
0.0000001000
44
0.0000000001
12
-0.3447646450
22
-0.0138026131
32
0.0000000000
13
-0.3447644156
23
0.0138085658
33
0.0000000000
40
0.0000000000
40
0.0000000000
40
0.0000000000
40
0.0000000000
40
1.0000000000
40
1.0000000000
40
1.0000000000
40
1.0000000000
10
20.7913491946
20
9.8251068985
30
0.0000000000
10
20.6764276463
20
9.8205060274
30
0.0000000000
10
20.5613401557
20
9.8205070196
30
0.0000000000
10
20.4464186839
20
9.8251098749
30
0.0000000000
11
20.7913491946
21
9.8251068985
31
0.0000000000
11
20.4464186839
21
9.8251098749
31
0.0000000000
0
SPLINE
5
27E
100
AcDbEntity
8
0
100
AcDbSpline
62
7
6
CONTINUOUS
70
0
71
3
72
8
73
4
74
2
42
0.0000001000
43
0.0000001000
44
0.0000000001
12
-0.3448696603
22
0.0138127811
32
0.0000000000
13
-0.3425513365
23
0.0413303358
33
0.0000000000
40
0.0000000000
40
0.0000000000
40
0.0000000000
40
0.0000000000
40
1.0000000000
40
1.0000000000
40
1.0000000000
40
1.0000000000
10
20.4464186839
20
9.8251098749
30
0.0000000000
10
20.3314621304
20
9.8297141353
30
0.0000000000
10
20.2166716765
20
9.8389230757
30
0.0000000000
10
20.1024878976
20
9.8526998543
30
0.0000000000
11
20.4464186839
21
9.8251098749
31
0.0000000000
11
20.1024878976
21
9.8526998543
31
0.0000000000
0
SPLINE
5
27F
100
AcDbEntity
8
0
100
AcDbSpline
62
7
6
CONTINUOUS
70
0
71
3
72
9
73
5
74
3
42
0.0000001000
43
0.0000001000
44
0.0000000001
12
-0.1475090042
22
0.0177970439
32
0.0000000000
13
-0.1414422014
23
0.0461383942
33
0.0000000000
40
0.0000000000
40
0.0000000000
40
0.0000000000
40
0.0000000000
40
0.8616954519
40
1.0000000000
40
1.0000000000
40
1.0000000000
40
1.0000000000
10
20.1024879506
20
9.8527002932
30
0.0000000000
10
20.0601186712
20
9.8578121705
30
0.0000000000
10
20.0113497503
20
9.8679073336
30
0.0000000000
10
19.9639912887
20
9.8826504451
30
0.0000000000
10
19.9574705888
20
9.8847774950
30
0.0000000000
11
20.1024879506
21
9.8527002932
31
0.0000000000
11
19.9771180494
21
9.8786612730
31
0.0000000000
11
19.9574705888
21
9.8847774950
31
0.0000000000
0
SPLINE
5
280
100
AcDbEntity
8
0
100
AcDbSpline
62
7
6
CONTINUOUS
70
0
71
3
72
9
73
5
74
3
42
0.0000001000
43
0.0000001000
44
0.0000000001
12
-0.0669436224
22
0.1329004188
32
0.0000000000
13
-0.0398288070
23
0.1431729926
33
0.0000000000
40
0.0000000000
40
0.0000000000
40
0.0000000000
40
0.0000000000
40
0.1372536941
40
1.0000000000
40
1.0000000000
40
1.0000000000
40
1.0000000000
10
19.5132974127
20
10.2663636335
30
0.0000000000
10
19.5102346595
20
10.2724439913
30
0.0000000000
10
19.4885130982
20
10.3170465406
30
0.0000000000
10
19.4711751543
20
10.3637459685
30
0.0000000000
10
19.4597211023
20
10.4049199586
30
0.0000000000
11
19.5132974127
21
10.2663636335
31
0.0000000000
11
19.5043545116
21
10.2847272228
31
0.0000000000
11
19.4597211023
21
10.4049199586
31
0.0000000000
0
SPLINE
5
281
100
AcDbEntity
8
0
100
AcDbSpline
62
7
6
CONTINUOUS
70
0
71
3
72
8
73
4
74
2
42
0.0000001000
43
0.0000001000
44
0.0000000001
12
-0.0789866393
22
0.2837389815
32
0.0000000000
13
-0.0618494420
23
0.2880384732
33
0.0000000000
40
0.0000000000
40
0.0000000000
40
0.0000000000
40
0.0000000000
40
1.0000000000
40
1.0000000000
40
1.0000000000
40
1.0000000000
10
19.4597211023
20
10.4049199586
30
0.0000000000
10
19.4333922225
20
10.4994996192
30
0.0000000000
10
19.4098944100
20
10.5948973196
30
0.0000000000
10
19.3892779294
20
10.6909101440
30
0.0000000000
11
19.4597211023
21
10.4049199586
31
0.0000000000
11
19.3892779294
21
10.6909101440
31
0.0000000000
0
SPLINE
5
282
100
AcDbEntity
8
0
100
AcDbSpline
62
7
6
CONTINUOUS
70
0
71
3
72
15
73
11
74
9
42
0.0000001000
43
0.0000001000
44
0.0000000001
12
-0.4979733874
22
2.3191073269
32
0.0000000000
13
0.6360259368
23
2.2844697558
33
0.0000000000
40
0.0000000000
40
0.0000000000
40
0.0000000000
40
0.0000000000
40
0.0163295655
40
0.1568874622
40
0.2974286171
40
0.4379604171
40
0.5784868476
40
0.7190106241
40
0.8595333466
40
1.0000000000
40
1.0000000000
40
1.0000000000
40
1.0000000000
10
19.3892779294
20
10.6909101440
30
0.0000000000
10
19.3865673664
20
10.7035334823
30
0.0000000000
10
19.3610039558
20
10.8249152599
30
0.0000000000
10
19.3212763635
20
11.0568118824
30
0.0000000000
10
19.2873864999
20
11.3886240385
30
0.0000000000
10
19.2760844628
20
11.7219420102
30
0.0000000000
10
19.2874162972
20
12.0552451964
30
0.0000000000
10
19.3213297981
20
12.3870088118
30
0.0000000000
10
19.3776552281
20
12.7156464131
30
0.0000000000
10
19.4299838749
20
12.9317102273
30
0.0000000000
10
19.4597640198
20
13.0386741678
30
0.0000000000
11
19.3892779294
21
10.6909101440
31
0.0000000000
11
19.3812957731
21
10.7288115965
31
0.0000000000
11
19.3250126368
21
11.0573381162
31
0.0000000000
11
19.2911503045
21
11.3888865201
31
0.0000000000
11
19.2798567450
21
11.7219460810
31
0.0000000000
11
19.2911801126
21
12.0549918894
31
0.0000000000
11
19.3250665356
21
12.3864964066
31
0.0000000000
11
19.3813594331
21
12.7149366272
31
0.0000000000
11
19.4597640198
21
13.0386741678
31
0.0000000000
0
SPLINE
5
283
100
AcDbEntity
8
0
100
AcDbSpline
62
7
6
CONTINUOUS
70
0
71
3
72
13
73
9
74
7
42
0.0000001000
43
0.0000001000
44
0.0000000001
12
0.2008839693
22
0.7215176486
32
0.0000000000
13
0.7130447680
23
0.2324108331
33
0.0000000000
40
0.0000000000
40
0.0000000000
40
0.0000000000
40
0.0000000000
40
0.1708231071
40
0.3419228171
40
0.5130315700
40
0.6841862118
40
0.8554058589
40
1.0000000000
40
1.0000000000
40
1.0000000000
40
1.0000000000
10
19.4597646441
20
13.0386781658
30
0.0000000000
10
19.4712031854
20
13.0797621280
30
0.0000000000
10
19.5010823477
20
13.1602322788
30
0.0000000000
10
19.5654465525
20
13.2716334811
30
0.0000000000
10
19.6476397915
20
13.3707695612
30
0.0000000000
10
19.7453045241
20
13.4547354131
30
0.0000000000
10
19.8499781867
20
13.5177103902
30
0.0000000000
10
19.9232712535
20
13.5475160023
30
0.0000000000
10
19.9576386187
20
13.5587177506
30
0.0000000000
11
19.4597646441
21
13.0386781658
31
0.0000000000
11
19.5043074091
21
13.1586136948
31
0.0000000000
11
19.5684095435
21
13.2695756426
31
0.0000000000
11
19.6502066946
21
13.3682295806
31
0.0000000000
11
19.7474097182
21
13.4517984491
31
0.0000000000
11
19.8572912066
21
13.5179099195
31
0.0000000000
11
19.9576386187
21
13.5587177506
31
0.0000000000
0
SPLINE
5
284
100
AcDbEntity
8
0
100
AcDbSpline
62
7
6
CONTINUOUS
70
0
71
3
72
9
73
5
74
3
42
0.0000001000
43
0.0000001000
44
0.0000000001
12
0.1411340883
22
0.0460014469
32
0.0000000000
13
0.1471719392
23
0.0177875217
33
0.0000000000
40
0.0000000000
40
0.0000000000
40
0.0000000000
40
0.0000000000
40
0.1348196990
40
1.0000000000
40
1.0000000000
40
1.0000000000
40
1.0000000000
10
19.9576386187
20
13.5587177506
30
0.0000000000
10
19.9639811705
20
13.5607850510
30
0.0000000000
10
20.0112306001
20
13.5755012816
30
0.0000000000
10
20.0598867501
20
13.5855912755
30
0.0000000000
10
20.1023301710
20
13.5907210799
30
0.0000000000
11
19.9576386187
21
13.5587177506
31
0.0000000000
11
19.9767470473
21
13.5646690384
31
0.0000000000
11
20.1023301710
21
13.5907210799
31
0.0000000000
0
SPLINE
5
285
100
AcDbEntity
8
0
100
AcDbSpline
62
7
6
CONTINUOUS
70
0
71
3
72
8
73
4
74
2
42
0.0000001000
43
0.0000001000
44
0.0000000001
12
0.0766841550
22
0.0092521941
32
0.0000000000
13
0.0760916520
23
0.0134370325
33
0.0000000000
40
0.0000000000
40
0.0000000000
40
0.0000000000
40
0.0000000000
40
1.0000000000
40
1.0000000000
40
1.0000000000
40
1.0000000000
10
21.2135210957
20
9.2075199830
30
0.0000000000
10
21.2390824807
20
9.2106040477
30
0.0000000000
10
21.2645676039
20
9.2143890857
30
0.0000000000
10
21.2899314879
20
9.2188680966
30
0.0000000000
11
21.2135210957
21
9.2075199830
31
0.0000000000
11
21.2899314879
21
9.2188680966
31
0.0000000000
0
SPLINE
5
286
100
AcDbEntity
8
0
100
AcDbSpline
62
7
6
CONTINUOUS
70
0
71
3
72
13
73
9
74
7
42
0.0000001000
43
0.0000001000
44
0.0000000001
12
0.5434272646
22
0.0959638755
32
0.0000000000
13
0.4658867112
23
0.2957569955
33
0.0000000000
40
0.0000000000
40
0.0000000000
40
0.0000000000
40
0.0000000000
40
0.0690459255
40
0.2812971191
40
0.4998507466
40
0.7184413791
40
0.9308054098
40
1.0000000000
40
1.0000000000
40
1.0000000000
40
1.0000000000
10
21.2899314879
20
9.2188680966
30
0.0000000000
10
21.3024386340
20
9.2210767348
30
0.0000000000
10
21.3532733720
20
9.2307623267
30
0.0000000000
10
21.4425755971
20
9.2529252541
30
0.0000000000
10
21.5557793623
20
9.2913766445
30
0.0000000000
10
21.6653081768
20
9.3393560261
30
0.0000000000
10
21.7462326480
20
9.3832587170
30
0.0000000000
10
21.7903337244
20
9.4104260459
30
0.0000000000
10
21.8010793377
20
9.4172476406
30
0.0000000000
11
21.2899314879
21
9.2188680966
31
0.0000000000
11
21.3273590933
21
9.2259994027
31
0.0000000000
11
21.4409961885
21
9.2542010165
31
0.0000000000
11
21.5551513610
21
9.2929762349
31
0.0000000000
11
21.6656006080
21
9.3413581250
31
0.0000000000
11
21.7685696636
21
9.3972211142
31
0.0000000000
11
21.8010793377
21
9.4172476406
31
0.0000000000
0
SPLINE
5
287
100
AcDbEntity
8
0
100
AcDbSpline
62
7
6
CONTINUOUS
70
0
71
3
72
8
73
4
74
2
42
0.0000001000
43
0.0000001000
44
0.0000000001
12
0.0652530294
22
0.0414243194
32
0.0000000000
13
0.0628658832
23
0.0449151687
33
0.0000000000
40
0.0000000000
40
0.0000000000
40
0.0000000000
40
0.0000000000
40
1.0000000000
40
1.0000000000
40
1.0000000000
40
1.0000000000
10
21.8010793377
20
9.4172476406
30
0.0000000000
10
21.8228303475
20
9.4310557471
30
0.0000000000
10
21.8442024796
20
9.4454582601
30
0.0000000000
10
21.8651577741
20
9.4604299830
30
0.0000000000
11
21.8010793377
21
9.4172476406
31
0.0000000000
11
21.8651577741
21
9.4604299830
31
0.0000000000
0
SPLINE
5
288
100
AcDbEntity
8
0
100
AcDbSpline
62
7
6
CONTINUOUS
70
0
71
3
72
8
73
4
74
2
42
0.0000001000
43
0.0000001000
44
0.0000000001
12
0.3945437770
22
-0.0476253334
32
0.0000000000
13
0.3972168091
23
-0.0159036235
33
0.0000000000
40
0.0000000000
40
0.0000000000
40
0.0000000000
40
0.0000000000
40
1.0000000000
40
1.0000000000
40
1.0000000000
40
1.0000000000
10
20.0244438365
20
9.2075293083
30
0.0000000000
10
20.1559584288
20
9.1916541972
30
0.0000000000
10
20.2881726961
20
9.1810447733
30
0.0000000000
10
20.4205782991
20
9.1757435655
30
0.0000000000
11
20.0244438365
21
9.2075293083
31
0.0000000000
11
20.4205782991
21
9.1757435655
31
0.0000000000
0
SPLINE
5
289
100
AcDbEntity
8
0
100
AcDbSpline
62
7
6
CONTINUOUS
70
0
71
3
72
8
73
4
74
2
42
0.0000001000
43
0.0000001000
44
0.0000000001
12
0.3968323290
22
-0.0158882298
32
0.0000000000
13
0.3968320263
23
0.0158992726
33
0.0000000000
40
0.0000000000
40
0.0000000000
40
0.0000000000
40
0.0000000000
40
1.0000000000
40
1.0000000000
40
1.0000000000
40
1.0000000000
10
20.4205782991
20
9.1757435655
30
0.0000000000
10
20.5528557422
20
9.1704474889
30
0.0000000000
10
20.6853242475
20
9.1704493244
30
0.0000000000
10
20.8176015897
20
9.1757490819
30
0.0000000000
11
20.4205782991
21
9.1757435655
31
0.0000000000
11
20.8176015897
21
9.1757490819
31
0.0000000000
0
SPLINE
5
28A
100
AcDbEntity
8
0
100
AcDbSpline
62
7
6
CONTINUOUS
70
0
71
3
72
8
73
4
74
2
42
0.0000001000
43
0.0000001000
44
0.0000000001
12
0.3970010089
22
0.0159060430
32
0.0000000000
13
0.3943304751
23
0.0475933110
33
0.0000000000
40
0.0000000000
40
0.0000000000
40
0.0000000000
40
0.0000000000
40
1.0000000000
40
1.0000000000
40
1.0000000000
40
1.0000000000
10
20.8176015897
20
9.1757490819
30
0.0000000000
10
20.9499352593
20
9.1810510963
30
0.0000000000
10
21.0820776040
20
9.1916555460
30
0.0000000000
10
21.2135210957
20
9.2075199830
30
0.0000000000
11
20.8176015897
21
9.1757490819
31
0.0000000000
11
21.2135210957
21
9.2075199830
31
0.0000000000
0
SPLINE
5
28B
100
AcDbEntity
8
0
100
AcDbSpline
62
7
6
CONTINUOUS
70
0
71
3
72
10
73
6
74
4
42
0.0000001000
43
0.0000001000
44
0.0000000001
12
0.1921095236
22
-0.1372545510
32
0.0000000000
13
0.2124110141
23
-0.1032275052
33
0.0000000000
40
0.0000000000
40
0.0000000000
40
0.0000000000
40
0.0000000000
40
0.4979925975
40
0.9946305736
40
1.0000000000
40
1.0000000000
40
1.0000000000
40
1.0000000000
10
19.3728847094
20
9.4604299830
30
0.0000000000
10
19.4047744163
20
9.4376460662
30
0.0000000000
10
19.4703592656
20
9.3947165010
30
0.0000000000
10
19.5396920763
20
9.3572870564
30
0.0000000000
10
19.5752282456
20
9.3399973521
30
0.0000000000
10
19.5756084207
20
9.3398125946
30
0.0000000000
11
19.3728847094
21
9.4604299830
31
0.0000000000
11
19.4712948091
21
9.3960871925
31
0.0000000000
11
19.5744681458
21
9.3403673819
31
0.0000000000
11
19.5756084207
21
9.3398125946
31
0.0000000000
0
SPLINE
5
28C
100
AcDbEntity
8
0
100
AcDbSpline
62
7
6
CONTINUOUS
70
0
71
3
72
9
73
5
74
3
42
0.0000001000
43
0.0000001000
44
0.0000000001
12
0.2113330166
22
-0.1027036200
32
0.0000000000
13
0.2253320698
23
-0.0665971855
33
0.0000000000
40
0.0000000000
40
0.0000000000
40
0.0000000000
40
0.0000000000
40
0.4967929231
40
1.0000000000
40
1.0000000000
40
1.0000000000
40
1.0000000000
10
19.5756084207
20
9.3398125946
30
0.0000000000
10
19.6106046697
20
9.3228051174
30
0.0000000000
10
19.6824716426
20
9.2914981873
30
0.0000000000
10
19.7566472547
20
9.2661362171
30
0.0000000000
10
19.7944434854
20
9.2549654920
30
0.0000000000
11
19.5756084207
21
9.3398125946
31
0.0000000000
11
19.6825804563
21
9.2931662299
31
0.0000000000
11
19.7944434854
21
9.2549654920
31
0.0000000000
0
SPLINE
5
28D
100
AcDbEntity
8
0
100
AcDbSpline
62
7
6
CONTINUOUS
70
0
71
3
72
9
73
5
74
3
42
0.0000001000
43
0.0000001000
44
0.0000000001
12
0.2254689917
22
-0.0666376530
32
0.0000000000
13
0.2333541165
23
-0.0281679886
33
0.0000000000
40
0.0000000000
40
0.0000000000
40
0.0000000000
40
0.0000000000
40
0.4987012422
40
1.0000000000
40
1.0000000000
40
1.0000000000
40
1.0000000000
10
19.7944434854
20
9.2549654920
30
0.0000000000
10
19.8319240408
20
9.2438880653
30
0.0000000000
10
19.9080081587
20
9.2248138041
30
0.0000000000
10
19.9854504804
20
9.2122363347
30
0.0000000000
10
20.0244438566
20
9.2075294755
30
0.0000000000
11
19.7944434854
21
9.2549654920
31
0.0000000000
11
19.9081483183
21
9.2264791210
31
0.0000000000
11
20.0244438566
21
9.2075294755
31
0.0000000000
0
SPLINE
5
28E
100
AcDbEntity
8
0
100
AcDbSpline
62
7
6
CONTINUOUS
70
0
71
3
72
9
73
5
74
3
42
0.0000001000
43
0.0000001000
44
0.0000000001
12
-0.0000121666
22
0.0412803328
32
0.0000000000
13
-0.0166342518
23
0.0378559196
33
0.0000000000
40
0.0000000000
40
0.0000000000
40
0.0000000000
40
0.0000000000
40
0.5141180690
40
1.0000000000
40
1.0000000000
40
1.0000000000
40
1.0000000000
10
20.9939210958
20
-11.0097773351
30
0.0000000000
10
20.9939190108
20
-11.0027030135
30
0.0000000000
10
20.9924426688
20
-10.9888981343
30
0.0000000000
10
20.9881699101
20
-10.9757236551
30
0.0000000000
10
20.9854758160
20
-10.9695924860
30
0.0000000000
11
20.9939210958
21
-11.0097773351
31
0.0000000000
11
20.9916618410
21
-10.9886749635
31
0.0000000000
11
20.9854758160
21
-10.9695924860
31
0.0000000000
0
SPLINE
5
28F
100
AcDbEntity
8
0
100
AcDbSpline
62
7
6
CONTINUOUS
70
0
71
3
72
9
73
5
74
3
42
0.0000001000
43
0.0000001000
44
0.0000000001
12
-0.0031085439
22
0.0070743662
32
0.0000000000
13
-0.0036463474
23
0.0068142485
33
0.0000000000
40
0.0000000000
40
0.0000000000
40
0.0000000000
40
0.0000000000
40
0.0990886614
40
1.0000000000
40
1.0000000000
40
1.0000000000
40
1.0000000000
10
20.9854758160
20
-10.9695924860
30
0.0000000000
10
20.9853731422
20
-10.9693588229
30
0.0000000000
10
20.9843279018
20
-10.9670046595
30
0.0000000000
10
20.9831914748
20
-10.9646911305
30
0.0000000000
10
20.9820964628
20
-10.9626447859
30
0.0000000000
11
20.9854758160
21
-10.9695924860
31
0.0000000000
11
20.9851651039
21
-10.9688926801
31
0.0000000000
11
20.9820964628
21
-10.9626447859
31
0.0000000000
0
SPLINE
5
290
100
AcDbEntity
8
0
100
AcDbSpline
62
7
6
CONTINUOUS
70
0
71
3
72
8
73
4
74
2
42
0.0000001000
43
0.0000001000
44
0.0000000001
12
-0.0026558500
22
0.0049632194
32
0.0000000000
13
-0.0029305772
23
0.0048065669
33
0.0000000000
40
0.0000000000
40
0.0000000000
40
0.0000000000
40
0.0000000000
40
1.0000000000
40
1.0000000000
40
1.0000000000
40
1.0000000000
10
20.9820964628
20
-10.9626447859
30
0.0000000000
10
20.9812111795
20
-10.9609903794
30
0.0000000000
10
20.9802793635
20
-10.9593607714
30
0.0000000000
10
20.9793025045
20
-10.9577585824
30
0.0000000000
11
20.9820964628
21
-10.9626447859
31
0.0000000000
11
20.9793025045
21
-10.9577585824
31
0.0000000000
0
SPLINE
5
291
100
AcDbEntity
8
0
100
AcDbSpline
62
7
6
CONTINUOUS
70
0
71
3
72
8
73
4
74
2
42
0.0000001000
43
0.0000001000
44
0.0000000001
12
-0.0038849454
22
0.0063718678
32
0.0000000000
13
-0.0043494791
23
0.0060644384
33
0.0000000000
40
0.0000000000
40
0.0000000000
40
0.0000000000
40
0.0000000000
40
1.0000000000
40
1.0000000000
40
1.0000000000
40
1.0000000000
10
20.9793025045
20
-10.9577585824
30
0.0000000000
10
20.9780075226
20
-10.9556346265
30
0.0000000000
10
20.9766333834
20
-10.9535588561
30
0.0000000000
10
20.9751835571
20
-10.9515373766
30
0.0000000000
11
20.9793025045
21
-10.9577585824
31
0.0000000000
11
20.9751835571
21
-10.9515373766
31
0.0000000000
0
SPLINE
5
292
100
AcDbEntity
8
0
100
AcDbSpline
62
7
6
CONTINUOUS
70
0
71
3
72
9
73
5
74
3
42
0.0000001000
43
0.0000001000
44
0.0000000001
12
-0.0040490036
22
0.0056454882
32
0.0000000000
13
-0.0044318835
23
0.0053500850
33
0.0000000000
40
0.0000000000
40
0.0000000000
40
0.0000000000
40
0.0000000000
40
0.1553157432
40
1.0000000000
40
1.0000000000
40
1.0000000000
40
1.0000000000
10
20.9751835571
20
-10.9515373766
30
0.0000000000
10
20.9749739324
20
-10.9512450989
30
0.0000000000
10
20.9736140772
20
-10.9493705769
30
0.0000000000
10
20.9721890659
20
-10.9475438688
30
0.0000000000
10
20.9709412185
20
-10.9460374913
30
0.0000000000
11
20.9751835571
21
-10.9515373766
31
0.0000000000
11
20.9745499468
21
-10.9506639668
31
0.0000000000
11
20.9709412185
21
-10.9460374913
31
0.0000000000
0
SPLINE
5
293
100
AcDbEntity
8
0
100
AcDbSpline
62
7
6
CONTINUOUS
70
0
71
3
72
8
73
4
74
2
42
0.0000001000
43
0.0000001000
44
0.0000000001
12
-0.0042279161
22
0.0051038595
32
0.0000000000
13
-0.0045558488
23
0.0048128466
33
0.0000000000
40
0.0000000000
40
0.0000000000
40
0.0000000000
40
0.0000000000
40
1.0000000000
40
1.0000000000
40
1.0000000000
40
1.0000000000
10
20.9709412185
20
-10.9460374913
30
0.0000000000
10
20.9695319131
20
-10.9443362048
30
0.0000000000
10
20.9680662772
20
-10.9426816202
30
0.0000000000
10
20.9665476610
20
-10.9410773380
30
0.0000000000
11
20.9709412185
21
-10.9460374913
31
0.0000000000
11
20.9665476610
21
-10.9410773380
31
0.0000000000
0
SPLINE
5
294
100
AcDbEntity
8
0
100
AcDbSpline
62
7
6
CONTINUOUS
70
0
71
3
72
8
73
4
74
2
42
0.0000001000
43
0.0000001000
44
0.0000000001
12
-0.0047764501
22
0.0050458922
32
0.0000000000
13
-0.0051142803
23
0.0047016947
33
0.0000000000
40
0.0000000000
40
0.0000000000
40
0.0000000000
40
0.0000000000
40
1.0000000000
40
1.0000000000
40
1.0000000000
40
1.0000000000
10
20.9665476610
20
-10.9410773380
30
0.0000000000
10
20.9649555109
20
-10.9393953740
30
0.0000000000
10
20.9633051255
20
-10.9377687016
30
0.0000000000
10
20.9616003654
20
-10.9362014701
30
0.0000000000
11
20.9665476610
21
-10.9410773380
31
0.0000000000
11
20.9616003654
21
-10.9362014701
31
0.0000000000
0
SPLINE
5
295
100
AcDbEntity
8
0
100
AcDbSpline
62
7
6
CONTINUOUS
70
0
71
3
72
10
73
6
74
4
42
0.0000001000
43
0.0000001000
44
0.0000000001
12
-0.0318524973
22
0.0292828528
32
0.0000000000
13
-0.0411281171
23
0.0131967827
33
0.0000000000
40
0.0000000000
40
0.0000000000
40
0.0000000000
40
0.0000000000
40
0.0376894832
40
0.5152348300
40
1.0000000000
40
1.0000000000
40
1.0000000000
40
1.0000000000
10
20.9616003654
20
-10.9362014701
30
0.0000000000
10
20.9612001973
20
-10.9358335849
30
0.0000000000
10
20.9556887339
20
-10.9308491772
30
0.0000000000
10
20.9439231278
20
-10.9223825682
30
0.0000000000
10
20.9311349068
20
-10.9167440677
30
0.0000000000
10
20.9244890806
20
-10.9146116208
30
0.0000000000
11
20.9616003654
21
-10.9362014701
31
0.0000000000
11
20.9603909229
21
-10.9351076938
31
0.0000000000
11
20.9436470387
21
-10.9230615705
31
0.0000000000
11
20.9244890806
21
-10.9146116208
31
0.0000000000
0
SPLINE
5
296
100
AcDbEntity
8
0
100
AcDbSpline
62
7
6
CONTINUOUS
70
0
71
3
72
8
73
4
74
2
42
0.0000001000
43
0.0000001000
44
0.0000000001
12
0.0000000000
22
0.7047838827
32
0.0000000000
13
-0.0000000719
23
0.7047838827
33
0.0000000000
40
0.0000000000
40
0.0000000000
40
0.0000000000
40
0.0000000000
40
1.0000000000
40
1.0000000000
40
1.0000000000
40
1.0000000000
10
20.9939210955
20
-15.5464616467
30
0.0000000000
10
20.9939210955
20
-15.3115336858
30
0.0000000000
10
20.9939210771
20
-15.0766057249
30
0.0000000000
10
20.9939210531
20
-14.8416777640
30
0.0000000000
11
20.9939210955
21
-15.5464616467
31
0.0000000000
11
20.9939210531
21
-14.8416777640
31
0.0000000000
0
SPLINE
5
297
100
AcDbEntity
8
0
100
AcDbSpline
62
7
6
CONTINUOUS
70
0
71
3
72
10
73
6
74
4
42
0.0000001000
43
0.0000001000
44
0.0000000001
12
-0.0000003797
22
3.7236422966
32
0.0000000000
13
0.0000000811
23
3.7236422966
33
0.0000000000
40
0.0000000000
40
0.0000000000
40
0.0000000000
40
0.0000000000
40
0.2164099753
40
0.6225611911
40
1.0000000000
40
1.0000000000
40
1.0000000000
40
1.0000000000
10
20.9939210531
20
-14.8416777640
30
0.0000000000
10
20.9939210257
20
-14.5730666515
30
0.0000000000
10
20.9939209262
20
-13.8003349237
30
0.0000000000
10
20.9939209263
20
-12.5591208249
30
0.0000000000
10
20.9939210842
20
-11.5865178385
30
0.0000000000
10
20.9939210944
20
-11.1180354674
30
0.0000000000
11
20.9939210531
21
-14.8416777640
31
0.0000000000
11
20.9939209686
21
-14.0358444266
31
0.0000000000
11
20.9939209687
21
-12.5234825806
31
0.0000000000
11
20.9939210944
21
-11.1180354674
31
0.0000000000
0
SPLINE
5
298
100
AcDbEntity
8
0
100
AcDbSpline
62
7
6
CONTINUOUS
70
0
71
3
72
8
73
4
74
2
42
0.0000001000
43
0.0000001000
44
0.0000000001
12
0.0000000024
22
0.1082581323
32
0.0000000000
13
-0.0000000001
23
0.1082581323
33
0.0000000000
40
0.0000000000
40
0.0000000000
40
0.0000000000
40
0.0000000000
40
1.0000000000
40
1.0000000000
40
1.0000000000
40
1.0000000000
10
20.9939210944
20
-11.1180354674
30
0.0000000000
10
20.9939210952
20
-11.0819494233
30
0.0000000000
10
20.9939210956
20
-11.0458633792
30
0.0000000000
10
20.9939210955
20
-11.0097773351
30
0.0000000000
11
20.9939210944
21
-11.1180354674
31
0.0000000000
11
20.9939210955
21
-11.0097773351
31
0.0000000000
0
SPLINE
5
299
100
AcDbEntity
8
0
100
AcDbSpline
62
7
6
CONTINUOUS
70
0
71
3
72
9
73
5
74
3
42
0.0000001000
43
0.0000001000
44
0.0000000001
12
0.0394073961
22
0.0126592942
32
0.0000000000
13
0.0310152545
23
0.0275129107
33
0.0000000000
40
0.0000000000
40
0.0000000000
40
0.0000000000
40
0.0000000000
40
0.5120742942
40
1.0000000000
40
1.0000000000
40
1.0000000000
40
1.0000000000
10
20.9245205299
20
-15.6419401988
30
0.0000000000
10
20.9312470347
20
-15.6397793657
30
0.0000000000
10
20.9439751457
20
-15.6341425325
30
0.0000000000
10
20.9552413945
20
-15.6260219657
30
0.0000000000
10
20.9602857745
20
-15.6215472136
30
0.0000000000
11
20.9245205299
21
-15.6419401988
31
0.0000000000
11
20.9438991820
21
-15.6333551261
31
0.0000000000
11
20.9602857745
21
-15.6215472136
31
0.0000000000
0
SPLINE
5
29A
100
AcDbEntity
8
0
100
AcDbSpline
62
7
6
CONTINUOUS
70
0
71
3
72
9
73
5
74
3
42
0.0000001000
43
0.0000001000
44
0.0000000001
12
0.0058213597
22
0.0051639928
32
0.0000000000
13
0.0054029798
23
0.0056020534
33
0.0000000000
40
0.0000000000
40
0.0000000000
40
0.0000000000
40
0.0000000000
40
0.0732228906
40
1.0000000000
40
1.0000000000
40
1.0000000000
40
1.0000000000
10
20.9602857745
20
-15.6215472136
30
0.0000000000
10
20.9604278601
20
-15.6214211728
30
0.0000000000
10
20.9623634081
20
-15.6196942886
30
0.0000000000
10
20.9642315293
20
-15.6178918924
30
0.0000000000
10
20.9659006486
20
-15.6161612741
30
0.0000000000
11
20.9602857745
21
-15.6215472136
31
0.0000000000
11
20.9607109514
21
-15.6211678730
31
0.0000000000
11
20.9659006486
21
-15.6161612741
31
0.0000000000
0
SPLINE
5
29B
100
AcDbEntity
8
0
100
AcDbSpline
62
7
6
CONTINUOUS
70
0
71
3
72
8
73
4
74
2
42
0.0000001000
43
0.0000001000
44
0.0000000001
12
0.0039229873
22
0.0040675303
32
0.0000000000
13
0.0036876749
23
0.0042825030
33
0.0000000000
40
0.0000000000
40
0.0000000000
40
0.0000000000
40
0.0000000000
40
1.0000000000
40
1.0000000000
40
1.0000000000
40
1.0000000000
10
20.9659006486
20
-15.6161612741
30
0.0000000000
10
20.9672083111
20
-15.6148054307
30
0.0000000000
10
20.9684777883
20
-15.6134126381
30
0.0000000000
10
20.9697070133
20
-15.6119851371
30
0.0000000000
11
20.9659006486
21
-15.6161612741
31
0.0000000000
11
20.9697070133
21
-15.6119851371
31
0.0000000000
0
SPLINE
5
29C
100
AcDbEntity
8
0
100
AcDbSpline
62
7
6
CONTINUOUS
70
0
71
3
72
8
73
4
74
2
42
0.0000001000
43
0.0000001000
44
0.0000000001
12
0.0048728055
22
0.0056587971
32
0.0000000000
13
0.0044368071
23
0.0060069009
33
0.0000000000
40
0.0000000000
40
0.0000000000
40
0.0000000000
40
0.0000000000
40
1.0000000000
40
1.0000000000
40
1.0000000000
40
1.0000000000
10
20.9697070133
20
-15.6119851371
30
0.0000000000
10
20.9713312817
20
-15.6100988714
30
0.0000000000
10
20.9728852684
20
-15.6081520036
30
0.0000000000
10
20.9743642041
20
-15.6061497033
30
0.0000000000
11
20.9697070133
21
-15.6119851371
31
0.0000000000
11
20.9743642041
21
-15.6061497033
31
0.0000000000
0
SPLINE
5
29D
100
AcDbEntity
8
0
100
AcDbSpline
62
7
6
CONTINUOUS
70
0
71
3
72
9
73
5
74
3
42
0.0000001000
43
0.0000001000
44
0.0000000001
12
0.0041256781
22
0.0055856698
32
0.0000000000
13
0.0037273706
23
0.0058589170
33
0.0000000000
40
0.0000000000
40
0.0000000000
40
0.0000000000
40
0.0000000000
40
0.1038039689
40
1.0000000000
40
1.0000000000
40
1.0000000000
40
1.0000000000
10
20.9743642041
20
-15.6061497033
30
0.0000000000
10
20.9745069580
20
-15.6059564317
30
0.0000000000
10
20.9758754478
20
-15.6040895664
30
0.0000000000
10
20.9771786453
20
-15.6021752019
30
0.0000000000
10
20.9782921302
20
-15.6004249558
30
0.0000000000
11
20.9743642041
21
-15.6061497033
31
0.0000000000
11
20.9747903638
21
-15.6055683439
31
0.0000000000
11
20.9782921302
21
-15.6004249558
31
0.0000000000
0
SPLINE
5
29E
100
AcDbEntity
8
0
100
AcDbSpline
62
7
6
CONTINUOUS
70
0
71
3
72
8
73
4
74
2
42
0.0000001000
43
0.0000001000
44
0.0000000001
12
0.0035601836
22
0.0055961220
32
0.0000000000
13
0.0031819438
23
0.0058190405
33
0.0000000000
40
0.0000000000
40
0.0000000000
40
0.0000000000
40
0.0000000000
40
1.0000000000
40
1.0000000000
40
1.0000000000
40
1.0000000000
10
20.9782921302
20
-15.6004249558
30
0.0000000000
10
20.9794788581
20
-15.5985595818
30
0.0000000000
10
20.9806037535
20
-15.5966549061
30
0.0000000000
10
20.9816644014
20
-15.5947152260
30
0.0000000000
11
20.9782921302
21
-15.6004249558
31
0.0000000000
11
20.9816644014
21
-15.5947152260
31
0.0000000000
0
SPLINE
5
29F
100
AcDbEntity
8
0
100
AcDbSpline
62
7
6
CONTINUOUS
70
0
71
3
72
8
73
4
74
2
42
0.0000001000
43
0.0000001000
44
0.0000000001
12
0.0033634888
22
0.0061510445
32
0.0000000000
13
0.0029242037
23
0.0063704943
33
0.0000000000
40
0.0000000000
40
0.0000000000
40
0.0000000000
40
0.0000000000
40
1.0000000000
40
1.0000000000
40
1.0000000000
40
1.0000000000
10
20.9816644014
20
-15.5947152260
30
0.0000000000
10
20.9827855644
20
-15.5926648778
30
0.0000000000
10
20.9838349394
20
-15.5905754169
30
0.0000000000
10
20.9848096740
20
-15.5884519188
30
0.0000000000
11
20.9816644014
21
-15.5947152260
31
0.0000000000
11
20.9848096740
21
-15.5884519188
31
0.0000000000
0
SPLINE
5
2A0
100
AcDbEntity
8
0
100
AcDbSpline
62
7
6
CONTINUOUS
70
0
71
3
72
10
73
6
74
4
42
0.0000001000
43
0.0000001000
44
0.0000000001
12
0.0180629817
22
0.0393509260
32
0.0000000000
13
-0.0001211192
23
0.0432250520
33
0.0000000000
40
0.0000000000
40
0.0000000000
40
0.0000000000
40
0.0000000000
40
0.0270542942
40
0.5062543150
40
1.0000000000
40
1.0000000000
40
1.0000000000
40
1.0000000000
10
20.9848096740
20
-15.5884519188
30
0.0000000000
10
20.9849725677
20
-15.5880970482
30
0.0000000000
10
20.9879817148
20
-15.5814387351
30
0.0000000000
10
20.9924746447
20
-15.5676455227
30
0.0000000000
10
20.9939410295
20
-15.5535757454
30
0.0000000000
10
20.9939210955
20
-15.5464616845
30
0.0000000000
11
20.9848096740
21
-15.5884519188
31
0.0000000000
11
20.9852920882
21
-15.5873844792
31
0.0000000000
11
20.9917045967
21
-15.5676885420
31
0.0000000000
11
20.9939210955
21
-15.5464616845
31
0.0000000000
0
SPLINE
5
2A1
100
AcDbEntity
8
0
100
AcDbSpline
62
7
6
CONTINUOUS
70
0
71
3
72
9
73
5
74
3
42
0.0000001000
43
0.0000001000
44
0.0000000001
12
0.1959095336
22
-0.0628932056
32
0.0000000000
13
0.2047139292
23
-0.0215218292
33
0.0000000000
40
0.0000000000
40
0.0000000000
40
0.0000000000
40
0.0000000000
40
0.5015082284
40
1.0000000000
40
1.0000000000
40
1.0000000000
40
1.0000000000
10
20.3134104619
20
-15.6419045072
30
0.0000000000
10
20.3461605429
20
-15.6524183272
30
0.0000000000
10
20.4125977446
20
-15.6700229603
30
0.0000000000
10
20.4804635726
20
-15.6807005412
30
0.0000000000
10
20.5144796423
20
-15.6842766928
30
0.0000000000
11
20.3134104619
21
-15.6419045072
31
0.0000000000
11
20.4131574641
21
-15.6683338375
31
0.0000000000
11
20.5144796423
21
-15.6842766928
31
0.0000000000
0
SPLINE
5
2A2
100
AcDbEntity
8
0
100
AcDbSpline
62
7
6
CONTINUOUS
70
0
71
3
72
9
73
5
74
3
42
0.0000001000
43
0.0000001000
44
0.0000000001
12
0.1952084114
22
-0.0205225023
32
0.0000000000
13
0.1954646744
23
0.0179479012
33
0.0000000000
40
0.0000000000
40
0.0000000000
40
0.0000000000
40
0.0000000000
40
0.5321240493
40
1.0000000000
40
1.0000000000
40
1.0000000000
40
1.0000000000
10
20.5144796423
20
-15.6842766928
30
0.0000000000
10
20.5491046724
20
-15.6879168652
30
0.0000000000
10
20.6145354755
20
-15.6913568025
30
0.0000000000
10
20.6799681221
20
-15.6883667917
30
0.0000000000
10
20.7104525289
20
-15.6855676613
30
0.0000000000
11
20.5144796423
21
-15.6842766928
31
0.0000000000
11
20.6187398022
21
-15.6897571335
31
0.0000000000
11
20.7104525289
21
-15.6855676613
31
0.0000000000
0
SPLINE
5
2A3
100
AcDbEntity
8
0
100
AcDbSpline
62
7
6
CONTINUOUS
70
0
71
3
72
8
73
4
74
2
42
0.0000001000
43
0.0000001000
44
0.0000000001
12
0.0110707673
22
0.0010165368
32
0.0000000000
13
0.0110586474
23
0.0011396069
33
0.0000000000
40
0.0000000000
40
0.0000000000
40
0.0000000000
40
0.0000000000
40
1.0000000000
40
1.0000000000
40
1.0000000000
40
1.0000000000
10
20.7104525289
20
-15.6855676613
30
0.0000000000
10
20.7141427847
20
-15.6852288157
30
0.0000000000
10
20.7178311361
20
-15.6848694518
30
0.0000000000
10
20.7215173519
20
-15.6844895828
30
0.0000000000
11
20.7104525289
21
-15.6855676613
31
0.0000000000
11
20.7215173519
21
-15.6844895828
31
0.0000000000
0
SPLINE
5
2A4
100
AcDbEntity
8
0
100
AcDbSpline
62
7
6
CONTINUOUS
70
0
71
3
72
9
73
5
74
3
42
0.0000001000
43
0.0000001000
44
0.0000000001
12
0.0234319254
22
0.0024146882
32
0.0000000000
13
0.0233682059
23
0.0029661887
33
0.0000000000
40
0.0000000000
40
0.0000000000
40
0.0000000000
40
0.0000000000
40
0.0450222615
40
1.0000000000
40
1.0000000000
40
1.0000000000
40
1.0000000000
10
20.7215173519
20
-15.6844895828
30
0.0000000000
10
20.7218690046
20
-15.6844533446
30
0.0000000000
10
20.7296792147
20
-15.6836443038
30
0.0000000000
10
20.7374797377
20
-15.6827432078
30
0.0000000000
10
20.7449184431
20
-15.6817989930
30
0.0000000000
11
20.7215173519
21
-15.6844895828
31
0.0000000000
11
20.7225722516
21
-15.6843803083
31
0.0000000000
11
20.7449184431
21
-15.6817989930
31
0.0000000000
0
SPLINE
5
2A5
100
AcDbEntity
8
0
100
AcDbSpline
62
7
6
CONTINUOUS
70
0
71
3
72
9
73
5
74
3
42
0.0000001000
43
0.0000001000
44
0.0000000001
12
0.1827568829
22
0.0231978188
32
0.0000000000
13
0.1753423363
23
0.0562678563
33
0.0000000000
40
0.0000000000
40
0.0000000000
40
0.0000000000
40
0.0000000000
40
0.4382622929
40
1.0000000000
40
1.0000000000
40
1.0000000000
40
1.0000000000
10
20.7449184431
20
-15.6817989930
30
0.0000000000
10
20.7716169266
20
-15.6784100833
30
0.0000000000
10
20.8322237251
20
-15.6682176292
30
0.0000000000
10
20.8916883958
20
-15.6524761241
30
0.0000000000
10
20.9245205298
20
-15.6419401985
30
0.0000000000
11
20.7449184431
21
-15.6817989930
31
0.0000000000
11
20.8245209027
21
-15.6684103192
31
0.0000000000
11
20.9245205298
21
-15.6419401985
31
0.0000000000
0
SPLINE
5
2A6
100
AcDbEntity
8
0
100
AcDbSpline
62
7
6
CONTINUOUS
70
0
71
3
72
9
73
5
74
3
42
0.0000001000
43
0.0000001000
44
0.0000000001
12
0.0000427180
22
-0.0413597425
32
0.0000000000
13
0.0167084384
23
-0.0379101557
33
0.0000000000
40
0.0000000000
40
0.0000000000
40
0.0000000000
40
0.0000000000
40
0.5144041680
40
1.0000000000
40
1.0000000000
40
1.0000000000
40
1.0000000000
10
20.2439210945
20
-15.5467195882
30
0.0000000000
10
20.2439284193
20
-15.5538114629
30
0.0000000000
10
20.2454199988
20
-15.5676419571
30
0.0000000000
10
20.2497152870
20
-15.5808372055
30
0.0000000000
10
20.2524198030
20
-15.5869735434
30
0.0000000000
11
20.2439210945
21
-15.5467195882
31
0.0000000000
11
20.2462048627
21
-15.5678722972
31
0.0000000000
11
20.2524198030
21
-15.5869735434
31
0.0000000000
0
SPLINE
5
2A7
100
AcDbEntity
8
0
100
AcDbSpline
62
7
6
CONTINUOUS
70
0
71
3
72
9
73
5
74
3
42
0.0000001000
43
0.0000001000
44
0.0000000001
12
0.0030319128
22
-0.0068791759
32
0.0000000000
13
0.0035404540
23
-0.0066331880
33
0.0000000000
40
0.0000000000
40
0.0000000000
40
0.0000000000
40
0.0000000000
40
0.1025142166
40
1.0000000000
40
1.0000000000
40
1.0000000000
40
1.0000000000
10
20.2524198030
20
-15.5869735434
30
0.0000000000
10
20.2525234077
20
-15.5872086145
30
0.0000000000
10
20.2535429027
20
-15.5894977906
30
0.0000000000
10
20.2546485725
20
-15.5917484438
30
0.0000000000
10
20.2557077415
20
-15.5937328411
30
0.0000000000
11
20.2524198030
21
-15.5869735434
31
0.0000000000
11
20.2527333388
21
-15.5876775558
31
0.0000000000
11
20.2557077415
21
-15.5937328411
31
0.0000000000
0
SPLINE
5
2A8
100
AcDbEntity
8
0
100
AcDbSpline
62
7
6
CONTINUOUS
70
0
71
3
72
8
73
4
74
2
42
0.0000001000
43
0.0000001000
44
0.0000000001
12
0.0027848342
22
-0.0052175029
32
0.0000000000
13
0.0030877246
23
-0.0050446540
33
0.0000000000
40
0.0000000000
40
0.0000000000
40
0.0000000000
40
0.0000000000
40
1.0000000000
40
1.0000000000
40
1.0000000000
40
1.0000000000
10
20.2557077415
20
-15.5937328411
30
0.0000000000
10
20.2566360196
20
-15.5954720088
30
0.0000000000
10
20.2576156431
20
-15.5971838838
30
0.0000000000
10
20.2586448847
20
-15.5988654351
30
0.0000000000
11
20.2557077415
21
-15.5937328411
31
0.0000000000
11
20.2586448847
21
-15.5988654351
31
0.0000000000
0
SPLINE
5
2A9
100
AcDbEntity
8
0
100
AcDbSpline
62
7
6
CONTINUOUS
70
0
71
3
72
8
73
4
74
2
42
0.0000001000
43
0.0000001000
44
0.0000000001
12
0.0037302453
22
-0.0060943897
32
0.0000000000
13
0.0041556065
23
-0.0058128159
33
0.0000000000
40
0.0000000000
40
0.0000000000
40
0.0000000000
40
0.0000000000
40
1.0000000000
40
1.0000000000
40
1.0000000000
40
1.0000000000
10
20.2586448847
20
-15.5988654351
30
0.0000000000
10
20.2598882998
20
-15.6008968984
30
0.0000000000
10
20.2612041313
20
-15.6028841048
30
0.0000000000
10
20.2625893335
20
-15.6048217101
30
0.0000000000
11
20.2586448847
21
-15.5988654351
31
0.0000000000
11
20.2625893335
21
-15.6048217101
31
0.0000000000
0
SPLINE
5
2AA
100
AcDbEntity
8
0
100
AcDbSpline
62
7
6
CONTINUOUS
70
0
71
3
72
9
73
5
74
3
42
0.0000001000
43
0.0000001000
44
0.0000000001
12
0.0042123152
22
-0.0058921394
32
0.0000000000
13
0.0046280698
23
-0.0055714174
33
0.0000000000
40
0.0000000000
40
0.0000000000
40
0.0000000000
40
0.0000000000
40
0.1834455173
40
1.0000000000
40
1.0000000000
40
1.0000000000
40
1.0000000000
10
20.2625893335
20
-15.6048217101
30
0.0000000000
10
20.2628469103
20
-15.6051820056
30
0.0000000000
10
20.2642640907
20
-15.6071367030
30
0.0000000000
10
20.2657519662
20
-15.6090394151
30
0.0000000000
10
20.2670116566
20
-15.6105558704
30
0.0000000000
11
20.2625893335
21
-15.6048217101
31
0.0000000000
11
20.2633692401
21
-15.6058974171
31
0.0000000000
11
20.2670116566
21
-15.6105558704
31
0.0000000000
0
SPLINE
5
2AB
100
AcDbEntity
8
0
100
AcDbSpline
62
7
6
CONTINUOUS
70
0
71
3
72
8
73
4
74
2
42
0.0000001000
43
0.0000001000
44
0.0000000001
12
0.0040786062
22
-0.0049099556
32
0.0000000000
13
0.0043824525
23
-0.0046402602
33
0.0000000000
40
0.0000000000
40
0.0000000000
40
0.0000000000
40
0.0000000000
40
1.0000000000
40
1.0000000000
40
1.0000000000
40
1.0000000000
10
20.2670116566
20
-15.6105558704
30
0.0000000000
10
20.2683711920
20
-15.6121925222
30
0.0000000000
10
20.2697828629
20
-15.6137858284
30
0.0000000000
10
20.2712436804
20
-15.6153325818
30
0.0000000000
11
20.2670116566
21
-15.6105558704
31
0.0000000000
11
20.2712436804
21
-15.6153325818
31
0.0000000000
0
SPLINE
5
2AC
100
AcDbEntity
8
0
100
AcDbSpline
62
7
6
CONTINUOUS
70
0
71
3
72
8
73
4
74
2
42
0.0000001000
43
0.0000001000
44
0.0000000001
12
0.0049217485
22
-0.0052112816
32
0.0000000000
13
0.0052809662
23
-0.0048453628
33
0.0000000000
40
0.0000000000
40
0.0000000000
40
0.0000000000
40
0.0000000000
40
1.0000000000
40
1.0000000000
40
1.0000000000
40
1.0000000000
10
20.2712436804
20
-15.6153325818
30
0.0000000000
10
20.2728842633
20
-15.6170696757
30
0.0000000000
10
20.2745868326
20
-15.6187480544
30
0.0000000000
10
20.2763471547
20
-15.6203631753
30
0.0000000000
11
20.2712436804
21
-15.6153325818
31
0.0000000000
11
20.2763471547
21
-15.6203631753
31
0.0000000000
0
SPLINE
5
2AD
100
AcDbEntity
8
0
100
AcDbSpline
62
7
6
CONTINUOUS
70
0
71
3
72
10
73
6
74
4
42
0.0000001000
43
0.0000001000
44
0.0000000001
12
0.0318305194
22
-0.0292049614
32
0.0000000000
13
0.0410609660
23
-0.0131819109
33
0.0000000000
40
0.0000000000
40
0.0000000000
40
0.0000000000
40
0.0000000000
40
0.0369827905
40
0.5149603994
40
1.0000000000
40
1.0000000000
40
1.0000000000
40
1.0000000000
10
20.2763471547
20
-15.6203631753
30
0.0000000000
10
20.2767395485
20
-15.6207232023
30
0.0000000000
10
20.2822433257
20
-15.6256925680
30
0.0000000000
10
20.2939938929
20
-15.6341401729
30
0.0000000000
10
20.3067711272
20
-15.6397728186
30
0.0000000000
10
20.3134098587
20
-15.6419040682
30
0.0000000000
11
20.2763471547
21
-15.6203631753
31
0.0000000000
11
20.2775328982
21
-15.6214337763
31
0.0000000000
11
20.2942708813
21
-15.6334640224
31
0.0000000000
11
20.3134098587
21
-15.6419040682
31
0.0000000000
0
SPLINE
5
2AE
100
AcDbEntity
8
0
100
AcDbSpline
62
7
6
CONTINUOUS
70
0
71
3
72
8
73
4
74
2
42
0.0000001000
43
0.0000001000
44
0.0000000001
12
-0.0000000001
22
-0.0829867868
32
0.0000000000
13
0.0000000014
23
-0.0829867868
33
0.0000000000
40
0.0000000000
40
0.0000000000
40
0.0000000000
40
0.0000000000
40
1.0000000000
40
1.0000000000
40
1.0000000000
40
1.0000000000
10
20.2439210955
20
-11.0099467134
30
0.0000000000
10
20.2439210955
20
-11.0376089757
30
0.0000000000
10
20.2439210957
20
-11.0652712379
30
0.0000000000
10
20.2439210962
20
-11.0929335002
30
0.0000000000
11
20.2439210955
21
-11.0099467134
31
0.0000000000
11
20.2439210962
21
-11.0929335002
31
0.0000000000
0
SPLINE
5
2AF
100
AcDbEntity
8
0
100
AcDbSpline
62
7
6
CONTINUOUS
70
0
71
3
72
10
73
6
74
4
42
0.0000001000
43
0.0000001000
44
0.0000000001
12
0.0000000735
22
-4.3465608332
32
0.0000000000
13
-0.0000000942
23
-4.3465608332
33
0.0000000000
40
0.0000000000
40
0.0000000000
40
0.0000000000
40
0.0000000000
40
0.3291680477
40
0.6771193721
40
1.0000000000
40
1.0000000000
40
1.0000000000
40
1.0000000000
10
20.2439210962
20
-11.0929335002
30
0.0000000000
10
20.2439211043
20
-11.5698498148
30
0.0000000000
10
20.2439212646
20
-12.5508966622
30
0.0000000000
10
20.2439212651
20
-13.9997502732
30
0.0000000000
10
20.2439211068
20
-14.9716875696
30
0.0000000000
10
20.2439210966
20
-15.4394943334
30
0.0000000000
11
20.2439210962
21
-11.0929335002
31
0.0000000000
11
20.2439212223
21
-12.5236824441
31
0.0000000000
11
20.2439212224
21
-14.0360740422
31
0.0000000000
11
20.2439210966
21
-15.4394943334
31
0.0000000000
0
SPLINE
5
2B0
100
AcDbEntity
8
0
100
AcDbSpline
62
7
6
CONTINUOUS
70
0
71
3
72
8
73
4
74
2
42
0.0000001000
43
0.0000001000
44
0.0000000001
12
-0.0000000023
22
-0.1072252549
32
0.0000000000
13
0.0000000001
23
-0.1072252549
33
0.0000000000
40
0.0000000000
40
0.0000000000
40
0.0000000000
40
0.0000000000
40
1.0000000000
40
1.0000000000
40
1.0000000000
40
1.0000000000
10
20.2439210966
20
-15.4394943334
30
0.0000000000
10
20.2439210959
20
-15.4752360850
30
0.0000000000
10
20.2439210955
20
-15.5109778366
30
0.0000000000
10
20.2439210955
20
-15.5467195882
30
0.0000000000
11
20.2439210966
21
-15.4394943334
31
0.0000000000
11
20.2439210955
21
-15.5467195882
31
0.0000000000
0
SPLINE
5
2B1
100
AcDbEntity
8
0
100
AcDbSpline
62
7
6
CONTINUOUS
70
0
71
3
72
9
73
5
74
3
42
0.0000001000
43
0.0000001000
44
0.0000000001
12
-0.0393836099
22
-0.0125918437
32
0.0000000000
13
-0.0310438101
23
-0.0274153679
33
0.0000000000
40
0.0000000000
40
0.0000000000
40
0.0000000000
40
0.0000000000
40
0.5143279001
40
1.0000000000
40
1.0000000000
40
1.0000000000
40
1.0000000000
10
20.3135217528
20
-10.9146218068
30
0.0000000000
10
20.3067697231
20
-10.9167805857
30
0.0000000000
10
20.2940479654
20
-10.9223973304
30
0.0000000000
10
20.2827816306
20
-10.9304915732
30
0.0000000000
10
20.2777559265
20
-10.9349298663
30
0.0000000000
11
20.3135217528
21
-10.9146218068
31
0.0000000000
11
20.2940684209
21
-10.9232136632
31
0.0000000000
11
20.2777559265
21
-10.9349298663
31
0.0000000000
0
SPLINE
5
2B2
100
AcDbEntity
8
0
100
AcDbSpline
62
7
6
CONTINUOUS
70
0
71
3
72
9
73
5
74
3
42
0.0000001000
43
0.0000001000
44
0.0000000001
12
-0.0057301520
22
-0.0050604041
32
0.0000000000
13
-0.0053279623
23
-0.0054840207
33
0.0000000000
40
0.0000000000
40
0.0000000000
40
0.0000000000
40
0.0000000000
40
0.0960602106
40
1.0000000000
40
1.0000000000
40
1.0000000000
40
1.0000000000
10
20.2777559265
20
-10.9349298663
30
0.0000000000
10
20.2775724466
20
-10.9350919008
30
0.0000000000
10
20.2756685849
20
-10.9367857389
30
0.0000000000
10
20.2738296922
20
-10.9385524232
30
0.0000000000
10
20.2722243065
20
-10.9402048314
30
0.0000000000
11
20.2777559265
21
-10.9349298663
31
0.0000000000
11
20.2772072754
21
-10.9354179939
31
0.0000000000
11
20.2722243065
21
-10.9402048314
31
0.0000000000
0
SPLINE
5
2B3
100
AcDbEntity
8
0
100
AcDbSpline
62
7
6
CONTINUOUS
70
0
71
3
72
8
73
4
74
2
42
0.0000001000
43
0.0000001000
44
0.0000000001
12
-0.0040106005
22
-0.0041280728
32
0.0000000000
13
-0.0037674700
23
-0.0043516223
33
0.0000000000
40
0.0000000000
40
0.0000000000
40
0.0000000000
40
0.0000000000
40
1.0000000000
40
1.0000000000
40
1.0000000000
40
1.0000000000
10
20.2722243065
20
-10.9402048314
30
0.0000000000
10
20.2708874397
20
-10.9415808556
30
0.0000000000
10
20.2695900044
20
-10.9429953194
30
0.0000000000
10
20.2683341810
20
-10.9444458602
30
0.0000000000
11
20.2722243065
21
-10.9402048314
31
0.0000000000
11
20.2683341810
21
-10.9444458602
31
0.0000000000
0
SPLINE
5
2B4
100
AcDbEntity
8
0
100
AcDbSpline
62
7
6
CONTINUOUS
70
0
71
3
72
8
73
4
74
2
42
0.0000001000
43
0.0000001000
44
0.0000000001
12
-0.0047966723
22
-0.0055404040
32
0.0000000000
13
-0.0043784567
23
-0.0058766593
33
0.0000000000
40
0.0000000000
40
0.0000000000
40
0.0000000000
40
0.0000000000
40
1.0000000000
40
1.0000000000
40
1.0000000000
40
1.0000000000
10
20.2683341810
20
-10.9444458602
30
0.0000000000
10
20.2667352903
20
-10.9462926615
30
0.0000000000
10
20.2652038521
20
-10.9481979433
30
0.0000000000
10
20.2637443665
20
-10.9501568297
30
0.0000000000
11
20.2683341810
21
-10.9444458602
31
0.0000000000
11
20.2637443665
21
-10.9501568297
31
0.0000000000
0
SPLINE
5
2B5
100
AcDbEntity
8
0
100
AcDbSpline
62
7
6
CONTINUOUS
70
0
71
3
72
9
73
5
74
3
42
0.0000001000
43
0.0000001000
44
0.0000000001
12
-0.0042450500
22
-0.0056976040
32
0.0000000000
13
-0.0038293612
23
-0.0059848390
33
0.0000000000
40
0.0000000000
40
0.0000000000
40
0.0000000000
40
0.0000000000
40
0.1558165825
40
1.0000000000
40
1.0000000000
40
1.0000000000
40
1.0000000000
10
20.2637443665
20
-10.9501568297
30
0.0000000000
10
20.2635238835
20
-10.9504527568
30
0.0000000000
10
20.2621194054
20
-10.9523598094
30
0.0000000000
10
20.2607832011
20
-10.9543165575
30
0.0000000000
10
20.2597056401
20
-10.9560006581
30
0.0000000000
11
20.2637443665
21
-10.9501568297
31
0.0000000000
11
20.2630878591
21
-10.9510482642
31
0.0000000000
11
20.2597056401
21
-10.9560006581
31
0.0000000000
0
SPLINE
5
2B6
100
AcDbEntity
8
0
100
AcDbSpline
62
7
6
CONTINUOUS
70
0
71
3
72
8
73
4
74
2
42
0.0000001000
43
0.0000001000
44
0.0000000001
12
-0.0035243626
22
-0.0055081622
32
0.0000000000
13
-0.0031577012
23
-0.0057258099
33
0.0000000000
40
0.0000000000
40
0.0000000000
40
0.0000000000
40
0.0000000000
40
1.0000000000
40
1.0000000000
40
1.0000000000
40
1.0000000000
10
20.2597056401
20
-10.9560006581
30
0.0000000000
10
20.2585308525
20
-10.9578367122
30
0.0000000000
10
20.2574160184
20
-10.9597110941
30
0.0000000000
10
20.2563634513
20
-10.9616196974
30
0.0000000000
11
20.2597056401
21
-10.9560006581
31
0.0000000000
11
20.2563634513
21
-10.9616196974
31
0.0000000000
0
SPLINE
5
2B7
100
AcDbEntity
8
0
100
AcDbSpline
62
7
6
CONTINUOUS
70
0
71
3
72
8
73
4
74
2
42
0.0000001000
43
0.0000001000
44
0.0000000001
12
-0.0034000469
22
-0.0061652515
32
0.0000000000
13
-0.0029582329
23
-0.0063879266
33
0.0000000000
40
0.0000000000
40
0.0000000000
40
0.0000000000
40
0.0000000000
40
1.0000000000
40
1.0000000000
40
1.0000000000
40
1.0000000000
10
20.2563634513
20
-10.9616196974
30
0.0000000000
10
20.2552301024
20
-10.9636747812
30
0.0000000000
10
20.2541689449
20
-10.9657695407
30
0.0000000000
10
20.2531828673
20
-10.9678988496
30
0.0000000000
11
20.2563634513
21
-10.9616196974
31
0.0000000000
11
20.2531828673
21
-10.9678988496
31
0.0000000000
0
SPLINE
5
2B8
100
AcDbEntity
8
0
100
AcDbSpline
62
7
6
CONTINUOUS
70
0
71
3
72
10
73
6
74
4
42
0.0000001000
43
0.0000001000
44
0.0000000001
12
-0.0182332221
22
-0.0393723174
32
0.0000000000
13
0.0000000003
23
-0.0433152533
33
0.0000000000
40
0.0000000000
40
0.0000000000
40
0.0000000000
40
0.0000000000
40
0.0344717343
40
0.5127976496
40
1.0000000000
40
1.0000000000
40
1.0000000000
40
1.0000000000
10
20.2531828673
20
-10.9678988496
30
0.0000000000
10
20.2529733571
20
-10.9683512603
30
0.0000000000
10
20.2499071249
20
-10.9751044721
30
0.0000000000
10
20.2454022801
20
-10.9889256540
30
0.0000000000
10
20.2439212585
20
-11.0029115680
30
0.0000000000
10
20.2439212585
20
-11.0099459991
30
0.0000000000
11
20.2531828673
21
-10.9678988496
31
0.0000000000
11
20.2525645322
21
-10.9692607115
31
0.0000000000
11
20.2461462753
21
-10.9889603305
31
0.0000000000
11
20.2439212585
21
-11.0099459991
31
0.0000000000
0
SPLINE
5
2B9
100
AcDbEntity
8
0
100
AcDbSpline
62
7
6
CONTINUOUS
70
0
71
3
72
9
73
5
74
3
42
0.0000001000
43
0.0000001000
44
0.0000000001
12
-0.1958830332
22
0.0628523167
32
0.0000000000
13
-0.2046787617
23
0.0214949358
33
0.0000000000
40
0.0000000000
40
0.0000000000
40
0.0000000000
40
0.0000000000
40
0.5015277998
40
1.0000000000
40
1.0000000000
40
1.0000000000
40
1.0000000000
10
20.9244890448
20
-10.9146117324
30
0.0000000000
10
20.8917421159
20
-10.9041043377
30
0.0000000000
10
20.8253146291
20
-10.8865124046
30
0.0000000000
10
20.7574599751
20
-10.8758451711
30
0.0000000000
10
20.7234510842
20
-10.8722736285
30
0.0000000000
11
20.9244890448
21
-10.9146117324
31
0.0000000000
11
20.8247526777
21
-10.8882004213
31
0.0000000000
11
20.7234510842
21
-10.8722736285
31
0.0000000000
0
SPLINE
5
2BA
100
AcDbEntity
8
0
100
AcDbSpline
62
7
6
CONTINUOUS
70
0
71
3
72
9
73
5
74
3
42
0.0000001000
43
0.0000001000
44
0.0000000001
12
-0.1949005801
22
0.0204680516
32
0.0000000000
13
-0.1951577650
23
-0.0178803936
33
0.0000000000
40
0.0000000000
40
0.0000000000
40
0.0000000000
40
0.0000000000
40
0.5328179262
40
1.0000000000
40
1.0000000000
40
1.0000000000
40
1.0000000000
10
20.7234510842
20
-10.8722736285
30
0.0000000000
10
20.6888355766
20
-10.8686383802
30
0.0000000000
10
20.6235084462
20
-10.8652102561
30
0.0000000000
10
20.5581800056
20
-10.8681916596
30
0.0000000000
10
20.5277886025
20
-10.8709761260
30
0.0000000000
11
20.7234510842
21
-10.8722736285
31
0.0000000000
11
20.6192202723
21
-10.8668048807
31
0.0000000000
11
20.5277886025
21
-10.8709761260
31
0.0000000000
0
SPLINE
5
2BB
100
AcDbEntity
8
0
100
AcDbSpline
62
7
6
CONTINUOUS
70
0
71
3
72
8
73
4
74
2
42
0.0000001000
43
0.0000001000
44
0.0000000001
12
-0.0113339377
22
-0.0010384176
32
0.0000000000
13
-0.0113212444
23
-0.0011674040
33
0.0000000000
40
0.0000000000
40
0.0000000000
40
0.0000000000
40
0.0000000000
40
1.0000000000
40
1.0000000000
40
1.0000000000
40
1.0000000000
10
20.5277886025
20
-10.8709761260
30
0.0000000000
10
20.5240106232
20
-10.8713222653
30
0.0000000000
10
20.5202346355
20
-10.8716899092
30
0.0000000000
10
20.5164608874
20
-10.8720790439
30
0.0000000000
11
20.5277886025
21
-10.8709761260
31
0.0000000000
11
20.5164608874
21
-10.8720790439
31
0.0000000000
0
SPLINE
5
2BC
100
AcDbEntity
8
0
100
AcDbSpline
62
7
6
CONTINUOUS
70
0
71
3
72
9
73
5
74
3
42
0.0000001000
43
0.0000001000
44
0.0000000001
12
-0.0239791966
22
-0.0024726442
32
0.0000000000
13
-0.0239122786
23
-0.0030501881
33
0.0000000000
40
0.0000000000
40
0.0000000000
40
0.0000000000
40
0.0000000000
40
0.0434255557
40
1.0000000000
40
1.0000000000
40
1.0000000000
40
1.0000000000
10
20.5164608874
20
-10.8720790439
30
0.0000000000
10
20.5161137840
20
-10.8721148359
30
0.0000000000
10
20.5081211548
20
-10.8729432374
30
0.0000000000
10
20.5001386754
20
-10.8738680450
30
0.0000000000
10
20.4925140505
20
-10.8748406224
30
0.0000000000
11
20.5164608874
21
-10.8720790439
31
0.0000000000
11
20.5154196345
21
-10.8721869653
31
0.0000000000
11
20.4925140505
21
-10.8748406224
31
0.0000000000
0
SPLINE
5
2BD
100
AcDbEntity
8
0
100
AcDbSpline
62
7
6
CONTINUOUS
70
0
71
3
72
9
73
5
74
3
42
0.0000001000
43
0.0000001000
44
0.0000000001
12
-0.1821328364
22
-0.0232323912
32
0.0000000000
13
-0.1747572976
23
-0.0560801298
33
0.0000000000
40
0.0000000000
40
0.0000000000
40
0.0000000000
40
0.0000000000
40
0.4365430218
40
1.0000000000
40
1.0000000000
40
1.0000000000
40
1.0000000000
10
20.4925140505
20
-10.8748406224
30
0.0000000000
10
20.4660111109
20
-10.8782212685
30
0.0000000000
10
20.4056104542
20
-10.8883990641
30
0.0000000000
10
20.3463444921
20
-10.9040888927
30
0.0000000000
10
20.3135217525
20
-10.9146218062
30
0.0000000000
11
20.4925140505
21
-10.8748406224
31
0.0000000000
11
20.4134923791
21
-10.8881577869
31
0.0000000000
11
20.3135217525
21
-10.9146218062
31
0.0000000000
0
SPLINE
5
2BE
100
AcDbEntity
8
0
100
AcDbSpline
62
7
6
CONTINUOUS
70
0
71
3
72
8
73
4
74
2
42
0.0000001000
43
0.0000001000
44
0.0000000001
12
-0.0289558219
22
0.1039999736
32
0.0000000000
13
-0.0368610984
23
0.1015928142
33
0.0000000000
40
0.0000000000
40
0.0000000000
40
0.0000000000
40
0.0000000000
40
1.0000000000
40
1.0000000000
40
1.0000000000
40
1.0000000000
10
22.4045210942
20
13.2129199877
30
0.0000000000
10
22.3948691536
20
13.2475866456
30
0.0000000000
10
22.3838792414
20
13.2819110362
30
0.0000000000
10
22.3715922086
20
13.3157753076
30
0.0000000000
11
22.4045210942
21
13.2129199877
31
0.0000000000
11
22.3715922086
21
13.3157753076
31
0.0000000000
0
SPLINE
5
2BF
100
AcDbEntity
8
0
100
AcDbSpline
62
7
6
CONTINUOUS
70
0
71
3
72
8
73
4
74
2
42
0.0000001000
43
0.0000001000
44
0.0000000001
12
-0.1052863840
22
0.0209176579
32
0.0000000000
13
-0.1064549856
23
0.0128491699
33
0.0000000000
40
0.0000000000
40
0.0000000000
40
0.0000000000
40
0.0000000000
40
1.0000000000
40
1.0000000000
40
1.0000000000
40
1.0000000000
10
21.3195171230
20
14.2190174478
30
0.0000000000
10
21.2844216616
20
14.2259900005
30
0.0000000000
10
21.2490713405
20
14.2316288810
30
0.0000000000
10
21.2135863453
20
14.2359119376
30
0.0000000000
11
21.3195171230
21
14.2190174478
31
0.0000000000
11
21.2135863453
21
14.2359119376
31
0.0000000000
0
SPLINE
5
2C0
100
AcDbEntity
8
0
100
AcDbSpline
62
7
6
CONTINUOUS
70
0
71
3
72
8
73
4
74
2
42
0.0000001000
43
0.0000001000
44
0.0000000001
12
0.0894216013
22
0.3212405702
32
0.0000000000
13
0.0700241864
23
0.3261070003
33
0.0000000000
40
0.0000000000
40
0.0000000000
40
0.0000000000
40
0.0000000000
40
1.0000000000
40
1.0000000000
40
1.0000000000
40
1.0000000000
10
22.4045410939
20
10.2305918238
30
0.0000000000
10
22.4343482943
20
10.3376720139
30
0.0000000000
10
22.4609510309
20
10.4456780865
30
0.0000000000
10
22.4842924264
20
10.5543804199
30
0.0000000000
11
22.4045410939
21
10.2305918238
31
0.0000000000
11
22.4842924264
21
10.5543804199
31
0.0000000000
0
SPLINE
5
2C1
100
AcDbEntity
8
0
100
AcDbSpline
62
7
6
CONTINUOUS
70
0
71
3
72
8
73
4
74
2
42
0.0000001000
43
0.0000001000
44
0.0000000001
12
-0.0703407813
22
0.3281548045
32
0.0000000000
13
-0.0899805977
23
0.3232319442
33
0.0000000000
40
0.0000000000
40
0.0000000000
40
0.0000000000
40
0.0000000000
40
1.0000000000
40
1.0000000000
40
1.0000000000
40
1.0000000000
10
22.4847107572
20
12.8871096564
30
0.0000000000
10
22.4612638301
20
12.9964945912
30
0.0000000000
10
22.4345146268
20
13.1051760063
30
0.0000000000
10
22.4045210942
20
13.2129199877
30
0.0000000000
11
22.4847107572
21
12.8871096564
31
0.0000000000
11
22.4045210942
21
13.2129199877
31
0.0000000000
0
SPLINE
5
2C2
100
AcDbEntity
8
0
100
AcDbSpline
62
7
6
CONTINUOUS
70
0
71
3
72
8
73
4
74
2
42
0.0000001000
43
0.0000001000
44
0.0000000001
12
0.0349055058
22
0.0249385931
32
0.0000000000
13
0.0341473246
23
0.0260019322
33
0.0000000000
40
0.0000000000
40
0.0000000000
40
0.0000000000
40
0.0000000000
40
1.0000000000
40
1.0000000000
40
1.0000000000
40
1.0000000000
10
21.8651577741
20
9.4604299830
30
0.0000000000
10
21.8767929427
20
9.4687428474
30
0.0000000000
10
21.8883047867
20
9.4772353724
30
0.0000000000
10
21.8996872283
20
9.4859026831
30
0.0000000000
11
21.8651577741
21
9.4604299830
31
0.0000000000
11
21.8996872283
21
9.4859026831
31
0.0000000000
0
SPLINE
5
2C3
100
AcDbEntity
8
0
100
AcDbSpline
62
7
6
CONTINUOUS
70
0
71
3
72
12
73
8
74
6
42
0.0000001000
43
0.0000001000
44
0.0000000001
12
0.7282748236
22
0.5545545023
32
0.0000000000
13
0.2453545612
23
0.8814145849
33
0.0000000000
40
0.0000000000
40
0.0000000000
40
0.0000000000
40
0.0000000000
40
0.1572692997
40
0.3668525309
40
0.5790609084
40
0.7912571327
40
1.0000000000
40
1.0000000000
40
1.0000000000
40
1.0000000000
10
21.8996872283
20
9.4859026831
30
0.0000000000
10
21.9378656521
20
9.5149741492
30
0.0000000000
10
22.0235262354
20
9.5873742840
30
0.0000000000
10
22.1442643031
20
9.7169636410
30
0.0000000000
10
22.2559112656
20
9.8755887361
30
0.0000000000
10
22.3446074276
20
10.0477616744
30
0.0000000000
10
22.3874692543
20
10.1692621085
30
0.0000000000
10
22.4045412591
20
10.2305917778
30
0.0000000000
11
21.8996872283
21
9.4859026831
31
0.0000000000
11
22.0096256843
21
9.5788323155
31
0.0000000000
11
22.1403424099
21
9.7191264587
31
0.0000000000
11
22.2520919533
21
9.8778974550
31
0.0000000000
11
22.3409982220
21
10.0504881485
31
0.0000000000
11
22.4045412591
21
10.2305917778
31
0.0000000000
0
SPLINE
5
2C4
100
AcDbEntity
8
0
100
AcDbSpline
62
7
6
CONTINUOUS
70
0
71
3
72
9
73
5
74
3
42
0.0000001000
43
0.0000001000
44
0.0000000001
12
0.0577857487
22
-0.2075913056
32
0.0000000000
13
0.0888026989
23
-0.1964283092
33
0.0000000000
40
0.0000000000
40
0.0000000000
40
0.0000000000
40
0.0000000000
40
0.5574057800
40
1.0000000000
40
1.0000000000
40
1.0000000000
40
1.0000000000
10
18.8335006731
20
10.2305933412
30
0.0000000000
10
18.8442373766
20
10.1920224767
30
0.0000000000
10
18.8664048878
20
10.1235867094
30
0.0000000000
10
18.8937867926
20
10.0571309815
30
0.0000000000
10
18.9068879796
20
10.0281516368
30
0.0000000000
11
18.8335006731
21
10.2305933412
31
0.0000000000
11
18.8705700927
21
10.1163446928
31
0.0000000000
11
18.9068879796
21
10.0281516368
31
0.0000000000
0
SPLINE
5
2C5
100
AcDbEntity
8
0
100
AcDbSpline
62
7
6
CONTINUOUS
70
0
71
3
72
9
73
5
74
3
42
0.0000001000
43
0.0000001000
44
0.0000000001
12
0.0431510086
22
-0.0954484466
32
0.0000000000
13
0.0501114384
23
-0.0920734203
33
0.0000000000
40
0.0000000000
40
0.0000000000
40
0.0000000000
40
0.0000000000
40
0.2351863745
40
1.0000000000
40
1.0000000000
40
1.0000000000
40
1.0000000000
10
18.9068879796
20
10.0281516368
30
0.0000000000
10
18.9102708227
20
10.0206689120
30
0.0000000000
10
18.9249329071
20
9.9889756756
30
0.0000000000
10
18.9407665550
20
9.9578192820
30
0.0000000000
10
18.9535418587
20
9.9343462798
30
0.0000000000
11
18.9068879796
21
10.0281516368
31
0.0000000000
11
18.9172322699
21
10.0057909715
31
0.0000000000
11
18.9535418587
21
9.9343462798
31
0.0000000000
0
SPLINE
5
2C6
100
AcDbEntity
8
0
100
AcDbSpline
62
7
6
CONTINUOUS
70
0
71
3
72
8
73
4
74
2
42
0.0000001000
43
0.0000001000
44
0.0000000001
12
0.0493858882
22
-0.0907403137
32
0.0000000000
13
0.0558891614
23
-0.0869269263
33
0.0000000000
40
0.0000000000
40
0.0000000000
40
0.0000000000
40
0.0000000000
40
1.0000000000
40
1.0000000000
40
1.0000000000
40
1.0000000000
10
18.9535418587
20
9.9343462798
30
0.0000000000
10
18.9700038214
20
9.9040995086
30
0.0000000000
10
18.9875708239
20
9.8744435722
30
0.0000000000
10
19.0062005444
20
9.8454679301
30
0.0000000000
11
18.9535418587
21
9.9343462798
31
0.0000000000
11
19.0062005444
21
9.8454679301
31
0.0000000000
0
SPLINE
5
2C7
100
AcDbEntity
8
0
100
AcDbSpline
62
7
6
CONTINUOUS
70
0
71
3
72
8
73
4
74
2
42
0.0000001000
43
0.0000001000
44
0.0000000001
12
0.0031116486
22
-0.0048396871
32
0.0000000000
13
0.0031313917
23
-0.0048269883
33
0.0000000000
40
0.0000000000
40
0.0000000000
40
0.0000000000
40
0.0000000000
40
1.0000000000
40
1.0000000000
40
1.0000000000
40
1.0000000000
10
19.0062005444
20
9.8454679301
30
0.0000000000
10
19.0072377606
20
9.8438547011
30
0.0000000000
10
19.0082782710
20
9.8422435808
30
0.0000000000
10
19.0093220682
20
9.8406345847
30
0.0000000000
11
19.0062005444
21
9.8454679301
31
0.0000000000
11
19.0093220682
21
9.8406345847
31
0.0000000000
0
SPLINE
5
2C8
100
AcDbEntity
8
0
100
AcDbSpline
62
7
6
CONTINUOUS
70
0
71
3
72
9
73
5
74
3
42
0.0000001000
43
0.0000001000
44
0.0000000001
12
0.0540509648
22
-0.0833186662
32
0.0000000000
13
0.0597982737
23
-0.0792944342
33
0.0000000000
40
0.0000000000
40
0.0000000000
40
0.0000000000
40
0.0000000000
40
0.5364498280
40
1.0000000000
40
1.0000000000
40
1.0000000000
40
1.0000000000
10
19.0093220682
20
9.8406345847
30
0.0000000000
10
19.0189872784
20
9.8257358233
30
0.0000000000
10
19.0375296075
20
9.7983024442
30
0.0000000000
10
19.0570310779
20
9.7715445408
30
0.0000000000
10
19.0662709113
20
9.7592922246
30
0.0000000000
11
19.0093220682
21
9.8406345847
31
0.0000000000
11
19.0391573571
21
9.7964969476
31
0.0000000000
11
19.0662709113
21
9.7592922246
31
0.0000000000
0
SPLINE
5
2C9
100
AcDbEntity
8
0
100
AcDbSpline
62
7
6
CONTINUOUS
70
0
71
3
72
8
73
4
74
2
42
0.0000001000
43
0.0000001000
44
0.0000000001
12
0.0042103622
22
-0.0055830757
32
0.0000000000
13
0.0042379720
23
-0.0055620649
33
0.0000000000
40
0.0000000000
40
0.0000000000
40
0.0000000000
40
0.0000000000
40
1.0000000000
40
1.0000000000
40
1.0000000000
40
1.0000000000
10
19.0662709113
20
9.7592922246
30
0.0000000000
10
19.0676743654
20
9.7574311993
30
0.0000000000
10
19.0690824319
20
9.7555736651
30
0.0000000000
10
19.0704950892
20
9.7537196435
30
0.0000000000
11
19.0662709113
21
9.7592922246
31
0.0000000000
11
19.0704950892
21
9.7537196435
31
0.0000000000
0
SPLINE
5
2CA
100
AcDbEntity
8
0
100
AcDbSpline
62
7
6
CONTINUOUS
70
0
71
3
72
8
73
4
74
2
42
0.0000001000
43
0.0000001000
44
0.0000000001
12
0.0626699485
22
-0.0822502656
32
0.0000000000
13
0.0684834167
23
-0.0774317860
33
0.0000000000
40
0.0000000000
40
0.0000000000
40
0.0000000000
40
0.0000000000
40
1.0000000000
40
1.0000000000
40
1.0000000000
40
1.0000000000
10
19.0704950892
20
9.7537196435
30
0.0000000000
10
19.0913850720
20
9.7263028883
30
0.0000000000
10
19.1132789578
20
9.6996542589
30
0.0000000000
10
19.1361067634
20
9.6738436635
30
0.0000000000
11
19.0704950892
21
9.7537196435
31
0.0000000000
11
19.1361067634
21
9.6738436635
31
0.0000000000
0
SPLINE
5
2CB
100
AcDbEntity
8
0
100
AcDbSpline
62
7
6
CONTINUOUS
70
0
71
3
72
9
73
5
74
3
42
0.0000001000
43
0.0000001000
44
0.0000000001
12
0.0704156757
22
-0.0796165232
32
0.0000000000
13
0.0761161761
23
-0.0740729562
33
0.0000000000
40
0.0000000000
40
0.0000000000
40
0.0000000000
40
0.0000000000
40
0.7943497234
40
1.0000000000
40
1.0000000000
40
1.0000000000
40
1.0000000000
10
19.1361067634
20
9.6738436635
30
0.0000000000
10
19.1547516542
20
9.6527625425
30
0.0000000000
10
19.1790078587
20
9.6269274885
30
0.0000000000
10
19.2041909969
20
9.6020387920
30
0.0000000000
10
19.2094087678
20
9.5969610840
30
0.0000000000
11
19.1361067634
21
9.6738436635
31
0.0000000000
11
19.1938723601
21
9.6123155500
31
0.0000000000
11
19.2094087678
21
9.5969610840
31
0.0000000000
0
SPLINE
5
2CC
100
AcDbEntity
8
0
100
AcDbSpline
62
7
6
CONTINUOUS
70
0
71
3
72
9
73
5
74
3
42
0.0000001000
43
0.0000001000
44
0.0000000001
12
0.1528084107
22
-0.1487065076
32
0.0000000000
13
0.1734233127
23
-0.1239040026
33
0.0000000000
40
0.0000000000
40
0.0000000000
40
0.0000000000
40
0.0000000000
40
0.4506034966
40
1.0000000000
40
1.0000000000
40
1.0000000000
40
1.0000000000
10
19.2094087678
20
9.5969610840
30
0.0000000000
10
19.2323607691
20
9.5746251933
30
0.0000000000
10
19.2849652479
20
9.5268023279
30
0.0000000000
10
19.3411253222
20
9.4831207916
30
0.0000000000
10
19.3728847094
20
9.4604299830
30
0.0000000000
11
19.2094087678
21
9.5969610840
31
0.0000000000
11
19.2804902339
21
9.5323677625
31
0.0000000000
11
19.3728847094
21
9.4604299830
31
0.0000000000
0
SPLINE
5
2CD
100
AcDbEntity
8
0
100
AcDbSpline
62
7
6
CONTINUOUS
70
0
71
3
72
8
73
4
74
2
42
0.0000001000
43
0.0000001000
44
0.0000000001
12
-0.0899811718
22
-0.3232508930
32
0.0000000000
13
-0.0703391150
23
-0.3281739494
33
0.0000000000
40
0.0000000000
40
0.0000000000
40
0.0000000000
40
0.0000000000
40
1.0000000000
40
1.0000000000
40
1.0000000000
40
1.0000000000
10
18.8335009702
20
13.2128476861
30
0.0000000000
10
18.8035072463
20
13.1050973884
30
0.0000000000
10
18.7767582210
20
12.9964096039
30
0.0000000000
10
18.7533118494
20
12.8870182875
30
0.0000000000
11
18.8335009702
21
13.2128476861
31
0.0000000000
11
18.7533118494
21
12.8870182875
31
0.0000000000
0
SPLINE
5
2CE
100
AcDbEntity
8
0
100
AcDbSpline
62
7
6
CONTINUOUS
70
0
71
3
72
8
73
4
74
2
42
0.0000001000
43
0.0000001000
44
0.0000000001
12
0.0700212864
22
-0.3260886353
32
0.0000000000
13
0.0894165274
23
-0.3212227068
33
0.0000000000
40
0.0000000000
40
0.0000000000
40
0.0000000000
40
0.0000000000
40
1.0000000000
40
1.0000000000
40
1.0000000000
40
1.0000000000
10
18.7537533339
20
10.5543637980
30
0.0000000000
10
18.7770937627
20
10.4456675862
30
0.0000000000
10
18.8036951655
20
10.3376675772
30
0.0000000000
10
18.8335006746
20
10.2305933417
30
0.0000000000
11
18.7537533339
21
10.5543637980
31
0.0000000000
11
18.8335006746
21
10.2305933417
31
0.0000000000
0
SPLINE
5
2CF
100
AcDbEntity
8
0
100
AcDbSpline
62
7
6
CONTINUOUS
70
0
71
3
72
8
73
4
74
2
42
0.0000001000
43
0.0000001000
44
0.0000000001
12
-0.1062659493
22
-0.0128154900
32
0.0000000000
13
-0.1051029886
23
-0.0208553909
33
0.0000000000
40
0.0000000000
40
0.0000000000
40
0.0000000000
40
0.0000000000
40
1.0000000000
40
1.0000000000
40
1.0000000000
40
1.0000000000
10
20.0245970789
20
14.2359291486
30
0.0000000000
10
19.9891750958
20
14.2316573186
30
0.0000000000
10
19.9538871614
20
14.2260344921
30
0.0000000000
10
19.9188528319
20
14.2190826951
30
0.0000000000
11
20.0245970789
21
14.2359291486
31
0.0000000000
11
19.9188528319
21
14.2190826951
31
0.0000000000
0
SPLINE
5
2D0
100
AcDbEntity
8
0
100
AcDbSpline
62
7
6
CONTINUOUS
70
0
71
3
72
8
73
4
74
2
42
0.0000001000
43
0.0000001000
44
0.0000000001
12
-0.0369611236
22
-0.1018280855
32
0.0000000000
13
-0.0290186317
23
-0.1042470073
33
0.0000000000
40
0.0000000000
40
0.0000000000
40
0.0000000000
40
0.0000000000
40
1.0000000000
40
1.0000000000
40
1.0000000000
40
1.0000000000
10
18.8665112474
20
13.3159446182
30
0.0000000000
10
18.8541908729
20
13.2820019230
30
0.0000000000
10
18.8431736821
20
13.2475967345
30
0.0000000000
10
18.8335008049
20
13.2128477321
30
0.0000000000
11
18.8665112474
21
13.3159446182
31
0.0000000000
11
18.8335008049
21
13.2128477321
31
0.0000000000
0
SPLINE
5
2D1
100
AcDbEntity
8
0
100
AcDbSpline
62
7
6
CONTINUOUS
70
0
71
3
72
8
73
4
74
2
42
0.0000001000
43
0.0000001000
44
0.0000000001
12
-0.0232713661
22
-0.0020606703
32
0.0000000000
13
-0.0232615865
23
-0.0021702842
33
0.0000000000
40
0.0000000000
40
0.0000000000
40
0.0000000000
40
0.0000000000
40
1.0000000000
40
1.0000000000
40
1.0000000000
40
1.0000000000
10
20.1813183163
20
14.2523197369
30
0.0000000000
10
20.1735611943
20
14.2516328468
30
0.0000000000
10
20.1658056538
20
14.2509276831
30
0.0000000000
10
20.1580517916
20
14.2502042551
30
0.0000000000
11
20.1813183163
21
14.2523197369
31
0.0000000000
11
20.1580517916
21
14.2502042551
31
0.0000000000
0
SPLINE
5
2D2
100
AcDbEntity
8
0
100
AcDbSpline
62
7
6
CONTINUOUS
70
0
71
3
72
8
73
4
74
2
42
0.0000001000
43
0.0000001000
44
0.0000000001
12
-0.0057811400
22
-0.0005393749
32
0.0000000000
13
-0.0057805136
23
-0.0005461432
33
0.0000000000
40
0.0000000000
40
0.0000000000
40
0.0000000000
40
0.0000000000
40
1.0000000000
40
1.0000000000
40
1.0000000000
40
1.0000000000
10
20.1580517916
20
14.2502042551
30
0.0000000000
10
20.1561247449
20
14.2500244634
30
0.0000000000
10
20.1541978019
20
14.2498435437
30
0.0000000000
10
20.1522709641
20
14.2496614959
30
0.0000000000
11
20.1580517916
21
14.2502042551
31
0.0000000000
11
20.1522709641
21
14.2496614959
31
0.0000000000
0
SPLINE
5
2D3
100
AcDbEntity
8
0
100
AcDbSpline
62
7
6
CONTINUOUS
70
0
71
3
72
8
73
4
74
2
42
0.0000001000
43
0.0000001000
44
0.0000000001
12
-0.0465016823
22
-0.0043934814
32
0.0000000000
13
-0.0464585341
23
-0.0048312458
33
0.0000000000
40
0.0000000000
40
0.0000000000
40
0.0000000000
40
0.0000000000
40
1.0000000000
40
1.0000000000
40
1.0000000000
40
1.0000000000
10
20.1522709641
20
14.2496614959
30
0.0000000000
10
20.1367704033
20
14.2481970021
30
0.0000000000
10
20.1212766472
20
14.2466595113
30
0.0000000000
10
20.1057904692
20
14.2450490960
30
0.0000000000
11
20.1522709641
21
14.2496614959
31
0.0000000000
11
20.1057904692
21
14.2450490960
31
0.0000000000
0
SPLINE
5
2D4
100
AcDbEntity
8
0
100
AcDbSpline
62
7
6
CONTINUOUS
70
0
71
3
72
9
73
5
74
3
42
0.0000001000
43
0.0000001000
44
0.0000000001
12
-0.0058018945
22
-0.0006033419
32
0.0000000000
13
-0.0058011809
23
-0.0006101653
33
0.0000000000
40
0.0000000000
40
0.0000000000
40
0.0000000000
40
0.0000000000
40
0.4994056876
40
1.0000000000
40
1.0000000000
40
1.0000000000
40
1.0000000000
10
20.1057904692
20
14.2450490960
30
0.0000000000
10
20.1048246361
20
14.2449486586
30
0.0000000000
10
20.1028907303
20
14.2447469767
30
0.0000000000
10
20.1009569434
20
14.2445441575
30
0.0000000000
10
20.0999889307
20
14.2444423424
30
0.0000000000
11
20.1057904692
21
14.2450490960
31
0.0000000000
11
20.1028930587
21
14.2447469327
31
0.0000000000
11
20.0999889307
21
14.2444423424
31
0.0000000000
0
SPLINE
5
2D5
100
AcDbEntity
8
0
100
AcDbSpline
62
7
6
CONTINUOUS
70
0
71
3
72
8
73
4
74
2
42
0.0000001000
43
0.0000001000
44
0.0000000001
12
-0.0232113650
22
-0.0024413598
32
0.0000000000
13
-0.0231995793
23
-0.0025505564
33
0.0000000000
40
0.0000000000
40
0.0000000000
40
0.0000000000
40
0.0000000000
40
1.0000000000
40
1.0000000000
40
1.0000000000
40
1.0000000000
10
20.0999889307
20
14.2444423424
30
0.0000000000
10
20.0922518090
20
14.2436285558
30
0.0000000000
10
20.0845166035
20
14.2427965642
30
0.0000000000
10
20.0767834104
20
14.2419463787
30
0.0000000000
11
20.0999889307
21
14.2444423424
31
0.0000000000
11
20.0767834104
21
14.2419463787
31
0.0000000000
0
SPLINE
5
2D6
100
AcDbEntity
8
0
100
AcDbSpline
62
7
6
CONTINUOUS
70
0
71
3
72
8
73
4
74
2
42
0.0000001000
43
0.0000001000
44
0.0000000001
12
-0.0232034079
22
-0.0025509773
32
0.0000000000
13
-0.0231910404
23
-0.0026601433
33
0.0000000000
40
0.0000000000
40
0.0000000000
40
0.0000000000
40
0.0000000000
40
1.0000000000
40
1.0000000000
40
1.0000000000
40
1.0000000000
10
20.0767834104
20
14.2419463787
30
0.0000000000
10
20.0690489411
20
14.2410960530
30
0.0000000000
10
20.0613164849
20
14.2402275273
30
0.0000000000
10
20.0535861381
20
14.2393408129
30
0.0000000000
11
20.0767834104
21
14.2419463787
31
0.0000000000
11
20.0535861381
21
14.2393408129
31
0.0000000000
0
SPLINE
5
2D7
100
AcDbEntity
8
0
100
AcDbSpline
62
7
6
CONTINUOUS
70
0
71
3
72
8
73
4
74
2
42
0.0000001000
43
0.0000001000
44
0.0000000001
12
-0.0058125038
22
-0.0006667270
32
0.0000000000
13
-0.0058117042
23
-0.0006735820
33
0.0000000000
40
0.0000000000
40
0.0000000000
40
0.0000000000
40
0.0000000000
40
1.0000000000
40
1.0000000000
40
1.0000000000
40
1.0000000000
10
20.0535861381
20
14.2393408129
30
0.0000000000
10
20.0516486368
20
14.2391185706
30
0.0000000000
10
20.0497112681
20
14.2388951857
30
0.0000000000
10
20.0477740334
20
14.2386706583
30
0.0000000000
11
20.0535861381
21
14.2393408129
31
0.0000000000
11
20.0477740334
21
14.2386706583
31
0.0000000000
0
SPLINE
5
2D8
100
AcDbEntity
8
0
100
AcDbSpline
62
7
6
CONTINUOUS
70
0
71
3
72
8
73
4
74
2
42
0.0000001000
43
0.0000001000
44
0.0000000001
12
-0.0231834489
22
-0.0026869836
32
0.0000000000
13
-0.0231703637
23
-0.0027960248
33
0.0000000000
40
0.0000000000
40
0.0000000000
40
0.0000000000
40
0.0000000000
40
1.0000000000
40
1.0000000000
40
1.0000000000
40
1.0000000000
10
20.0477740334
20
14.2386706583
30
0.0000000000
10
20.0400462171
20
14.2377749971
30
0.0000000000
10
20.0323205335
20
14.2368611568
30
0.0000000000
10
20.0245970789
20
14.2359291486
30
0.0000000000
11
20.0477740334
21
14.2386706583
31
0.0000000000
11
20.0245970789
21
14.2359291486
31
0.0000000000
0
SPLINE
5
2D9
100
AcDbEntity
8
0
100
AcDbSpline
62
7
6
CONTINUOUS
70
0
71
3
72
10
73
6
74
4
42
0.0000001000
43
0.0000001000
44
0.0000000001
12
-0.0120601571
22
0.0463871010
32
0.0000000000
13
-0.0322136083
23
0.0356260153
33
0.0000000000
40
0.0000000000
40
0.0000000000
40
0.0000000000
40
0.0000000000
40
0.4946969520
40
0.9765075866
40
1.0000000000
40
1.0000000000
40
1.0000000000
40
1.0000000000
10
20.2869210955
20
14.1779199830
30
0.0000000000
10
20.2849323879
20
14.1855691688
30
0.0000000000
10
20.2791821171
20
14.2002603287
30
0.0000000000
10
20.2699768997
20
14.2134838756
30
0.0000000000
10
20.2645850591
20
14.2195151236
30
0.0000000000
10
20.2643328006
20
14.2197941039
30
0.0000000000
11
20.2869210955
21
14.1779199830
31
0.0000000000
11
20.2782750507
21
14.1999978209
31
0.0000000000
11
20.2650848107
21
14.2189529109
31
0.0000000000
11
20.2643328006
21
14.2197941039
31
0.0000000000
0
SPLINE
5
2DA
100
AcDbEntity
8
0
100
AcDbSpline
62
7
6
CONTINUOUS
70
0
71
3
72
8
73
4
74
2
42
0.0000001000
43
0.0000001000
44
0.0000000001
12
-0.0047728110
22
0.0052783977
32
0.0000000000
13
-0.0051369748
23
0.0049264774
33
0.0000000000
40
0.0000000000
40
0.0000000000
40
0.0000000000
40
0.0000000000
40
1.0000000000
40
1.0000000000
40
1.0000000000
40
1.0000000000
10
20.2643328006
20
14.2197941039
30
0.0000000000
10
20.2627418636
20
14.2215535698
30
0.0000000000
10
20.2610879835
20
14.2232564433
30
0.0000000000
10
20.2593756586
20
14.2248986024
30
0.0000000000
11
20.2643328006
21
14.2197941039
31
0.0000000000
11
20.2593756586
21
14.2248986024
31
0.0000000000
0
SPLINE
5
2DB
100
AcDbEntity
8
0
100
AcDbSpline
62
7
6
CONTINUOUS
70
0
71
3
72
8
73
4
74
2
42
0.0000001000
43
0.0000001000
44
0.0000000001
12
-0.0059068761
22
0.0056648306
32
0.0000000000
13
-0.0063500171
23
0.0051643671
33
0.0000000000
40
0.0000000000
40
0.0000000000
40
0.0000000000
40
0.0000000000
40
1.0000000000
40
1.0000000000
40
1.0000000000
40
1.0000000000
10
20.2593756586
20
14.2248986024
30
0.0000000000
10
20.2574066999
20
14.2267868793
30
0.0000000000
10
20.2553604648
20
14.2285948790
30
0.0000000000
10
20.2532437925
20
14.2303163347
30
0.0000000000
11
20.2593756586
21
14.2248986024
31
0.0000000000
11
20.2532437925
21
14.2303163347
31
0.0000000000
0
SPLINE
5
2DC
100
AcDbEntity
8
0
100
AcDbSpline
62
7
6
CONTINUOUS
70
0
71
3
72
8
73
4
74
2
42
0.0000001000
43
0.0000001000
44
0.0000000001
12
-0.0049871729
22
0.0040559878
32
0.0000000000
13
-0.0052379166
23
0.0037265872
33
0.0000000000
40
0.0000000000
40
0.0000000000
40
0.0000000000
40
0.0000000000
40
1.0000000000
40
1.0000000000
40
1.0000000000
40
1.0000000000
10
20.2532437925
20
14.2303163347
30
0.0000000000
10
20.2515814015
20
14.2316683306
30
0.0000000000
10
20.2498755634
20
14.2329669444
30
0.0000000000
10
20.2481295912
20
14.2342091402
30
0.0000000000
11
20.2532437925
21
14.2303163347
31
0.0000000000
11
20.2481295912
21
14.2342091402
31
0.0000000000
0
SPLINE
5
2DD
100
AcDbEntity
8
0
100
AcDbSpline
62
7
6
CONTINUOUS
70
0
71
3
72
9
73
5
74
3
42
0.0000001000
43
0.0000001000
44
0.0000000001
12
-0.0077900238
22
0.0055423187
32
0.0000000000
13
-0.0082842111
23
0.0047718128
33
0.0000000000
40
0.0000000000
40
0.0000000000
40
0.0000000000
40
0.0000000000
40
0.0663126706
40
1.0000000000
40
1.0000000000
40
1.0000000000
40
1.0000000000
10
20.2481295912
20
14.2342091402
30
0.0000000000
10
20.2479573987
20
14.2343316488
30
0.0000000000
10
20.2453548374
20
14.2361708132
30
0.0000000000
10
20.2426642274
20
14.2378845259
30
0.0000000000
10
20.2400859398
20
14.2393696529
30
0.0000000000
11
20.2481295912
21
14.2342091402
31
0.0000000000
11
20.2476118460
21
14.2345750170
31
0.0000000000
11
20.2400859398
21
14.2393696529
31
0.0000000000
0
SPLINE
5
2DE
100
AcDbEntity
8
0
100
AcDbSpline
62
7
6
CONTINUOUS
70
0
71
3
72
8
73
4
74
2
42
0.0000001000
43
0.0000001000
44
0.0000000001
12
-0.0045091444
22
0.0025973255
32
0.0000000000
13
-0.0046375904
23
0.0023596280
33
0.0000000000
40
0.0000000000
40
0.0000000000
40
0.0000000000
40
0.0000000000
40
1.0000000000
40
1.0000000000
40
1.0000000000
40
1.0000000000
10
20.2400859398
20
14.2393696529
30
0.0000000000
10
20.2385828916
20
14.2402354281
30
0.0000000000
10
20.2370573799
20
14.2410621397
30
0.0000000000
10
20.2355115164
20
14.2418486824
30
0.0000000000
11
20.2400859398
21
14.2393696529
31
0.0000000000
11
20.2355115164
21
14.2418486824
31
0.0000000000
0
SPLINE
5
2DF
100
AcDbEntity
8
0
100
AcDbSpline
62
7
6
CONTINUOUS
70
0
71
3
72
9
73
5
74
3
42
0.0000001000
43
0.0000001000
44
0.0000000001
12
-0.0085641251
22
0.0043574675
32
0.0000000000
13
-0.0089406498
23
0.0035146850
33
0.0000000000
40
0.0000000000
40
0.0000000000
40
0.0000000000
40
0.0000000000
40
0.9708344795
40
1.0000000000
40
1.0000000000
40
1.0000000000
40
1.0000000000
10
20.2355115164
20
14.2418486824
30
0.0000000000
10
20.2327400671
20
14.2432588089
30
0.0000000000
10
20.2298179792
20
14.2445783088
30
0.0000000000
10
20.2268393987
20
14.2457540661
30
0.0000000000
10
20.2267524792
20
14.2457882353
30
0.0000000000
11
20.2355115164
21
14.2418486824
31
0.0000000000
11
20.2270130944
21
14.2456853607
31
0.0000000000
11
20.2267524792
21
14.2457882353
31
0.0000000000
0
SPLINE
5
2E0
100
AcDbEntity
8
0
100
AcDbSpline
62
7
6
CONTINUOUS
70
0
71
3
72
9
73
5
74
3
42
0.0000001000
43
0.0000001000
44
0.0000000001
12
-0.0430946078
22
0.0169410472
32
0.0000000000
13
-0.0460270365
23
-0.0041038299
33
0.0000000000
40
0.0000000000
40
0.0000000000
40
0.0000000000
40
0.0000000000
40
0.4911729825
40
1.0000000000
40
1.0000000000
40
1.0000000000
40
1.0000000000
10
20.2267524792
20
14.2457882353
30
0.0000000000
10
20.2196968435
20
14.2485618969
30
0.0000000000
10
20.2046917981
20
14.2525672975
30
0.0000000000
10
20.1891249163
20
14.2530157818
30
0.0000000000
10
20.1813183164
20
14.2523197352
30
0.0000000000
11
20.2267524792
21
14.2457882353
31
0.0000000000
11
20.2048211542
21
14.2516384768
31
0.0000000000
11
20.1813183164
21
14.2523197352
31
0.0000000000
0
SPLINE
5
2E1
100
AcDbEntity
8
0
100
AcDbSpline
62
7
6
CONTINUOUS
70
0
71
3
72
8
73
4
74
2
42
0.0000001000
43
0.0000001000
44
0.0000000001
12
0.0412542879
22
0.1590233767
32
0.0000000000
13
0.0145972409
23
0.1637923940
33
0.0000000000
40
0.0000000000
40
0.0000000000
40
0.0000000000
40
0.0000000000
40
1.0000000000
40
1.0000000000
40
1.0000000000
40
1.0000000000
10
20.2869129613
20
13.6756886259
30
0.0000000000
10
20.3006643906
20
13.7286964181
30
0.0000000000
10
20.3101035938
20
13.7829765598
30
0.0000000000
10
20.3149693407
20
13.8375740245
30
0.0000000000
11
20.2869129613
21
13.6756886259
31
0.0000000000
11
20.3149693407
21
13.8375740245
31
0.0000000000
0
SPLINE
5
2E2
100
AcDbEntity
8
0
100
AcDbSpline
62
7
6
CONTINUOUS
70
0
71
3
72
9
73
5
74
3
42
0.0000001000
43
0.0000001000
44
0.0000000001
12
0.0004846120
22
0.0054377240
32
0.0000000000
13
0.0004543426
23
0.0054397195
33
0.0000000000
40
0.0000000000
40
0.0000000000
40
0.0000000000
40
0.0000000000
40
0.7865906937
40
1.0000000000
40
1.0000000000
40
1.0000000000
40
1.0000000000
10
20.3149693407
20
13.8375740245
30
0.0000000000
10
20.3150964045
20
13.8389997789
30
0.0000000000
10
20.3152539769
20
13.8408126286
30
0.0000000000
10
20.3154065010
20
13.8426258006
30
0.0000000000
10
20.3154388213
20
13.8430127629
30
0.0000000000
11
20.3149693407
21
13.8375740245
31
0.0000000000
11
20.3153411710
21
13.8418519197
31
0.0000000000
11
20.3154388213
21
13.8430127629
31
0.0000000000
0
SPLINE
5
2E3
100
AcDbEntity
8
0
100
AcDbSpline
62
7
6
CONTINUOUS
70
0
71
3
72
9
73
5
74
3
42
0.0000001000
43
0.0000001000
44
0.0000000001
12
0.0140672063
22
0.1684228120
32
0.0000000000
13
-0.0142593788
23
0.1684118595
33
0.0000000000
40
0.0000000000
40
0.0000000000
40
0.0000000000
40
0.0000000000
40
0.4958022312
40
1.0000000000
40
1.0000000000
40
1.0000000000
40
1.0000000000
10
20.3154388213
20
13.8430127629
30
0.0000000000
10
20.3177636721
20
13.8708475649
30
0.0000000000
10
20.3200549775
20
13.9271395704
30
0.0000000000
10
20.3177422012
20
13.9834322296
30
0.0000000000
10
20.3153456855
20
14.0117365242
30
0.0000000000
11
20.3154388213
21
13.8430127629
31
0.0000000000
11
20.3189039661
21
13.9266671294
31
0.0000000000
11
20.3153456855
21
14.0117365242
31
0.0000000000
0
SPLINE
5
2E4
100
AcDbEntity
8
0
100
AcDbSpline
62
7
6
CONTINUOUS
70
0
71
3
72
8
73
4
74
2
42
0.0000001000
43
0.0000001000
44
0.0000000001
12
-0.0142362744
22
0.1681389814
32
0.0000000000
13
-0.0423309869
23
0.1631954964
33
0.0000000000
40
0.0000000000
40
0.0000000000
40
0.0000000000
40
0.0000000000
40
1.0000000000
40
1.0000000000
40
1.0000000000
40
1.0000000000
10
20.3153456855
20
14.0117365242
30
0.0000000000
10
20.3106002607
20
14.0677828513
30
0.0000000000
10
20.3010314309
20
14.1235214593
30
0.0000000000
10
20.2869211020
20
14.1779199581
30
0.0000000000
11
20.3153456855
21
14.0117365242
31
0.0000000000
11
20.2869211020
21
14.1779199581
31
0.0000000000
0
SPLINE
5
2E5
100
AcDbEntity
8
0
100
AcDbSpline
62
7
6
CONTINUOUS
70
0
71
3
72
10
73
6
74
4
42
0.0000001000
43
0.0000001000
44
0.0000000001
12
0.0416494760
22
0.0040811229
32
0.0000000000
13
0.0364333562
23
0.0207260220
33
0.0000000000
40
0.0000000000
40
0.0000000000
40
0.0000000000
40
0.0000000000
40
0.4907193772
40
0.9716808143
40
1.0000000000
40
1.0000000000
40
1.0000000000
40
1.0000000000
10
20.1999212121
20
13.6013199944
30
0.0000000000
10
20.2067339470
20
13.6019875564
30
0.0000000000
10
20.2201287295
20
13.6047095007
30
0.0000000000
10
20.2330352528
20
13.6102349873
30
0.0000000000
10
20.2392410299
20
13.6137166047
30
0.0000000000
10
20.2395849509
20
13.6139122527
30
0.0000000000
11
20.1999212121
21
13.6013199944
31
0.0000000000
11
20.2200454956
21
13.6054119597
31
0.0000000000
11
20.2385497343
21
13.6133314695
31
0.0000000000
11
20.2395849509
21
13.6139122527
31
0.0000000000
0
SPLINE
5
2E6
100
AcDbEntity
8
0
100
AcDbSpline
62
7
6
CONTINUOUS
70
0
71
3
72
8
73
4
74
2
42
0.0000001000
43
0.0000001000
44
0.0000000001
12
0.0060169961
22
0.0034229181
32
0.0000000000
13
0.0057665748
23
0.0038314312
33
0.0000000000
40
0.0000000000
40
0.0000000000
40
0.0000000000
40
0.0000000000
40
1.0000000000
40
1.0000000000
40
1.0000000000
40
1.0000000000
10
20.2395849509
20
13.6139122527
30
0.0000000000
10
20.2415906162
20
13.6150532254
30
0.0000000000
10
20.2435568647
20
13.6162638608
30
0.0000000000
10
20.2454790563
20
13.6175410045
30
0.0000000000
11
20.2395849509
21
13.6139122527
31
0.0000000000
11
20.2454790563
21
13.6175410045
31
0.0000000000
0
SPLINE
5
2E7
100
AcDbEntity
8
0
100
AcDbSpline
62
7
6
CONTINUOUS
70
0
71
3
72
8
73
4
74
2
42
0.0000001000
43
0.0000001000
44
0.0000000001
12
0.0051095627
22
0.0033948988
32
0.0000000000
13
0.0048923419
23
0.0037016147
33
0.0000000000
40
0.0000000000
40
0.0000000000
40
0.0000000000
40
0.0000000000
40
1.0000000000
40
1.0000000000
40
1.0000000000
40
1.0000000000
10
20.2454790563
20
13.6175410045
30
0.0000000000
10
20.2471822439
20
13.6186726374
30
0.0000000000
10
20.2488508419
20
13.6198564869
30
0.0000000000
10
20.2504816226
20
13.6210903584
30
0.0000000000
11
20.2454790563
21
13.6175410045
31
0.0000000000
11
20.2504816226
21
13.6210903584
31
0.0000000000
0
SPLINE
5
2E8
100
AcDbEntity
8
0
100
AcDbSpline
62
7
6
CONTINUOUS
70
0
71
3
72
9
73
5
74
3
42
0.0000001000
43
0.0000001000
44
0.0000000001
12
0.0056883997
22
0.0043039232
32
0.0000000000
13
0.0053664760
23
0.0046992677
33
0.0000000000
40
0.0000000000
40
0.0000000000
40
0.0000000000
40
0.0000000000
40
0.8624391742
40
1.0000000000
40
1.0000000000
40
1.0000000000
40
1.0000000000
10
20.2504816226
20
13.6210903584
30
0.0000000000
10
20.2521169221
20
13.6223276491
30
0.0000000000
10
20.2539689627
20
13.6238206128
30
0.0000000000
10
20.2557655019
20
13.6253782270
30
0.0000000000
10
20.2560115742
20
13.6255937054
30
0.0000000000
11
20.2504816226
21
13.6210903584
31
0.0000000000
11
20.2552701848
21
13.6249509170
31
0.0000000000
11
20.2560115742
21
13.6255937054
31
0.0000000000
0
SPLINE
5
2E9
100
AcDbEntity
8
0
100
AcDbSpline
62
7
6
CONTINUOUS
70
0
71
3
72
8
73
4
74
2
42
0.0000001000
43
0.0000001000
44
0.0000000001
12
0.0051249047
22
0.0044877307
32
0.0000000000
13
0.0048071439
23
0.0048263785
33
0.0000000000
40
0.0000000000
40
0.0000000000
40
0.0000000000
40
0.0000000000
40
1.0000000000
40
1.0000000000
40
1.0000000000
40
1.0000000000
10
20.2560115742
20
13.6255937054
30
0.0000000000
10
20.2577198758
20
13.6270896156
30
0.0000000000
10
20.2593770363
20
13.6286439233
30
0.0000000000
10
20.2609794176
20
13.6302527161
30
0.0000000000
11
20.2560115742
21
13.6255937054
31
0.0000000000
11
20.2609794176
21
13.6302527161
31
0.0000000000
0
SPLINE
5
2EA
100
AcDbEntity
8
0
100
AcDbSpline
62
7
6
CONTINUOUS
70
0
71
3
72
8
73
4
74
2
42
0.0000001000
43
0.0000001000
44
0.0000000001
12
0.0040843921
22
0.0041007347
32
0.0000000000
13
0.0038404252
23
0.0043295346
33
0.0000000000
40
0.0000000000
40
0.0000000000
40
0.0000000000
40
0.0000000000
40
1.0000000000
40
1.0000000000
40
1.0000000000
40
1.0000000000
10
20.2609794176
20
13.6302527161
30
0.0000000000
10
20.2623408816
20
13.6316196277
30
0.0000000000
10
20.2636628002
20
13.6330258724
30
0.0000000000
10
20.2649429420
20
13.6344690506
30
0.0000000000
11
20.2609794176
21
13.6302527161
31
0.0000000000
11
20.2649429420
21
13.6344690506
31
0.0000000000
0
SPLINE
5
2EB
100
AcDbEntity
8
0
100
AcDbSpline
62
7
6
CONTINUOUS
70
0
71
3
72
9
73
5
74
3
42
0.0000001000
43
0.0000001000
44
0.0000000001
12
0.0047635422
22
0.0053702180
32
0.0000000000
13
0.0043651314
23
0.0056974125
33
0.0000000000
40
0.0000000000
40
0.0000000000
40
0.0000000000
40
0.0000000000
40
0.9437150777
40
1.0000000000
40
1.0000000000
40
1.0000000000
40
1.0000000000
10
20.2649429420
20
13.6344690506
30
0.0000000000
10
20.2664414175
20
13.6361583692
30
0.0000000000
10
20.2679686083
20
13.6380020662
30
0.0000000000
10
20.2694275061
20
13.6398982643
30
0.0000000000
10
20.2695094031
20
13.6400051571
30
0.0000000000
11
20.2649429420
21
13.6344690506
31
0.0000000000
11
20.2692630618
21
13.6396849759
31
0.0000000000
11
20.2695094031
21
13.6400051571
31
0.0000000000
0
SPLINE
5
2EC
100
AcDbEntity
8
0
100
AcDbSpline
62
7
6
CONTINUOUS
70
0
71
3
72
9
73
5
74
3
42
0.0000001000
43
0.0000001000
44
0.0000000001
12
0.0243034723
22
0.0317211314
32
0.0000000000
13
0.0100184373
23
0.0386207870
33
0.0000000000
40
0.0000000000
40
0.0000000000
40
0.0000000000
40
0.0000000000
40
0.4909698408
40
1.0000000000
40
1.0000000000
40
1.0000000000
40
1.0000000000
10
20.2695094031
20
13.6400051571
30
0.0000000000
10
20.2734868271
20
13.6451965301
30
0.0000000000
10
20.2805458813
20
13.6565650597
30
0.0000000000
10
20.2852127337
20
13.6691356635
30
0.0000000000
10
20.2869126293
20
13.6756887120
30
0.0000000000
11
20.2695094031
21
13.6400051571
31
0.0000000000
11
20.2798417490
21
13.6566495021
31
0.0000000000
11
20.2869126293
21
13.6756887120
31
0.0000000000
0
SPLINE
5
2ED
100
AcDbEntity
8
0
100
AcDbSpline
62
7
6
CONTINUOUS
70
0
71
3
72
8
73
4
74
2
42
0.0000001000
43
0.0000001000
44
0.0000000001
12
0.0144502654
22
0.0017358967
32
0.0000000000
13
0.0144560972
23
0.0016871553
33
0.0000000000
40
0.0000000000
40
0.0000000000
40
0.0000000000
40
0.0000000000
40
1.0000000000
40
1.0000000000
40
1.0000000000
40
1.0000000000
10
20.1023301710
20
13.5907210800
30
0.0000000000
10
20.1071469261
20
13.5912997122
30
0.0000000000
10
20.1119646686
20
13.5918702227
30
0.0000000000
10
20.1167833677
20
13.5924326078
30
0.0000000000
11
20.1023301710
21
13.5907210800
31
0.0000000000
11
20.1167833677
21
13.5924326078
31
0.0000000000
0
SPLINE
5
2EE
100
AcDbEntity
8
0
100
AcDbSpline
62
7
6
CONTINUOUS
70
0
71
3
72
8
73
4
74
2
42
0.0000001000
43
0.0000001000
44
0.0000000001
12
0.0324954671
22
0.0037925105
32
0.0000000000
13
0.0325234163
23
0.0035460470
33
0.0000000000
40
0.0000000000
40
0.0000000000
40
0.0000000000
40
0.0000000000
40
1.0000000000
40
1.0000000000
40
1.0000000000
40
1.0000000000
10
20.1167833677
20
13.5924326078
30
0.0000000000
10
20.1276151900
20
13.5936967780
30
0.0000000000
10
20.1384518457
20
13.5949198912
30
0.0000000000
10
20.1492929845
20
13.5961019069
30
0.0000000000
11
20.1167833677
21
13.5924326078
31
0.0000000000
11
20.1492929845
21
13.5961019069
31
0.0000000000
0
SPLINE
5
2EF
100
AcDbEntity
8
0
100
AcDbSpline
62
7
6
CONTINUOUS
70
0
71
3
72
9
73
5
74
3
42
0.0000001000
43
0.0000001000
44
0.0000000001
12
0.0180575875
22
0.0019688293
32
0.0000000000
13
0.0180656993
23
0.0018927963
33
0.0000000000
40
0.0000000000
40
0.0000000000
40
0.0000000000
40
0.0000000000
40
0.0997507263
40
1.0000000000
40
1.0000000000
40
1.0000000000
40
1.0000000000
10
20.1492929845
20
13.5961019069
30
0.0000000000
10
20.1498934037
20
13.5961673710
30
0.0000000000
10
20.1559127373
20
13.5968223837
30
0.0000000000
10
20.1619334470
20
13.5974647266
30
0.0000000000
10
20.1673546579
20
13.5980327228
30
0.0000000000
11
20.1492929845
21
13.5961019069
31
0.0000000000
11
20.1510942832
21
13.5962979209
31
0.0000000000
11
20.1673546579
21
13.5980327228
31
0.0000000000
0
SPLINE
5
2F0
100
AcDbEntity
8
0
100
AcDbSpline
62
7
6
CONTINUOUS
70
0
71
3
72
8
73
4
74
2
42
0.0000001000
43
0.0000001000
44
0.0000000001
12
0.0144671132
22
0.0015157619
32
0.0000000000
13
0.0144721072
23
0.0014669818
33
0.0000000000
40
0.0000000000
40
0.0000000000
40
0.0000000000
40
0.0000000000
40
1.0000000000
40
1.0000000000
40
1.0000000000
40
1.0000000000
10
20.1673546579
20
13.5980327228
30
0.0000000000
10
20.1721770290
20
13.5985379768
30
0.0000000000
10
20.1770002478
20
13.5990351023
30
0.0000000000
10
20.1818242835
20
13.5995240962
30
0.0000000000
11
20.1673546579
21
13.5980327228
31
0.0000000000
11
20.1818242835
21
13.5995240962
31
0.0000000000
0
SPLINE
5
2F1
100
AcDbEntity
8
0
100
AcDbSpline
62
7
6
CONTINUOUS
70
0
71
3
72
8
73
4
74
2
42
0.0000001000
43
0.0000001000
44
0.0000000001
12
0.0180931582
22
0.0018340338
32
0.0000000000
13
0.0181006386
23
0.0017577564
33
0.0000000000
40
0.0000000000
40
0.0000000000
40
0.0000000000
40
0.0000000000
40
1.0000000000
40
1.0000000000
40
1.0000000000
40
1.0000000000
10
20.1818242835
20
13.5995240962
30
0.0000000000
10
20.1878553363
20
13.6001354408
30
0.0000000000
10
20.1938876659
20
13.6007340755
30
0.0000000000
10
20.1999212121
20
13.6013199943
30
0.0000000000
11
20.1818242835
21
13.5995240962
31
0.0000000000
11
20.1999212121
21
13.6013199943
31
0.0000000000
0
SPLINE
5
2F2
100
AcDbEntity
8
0
100
AcDbSpline
62
7
6
CONTINUOUS
70
0
71
3
72
11
73
7
74
5
42
0.0000001000
43
0.0000001000
44
0.0000000001
12
-0.7790150055
22
0.5565749829
32
0.0000000000
13
-0.2567468748
23
0.9223454519
33
0.0000000000
40
0.0000000000
40
0.0000000000
40
0.0000000000
40
0.0000000000
40
0.2452076922
40
0.4964472307
40
0.7494396840
40
1.0000000000
40
1.0000000000
40
1.0000000000
40
1.0000000000
10
19.3728847094
20
9.4604299830
30
0.0000000000
10
19.3092112188
20
9.5059221387
30
0.0000000000
10
19.1877373827
20
9.6089701201
30
0.0000000000
10
19.0331894893
20
9.7929805102
30
0.0000000000
10
18.9113415353
20
10.0021025873
30
0.0000000000
10
18.8549441926
20
10.1535589756
30
0.0000000000
10
18.8335006666
20
10.2305933649
30
0.0000000000
11
19.3728847094
21
9.4604299830
31
0.0000000000
11
19.1938723601
21
9.6123155500
31
0.0000000000
11
19.0391573571
21
9.7964969476
31
0.0000000000
11
18.9172322699
21
10.0057909715
31
0.0000000000
11
18.8335006666
21
10.2305933649
31
0.0000000000
0
SPLINE
5
2F3
100
AcDbEntity
8
0
100
AcDbSpline
62
7
6
CONTINUOUS
70
0
71
3
72
12
73
8
74
6
42
0.0000001000
43
0.0000001000
44
0.0000000001
12
-0.2568579270
22
-0.9227446705
32
0.0000000000
13
-0.7793520760
23
-0.5568160047
33
0.0000000000
40
0.0000000000
40
0.0000000000
40
0.0000000000
40
0.0000000000
40
0.1993954351
40
0.4020873869
40
0.6047909476
40
0.8049869423
40
1.0000000000
40
1.0000000000
40
1.0000000000
40
1.0000000000
10
22.4045418151
20
10.2305937749
30
0.0000000000
10
22.3874697157
20
10.1692634166
30
0.0000000000
10
22.3446077450
20
10.0477622906
30
0.0000000000
10
22.2559112656
20
9.8755887361
30
0.0000000000
10
22.1442643031
20
9.7169636410
30
0.0000000000
10
22.0137497814
20
9.5768811197
30
0.0000000000
10
21.9158190512
20
9.4966254469
30
0.0000000000
10
21.8651577741
20
9.4604299830
30
0.0000000000
11
22.4045418151
21
10.2305937749
31
0.0000000000
11
22.3409982220
21
10.0504881485
31
0.0000000000
11
22.2520919533
21
9.8778974550
31
0.0000000000
11
22.1403424099
21
9.7191264587
31
0.0000000000
11
22.0096256843
21
9.5788323155
31
0.0000000000
11
21.8651577741
21
9.4604299830
31
0.0000000000
0
SPLINE
5
2F4
100
AcDbEntity
8
0
100
AcDbSpline
62
7
6
CONTINUOUS
70
0
71
3
72
15
73
11
74
9
42
0.0000001000
43
0.0000001000
44
0.0000000001
12
0.8095569726
22
-2.9081233258
32
0.0000000000
13
-0.8095168880
23
-2.9081344841
33
0.0000000000
40
0.0000000000
40
0.0000000000
40
0.0000000000
40
0.0000000000
40
0.1249579072
40
0.2499571530
40
0.3749580704
40
0.4999601938
40
0.6249623465
40
0.7499721118
40
0.8749982838
40
1.0000000000
40
1.0000000000
40
1.0000000000
40
1.0000000000
10
22.4045210955
20
13.2129199830
30
0.0000000000
10
22.4382412772
20
13.0917889814
30
0.0000000000
10
22.4974901998
20
12.8471168040
30
0.0000000000
10
22.5612613138
20
12.4749698610
30
0.0000000000
10
22.5996542157
20
12.0992929652
30
0.0000000000
10
22.6124781591
20
11.7218786297
30
0.0000000000
10
22.5996754348
20
11.3444546621
30
0.0000000000
10
22.5612993816
20
10.9687397610
30
0.0000000000
10
22.4975314268
20
10.5965108547
30
0.0000000000
10
22.4382719832
20
10.3517677548
30
0.0000000000
10
22.4045416498
20
10.2305938209
30
0.0000000000
11
22.4045210955
21
13.2129199830
31
0.0000000000
11
22.4932974401
21
12.8463048000
31
0.0000000000
11
22.5570301537
21
12.4743905197
31
0.0000000000
11
22.5953925979
21
12.0990050887
31
0.0000000000
11
22.6082070842
21
11.7218785380
31
0.0000000000
11
22.5954140993
21
11.3447511687
31
0.0000000000
11
22.5570694414
21
10.9693370725
31
0.0000000000
11
22.4933396995
21
10.5973398163
31
0.0000000000
11
22.4045416498
21
10.2305938209
31
0.0000000000
0
SPLINE
5
2F5
100
AcDbEntity
8
0
100
AcDbSpline
62
7
6
CONTINUOUS
70
0
71
3
72
15
73
11
74
9
42
0.0000001000
43
0.0000001000
44
0.0000000001
12
1.6512661772
22
-0.1993111127
32
0.0000000000
13
0.4461163788
23
-1.6023061768
33
0.0000000000
40
0.0000000000
40
0.0000000000
40
0.0000000000
40
0.0000000000
40
0.1248621734
40
0.2500034886
40
0.3751391247
40
0.5002445180
40
0.6252767908
40
0.7502619301
40
0.8752357611
40
1.0000000000
40
1.0000000000
40
1.0000000000
40
1.0000000000
10
21.2135883975
20
14.2359116899
30
0.0000000000
10
21.2823152921
20
14.2276162170
30
0.0000000000
10
21.4189112156
20
14.2008235697
30
0.0000000000
10
21.6155866312
20
14.1309938419
30
0.0000000000
10
21.8000227591
20
14.0329335835
30
0.0000000000
10
21.9679796081
20
13.9088649146
30
0.0000000000
10
22.1158253358
20
13.7615257903
30
0.0000000000
10
22.2403864134
20
13.5941179218
30
0.0000000000
10
22.3389348626
20
13.4104110139
30
0.0000000000
10
22.3859679720
20
13.2795568199
30
0.0000000000
10
22.4045210955
20
13.2129199830
30
0.0000000000
11
21.2135883975
21
14.2359116899
31
0.0000000000
11
21.4173803381
21
14.1959285291
31
0.0000000000
11
21.6135281998
21
14.1262946148
31
0.0000000000
11
21.7972986954
21
14.0285841311
31
0.0000000000
11
21.9646690072
21
13.9049508981
31
0.0000000000
11
22.1119699590
21
13.7581522978
31
0.0000000000
11
22.2360666975
21
13.5913746042
31
0.0000000000
11
22.3343207807
21
13.4081995098
31
0.0000000000
11
22.4045210955
21
13.2129199830
31
0.0000000000
0
SPLINE
5
2F6
100
AcDbEntity
8
0
100
AcDbSpline
62
7
6
CONTINUOUS
70
0
71
3
72
9
73
5
74
3
42
0.0000001000
43
0.0000001000
44
0.0000000001
12
0.1571161743
22
-0.0139123964
32
0.0000000000
13
0.1565943478
23
-0.0189012493
33
0.0000000000
40
0.0000000000
40
0.0000000000
40
0.0000000000
40
0.0000000000
40
0.4999814324
40
1.0000000000
40
1.0000000000
40
1.0000000000
40
1.0000000000
10
21.0567182821
20
14.2523202362
30
0.0000000000
10
21.0829033388
20
14.2500015896
30
0.0000000000
10
21.1352393540
20
14.2449476634
30
0.0000000000
10
21.1874883906
20
14.2390621827
30
0.0000000000
10
21.2135884178
20
14.2359118575
30
0.0000000000
11
21.0567182821
21
14.2523202362
31
0.0000000000
11
21.1352156674
21
14.2447399779
31
0.0000000000
11
21.2135884178
21
14.2359118575
31
0.0000000000
0
SPLINE
5
2F7
100
AcDbEntity
8
0
100
AcDbSpline
62
7
6
CONTINUOUS
70
0
71
3
72
13
73
9
74
7
42
0.0000001000
43
0.0000001000
44
0.0000000001
12
0.0353694477
22
0.1358272799
32
0.0000000000
13
0.1397918155
23
-0.0125815774
33
0.0000000000
40
0.0000000000
40
0.0000000000
40
0.0000000000
40
0.0000000000
40
0.1672850456
40
0.3310543700
40
0.4983230426
40
0.6659291357
40
0.8308226209
40
1.0000000000
40
1.0000000000
40
1.0000000000
40
1.0000000000
10
20.9509084056
20
14.1778710554
30
0.0000000000
10
20.9528806655
20
14.1854450129
30
0.0000000000
10
20.9585745455
20
14.2000318049
30
0.0000000000
10
20.9719497280
20
14.2193663845
30
0.0000000000
10
20.9894465632
20
14.2351259790
30
0.0000000000
10
21.0101864443
20
14.2463913033
30
0.0000000000
10
21.0330362799
20
14.2525716891
30
0.0000000000
10
21.0488350778
20
14.2530297423
30
0.0000000000
10
21.0567182821
20
14.2523202362
30
0.0000000000
11
20.9509084056
21
14.1778710554
31
0.0000000000
11
20.9594499877
21
14.1997418842
31
0.0000000000
11
20.9725240851
21
14.2186477292
31
0.0000000000
11
20.9899702938
21
14.2343580338
31
0.0000000000
11
21.0106410098
21
14.2455888552
31
0.0000000000
11
21.0329831739
21
14.2516278350
31
0.0000000000
11
21.0567182821
21
14.2523202362
31
0.0000000000
0
SPLINE
5
2F8
100
AcDbEntity
8
0
100
AcDbSpline
62
7
6
CONTINUOUS
70
0
71
3
72
11
73
7
74
5
42
0.0000001000
43
0.0000001000
44
0.0000000001
12
-0.1273284832
22
0.4908799530
32
0.0000000000
13
0.1273036729
23
0.4908863878
33
0.0000000000
40
0.0000000000
40
0.0000000000
40
0.0000000000
40
0.0000000000
40
0.3327623803
40
0.5001789126
40
0.6675556030
40
1.0000000000
40
1.0000000000
40
1.0000000000
40
1.0000000000
10
20.9509210955
20
13.6757199830
30
0.0000000000
10
20.9367977191
20
13.7301687769
30
0.0000000000
10
20.9224076971
20
13.8140293239
30
0.0000000000
10
20.9177747098
20
13.9268790676
30
0.0000000000
10
20.9224191855
20
14.0396745151
30
0.0000000000
10
20.9368012747
20
14.1234735790
30
0.0000000000
10
20.9509084056
20
14.1778710554
30
0.0000000000
11
20.9509210955
21
13.6757199830
31
0.0000000000
11
20.9224834103
21
13.8420586925
31
0.0000000000
11
20.9189381986
21
13.9268857349
31
0.0000000000
11
20.9224928485
21
14.0116921598
31
0.0000000000
11
20.9509084056
21
14.1778710554
31
0.0000000000
0
SPLINE
5
2F9
100
AcDbEntity
8
0
100
AcDbSpline
62
7
6
CONTINUOUS
70
0
71
3
72
13
73
9
74
7
42
0.0000001000
43
0.0000001000
44
0.0000000001
12
-0.1212218417
22
0.0117974982
32
0.0000000000
13
-0.0306773200
23
0.1178677985
33
0.0000000000
40
0.0000000000
40
0.0000000000
40
0.0000000000
40
0.0000000000
40
0.1671965075
40
0.3316249502
40
0.4984898039
40
0.6656619396
40
0.8310977691
40
1.0000000000
40
1.0000000000
40
1.0000000000
40
1.0000000000
10
21.0380737395
20
13.6013241306
30
0.0000000000
10
21.0313177833
20
13.6019816308
30
0.0000000000
10
21.0180109078
20
13.6046626931
30
0.0000000000
10
20.9992614672
20
13.6126161813
30
0.0000000000
10
20.9824765427
20
13.6241723985
30
0.0000000000
10
20.9683485305
20
13.6389162668
30
0.0000000000
10
20.9574375751
20
13.6562614582
30
0.0000000000
10
20.9526482514
20
13.6690839383
30
0.0000000000
10
20.9509210955
20
13.6757199830
30
0.0000000000
11
21.0380737395
21
13.6013241306
31
0.0000000000
11
21.0181117385
21
13.6053485277
31
0.0000000000
11
20.9996745904
21
13.6131672164
31
0.0000000000
11
20.9829359560
21
13.6246933555
31
0.0000000000
11
20.9688480545
21
13.6393932671
31
0.0000000000
11
20.9581213279
21
13.6564498489
31
0.0000000000
11
20.9509210955
21
13.6757199830
31
0.0000000000
0
SPLINE
5
2FA
100
AcDbEntity
8
0
100
AcDbSpline
62
7
6
CONTINUOUS
70
0
71
3
72
9
73
5
74
3
42
0.0000001000
43
0.0000001000
44
0.0000000001
12
-0.0969933631
22
0.0116660345
32
0.0000000000
13
-0.0972330342
23
0.0094628704
33
0.0000000000
40
0.0000000000
40
0.0000000000
40
0.0000000000
40
0.0000000000
40
0.5000204181
40
1.0000000000
40
1.0000000000
40
1.0000000000
40
1.0000000000
10
21.1351916676
20
13.5907596183
30
0.0000000000
10
21.1190254469
20
13.5927040368
30
0.0000000000
10
21.0866720105
20
13.5964093742
30
0.0000000000
10
21.0542786272
20
13.5997474999
30
0.0000000000
10
21.0380737833
20
13.6013245805
30
0.0000000000
11
21.1351916676
21
13.5907596183
31
0.0000000000
11
21.0866607018
21
13.5963177151
31
0.0000000000
11
21.0380737833
21
13.6013245805
31
0.0000000000
0
SPLINE
5
2FB
100
AcDbEntity
8
0
100
AcDbSpline
62
7
6
CONTINUOUS
70
0
71
3
72
14
73
10
74
8
42
0.0000001000
43
0.0000001000
44
0.0000000001
12
-0.2407645272
22
0.8649654097
32
0.0000000000
13
-0.8914242121
23
0.1072174968
33
0.0000000000
40
0.0000000000
40
0.0000000000
40
0.0000000000
40
0.0000000000
40
0.1428498101
40
0.2857355419
40
0.4286104172
40
0.5714876573
40
0.7143810753
40
0.8573038969
40
1.0000000000
40
1.0000000000
40
1.0000000000
40
1.0000000000
10
21.7783210955
20
13.0385199830
30
0.0000000000
10
21.7668567065
20
13.0797066978
30
0.0000000000
10
21.7369123425
20
13.1603198346
30
0.0000000000
10
21.6724040755
20
13.2718658093
30
0.0000000000
10
21.5900777048
20
13.3710509246
30
0.0000000000
10
21.4922851592
20
13.4550131444
30
0.0000000000
10
21.3817700470
20
13.5213913761
30
0.0000000000
10
21.2617725032
20
13.5682629918
30
0.0000000000
10
21.1775925826
20
13.5856597335
30
0.0000000000
10
21.1351916622
20
13.5907595731
30
0.0000000000
11
21.7783210955
21
13.0385199830
31
0.0000000000
11
21.7336518193
21
13.1587474965
31
0.0000000000
11
21.6694331988
21
13.2698071304
31
0.0000000000
11
21.5875008562
21
13.3685130765
31
0.0000000000
11
21.4901706706
21
13.4520783340
31
0.0000000000
11
21.3801889802
21
13.5181394571
31
0.0000000000
11
21.2606580402
21
13.5648210737
31
0.0000000000
11
21.1351916622
21
13.5907595731
31
0.0000000000
0
SPLINE
5
2FC
100
AcDbEntity
8
0
100
AcDbSpline
62
7
6
CONTINUOUS
70
0
71
3
72
15
73
11
74
9
42
0.0000001000
43
0.0000001000
44
0.0000000001
12
0.7149115959
22
2.5680922748
32
0.0000000000
13
-0.7149007562
23
2.5680952923
33
0.0000000000
40
0.0000000000
40
0.0000000000
40
0.0000000000
40
0.0000000000
40
0.1250095648
40
0.2500581637
40
0.3750902358
40
0.5001030092
40
0.6250967905
40
0.7500773976
40
0.8750556383
40
1.0000000000
40
1.0000000000
40
1.0000000000
40
1.0000000000
10
21.7783155401
20
10.4049000269
30
0.0000000000
10
21.8081058026
20
10.5119120595
30
0.0000000000
10
21.8604459585
20
10.7280643647
30
0.0000000000
10
21.9167672610
20
11.0568169108
30
0.0000000000
10
21.9506579046
20
11.3886513257
30
0.0000000000
10
21.9619573249
20
11.7219677072
30
0.0000000000
10
21.9506252832
20
12.0552371105
30
0.0000000000
10
21.9167197195
20
12.3869439089
30
0.0000000000
10
21.8604100137
20
12.7155294229
30
0.0000000000
10
21.8080953684
20
12.9315636406
30
0.0000000000
10
21.7783210955
20
13.0385199830
30
0.0000000000
11
21.7783155401
21
10.4049000269
31
0.0000000000
11
21.8567407126
21
10.7287839659
31
0.0000000000
11
21.9130304502
21
11.0573446775
31
0.0000000000
11
21.9468944012
21
11.3889235346
31
0.0000000000
11
21.9581854441
21
11.7219843800
31
0.0000000000
11
21.9468619711
21
12.0549934671
31
0.0000000000
11
21.9129843170
21
12.3864330172
31
0.0000000000
11
21.8567097299
21
12.7148060344
31
0.0000000000
11
21.7783210955
21
13.0385199830
31
0.0000000000
0
SPLINE
5
2FD
100
AcDbEntity
8
0
100
AcDbSpline
62
7
6
CONTINUOUS
70
0
71
3
72
14
73
10
74
8
42
0.0000001000
43
0.0000001000
44
0.0000000001
12
0.8910291715
22
0.1075634470
32
0.0000000000
13
0.2406951187
23
0.8646205755
33
0.0000000000
40
0.0000000000
40
0.0000000000
40
0.0000000000
40
0.0000000000
40
0.1428751792
40
0.2858000516
40
0.4287117094
40
0.5716099147
40
0.7144972083
40
0.8573783651
40
1.0000000000
40
1.0000000000
40
1.0000000000
40
1.0000000000
10
21.1355210955
20
9.8527199830
30
0.0000000000
10
21.1779564130
20
9.8578426986
30
0.0000000000
10
21.2621488894
20
9.8752866525
30
0.0000000000
10
21.3821289878
20
9.9222274151
30
0.0000000000
10
21.4925784999
20
9.9886405614
30
0.0000000000
10
21.5903064673
20
10.0726240361
30
0.0000000000
10
21.6725657923
20
10.1718100260
30
0.0000000000
10
21.7369772402
20
10.2832770367
30
0.0000000000
10
21.7668735625
20
10.3637952710
30
0.0000000000
10
21.7783163396
20
10.4048998044
30
0.0000000000
11
21.1355210955
21
9.8527199830
31
0.0000000000
11
21.2610826377
21
9.8787446752
31
0.0000000000
11
21.3805429596
21
9.9254742910
31
0.0000000000
11
21.4904630349
21
9.9915723998
31
0.0000000000
11
21.5877317401
21
10.0751611843
31
0.0000000000
11
21.6695992238
21
10.1738702980
31
0.0000000000
11
21.7337525806
21
10.2849050142
31
0.0000000000
11
21.7783163396
21
10.4048998044
31
0.0000000000
0
SPLINE
5
2FE
100
AcDbEntity
8
0
100
AcDbSpline
62
7
6
CONTINUOUS
70
0
71
3
72
10
73
6
74
4
42
0.0000001000
43
0.0000001000
44
0.0000000001
12
1.0277933689
22
-0.1240086715
32
0.0000000000
13
1.0277886362
23
0.1240478901
33
0.0000000000
40
0.0000000000
40
0.0000000000
40
0.0000000000
40
0.0000000000
40
0.3332281085
40
0.6666907452
40
1.0000000000
40
1.0000000000
40
1.0000000000
40
1.0000000000
10
20.1024844131
20
9.8527002747
30
0.0000000000
10
20.2166476266
20
9.8389258830
30
0.0000000000
10
20.4462677515
20
9.8205030059
30
0.0000000000
10
20.7916829055
20
9.8205062245
30
0.0000000000
10
21.0213306073
20
9.8389378797
30
0.0000000000
10
21.1355210955
20
9.8527199830
30
0.0000000000
11
20.1024844131
21
9.8527002747
31
0.0000000000
11
20.4463530993
21
9.8251125022
31
0.0000000000
11
20.7915694559
21
9.8251157223
31
0.0000000000
11
21.1355210955
21
9.8527199830
31
0.0000000000
0
SPLINE
5
2FF
100
AcDbEntity
8
0
100
AcDbSpline
62
7
6
CONTINUOUS
70
0
71
3
72
14
73
10
74
8
42
0.0000001000
43
0.0000001000
44
0.0000000001
12
0.2405441996
22
-0.8646866421
32
0.0000000000
13
0.8910588644
23
-0.1075109349
33
0.0000000000
40
0.0000000000
40
0.0000000000
40
0.0000000000
40
0.0000000000
40
0.1428517452
40
0.2857584324
40
0.4286605360
40
0.5715588476
40
0.7144560962
40
0.8573558921
40
1.0000000000
40
1.0000000000
40
1.0000000000
40
1.0000000000
10
19.4597210955
20
10.4049199830
30
0.0000000000
10
19.4711751484
20
10.3637459844
30
0.0000000000
10
19.5010974001
20
10.2831509543
30
0.0000000000
10
19.5655689373
20
10.1716206931
30
0.0000000000
10
19.6478598604
20
10.0724402219
30
0.0000000000
10
19.7456125023
20
9.9884797387
30
0.0000000000
10
19.8560737807
20
9.9221025369
30
0.0000000000
10
19.9759954886
20
9.8752258646
30
0.0000000000
10
20.0601163672
20
9.8578126474
30
0.0000000000
10
20.1024844661
20
9.8527007136
30
0.0000000000
11
19.4597210955
21
10.4049199830
31
0.0000000000
11
19.5043545116
21
10.2847272228
31
0.0000000000
11
19.5685384944
21
10.1736799135
31
0.0000000000
11
19.6504379296
21
10.0749757302
31
0.0000000000
11
19.7477309442
21
9.9914100101
31
0.0000000000
11
19.8576616937
21
9.9253483278
31
0.0000000000
11
19.9771180494
21
9.8786612730
31
0.0000000000
11
20.1024844661
21
9.8527007136
31
0.0000000000
0
SPLINE
5
300
100
AcDbEntity
8
0
100
AcDbSpline
62
7
6
CONTINUOUS
70
0
71
3
72
15
73
11
74
9
42
0.0000001000
43
0.0000001000
44
0.0000000001
12
-0.7150218168
22
-2.5682061385
32
0.0000000000
13
0.7149381012
23
-2.5682294445
33
0.0000000000
40
0.0000000000
40
0.0000000000
40
0.0000000000
40
0.0000000000
40
0.1249478446
40
0.2499455637
40
0.3749442203
40
0.4999452378
40
0.6249510315
40
0.7499651467
40
0.8749941539
40
1.0000000000
40
1.0000000000
40
1.0000000000
40
1.0000000000
10
19.4597640198
20
13.0386741678
30
0.0000000000
10
19.4299838749
20
12.9317102273
30
0.0000000000
10
19.3776552281
20
12.7156464131
30
0.0000000000
10
19.3213297981
20
12.3870088118
30
0.0000000000
10
19.2874162972
20
12.0552451964
30
0.0000000000
10
19.2760844628
20
11.7219420102
30
0.0000000000
10
19.2873864999
20
11.3886240385
30
0.0000000000
10
19.3212763635
20
11.0568118824
30
0.0000000000
10
19.3775936778
20
10.7280782688
30
0.0000000000
10
19.4299306148
20
10.5119345478
30
0.0000000000
10
19.4597210955
20
10.4049199830
30
0.0000000000
11
19.4597640198
21
13.0386741678
31
0.0000000000
11
19.3813594331
21
12.7149366272
31
0.0000000000
11
19.3250665356
21
12.3864964066
31
0.0000000000
11
19.2911801126
21
12.0549918894
31
0.0000000000
11
19.2798567450
21
11.7219460810
31
0.0000000000
11
19.2911503045
21
11.3888865201
31
0.0000000000
11
19.3250126368
21
11.0573381162
31
0.0000000000
11
19.3812957731
21
10.7288115965
31
0.0000000000
11
19.4597210955
21
10.4049199830
31
0.0000000000
0
SPLINE
5
301
100
AcDbEntity
8
0
100
AcDbSpline
62
7
6
CONTINUOUS
70
0
71
3
72
14
73
10
74
8
42
0.0000001000
43
0.0000001000
44
0.0000000001
12
-0.8907254676
22
-0.1076549858
32
0.0000000000
13
-0.2406417288
23
-0.8643338551
33
0.0000000000
40
0.0000000000
40
0.0000000000
40
0.0000000000
40
0.0000000000
40
0.1429512229
40
0.2859297089
40
0.4288584661
40
0.5717329589
40
0.7145691451
40
0.8573977825
40
1.0000000000
40
1.0000000000
40
1.0000000000
40
1.0000000000
10
20.1023302027
20
13.5907210838
30
0.0000000000
10
20.0598867710
20
13.5855912798
30
0.0000000000
10
19.9756860361
20
13.5681302845
30
0.0000000000
10
19.8557141332
20
13.5211613165
30
0.0000000000
10
19.7453045241
20
13.4547354131
30
0.0000000000
10
19.6476397915
20
13.3707695612
30
0.0000000000
10
19.5654465525
20
13.2716334811
30
0.0000000000
10
19.5010816744
20
13.1602311136
30
0.0000000000
10
19.4712022475
20
13.0797596023
30
0.0000000000
10
19.4597635661
20
13.0386742941
30
0.0000000000
11
20.1023302027
21
13.5907210838
31
0.0000000000
11
19.9767470473
21
13.5646690384
31
0.0000000000
11
19.8572912066
21
13.5179099195
31
0.0000000000
11
19.7474097182
21
13.4517984491
31
0.0000000000
11
19.6502066946
21
13.3682295806
31
0.0000000000
11
19.5684095435
21
13.2695756426
31
0.0000000000
11
19.5043074091
21
13.1586136948
31
0.0000000000
11
19.4597635661
21
13.0386742941
31
0.0000000000
0
SPLINE
5
302
100
AcDbEntity
8
0
100
AcDbSpline
62
7
6
CONTINUOUS
70
0
71
3
72
9
73
5
74
3
42
0.0000001000
43
0.0000001000
44
0.0000000001
12
-0.0977067168
22
-0.0094883204
32
0.0000000000
13
-0.0974655988
23
-0.0117084495
33
0.0000000000
40
0.0000000000
40
0.0000000000
40
0.0000000000
40
0.0000000000
40
0.5000125590
40
1.0000000000
40
1.0000000000
40
1.0000000000
40
1.0000000000
10
20.1999210955
20
13.6013199830
30
0.0000000000
10
20.1836362337
20
13.5997385565
30
0.0000000000
10
20.1510850532
20
13.5963905195
30
0.0000000000
10
20.1185740611
20
13.5926724430
30
0.0000000000
10
20.1023302027
20
13.5907210838
30
0.0000000000
11
20.1999210955
21
13.6013199830
31
0.0000000000
11
20.1510942832
21
13.5962979209
31
0.0000000000
11
20.1023302027
21
13.5907210838
31
0.0000000000
0
SPLINE
5
303
100
AcDbEntity
8
0
100
AcDbSpline
62
7
6
CONTINUOUS
70
0
71
3
72
13
73
9
74
7
42
0.0000001000
43
0.0000001000
44
0.0000000001
12
-0.0305467164
22
-0.1177479172
32
0.0000000000
13
-0.1210658840
23
-0.0118627842
33
0.0000000000
40
0.0000000000
40
0.0000000000
40
0.0000000000
40
0.0000000000
40
0.1669440964
40
0.3312951135
40
0.4983357306
40
0.6657182417
40
0.8311801604
40
1.0000000000
40
1.0000000000
40
1.0000000000
40
1.0000000000
10
20.2869121770
20
13.6756869683
30
0.0000000000
10
20.2852123123
20
13.6691345285
30
0.0000000000
10
20.2804983829
20
13.6564374670
30
0.0000000000
10
20.2697365121
20
13.6391832293
30
0.0000000000
10
20.2557125661
20
13.6244142903
30
0.0000000000
10
20.2389493444
20
13.6127669033
30
0.0000000000
10
20.2201286934
20
13.6047094852
30
0.0000000000
10
20.2067338699
20
13.6019875408
30
0.0000000000
10
20.1999210955
20
13.6013199830
30
0.0000000000
11
20.2869121770
21
13.6756869683
31
0.0000000000
11
20.2798417490
21
13.6566495021
31
0.0000000000
11
20.2692630618
21
13.6396849759
31
0.0000000000
11
20.2552701848
21
13.6249509170
31
0.0000000000
11
20.2385497343
21
13.6133314695
31
0.0000000000
11
20.2200454956
21
13.6054119597
31
0.0000000000
11
20.1999210955
21
13.6013199830
31
0.0000000000
0
SPLINE
5
304
100
AcDbEntity
8
0
100
AcDbSpline
62
7
6
CONTINUOUS
70
0
71
3
72
11
73
7
74
5
42
0.0000001000
43
0.0000001000
44
0.0000000001
12
0.1273497027
22
-0.4909617588
32
0.0000000000
13
-0.1273664826
23
-0.4909574060
33
0.0000000000
40
0.0000000000
40
0.0000000000
40
0.0000000000
40
0.0000000000
40
0.3328408885
40
0.5002667918
40
0.6676335713
40
1.0000000000
40
1.0000000000
40
1.0000000000
40
1.0000000000
10
20.2869210955
20
14.1779199830
30
0.0000000000
10
20.3010501582
20
14.1234492670
30
0.0000000000
10
20.3154423303
20
14.0395590818
30
0.0000000000
10
20.3200678398
20
13.9266769609
30
0.0000000000
10
20.3154128227
20
13.8138763761
30
0.0000000000
10
20.3010232899
20
13.7300794688
30
0.0000000000
10
20.2869125090
20
13.6756868822
30
0.0000000000
11
20.2869210955
21
14.1779199830
31
0.0000000000
11
20.3153645575
21
14.0115133325
31
0.0000000000
11
20.3189039661
21
13.9266671294
31
0.0000000000
11
20.3153411710
21
13.8418519197
31
0.0000000000
11
20.2869125090
21
13.6756868822
31
0.0000000000
0
SPLINE
5
305
100
AcDbEntity
8
0
100
AcDbSpline
62
7
6
CONTINUOUS
70
0
71
3
72
13
73
9
74
7
42
0.0000001000
43
0.0000001000
44
0.0000000001
12
0.1395787219
22
0.0124410536
32
0.0000000000
13
0.0352606350
23
-0.1356233278
33
0.0000000000
40
0.0000000000
40
0.0000000000
40
0.0000000000
40
0.0000000000
40
0.1677698551
40
0.3317333757
40
0.4987474064
40
0.6660061602
40
0.8307993335
40
1.0000000000
40
1.0000000000
40
1.0000000000
40
1.0000000000
10
20.1813210955
20
14.2523199830
30
0.0000000000
10
20.1891267962
20
14.2530157276
30
0.0000000000
10
20.2047868967
20
14.2525643407
30
0.0000000000
10
20.2274763615
20
14.2464737604
30
0.0000000000
10
20.2481521694
20
14.2353249239
30
0.0000000000
10
20.2656916233
20
14.2196397925
30
0.0000000000
10
20.2791821171
20
14.2002603287
30
0.0000000000
10
20.2849323879
20
14.1855691688
30
0.0000000000
10
20.2869210955
20
14.1779199830
30
0.0000000000
11
20.1813210955
21
14.2523199830
31
0.0000000000
11
20.2048211542
21
14.2516384768
31
0.0000000000
11
20.2270130944
21
14.2456853607
31
0.0000000000
11
20.2476118460
21
14.2345750170
31
0.0000000000
11
20.2650848107
21
14.2189529109
31
0.0000000000
11
20.2782750507
21
14.1999978209
31
0.0000000000
11
20.2869210955
21
14.1779199830
31
0.0000000000
0
SPLINE
5
306
100
AcDbEntity
8
0
100
AcDbSpline
62
7
6
CONTINUOUS
70
0
71
3
72
9
73
5
74
3
42
0.0000001000
43
0.0000001000
44
0.0000000001
12
0.1564487858
22
0.0188790600
32
0.0000000000
13
0.1569695680
23
0.0138995047
33
0.0000000000
40
0.0000000000
40
0.0000000000
40
0.0000000000
40
0.0000000000
40
0.4999940530
40
1.0000000000
40
1.0000000000
40
1.0000000000
40
1.0000000000
10
20.0245970856
20
14.2359291494
30
0.0000000000
10
20.0506715731
20
14.2390756219
30
0.0000000000
10
20.1028719787
20
14.2449544988
30
0.0000000000
10
20.1551591897
20
14.2500033713
30
0.0000000000
10
20.1813210955
20
14.2523199830
30
0.0000000000
11
20.0245970856
21
14.2359291494
31
0.0000000000
11
20.1028930587
21
14.2447469327
31
0.0000000000
11
20.1813210955
21
14.2523199830
31
0.0000000000
0
SPLINE
5
307
100
AcDbEntity
8
0
100
AcDbSpline
62
7
6
CONTINUOUS
70
0
71
3
72
15
73
11
74
9
42
0.0000001000
43
0.0000001000
44
0.0000000001
12
0.4460885665
22
1.6025429031
32
0.0000000000
13
1.6515055527
23
0.1991687099
33
0.0000000000
40
0.0000000000
40
0.0000000000
40
0.0000000000
40
0.0000000000
40
0.1247801488
40
0.2498282955
40
0.3748941886
40
0.4999721642
40
0.6250300504
40
0.7500838065
40
0.8751507046
40
1.0000000000
40
1.0000000000
40
1.0000000000
40
1.0000000000
10
18.8335003770
20
13.2128461948
30
0.0000000000
10
18.8520547096
20
13.2795013754
30
0.0000000000
10
18.8991065210
20
13.4104220999
30
0.0000000000
10
18.9977204740
20
13.5942344879
30
0.0000000000
10
19.1223904223
20
13.7617365975
30
0.0000000000
10
19.2703233089
20
13.9090908610
30
0.0000000000
10
19.4382971006
20
14.0331040857
30
0.0000000000
10
19.6226769116
20
14.1310859639
30
0.0000000000
10
19.8192982074
20
14.2008672523
30
0.0000000000
10
19.9558673174
20
14.2276404583
30
0.0000000000
10
20.0245970856
20
14.2359291494
30
0.0000000000
11
18.8335003770
21
13.2128461948
31
0.0000000000
11
18.9037120951
21
13.4081789926
31
0.0000000000
11
19.0020445586
21
13.5914836117
31
0.0000000000
11
19.1262627951
21
13.7583727030
31
0.0000000000
11
19.2736728410
21
13.9052086004
31
0.0000000000
11
19.4410341224
21
14.0287674881
31
0.0000000000
11
19.6247287272
21
14.1263893658
31
0.0000000000
11
19.8207951373
21
14.1959652059
31
0.0000000000
11
20.0245970856
21
14.2359291494
31
0.0000000000
0
SPLINE
5
308
100
AcDbEntity
8
0
100
AcDbSpline
62
7
6
CONTINUOUS
70
0
71
3
72
15
73
11
74
9
42
0.0000001000
43
0.0000001000
44
0.0000000001
12
-0.8094966950
22
2.9080610860
32
0.0000000000
13
0.8094964758
23
2.9080611470
33
0.0000000000
40
0.0000000000
40
0.0000000000
40
0.0000000000
40
0.0000000000
40
0.1250054440
40
0.2500654384
40
0.3751075874
40
0.5001264883
40
0.6251183562
40
0.7500932778
40
0.8750649256
40
1.0000000000
40
1.0000000000
40
1.0000000000
40
1.0000000000
10
18.8335006681
20
10.2305933653
30
0.0000000000
10
18.7997701701
20
10.3517678544
30
0.0000000000
10
18.7405033384
20
10.5965415318
30
0.0000000000
10
18.6767282604
20
10.9688311571
30
0.0000000000
10
18.6383540028
20
11.3446207737
30
0.0000000000
10
18.6255640345
20
11.7220748825
30
0.0000000000
10
18.6384007649
20
12.0994595386
30
0.0000000000
10
18.6767955192
20
12.4750619013
30
0.0000000000
10
18.7405552348
20
12.8471229180
30
0.0000000000
10
18.7997890414
20
13.0917398702
30
0.0000000000
10
18.8335005423
20
13.2128461488
30
0.0000000000
11
18.8335006681
21
10.2305933653
31
0.0000000000
11
18.7447022357
21
10.5973410553
31
0.0000000000
11
18.6809600451
21
10.9694301072
31
0.0000000000
11
18.6426157434
21
11.3449329367
31
0.0000000000
11
18.6298351176
21
11.7221017895
31
0.0000000000
11
18.6426619964
21
12.0991874220
31
0.0000000000
11
18.6810248591
21
12.4744843645
31
0.0000000000
11
18.7447451230
21
12.8463066016
31
0.0000000000
11
18.8335005423
21
13.2128461488
31
0.0000000000
0
SPLINE
5
309
100
AcDbEntity
8
0
100
AcDbSpline
62
7
6
CONTINUOUS
70
0
71
3
72
11
73
7
74
5
42
0.0000001000
43
0.0000001000
44
0.0000000001
12
-0.7005560487
22
0.0845642353
32
0.0000000000
13
-0.5741567788
23
0.4102119948
33
0.0000000000
40
0.0000000000
40
0.0000000000
40
0.0000000000
40
0.0000000000
40
0.3330703874
40
0.5003180107
40
0.6674950203
40
1.0000000000
40
1.0000000000
40
1.0000000000
40
1.0000000000
10
20.0244424984
20
9.2075296395
30
0.0000000000
10
19.9466643402
20
9.2169182537
30
0.0000000000
10
19.8306882098
20
9.2407808179
30
0.0000000000
10
19.6820176055
20
9.2916708773
30
0.0000000000
10
19.5380863293
20
9.3543983535
30
0.0000000000
10
19.4365213721
20
9.4149641393
30
0.0000000000
10
19.3728847094
20
9.4604299830
30
0.0000000000
11
20.0244424984
21
9.2075296395
31
0.0000000000
11
19.7942620474
21
9.2550191296
31
0.0000000000
11
19.6825804563
21
9.2931662299
31
0.0000000000
11
19.5744681458
21
9.3403673819
31
0.0000000000
11
19.3728847094
21
9.4604299830
31
0.0000000000
0
SPLINE
5
30A
100
AcDbEntity
8
0
100
AcDbSpline
62
7
6
CONTINUOUS
70
0
71
3
72
10
73
6
74
4
42
0.0000001000
43
0.0000001000
44
0.0000000001
12
-1.1830389850
22
-0.1427856730
32
0.0000000000
13
-1.1830367060
23
0.1428045543
33
0.0000000000
40
0.0000000000
40
0.0000000000
40
0.0000000000
40
0.0000000000
40
0.3333168286
40
0.6667573470
40
1.0000000000
40
1.0000000000
40
1.0000000000
40
1.0000000000
10
21.2135210955
20
9.2075199830
30
0.0000000000
10
21.0820788280
20
9.1916556938
30
0.0000000000
10
20.8177475770
20
9.1704429586
30
0.0000000000
10
20.4201563984
20
9.1704496795
30
0.0000000000
10
20.1558552417
20
9.1916666161
30
0.0000000000
10
20.0244424782
20
9.2075294723
30
0.0000000000
11
21.2135210955
21
9.2075199830
31
0.0000000000
11
20.8176052868
21
9.1757492301
31
0.0000000000
11
20.4202693903
21
9.1757559431
31
0.0000000000
11
20.0244424782
21
9.2075294723
31
0.0000000000
0
SPLINE
5
30B
100
AcDbEntity
8
0
100
AcDbSpline
62
7
6
CONTINUOUS
70
0
71
3
72
13
73
9
74
7
42
0.0000001000
43
0.0000001000
44
0.0000000001
12
-0.5745569246
22
-0.4104980292
32
0.0000000000
13
-0.7010491144
23
-0.0845838684
33
0.0000000000
40
0.0000000000
40
0.0000000000
40
0.0000000000
40
0.0000000000
40
0.1634710184
40
0.3293695576
40
0.5001323111
40
0.6708661563
40
0.8366765473
40
1.0000000000
40
1.0000000000
40
1.0000000000
40
1.0000000000
10
21.8651577741
20
9.4604299830
30
0.0000000000
10
21.8338499722
20
9.4380618060
30
0.0000000000
10
21.7688947715
20
9.3955532454
30
0.0000000000
10
21.6653081768
20
9.3393560261
30
0.0000000000
10
21.5557793623
20
9.2913766445
30
0.0000000000
10
21.4425755971
20
9.2529252541
30
0.0000000000
10
21.3282573917
20
9.2245538884
30
0.0000000000
10
21.2516870161
20
9.2121248261
30
0.0000000000
10
21.2135210955
20
9.2075199830
30
0.0000000000
11
21.8651577741
21
9.4604299830
31
0.0000000000
11
21.7685696636
21
9.3972211142
31
0.0000000000
11
21.6656006080
21
9.3413581250
31
0.0000000000
11
21.5551513610
21
9.2929762349
31
0.0000000000
11
21.4409961885
21
9.2542010165
31
0.0000000000
11
21.3273590933
21
9.2259994027
31
0.0000000000
11
21.2135210955
21
9.2075199830
31
0.0000000000
0
SPLINE
5
30C
100
AcDbEntity
8
0
100
AcDbSpline
62
7
6
CONTINUOUS
70
0
71
3
72
13
73
9
74
7
42
0.0000001000
43
0.0000001000
44
0.0000000001
12
0.1197267254
22
-0.0384162570
32
0.0000000000
13
0.0000383162
23
-0.1257390000
33
0.0000000000
40
0.0000000000
40
0.0000000000
40
0.0000000000
40
0.0000000000
40
0.1665278525
40
0.3305727732
40
0.4978645656
40
0.6656267788
40
0.8312219759
40
1.0000000000
40
1.0000000000
40
1.0000000000
40
1.0000000000
10
20.9244887453
20
-10.9146115132
30
0.0000000000
10
20.9311346902
20
-10.9167439722
30
0.0000000000
10
20.9439230319
20
-10.9223824992
30
0.0000000000
10
20.9609751115
20
-10.9346532899
30
0.0000000000
10
20.9751629368
20
-10.9502386364
30
0.0000000000
10
20.9858008714
20
-10.9685097670
30
0.0000000000
10
20.9924152271
20
-10.9886421891
30
0.0000000000
10
20.9939189399
20
-11.0027023504
30
0.0000000000
10
20.9939210955
20
-11.0097763437
30
0.0000000000
11
20.9244887453
21
-10.9146115132
31
0.0000000000
11
20.9436470387
21
-10.9230615705
31
0.0000000000
11
20.9603909229
21
-10.9351076938
31
0.0000000000
11
20.9745499468
21
-10.9506639668
31
0.0000000000
11
20.9851651039
21
-10.9688926801
31
0.0000000000
11
20.9916618410
21
-10.9886749635
31
0.0000000000
11
20.9939210955
21
-11.0097763437
31
0.0000000000
0
SPLINE
5
30D
100
AcDbEntity
8
0
100
AcDbSpline
62
7
6
CONTINUOUS
70
0
71
3
72
13
73
9
74
7
42
0.0000001000
43
0.0000001000
44
0.0000000001
12
0.5909379416
22
0.1896341710
32
0.0000000000
13
0.5909443919
23
-0.1896140693
33
0.0000000000
40
0.0000000000
40
0.0000000000
40
0.0000000000
40
0.0000000000
40
0.1666314617
40
0.3328699740
40
0.5003478691
40
0.6677501396
40
0.8337568401
40
1.0000000000
40
1.0000000000
40
1.0000000000
40
1.0000000000
10
20.3135210955
20
-10.9146220170
30
0.0000000000
10
20.3463440465
20
-10.9040890106
30
0.0000000000
10
20.4130533775
20
-10.8864286305
30
0.0000000000
10
20.5154873012
20
-10.8703798880
30
0.0000000000
10
20.6192049888
20
-10.8650011806
30
0.0000000000
10
20.7228724929
20
-10.8704162628
30
0.0000000000
10
20.8251590373
20
-10.8864712119
30
0.0000000000
10
20.8917418885
20
-10.9041042775
30
0.0000000000
10
20.9244887095
20
-10.9146116248
30
0.0000000000
11
20.3135210955
21
-10.9146220170
31
0.0000000000
11
20.4134923791
21
-10.8881577869
31
0.0000000000
11
20.5154196345
21
-10.8721869653
31
0.0000000000
11
20.6192202723
21
-10.8668048807
31
0.0000000000
11
20.7229720148
21
-10.8722234344
31
0.0000000000
11
20.8247526777
21
-10.8882004213
31
0.0000000000
11
20.9244887095
21
-10.9146116248
31
0.0000000000
0
SPLINE
5
30E
100
AcDbEntity
8
0
100
AcDbSpline
62
7
6
CONTINUOUS
70
0
71
3
72
13
73
9
74
7
42
0.0000001000
43
0.0000001000
44
0.0000000001
12
-0.0000000008
22
0.1259995698
32
0.0000000000
13
0.1200144143
23
0.0383722811
33
0.0000000000
40
0.0000000000
40
0.0000000000
40
0.0000000000
40
0.0000000000
40
0.1674870260
40
0.3319225730
40
0.4988604982
40
0.6660302403
40
0.8312253452
40
1.0000000000
40
1.0000000000
40
1.0000000000
40
1.0000000000
10
20.2439212585
20
-11.0099459991
30
0.0000000000
10
20.2439212585
20
-11.0029115680
30
0.0000000000
10
20.2454022801
20
-10.9889256540
30
0.0000000000
10
20.2519394107
20
-10.9688692762
30
0.0000000000
10
20.2624921201
20
-10.9506025686
30
0.0000000000
10
20.2766564042
20
-10.9349251427
30
0.0000000000
10
20.2938222076
20
-10.9224970571
30
0.0000000000
10
20.3067692984
20
-10.9167807732
30
0.0000000000
10
20.3135210955
20
-10.9146220170
30
0.0000000000
11
20.2439212585
21
-11.0099459991
31
0.0000000000
11
20.2461462753
21
-10.9889603305
31
0.0000000000
11
20.2525645322
21
-10.9692607115
31
0.0000000000
11
20.2630878591
21
-10.9510482642
31
0.0000000000
11
20.2772072754
21
-10.9354179939
31
0.0000000000
11
20.2940684209
21
-10.9232136632
31
0.0000000000
11
20.3135210955
21
-10.9146220170
31
0.0000000000
0
SPLINE
5
30F
100
AcDbEntity
8
0
100
AcDbSpline
62
7
6
CONTINUOUS
70
0
71
3
72
13
73
9
74
7
42
0.0000001000
43
0.0000001000
44
0.0000000001
12
-0.1197588668
22
0.0384465069
32
0.0000000000
13
-0.0001311553
23
0.1257787855
33
0.0000000000
40
0.0000000000
40
0.0000000000
40
0.0000000000
40
0.0000000000
40
0.1663024631
40
0.3301836258
40
0.4973301860
40
0.6650615231
40
0.8308566366
40
1.0000000000
40
1.0000000000
40
1.0000000000
40
1.0000000000
10
20.3134098587
20
-15.6419040682
30
0.0000000000
10
20.3067711272
20
-15.6397728186
30
0.0000000000
10
20.2939938929
20
-15.6341401729
30
0.0000000000
10
20.2769494754
20
-15.6218867640
30
0.0000000000
10
20.2627546963
20
-15.6063188279
30
0.0000000000
10
20.2520936323
20
-15.5880525953
30
0.0000000000
10
20.2454478488
20
-15.5678995486
30
0.0000000000
10
20.2439284902
20
-15.5538121205
30
0.0000000000
10
20.2439210955
20
-15.5467205716
30
0.0000000000
11
20.3134098587
21
-15.6419040682
31
0.0000000000
11
20.2942708813
21
-15.6334640224
31
0.0000000000
11
20.2775328982
21
-15.6214337763
31
0.0000000000
11
20.2633692401
21
-15.6058974171
31
0.0000000000
11
20.2527333388
21
-15.5876775558
31
0.0000000000
11
20.2462048627
21
-15.5678722972
31
0.0000000000
11
20.2439210955
21
-15.5467205716
31
0.0000000000
0
SPLINE
5
310
100
AcDbEntity
8
0
100
AcDbSpline
62
7
6
CONTINUOUS
70
0
71
3
72
13
73
9
74
7
42
0.0000001000
43
0.0000001000
44
0.0000000001
12
-0.5910815925
22
-0.1896802575
32
0.0000000000
13
-0.5910594080
23
0.1897493750
33
0.0000000000
40
0.0000000000
40
0.0000000000
40
0.0000000000
40
0.0000000000
40
0.1666387324
40
0.3328706880
40
0.5003586200
40
0.6677710218
40
0.8337715415
40
1.0000000000
40
1.0000000000
40
1.0000000000
40
1.0000000000
10
20.9245212399
20
-15.6419399707
30
0.0000000000
10
20.8916888774
20
-15.6524759966
30
0.0000000000
10
20.8249628464
20
-15.6701397577
30
0.0000000000
10
20.7225011134
20
-15.6861886467
30
0.0000000000
10
20.6187549212
20
-15.6915619320
30
0.0000000000
10
20.5150597366
20
-15.6861352198
30
0.0000000000
10
20.4127524563
20
-15.6700639812
30
0.0000000000
10
20.3461600854
20
-15.6524182060
30
0.0000000000
10
20.3134097873
20
-15.6419042906
30
0.0000000000
11
20.9245212399
21
-15.6419399707
31
0.0000000000
11
20.8245209027
21
-15.6684103192
31
0.0000000000
11
20.7225722516
21
-15.6843803083
31
0.0000000000
11
20.6187398022
21
-15.6897571335
31
0.0000000000
11
20.5149570900
21
-15.6843267715
31
0.0000000000
11
20.4131574641
21
-15.6683338375
31
0.0000000000
11
20.3134097873
21
-15.6419042906
31
0.0000000000
0
SPLINE
5
311
100
AcDbEntity
8
0
100
AcDbSpline
62
7
6
CONTINUOUS
70
0
71
3
72
13
73
9
74
7
42
0.0000001000
43
0.0000001000
44
0.0000000001
12
0.0003531338
22
-0.1260264845
32
0.0000000000
13
-0.1199875287
23
-0.0385459784
33
0.0000000000
40
0.0000000000
40
0.0000000000
40
0.0000000000
40
0.0000000000
40
0.1693468083
40
0.3337046883
40
0.5003241797
40
0.6670637937
40
0.8318261852
40
1.0000000000
40
1.0000000000
40
1.0000000000
40
1.0000000000
10
20.9939210955
20
-15.5464616845
30
0.0000000000
10
20.9939410295
20
-15.5535757454
30
0.0000000000
10
20.9924746447
20
-15.5676455227
30
0.0000000000
10
20.9859206297
20
-15.5877662286
30
0.0000000000
10
20.9753871487
20
-15.6060087492
30
0.0000000000
10
20.9612603481
20
-15.6216582315
30
0.0000000000
10
20.9441502766
20
-15.6340649160
30
0.0000000000
10
20.9312474934
20
-15.6397791626
30
0.0000000000
10
20.9245212399
20
-15.6419399707
30
0.0000000000
11
20.9939210955
21
-15.5464616845
31
0.0000000000
11
20.9917045967
21
-15.5676885420
31
0.0000000000
11
20.9852920882
21
-15.5873844792
31
0.0000000000
11
20.9747903638
21
-15.6055683439
31
0.0000000000
11
20.9607109514
21
-15.6211678730
31
0.0000000000
11
20.9438991820
21
-15.6333551261
31
0.0000000000
11
20.9245212399
21
-15.6419399707
31
0.0000000000
0
SPLINE
5
312
100
AcDbEntity
8
0
100
AcDbSpline
62
7
6
CONTINUOUS
70
0
71
3
72
10
73
6
74
4
42
0.0000001000
43
0.0000001000
44
0.0000000001
12
-0.0000000000
22
-4.5367745725
32
0.0000000000
13
0.0000000001
23
-4.5367745725
33
0.0000000000
40
0.0000000000
40
0.0000000000
40
0.0000000000
40
0.0000000000
40
0.3336580920
40
0.6670229210
40
1.0000000000
40
1.0000000000
40
1.0000000000
40
1.0000000000
10
20.2439210955
20
-11.0099459991
30
0.0000000000
10
20.2439210955
20
-11.5145231816
30
0.0000000000
10
20.2439212644
20
-12.5232340574
30
0.0000000000
10
20.2439212649
20
-14.0354922482
30
0.0000000000
10
20.2439210955
20
-15.0431732565
30
0.0000000000
10
20.2439210955
20
-15.5467205716
30
0.0000000000
11
20.2439210955
21
-11.0099459991
31
0.0000000000
11
20.2439212223
21
-12.5236775466
31
0.0000000000
11
20.2439212224
21
-14.0360786263
31
0.0000000000
11
20.2439210955
21
-15.5467205716
31
0.0000000000
0
SPLINE
5
313
100
AcDbEntity
8
0
100
AcDbSpline
62
7
6
CONTINUOUS
70
0
71
3
72
10
73
6
74
4
42
0.0000001000
43
0.0000001000
44
0.0000000001
12
0.0000000000
22
-4.5366853408
32
0.0000000000
13
0.0000000002
23
-4.5366853408
33
0.0000000000
40
0.0000000000
40
0.0000000000
40
0.0000000000
40
0.0000000000
40
0.3336580720
40
0.6670228998
40
1.0000000000
40
1.0000000000
40
1.0000000000
40
1.0000000000
10
20.9939210955
20
-11.0097763437
30
0.0000000000
10
20.9939210955
20
-11.5143435717
30
0.0000000000
10
20.9939209266
20
-12.5230345755
30
0.0000000000
10
20.9939209261
20
-14.0352630224
30
0.0000000000
10
20.9939210955
20
-15.0429242413
30
0.0000000000
10
20.9939210955
20
-15.5464616845
30
0.0000000000
11
20.9939210955
21
-11.0097763437
31
0.0000000000
11
20.9939209687
21
-12.5234780278
31
0.0000000000
11
20.9939209686
21
-14.0358493550
31
0.0000000000
11
20.9939210955
21
-15.5464616845
31
0.0000000000
0
SPLINE
5
314
100
AcDbEntity
8
0
100
AcDbSpline
62
7
6
CONTINUOUS
70
0
71
3
72
15
73
11
74
9
42
0.0000001000
43
0.0000001000
44
0.0000000001
12
-0.7838926164
22
0.0000000000
32
0.0000000000
13
-0.0000000000
23
0.7838926164
33
0.0000000000
40
0.0000000000
40
0.0000000000
40
0.0000000000
40
0.0000000000
40
0.1249999601
40
0.2499995850
40
0.3750001236
40
0.5000004193
40
0.6250005909
40
0.7500008343
40
0.8750001722
40
1.0000000000
40
1.0000000000
40
1.0000000000
40
1.0000000000
10
10.1188497580
20
-22.1395700170
30
0.0000000000
10
10.0861875761
20
-22.1395700170
30
0.0000000000
10
10.0206823449
20
-22.1331301035
30
0.0000000000
10
9.9263380682
20
-22.1045136002
30
0.0000000000
10
9.8393513807
20
-22.0580338699
30
0.0000000000
10
9.7631177413
20
-21.9954729470
30
0.0000000000
10
9.7005569618
20
-21.9192392919
30
0.0000000000
10
9.6540773983
20
-21.8322527294
30
0.0000000000
10
9.6254609913
20
-21.7379086229
30
0.0000000000
10
9.6190210955
20
-21.6724035019
30
0.0000000000
10
9.6190210955
20
-21.6397413545
30
0.0000000000
11
10.1188497580
21
-22.1395700170
31
0.0000000000
11
10.0213345518
21
-22.1299706571
31
0.0000000000
11
9.9275645673
21
-22.1015364932
31
0.0000000000
11
9.8411435248
21
-22.0553536454
31
0.0000000000
11
9.7653965182
21
-21.9931941272
31
0.0000000000
11
9.7032371545
21
-21.9174471197
31
0.0000000000
11
9.6570544930
21
-21.8310262400
31
0.0000000000
11
9.6286204351
21
-21.7372564585
31
0.0000000000
11
9.6190210955
21
-21.6397413545
31
0.0000000000
0
SPLINE
5
315
100
AcDbEntity
8
0
100
AcDbSpline
62
7
6
CONTINUOUS
70
0
71
3
72
15
73
11
74
9
42
0.0000001000
43
0.0000001000
44
0.0000000001
12
0.0000000000
22
0.7838926164
32
0.0000000000
13
0.7838926164
23
-0.0000000000
33
0.0000000000
40
0.0000000000
40
0.0000000000
40
0.0000000000
40
0.0000000000
40
0.1249999601
40
0.2499995850
40
0.3750001236
40
0.5000004193
40
0.6250005909
40
0.7500008343
40
0.8750001722
40
1.0000000000
40
1.0000000000
40
1.0000000000
40
1.0000000000
10
9.6190210955
20
21.5606013205
30
0.0000000000
10
9.6190210955
20
21.5932635024
30
0.0000000000
10
9.6254610090
20
21.6587687336
30
0.0000000000
10
9.6540775123
20
21.7531130103
30
0.0000000000
10
9.7005572426
20
21.8400996978
30
0.0000000000
10
9.7631181655
20
21.9163333373
30
0.0000000000
10
9.8393518206
20
21.9788941167
30
0.0000000000
10
9.9263383831
20
22.0253736802
30
0.0000000000
10
10.0206824896
20
22.0539900872
30
0.0000000000
10
10.0861876106
20
22.0604299830
30
0.0000000000
10
10.1188497580
20
22.0604299830
30
0.0000000000
11
9.6190210955
21
21.5606013205
31
0.0000000000
11
9.6286204555
21
21.6581165267
31
0.0000000000
11
9.6570546194
21
21.7518865112
31
0.0000000000
11
9.7032374672
21
21.8383075537
31
0.0000000000
11
9.7653969854
21
21.9140545603
31
0.0000000000
11
9.8411439928
21
21.9762139240
31
0.0000000000
11
9.9275648725
21
22.0223965855
31
0.0000000000
11
10.0213346540
21
22.0508306434
31
0.0000000000
11
10.1188497580
21
22.0604299830
31
0.0000000000
0
SPLINE
5
316
100
AcDbEntity
8
0
100
AcDbSpline
62
7
6
CONTINUOUS
70
0
71
3
72
15
73
11
74
9
42
0.0000001000
43
0.0000001000
44
0.0000000001
12
0.0000000000
22
-0.7838926164
32
0.0000000000
13
-0.7838926164
23
-0.0000000000
33
0.0000000000
40
0.0000000000
40
0.0000000000
40
0.0000000000
40
0.0000000000
40
0.1249999601
40
0.2499995850
40
0.3750001236
40
0.5000004193
40
0.6250005909
40
0.7500008343
40
0.8750001722
40
1.0000000000
40
1.0000000000
40
1.0000000000
40
1.0000000000
10
31.6190210955
20
-21.6397413545
30
0.0000000000
10
31.6190210955
20
-21.6724035364
30
0.0000000000
10
31.6125811820
20
-21.7379087676
30
0.0000000000
10
31.5839646787
20
-21.8322530443
30
0.0000000000
10
31.5374849484
20
-21.9192397318
30
0.0000000000
10
31.4749240255
20
-21.9954733713
30
0.0000000000
10
31.3986903704
20
-22.0580341507
30
0.0000000000
10
31.3117038080
20
-22.1045137142
30
0.0000000000
10
31.2173597014
20
-22.1331301212
30
0.0000000000
10
31.1518545804
20
-22.1395700170
30
0.0000000000
10
31.1191924330
20
-22.1395700170
30
0.0000000000
11
31.6190210955
21
-21.6397413545
31
0.0000000000
11
31.6094217356
21
-21.7372565607
31
0.0000000000
11
31.5809875717
21
-21.8310265452
31
0.0000000000
11
31.5348047239
21
-21.9174475877
31
0.0000000000
11
31.4726452057
21
-21.9931945943
31
0.0000000000
11
31.3968981982
21
-22.0553539580
31
0.0000000000
11
31.3104773185
21
-22.1015366195
31
0.0000000000
11
31.2167075370
21
-22.1299706774
31
0.0000000000
11
31.1191924330
21
-22.1395700170
31
0.0000000000
0
SPLINE
5
317
100
AcDbEntity
8
0
100
AcDbSpline
62
7
6
CONTINUOUS
70
0
71
3
72
15
73
11
74
9
42
0.0000001000
43
0.0000001000
44
0.0000000001
12
0.7838926164
22
0.0000000000
32
0.0000000000
13
-0.0000000000
23
-0.7838926164
33
0.0000000000
40
0.0000000000
40
0.0000000000
40
0.0000000000
40
0.0000000000
40
0.1249999601
40
0.2499995850
40
0.3750001236
40
0.5000004193
40
0.6250005909
40
0.7500008343
40
0.8750001722
40
1.0000000000
40
1.0000000000
40
1.0000000000
40
1.0000000000
10
31.1191924330
20
22.0604299830
30
0.0000000000
10
31.1518546150
20
22.0604299830
30
0.0000000000
10
31.2173598461
20
22.0539900695
30
0.0000000000
10
31.3117041228
20
22.0253735662
30
0.0000000000
10
31.3986908103
20
21.9788938359
30
0.0000000000
10
31.4749244498
20
21.9163329130
30
0.0000000000
10
31.5374852292
20
21.8400992579
30
0.0000000000
10
31.5839647928
20
21.7531126954
30
0.0000000000
10
31.6125811997
20
21.6587685889
30
0.0000000000
10
31.6190210955
20
21.5932634679
30
0.0000000000
10
31.6190210955
20
21.5606013205
30
0.0000000000
11
31.1191924330
21
22.0604299830
31
0.0000000000
11
31.2167076392
21
22.0508306230
31
0.0000000000
11
31.3104776237
21
22.0223964592
31
0.0000000000
11
31.3968986662
21
21.9762136114
31
0.0000000000
11
31.4726456728
21
21.9140540932
31
0.0000000000
11
31.5348050365
21
21.8383070857
31
0.0000000000
11
31.5809876980
21
21.7518862060
31
0.0000000000
11
31.6094217559
21
21.6581164245
31
0.0000000000
11
31.6190210955
21
21.5606013205
31
0.0000000000
0
SPLINE
5
318
100
AcDbEntity
8
0
100
AcDbSpline
62
9
6
CONTINUOUS
70
0
71
3
72
12
73
8
74
6
42
0.0000001000
43
0.0000001000
44
0.0000000001
12
0.0005356705
22
-0.7817393705
32
0.0000000000
13
0.7817393705
23
-0.0005356703
33
0.0000000000
40
0.0000000000
40
0.0000000000
40
0.0000000000
40
0.0000000000
40
0.1999724359
40
0.3999815697
40
0.6000060912
40
0.8000194778
40
1.0000000000
40
1.0000000000
40
1.0000000000
40
1.0000000000
10
9.7228973905
20
-21.5358650596
30
0.0000000000
10
9.7229330969
20
-21.5879738349
30
0.0000000000
10
9.7395759146
20
-21.6929224619
30
0.0000000000
10
9.8117723067
20
-21.8343864754
30
0.0000000000
10
9.9241973998
20
-21.9468137647
30
0.0000000000
10
10.0656632410
20
-22.0190139875
30
0.0000000000
10
10.1706151704
20
-22.0356580142
30
0.0000000000
10
10.2227260529
20
-22.0356937221
30
0.0000000000
11
9.7228973905
21
-21.5358650596
31
0.0000000000
11
9.7474442944
21
-21.6902521744
31
0.0000000000
11
9.8184739401
21
-21.8295421289
31
0.0000000000
11
9.9290410838
21
-21.9401114308
31
0.0000000000
11
10.0683328522
21
-22.0111448376
31
0.0000000000
11
10.2227260529
21
-22.0356937221
31
0.0000000000
0
SPLINE
5
319
100
AcDbEntity
8
0
100
AcDbSpline
62
9
6
CONTINUOUS
70
0
71
3
72
13
73
9
74
7
42
0.0000001000
43
0.0000001000
44
0.0000000001
12
0.3807543814
22
0.7616242004
32
0.0000000000
13
0.0016819691
23
0.8514942704
33
0.0000000000
40
0.0000000000
40
0.0000000000
40
0.0000000000
40
0.0000000000
40
0.0388748883
40
0.1388025872
40
0.2944533186
40
0.4974686467
40
0.7369557802
40
1.0000000000
40
1.0000000000
40
1.0000000000
40
1.0000000000
10
10.2227260530
20
-22.0356937220
30
0.0000000000
10
10.2276599810
20
-22.0258243701
30
0.0000000000
10
10.2230274602
20
-21.9841359483
30
0.0000000000
10
10.2312856051
20
-21.9026248450
30
0.0000000000
10
10.2305072998
20
-21.7714222923
30
0.0000000000
10
10.2336374255
20
-21.6020819918
30
0.0000000000
10
10.2345829103
20
-21.4016800216
30
0.0000000000
10
10.2351838547
20
-21.2590838751
30
0.0000000000
10
10.2353313321
20
-21.1844236598
30
0.0000000000
11
10.2227260530
21
-22.0356937220
31
0.0000000000
11
10.2257338267
21
-22.0027288457
31
0.0000000000
11
10.2285607506
21
-21.9176877897
31
0.0000000000
11
10.2310558015
21
-21.7851753125
31
0.0000000000
11
10.2330839788
21
-21.6123204849
31
0.0000000000
11
10.2345348800
21
-21.4084033267
31
0.0000000000
11
10.2353313321
21
-21.1844236598
31
0.0000000000
0
SPLINE
5
31A
100
AcDbEntity
8
0
100
AcDbSpline
62
9
6
CONTINUOUS
70
0
71
3
72
13
73
9
74
7
42
0.0000001000
43
0.0000001000
44
0.0000000001
12
0.3005742159
22
0.3019999733
32
0.0000000000
13
0.0016772188
23
0.4260821870
33
0.0000000000
40
0.0000000000
40
0.0000000000
40
0.0000000000
40
0.0000000000
40
0.0390043106
40
0.1389478136
40
0.2947875090
40
0.4982972059
40
0.7382384052
40
1.0000000000
40
1.0000000000
40
1.0000000000
40
1.0000000000
10
9.7228973905
20
-21.5358650596
30
0.0000000000
10
9.7268052872
20
-21.5319386260
30
0.0000000000
10
9.7244280888
20
-21.5092140967
30
0.0000000000
10
9.7307359202
20
-21.4700873783
30
0.0000000000
10
9.7309792817
20
-21.4034972554
30
0.0000000000
10
9.7337047721
20
-21.3189616447
30
0.0000000000
10
9.7347926602
20
-21.2186128250
30
0.0000000000
10
9.7353563258
20
-21.1474073460
30
0.0000000000
10
9.7355026697
20
-21.1102300284
30
0.0000000000
11
9.7228973905
21
-21.5358650596
31
0.0000000000
11
9.7258922776
21
-21.5195179654
31
0.0000000000
11
9.7287249327
21
-21.4770278056
31
0.0000000000
11
9.7312255728
21
-21.4106738762
31
0.0000000000
11
9.7332584133
21
-21.3239851794
31
0.0000000000
11
9.7347109025
21
-21.2217600349
31
0.0000000000
11
9.7355026697
21
-21.1102300284
31
0.0000000000
0
SPLINE
5
31B
100
AcDbEntity
8
0
100
AcDbSpline
62
9
6
CONTINUOUS
70
0
71
3
72
12
73
8
74
6
42
0.0000001000
43
0.0000001000
44
0.0000000001
12
0.0880310235
22
-0.5047724848
32
0.0000000000
13
0.5123873982
23
-0.0019689315
33
0.0000000000
40
0.0000000000
40
0.0000000000
40
0.0000000000
40
0.0000000000
40
0.0695900778
40
0.2162777792
40
0.4337159066
40
0.7031599906
40
1.0000000000
40
1.0000000000
40
1.0000000000
40
1.0000000000
10
9.7355026697
20
-21.1102300284
30
0.0000000000
10
9.7375446983
20
-21.1219390806
30
0.0000000000
10
9.7785182426
20
-21.1405106418
30
0.0000000000
10
9.8451196971
20
-21.1566145061
30
0.0000000000
10
9.9551111858
20
-21.1720214041
30
0.0000000000
10
10.0876434240
20
-21.1816564455
30
0.0000000000
10
10.1846323055
20
-21.1842288349
30
0.0000000000
10
10.2353313321
20
-21.1844236541
30
0.0000000000
11
9.7355026697
21
-21.1102300284
31
0.0000000000
11
9.7631085990
21
-21.1327990053
31
0.0000000000
11
9.8354398231
21
-21.1532304218
31
0.0000000000
11
9.9456456863
21
-21.1695891720
31
0.0000000000
11
10.0832883395
21
-21.1803258814
31
0.0000000000
11
10.2353313321
21
-21.1844236541
31
0.0000000000
0
SPLINE
5
31C
100
AcDbEntity
8
0
100
AcDbSpline
62
9
6
CONTINUOUS
70
0
71
3
72
10
73
6
74
4
42
0.0000001000
43
0.0000001000
44
0.0000000001
12
0.0454998765
22
11.6447977342
32
0.0000000000
13
0.0057626864
23
11.6448851991
33
0.0000000000
40
0.0000000000
40
0.0000000000
40
0.0000000000
40
0.0000000000
40
0.3320148751
40
0.6655565454
40
1.0000000000
40
1.0000000000
40
1.0000000000
40
1.0000000000
10
10.2353313321
20
-21.1844236598
30
0.0000000000
10
10.2403668774
20
-19.8956749713
30
0.0000000000
10
10.2489679222
20
-17.3122451052
30
0.0000000000
10
10.2574674327
20
-13.4306247868
30
0.0000000000
10
10.2602115002
20
-10.8377552284
30
0.0000000000
10
10.2608539311
20
-9.5395700170
30
0.0000000000
11
10.2353313321
21
-21.1844236598
31
0.0000000000
11
10.2482155294
21
-17.3181695495
31
0.0000000000
11
10.2567283770
21
-13.4341239431
31
0.0000000000
11
10.2608539311
21
-9.5395700170
31
0.0000000000
0
SPLINE
5
31D
100
AcDbEntity
8
0
100
AcDbSpline
62
9
6
CONTINUOUS
70
0
71
3
72
10
73
6
74
4
42
0.0000001000
43
0.0000001000
44
0.0000000001
12
0.0454998724
22
11.5801037905
32
0.0000000000
13
0.0057626871
23
11.5801917440
33
0.0000000000
40
0.0000000000
40
0.0000000000
40
0.0000000000
40
0.0000000000
40
0.3320110626
40
0.6655578131
40
1.0000000000
40
1.0000000000
40
1.0000000000
40
1.0000000000
10
9.7355026697
20
-21.1102300284
30
0.0000000000
10
9.7405381567
20
-19.8286558401
30
0.0000000000
10
9.7491392350
20
-17.2595735391
30
0.0000000000
10
9.7576387623
20
-13.3995177509
30
0.0000000000
10
9.7603828401
20
-10.8210382340
30
0.0000000000
10
9.7610252686
20
-9.5300700170
30
0.0000000000
11
9.7355026697
21
-21.1102300284
31
0.0000000000
11
9.7483867440
21
-17.2654993736
31
0.0000000000
11
9.7568997383
21
-13.4029729503
31
0.0000000000
11
9.7610252686
21
-9.5300700170
31
0.0000000000
0
SPLINE
5
31E
100
AcDbEntity
8
0
100
AcDbSpline
62
9
6
CONTINUOUS
70
0
71
3
72
12
73
8
74
6
42
0.0000001000
43
0.0000001000
44
0.0000000001
12
0.4046164664
22
-0.2938362448
32
0.0000000000
13
0.5000541589
23
-0.0002487483
33
0.0000000000
40
0.0000000000
40
0.0000000000
40
0.0000000000
40
0.0000000000
40
0.0555750126
40
0.2003450939
40
0.4207646183
40
0.6959972274
40
1.0000000000
40
1.0000000000
40
1.0000000000
40
1.0000000000
10
9.7610252686
20
-9.5300700170
30
0.0000000000
10
9.7685207904
20
-9.5355133347
30
0.0000000000
10
9.8055473163
20
-9.5294668027
30
0.0000000000
10
9.8724568944
20
-9.5386181445
30
0.0000000000
10
9.9808086988
20
-9.5369495245
30
0.0000000000
10
10.1134709251
20
-9.5395755968
30
0.0000000000
10
10.2101813142
20
-9.5395448103
30
0.0000000000
10
10.2608539311
20
-9.5395700170
30
0.0000000000
11
9.7610252686
21
-9.5300700170
31
0.0000000000
11
9.7886651828
21
-9.5329593294
31
0.0000000000
11
9.8610108002
21
-9.5355750885
31
0.0000000000
11
9.9712126104
21
-9.5376696407
31
0.0000000000
11
10.1088369693
21
-9.5390446786
31
0.0000000000
11
10.2608539311
21
-9.5395700170
31
0.0000000000
0
SPLINE
5
31F
100
AcDbEntity
8
0
100
AcDbSpline
62
9
6
CONTINUOUS
70
0
71
3
72
10
73
6
74
4
42
0.0000001000
43
0.0000001000
44
0.0000000001
12
0.0094453641
22
18.9809983461
32
0.0000000000
13
-0.0094453649
23
18.9809983461
33
0.0000000000
40
0.0000000000
40
0.0000000000
40
0.0000000000
40
0.0000000000
40
0.3333309528
40
0.6666688022
40
1.0000000000
40
1.0000000000
40
1.0000000000
40
1.0000000000
10
9.7610252686
20
-9.5300700170
30
0.0000000000
10
9.7620747461
20
-7.4210852622
30
0.0000000000
10
9.7634738459
20
-3.2030717350
30
0.0000000000
10
9.7634738465
20
3.1239286015
30
0.0000000000
10
9.7620747469
20
7.3419436785
30
0.0000000000
10
9.7610252686
20
9.4509299830
30
0.0000000000
11
9.7610252686
21
-9.5300700170
31
0.0000000000
11
9.7631240638
21
-3.2031153174
31
0.0000000000
11
9.7631240645
21
3.1239706342
31
0.0000000000
11
9.7610252686
21
9.4509299830
31
0.0000000000
0
SPLINE
5
320
100
AcDbEntity
8
0
100
AcDbSpline
62
9
6
CONTINUOUS
70
0
71
3
72
12
73
8
74
6
42
0.0000001000
43
0.0000001000
44
0.0000000001
12
0.4046168641
22
0.2938356971
32
0.0000000000
13
0.5000541588
23
0.0002487483
33
0.0000000000
40
0.0000000000
40
0.0000000000
40
0.0000000000
40
0.0000000000
40
0.0555750303
40
0.2003451192
40
0.4207646415
40
0.6959972411
40
1.0000000000
40
1.0000000000
40
1.0000000000
40
1.0000000000
10
9.7610252686
20
9.4509299830
30
0.0000000000
10
9.7685208001
20
9.4563732923
30
0.0000000000
10
9.8055473146
20
9.4503267796
30
0.0000000000
10
9.8724569107
20
9.4594781033
30
0.0000000000
10
9.9808087071
20
9.4578094927
30
0.0000000000
10
10.1134709320
20
9.4604355612
30
0.0000000000
10
10.2101813165
20
9.4604047756
30
0.0000000000
10
10.2608539311
20
9.4604299823
30
0.0000000000
11
9.7610252686
21
9.4509299830
31
0.0000000000
11
9.7886651917
21
9.4538192952
31
0.0000000000
11
9.8610108129
21
9.4564350542
31
0.0000000000
11
9.9712126221
21
9.4585296061
31
0.0000000000
11
10.1088369762
21
9.4599046439
31
0.0000000000
11
10.2608539311
21
9.4604299823
31
0.0000000000
0
SPLINE
5
321
100
AcDbEntity
8
0
100
AcDbSpline
62
9
6
CONTINUOUS
70
0
71
3
72
10
73
6
74
4
42
0.0000001000
43
0.0000001000
44
0.0000000001
12
-0.0057627156
22
11.6448851991
32
0.0000000000
13
-0.0454999059
23
11.6447977340
33
0.0000000000
40
0.0000000000
40
0.0000000000
40
0.0000000000
40
0.0000000000
40
0.3344434556
40
0.6679851259
40
1.0000000000
40
1.0000000000
40
1.0000000000
40
1.0000000000
10
10.2608539311
20
9.4604299830
30
0.0000000000
10
10.2602114970
20
10.7586151985
30
0.0000000000
10
10.2574674369
20
13.3514847609
30
0.0000000000
10
10.2489679179
20
17.2331050793
30
0.0000000000
10
10.2403668807
20
19.8165349413
30
0.0000000000
10
10.2353313321
20
21.1052836258
30
0.0000000000
11
10.2608539311
21
9.4604299830
31
0.0000000000
11
10.2567283779
21
13.3549839213
31
0.0000000000
11
10.2482155284
21
17.2390295275
31
0.0000000000
11
10.2353313321
21
21.1052836258
31
0.0000000000
0
SPLINE
5
322
100
AcDbEntity
8
0
100
AcDbSpline
62
9
6
CONTINUOUS
70
0
71
3
72
10
73
6
74
4
42
0.0000001000
43
0.0000001000
44
0.0000000001
12
-0.0057627160
22
11.5801917440
32
0.0000000000
13
-0.0454999019
23
11.5801037904
33
0.0000000000
40
0.0000000000
40
0.0000000000
40
0.0000000000
40
0.0000000000
40
0.3344396113
40
0.6679863706
40
1.0000000000
40
1.0000000000
40
1.0000000000
40
1.0000000000
10
9.7610252686
20
9.4509299830
30
0.0000000000
10
9.7603828418
20
10.7418882580
30
0.0000000000
10
9.7576387933
20
13.3203578670
30
0.0000000000
10
9.7491392915
20
17.1804136553
30
0.0000000000
10
9.7405381989
20
19.7495058983
30
0.0000000000
10
9.7355026697
20
21.0310899944
30
0.0000000000
11
9.7610252686
21
9.4509299830
31
0.0000000000
11
9.7568997880
21
13.3238030903
31
0.0000000000
11
9.7483868256
21
17.1863296162
31
0.0000000000
11
9.7355026697
21
21.0310899944
31
0.0000000000
0
SPLINE
5
323
100
AcDbEntity
8
0
100
AcDbSpline
62
9
6
CONTINUOUS
70
0
71
3
72
12
73
8
74
6
42
0.0000001000
43
0.0000001000
44
0.0000000001
12
0.0881238627
22
0.5047543980
32
0.0000000000
13
0.5123855396
23
0.0019688484
33
0.0000000000
40
0.0000000000
40
0.0000000000
40
0.0000000000
40
0.0000000000
40
0.0695941123
40
0.2162844579
40
0.4337223867
40
0.7031639019
40
1.0000000000
40
1.0000000000
40
1.0000000000
40
1.0000000000
10
9.7355026699
20
21.0310899944
30
0.0000000000
10
9.7375469705
20
21.0427993058
30
0.0000000000
10
9.7785208918
20
21.0613679747
30
0.0000000000
10
9.8451242999
20
21.0774727511
30
0.0000000000
10
9.9551149406
20
21.0928781301
30
0.0000000000
10
10.0876457894
20
21.1025129663
30
0.0000000000
10
10.1846331573
20
21.1050851426
30
0.0000000000
10
10.2353313321
20
21.1052799511
30
0.0000000000
11
9.7355026699
21
21.0310899944
31
0.0000000000
11
9.7631119013
21
21.0536579936
31
0.0000000000
11
9.8354445331
21
21.0740884078
31
0.0000000000
11
9.9456500133
21
21.0904462927
31
0.0000000000
11
10.0832908900
21
21.1011824091
31
0.0000000000
11
10.2353313321
21
21.1052799511
31
0.0000000000
0
SPLINE
5
324
100
AcDbEntity
8
0
100
AcDbSpline
62
9
6
CONTINUOUS
70
0
71
3
72
13
73
9
74
7
42
0.0000001000
43
0.0000001000
44
0.0000000001
12
-0.0016804747
22
0.8514942973
32
0.0000000000
13
-0.3796921483
23
0.7621543380
33
0.0000000000
40
0.0000000000
40
0.0000000000
40
0.0000000000
40
0.0000000000
40
0.2630440154
40
0.5025267627
40
0.7055415303
40
0.8611945376
40
0.9611249442
40
1.0000000000
40
1.0000000000
40
1.0000000000
40
1.0000000000
10
10.2353313321
20
21.1052836258
30
0.0000000000
10
10.2351839859
20
21.1799437854
30
0.0000000000
10
10.2345834963
20
21.3225388821
30
0.0000000000
10
10.2336354961
20
21.5229384061
30
0.0000000000
10
10.2305128542
20
21.6922807603
30
0.0000000000
10
10.2312761215
20
21.8234776483
30
0.0000000000
10
10.2230447221
20
21.9050034668
30
0.0000000000
10
10.2276462374
20
21.9466774239
30
0.0000000000
10
10.2227260530
20
21.9565536880
30
0.0000000000
11
10.2353313321
21
21.1052836258
31
0.0000000000
11
10.2345348665
21
21.3292631249
31
0.0000000000
11
10.2330840189
21
21.5331765543
31
0.0000000000
11
10.2310567490
21
21.7060309202
31
0.0000000000
11
10.2285611773
21
21.8385453296
31
0.0000000000
11
10.2257340512
21
21.9235886880
31
0.0000000000
11
10.2227260530
21
21.9565536880
31
0.0000000000
0
SPLINE
5
325
100
AcDbEntity
8
0
100
AcDbSpline
62
9
6
CONTINUOUS
70
0
71
3
72
13
73
9
74
7
42
0.0000001000
43
0.0000001000
44
0.0000000001
12
-0.0016755610
22
0.4260821801
32
0.0000000000
13
-0.2997422112
23
0.3028257560
33
0.0000000000
40
0.0000000000
40
0.0000000000
40
0.0000000000
40
0.0000000000
40
0.2616874359
40
0.5014602521
40
0.7048864183
40
0.8609196988
40
0.9609777814
40
1.0000000000
40
1.0000000000
40
1.0000000000
40
1.0000000000
10
9.7355026697
20
21.0310899944
30
0.0000000000
10
9.7353565119
20
21.0682567788
30
0.0000000000
10
9.7347933629
20
21.1394282311
30
0.0000000000
10
9.7337047142
20
21.2397290083
30
0.0000000000
10
9.7309852729
20
21.3242609644
30
0.0000000000
10
9.7307339571
20
21.3908736316
30
0.0000000000
10
9.7244402193
20
21.4300638212
30
0.0000000000
10
9.7267962592
20
21.4527860479
30
0.0000000000
10
9.7228973905
20
21.4567250255
30
0.0000000000
11
9.7355026697
21
21.0310899944
31
0.0000000000
11
9.7347112034
21
21.1425884007
31
0.0000000000
11
9.7332602316
21
21.2447418107
31
0.0000000000
11
9.7312296859
21
21.3313949576
31
0.0000000000
11
9.7287278468
21
21.3978313820
31
0.0000000000
11
9.7258931412
21
21.4403703328
31
0.0000000000
11
9.7228973905
21
21.4567250255
31
0.0000000000
0
SPLINE
5
326
100
AcDbEntity
8
0
100
AcDbSpline
62
9
6
CONTINUOUS
70
0
71
3
72
12
73
8
74
6
42
0.0000001000
43
0.0000001000
44
0.0000000001
12
0.0005356733
22
0.7817393695
32
0.0000000000
13
0.7817393695
23
0.0005356729
33
0.0000000000
40
0.0000000000
40
0.0000000000
40
0.0000000000
40
0.0000000000
40
0.1999768525
40
0.3999879277
40
0.6000120718
40
0.8000231472
40
1.0000000000
40
1.0000000000
40
1.0000000000
40
1.0000000000
10
9.7228973905
20
21.4567250255
30
0.0000000000
10
9.7229330979
20
21.5088349517
30
0.0000000000
10
9.7395765610
20
21.6137852828
30
0.0000000000
10
9.8117749070
20
21.7552501274
30
0.0000000000
10
9.9242009509
20
21.8676761714
30
0.0000000000
10
10.0656657955
20
21.9398745176
30
0.0000000000
10
10.1706161267
20
21.9565179806
30
0.0000000000
10
10.2227260530
20
21.9565536880
30
0.0000000000
11
9.7228973905
21
21.4567250255
31
0.0000000000
11
9.7474453767
21
21.6111154641
31
0.0000000000
11
9.8184768994
21
21.7504061649
31
0.0000000000
11
9.9290449134
21
21.8609741789
31
0.0000000000
11
10.0683356142
21
21.9320057018
31
0.0000000000
11
10.2227260530
21
21.9565536880
31
0.0000000000
0
SPLINE
5
327
100
AcDbEntity
8
0
100
AcDbSpline
62
9
6
CONTINUOUS
70
0
71
3
72
12
73
8
74
6
42
0.0000001000
43
0.0000001000
44
0.0000000001
12
-0.0005356733
22
-0.7817393695
32
0.0000000000
13
-0.7817393695
23
-0.0005356730
33
0.0000000000
40
0.0000000000
40
0.0000000000
40
0.0000000000
40
0.0000000000
40
0.1999768524
40
0.3999879276
40
0.6000120716
40
0.8000231471
40
1.0000000000
40
1.0000000000
40
1.0000000000
40
1.0000000000
10
31.5151448005
20
-21.5358650596
30
0.0000000000
10
31.5151090931
20
-21.5879749857
30
0.0000000000
10
31.4984656301
20
-21.6929253168
30
0.0000000000
10
31.4262672841
20
-21.8343901613
30
0.0000000000
10
31.3138412403
20
-21.9468162053
30
0.0000000000
10
31.1723763956
20
-22.0190145516
30
0.0000000000
10
31.0674260644
20
-22.0356580146
30
0.0000000000
10
31.0153161381
20
-22.0356937220
30
0.0000000000
11
31.5151448005
21
-21.5358650596
31
0.0000000000
11
31.4905968144
21
-21.6902554981
31
0.0000000000
11
31.4195652917
21
-21.8295461988
31
0.0000000000
11
31.3089972778
21
-21.9401142128
31
0.0000000000
11
31.1697065769
21
-22.0111457358
31
0.0000000000
11
31.0153161381
21
-22.0356937220
31
0.0000000000
0
SPLINE
5
328
100
AcDbEntity
8
0
100
AcDbSpline
62
9
6
CONTINUOUS
70
0
71
3
72
12
73
8
74
6
42
0.0000001000
43
0.0000001000
44
0.0000000001
12
-0.0881016766
22
-0.5047587650
32
0.0000000000
13
-0.5123860264
23
-0.0019688162
33
0.0000000000
40
0.0000000000
40
0.0000000000
40
0.0000000000
40
0.0000000000
40
0.0695932119
40
0.2162829387
40
0.4337209020
40
0.7031630026
40
1.0000000000
40
1.0000000000
40
1.0000000000
40
1.0000000000
10
31.5025395212
20
-21.1102300284
30
0.0000000000
10
31.5004957617
20
-21.1219392896
30
0.0000000000
10
31.4595219513
20
-21.1405087043
30
0.0000000000
10
31.3929189787
20
-21.1566132837
30
0.0000000000
10
31.2829281442
20
-21.1720190515
30
0.0000000000
10
31.1503969614
20
-21.1816539399
30
0.0000000000
10
31.0534092354
20
-21.1842261620
30
0.0000000000
10
31.0027108589
20
-21.1844209679
30
0.0000000000
11
31.5025395212
21
-21.1102300284
31
0.0000000000
11
31.4749310721
21
-21.1327983092
31
0.0000000000
11
31.4025987737
21
-21.1532290000
31
0.0000000000
11
31.2923932028
21
-21.1695871145
31
0.0000000000
11
31.1547519052
21
-21.1803233793
31
0.0000000000
11
31.0027108589
21
-21.1844209679
31
0.0000000000
0
SPLINE
5
329
100
AcDbEntity
8
0
100
AcDbSpline
62
9
6
CONTINUOUS
70
0
71
3
72
13
73
9
74
7
42
0.0000001000
43
0.0000001000
44
0.0000000001
12
0.0016819691
22
-0.8514942704
32
0.0000000000
13
0.3807543852
23
-0.7616241985
33
0.0000000000
40
0.0000000000
40
0.0000000000
40
0.0000000000
40
0.0000000000
40
0.2630442198
40
0.5025313533
40
0.7055466814
40
0.8611974128
40
0.9611251117
40
1.0000000000
40
1.0000000000
40
1.0000000000
40
1.0000000000
10
31.0027108589
20
-21.1844236598
30
0.0000000000
10
31.0028583363
20
-21.2590838751
30
0.0000000000
10
31.0034592807
20
-21.4016800216
30
0.0000000000
10
31.0044047655
20
-21.6020819918
30
0.0000000000
10
31.0075348912
20
-21.7714222923
30
0.0000000000
10
31.0067565859
20
-21.9026248450
30
0.0000000000
10
31.0150147309
20
-21.9841359482
30
0.0000000000
10
31.0103822100
20
-22.0258243702
30
0.0000000000
10
31.0153161381
20
-22.0356937220
30
0.0000000000
11
31.0027108589
21
-21.1844236598
31
0.0000000000
11
31.0035073111
21
-21.4084033267
31
0.0000000000
11
31.0049582122
21
-21.6123204849
31
0.0000000000
11
31.0069863895
21
-21.7851753125
31
0.0000000000
11
31.0094814405
21
-21.9176877897
31
0.0000000000
11
31.0123083643
21
-22.0027288457
31
0.0000000000
11
31.0153161381
21
-22.0356937220
31
0.0000000000
0
SPLINE
5
32A
100
AcDbEntity
8
0
100
AcDbSpline
62
9
6
CONTINUOUS
70
0
71
3
72
13
73
9
74
7
42
0.0000001000
43
0.0000001000
44
0.0000000001
12
0.0016772188
22
-0.4260821870
32
0.0000000000
13
0.3005742141
23
-0.3019999750
33
0.0000000000
40
0.0000000000
40
0.0000000000
40
0.0000000000
40
0.0000000000
40
0.2617615948
40
0.5017027941
40
0.7052124910
40
0.8610521863
40
0.9609956895
40
1.0000000000
40
1.0000000000
40
1.0000000000
40
1.0000000000
10
31.5025395214
20
-21.1102300284
30
0.0000000000
10
31.5026858652
20
-21.1474073460
30
0.0000000000
10
31.5032495308
20
-21.2186128250
30
0.0000000000
10
31.5043374189
20
-21.3189616447
30
0.0000000000
10
31.5070629093
20
-21.4034972554
30
0.0000000000
10
31.5073062708
20
-21.4700873783
30
0.0000000000
10
31.5136141022
20
-21.5092140968
30
0.0000000000
10
31.5112369039
20
-21.5319386260
30
0.0000000000
10
31.5151448005
20
-21.5358650596
30
0.0000000000
11
31.5025395214
21
-21.1102300284
31
0.0000000000
11
31.5033312885
21
-21.2217600349
31
0.0000000000
11
31.5047837777
21
-21.3239851794
31
0.0000000000
11
31.5068166182
21
-21.4106738762
31
0.0000000000
11
31.5093172583
21
-21.4770278056
31
0.0000000000
11
31.5121499135
21
-21.5195179655
31
0.0000000000
11
31.5151448005
21
-21.5358650596
31
0.0000000000
0
SPLINE
5
32B
100
AcDbEntity
8
0
100
AcDbSpline
62
9
6
CONTINUOUS
70
0
71
3
72
12
73
8
74
6
42
0.0000001000
43
0.0000001000
44
0.0000000001
12
-0.4046167021
22
-0.2938359202
32
0.0000000000
13
-0.5000541588
23
-0.0002487483
33
0.0000000000
40
0.0000000000
40
0.0000000000
40
0.0000000000
40
0.0000000000
40
0.0555750231
40
0.2003451089
40
0.4207646321
40
0.6959972355
40
1.0000000000
40
1.0000000000
40
1.0000000000
40
1.0000000000
10
31.4770169224
20
-9.5300700170
30
0.0000000000
10
31.4695213949
20
-9.5355133297
30
0.0000000000
10
31.4324948757
20
-9.5294668092
30
0.0000000000
10
31.3655852870
20
-9.5386181402
30
0.0000000000
10
31.2572334873
20
-9.5369495258
30
0.0000000000
10
31.1245712618
20
-9.5395755959
30
0.0000000000
10
31.0278608754
20
-9.5395448099
30
0.0000000000
10
30.9771882599
20
-9.5395700166
30
0.0000000000
11
31.4770169224
21
-9.5300700170
31
0.0000000000
11
31.4493770029
21
-9.5329593293
31
0.0000000000
11
31.3770313833
21
-9.5355750883
31
0.0000000000
11
31.2668295737
21
-9.5376696404
31
0.0000000000
11
31.1292052176
21
-9.5390446782
31
0.0000000000
11
30.9771882599
21
-9.5395700166
31
0.0000000000
0
SPLINE
5
32C
100
AcDbEntity
8
0
100
AcDbSpline
62
9
6
CONTINUOUS
70
0
71
3
72
10
73
6
74
4
42
0.0000001000
43
0.0000001000
44
0.0000000001
12
0.0057626864
22
-11.6448851991
32
0.0000000000
13
0.0454998764
23
-11.6447977342
33
0.0000000000
40
0.0000000000
40
0.0000000000
40
0.0000000000
40
0.0000000000
40
0.3344434546
40
0.6679851249
40
1.0000000000
40
1.0000000000
40
1.0000000000
40
1.0000000000
10
30.9771882599
20
-9.5395700170
30
0.0000000000
10
30.9778306908
20
-10.8377552284
30
0.0000000000
10
30.9805747584
20
-13.4306247868
30
0.0000000000
10
30.9890742688
20
-17.3122451052
30
0.0000000000
10
30.9976753136
20
-19.8956749713
30
0.0000000000
10
31.0027108589
20
-21.1844236598
30
0.0000000000
11
30.9771882599
21
-9.5395700170
31
0.0000000000
11
30.9813138141
21
-13.4341239431
31
0.0000000000
11
30.9898266617
21
-17.3181695495
31
0.0000000000
11
31.0027108589
21
-21.1844236598
31
0.0000000000
0
SPLINE
5
32D
100
AcDbEntity
8
0
100
AcDbSpline
62
9
6
CONTINUOUS
70
0
71
3
72
10
73
6
74
4
42
0.0000001000
43
0.0000001000
44
0.0000000001
12
0.0057626871
22
-11.5801917440
32
0.0000000000
13
0.0454998724
23
-11.5801037905
33
0.0000000000
40
0.0000000000
40
0.0000000000
40
0.0000000000
40
0.0000000000
40
0.3344421869
40
0.6679889374
40
1.0000000000
40
1.0000000000
40
1.0000000000
40
1.0000000000
10
31.4770169224
20
-9.5300700170
30
0.0000000000
10
31.4776593509
20
-10.8210382340
30
0.0000000000
10
31.4804034287
20
-13.3995177509
30
0.0000000000
10
31.4889029560
20
-17.2595735391
30
0.0000000000
10
31.4975040344
20
-19.8286558401
30
0.0000000000
10
31.5025395214
20
-21.1102300284
30
0.0000000000
11
31.4770169224
21
-9.5300700170
31
0.0000000000
11
31.4811424527
21
-13.4029729503
31
0.0000000000
11
31.4896554470
21
-17.2654993736
31
0.0000000000
11
31.5025395214
21
-21.1102300284
31
0.0000000000
0
SPLINE
5
32E
100
AcDbEntity
8
0
100
AcDbSpline
62
9
6
CONTINUOUS
70
0
71
3
72
12
73
8
74
6
42
0.0000001000
43
0.0000001000
44
0.0000000001
12
-0.4046164634
22
0.2938362490
32
0.0000000000
13
-0.5000541589
23
0.0002487483
33
0.0000000000
40
0.0000000000
40
0.0000000000
40
0.0000000000
40
0.0000000000
40
0.0555750125
40
0.2003450937
40
0.4207646181
40
0.6959972273
40
1.0000000000
40
1.0000000000
40
1.0000000000
40
1.0000000000
10
31.4770169224
20
9.4509299830
30
0.0000000000
10
31.4695214007
20
9.4563733007
30
0.0000000000
10
31.4324948747
20
9.4503267686
30
0.0000000000
10
31.3655852967
20
9.4594781105
30
0.0000000000
10
31.2572334923
20
9.4578094905
30
0.0000000000
10
31.1245712660
20
9.4604355628
30
0.0000000000
10
31.0278608768
20
9.4604047763
30
0.0000000000
10
30.9771882599
20
9.4604299830
30
0.0000000000
11
31.4770169224
21
9.4509299830
31
0.0000000000
11
31.4493770083
21
9.4538192954
31
0.0000000000
11
31.3770313909
21
9.4564350545
31
0.0000000000
11
31.2668295807
21
9.4585296067
31
0.0000000000
11
31.1292052218
21
9.4599046446
31
0.0000000000
11
30.9771882599
21
9.4604299830
31
0.0000000000
0
SPLINE
5
32F
100
AcDbEntity
8
0
100
AcDbSpline
62
9
6
CONTINUOUS
70
0
71
3
72
10
73
6
74
4
42
0.0000001000
43
0.0000001000
44
0.0000000001
12
-0.0094453649
22
-18.9809983461
32
0.0000000000
13
0.0094453641
23
-18.9809983461
33
0.0000000000
40
0.0000000000
40
0.0000000000
40
0.0000000000
40
0.0000000000
40
0.3333311978
40
0.6666690472
40
1.0000000000
40
1.0000000000
40
1.0000000000
40
1.0000000000
10
31.4770169224
20
9.4509299830
30
0.0000000000
10
31.4759674441
20
7.3419436785
30
0.0000000000
10
31.4745683445
20
3.1239286015
30
0.0000000000
10
31.4745683452
20
-3.2030717350
30
0.0000000000
10
31.4759674450
20
-7.4210852622
30
0.0000000000
10
31.4770169224
20
-9.5300700170
30
0.0000000000
11
31.4770169224
21
9.4509299830
31
0.0000000000
11
31.4749181265
21
3.1239706342
31
0.0000000000
11
31.4749181272
21
-3.2031153174
31
0.0000000000
11
31.4770169224
21
-9.5300700170
31
0.0000000000
0
SPLINE
5
330
100
AcDbEntity
8
0
100
AcDbSpline
62
9
6
CONTINUOUS
70
0
71
3
72
12
73
8
74
6
42
0.0000001000
43
0.0000001000
44
0.0000000001
12
-0.0880309235
22
0.5047725038
32
0.0000000000
13
-0.5123873998
23
0.0019689281
33
0.0000000000
40
0.0000000000
40
0.0000000000
40
0.0000000000
40
0.0000000000
40
0.0695900728
40
0.2162777711
40
0.4337158988
40
0.7031599859
40
1.0000000000
40
1.0000000000
40
1.0000000000
40
1.0000000000
10
31.5025395214
20
21.0310899944
30
0.0000000000
10
31.5004974952
20
21.0427990462
30
0.0000000000
10
31.4595239511
20
21.0613706100
30
0.0000000000
10
31.3929224991
20
21.0774744731
30
0.0000000000
10
31.2829310094
20
21.0928813726
30
0.0000000000
10
31.1503987698
20
21.1025164144
30
0.0000000000
10
31.0534098865
20
21.1050888035
30
0.0000000000
10
31.0027108589
20
21.1052836224
30
0.0000000000
11
31.5025395214
21
21.0310899944
31
0.0000000000
11
31.4749335957
21
21.0536589718
31
0.0000000000
11
31.4026023732
21
21.0740903892
31
0.0000000000
11
31.2923965096
21
21.0904491401
31
0.0000000000
11
31.1547538545
21
21.1011858501
31
0.0000000000
11
31.0027108589
21
21.1052836224
31
0.0000000000
0
SPLINE
5
331
100
AcDbEntity
8
0
100
AcDbSpline
62
9
6
CONTINUOUS
70
0
71
3
72
10
73
6
74
4
42
0.0000001000
43
0.0000001000
44
0.0000000001
12
-0.0454999059
22
-11.6447977340
32
0.0000000000
13
-0.0057627156
23
-11.6448851991
33
0.0000000000
40
0.0000000000
40
0.0000000000
40
0.0000000000
40
0.0000000000
40
0.3320148741
40
0.6655565444
40
1.0000000000
40
1.0000000000
40
1.0000000000
40
1.0000000000
10
31.0027108589
20
21.1052836258
30
0.0000000000
10
30.9976753104
20
19.8165349413
30
0.0000000000
10
30.9890742731
20
17.2331050793
30
0.0000000000
10
30.9805747541
20
13.3514847609
30
0.0000000000
10
30.9778306941
20
10.7586151985
30
0.0000000000
10
30.9771882599
20
9.4604299830
30
0.0000000000
11
31.0027108589
21
21.1052836258
31
0.0000000000
11
30.9898266626
21
17.2390295275
31
0.0000000000
11
30.9813138131
21
13.3549839213
31
0.0000000000
11
30.9771882599
21
9.4604299830
31
0.0000000000
0
SPLINE
5
332
100
AcDbEntity
8
0
100
AcDbSpline
62
9
6
CONTINUOUS
70
0
71
3
72
10
73
6
74
4
42
0.0000001000
43
0.0000001000
44
0.0000000001
12
-0.0454999019
22
-11.5801037904
32
0.0000000000
13
-0.0057627160
23
-11.5801917440
33
0.0000000000
40
0.0000000000
40
0.0000000000
40
0.0000000000
40
0.0000000000
40
0.3320136294
40
0.6655603887
40
1.0000000000
40
1.0000000000
40
1.0000000000
40
1.0000000000
10
31.5025395214
20
21.0310899944
30
0.0000000000
10
31.4975039922
20
19.7495058983
30
0.0000000000
10
31.4889028995
20
17.1804136553
30
0.0000000000
10
31.4804033977
20
13.3203578670
30
0.0000000000
10
31.4776593492
20
10.7418882580
30
0.0000000000
10
31.4770169224
20
9.4509299830
30
0.0000000000
11
31.5025395214
21
21.0310899944
31
0.0000000000
11
31.4896553655
21
17.1863296162
31
0.0000000000
11
31.4811424030
21
13.3238030903
31
0.0000000000
11
31.4770169224
21
9.4509299830
31
0.0000000000
0
SPLINE
5
333
100
AcDbEntity
8
0
100
AcDbSpline
62
9
6
CONTINUOUS
70
0
71
3
72
12
73
8
74
6
42
0.0000001000
43
0.0000001000
44
0.0000000001
12
-0.0005356740
22
0.7817393693
32
0.0000000000
13
-0.7817393693
23
0.0005356738
33
0.0000000000
40
0.0000000000
40
0.0000000000
40
0.0000000000
40
0.0000000000
40
0.1999736078
40
0.3999832677
40
0.6000076998
40
0.8000204728
40
1.0000000000
40
1.0000000000
40
1.0000000000
40
1.0000000000
10
31.5151448005
20
21.4567250255
30
0.0000000000
10
31.5151090937
20
21.5088341062
30
0.0000000000
10
31.4984661039
20
21.6137831880
30
0.0000000000
10
31.4262691892
20
21.7552474264
30
0.0000000000
10
31.3138438369
20
21.8676743864
30
0.0000000000
10
31.1723782606
20
21.9398741054
30
0.0000000000
10
31.0674267613
20
21.9565179802
30
0.0000000000
10
31.0153161382
20
21.9565536881
30
0.0000000000
11
31.5151448005
21
21.4567250255
31
0.0000000000
11
31.4905976090
21
21.6111130220
31
0.0000000000
11
31.4195674599
21
21.7504031812
31
0.0000000000
11
31.3090000767
21
21.8609721444
31
0.0000000000
11
31.1697085897
21
21.9320050467
31
0.0000000000
11
31.0153161382
21
21.9565536881
31
0.0000000000
0
SPLINE
5
334
100
AcDbEntity
8
0
100
AcDbSpline
62
9
6
CONTINUOUS
70
0
71
3
72
13
73
9
74
7
42
0.0000001000
43
0.0000001000
44
0.0000000001
12
-0.3796921540
22
-0.7621543352
32
0.0000000000
13
-0.0016804747
23
-0.8514942973
33
0.0000000000
40
0.0000000000
40
0.0000000000
40
0.0000000000
40
0.0000000000
40
0.0388750558
40
0.1388054624
40
0.2944584697
40
0.4974732373
40
0.7369559846
40
1.0000000000
40
1.0000000000
40
1.0000000000
40
1.0000000000
10
31.0153161381
20
21.9565536880
30
0.0000000000
10
31.0103959535
20
21.9466774239
30
0.0000000000
10
31.0149974690
20
21.9050034668
30
0.0000000000
10
31.0067660694
20
21.8234776483
30
0.0000000000
10
31.0075293369
20
21.6922807603
30
0.0000000000
10
31.0044066949
20
21.5229384061
30
0.0000000000
10
31.0034586947
20
21.3225388821
30
0.0000000000
10
31.0028582051
20
21.1799437854
30
0.0000000000
10
31.0027108589
20
21.1052836258
30
0.0000000000
11
31.0153161381
21
21.9565536880
31
0.0000000000
11
31.0123081398
21
21.9235886880
31
0.0000000000
11
31.0094810138
21
21.8385453296
31
0.0000000000
11
31.0069854420
21
21.7060309202
31
0.0000000000
11
31.0049581721
21
21.5331765543
31
0.0000000000
11
31.0035073245
21
21.3292631249
31
0.0000000000
11
31.0027108589
21
21.1052836258
31
0.0000000000
0
SPLINE
5
335
100
AcDbEntity
8
0
100
AcDbSpline
62
9
6
CONTINUOUS
70
0
71
3
72
13
73
9
74
7
42
0.0000001000
43
0.0000001000
44
0.0000000001
12
-0.2997422238
22
-0.3028257435
32
0.0000000000
13
-0.0016755610
23
-0.4260821801
33
0.0000000000
40
0.0000000000
40
0.0000000000
40
0.0000000000
40
0.0000000000
40
0.0390222187
40
0.1390803011
40
0.2951135816
40
0.4985397479
40
0.7383125641
40
1.0000000000
40
1.0000000000
40
1.0000000000
40
1.0000000000
10
31.5151448005
20
21.4567250255
30
0.0000000000
10
31.5112459317
20
21.4527860481
30
0.0000000000
10
31.5136019720
20
21.4300638210
30
0.0000000000
10
31.5073082338
20
21.3908736317
30
0.0000000000
10
31.5070569182
20
21.3242609644
30
0.0000000000
10
31.5043374768
20
21.2397290083
30
0.0000000000
10
31.5032488282
20
21.1394282311
30
0.0000000000
10
31.5026856791
20
21.0682567788
30
0.0000000000
10
31.5025395214
20
21.0310899944
30
0.0000000000
11
31.5151448005
21
21.4567250255
31
0.0000000000
11
31.5121490498
21
21.4403703328
31
0.0000000000
11
31.5093143442
21
21.3978313820
31
0.0000000000
11
31.5068125052
21
21.3313949576
31
0.0000000000
11
31.5047819594
21
21.2447418107
31
0.0000000000
11
31.5033309876
21
21.1425884007
31
0.0000000000
11
31.5025395214
21
21.0310899944
31
0.0000000000
0
SPLINE
5
336
100
AcDbEntity
8
0
100
AcDbSpline
62
9
6
CONTINUOUS
70
0
71
3
72
13
73
9
74
7
42
0.0000001000
43
0.0000001000
44
0.0000000001
12
-0.6960229535
22
-0.0184134977
32
0.0000000000
13
-0.1034026451
23
-0.6885454972
33
0.0000000000
40
0.0000000000
40
0.0000000000
40
0.0000000000
40
0.0000000000
40
0.1659798398
40
0.3330295974
40
0.5001637400
40
0.6671731523
40
0.8340829852
40
1.0000000000
40
1.0000000000
40
1.0000000000
40
1.0000000000
10
-13.1597040100
20
21.4567250255
30
0.0000000000
10
-13.1982126028
20
21.4557062691
30
0.0000000000
10
-13.2755401560
20
21.4446841160
30
0.0000000000
10
-13.3845128565
20
21.4018341804
30
0.0000000000
10
-13.4808996064
20
21.3348276806
30
0.0000000000
10
-13.5591464683
20
21.2473655150
30
0.0000000000
10
-13.6149605216
20
21.1445197295
30
0.0000000000
10
-13.6353614483
20
21.0691704656
30
0.0000000000
10
-13.6410802010
20
21.0310899944
30
0.0000000000
11
-13.1597040100
21
21.4567250255
31
0.0000000000
11
-13.2741071143
21
21.4403703328
31
0.0000000000
11
-13.3823601533
21
21.3978313820
31
0.0000000000
11
-13.4779015335
21
21.3313949576
31
0.0000000000
11
-13.5554449477
21
21.2447418107
31
0.0000000000
11
-13.6108553247
21
21.1425884007
31
0.0000000000
11
-13.6410802010
21
21.0310899944
31
0.0000000000
0
SPLINE
5
337
100
AcDbEntity
8
0
100
AcDbSpline
62
9
6
CONTINUOUS
70
0
71
3
72
12
73
8
74
6
42
0.0000001000
43
0.0000001000
44
0.0000000001
12
-0.0130830439
22
0.4999632443
32
0.0000000000
13
0.4999630101
23
0.0130919922
33
0.0000000000
40
0.0000000000
40
0.0000000000
40
0.0000000000
40
0.0000000000
40
0.3087678675
40
0.5872962576
40
0.8083747609
40
0.9504473483
40
1.0000000000
40
1.0000000000
40
1.0000000000
40
1.0000000000
10
-13.1597040100
20
21.4567250255
30
0.0000000000
10
-13.1610505512
20
21.5081825538
30
0.0000000000
10
-13.1638898278
20
21.6069708971
30
0.0000000000
10
-13.1631567716
20
21.7382436206
30
0.0000000000
10
-13.1699587118
20
21.8541422888
30
0.0000000000
10
-13.1562271719
20
21.9058696320
30
0.0000000000
10
-13.1679621697
20
21.9563374405
30
0.0000000000
10
-13.1597040054
20
21.9565536881
30
0.0000000000
11
-13.1597040100
21
21.4567250255
31
0.0000000000
11
-13.1631040150
21
21.6111130220
31
0.0000000000
11
-13.1648914673
21
21.7504031812
31
0.0000000000
11
-13.1648915070
21
21.8609721444
31
0.0000000000
11
-13.1631040889
21
21.9320050467
31
0.0000000000
11
-13.1597040054
21
21.9565536881
31
0.0000000000
0
SPLINE
5
338
100
AcDbEntity
8
0
100
AcDbSpline
62
9
6
CONTINUOUS
70
0
71
3
72
10
73
6
74
4
42
0.0000001000
43
0.0000001000
44
0.0000000001
12
-1.7254980515
22
-11.4996421818
32
0.0000000000
13
-0.2209450314
23
-11.6262761506
33
0.0000000000
40
0.0000000000
40
0.0000000000
40
0.0000000000
40
0.0000000000
40
0.3333325128
40
0.6666708733
40
1.0000000000
40
1.0000000000
40
1.0000000000
40
1.0000000000
10
-13.6410802010
20
21.0310899944
30
0.0000000000
10
-13.8328017348
20
19.7533551195
30
0.0000000000
10
-14.1609474679
20
17.1891977394
30
0.0000000000
10
-14.4861311321
20
13.3256420539
30
0.0000000000
10
-14.5911997955
20
10.7427221415
30
0.0000000000
10
-14.6157489336
20
9.4509299830
30
0.0000000000
11
-13.6410802010
21
21.0310899944
31
0.0000000000
11
-14.1331062640
21
17.1863296162
31
0.0000000000
11
-14.4582031828
21
13.3238030903
31
0.0000000000
11
-14.6157489336
21
9.4509299830
31
0.0000000000
0
SPLINE
5
339
100
AcDbEntity
8
0
100
AcDbSpline
62
9
6
CONTINUOUS
70
0
71
3
72
12
73
8
74
6
42
0.0000001000
43
0.0000001000
44
0.0000000001
12
-0.4816675990
22
0.0723230103
32
0.0000000000
13
0.0722746892
23
0.4816748520
33
0.0000000000
40
0.0000000000
40
0.0000000000
40
0.0000000000
40
0.0000000000
40
0.3107996592
40
0.5896463585
40
0.8101305820
40
0.9513712896
40
1.0000000000
40
1.0000000000
40
1.0000000000
40
1.0000000000
10
-13.6410802010
20
21.0310899944
30
0.0000000000
10
-13.6909809096
20
21.0385826501
30
0.0000000000
10
-13.7867039772
20
21.0521095543
30
0.0000000000
10
-13.9126689982
20
21.0747317704
30
0.0000000000
10
-14.0258301979
20
21.0832767139
30
0.0000000000
10
-14.0719049724
20
21.1074231822
30
0.0000000000
10
-14.1236279111
20
21.0974758801
30
0.0000000000
10
-14.1224563695
20
21.1052836224
30
0.0000000000
11
-13.6410802010
21
21.0310899944
31
0.0000000000
11
-13.7907686330
21
21.0536589718
31
0.0000000000
11
-13.9250400893
21
21.0740903892
31
0.0000000000
11
-14.0311774129
21
21.0904491401
31
0.0000000000
11
-14.0991280946
21
21.1011858501
31
0.0000000000
11
-14.1224563695
21
21.1052836224
31
0.0000000000
0
SPLINE
5
33A
100
AcDbEntity
8
0
100
AcDbSpline
62
9
6
CONTINUOUS
70
0
71
3
72
10
73
6
74
4
42
0.0000001000
43
0.0000001000
44
0.0000000001
12
-0.3606581412
22
-18.9785887347
32
0.0000000000
13
0.3606581121
23
-18.9785887353
33
0.0000000000
40
0.0000000000
40
0.0000000000
40
0.0000000000
40
0.0000000000
40
0.3333401063
40
0.6666601386
40
1.0000000000
40
1.0000000000
40
1.0000000000
40
1.0000000000
10
-14.6157489336
20
9.4509299830
30
0.0000000000
10
-14.6558228746
20
7.3421550542
30
0.0000000000
10
-14.7092562608
20
3.1241737914
30
0.0000000000
10
-14.7092562354
20
-3.2033169250
30
0.0000000000
10
-14.6558228420
20
-7.4212966376
30
0.0000000000
10
-14.6157489336
20
-9.5300700170
30
0.0000000000
11
-14.6157489336
21
9.4509299830
31
0.0000000000
11
-14.6958987145
21
3.1239706342
31
0.0000000000
11
-14.6958986859
21
-3.2031153174
31
0.0000000000
11
-14.6157489336
21
-9.5300700170
31
0.0000000000
0
SPLINE
5
33B
100
AcDbEntity
8
0
100
AcDbSpline
62
9
6
CONTINUOUS
70
0
71
3
72
10
73
6
74
4
42
0.0000001000
43
0.0000001000
44
0.0000000001
12
0.2209439242
22
-11.6262761716
32
0.0000000000
13
1.7254969565
23
-11.4996423461
33
0.0000000000
40
0.0000000000
40
0.0000000000
40
0.0000000000
40
0.0000000000
40
0.3333316961
40
0.6666700567
40
1.0000000000
40
1.0000000000
40
1.0000000000
40
1.0000000000
10
-14.6157489336
20
-9.5300700170
30
0.0000000000
10
-14.5911997293
20
-10.8218721355
30
0.0000000000
10
-14.4861299463
20
-13.4048019902
30
0.0000000000
10
-14.1609453103
20
-17.2683575940
30
0.0000000000
10
-13.8328001353
20
-19.8325049845
30
0.0000000000
10
-13.6410802010
20
-21.1102300284
30
0.0000000000
11
-14.6157489336
21
-9.5300700170
31
0.0000000000
11
-14.4582012859
21
-13.4029729503
31
0.0000000000
11
-14.1331031488
21
-17.2654993736
31
0.0000000000
11
-13.6410802010
21
-21.1102300284
31
0.0000000000
0
SPLINE
5
33C
100
AcDbEntity
8
0
100
AcDbSpline
62
9
6
CONTINUOUS
70
0
71
3
72
13
73
9
74
7
42
0.0000001000
43
0.0000001000
44
0.0000000001
12
0.1035026888
22
-0.6885304667
32
0.0000000000
13
0.6960256184
23
-0.0183125268
33
0.0000000000
40
0.0000000000
40
0.0000000000
40
0.0000000000
40
0.0000000000
40
0.1659651375
40
0.3330052161
40
0.5001366146
40
0.6671491356
40
0.8340685967
40
1.0000000000
40
1.0000000000
40
1.0000000000
40
1.0000000000
10
-13.6410802010
20
-21.1102300284
30
0.0000000000
10
-13.6353542550
20
-21.1483207129
30
0.0000000000
10
-13.6149486704
20
-21.2237112518
30
0.0000000000
10
-13.5590834709
20
-21.3266128173
30
0.0000000000
10
-13.4807833602
20
-21.4140705131
30
0.0000000000
10
-13.3843985445
20
-21.4810236896
30
0.0000000000
10
-13.2754874476
20
-21.5238296523
30
0.0000000000
10
-13.1982015126
20
-21.5348521851
30
0.0000000000
10
-13.1597040100
20
-21.5358650596
30
0.0000000000
11
-13.6410802010
21
-21.1102300284
31
0.0000000000
11
-13.6108438322
21
-21.2217600349
31
0.0000000000
11
-13.5553755078
21
-21.3239851794
31
0.0000000000
11
-13.4777444636
21
-21.4106738762
31
0.0000000000
11
-13.3822488696
21
-21.4770278056
31
0.0000000000
11
-13.2740741331
21
-21.5195179655
31
0.0000000000
11
-13.1597040100
21
-21.5358650596
31
0.0000000000
0
SPLINE
5
33D
100
AcDbEntity
8
0
100
AcDbSpline
62
9
6
CONTINUOUS
70
0
71
3
72
12
73
8
74
6
42
0.0000001000
43
0.0000001000
44
0.0000000001
12
-0.4816497056
22
-0.0723203704
32
0.0000000000
13
0.0724351773
23
-0.4816324532
33
0.0000000000
40
0.0000000000
40
0.0000000000
40
0.0000000000
40
0.0000000000
40
0.3108014115
40
0.5896483567
40
0.8101319945
40
0.9513718923
40
1.0000000000
40
1.0000000000
40
1.0000000000
40
1.0000000000
10
-13.6410802010
20
-21.1102300284
30
0.0000000000
10
-13.6909793371
20
-21.1177224528
30
0.0000000000
10
-13.7866994943
20
-21.1312489533
30
0.0000000000
10
-13.9126588347
20
-21.1538702042
30
0.0000000000
10
-14.0258187223
20
-21.1624152915
30
0.0000000000
10
-14.0718856871
20
-21.1865598603
30
0.0000000000
10
-14.1236126118
20
-21.1766140096
30
0.0000000000
10
-14.1224384832
20
-21.1844209679
30
0.0000000000
11
-13.6410802010
21
-21.1102300284
31
0.0000000000
11
-13.7907639162
21
-21.1327983092
31
0.0000000000
11
-13.9250305026
21
-21.1532290000
31
0.0000000000
11
-14.0311636006
21
-21.1695871145
31
0.0000000000
11
-14.0991113672
21
-21.1803233793
31
0.0000000000
11
-14.1224384832
21
-21.1844209679
31
0.0000000000
0
SPLINE
5
33E
100
AcDbEntity
8
0
100
AcDbSpline
62
9
6
CONTINUOUS
70
0
71
3
72
12
73
8
74
6
42
0.0000001000
43
0.0000001000
44
0.0000000001
12
-0.0130830273
22
-0.4999632459
32
0.0000000000
13
0.4999630113
23
-0.0130919922
33
0.0000000000
40
0.0000000000
40
0.0000000000
40
0.0000000000
40
0.0000000000
40
0.3087727501
40
0.5873022217
40
0.8083788267
40
0.9504486572
40
1.0000000000
40
1.0000000000
40
1.0000000000
40
1.0000000000
10
-13.1597040100
20
-21.5358650596
30
0.0000000000
10
-13.1610505708
20
-21.5873234017
30
0.0000000000
10
-13.1638898756
20
-21.6861127633
30
0.0000000000
10
-13.1631567805
20
-21.8173861179
30
0.0000000000
10
-13.1699586363
20
-21.9332841666
30
0.0000000000
10
-13.1562273334
20
-21.9850107790
30
0.0000000000
10
-13.1679619562
20
-22.0354774801
30
0.0000000000
10
-13.1597040100
20
-22.0356937220
30
0.0000000000
11
-13.1597040100
21
-21.5358650596
31
0.0000000000
11
-13.1631040542
21
-21.6902554981
31
0.0000000000
11
-13.1648914833
21
-21.8295461988
31
0.0000000000
11
-13.1648914828
21
-21.9401142128
31
0.0000000000
11
-13.1631040529
21
-22.0111457358
31
0.0000000000
11
-13.1597040100
21
-22.0356937220
31
0.0000000000
0
ENDSEC
0
SECTION
2
OBJECTS
0
DICTIONARY
5
33F
100
AcDbDictionary
3
ACAD_GROUP
350
340
3
ACAD_MLINESTYLE
350
341
0
DICTIONARY
5
340
102
{ACAD_REACTORS
330
33F
102
}
100
AcDbDictionary
0
DICTIONARY
5
341
102
{ACAD_REACTORS
330
33F
102
}
100
AcDbDictionary
3
STANDARD
350
342
0
MLINESTYLE
5
342
102
{ACAD_REACTORS
330
341
102
}
100
AcDbMlineStyle
2
STANDARD
70
0
3

62
256
51
90.0
52
90.0
71
2
49
0.5
62
256
6
BYLAYER
49
-0.5
62
256
6
BYLAYER
0
ENDSEC
0
EOF
