0
SECTION
2
HEADER
9
$ACADVER
1
AC1014
9
$HANDSEED
5
       2B9
9
$EXTMAX
10
297.0000000000
20
210.0000000000
9
$EXTMIN
10
0.0000000000
20
0.0000000000
9
$LIMMIN
10
0.0000000000
20
0.0000000000
9
$LIMMAX
10
297.0000000000
20
210.0000000000
9
$VIEWCTR
10
148.5000000000
20
105.0000000000
9
$VIEWSIZE
40
210.0000000000
9
$CLAYER
8
0
9
$LTSCALE
40
16.3350000000
9
$CELTYPE
6
BYLAYER
9
$DIMSCALE
40
1
9
$DIMASZ
40
3.0000000000
9
$DIMEXO
40
1.8562500000
9
$DIMDLI
40
11.2860000000
9
$DIMEXE
40
5.3460000000
9
$DIMCEN
40
2.6730000000
9
$DIMLFAC
40
1.0000000000
9
$DIMTXT
40
3.0000000000
9
$DIMTOL
70
1
9
$DIMLIM
70
0
9
$DIMTFAC
40
1.0000000000
9
$DIMTP
40
0.0100000000
9
$DIMTM
40
0.0100000000
9
$MEASUREMENT
70
1
0
ENDSEC
0
SECTION
2
CLASSES
0
ENDSEC
0
SECTION
2
TABLES
0
TABLE
2
VPORT
5
8
100
AcDbSymbolTable
70
2
0
VPORT
5
1F4
100
AcDbSymbolTableRecord
100
AcDbViewportTableRecord
2
*ACTIVE
70
0
10
0.0
20
0.0
11
1.0
21
1.0
12
148.5000000000
22
105.0000000000
13
0.0
23
0.0
14
1.0
24
1.0
15
0.0
25
0.0
16
0.0
26
0.0
36
1.0
17
0.0
27
0.0
37
0.0
40
210.0000000000
41
1.4142857143
42
50.0
43
0.0
44
0.0
50
0.0
51
0.0
71
0
72
100
73
1
74
1
75
0
76
0
77
0
78
0
0
ENDTAB
0
TABLE
2
LTYPE
5
5
100
AcDbSymbolTable
70
6
0
LTYPE
5
14
100
AcDbSymbolTableRecord
100
AcDbLinetypeTableRecord
2
BYBLOCK
70
0
3

72
65
73
0
40
0.0
0
LTYPE
5
15
100
AcDbSymbolTableRecord
100
AcDbLinetypeTableRecord
2
BYLAYER
70
0
3

72
65
73
0
40
0.0
0
LTYPE
5
16
100
AcDbSymbolTableRecord
100
AcDbLinetypeTableRecord
2
CONTINUOUS
70
64
3
Solid line
72
65
73
0
40
0
0
LTYPE
5
1F5
100
AcDbSymbolTableRecord
100
AcDbLinetypeTableRecord
2
CENTER
70
64
3
____ _ ____ _ ____ _ ____ _ ____ _ ____ _ ____
72
65
73
4
40
0.6
49
0.375
74
0
49
-0.075
74
0
49
0.075
74
0
49
-0.075
74
0
0
LTYPE
5
1F6
100
AcDbSymbolTableRecord
100
AcDbLinetypeTableRecord
2
HIDDEN
70
64
3
- - - - - - - - - - - - - - - - - - - -
72
65
73
2
40
0.2
49
0.1
74
0
49
-0.1
74
0
0
LTYPE
5
1F7
100
AcDbSymbolTableRecord
100
AcDbLinetypeTableRecord
2
PHANTOM
70
64
3
_____ _ _ _____ _ _ _____ _ _ _____
72
65
73
6
40
0.8
49
0.45
74
0
49
-0.05
74
0
49
0.1
74
0
49
-0.05
74
0
49
0.1
74
0
49
-0.05
74
0
0
LTYPE
5
1F8
100
AcDbSymbolTableRecord
100
AcDbLinetypeTableRecord
2
DOT
70
64
3
. . . . . . . . . . . . . . . . . . . .
72
65
73
2
40
0.2
49
0.1
74
0
49
-0.1
74
0
0
LTYPE
5
1F9
100
AcDbSymbolTableRecord
100
AcDbLinetypeTableRecord
2
DASHED
70
64
3
- - - - - - - - - - - - - - - - - - - -
72
65
73
2
40
0.2
49
0.1
74
0
49
-0.1
74
0
0
ENDTAB
0
TABLE
2
LAYER
5
2
100
AcDbSymbolTable
70
36
0
LAYER
5
10
100
AcDbSymbolTableRecord
100
AcDbLayerTableRecord
2
0
70
0
62
7
6
CONTINUOUS
0
LAYER
5
1FA
100
AcDbSymbolTableRecord
100
AcDbLayerTableRecord
2
DEFAULT_1
70
0
62
7
6
CENTER
0
LAYER
5
1FB
100
AcDbSymbolTableRecord
100
AcDbLayerTableRecord
2
DEFAULT_2
70
0
62
8
6
HIDDEN
0
LAYER
5
1FC
100
AcDbSymbolTableRecord
100
AcDbLayerTableRecord
2
DEFAULT_3
70
0
62
7
6
PHANTOM
0
LAYER
5
1FD
100
AcDbSymbolTableRecord
100
AcDbLayerTableRecord
2
ASSI
70
0
62
7
6
CONTINUOUS
0
LAYER
5
1FE
100
AcDbSymbolTableRecord
100
AcDbLayerTableRecord
2
COLOR9
70
0
62
7
6
CONTINUOUS
0
LAYER
5
1FF
100
AcDbSymbolTableRecord
100
AcDbLayerTableRecord
2
COORDINATE
70
0
62
7
6
CONTINUOUS
0
LAYER
5
200
100
AcDbSymbolTableRecord
100
AcDbLayerTableRecord
2
COORD_ORIGINE
70
0
62
7
6
CONTINUOUS
0
LAYER
5
201
100
AcDbSymbolTableRecord
100
AcDbLayerTableRecord
2
CURVE
70
0
62
7
6
CONTINUOUS
0
LAYER
5
202
100
AcDbSymbolTableRecord
100
AcDbLayerTableRecord
2
DRAFT
70
0
62
7
6
CONTINUOUS
0
LAYER
5
203
100
AcDbSymbolTableRecord
100
AcDbLayerTableRecord
2
INTF_YELLOW
70
0
62
7
6
CONTINUOUS
0
LAYER
5
204
100
AcDbSymbolTableRecord
100
AcDbLayerTableRecord
2
NOTE
70
0
62
7
6
CONTINUOUS
0
LAYER
5
205
100
AcDbSymbolTableRecord
100
AcDbLayerTableRecord
2
PIANI
70
0
62
7
6
CONTINUOUS
0
LAYER
5
206
100
AcDbSymbolTableRecord
100
AcDbLayerTableRecord
2
PIANI_ORIGINE
70
0
62
7
6
CONTINUOUS
0
LAYER
5
207
100
AcDbSymbolTableRecord
100
AcDbLayerTableRecord
2
PIANI_RIFERIMENTO
70
0
62
7
6
CONTINUOUS
0
LAYER
5
208
100
AcDbSymbolTableRecord
100
AcDbLayerTableRecord
2
PUNTI
70
0
62
7
6
CONTINUOUS
0
LAYER
5
209
100
AcDbSymbolTableRecord
100
AcDbLayerTableRecord
2
RACCORDO
70
0
62
7
6
CONTINUOUS
0
LAYER
5
20A
100
AcDbSymbolTableRecord
100
AcDbLayerTableRecord
2
SNAPLINE
70
0
62
7
6
CONTINUOUS
0
LAYER
5
20B
100
AcDbSymbolTableRecord
100
AcDbLayerTableRecord
2
SUPERFICI
70
0
62
7
6
CONTINUOUS
0
LAYER
5
20C
100
AcDbSymbolTableRecord
100
AcDbLayerTableRecord
2
TRASH
70
0
62
7
6
CONTINUOUS
0
LAYER
5
20D
100
AcDbSymbolTableRecord
100
AcDbLayerTableRecord
2
XSEC_DATUMS
70
0
62
7
6
CONTINUOUS
0
ENDTAB
0
TABLE
2
STYLE
5
3
100
AcDbSymbolTable
70
1
0
STYLE
5
11
100
AcDbSymbolTableRecord
100
AcDbTextStyleTableRecord
2
STANDARD
70
0
40
0.0
41
0.8000000000
50
0.0
71
0
42
0.2
3
txt
4

0
ENDTAB
0
TABLE
2
VIEW
5
6
100
AcDbSymbolTable
70
0
0
ENDTAB
0
TABLE
2
UCS
5
7
100
AcDbSymbolTable
70
0
0
ENDTAB
0
TABLE
2
APPID
5
9
100
AcDbSymbolTable
70
1
0
APPID
5
20E
100
AcDbSymbolTableRecord
100
AcDbRegAppTableRecord
2
ACAD
70
0
0
ENDTAB
0
TABLE
2
DIMSTYLE
5
A
100
AcDbSymbolTable
70
1
0
DIMSTYLE
105
20F
100
AcDbSymbolTableRecord
100
AcDbDimStyleTableRecord
2
STANDARD
70
0
3

4

5

6

7

40
1.0
41
3.0000000000
42
0.0625
43
0.38
44
0.18
45
0.0
46
0.0
47
0.0100000000
48
0.0100000000
140
3.0000000000
141
0.09
142
0.0
143
25.4
144
1.0000000000
145
0.0
146
1.0000000000
147
0.09
71
1
72
0
73
0
74
0
75
0
76
0
77
1
78
8
170
0
171
2
172
0
173
0
174
0
175
0
176
0
177
0
178
0
270
2
271
2
272
2
273
2
274
2
340
11
275
0
280
0
281
0
282
0
283
1
284
8
285
0
286
0
287
3
288
0
0
DIMSTYLE
105
210
100
AcDbSymbolTableRecord
100
AcDbDimStyleTableRecord
2
DIMSTYLE_1
70
0
3

4

5

6

7

40
1.0
41
3.0000000000
42
0.0625
43
0.38
44
0.18
45
0.0
46
0.0
47
0.0000000000
48
0.0000000000
140
3.0000000000
141
0.09
142
0.0
143
25.4
144
1.0000000000
145
0.0
146
1.0000000000
147
0.09
71
0
72
0
73
0
74
0
75
0
76
0
77
1
78
8
170
0
171
2
172
0
173
0
174
0
175
0
176
0
177
0
178
0
270
2
271
2
272
2
273
2
274
2
340
11
275
0
280
0
281
0
282
0
283
1
284
8
285
0
286
0
287
3
288
0
0
ENDTAB
0
TABLE
2
BLOCK_RECORD
5
1
100
AcDbSymbolTable
70
0
0
BLOCK_RECORD
5
1B
100
AcDbSymbolTableRecord
100
AcDbBlockTableRecord
2
*MODEL_SPACE
0
BLOCK_RECORD
5
1C
100
AcDbSymbolTableRecord
100
AcDbBlockTableRecord
2
*PAPER_SPACE
0
BLOCK_RECORD
5
211
100
AcDbSymbolTableRecord
100
AcDbBlockTableRecord
2
*D0
0
BLOCK_RECORD
5
212
100
AcDbSymbolTableRecord
100
AcDbBlockTableRecord
2
*D1
0
BLOCK_RECORD
5
213
100
AcDbSymbolTableRecord
100
AcDbBlockTableRecord
2
*D2
0
ENDTAB
0
ENDSEC
0
SECTION
2
BLOCKS
0
BLOCK
5
1E
100
AcDbEntity
8
0
100
AcDbBlockBegin
2
*MODEL_SPACE
70
0
10
0.0
20
0.0
30
0.0
3
*MODEL_SPACE
1

0
ENDBLK
5
1F
100
AcDbEntity
8
0
100
AcDbBlockEnd
0
BLOCK
5
20
100
AcDbEntity
8
0
100
AcDbBlockBegin
2
*PAPER_SPACE
70
0
10
0.0
20
0.0
30
0.0
3
*PAPER_SPACE
1

0
ENDBLK
5
21
100
AcDbEntity
8
0
100
AcDbBlockEnd
0
BLOCK
5
214
100
AcDbEntity
8
0
100
AcDbBlockBegin
62
7
6
CONTINUOUS
2
*D0
70
65
10
0.0000000000
20
0.0000000000
3
*D0
1

0
TEXT
5
215
100
AcDbEntity
8
0
100
AcDbText
62
7
6
CONTINUOUS
10
-13.9828182963
20
31.2946000276
7
STANDARD
40
3.0000000000
1
6
41
0.7857142857
72
0
100
AcDbText
0
LINE
5
216
100
AcDbEntity
8
0
100
AcDbLine
62
7
6
CONTINUOUS
10
-10.1774496534
20
22.1447713817
11
-10.1774496534
21
32.0446000276
0
LINE
5
217
100
AcDbEntity
8
0
100
AcDbLine
62
7
6
CONTINUOUS
10
-16.1774496534
20
0.5446000442
11
-16.1774496534
21
32.0446000276
0
LINE
5
218
100
AcDbEntity
8
0
100
AcDbLine
62
7
6
CONTINUOUS
10
-10.1774496534
20
30.5446000276
11
-6.1774496534
21
30.5446000276
0
LINE
5
219
100
AcDbEntity
8
0
100
AcDbLine
62
7
6
CONTINUOUS
10
-6.1774496534
20
30.5446000276
11
-13.1774496534
21
30.5446000276
0
LINE
5
21A
100
AcDbEntity
8
0
100
AcDbLine
62
7
6
CONTINUOUS
10
-16.1774496534
20
30.5446000276
11
-20.1774496534
21
30.5446000276
0
LINE
5
21B
100
AcDbEntity
8
0
100
AcDbLine
62
7
6
CONTINUOUS
10
-20.1774496534
20
30.5446000276
11
-13.1774496534
21
30.5446000276
0
SOLID
5
21C
100
AcDbEntity
8
0
100
AcDbTrace
62
7
6
CONTINUOUS
10
-7.1774496534
20
31.4946000276
11
-10.1774496534
21
30.5446000276
12
-7.1774496534
22
29.5946000276
13
-7.1774496534
23
29.5946000276
0
SOLID
5
21D
100
AcDbEntity
8
0
100
AcDbTrace
62
7
6
CONTINUOUS
10
-19.1774496534
20
29.5946000276
11
-16.1774496534
21
30.5446000276
12
-19.1774496534
22
31.4946000276
13
-19.1774496534
23
31.4946000276
0
ENDBLK
5
21E
100
AcDbEntity
8
0
100
AcDbBlockEnd
0
BLOCK
5
21F
100
AcDbEntity
8
0
100
AcDbBlockBegin
62
7
6
CONTINUOUS
2
*D1
70
65
10
0.0000000000
20
0.0000000000
3
*D1
1

0
TEXT
5
220
100
AcDbEntity
8
0
100
AcDbText
62
7
6
CONTINUOUS
10
19.2686423668
20
31.2946000276
7
STANDARD
40
3.0000000000
1
22
41
0.7857142857
72
0
100
AcDbText
0
LINE
5
221
100
AcDbEntity
8
0
100
AcDbLine
62
7
6
CONTINUOUS
10
10.4193783009
20
22.1447713817
11
10.4193783009
21
32.0446000276
0
LINE
5
222
100
AcDbEntity
8
0
100
AcDbLine
62
7
6
CONTINUOUS
10
32.4193783009
20
22.1447713817
11
32.4193783009
21
32.0446000276
0
LINE
5
223
100
AcDbEntity
8
0
100
AcDbLine
62
7
6
CONTINUOUS
10
10.4193783009
20
30.5446000276
11
21.4193783009
21
30.5446000276
0
LINE
5
224
100
AcDbEntity
8
0
100
AcDbLine
62
7
6
CONTINUOUS
10
32.4193783009
20
30.5446000276
11
21.4193783009
21
30.5446000276
0
SOLID
5
225
100
AcDbEntity
8
0
100
AcDbTrace
62
7
6
CONTINUOUS
10
13.4193783009
20
31.4946000276
11
10.4193783009
21
30.5446000276
12
13.4193783009
22
29.5946000276
13
13.4193783009
23
29.5946000276
0
SOLID
5
226
100
AcDbEntity
8
0
100
AcDbTrace
62
7
6
CONTINUOUS
10
29.4193783009
20
29.5946000276
11
32.4193783009
21
30.5446000276
12
29.4193783009
22
31.4946000276
13
29.4193783009
23
31.4946000276
0
ENDBLK
5
227
100
AcDbEntity
8
0
100
AcDbBlockEnd
0
BLOCK
5
228
100
AcDbEntity
8
0
100
AcDbBlockBegin
62
7
6
CONTINUOUS
2
*D2
70
65
10
0.0000000000
20
0.0000000000
3
*D2
1

0
TEXT
5
229
100
AcDbEntity
8
0
100
AcDbText
62
7
6
CONTINUOUS
10
39.9193782291
20
-4.8546850045
7
STANDARD
40
3.0000000000
1
44,2
50
90.0000000000
41
0.7321428571
72
0
100
AcDbText
0
LINE
5
22A
100
AcDbEntity
8
0
100
AcDbLine
62
7
6
CONTINUOUS
10
32.4195496384
20
22.1446000442
11
42.1693782291
21
22.1446000442
0
LINE
5
22B
100
AcDbEntity
8
0
100
AcDbLine
62
7
6
CONTINUOUS
10
32.4195496384
20
-22.0553999558
11
42.1693782291
21
-22.0553999558
0
LINE
5
22C
100
AcDbEntity
8
0
100
AcDbLine
62
7
6
CONTINUOUS
10
40.6693782291
20
22.1446000442
11
40.6693782291
21
0.0446000442
0
LINE
5
22D
100
AcDbEntity
8
0
100
AcDbLine
62
7
6
CONTINUOUS
10
40.6693782291
20
-22.0553999558
11
40.6693782291
21
0.0446000442
0
SOLID
5
22E
100
AcDbEntity
8
0
100
AcDbTrace
62
7
6
CONTINUOUS
10
41.6193782291
20
19.1446000442
11
40.6693782291
21
22.1446000442
12
39.7193782291
22
19.1446000442
13
39.7193782291
23
19.1446000442
0
SOLID
5
22F
100
AcDbEntity
8
0
100
AcDbTrace
62
7
6
CONTINUOUS
10
39.7193782291
20
-19.0553999558
11
40.6693782291
21
-22.0553999558
12
41.6193782291
22
-19.0553999558
13
41.6193782291
23
-19.0553999558
0
ENDBLK
5
230
100
AcDbEntity
8
0
100
AcDbBlockEnd
0
ENDSEC
0
SECTION
2
ENTITIES
0
DIMENSION
5
231
100
AcDbEntity
8
0
100
AcDbDimension
62
7
6
CONTINUOUS
2
*D0
10
-16.1774496534
20
30.5446000276
11
-12.8042468678
21
32.7946000276
70
160
3
DIMSTYLE_1
100
AcDbAlignedDimension
13
-10.1774496534
23
22.1447713817
14
-16.1774496534
24
0.5446000442
50
180.000000
100
AcDbRotatedDimension
0
DIMENSION
5
232
100
AcDbEntity
8
0
100
AcDbDimension
62
7
6
CONTINUOUS
2
*D1
10
32.4193783009
20
30.5446000276
11
21.6257852239
21
32.7946000276
70
160
3
DIMSTYLE_1
100
AcDbAlignedDimension
13
10.4193783009
23
22.1447713817
14
32.4193783009
24
22.1447713817
100
AcDbRotatedDimension
0
DIMENSION
5
233
100
AcDbEntity
8
0
100
AcDbDimension
62
7
6
CONTINUOUS
2
*D2
10
40.6693782291
20
-22.0553999558
11
38.4193782291
21
-0.4618278616
70
160
3
DIMSTYLE_1
100
AcDbAlignedDimension
13
32.4195496384
23
22.1446000442
14
32.4195496384
24
-22.0553999558
50
270.000000
100
AcDbRotatedDimension
0
LINE
5
234
100
AcDbEntity
8
0
100
AcDbLine
62
7
6
CONTINUOUS
10
10.9192069633
20
-22.0553999558
11
31.9195496384
21
-22.0553999558
0
LINE
5
235
100
AcDbEntity
8
0
100
AcDbLine
62
9
6
CONTINUOUS
10
11.0230832583
20
-21.9515236609
11
31.8156733434
21
-21.9515236609
0
LINE
5
236
100
AcDbEntity
8
0
100
AcDbLine
62
9
6
CONTINUOUS
10
11.0356885375
20
-21.1002535986
11
31.8030680642
21
-21.1002535986
0
LINE
5
237
100
AcDbEntity
8
0
100
AcDbLine
62
7
6
CONTINUOUS
10
19.0993782915
20
-14.4903999688
11
20.0493782976
21
-14.4903999688
0
LINE
5
238
100
AcDbEntity
8
0
100
AcDbLine
62
7
6
CONTINUOUS
10
21.4232032107
20
-14.4903999688
11
23.7393783091
21
-14.4903999688
0
LINE
5
239
100
AcDbEntity
8
0
100
AcDbLine
62
7
6
CONTINUOUS
10
19.5100277635
20
-13.8903999496
11
20.0493782977
21
-13.8903999496
0
LINE
5
23A
100
AcDbEntity
8
0
100
AcDbLine
62
7
6
CONTINUOUS
10
21.2040381931
20
-13.8903999496
11
23.3287288383
21
-13.8903999496
0
LINE
5
23B
100
AcDbEntity
8
0
100
AcDbLine
62
7
6
CONTINUOUS
10
10.4193783009
20
-21.5555712933
11
10.4193783009
21
21.6447713817
0
LINE
5
23C
100
AcDbEntity
8
0
100
AcDbLine
62
9
6
CONTINUOUS
10
11.0612111365
20
-9.4553999558
11
11.0612111365
21
9.5446000442
0
LINE
5
23D
100
AcDbEntity
8
0
100
AcDbLine
62
9
6
CONTINUOUS
10
31.9195496384
20
22.1446000442
11
31.8156733434
21
22.0407237492
0
LINE
5
23E
100
AcDbEntity
8
0
100
AcDbLine
62
9
6
CONTINUOUS
10
11.0612111365
20
-9.4553999558
11
31.7775454652
21
-9.4553999558
0
LINE
5
23F
100
AcDbEntity
8
0
100
AcDbLine
62
9
6
CONTINUOUS
10
31.8156733434
20
-21.9515236609
11
31.9195496384
21
-22.0553999558
0
LINE
5
240
100
AcDbEntity
8
0
100
AcDbLine
62
9
6
CONTINUOUS
10
32.4193783009
20
21.6447713817
11
32.3155020059
21
21.5408950867
0
LINE
5
241
100
AcDbEntity
8
0
100
AcDbLine
62
9
6
CONTINUOUS
10
32.3155020059
20
-21.4516949984
11
32.4193783009
21
-21.5555712933
0
LINE
5
242
100
AcDbEntity
8
0
100
AcDbLine
62
9
6
CONTINUOUS
10
10.4193783009
20
-21.5555712933
11
10.5232545958
21
-21.4516949984
0
LINE
5
243
100
AcDbEntity
8
0
100
AcDbLine
62
9
6
CONTINUOUS
10
10.9192069633
20
-22.0553999558
11
11.0230832583
21
-21.9515236609
0
LINE
5
244
100
AcDbEntity
8
0
100
AcDbLine
62
9
6
CONTINUOUS
10
10.5232545958
20
21.5408950867
11
10.4193783009
21
21.6447713817
0
LINE
5
245
100
AcDbEntity
8
0
100
AcDbLine
62
9
6
CONTINUOUS
10
11.0230832583
20
22.0407237492
11
10.9192069633
21
22.1446000442
0
LINE
5
246
100
AcDbEntity
8
0
100
AcDbLine
62
9
6
CONTINUOUS
10
11.0612111365
20
9.5446000442
11
31.7775454652
21
9.5446000442
0
LINE
5
247
100
AcDbEntity
8
0
100
AcDbLine
62
9
6
CONTINUOUS
10
31.7775454652
20
9.5446000442
11
31.7775454652
21
-9.4553999558
0
LINE
5
248
100
AcDbEntity
8
0
100
AcDbLine
62
7
6
CONTINUOUS
10
32.4193783009
20
-21.5555712933
11
32.4193783009
21
21.6447713817
0
LINE
5
249
100
AcDbEntity
8
0
100
AcDbLine
62
9
6
CONTINUOUS
10
11.0356885375
20
21.1894536869
11
31.8030680642
21
21.1894536869
0
LINE
5
24A
100
AcDbEntity
8
0
100
AcDbLine
62
9
6
CONTINUOUS
10
11.0230832583
20
22.0407237492
11
31.8156733434
21
22.0407237492
0
LINE
5
24B
100
AcDbEntity
8
0
100
AcDbLine
62
7
6
CONTINUOUS
10
10.9192069633
20
22.1446000442
11
31.9195496384
21
22.1446000442
0
LINE
5
24C
100
AcDbEntity
8
0
100
AcDbLine
62
7
6
CONTINUOUS
10
-14.1443253157
20
-21.9515236609
11
-10.1774496534
21
-22.0553999558
0
LINE
5
24D
100
AcDbEntity
8
0
100
AcDbLine
62
9
6
CONTINUOUS
10
-14.1443253157
20
-21.4516949984
11
-10.1774496534
21
-21.5555712933
0
LINE
5
24E
100
AcDbEntity
8
0
100
AcDbLine
62
9
6
CONTINUOUS
10
-15.6003702392
20
-9.4458999558
11
-16.0871914842
21
-9.4553999554
0
LINE
5
24F
100
AcDbEntity
8
0
100
AcDbLine
62
7
6
CONTINUOUS
10
-10.1774496534
20
-22.0553999558
11
-10.1774496534
21
22.1446000442
0
LINE
5
250
100
AcDbEntity
8
0
100
AcDbLine
62
9
6
CONTINUOUS
10
-15.6003702392
20
9.5351000442
11
-16.0871915064
21
9.5446000442
0
LINE
5
251
100
AcDbEntity
8
0
100
AcDbLine
62
9
6
CONTINUOUS
10
-10.1774496534
20
21.6447713817
11
-14.1443253157
21
21.5408950867
0
LINE
5
252
100
AcDbEntity
8
0
100
AcDbLine
62
7
6
CONTINUOUS
10
-10.1774496534
20
22.1446000442
11
-14.1443253157
21
22.0407237492
0
ARC
5
253
100
AcDbEntity
8
0
100
AcDbCircle
62
7
6
CONTINUOUS
10
-14.1181483674
20
21.0410664242
40
1.0000000000
100
AcDbArc
50
91.5000000000
51
171.4665223736
0
ARC
5
254
100
AcDbEntity
8
0
100
AcDbCircle
62
7
6
CONTINUOUS
10
73.8965620267
20
7.8346000442
40
90.0000000000
100
AcDbArc
50
171.4665223736
51
178.9113146800
0
ARC
5
255
100
AcDbEntity
8
0
100
AcDbCircle
62
7
6
CONTINUOUS
10
483.8225503466
20
0.0446000442
40
500.0000000000
100
AcDbArc
50
178.9113146800
51
181.0886853200
0
ARC
5
256
100
AcDbEntity
8
0
100
AcDbCircle
62
7
6
CONTINUOUS
10
73.8965620267
20
-7.7453999558
40
90.0000000000
100
AcDbArc
50
181.0886853200
51
188.5334776264
0
ARC
5
257
100
AcDbEntity
8
0
100
AcDbCircle
62
7
6
CONTINUOUS
10
-14.1181483674
20
-20.9518663359
40
1.0000000000
100
AcDbArc
50
188.5334776264
51
268.5000000000
0
SPLINE
5
258
100
AcDbEntity
8
0
100
AcDbSpline
62
7
6
CONTINUOUS
70
0
71
3
72
9
73
5
74
3
42
0.0000001000
43
0.0000001000
44
0.0000000001
12
0.1121953971
22
0.3515546347
32
0.0000000000
13
0.1121954033
23
0.3515546327
33
0.0000000000
40
0.0000000000
40
0.0000000000
40
0.0000000000
40
0.0000000000
40
0.7500185179
40
1.0000000000
40
1.0000000000
40
1.0000000000
40
1.0000000000
10
21.1706959377
20
-15.2816098049
30
0.0000000000
10
21.1987454795
20
-15.1937189762
30
0.0000000000
10
21.2361439425
20
-15.0765340971
30
0.0000000000
10
21.2735424099
20
-14.9593492194
30
0.0000000000
10
21.2828913343
20
-14.9300551700
30
0.0000000000
11
21.1706959377
21
-15.2816098049
31
0.0000000000
11
21.2548445615
21
-15.0179373183
31
0.0000000000
11
21.2828913343
21
-14.9300551700
31
0.0000000000
0
SPLINE
5
259
100
AcDbEntity
8
0
100
AcDbSpline
62
7
6
CONTINUOUS
70
0
71
3
72
9
73
5
74
3
42
0.0000001000
43
0.0000001000
44
0.0000000001
12
0.1403118827
22
0.4396551992
32
0.0000000000
13
0.1403118754
23
0.4396552015
33
0.0000000000
40
0.0000000000
40
0.0000000000
40
0.0000000000
40
0.0000000000
40
0.3999834286
40
1.0000000000
40
1.0000000000
40
1.0000000000
40
1.0000000000
10
21.2828913343
20
-14.9300551700
30
0.0000000000
10
21.3015988102
20
-14.8714369054
30
0.0000000000
10
21.3483694388
20
-14.7248851726
30
0.0000000000
10
21.3951400605
20
-14.5783334377
30
0.0000000000
10
21.4232032107
20
-14.4903999688
30
0.0000000000
11
21.2828913343
21
-14.9300551700
31
0.0000000000
11
21.3390137619
21
-14.7542003760
31
0.0000000000
11
21.4232032107
21
-14.4903999688
31
0.0000000000
0
SPLINE
5
25A
100
AcDbEntity
8
0
100
AcDbSpline
62
7
6
CONTINUOUS
70
0
71
3
72
8
73
4
74
2
42
0.0000001000
43
0.0000001000
44
0.0000000001
12
-0.0117292271
22
-0.0367525254
32
0.0000000000
13
-0.0069287386
23
-0.0380195593
33
0.0000000000
40
0.0000000000
40
0.0000000000
40
0.0000000000
40
0.0000000000
40
1.0000000000
40
1.0000000000
40
1.0000000000
40
1.0000000000
10
20.5990990394
20
-15.0991900481
30
0.0000000000
10
20.5951892970
20
-15.1114408899
30
0.0000000000
10
20.5920649712
20
-15.1239645002
30
0.0000000000
10
20.5897553917
20
-15.1366376867
30
0.0000000000
11
20.5990990394
21
-15.0991900481
31
0.0000000000
11
20.5897553917
21
-15.1366376867
31
0.0000000000
0
SPLINE
5
25B
100
AcDbEntity
8
0
100
AcDbSpline
62
7
6
CONTINUOUS
70
0
71
3
72
23
73
19
74
17
42
0.0000001000
43
0.0000001000
44
0.0000000001
12
-0.1619828213
22
-0.8888364538
32
0.0000000000
13
0.2742135168
23
0.8592143646
33
0.0000000000
40
0.0000000000
40
0.0000000000
40
0.0000000000
40
0.0000000000
40
0.0155068235
40
0.0731542669
40
0.1316366795
40
0.1901074393
40
0.2480747131
40
0.3059338796
40
0.3639290064
40
0.4219563202
40
0.5376086809
40
0.6526996471
40
0.7106667968
40
0.7687059893
40
0.8268343641
40
0.8848568744
40
0.9421047875
40
1.0000000000
40
1.0000000000
40
1.0000000000
40
1.0000000000
10
20.5897553917
20
-15.1366376867
30
0.0000000000
10
20.5889181120
20
-15.1412320300
30
0.0000000000
10
20.5854733436
20
-15.1629988270
30
0.0000000000
10
20.5836187885
20
-15.2027190496
30
0.0000000000
10
20.5903563506
20
-15.2550543136
30
0.0000000000
10
20.6061845195
20
-15.3054879007
30
0.0000000000
10
20.6304753221
20
-15.3522189498
30
0.0000000000
10
20.6624109910
20
-15.3939131090
30
0.0000000000
10
20.7011265223
20
-15.4294494705
30
0.0000000000
10
20.7600709870
20
-15.4671070019
30
0.0000000000
10
20.8446396684
20
-15.4939240845
30
0.0000000000
10
20.9332324780
20
-15.4900592134
30
0.0000000000
10
20.9998045129
20
-15.4691698556
30
0.0000000000
10
21.0465309670
20
-15.4449532164
30
0.0000000000
10
21.0883299945
20
-15.4129683303
30
0.0000000000
10
21.1237721047
20
-15.3743726212
30
0.0000000000
10
21.1519716986
20
-15.3303208714
30
0.0000000000
10
21.1654040619
20
-15.2981912734
30
0.0000000000
10
21.1706959452
20
-15.2816098073
30
0.0000000000
11
20.5897553917
21
-15.1366376867
31
0.0000000000
11
20.5875661821
21
-15.1504738209
31
0.0000000000
11
20.5851379782
21
-15.2024099127
31
0.0000000000
11
20.5918745523
21
-15.2547238465
31
0.0000000000
11
20.6076651795
21
-15.3050396157
31
0.0000000000
11
20.6317773740
21
-15.3514285649
31
0.0000000000
11
20.6635108554
21
-15.3928548009
31
0.0000000000
11
20.7020404412
21
-15.4282303700
31
0.0000000000
11
20.7461546361
21
-15.4563894789
31
0.0000000000
11
20.8456155733
21
-15.4878170628
31
0.0000000000
11
20.9493233033
21
-15.4834004967
31
0.0000000000
11
20.9992121473
21
-15.4677664286
31
0.0000000000
11
21.0456842975
21
-15.4436737251
31
0.0000000000
11
21.0873207692
21
-15.4118154346
31
0.0000000000
11
21.1227169410
21
-15.3732712369
31
0.0000000000
11
21.1505515925
21
-15.3297839332
31
0.0000000000
11
21.1706959452
21
-15.2816098073
31
0.0000000000
0
SPLINE
5
25C
100
AcDbEntity
8
0
100
AcDbSpline
62
7
6
CONTINUOUS
70
0
71
3
72
10
73
6
74
4
42
0.0000001000
43
0.0000001000
44
0.0000000001
12
-0.2482623008
22
-0.7779085912
32
0.0000000000
13
-0.2482623047
23
-0.7779085900
33
0.0000000000
40
0.0000000000
40
0.0000000000
40
0.0000000000
40
0.0000000000
40
0.4286624353
40
0.8572001346
40
1.0000000000
40
1.0000000000
40
1.0000000000
40
1.0000000000
10
20.9182670866
20
-14.0991043920
30
0.0000000000
10
20.8827935124
20
-14.2102577891
30
0.0000000000
10
20.8118566828
20
-14.4325322376
30
0.0000000000
10
20.7291025880
20
-14.6918351030
30
0.0000000000
10
20.6818220614
20
-14.8399845696
30
0.0000000000
10
20.6700047869
20
-14.8770129836
30
0.0000000000
11
20.9182670866
21
-14.0991043920
31
0.0000000000
11
20.8118463625
21
-14.4325645826
31
0.0000000000
11
20.7054566102
21
-14.7659277415
31
0.0000000000
11
20.6700047869
21
-14.8770129836
31
0.0000000000
0
SPLINE
5
25D
100
AcDbEntity
8
0
100
AcDbSpline
62
7
6
CONTINUOUS
70
0
71
3
72
8
73
4
74
2
42
0.0000001000
43
0.0000001000
44
0.0000000001
12
-0.0354541828
22
-0.1110926338
32
0.0000000000
13
-0.0354541829
23
-0.1110926338
33
0.0000000000
40
0.0000000000
40
0.0000000000
40
0.0000000000
40
0.0000000000
40
1.0000000000
40
1.0000000000
40
1.0000000000
40
1.0000000000
10
20.6700047869
20
-14.8770129836
30
0.0000000000
10
20.6581867260
20
-14.9140438615
30
0.0000000000
10
20.6463686650
20
-14.9510747394
30
0.0000000000
10
20.6345506040
20
-14.9881056174
30
0.0000000000
11
20.6700047869
21
-14.8770129836
31
0.0000000000
11
20.6345506040
21
-14.9881056174
31
0.0000000000
0
SPLINE
5
25E
100
AcDbEntity
8
0
100
AcDbSpline
62
7
6
CONTINUOUS
70
0
71
3
72
8
73
4
74
2
42
0.0000001000
43
0.0000001000
44
0.0000000001
12
-0.0354515649
22
-0.1110844306
32
0.0000000000
13
-0.0354515642
23
-0.1110844308
33
0.0000000000
40
0.0000000000
40
0.0000000000
40
0.0000000000
40
0.0000000000
40
1.0000000000
40
1.0000000000
40
1.0000000000
40
1.0000000000
10
20.6345506040
20
-14.9881056174
30
0.0000000000
10
20.6227334157
20
-15.0251337609
30
0.0000000000
10
20.6109162274
20
-15.0621619045
30
0.0000000000
10
20.5990990394
20
-15.0991900481
30
0.0000000000
11
20.6345506040
21
-14.9881056174
31
0.0000000000
11
20.5990990394
21
-15.0991900481
31
0.0000000000
0
SPLINE
5
25F
100
AcDbEntity
8
0
100
AcDbSpline
62
7
6
CONTINUOUS
70
0
71
3
72
8
73
4
74
2
42
0.0000001000
43
0.0000001000
44
0.0000000001
12
-0.0292990342
22
-0.0000000086
32
0.0000000000
13
-0.0292200340
23
-0.0028678081
33
0.0000000000
40
0.0000000000
40
0.0000000000
40
0.0000000000
40
0.0000000000
40
1.0000000000
40
1.0000000000
40
1.0000000000
40
1.0000000000
10
21.2040381055
20
-13.8903999496
30
0.0000000000
10
21.1942717607
20
-13.8903999525
30
0.0000000000
10
21.1844909940
20
-13.8908803761
30
0.0000000000
10
21.1747509826
20
-13.8918363122
30
0.0000000000
11
21.2040381055
21
-13.8903999496
31
0.0000000000
11
21.1747509826
21
-13.8918363122
31
0.0000000000
0
SPLINE
5
260
100
AcDbEntity
8
0
100
AcDbSpline
62
7
6
CONTINUOUS
70
0
71
3
72
13
73
9
74
7
42
0.0000001000
43
0.0000001000
44
0.0000000001
12
-0.3177885183
22
-0.0311894397
32
0.0000000000
13
-0.1269387305
23
-0.2930078891
33
0.0000000000
40
0.0000000000
40
0.0000000000
40
0.0000000000
40
0.0000000000
40
0.1054984442
40
0.3028912783
40
0.5004377653
40
0.6981434502
40
0.8959943801
40
1.0000000000
40
1.0000000000
40
1.0000000000
40
1.0000000000
10
21.1747509826
20
-13.8918363122
30
0.0000000000
10
21.1635755846
20
-13.8929331246
30
0.0000000000
10
21.1316445010
20
-13.8978793825
30
0.0000000000
10
21.0807536341
20
-13.9144760126
30
0.0000000000
10
21.0258829903
20
-13.9462725012
30
0.0000000000
10
20.9788274101
20
-13.9888622580
30
0.0000000000
10
20.9475661669
20
-14.0322011069
30
0.0000000000
10
20.9331591119
20
-14.0609983157
30
0.0000000000
10
20.9287583314
20
-14.0711564714
30
0.0000000000
11
21.1747509826
21
-13.8918363122
31
0.0000000000
11
21.1414690906
21
-13.8969973124
31
0.0000000000
11
21.0816677061
21
-13.9164921834
31
0.0000000000
11
21.0272057585
21
-13.9480566163
31
0.0000000000
11
20.9804951649
21
-13.9903286711
31
0.0000000000
11
20.9436192290
21
-14.0414638357
31
0.0000000000
11
20.9287583314
21
-14.0711564714
31
0.0000000000
0
SPLINE
5
261
100
AcDbEntity
8
0
100
AcDbSpline
62
7
6
CONTINUOUS
70
0
71
3
72
8
73
4
74
2
42
0.0000001000
43
0.0000001000
44
0.0000000001
12
-0.0118826404
22
-0.0274282510
32
0.0000000000
13
-0.0090771639
23
-0.0284136769
33
0.0000000000
40
0.0000000000
40
0.0000000000
40
0.0000000000
40
0.0000000000
40
1.0000000000
40
1.0000000000
40
1.0000000000
40
1.0000000000
10
20.9287583314
20
-14.0711564714
30
0.0000000000
10
20.9247974513
20
-14.0802992217
30
0.0000000000
10
20.9212928167
20
-14.0896331389
30
0.0000000000
10
20.9182670954
20
-14.0991043645
30
0.0000000000
11
20.9287583314
21
-14.0711564714
31
0.0000000000
11
20.9182670954
21
-14.0991043645
31
0.0000000000
0
SPLINE
5
262
100
AcDbEntity
8
0
100
AcDbSpline
62
7
6
CONTINUOUS
70
0
71
3
72
9
73
5
74
3
42
0.0000001000
43
0.0000001000
44
0.0000000001
12
0.6847984682
22
-2.1457572048
32
0.0000000000
13
0.6847984072
23
-2.1457572242
33
0.0000000000
40
0.0000000000
40
0.0000000000
40
0.0000000000
40
0.0000000000
40
0.5017055422
40
1.0000000000
40
1.0000000000
40
1.0000000000
40
1.0000000000
10
22.2986563711
20
-10.6627563134
30
0.0000000000
10
22.4131787667
20
-11.0216024073
30
0.0000000000
10
22.6414449638
20
-11.7368547958
30
0.0000000000
10
22.8697111200
20
-12.4521071973
30
0.0000000000
10
22.9834548704
20
-12.8085135082
30
0.0000000000
11
22.2986563711
21
-10.6627563134
31
0.0000000000
11
22.6422235887
21
-11.7392945853
31
0.0000000000
11
22.9834548704
21
-12.8085135082
31
0.0000000000
0
SPLINE
5
263
100
AcDbEntity
8
0
100
AcDbSpline
62
7
6
CONTINUOUS
70
0
71
3
72
8
73
4
74
2
42
0.0000001000
43
0.0000001000
44
0.0000000001
12
0.3452739683
22
-1.0818864413
32
0.0000000000
13
0.3452739990
23
-1.0818864315
33
0.0000000000
40
0.0000000000
40
0.0000000000
40
0.0000000000
40
0.0000000000
40
1.0000000000
40
1.0000000000
40
1.0000000000
40
1.0000000000
10
22.9834548704
20
-12.8085135082
30
0.0000000000
10
23.0985461931
20
-13.1691423220
30
0.0000000000
10
23.2136375053
20
-13.5297711391
30
0.0000000000
10
23.3287288383
20
-13.8903999496
30
0.0000000000
11
22.9834548704
21
-12.8085135082
31
0.0000000000
11
23.3287288383
21
-13.8903999496
31
0.0000000000
0
SPLINE
5
264
100
AcDbEntity
8
0
100
AcDbSpline
62
7
6
CONTINUOUS
70
0
71
3
72
8
73
4
74
2
42
0.0000001000
43
0.0000001000
44
0.0000000001
12
0.0256259801
22
0.0802967590
32
0.0000000000
13
0.0328293220
23
0.0776849961
33
0.0000000000
40
0.0000000000
40
0.0000000000
40
0.0000000000
40
0.0000000000
40
1.0000000000
40
1.0000000000
40
1.0000000000
40
1.0000000000
10
20.5401001419
20
-10.6627565913
30
0.0000000000
10
20.5486421353
20
-10.6359910050
30
0.0000000000
10
20.5583868147
20
-10.6095867681
30
0.0000000000
10
20.5693299220
20
-10.5836917694
30
0.0000000000
11
20.5401001419
21
-10.6627565913
31
0.0000000000
11
20.5693299220
21
-10.5836917694
31
0.0000000000
0
SPLINE
5
265
100
AcDbEntity
8
0
100
AcDbSpline
62
7
6
CONTINUOUS
70
0
71
3
72
23
73
19
74
17
42
0.0000001000
43
0.0000001000
44
0.0000000001
12
0.8402267206
22
1.9882533511
32
0.0000000000
13
0.8409556925
23
-1.9879470850
33
0.0000000000
40
0.0000000000
40
0.0000000000
40
0.0000000000
40
0.0000000000
40
0.0058798727
40
0.0505229313
40
0.0954303084
40
0.1404939915
40
0.2303644851
40
0.3202611228
40
0.4101863354
40
0.5001070412
40
0.5900034478
40
0.6798805504
40
0.7697426873
40
0.8595932015
40
0.9046464046
40
0.9495550981
40
0.9942237218
40
1.0000000000
40
1.0000000000
40
1.0000000000
40
1.0000000000
10
20.5693299220
20
-10.5836917694
30
0.0000000000
10
20.5709767307
20
-10.5797948772
30
0.0000000000
10
20.5853601745
20
-10.5464098419
30
0.0000000000
10
20.6163112517
20
-10.4850290521
30
0.0000000000
10
20.6687896642
20
-10.4034744531
30
0.0000000000
10
20.7497284192
20
-10.3023660466
30
0.0000000000
10
20.8704655079
20
-10.1928839281
30
0.0000000000
10
21.0393573454
20
-10.0947610642
30
0.0000000000
10
21.2251089032
20
-10.0340750423
30
0.0000000000
10
21.4194295255
20
-10.0135572704
30
0.0000000000
10
21.6137122640
20
-10.0340945006
30
0.0000000000
10
21.7993864391
20
-10.0947624121
30
0.0000000000
10
21.9682198352
20
-10.1928363203
30
0.0000000000
10
22.0889338034
20
-10.3022724443
30
0.0000000000
10
22.1698793867
20
-10.4033484479
30
0.0000000000
10
22.2223756872
20
-10.4849057593
30
0.0000000000
10
22.2533100994
20
-10.5462330729
30
0.0000000000
10
22.2676794273
20
-10.5795630516
30
0.0000000000
10
22.2692986253
20
-10.5833906967
30
0.0000000000
11
20.5693299220
21
-10.5836917694
31
0.0000000000
11
20.5743517550
21
-10.5720361946
31
0.0000000000
11
20.6176835270
21
-10.4860305394
31
0.0000000000
11
20.6700783758
21
-10.4045471379
31
0.0000000000
11
20.7308715392
21
-10.3286893785
31
0.0000000000
11
20.8744602693
21
-10.1984283163
31
0.0000000000
11
21.0421431703
21
-10.1010117691
31
0.0000000000
11
21.2265404229
21
-10.0407697226
31
0.0000000000
11
21.4194464927
21
-10.0203999600
31
0.0000000000
11
21.6122980045
21
-10.0407872083
31
0.0000000000
11
21.7965945501
21
-10.1010033137
31
0.0000000000
11
21.9642192275
21
-10.1983719209
31
0.0000000000
11
22.1077925717
21
-10.3285857948
31
0.0000000000
11
22.1685852994
21
-10.4044149293
31
0.0000000000
11
22.2209943531
21
-10.4858925717
31
0.0000000000
11
22.2643624895
21
-10.5719416583
31
0.0000000000
11
22.2692986253
21
-10.5833906967
31
0.0000000000
0
SPLINE
5
266
100
AcDbEntity
8
0
100
AcDbSpline
62
7
6
CONTINUOUS
70
0
71
3
72
8
73
4
74
2
42
0.0000001000
43
0.0000001000
44
0.0000000001
12
0.0329851197
22
-0.0779739921
32
0.0000000000
13
0.0257252977
23
-0.0806078799
33
0.0000000000
40
0.0000000000
40
0.0000000000
40
0.0000000000
40
0.0000000000
40
1.0000000000
40
1.0000000000
40
1.0000000000
40
1.0000000000
10
22.2692986253
20
-10.5833906967
30
0.0000000000
10
22.2802936652
20
-10.6093820274
30
0.0000000000
10
22.2900812719
20
-10.6358870201
30
0.0000000000
10
22.2986563711
20
-10.6627563134
30
0.0000000000
11
22.2692986253
21
-10.5833906967
31
0.0000000000
11
22.2986563711
21
-10.6627563134
31
0.0000000000
0
SPLINE
5
267
100
AcDbEntity
8
0
100
AcDbSpline
62
7
6
CONTINUOUS
70
0
71
3
72
8
73
4
74
2
42
0.0000001000
43
0.0000001000
44
0.0000000001
12
0.3449867648
22
1.0809864079
32
0.0000000000
13
0.3449867341
23
1.0809864177
33
0.0000000000
40
0.0000000000
40
0.0000000000
40
0.0000000000
40
0.0000000000
40
1.0000000000
40
1.0000000000
40
1.0000000000
40
1.0000000000
10
19.5100277635
20
-13.8903999496
30
0.0000000000
10
19.6250233517
20
-13.5300711470
30
0.0000000000
10
19.7400189191
20
-13.1697423377
30
0.0000000000
10
19.8550144972
20
-12.8094135318
30
0.0000000000
11
19.5100277635
21
-13.8903999496
31
0.0000000000
11
19.8550144972
21
-12.8094135318
31
0.0000000000
0
SPLINE
5
268
100
AcDbEntity
8
0
100
AcDbSpline
62
7
6
CONTINUOUS
70
0
71
3
72
9
73
5
74
3
42
0.0000001000
43
0.0000001000
44
0.0000000001
12
0.6850855526
22
2.1466569699
32
0.0000000000
13
0.6850856140
23
2.1466569503
33
0.0000000000
40
0.0000000000
40
0.0000000000
40
0.0000000000
40
0.0000000000
40
0.4985043496
40
1.0000000000
40
1.0000000000
40
1.0000000000
40
1.0000000000
10
19.8550144972
20
-12.8094135318
30
0.0000000000
10
19.9688538731
20
-12.4527075863
30
0.0000000000
10
20.1972157445
20
-11.7371552695
30
0.0000000000
10
20.4255776567
20
-11.0216029658
30
0.0000000000
10
20.5401001419
20
-10.6627565913
30
0.0000000000
11
19.8550144972
21
-12.8094135318
31
0.0000000000
11
20.1965326556
21
-11.7392957050
31
0.0000000000
11
20.5401001419
21
-10.6627565913
31
0.0000000000
0
SPLINE
5
269
100
AcDbEntity
8
0
100
AcDbSpline
62
7
6
CONTINUOUS
70
0
71
3
72
8
73
4
74
2
42
0.0000001000
43
0.0000001000
44
0.0000000001
12
0.0368840090
22
0.0000000003
32
0.0000000000
13
0.0366682160
23
0.0045334745
33
0.0000000000
40
0.0000000000
40
0.0000000000
40
0.0000000000
40
0.0000000000
40
1.0000000000
40
1.0000000000
40
1.0000000000
40
1.0000000000
10
20.0493783002
20
-14.4903999688
30
0.0000000000
10
20.0616729699
20
-14.4903999687
30
0.0000000000
10
20.0739868469
20
-14.4896402433
30
0.0000000000
10
20.0862095856
20
-14.4881290851
30
0.0000000000
11
20.0493783002
21
-14.4903999688
31
0.0000000000
11
20.0862095856
21
-14.4881290851
31
0.0000000000
0
SPLINE
5
26A
100
AcDbEntity
8
0
100
AcDbSpline
62
7
6
CONTINUOUS
70
0
71
3
72
23
73
19
74
17
42
0.0000001000
43
0.0000001000
44
0.0000000001
12
0.8983101614
22
0.1110625685
32
0.0000000000
13
-0.9035968336
23
0.0000040998
33
0.0000000000
40
0.0000000000
40
0.0000000000
40
0.0000000000
40
0.0000000000
40
0.0172279872
40
0.0746694381
40
0.1329529324
40
0.1912507205
40
0.2490921307
40
0.3068696200
40
0.3648524626
40
0.4229054293
40
0.5386820486
40
0.6538838174
40
0.7118991775
40
0.7699157808
40
0.8278311867
40
0.8855613713
40
0.9425035142
40
1.0000000000
40
1.0000000000
40
1.0000000000
40
1.0000000000
10
20.0862095856
20
-14.4881290851
30
0.0000000000
10
20.0913682775
20
-14.4874912903
30
0.0000000000
10
20.1136566850
20
-14.4841468133
30
0.0000000000
10
20.1525218825
20
-14.4737354719
30
0.0000000000
10
20.2002794117
20
-14.4514766591
30
0.0000000000
10
20.2435020824
20
-14.4211396451
30
0.0000000000
10
20.2806674473
20
-14.3838463077
30
0.0000000000
10
20.3107464071
20
-14.3407546077
30
0.0000000000
10
20.3329090268
20
-14.2930177760
30
0.0000000000
10
20.3509498860
20
-14.2252578880
30
0.0000000000
10
20.3507772197
20
-14.1362815376
30
0.0000000000
10
20.3199750192
20
-14.0528446649
30
0.0000000000
10
20.2796286190
20
-13.9957080749
30
0.0000000000
10
20.2422394135
20
-13.9586090060
30
0.0000000000
10
20.1990458066
20
-13.9286434280
30
0.0000000000
10
20.1515986443
20
-13.9067593876
30
0.0000000000
10
20.1012414135
20
-13.8934000780
30
0.0000000000
10
20.0666975327
20
-13.8904000282
30
0.0000000000
10
20.0493796519
20
-13.8903999496
30
0.0000000000
11
20.0862095856
21
-14.4881290851
31
0.0000000000
11
20.1016286615
21
-14.4858147612
31
0.0000000000
11
20.1517656509
21
-14.4723872562
31
0.0000000000
11
20.1994995822
21
-14.4501375300
31
0.0000000000
11
20.2426170633
21
-14.4198749801
31
0.0000000000
11
20.2795111324
21
-14.3828548478
31
0.0000000000
11
20.3093913392
21
-14.3400436159
31
0.0000000000
11
20.3314605766
21
-14.2925253413
31
0.0000000000
11
20.3449370980
21
-14.2418295356
31
0.0000000000
11
20.3446262032
21
-14.1372146228
31
0.0000000000
11
20.3086776088
21
-14.0395229464
31
0.0000000000
11
20.2784551306
21
-13.9966893236
31
0.0000000000
11
20.2412370078
21
-13.9597698634
31
0.0000000000
11
20.1982399993
21
-13.9299384467
31
0.0000000000
11
20.1508713150
21
-13.9080895393
31
0.0000000000
11
20.1011381398
21
-13.8948988180
31
0.0000000000
11
20.0493796519
21
-13.8903999496
31
0.0000000000
0
SPLINE
5
26B
100
AcDbEntity
8
0
100
AcDbSpline
62
7
6
CONTINUOUS
70
0
71
3
72
19
73
15
74
13
42
0.0000001000
43
0.0000001000
44
0.0000000001
12
-0.1712734313
22
-0.5366707505
32
0.0000000000
13
0.5633383822
23
-0.0000020357
33
0.0000000000
40
0.0000000000
40
0.0000000000
40
0.0000000000
40
0.0000000000
40
0.0838317189
40
0.1669442723
40
0.2510807967
40
0.3351525849
40
0.4184131231
40
0.5015482682
40
0.5851234268
40
0.6686945595
40
0.7520010586
40
0.8350488205
40
0.9172024160
40
1.0000000000
40
1.0000000000
40
1.0000000000
40
1.0000000000
10
18.8135798437
20
-14.0991900674
30
0.0000000000
10
18.8087937950
20
-14.1141867446
30
0.0000000000
10
18.8016061146
20
-14.1448585077
30
0.0000000000
10
18.7981455145
20
-14.1920618520
30
0.0000000000
10
18.8021189648
20
-14.2392878649
30
0.0000000000
10
18.8134854413
20
-14.2853225876
30
0.0000000000
10
18.8318464743
20
-14.3288320206
30
0.0000000000
10
18.8567103234
20
-14.3688705851
30
0.0000000000
10
18.8875571029
20
-14.4045849882
30
0.0000000000
10
18.9236364345
20
-14.4350543150
30
0.0000000000
10
18.9639450716
20
-14.4594619284
30
0.0000000000
10
19.0073177279
20
-14.4771936048
30
0.0000000000
10
19.0528007690
20
-14.4879820309
30
0.0000000000
10
19.0838295261
20
-14.4903998994
30
0.0000000000
10
19.0993772118
20
-14.4903999556
30
0.0000000000
11
18.8135798437
21
-14.0991900674
31
0.0000000000
11
18.8028073792
21
-14.1451706427
31
0.0000000000
11
18.7993818768
21
-14.1918656531
31
0.0000000000
11
18.8033568532
21
-14.2390960080
31
0.0000000000
11
18.8147093292
21
-14.2850761392
31
0.0000000000
11
18.8329455326
21
-14.3282897056
31
0.0000000000
11
18.8576524814
21
-14.3680755906
31
0.0000000000
11
18.8884271379
21
-14.4037063307
31
0.0000000000
11
18.9243955073
21
-14.4340821757
31
0.0000000000
11
18.9645395510
21
-14.4583897194
31
0.0000000000
11
19.0078440077
21
-14.4760946783
31
0.0000000000
11
19.0528753201
21
-14.4867738301
31
0.0000000000
11
19.0993772118
21
-14.4903999556
31
0.0000000000
0
SPLINE
5
26C
100
AcDbEntity
8
0
100
AcDbSpline
62
7
6
CONTINUOUS
70
0
71
3
72
8
73
4
74
2
42
0.0000001000
43
0.0000001000
44
0.0000000001
12
-0.3728394131
22
-1.1682602636
32
0.0000000000
13
-0.3728393631
23
-1.1682602796
33
0.0000000000
40
0.0000000000
40
0.0000000000
40
0.0000000000
40
0.0000000000
40
1.0000000000
40
1.0000000000
40
1.0000000000
40
1.0000000000
10
19.9685032194
20
-10.4803369102
30
0.0000000000
10
19.8442234150
20
-10.8697569981
30
0.0000000000
10
19.7199436410
20
-11.2591770957
30
0.0000000000
10
19.5956638533
20
-11.6485971889
30
0.0000000000
11
19.9685032194
21
-10.4803369102
31
0.0000000000
11
19.5956638533
21
-11.6485971889
31
0.0000000000
0
SPLINE
5
26D
100
AcDbEntity
8
0
100
AcDbSpline
62
7
6
CONTINUOUS
70
0
71
3
72
10
73
6
74
4
42
0.0000001000
43
0.0000001000
44
0.0000000001
12
-0.7820838492
22
-2.4505929009
32
0.0000000000
13
-0.7820839543
23
-2.4505928674
33
0.0000000000
40
0.0000000000
40
0.0000000000
40
0.0000000000
40
0.0000000000
40
0.0158530585
40
0.5081199424
40
1.0000000000
40
1.0000000000
40
1.0000000000
40
1.0000000000
10
19.5956638533
20
-11.6485971889
30
0.0000000000
10
19.5915310463
20
-11.6615469864
30
0.0000000000
10
19.4590669124
20
-12.0766120275
30
0.0000000000
10
19.1983722610
20
-12.8934763166
30
0.0000000000
10
18.9418103522
20
-13.6973907877
30
0.0000000000
10
18.8135798520
20
-14.0991900412
30
0.0000000000
11
19.5956638533
21
-11.6485971889
31
0.0000000000
11
19.5832654323
21
-11.6874465814
31
0.0000000000
11
19.1982714012
21
-12.8937922961
31
0.0000000000
11
18.8135798520
21
-14.0991900412
31
0.0000000000
0
SPLINE
5
26E
100
AcDbEntity
8
0
100
AcDbSpline
62
7
6
CONTINUOUS
70
0
71
3
72
9
73
5
74
3
42
0.0000001000
43
0.0000001000
44
0.0000000001
12
-0.1948313404
22
-0.0425059350
32
0.0000000000
13
-0.1876859194
23
-0.0676671727
33
0.0000000000
40
0.0000000000
40
0.0000000000
40
0.0000000000
40
0.0000000000
40
0.8037032502
40
1.0000000000
40
1.0000000000
40
1.0000000000
40
1.0000000000
10
21.0947510272
20
-9.4553999558
30
0.0000000000
10
21.0425555000
20
-9.4667873419
30
0.0000000000
10
20.9782857336
20
-9.4843169230
30
0.0000000000
10
20.9154279281
20
-9.5060576294
30
0.0000000000
10
20.9031472162
20
-9.5104852448
30
0.0000000000
11
21.0947510272
21
-9.4553999558
31
0.0000000000
11
20.9401599002
21
-9.4976846342
31
0.0000000000
11
20.9031472162
21
-9.5104852448
31
0.0000000000
0
SPLINE
5
26F
100
AcDbEntity
8
0
100
AcDbSpline
62
7
6
CONTINUOUS
70
0
71
3
72
9
73
5
74
3
42
0.0000001000
43
0.0000001000
44
0.0000000001
12
-0.0847345339
22
-0.1800676391
32
0.0000000000
13
-0.0604757406
23
-0.1894955407
33
0.0000000000
40
0.0000000000
40
0.0000000000
40
0.0000000000
40
0.0000000000
40
0.1982201555
40
1.0000000000
40
1.0000000000
40
1.0000000000
40
1.0000000000
10
20.0411337022
20
-10.2952123181
30
0.0000000000
10
20.0355350047
20
-10.3071099965
30
0.0000000000
10
20.0080782844
20
-10.3675054129
30
0.0000000000
10
19.9846659627
20
-10.4296923418
30
0.0000000000
10
19.9685032194
20
-10.4803369102
30
0.0000000000
11
20.0411337022
21
-10.2952123181
31
0.0000000000
11
20.0248089633
21
-10.3311235649
31
0.0000000000
11
19.9685032194
21
-10.4803369102
31
0.0000000000
0
SPLINE
5
270
100
AcDbEntity
8
0
100
AcDbSpline
62
7
6
CONTINUOUS
70
0
71
3
72
9
73
5
74
3
42
0.0000001000
43
0.0000001000
44
0.0000000001
12
-0.1965834792
22
0.0428881954
32
0.0000000000
13
-0.2005785830
23
0.0166146590
33
0.0000000000
40
0.0000000000
40
0.0000000000
40
0.0000000000
40
0.0000000000
40
0.6501613804
40
1.0000000000
40
1.0000000000
40
1.0000000000
40
1.0000000000
10
21.7440055745
20
-9.4553999558
30
0.0000000000
10
21.7014019124
20
-9.4461052064
30
0.0000000000
10
21.6352243578
20
-9.4346193117
30
0.0000000000
10
21.5684913668
20
-9.4275355833
30
0.0000000000
10
21.5451013219
20
-9.4255981002
30
0.0000000000
11
21.7440055745
21
-9.4553999558
31
0.0000000000
11
21.6151149435
21
-9.4330306750
31
0.0000000000
11
21.5451013219
21
-9.4255981002
31
0.0000000000
0
SPLINE
5
271
100
AcDbEntity
8
0
100
AcDbSpline
62
7
6
CONTINUOUS
70
0
71
3
72
8
73
4
74
2
42
0.0000001000
43
0.0000001000
44
0.0000000001
12
-0.0168422462
22
0.0013951050
32
0.0000000000
13
-0.0168565640
23
0.0012081358
33
0.0000000000
40
0.0000000000
40
0.0000000000
40
0.0000000000
40
0.0000000000
40
1.0000000000
40
1.0000000000
40
1.0000000000
40
1.0000000000
10
21.5451013219
20
-9.4255981002
30
0.0000000000
10
21.5394872398
20
-9.4251330652
30
0.0000000000
10
21.5338706075
20
-9.4246991785
30
0.0000000000
10
21.5282517529
20
-9.4242964666
30
0.0000000000
11
21.5451013219
21
-9.4255981002
31
0.0000000000
11
21.5282517529
21
-9.4242964666
31
0.0000000000
0
SPLINE
5
272
100
AcDbEntity
8
0
100
AcDbSpline
62
7
6
CONTINUOUS
70
0
71
3
72
8
73
4
74
2
42
0.0000001000
43
0.0000001000
44
0.0000000001
12
-0.0080193954
22
0.0005747624
32
0.0000000000
13
-0.0080223075
23
0.0005324189
33
0.0000000000
40
0.0000000000
40
0.0000000000
40
0.0000000000
40
0.0000000000
40
1.0000000000
40
1.0000000000
40
1.0000000000
40
1.0000000000
10
21.5282517529
20
-9.4242964666
30
0.0000000000
10
21.5255786211
20
-9.4241048791
30
0.0000000000
10
21.5229049863
20
-9.4239203475
30
0.0000000000
10
21.5202308838
20
-9.4237428746
30
0.0000000000
11
21.5282517529
21
-9.4242964666
31
0.0000000000
11
21.5202308838
21
-9.4237428746
31
0.0000000000
0
SPLINE
5
273
100
AcDbEntity
8
0
100
AcDbSpline
62
7
6
CONTINUOUS
70
0
71
3
72
10
73
6
74
4
42
0.0000001000
43
0.0000001000
44
0.0000000001
12
-0.2098681491
22
0.0139283823
32
0.0000000000
13
-0.2097876303
23
-0.0150968473
33
0.0000000000
40
0.0000000000
40
0.0000000000
40
0.0000000000
40
0.0000000000
40
0.1687837134
40
0.7908945044
40
1.0000000000
40
1.0000000000
40
1.0000000000
40
1.0000000000
10
21.5202308838
20
-9.4237428746
30
0.0000000000
10
21.5084234419
20
-9.4229592465
30
0.0000000000
10
21.4530528598
20
-9.4199321478
30
0.0000000000
10
21.3828740127
20
-9.4199321476
30
0.0000000000
10
21.3246876518
20
-9.4232757723
30
0.0000000000
10
21.3100650697
20
-9.4243280502
30
0.0000000000
11
21.5202308838
21
-9.4237428746
31
0.0000000000
11
21.4847842425
21
-9.4218050924
31
0.0000000000
11
21.3539723662
21
-9.4218050921
31
0.0000000000
11
21.3100650697
21
-9.4243280502
31
0.0000000000
0
SPLINE
5
274
100
AcDbEntity
8
0
100
AcDbSpline
62
7
6
CONTINUOUS
70
0
71
3
72
9
73
5
74
3
42
0.0000001000
43
0.0000001000
44
0.0000000001
12
-0.2171613871
22
-0.0156274815
32
0.0000000000
13
-0.2126596052
23
-0.0463954893
33
0.0000000000
40
0.0000000000
40
0.0000000000
40
0.0000000000
40
0.0000000000
40
0.3989879266
40
1.0000000000
40
1.0000000000
40
1.0000000000
40
1.0000000000
10
21.3100650697
20
-9.4243280502
30
0.0000000000
10
21.2811834791
20
-9.4264064424
30
0.0000000000
10
21.2089440872
20
-9.4336800225
30
0.0000000000
10
21.1373546906
20
-9.4461052061
30
0.0000000000
10
21.0947510272
20
-9.4553999558
30
0.0000000000
11
21.3100650697
21
-9.4243280502
31
0.0000000000
11
21.2236416623
21
-9.4330306745
31
0.0000000000
11
21.0947510272
21
-9.4553999558
31
0.0000000000
0
SPLINE
5
275
100
AcDbEntity
8
0
100
AcDbSpline
62
7
6
CONTINUOUS
70
0
71
3
72
9
73
5
74
3
42
0.0000001000
43
0.0000001000
44
0.0000000001
12
-0.0604927157
22
0.1895487142
32
0.0000000000
13
-0.0847652081
23
0.1801148802
33
0.0000000000
40
0.0000000000
40
0.0000000000
40
0.0000000000
40
0.0000000000
40
0.8013072061
40
1.0000000000
40
1.0000000000
40
1.0000000000
40
1.0000000000
10
22.8702533703
20
-10.4803368725
30
0.0000000000
10
22.8540956206
20
-10.4297079556
30
0.0000000000
10
22.8306782750
20
-10.3675031016
30
0.0000000000
10
22.8032137170
20
-10.3070907817
30
0.0000000000
10
22.7975996384
20
-10.2951616055
30
0.0000000000
11
22.8702533703
21
-10.4803368725
31
0.0000000000
11
22.8139679574
21
-10.3311685341
31
0.0000000000
11
22.7975996384
21
-10.2951616055
31
0.0000000000
0
SPLINE
5
276
100
AcDbEntity
8
0
100
AcDbSpline
62
7
6
CONTINUOUS
70
0
71
3
72
9
73
5
74
3
42
0.0000001000
43
0.0000001000
44
0.0000000001
12
-0.1875605767
22
0.0676021908
32
0.0000000000
13
-0.1946946205
23
0.0424761071
33
0.0000000000
40
0.0000000000
40
0.0000000000
40
0.0000000000
40
0.0000000000
40
0.1956982423
40
1.0000000000
40
1.0000000000
40
1.0000000000
40
1.0000000000
10
21.9354776929
20
-9.5104377437
30
0.0000000000
10
21.9232426012
20
-9.5060278671
30
0.0000000000
10
21.8604279573
20
-9.4843052411
30
0.0000000000
10
21.7962033163
20
-9.4667878250
30
0.0000000000
10
21.7440055745
20
-9.4553999558
30
0.0000000000
11
21.9354776929
21
-9.5104377437
31
0.0000000000
11
21.8986031706
21
-9.4976867579
31
0.0000000000
11
21.7440055745
21
-9.4553999558
31
0.0000000000
0
SPLINE
5
277
100
AcDbEntity
8
0
100
AcDbSpline
62
7
6
CONTINUOUS
70
0
71
3
72
8
73
4
74
2
42
0.0000001000
43
0.0000001000
44
0.0000000001
12
-0.0241060811
22
0.0755343335
32
0.0000000000
13
-0.0241060811
23
0.0755343335
33
0.0000000000
40
0.0000000000
40
0.0000000000
40
0.0000000000
40
0.0000000000
40
1.0000000000
40
1.0000000000
40
1.0000000000
40
1.0000000000
10
24.0251772056
20
-14.0991914695
30
0.0000000000
10
24.0171418452
20
-14.0740133583
30
0.0000000000
10
24.0091064849
20
-14.0488352471
30
0.0000000000
10
24.0010711245
20
-14.0236571360
30
0.0000000000
11
24.0251772056
21
-14.0991914695
31
0.0000000000
11
24.0010711245
21
-14.0236571360
31
0.0000000000
0
SPLINE
5
278
100
AcDbEntity
8
0
100
AcDbSpline
62
7
6
CONTINUOUS
70
0
71
3
72
10
73
6
74
4
42
0.0000001000
43
0.0000001000
44
0.0000000001
12
-0.7582639170
22
2.3759548213
32
0.0000000000
13
-0.7582639153
23
2.3759548218
33
0.0000000000
40
0.0000000000
40
0.0000000000
40
0.0000000000
40
0.0000000000
40
0.4755396374
40
0.9832735260
40
1.0000000000
40
1.0000000000
40
1.0000000000
40
1.0000000000
10
24.0010711245
20
-14.0236571360
30
0.0000000000
10
23.8808762751
20
-13.6470369046
30
0.0000000000
10
23.6323493310
20
-12.8682990794
30
0.0000000000
10
23.3795946925
20
-12.0763141388
30
0.0000000000
10
23.2470349032
20
-11.6609494296
30
0.0000000000
10
23.2428072093
20
-11.6477023141
30
0.0000000000
11
24.0010711245
21
-14.0236571360
31
0.0000000000
11
23.6404865772
21
-12.8937964416
31
0.0000000000
11
23.2554902910
21
-11.6874436607
31
0.0000000000
11
23.2428072093
21
-11.6477023141
31
0.0000000000
0
SPLINE
5
279
100
AcDbEntity
8
0
100
AcDbSpline
62
7
6
CONTINUOUS
70
0
71
3
72
8
73
4
74
2
42
0.0000001000
43
0.0000001000
44
0.0000000001
12
-0.3725538391
22
1.1673654416
32
0.0000000000
13
-0.3725538390
23
1.1673654416
33
0.0000000000
40
0.0000000000
40
0.0000000000
40
0.0000000000
40
0.0000000000
40
1.0000000000
40
1.0000000000
40
1.0000000000
40
1.0000000000
10
23.2428072093
20
-11.6477023141
30
0.0000000000
10
23.1186225963
20
-11.2585805002
30
0.0000000000
10
22.9944379833
20
-10.8694586864
30
0.0000000000
10
22.8702533703
20
-10.4803368725
30
0.0000000000
11
23.2428072093
21
-11.6477023141
31
0.0000000000
11
22.8702533703
21
-10.4803368725
31
0.0000000000
0
SPLINE
5
27A
100
AcDbEntity
8
0
100
AcDbSpline
62
7
6
CONTINUOUS
70
0
71
3
72
18
73
14
74
12
42
0.0000001000
43
0.0000001000
44
0.0000000001
12
0.5630481156
22
0.0000000508
32
0.0000000000
13
-0.1711836138
23
0.5363948113
33
0.0000000000
40
0.0000000000
40
0.0000000000
40
0.0000000000
40
0.0000000000
40
0.0836076170
40
0.1665239813
40
0.2504663512
40
0.3343728058
40
0.4175287423
40
0.5006012160
40
0.6672310870
40
0.7508573597
40
0.8343161662
40
0.9168425068
40
1.0000000000
40
1.0000000000
40
1.0000000000
40
1.0000000000
10
23.7393783360
20
-14.4903999688
30
0.0000000000
10
23.7550700398
20
-14.4903999674
30
0.0000000000
10
23.7863795840
20
-14.4879375594
30
0.0000000000
10
23.8322712042
20
-14.4769496359
30
0.0000000000
10
23.8759546910
20
-14.4589063237
30
0.0000000000
10
23.9162968349
20
-14.4342088931
30
0.0000000000
10
23.9521601850
20
-14.4036018711
30
0.0000000000
10
23.9929505595
20
-14.3560301237
30
0.0000000000
10
24.0220276524
20
-14.2992494840
30
0.0000000000
10
24.0367938181
20
-14.2381803528
30
0.0000000000
10
24.0405962744
20
-14.1912802957
30
0.0000000000
10
24.0370712115
20
-14.1444776759
30
0.0000000000
10
24.0299222849
20
-14.1140598814
30
0.0000000000
10
24.0251772182
20
-14.0991914655
30
0.0000000000
11
23.7393783360
21
-14.4903999688
31
0.0000000000
11
23.7863083322
21
-14.4867065212
31
0.0000000000
11
23.8317113993
21
-14.4758375289
31
0.0000000000
11
23.8753951331
21
-14.4577937313
31
0.0000000000
11
23.9156864462
21
-14.4331250023
31
0.0000000000
11
23.9513056358
21
-14.4027365174
31
0.0000000000
11
23.9817349996
21
-14.3672140997
31
0.0000000000
11
24.0244991850
21
-14.2837063998
31
0.0000000000
11
24.0355868317
21
-14.2379448522
31
0.0000000000
11
24.0393774863
21
-14.1911066687
31
0.0000000000
11
24.0358880997
21
-14.1447715712
31
0.0000000000
11
24.0251772182
21
-14.0991914655
31
0.0000000000
0
SPLINE
5
27B
100
AcDbEntity
8
0
100
AcDbSpline
62
7
6
CONTINUOUS
70
0
71
3
72
12
73
8
74
6
42
0.0000001000
43
0.0000001000
44
0.0000000001
12
-0.7819280802
22
0.0000000000
32
0.0000000000
13
-0.0000000000
23
0.7819280802
33
0.0000000000
40
0.0000000000
40
0.0000000000
40
0.0000000000
40
0.0000000000
40
0.1988431443
40
0.4003949185
40
0.5998863460
40
0.8010357654
40
1.0000000000
40
1.0000000000
40
1.0000000000
40
1.0000000000
10
10.9192069633
20
-22.0553999558
30
0.0000000000
10
10.8673799507
20
-22.0553999558
30
0.0000000000
10
10.7622984659
20
-22.0389166059
30
0.0000000000
10
10.6206981870
20
-21.9668408381
30
0.0000000000
10
10.5078799015
20
-21.8539711581
30
0.0000000000
10
10.4358612244
20
-21.7124395074
30
0.0000000000
10
10.4193783009
20
-21.6074298673
30
0.0000000000
10
10.4193783009
20
-21.5555712933
30
0.0000000000
11
10.9192069633
21
-22.0553999558
31
0.0000000000
11
10.7656162478
21
-22.0312287892
31
0.0000000000
11
10.6251447837
21
-21.9597780367
31
0.0000000000
11
10.5148692346
21
-21.8494533183
31
0.0000000000
11
10.4435789187
21
-21.7092532225
31
0.0000000000
11
10.4193783009
21
-21.5555712933
31
0.0000000000
0
SPLINE
5
27C
100
AcDbEntity
8
0
100
AcDbSpline
62
7
6
CONTINUOUS
70
0
71
3
72
12
73
8
74
6
42
0.0000001000
43
0.0000001000
44
0.0000000001
12
0.6390415656
22
0.1394183257
32
0.0000000000
13
0.6390415656
23
-0.1394183257
33
0.0000000000
40
0.0000000000
40
0.0000000000
40
0.0000000000
40
0.0000000000
40
0.2000041893
40
0.4000020994
40
0.5999979112
40
0.7999958171
40
1.0000000000
40
1.0000000000
40
1.0000000000
40
1.0000000000
10
21.0947510272
20
-9.4553999558
30
0.0000000000
10
21.1373546906
20
-9.4461052061
30
0.0000000000
10
21.2234055231
20
-9.4311700699
30
0.0000000000
10
21.3538893191
20
-9.4199321475
30
0.0000000000
10
21.4848672886
20
-9.4199321478
30
0.0000000000
10
21.6153510822
20
-9.4311700704
30
0.0000000000
10
21.7014019124
20
-9.4461052064
30
0.0000000000
10
21.7440055745
20
-9.4553999558
30
0.0000000000
11
21.0947510272
21
-9.4553999558
31
0.0000000000
11
21.2236416623
21
-9.4330306745
31
0.0000000000
11
21.3539723662
21
-9.4218050921
31
0.0000000000
11
21.4847842425
21
-9.4218050924
31
0.0000000000
11
21.6151149435
21
-9.4330306750
31
0.0000000000
11
21.7440055745
21
-9.4553999558
31
0.0000000000
0
SPLINE
5
27D
100
AcDbEntity
8
0
100
AcDbSpline
62
7
6
CONTINUOUS
70
0
71
3
72
17
73
13
74
11
42
0.0000001000
43
0.0000001000
44
0.0000000001
12
0.4846082716
22
1.5184783777
32
0.0000000000
13
1.5573019946
23
0.3397532311
33
0.0000000000
40
0.0000000000
40
0.0000000000
40
0.0000000000
40
0.0000000000
40
0.1000565420
40
0.1994001868
40
0.2992951964
40
0.3995045315
40
0.4995838707
40
0.5996488672
40
0.6998349116
40
0.7998110369
40
0.8994500861
40
1.0000000000
40
1.0000000000
40
1.0000000000
40
1.0000000000
10
19.9685032223
20
-10.4803369009
30
0.0000000000
10
19.9846659650
20
-10.4296923357
30
0.0000000000
10
20.0220752723
20
-10.3303271408
30
0.0000000000
10
20.0937246160
20
-10.1880475951
30
0.0000000000
10
20.1798524277
20
-10.0539369393
30
0.0000000000
10
20.2795472717
20
-9.9290761488
30
0.0000000000
10
20.3919071210
20
-9.8153369921
30
0.0000000000
10
20.5156057048
20
-9.7140665262
30
0.0000000000
10
20.6492137841
20
-9.6263988484
30
0.0000000000
10
20.7909376544
20
-9.5530614908
30
0.0000000000
10
20.9397157830
20
-9.4948368785
30
0.0000000000
10
21.0425555000
20
-9.4667873419
30
0.0000000000
10
21.0947510272
20
-9.4553999558
30
0.0000000000
11
19.9685032223
21
-10.4803369009
31
0.0000000000
11
20.0248089633
21
-10.3311235649
31
0.0000000000
11
20.0959815847
21
-10.1896730082
31
0.0000000000
11
20.1819807376
21
-10.0556691160
31
0.0000000000
11
20.2816951547
21
-9.9308903828
31
0.0000000000
11
20.3938032816
21
-9.8174077160
31
0.0000000000
11
20.5172133357
21
-9.7163670648
31
0.0000000000
11
20.6506963777
21
-9.6287136751
31
0.0000000000
11
20.7922450712
21
-9.5555149381
31
0.0000000000
11
20.9401599002
21
-9.4976846342
31
0.0000000000
11
21.0947510272
21
-9.4553999558
31
0.0000000000
0
SPLINE
5
27E
100
AcDbEntity
8
0
100
AcDbSpline
62
7
6
CONTINUOUS
70
0
71
3
72
19
73
15
74
13
42
0.0000001000
43
0.0000001000
44
0.0000000001
12
-0.5633394437
22
0.0000000000
32
0.0000000000
13
0.1712738170
23
0.5366717884
33
0.0000000000
40
0.0000000000
40
0.0000000000
40
0.0000000000
40
0.0000000000
40
0.0827993378
40
0.1649527718
40
0.2480003705
40
0.3313067059
40
0.4148776743
40
0.4984526687
40
0.5815876504
40
0.6648480249
40
0.7489196479
40
0.8330560069
40
0.9161683970
40
1.0000000000
40
1.0000000000
40
1.0000000000
40
1.0000000000
10
19.0993782915
20
-14.4903999556
30
0.0000000000
10
19.0838302472
20
-14.4903999556
30
0.0000000000
10
19.0528011205
20
-14.4879821143
30
0.0000000000
10
19.0073177279
20
-14.4771936048
30
0.0000000000
10
18.9639450716
20
-14.4594619284
30
0.0000000000
10
18.9236364345
20
-14.4350543150
30
0.0000000000
10
18.8875571029
20
-14.4045849882
30
0.0000000000
10
18.8567103234
20
-14.3688705851
30
0.0000000000
10
18.8318464743
20
-14.3288320206
30
0.0000000000
10
18.8134854413
20
-14.2853225876
30
0.0000000000
10
18.8021189648
20
-14.2392878649
30
0.0000000000
10
18.7981455145
20
-14.1920618520
30
0.0000000000
10
18.8016061152
20
-14.1448584986
30
0.0000000000
10
18.8087937992
20
-14.1141867267
30
0.0000000000
10
18.8135798520
20
-14.0991900412
30
0.0000000000
11
19.0993782915
21
-14.4903999556
31
0.0000000000
11
19.0528753201
21
-14.4867738301
31
0.0000000000
11
19.0078440077
21
-14.4760946783
31
0.0000000000
11
18.9645395510
21
-14.4583897194
31
0.0000000000
11
18.9243955073
21
-14.4340821757
31
0.0000000000
11
18.8884271379
21
-14.4037063307
31
0.0000000000
11
18.8576524814
21
-14.3680755906
31
0.0000000000
11
18.8329455326
21
-14.3282897056
31
0.0000000000
11
18.8147093292
21
-14.2850761392
31
0.0000000000
11
18.8033568532
21
-14.2390960080
31
0.0000000000
11
18.7993818768
21
-14.1918656531
31
0.0000000000
11
18.8028073792
21
-14.1451706427
31
0.0000000000
11
18.8135798520
21
-14.0991900412
31
0.0000000000
0
SPLINE
5
27F
100
AcDbEntity
8
0
100
AcDbSpline
62
7
6
CONTINUOUS
70
0
71
3
72
23
73
19
74
17
42
0.0000001000
43
0.0000001000
44
0.0000000001
12
0.9404820968
22
0.0000000000
32
0.0000000000
13
-0.9404820968
23
0.0000000001
33
0.0000000000
40
0.0000000000
40
0.0000000000
40
0.0000000000
40
0.0000000000
40
0.0552429345
40
0.1099518272
40
0.1654178550
40
0.2210618397
40
0.2768030530
40
0.3325430717
40
0.4432266690
40
0.5544625714
40
0.6102387219
40
0.6659474985
40
0.7214589757
40
0.7770318668
40
0.8330432369
40
0.8890408737
40
0.9442294919
40
1.0000000000
40
1.0000000000
40
1.0000000000
40
1.0000000000
10
20.0493782977
20
-13.8903999496
30
0.0000000000
10
20.0666966279
20
-13.8903999496
30
0.0000000000
10
20.1012409752
20
-13.8933999617
30
0.0000000000
10
20.1515986443
20
-13.9067593876
30
0.0000000000
10
20.1990458066
20
-13.9286434280
30
0.0000000000
10
20.2422394135
20
-13.9586090060
30
0.0000000000
10
20.2796286190
20
-13.9957080749
30
0.0000000000
10
20.3199750192
20
-14.0528446649
30
0.0000000000
10
20.3507772197
20
-14.1362815376
30
0.0000000000
10
20.3509498860
20
-14.2252578880
30
0.0000000000
10
20.3329090268
20
-14.2930177760
30
0.0000000000
10
20.3107464071
20
-14.3407546077
30
0.0000000000
10
20.2806674473
20
-14.3838463077
30
0.0000000000
10
20.2435020824
20
-14.4211396451
30
0.0000000000
10
20.2002794117
20
-14.4514766591
30
0.0000000000
10
20.1525218825
20
-14.4737354719
30
0.0000000000
10
20.1017243220
20
-14.4873432954
30
0.0000000000
10
20.0668620191
20
-14.4903999688
30
0.0000000000
10
20.0493782976
20
-14.4903999688
30
0.0000000000
11
20.0493782977
21
-13.8903999496
31
0.0000000000
11
20.1011381398
21
-13.8948988180
31
0.0000000000
11
20.1508713150
21
-13.9080895393
31
0.0000000000
11
20.1982399993
21
-13.9299384467
31
0.0000000000
11
20.2412370078
21
-13.9597698634
31
0.0000000000
11
20.2784551306
21
-13.9966893236
31
0.0000000000
11
20.3086776088
21
-14.0395229464
31
0.0000000000
11
20.3446262032
21
-14.1372146228
31
0.0000000000
11
20.3449370980
21
-14.2418295356
31
0.0000000000
11
20.3314605766
21
-14.2925253413
31
0.0000000000
11
20.3093913392
21
-14.3400436159
31
0.0000000000
11
20.2795111324
21
-14.3828548478
31
0.0000000000
11
20.2426170633
21
-14.4198749801
31
0.0000000000
11
20.1994995822
21
-14.4501375300
31
0.0000000000
11
20.1517656509
21
-14.4723872562
31
0.0000000000
11
20.1016286615
21
-14.4858147612
31
0.0000000000
11
20.0493782976
21
-14.4903999688
31
0.0000000000
0
SPLINE
5
280
100
AcDbEntity
8
0
100
AcDbSpline
62
7
6
CONTINUOUS
70
0
71
3
72
21
73
17
74
15
42
0.0000001000
43
0.0000001000
44
0.0000000001
12
-0.7070578229
22
2.2155014507
32
0.0000000000
13
-0.7070568002
23
-2.2155017771
33
0.0000000000
40
0.0000000000
40
0.0000000000
40
0.0000000000
40
0.0000000000
40
0.0417416600
40
0.0831762536
40
0.1665116822
40
0.2498569754
40
0.3332130498
40
0.4165830064
40
0.4999708693
40
0.5833812722
40
0.6667958556
40
0.7501839330
40
0.8335477590
40
0.9168917311
40
0.9583026105
40
1.0000000000
40
1.0000000000
40
1.0000000000
40
1.0000000000
10
22.2986563743
20
-10.6627563234
30
0.0000000000
10
22.2888184519
20
-10.6319300873
30
0.0000000000
10
22.2660334876
20
-10.5714522331
30
0.0000000000
10
22.2078060618
20
-10.4560458947
30
0.0000000000
10
22.1128876337
20
-10.3239944456
30
0.0000000000
10
21.9682465039
20
-10.1928588826
30
0.0000000000
10
21.7993793263
20
-10.0947563366
30
0.0000000000
10
21.6137140409
20
-10.0340962356
30
0.0000000000
10
21.4194295326
20
-10.0135564077
30
0.0000000000
10
21.2251070967
20
-10.0340767581
30
0.0000000000
10
21.0393645637
20
-10.0947550644
30
0.0000000000
10
20.8704384539
20
-10.1929062010
30
0.0000000000
10
20.7257790290
20
-10.3240913903
30
0.0000000000
10
20.6308811978
20
-10.4561610039
30
0.0000000000
10
20.5726890862
20
-10.5715332732
30
0.0000000000
10
20.5499275650
20
-10.6319632049
30
0.0000000000
10
20.5401000907
20
-10.6627567517
30
0.0000000000
11
22.2986563743
21
-10.6627563234
31
0.0000000000
11
22.2643624895
21
-10.5719416583
31
0.0000000000
11
22.2209943531
21
-10.4858925717
31
0.0000000000
11
22.1077925717
21
-10.3285857948
31
0.0000000000
11
21.9642192275
21
-10.1983719209
31
0.0000000000
11
21.7965945501
21
-10.1010033137
31
0.0000000000
11
21.6122980045
21
-10.0407872083
31
0.0000000000
11
21.4194464927
21
-10.0203999600
31
0.0000000000
11
21.2265404229
21
-10.0407697226
31
0.0000000000
11
21.0421431703
21
-10.1010117691
31
0.0000000000
11
20.8744602693
21
-10.1984283163
31
0.0000000000
11
20.7308715392
21
-10.3286893785
31
0.0000000000
11
20.6176835270
21
-10.4860305394
31
0.0000000000
11
20.5743517550
21
-10.5720361946
31
0.0000000000
11
20.5401000907
21
-10.6627567517
31
0.0000000000
0
SPLINE
5
281
100
AcDbEntity
8
0
100
AcDbSpline
62
7
6
CONTINUOUS
70
0
71
3
72
13
73
9
74
7
42
0.0000001000
43
0.0000001000
44
0.0000000001
12
0.1149618989
22
0.3598581415
32
0.0000000000
13
0.3777752245
23
0.0000000000
33
0.0000000000
40
0.0000000000
40
0.0000000000
40
0.0000000000
40
0.0000000000
40
0.1666852428
40
0.3335695158
40
0.5003312766
40
0.6669587565
40
0.8334566324
40
1.0000000000
40
1.0000000000
40
1.0000000000
40
1.0000000000
10
20.9182670866
20
-14.0991043920
30
0.0000000000
10
20.9246545706
20
-14.0791100448
30
0.0000000000
10
20.9417083490
20
-14.0403220599
30
0.0000000000
10
20.9788274101
20
-13.9888622580
30
0.0000000000
10
21.0258829903
20
-13.9462725012
30
0.0000000000
10
21.0807536341
20
-13.9144760126
30
0.0000000000
10
21.1409949742
20
-13.8948299878
30
0.0000000000
10
21.1830662070
20
-13.8903999496
30
0.0000000000
10
21.2040381931
20
-13.8903999496
30
0.0000000000
11
20.9182670866
21
-14.0991043920
31
0.0000000000
11
20.9436192290
21
-14.0414638357
31
0.0000000000
11
20.9804951649
21
-13.9903286711
31
0.0000000000
11
21.0272057585
21
-13.9480566163
31
0.0000000000
11
21.0816677061
21
-13.9164921834
31
0.0000000000
11
21.1414690906
21
-13.8969973124
31
0.0000000000
11
21.2040381931
21
-13.8903999496
31
0.0000000000
0
SPLINE
5
282
100
AcDbEntity
8
0
100
AcDbSpline
62
7
6
CONTINUOUS
70
0
71
3
72
23
73
19
74
17
42
0.0000001000
43
0.0000001000
44
0.0000000001
12
-0.2859400975
22
-0.8959687223
32
0.0000000000
13
0.2859400952
23
0.8959687231
33
0.0000000000
40
0.0000000000
40
0.0000000000
40
0.0000000000
40
0.0000000000
40
0.0555213786
40
0.1104209275
40
0.1660632988
40
0.2218071919
40
0.2774655611
40
0.3330548428
40
0.4434246672
40
0.5543328573
40
0.6099798351
40
0.6655959462
40
0.7210816742
40
0.7766710749
40
0.8327433081
40
0.8888267161
40
0.9441094061
40
1.0000000000
40
1.0000000000
40
1.0000000000
40
1.0000000000
10
21.1706962549
20
-15.2816088368
30
0.0000000000
10
21.1654043254
20
-15.2981906430
30
0.0000000000
10
21.1519718825
20
-15.3303205840
30
0.0000000000
10
21.1237721047
20
-15.3743726212
30
0.0000000000
10
21.0883299945
20
-15.4129683303
30
0.0000000000
10
21.0465309670
20
-15.4449532164
30
0.0000000000
10
20.9998045129
20
-15.4691698556
30
0.0000000000
10
20.9332324780
20
-15.4900592134
30
0.0000000000
10
20.8446396684
20
-15.4939240845
30
0.0000000000
10
20.7600709870
20
-15.4671070019
30
0.0000000000
10
20.7011265223
20
-15.4294494705
30
0.0000000000
10
20.6624109910
20
-15.3939131090
30
0.0000000000
10
20.6304753221
20
-15.3522189498
30
0.0000000000
10
20.6061845195
20
-15.3054879007
30
0.0000000000
10
20.5903563506
20
-15.2550543136
30
0.0000000000
10
20.5836187885
20
-15.2027190496
30
0.0000000000
10
20.5860759698
20
-15.1500919856
30
0.0000000000
10
20.5937719187
20
-15.1158821230
30
0.0000000000
10
20.5990990393
20
-15.0991900483
30
0.0000000000
11
21.1706962549
21
-15.2816088368
31
0.0000000000
11
21.1505515925
21
-15.3297839332
31
0.0000000000
11
21.1227169410
21
-15.3732712369
31
0.0000000000
11
21.0873207692
21
-15.4118154346
31
0.0000000000
11
21.0456842975
21
-15.4436737251
31
0.0000000000
11
20.9992121473
21
-15.4677664286
31
0.0000000000
11
20.9493233033
21
-15.4834004967
31
0.0000000000
11
20.8456155733
21
-15.4878170628
31
0.0000000000
11
20.7461546361
21
-15.4563894789
31
0.0000000000
11
20.7020404412
21
-15.4282303700
31
0.0000000000
11
20.6635108554
21
-15.3928548009
31
0.0000000000
11
20.6317773740
21
-15.3514285649
31
0.0000000000
11
20.6076651795
21
-15.3050396157
31
0.0000000000
11
20.5918745523
21
-15.2547238465
31
0.0000000000
11
20.5851379782
21
-15.2024099127
31
0.0000000000
11
20.5875661821
21
-15.1504738209
31
0.0000000000
11
20.5990990393
21
-15.0991900483
31
0.0000000000
0
SPLINE
5
283
100
AcDbEntity
8
0
100
AcDbSpline
62
7
6
CONTINUOUS
70
0
71
3
72
18
73
14
74
12
42
0.0000001000
43
0.0000001000
44
0.0000000001
12
0.1711855293
22
-0.5363951465
32
0.0000000000
13
-0.5630490553
23
-0.0000000000
33
0.0000000000
40
0.0000000000
40
0.0000000000
40
0.0000000000
40
0.0000000000
40
0.0831589773
40
0.1656851801
40
0.2491438471
40
0.3327699800
40
0.4993995726
40
0.5824719075
40
0.6656277051
40
0.7495340195
40
0.8334762491
40
0.9163924748
40
1.0000000000
40
1.0000000000
40
1.0000000000
40
1.0000000000
10
24.0251769403
20
-14.0991905948
30
0.0000000000
10
24.0299221448
20
-14.1140592854
30
0.0000000000
10
24.0370711886
20
-14.1444773710
30
0.0000000000
10
24.0405962744
20
-14.1912802957
30
0.0000000000
10
24.0367938181
20
-14.2381803528
30
0.0000000000
10
24.0220276524
20
-14.2992494840
30
0.0000000000
10
23.9929505595
20
-14.3560301237
30
0.0000000000
10
23.9521601850
20
-14.4036018711
30
0.0000000000
10
23.9162968349
20
-14.4342088931
30
0.0000000000
10
23.8759546910
20
-14.4589063237
30
0.0000000000
10
23.8322712042
20
-14.4769496359
30
0.0000000000
10
23.7863795752
20
-14.4879375615
30
0.0000000000
10
23.7550700217
20
-14.4903999688
30
0.0000000000
10
23.7393783091
20
-14.4903999688
30
0.0000000000
11
24.0251769403
21
-14.0991905948
31
0.0000000000
11
24.0358880997
21
-14.1447715712
31
0.0000000000
11
24.0393774863
21
-14.1911066687
31
0.0000000000
11
24.0355868317
21
-14.2379448522
31
0.0000000000
11
24.0244991850
21
-14.2837063998
31
0.0000000000
11
23.9817349996
21
-14.3672140997
31
0.0000000000
11
23.9513056358
21
-14.4027365174
31
0.0000000000
11
23.9156864462
21
-14.4331250023
31
0.0000000000
11
23.8753951331
21
-14.4577937313
31
0.0000000000
11
23.8317113993
21
-14.4758375289
31
0.0000000000
11
23.7863083322
21
-14.4867065212
31
0.0000000000
11
23.7393783091
21
-14.4903999688
31
0.0000000000
0
SPLINE
5
284
100
AcDbEntity
8
0
100
AcDbSpline
62
7
6
CONTINUOUS
70
0
71
3
72
17
73
13
74
11
42
0.0000001000
43
0.0000001000
44
0.0000000001
12
1.5573019754
22
-0.3397532269
32
0.0000000000
13
0.4846082657
23
-1.5184783590
33
0.0000000000
40
0.0000000000
40
0.0000000000
40
0.0000000000
40
0.0000000000
40
0.1005541815
40
0.2001968596
40
0.3001759896
40
0.4003650736
40
0.5004342500
40
0.6005217994
40
0.7007440352
40
0.8006445502
40
0.8999743533
40
1.0000000000
40
1.0000000000
40
1.0000000000
40
1.0000000000
10
21.7440055745
20
-9.4553999558
30
0.0000000000
10
21.7962033163
20
-9.4667878250
30
0.0000000000
10
21.8990470484
20
-9.4948386855
30
0.0000000000
10
22.0478302387
20
-9.5530663483
30
0.0000000000
10
22.1895578820
20
-9.6264076713
30
0.0000000000
10
22.3231693437
20
-9.7140800739
30
0.0000000000
10
22.4468733134
20
-9.8153569609
30
0.0000000000
10
22.5592396004
20
-9.9291088971
30
0.0000000000
10
22.6589372699
20
-10.0539855548
30
0.0000000000
10
22.7450623363
20
-10.1881008035
30
0.0000000000
10
22.8166971841
20
-10.3303643155
30
0.0000000000
10
22.8540956276
20
-10.4297079742
30
0.0000000000
10
22.8702533794
20
-10.4803369009
30
0.0000000000
11
21.7440055745
21
-9.4553999558
31
0.0000000000
11
21.8986031706
21
-9.4976867579
31
0.0000000000
11
22.0465230103
21
-9.5555201255
31
0.0000000000
11
22.1880751701
21
-9.6287225820
31
0.0000000000
11
22.3215611971
21
-9.7163802489
31
0.0000000000
11
22.4449751099
21
-9.8174267011
31
0.0000000000
11
22.5570893424
21
-9.9309217286
31
0.0000000000
11
22.6568113654
21
-10.0557207030
31
0.0000000000
11
22.7428103817
21
-10.1897351074
31
0.0000000000
11
22.8139679574
21
-10.3311685341
31
0.0000000000
11
22.8702533794
21
-10.4803369009
31
0.0000000000
0
SPLINE
5
285
100
AcDbEntity
8
0
100
AcDbSpline
62
7
6
CONTINUOUS
70
0
71
3
72
12
73
8
74
6
42
0.0000001000
43
0.0000001000
44
0.0000000001
12
0.0000000000
22
0.7819280802
32
0.0000000000
13
0.7819280802
23
0.0000000000
33
0.0000000000
40
0.0000000000
40
0.0000000000
40
0.0000000000
40
0.0000000000
40
0.1989642346
40
0.4001136540
40
0.5996050815
40
0.8011568557
40
1.0000000000
40
1.0000000000
40
1.0000000000
40
1.0000000000
10
10.4193783009
20
21.6447713817
30
0.0000000000
10
10.4193783009
20
21.6966299557
30
0.0000000000
10
10.4358612244
20
21.8016395957
30
0.0000000000
10
10.5078799015
20
21.9431712464
30
0.0000000000
10
10.6206981870
20
22.0560409264
30
0.0000000000
10
10.7622984659
20
22.1281166943
30
0.0000000000
10
10.8673799507
20
22.1446000442
30
0.0000000000
10
10.9192069633
20
22.1446000442
30
0.0000000000
11
10.4193783009
21
21.6447713817
31
0.0000000000
11
10.4435789187
21
21.7984533109
31
0.0000000000
11
10.5148692346
21
21.9386534066
31
0.0000000000
11
10.6251447837
21
22.0489781250
31
0.0000000000
11
10.7656162478
21
22.1204288775
31
0.0000000000
11
10.9192069633
21
22.1446000442
31
0.0000000000
0
SPLINE
5
286
100
AcDbEntity
8
0
100
AcDbSpline
62
7
6
CONTINUOUS
70
0
71
3
72
12
73
8
74
6
42
0.0000001000
43
0.0000001000
44
0.0000000001
12
0.7819280802
22
0.0000000000
32
0.0000000000
13
0.0000000000
23
-0.7819280802
33
0.0000000000
40
0.0000000000
40
0.0000000000
40
0.0000000000
40
0.0000000000
40
0.1988431443
40
0.4003949185
40
0.5998863460
40
0.8010357654
40
1.0000000000
40
1.0000000000
40
1.0000000000
40
1.0000000000
10
31.9195496384
20
22.1446000442
30
0.0000000000
10
31.9713766510
20
22.1446000442
30
0.0000000000
10
32.0764581358
20
22.1281166943
30
0.0000000000
10
32.2180584147
20
22.0560409264
30
0.0000000000
10
32.3308767002
20
21.9431712464
30
0.0000000000
10
32.4028953773
20
21.8016395957
30
0.0000000000
10
32.4193783009
20
21.6966299557
30
0.0000000000
10
32.4193783009
20
21.6447713817
30
0.0000000000
11
31.9195496384
21
22.1446000442
31
0.0000000000
11
32.0731403539
21
22.1204288775
31
0.0000000000
11
32.2136118180
21
22.0489781250
31
0.0000000000
11
32.3238873671
21
21.9386534066
31
0.0000000000
11
32.3951776830
21
21.7984533109
31
0.0000000000
11
32.4193783009
21
21.6447713817
31
0.0000000000
0
SPLINE
5
287
100
AcDbEntity
8
0
100
AcDbSpline
62
7
6
CONTINUOUS
70
0
71
3
72
12
73
8
74
6
42
0.0000001000
43
0.0000001000
44
0.0000000001
12
0.0000000000
22
-0.7819280802
32
0.0000000000
13
-0.7819280802
23
0.0000000000
33
0.0000000000
40
0.0000000000
40
0.0000000000
40
0.0000000000
40
0.0000000000
40
0.1989642346
40
0.4001136540
40
0.5996050815
40
0.8011568557
40
1.0000000000
40
1.0000000000
40
1.0000000000
40
1.0000000000
10
32.4193783009
20
-21.5555712933
30
0.0000000000
10
32.4193783009
20
-21.6074298673
30
0.0000000000
10
32.4028953773
20
-21.7124395074
30
0.0000000000
10
32.3308767002
20
-21.8539711581
30
0.0000000000
10
32.2180584147
20
-21.9668408381
30
0.0000000000
10
32.0764581358
20
-22.0389166059
30
0.0000000000
10
31.9713766510
20
-22.0553999558
30
0.0000000000
10
31.9195496384
20
-22.0553999558
30
0.0000000000
11
32.4193783009
21
-21.5555712933
31
0.0000000000
11
32.3951776830
21
-21.7092532225
31
0.0000000000
11
32.3238873671
21
-21.8494533183
31
0.0000000000
11
32.2136118180
21
-21.9597780367
31
0.0000000000
11
32.0731403539
21
-22.0312287892
31
0.0000000000
11
31.9195496384
21
-22.0553999558
31
0.0000000000
0
SPLINE
5
288
100
AcDbEntity
8
0
100
AcDbSpline
62
7
6
CONTINUOUS
70
0
71
3
72
10
73
6
74
4
42
0.0000001000
43
0.0000001000
44
0.0000000001
12
1.0300724640
22
-3.2276436263
32
0.0000000000
13
1.0300724640
23
-3.2276436263
33
0.0000000000
40
0.0000000000
40
0.0000000000
40
0.0000000000
40
0.0000000000
40
0.3335354641
40
0.6668854323
40
1.0000000000
40
1.0000000000
40
1.0000000000
40
1.0000000000
10
22.2986563743
20
-10.6627563234
30
0.0000000000
10
22.4131782734
20
-11.0216008617
30
0.0000000000
10
22.6421584214
20
-11.7390903536
30
0.0000000000
10
22.9855159095
20
-12.8149715623
30
0.0000000000
10
23.2143514571
20
-13.5320082459
30
0.0000000000
10
23.3287288383
20
-13.8903999496
30
0.0000000000
11
22.2986563743
21
-10.6627563234
31
0.0000000000
11
22.6422221025
21
-11.7392899283
31
0.0000000000
11
22.9855967257
21
-12.8152248286
31
0.0000000000
11
23.3287288383
21
-13.8903999496
31
0.0000000000
0
SPLINE
5
289
100
AcDbEntity
8
0
100
AcDbSpline
62
7
6
CONTINUOUS
70
0
71
3
72
10
73
6
74
4
42
0.0000001000
43
0.0000001000
44
0.0000000001
12
-0.3191680473
22
-1.0000856563
32
0.0000000000
13
-0.3191680473
23
-1.0000856563
33
0.0000000000
40
0.0000000000
40
0.0000000000
40
0.0000000000
40
0.0000000000
40
0.3334314675
40
0.6667663992
40
1.0000000000
40
1.0000000000
40
1.0000000000
40
1.0000000000
10
20.9182670866
20
-14.0991043920
30
0.0000000000
10
20.8827935298
20
-14.2102577347
30
0.0000000000
10
20.8118566828
20
-14.4325322375
30
0.0000000000
10
20.7054673407
20
-14.7658941251
30
0.0000000000
10
20.6345515452
20
-14.9881026668
30
0.0000000000
10
20.5990990393
20
-15.0991900483
30
0.0000000000
11
20.9182670866
21
-14.0991043920
31
0.0000000000
11
20.8118464145
21
-14.4325644195
31
0.0000000000
11
20.7054565582
21
-14.7659279044
31
0.0000000000
11
20.5990990393
21
-15.0991900483
31
0.0000000000
0
SPLINE
5
28A
100
AcDbEntity
8
0
100
AcDbSpline
62
7
6
CONTINUOUS
70
0
71
3
72
10
73
6
74
4
42
0.0000001000
43
0.0000001000
44
0.0000000001
12
-0.2525069632
22
-0.7912088656
32
0.0000000000
13
-0.2525069632
23
-0.7912088656
33
0.0000000000
40
0.0000000000
40
0.0000000000
40
0.0000000000
40
0.0000000000
40
0.3334143879
40
0.6667487156
40
1.0000000000
40
1.0000000000
40
1.0000000000
40
1.0000000000
10
21.4232032107
20
-14.4903999688
30
0.0000000000
10
21.3951400591
20
-14.5783334421
30
0.0000000000
10
21.3390204987
20
-14.7541792750
30
0.0000000000
10
21.2548515024
20
-15.0179155608
30
0.0000000000
10
21.1987456707
20
-15.1937183775
30
0.0000000000
10
21.1706962475
20
-15.2816088344
30
0.0000000000
11
21.4232032107
21
-14.4903999688
31
0.0000000000
11
21.3390137577
21
-14.7542003890
31
0.0000000000
11
21.2548445153
21
-15.0179374631
31
0.0000000000
11
21.1706962475
21
-15.2816088344
31
0.0000000000
0
SPLINE
5
28B
100
AcDbEntity
8
0
100
AcDbSpline
62
7
6
CONTINUOUS
70
0
71
3
72
10
73
6
74
4
42
0.0000001000
43
0.0000001000
44
0.0000000001
12
1.1549235483
22
-3.6188536980
32
0.0000000000
13
1.1549235483
23
-3.6188536980
33
0.0000000000
40
0.0000000000
40
0.0000000000
40
0.0000000000
40
0.0000000000
40
0.3335595354
40
0.6669137848
40
1.0000000000
40
1.0000000000
40
1.0000000000
40
1.0000000000
10
22.8702533794
20
-10.4803369009
30
0.0000000000
10
22.9986653001
20
-10.8827046203
30
0.0000000000
10
23.2554101117
20
-11.6871924257
30
0.0000000000
10
23.6403846278
20
-12.8934769917
30
0.0000000000
10
23.8969472231
20
-13.6973938384
30
0.0000000000
10
24.0251769276
20
-14.0991905989
30
0.0000000000
11
22.8702533794
21
-10.4803369009
31
0.0000000000
11
23.2554891415
21
-11.6874400591
31
0.0000000000
11
23.6404878141
21
-12.8938003173
31
0.0000000000
11
24.0251769276
21
-14.0991905989
31
0.0000000000
0
SPLINE
5
28C
100
AcDbEntity
8
0
100
AcDbSpline
62
7
6
CONTINUOUS
70
0
71
3
72
10
73
6
74
4
42
0.0000001000
43
0.0000001000
44
0.0000000001
12
-1.1549233703
22
-3.6188531403
32
0.0000000000
13
-1.1549233703
23
-3.6188531403
33
0.0000000000
40
0.0000000000
40
0.0000000000
40
0.0000000000
40
0.0000000000
40
0.3335595286
40
0.6669138070
40
1.0000000000
40
1.0000000000
40
1.0000000000
40
1.0000000000
10
19.9685032223
20
-10.4803369009
30
0.0000000000
10
19.8400913240
20
-10.8827045500
30
0.0000000000
10
19.5833466084
20
-11.6871922790
30
0.0000000000
10
19.1983721517
20
-12.8934766591
30
0.0000000000
10
18.9418095283
20
-13.6973933694
30
0.0000000000
10
18.8135798520
20
-14.0991900412
30
0.0000000000
11
19.9685032223
21
-10.4803369009
31
0.0000000000
11
19.5832675761
21
-11.6874398638
31
0.0000000000
11
19.1982689294
21
-12.8938000412
31
0.0000000000
11
18.8135798520
21
-14.0991900412
31
0.0000000000
0
SPLINE
5
28D
100
AcDbEntity
8
0
100
AcDbSpline
62
7
6
CONTINUOUS
70
0
71
3
72
10
73
6
74
4
42
0.0000001000
43
0.0000001000
44
0.0000000001
12
-1.0300723272
22
-3.2276431979
32
0.0000000000
13
-1.0300723272
23
-3.2276431979
33
0.0000000000
40
0.0000000000
40
0.0000000000
40
0.0000000000
40
0.0000000000
40
0.3335354641
40
0.6668854323
40
1.0000000000
40
1.0000000000
40
1.0000000000
40
1.0000000000
10
20.5401000907
20
-10.6627567517
30
0.0000000000
10
20.4255782068
20
-11.0216012424
30
0.0000000000
10
20.1965980892
20
-11.7390906390
30
0.0000000000
10
19.8532406467
20
-12.8149717050
30
0.0000000000
10
19.6244051294
20
-13.5320082935
30
0.0000000000
10
19.5100277635
20
-13.8903999496
30
0.0000000000
11
20.5401000907
21
-10.6627567517
31
0.0000000000
11
20.1965344081
21
-11.7392902138
31
0.0000000000
11
19.8531598305
21
-12.8152249713
31
0.0000000000
11
19.5100277635
21
-13.8903999496
31
0.0000000000
0
SPLINE
5
28E
100
AcDbEntity
8
0
100
AcDbSpline
62
9
6
CONTINUOUS
70
0
71
3
72
12
73
8
74
6
42
0.0000001000
43
0.0000001000
44
0.0000000001
12
-0.0005356740
22
0.7817393693
32
0.0000000000
13
-0.7817393693
23
0.0005356738
33
0.0000000000
40
0.0000000000
40
0.0000000000
40
0.0000000000
40
0.0000000000
40
0.1999736080
40
0.3999832680
40
0.6000077002
40
0.8000204730
40
1.0000000000
40
1.0000000000
40
1.0000000000
40
1.0000000000
10
32.3155020059
20
21.5408950867
30
0.0000000000
10
32.3154662990
20
21.5930041674
30
0.0000000000
10
32.2988233092
20
21.6979532493
30
0.0000000000
10
32.2266263944
20
21.8394174878
30
0.0000000000
10
32.1142010420
20
21.9518444478
30
0.0000000000
10
31.9727354657
20
22.0240441666
30
0.0000000000
10
31.8677839666
20
22.0406880414
30
0.0000000000
10
31.8156733435
20
22.0407237493
30
0.0000000000
11
32.3155020059
21
21.5408950867
31
0.0000000000
11
32.2909548143
21
21.6952830834
31
0.0000000000
11
32.2199246651
21
21.8345732426
31
0.0000000000
11
32.1093572818
21
21.9451422057
31
0.0000000000
11
31.9700657949
21
22.0161751079
31
0.0000000000
11
31.8156733435
21
22.0407237493
31
0.0000000000
0
SPLINE
5
28F
100
AcDbEntity
8
0
100
AcDbSpline
62
9
6
CONTINUOUS
70
0
71
3
72
13
73
9
74
7
42
0.0000001000
43
0.0000001000
44
0.0000000001
12
-0.3796923374
22
-0.7621542457
32
0.0000000000
13
-0.0016804737
23
-0.8514942990
33
0.0000000000
40
0.0000000000
40
0.0000000000
40
0.0000000000
40
0.0000000000
40
0.0388725513
40
0.1387983363
40
0.2944572532
40
0.4974831491
40
0.7369649088
40
1.0000000000
40
1.0000000000
40
1.0000000000
40
1.0000000000
10
31.8156733434
20
22.0407237492
30
0.0000000000
10
31.8107534734
20
22.0308481225
30
0.0000000000
10
31.8153545497
20
21.9891763280
30
0.0000000000
10
31.8071232646
20
21.9076508204
30
0.0000000000
10
31.8078865912
20
21.7764503499
30
0.0000000000
10
31.8047638460
20
21.6071034707
30
0.0000000000
10
31.8038158747
20
21.4067035984
30
0.0000000000
10
31.8032154054
20
21.2641113138
30
0.0000000000
10
31.8030680642
20
21.1894536869
30
0.0000000000
11
31.8156733434
21
22.0407237492
31
0.0000000000
11
31.8126654505
21
22.0077608809
31
0.0000000000
11
31.8098383678
21
21.9227214583
31
0.0000000000
11
31.8073426626
21
21.7902020183
31
0.0000000000
11
31.8053152995
21
21.6173381768
31
0.0000000000
11
31.8038644899
21
21.4134255877
31
0.0000000000
11
31.8030680642
21
21.1894536869
31
0.0000000000
0
SPLINE
5
290
100
AcDbEntity
8
0
100
AcDbSpline
62
9
6
CONTINUOUS
70
0
71
3
72
13
73
9
74
7
42
0.0000001000
43
0.0000001000
44
0.0000000001
12
-0.2997424153
22
-0.3028255586
32
0.0000000000
13
-0.0016755606
23
-0.4260821833
33
0.0000000000
40
0.0000000000
40
0.0000000000
40
0.0000000000
40
0.0000000000
40
0.0390197423
40
0.1390731722
40
0.2951123908
40
0.4985496587
40
0.7383213292
40
1.0000000000
40
1.0000000000
40
1.0000000000
40
1.0000000000
10
32.3155020059
20
21.5408950867
30
0.0000000000
10
32.3116033820
20
21.5369563616
30
0.0000000000
10
32.3139591143
20
21.5142353380
30
0.0000000000
10
32.3076654597
20
21.4750452672
30
0.0000000000
10
32.3074141456
20
21.4084307671
30
0.0000000000
10
32.3046946321
20
21.3238965921
30
0.0000000000
10
32.3036060091
20
21.2235956419
30
0.0000000000
10
32.3030428795
20
21.1524255954
30
0.0000000000
10
32.3028967267
20
21.1152600556
30
0.0000000000
11
32.3155020059
21
21.5408950867
31
0.0000000000
11
32.3125063598
21
21.5245414474
31
0.0000000000
11
32.3096716983
21
21.4820044801
31
0.0000000000
11
32.3071697256
21
21.4155655283
31
0.0000000000
11
32.3051390870
21
21.3289076513
31
0.0000000000
11
32.3036881538
21
21.2267547282
31
0.0000000000
11
32.3028967267
21
21.1152600556
31
0.0000000000
0
SPLINE
5
291
100
AcDbEntity
8
0
100
AcDbSpline
62
9
6
CONTINUOUS
70
0
71
3
72
12
73
8
74
6
42
0.0000001000
43
0.0000001000
44
0.0000000001
12
-0.0880309235
22
0.5047725038
32
0.0000000000
13
-0.5123873998
23
0.0019689281
33
0.0000000000
40
0.0000000000
40
0.0000000000
40
0.0000000000
40
0.0000000000
40
0.0695900728
40
0.2162777711
40
0.4337158988
40
0.7031599859
40
1.0000000000
40
1.0000000000
40
1.0000000000
40
1.0000000000
10
32.3028967267
20
21.1152600556
30
0.0000000000
10
32.3008547006
20
21.1269691073
30
0.0000000000
10
32.2598811565
20
21.1455406711
30
0.0000000000
10
32.1932797044
20
21.1616445343
30
0.0000000000
10
32.0832882148
20
21.1770514337
30
0.0000000000
10
31.9507559751
20
21.1866864755
30
0.0000000000
10
31.8537670919
20
21.1892588647
30
0.0000000000
10
31.8030680642
20
21.1894536835
30
0.0000000000
11
32.3028967267
21
21.1152600556
31
0.0000000000
11
32.2752908010
21
21.1378290330
31
0.0000000000
11
32.2029595785
21
21.1582604503
31
0.0000000000
11
32.0927537149
21
21.1746192013
31
0.0000000000
11
31.9551110598
21
21.1853559112
31
0.0000000000
11
31.8030680642
21
21.1894536835
31
0.0000000000
0
SPLINE
5
292
100
AcDbEntity
8
0
100
AcDbSpline
62
9
6
CONTINUOUS
70
0
71
3
72
10
73
6
74
4
42
0.0000001000
43
0.0000001000
44
0.0000000001
12
-0.0454999059
22
-11.6447977340
32
0.0000000000
13
-0.0057627156
23
-11.6448851991
33
0.0000000000
40
0.0000000000
40
0.0000000000
40
0.0000000000
40
0.0000000000
40
0.3320148739
40
0.6655565445
40
1.0000000000
40
1.0000000000
40
1.0000000000
40
1.0000000000
10
31.8030680642
20
21.1894536869
30
0.0000000000
10
31.7980325157
20
19.9007050031
30
0.0000000000
10
31.7894314784
20
17.3172751405
30
0.0000000000
10
31.7809319595
20
13.4356548221
30
0.0000000000
10
31.7781878994
20
10.8427852592
30
0.0000000000
10
31.7775454652
20
9.5446000442
30
0.0000000000
11
31.8030680642
21
21.1894536869
31
0.0000000000
11
31.7901838680
21
17.3231995903
31
0.0000000000
11
31.7816710185
21
13.4391539809
31
0.0000000000
11
31.7775454652
21
9.5446000442
31
0.0000000000
0
SPLINE
5
293
100
AcDbEntity
8
0
100
AcDbSpline
62
9
6
CONTINUOUS
70
0
71
3
72
10
73
6
74
4
42
0.0000001000
43
0.0000001000
44
0.0000000001
12
-0.0454999019
22
-11.5801037904
32
0.0000000000
13
-0.0057627160
23
-11.5801917440
33
0.0000000000
40
0.0000000000
40
0.0000000000
40
0.0000000000
40
0.0000000000
40
0.3320136292
40
0.6655603889
40
1.0000000000
40
1.0000000000
40
1.0000000000
40
1.0000000000
10
32.3028967267
20
21.1152600556
30
0.0000000000
10
32.2978611975
20
19.8336759601
30
0.0000000000
10
32.2892601049
20
17.2645837164
30
0.0000000000
10
32.2807606031
20
13.4045279281
30
0.0000000000
10
32.2780165546
20
10.8260583185
30
0.0000000000
10
32.2773741277
20
9.5351000442
30
0.0000000000
11
32.3028967267
21
21.1152600556
31
0.0000000000
11
32.2900125708
21
17.2704996792
31
0.0000000000
11
32.2814996084
21
13.4079731494
31
0.0000000000
11
32.2773741277
21
9.5351000442
31
0.0000000000
0
SPLINE
5
294
100
AcDbEntity
8
0
100
AcDbSpline
62
9
6
CONTINUOUS
70
0
71
3
72
12
73
8
74
6
42
0.0000001000
43
0.0000001000
44
0.0000000001
12
-0.4046164634
22
0.2938362490
32
0.0000000000
13
-0.5000541589
23
0.0002487483
33
0.0000000000
40
0.0000000000
40
0.0000000000
40
0.0000000000
40
0.0000000000
40
0.0555750125
40
0.2003450937
40
0.4207646181
40
0.6959972273
40
1.0000000000
40
1.0000000000
40
1.0000000000
40
1.0000000000
10
32.2773741277
20
9.5351000442
30
0.0000000000
10
32.2698786060
20
9.5405433619
30
0.0000000000
10
32.2328520800
20
9.5344968298
30
0.0000000000
10
32.1659425021
20
9.5436481717
30
0.0000000000
10
32.0575906976
20
9.5419795517
30
0.0000000000
10
31.9249284713
20
9.5446056240
30
0.0000000000
10
31.8282180822
20
9.5445748374
30
0.0000000000
10
31.7775454652
20
9.5446000442
30
0.0000000000
11
32.2773741277
21
9.5351000442
31
0.0000000000
11
32.2497342136
21
9.5379893565
31
0.0000000000
11
32.1773885963
21
9.5406051157
31
0.0000000000
11
32.0671867860
21
9.5426996679
31
0.0000000000
11
31.9295624271
21
9.5440747058
31
0.0000000000
11
31.7775454652
21
9.5446000442
31
0.0000000000
0
SPLINE
5
295
100
AcDbEntity
8
0
100
AcDbSpline
62
9
6
CONTINUOUS
70
0
71
3
72
10
73
6
74
4
42
0.0000001000
43
0.0000001000
44
0.0000000001
12
-0.0094453649
22
-18.9809983461
32
0.0000000000
13
0.0094453641
23
-18.9809983461
33
0.0000000000
40
0.0000000000
40
0.0000000000
40
0.0000000000
40
0.0000000000
40
0.3333304354
40
0.6666697976
40
1.0000000000
40
1.0000000000
40
1.0000000000
40
1.0000000000
10
32.2773741277
20
9.5351000442
30
0.0000000000
10
32.2763246519
20
7.4261185632
30
0.0000000000
10
32.2749255491
20
3.2080987382
30
0.0000000000
10
32.2749255497
20
-3.1189015983
30
0.0000000000
10
32.2763246527
20
-7.3369199490
30
0.0000000000
10
32.2773741277
20
-9.4458999558
30
0.0000000000
11
32.2773741277
21
9.5351000442
31
0.0000000000
11
32.2752753342
21
3.2081551659
31
0.0000000000
11
32.2752753349
21
-3.1189595002
31
0.0000000000
11
32.2773741277
21
-9.4458999558
31
0.0000000000
0
SPLINE
5
296
100
AcDbEntity
8
0
100
AcDbSpline
62
9
6
CONTINUOUS
70
0
71
3
72
12
73
8
74
6
42
0.0000001000
43
0.0000001000
44
0.0000000001
12
-0.4046167021
22
-0.2938359202
32
0.0000000000
13
-0.5000541588
23
-0.0002487483
33
0.0000000000
40
0.0000000000
40
0.0000000000
40
0.0000000000
40
0.0000000000
40
0.0555750231
40
0.2003451089
40
0.4207646321
40
0.6959972355
40
1.0000000000
40
1.0000000000
40
1.0000000000
40
1.0000000000
10
32.2773741277
20
-9.4458999558
30
0.0000000000
10
32.2698786002
20
-9.4513432685
30
0.0000000000
10
32.2328520810
20
-9.4452967480
30
0.0000000000
10
32.1659424923
20
-9.4544480791
30
0.0000000000
10
32.0575906927
20
-9.4527794646
30
0.0000000000
10
31.9249284672
20
-9.4554055347
30
0.0000000000
10
31.8282180808
20
-9.4553747487
30
0.0000000000
10
31.7775454652
20
-9.4553999554
30
0.0000000000
11
32.2773741277
21
-9.4458999558
31
0.0000000000
11
32.2497342083
21
-9.4487892681
31
0.0000000000
11
32.1773885887
21
-9.4514050272
31
0.0000000000
11
32.0671867790
21
-9.4534995792
31
0.0000000000
11
31.9295624230
21
-9.4548746170
31
0.0000000000
11
31.7775454652
21
-9.4553999554
31
0.0000000000
0
SPLINE
5
297
100
AcDbEntity
8
0
100
AcDbSpline
62
9
6
CONTINUOUS
70
0
71
3
72
10
73
6
74
4
42
0.0000001000
43
0.0000001000
44
0.0000000001
12
0.0057626864
22
-11.6448851991
32
0.0000000000
13
0.0454998764
23
-11.6447977342
33
0.0000000000
40
0.0000000000
40
0.0000000000
40
0.0000000000
40
0.0000000000
40
0.3344434545
40
0.6679851250
40
1.0000000000
40
1.0000000000
40
1.0000000000
40
1.0000000000
10
31.7775454652
20
-9.4553999558
30
0.0000000000
10
31.7781878961
20
-10.7535851667
30
0.0000000000
10
31.7809319637
20
-13.3464547257
30
0.0000000000
10
31.7894314742
20
-17.2280750440
30
0.0000000000
10
31.7980325190
20
-19.8115049107
30
0.0000000000
10
31.8030680642
20
-21.1002535986
30
0.0000000000
11
31.7775454652
21
-9.4553999558
31
0.0000000000
11
31.7816710194
21
-13.3499538803
31
0.0000000000
11
31.7901838670
21
-17.2339994899
31
0.0000000000
11
31.8030680642
21
-21.1002535986
31
0.0000000000
0
SPLINE
5
298
100
AcDbEntity
8
0
100
AcDbSpline
62
9
6
CONTINUOUS
70
0
71
3
72
10
73
6
74
4
42
0.0000001000
43
0.0000001000
44
0.0000000001
12
0.0057626871
22
-11.5801917440
32
0.0000000000
13
0.0454998724
23
-11.5801037905
33
0.0000000000
40
0.0000000000
40
0.0000000000
40
0.0000000000
40
0.0000000000
40
0.3344421867
40
0.6679889375
40
1.0000000000
40
1.0000000000
40
1.0000000000
40
1.0000000000
10
32.2773741277
20
-9.4458999558
30
0.0000000000
10
32.2780165563
20
-10.7368681723
30
0.0000000000
10
32.2807606340
20
-13.3153476898
30
0.0000000000
10
32.2892601613
20
-17.1754034780
30
0.0000000000
10
32.2978612397
20
-19.7444857796
30
0.0000000000
10
32.3028967267
20
-21.0260599672
30
0.0000000000
11
32.2773741277
21
-9.4458999558
31
0.0000000000
11
32.2814996581
21
-13.3188028873
31
0.0000000000
11
32.2900126524
21
-17.1813293146
31
0.0000000000
11
32.3028967267
21
-21.0260599672
31
0.0000000000
0
SPLINE
5
299
100
AcDbEntity
8
0
100
AcDbSpline
62
9
6
CONTINUOUS
70
0
71
3
72
12
73
8
74
6
42
0.0000001000
43
0.0000001000
44
0.0000000001
12
-0.0881016699
22
-0.5047587663
32
0.0000000000
13
-0.5123860265
23
-0.0019688162
33
0.0000000000
40
0.0000000000
40
0.0000000000
40
0.0000000000
40
0.0000000000
40
0.0695932116
40
0.2162829382
40
0.4337209015
40
0.7031630023
40
1.0000000000
40
1.0000000000
40
1.0000000000
40
1.0000000000
10
32.3028967266
20
-21.0260599672
30
0.0000000000
10
32.3008529672
20
-21.0377692285
30
0.0000000000
10
32.2598791568
20
-21.0563386433
30
0.0000000000
10
32.1932761844
20
-21.0724432227
30
0.0000000000
10
32.0832853498
20
-21.0878489906
30
0.0000000000
10
31.9507541669
20
-21.0974838790
30
0.0000000000
10
31.8537664408
20
-21.1000561011
30
0.0000000000
10
31.8030680642
20
-21.1002509069
30
0.0000000000
11
32.3028967266
21
-21.0260599672
31
0.0000000000
11
32.2752882776
21
-21.0486282481
31
0.0000000000
11
32.2029559794
21
-21.0690589390
31
0.0000000000
11
32.0927504084
21
-21.0854170535
31
0.0000000000
11
31.9551091107
21
-21.0961533184
31
0.0000000000
11
31.8030680642
21
-21.1002509069
31
0.0000000000
0
SPLINE
5
29A
100
AcDbEntity
8
0
100
AcDbSpline
62
9
6
CONTINUOUS
70
0
71
3
72
13
73
9
74
7
42
0.0000001000
43
0.0000001000
44
0.0000000001
12
0.0016819683
22
-0.8514942721
32
0.0000000000
13
0.3807545426
23
-0.7616241217
33
0.0000000000
40
0.0000000000
40
0.0000000000
40
0.0000000000
40
0.0000000000
40
0.2630350555
40
0.5025192833
40
0.7055455881
40
0.8612032943
40
0.9611275735
40
1.0000000000
40
1.0000000000
40
1.0000000000
40
1.0000000000
10
31.8030680642
20
-21.1002535986
30
0.0000000000
10
31.8032155364
20
-21.1749112130
30
0.0000000000
10
31.8038164575
20
-21.3175039350
30
0.0000000000
10
31.8047619099
20
-21.5179055965
30
0.0000000000
10
31.8078921233
20
-21.6872501383
30
0.0000000000
10
31.8071137372
20
-21.8184568812
30
0.0000000000
10
31.8153718392
20
-21.8999683064
30
0.0000000000
10
31.8107397257
20
-21.9416549350
30
0.0000000000
10
31.8156733434
20
-21.9515236609
30
0.0000000000
11
31.8030680642
21
-21.1002535986
31
0.0000000000
11
31.8038644754
21
-21.3242254627
31
0.0000000000
11
31.8053153226
21
-21.5281401475
31
0.0000000000
11
31.8073435812
21
-21.7010043217
31
0.0000000000
11
31.8098387686
21
-21.8335227367
31
0.0000000000
11
31.8126656731
21
-21.9185608800
31
0.0000000000
11
31.8156733434
21
-21.9515236609
31
0.0000000000
0
SPLINE
5
29B
100
AcDbEntity
8
0
100
AcDbSpline
62
9
6
CONTINUOUS
70
0
71
3
72
13
73
9
74
7
42
0.0000001000
43
0.0000001000
44
0.0000000001
12
0.0016772184
22
-0.4260821901
32
0.0000000000
13
0.3005743993
23
-0.3019997952
33
0.0000000000
40
0.0000000000
40
0.0000000000
40
0.0000000000
40
0.0000000000
40
0.2617524984
40
0.5016906932
40
0.7052114102
40
0.8610580472
40
0.9609980989
40
1.0000000000
40
1.0000000000
40
1.0000000000
40
1.0000000000
10
32.3028967267
20
-21.0260599672
30
0.0000000000
10
32.3030430654
20
-21.0632359932
30
0.0000000000
10
32.3036067086
20
-21.1344397557
30
0.0000000000
10
32.3046945660
20
-21.2347884238
30
0.0000000000
10
32.3074201142
20
-21.3193261219
30
0.0000000000
10
32.3076634601
20
-21.3859183885
30
0.0000000000
10
32.3139712572
20
-21.4250452816
30
0.0000000000
10
32.3115943482
20
-21.4477688097
30
0.0000000000
10
32.3155020059
20
-21.4516949984
30
0.0000000000
11
32.3028967267
21
-21.0260599672
31
0.0000000000
11
32.3036884533
21
-21.1375860989
31
0.0000000000
11
32.3051408880
21
-21.2398099646
31
0.0000000000
11
32.3071738099
21
-21.3265033570
31
0.0000000000
11
32.3096745861
21
-21.3928602415
31
0.0000000000
11
32.3125072206
21
-21.4353489292
31
0.0000000000
11
32.3155020059
21
-21.4516949984
31
0.0000000000
0
SPLINE
5
29C
100
AcDbEntity
8
0
100
AcDbSpline
62
9
6
CONTINUOUS
70
0
71
3
72
12
73
8
74
6
42
0.0000001000
43
0.0000001000
44
0.0000000001
12
-0.0005356733
22
-0.7817393695
32
0.0000000000
13
-0.7817393695
23
-0.0005356730
33
0.0000000000
40
0.0000000000
40
0.0000000000
40
0.0000000000
40
0.0000000000
40
0.1999768524
40
0.3999879276
40
0.6000120716
40
0.8000231471
40
1.0000000000
40
1.0000000000
40
1.0000000000
40
1.0000000000
10
32.3155020059
20
-21.4516949984
30
0.0000000000
10
32.3154662985
20
-21.5038049246
30
0.0000000000
10
32.2988228354
20
-21.6087552556
30
0.0000000000
10
32.2266244894
20
-21.7502201001
30
0.0000000000
10
32.1141984456
20
-21.8626461441
30
0.0000000000
10
31.9727336010
20
-21.9348444904
30
0.0000000000
10
31.8677832697
20
-21.9514879535
30
0.0000000000
10
31.8156733434
20
-21.9515236609
30
0.0000000000
11
32.3155020059
21
-21.4516949984
31
0.0000000000
11
32.2909540197
21
-21.6060854369
31
0.0000000000
11
32.2199224970
21
-21.7453761376
31
0.0000000000
11
32.1093544831
21
-21.8559441517
31
0.0000000000
11
31.9700637823
21
-21.9269756746
31
0.0000000000
11
31.8156733434
21
-21.9515236609
31
0.0000000000
0
SPLINE
5
29D
100
AcDbEntity
8
0
100
AcDbSpline
62
9
6
CONTINUOUS
70
0
71
3
72
12
73
8
74
6
42
0.0000001000
43
0.0000001000
44
0.0000000001
12
0.0005356705
22
-0.7817393705
32
0.0000000000
13
0.7817393705
23
-0.0005356703
33
0.0000000000
40
0.0000000000
40
0.0000000000
40
0.0000000000
40
0.0000000000
40
0.1999724363
40
0.3999815704
40
0.6000060918
40
0.8000194782
40
1.0000000000
40
1.0000000000
40
1.0000000000
40
1.0000000000
10
10.5232545958
20
-21.4516949984
30
0.0000000000
10
10.5232903023
20
-21.5038037739
30
0.0000000000
10
10.5399331200
20
-21.6087524010
30
0.0000000000
10
10.6121295123
20
-21.7502164146
30
0.0000000000
10
10.7245546055
20
-21.8626437038
30
0.0000000000
10
10.8660204466
20
-21.9348439264
30
0.0000000000
10
10.9709723758
20
-21.9514879531
30
0.0000000000
10
11.0230832582
20
-21.9515236610
30
0.0000000000
11
10.5232545958
21
-21.4516949984
31
0.0000000000
11
10.5478014998
21
-21.6060821135
31
0.0000000000
11
10.6188311458
21
-21.7453720681
31
0.0000000000
11
10.7293982895
21
-21.8559413699
31
0.0000000000
11
10.8686900578
21
-21.9269747765
31
0.0000000000
11
11.0230832582
21
-21.9515236610
31
0.0000000000
0
SPLINE
5
29E
100
AcDbEntity
8
0
100
AcDbSpline
62
9
6
CONTINUOUS
70
0
71
3
72
13
73
9
74
7
42
0.0000001000
43
0.0000001000
44
0.0000000001
12
0.3807545416
22
0.7616241222
32
0.0000000000
13
0.0016819683
23
0.8514942721
33
0.0000000000
40
0.0000000000
40
0.0000000000
40
0.0000000000
40
0.0000000000
40
0.0388724265
40
0.1387967057
40
0.2944544119
40
0.4974807167
40
0.7369649445
40
1.0000000000
40
1.0000000000
40
1.0000000000
40
1.0000000000
10
11.0230832583
20
-21.9515236609
30
0.0000000000
10
11.0280168759
20
-21.9416549350
30
0.0000000000
10
11.0233847625
20
-21.8999683064
30
0.0000000000
10
11.0316428645
20
-21.8184568812
30
0.0000000000
10
11.0308644784
20
-21.6872501383
30
0.0000000000
10
11.0339946918
20
-21.5179055965
30
0.0000000000
10
11.0349401442
20
-21.3175039350
30
0.0000000000
10
11.0355410653
20
-21.1749112130
30
0.0000000000
10
11.0356885375
20
-21.1002535986
30
0.0000000000
11
11.0230832583
21
-21.9515236609
31
0.0000000000
11
11.0260909286
21
-21.9185608800
31
0.0000000000
11
11.0289178331
21
-21.8335227367
31
0.0000000000
11
11.0314130205
21
-21.7010043217
31
0.0000000000
11
11.0334412791
21
-21.5281401475
31
0.0000000000
11
11.0348921263
21
-21.3242254627
31
0.0000000000
11
11.0356885375
21
-21.1002535986
31
0.0000000000
0
SPLINE
5
29F
100
AcDbEntity
8
0
100
AcDbSpline
62
9
6
CONTINUOUS
70
0
71
3
72
13
73
9
74
7
42
0.0000001000
43
0.0000001000
44
0.0000000001
12
0.3005744023
22
0.3019997922
32
0.0000000000
13
0.0016772184
23
0.4260821901
33
0.0000000000
40
0.0000000000
40
0.0000000000
40
0.0000000000
40
0.0000000000
40
0.0390019012
40
0.1389419528
40
0.2947885898
40
0.4983093068
40
0.7382475016
40
1.0000000000
40
1.0000000000
40
1.0000000000
40
1.0000000000
10
10.5232545958
20
-21.4516949984
30
0.0000000000
10
10.5271622535
20
-21.4477688097
30
0.0000000000
10
10.5247853444
20
-21.4250452815
30
0.0000000000
10
10.5310931416
20
-21.3859183886
30
0.0000000000
10
10.5313364875
20
-21.3193261219
30
0.0000000000
10
10.5340620357
20
-21.2347884238
30
0.0000000000
10
10.5351498931
20
-21.1344397557
30
0.0000000000
10
10.5357135363
20
-21.0632359932
30
0.0000000000
10
10.5358598750
20
-21.0260599672
30
0.0000000000
11
10.5232545958
21
-21.4516949984
31
0.0000000000
11
10.5262493811
21
-21.4353489292
31
0.0000000000
11
10.5290820156
21
-21.3928602415
31
0.0000000000
11
10.5315827918
21
-21.3265033570
31
0.0000000000
11
10.5336157137
21
-21.2398099646
31
0.0000000000
11
10.5350681484
21
-21.1375860989
31
0.0000000000
11
10.5358598750
21
-21.0260599672
31
0.0000000000
0
SPLINE
5
2A0
100
AcDbEntity
8
0
100
AcDbSpline
62
9
6
CONTINUOUS
70
0
71
3
72
12
73
8
74
6
42
0.0000001000
43
0.0000001000
44
0.0000000001
12
0.0880310235
22
-0.5047724848
32
0.0000000000
13
0.5123873982
23
-0.0019689315
33
0.0000000000
40
0.0000000000
40
0.0000000000
40
0.0000000000
40
0.0000000000
40
0.0695900778
40
0.2162777792
40
0.4337159066
40
0.7031599906
40
1.0000000000
40
1.0000000000
40
1.0000000000
40
1.0000000000
10
10.5358598750
20
-21.0260599672
30
0.0000000000
10
10.5379019036
20
-21.0377690194
30
0.0000000000
10
10.5788754479
20
-21.0563405806
30
0.0000000000
10
10.6454769025
20
-21.0724444449
30
0.0000000000
10
10.7554683911
20
-21.0878513430
30
0.0000000000
10
10.8880006293
20
-21.0974863843
30
0.0000000000
10
10.9849895108
20
-21.1000587738
30
0.0000000000
10
11.0356885375
20
-21.1002535930
30
0.0000000000
11
10.5358598750
21
-21.0260599672
31
0.0000000000
11
10.5634658043
21
-21.0486289441
31
0.0000000000
11
10.6357970284
21
-21.0690603607
31
0.0000000000
11
10.7460028917
21
-21.0854191109
31
0.0000000000
11
10.8836455448
21
-21.0961558202
31
0.0000000000
11
11.0356885375
21
-21.1002535930
31
0.0000000000
0
SPLINE
5
2A1
100
AcDbEntity
8
0
100
AcDbSpline
62
9
6
CONTINUOUS
70
0
71
3
72
10
73
6
74
4
42
0.0000001000
43
0.0000001000
44
0.0000000001
12
0.0454998765
22
11.6447977342
32
0.0000000000
13
0.0057626864
23
11.6448851991
33
0.0000000000
40
0.0000000000
40
0.0000000000
40
0.0000000000
40
0.0000000000
40
0.3320148750
40
0.6655565455
40
1.0000000000
40
1.0000000000
40
1.0000000000
40
1.0000000000
10
11.0356885375
20
-21.1002535986
30
0.0000000000
10
11.0407240828
20
-19.8115049107
30
0.0000000000
10
11.0493251275
20
-17.2280750440
30
0.0000000000
10
11.0578246380
20
-13.3464547257
30
0.0000000000
10
11.0605687056
20
-10.7535851667
30
0.0000000000
10
11.0612111365
20
-9.4553999558
30
0.0000000000
11
11.0356885375
21
-21.1002535986
31
0.0000000000
11
11.0485727347
21
-17.2339994899
31
0.0000000000
11
11.0570855823
21
-13.3499538803
31
0.0000000000
11
11.0612111365
21
-9.4553999558
31
0.0000000000
0
SPLINE
5
2A2
100
AcDbEntity
8
0
100
AcDbSpline
62
9
6
CONTINUOUS
70
0
71
3
72
10
73
6
74
4
42
0.0000001000
43
0.0000001000
44
0.0000000001
12
0.0454998724
22
11.5801037905
32
0.0000000000
13
0.0057626871
23
11.5801917440
33
0.0000000000
40
0.0000000000
40
0.0000000000
40
0.0000000000
40
0.0000000000
40
0.3320110625
40
0.6655578133
40
1.0000000000
40
1.0000000000
40
1.0000000000
40
1.0000000000
10
10.5358598750
20
-21.0260599672
30
0.0000000000
10
10.5408953620
20
-19.7444857796
30
0.0000000000
10
10.5494964404
20
-17.1754034780
30
0.0000000000
10
10.5579959677
20
-13.3153476898
30
0.0000000000
10
10.5607400454
20
-10.7368681723
30
0.0000000000
10
10.5613824740
20
-9.4458999558
30
0.0000000000
11
10.5358598750
21
-21.0260599672
31
0.0000000000
11
10.5487439493
21
-17.1813293146
31
0.0000000000
11
10.5572569436
21
-13.3188028873
31
0.0000000000
11
10.5613824740
21
-9.4458999558
31
0.0000000000
0
SPLINE
5
2A3
100
AcDbEntity
8
0
100
AcDbSpline
62
9
6
CONTINUOUS
70
0
71
3
72
12
73
8
74
6
42
0.0000001000
43
0.0000001000
44
0.0000000001
12
0.4046164664
22
-0.2938362448
32
0.0000000000
13
0.5000541589
23
-0.0002487483
33
0.0000000000
40
0.0000000000
40
0.0000000000
40
0.0000000000
40
0.0000000000
40
0.0555750126
40
0.2003450939
40
0.4207646183
40
0.6959972274
40
1.0000000000
40
1.0000000000
40
1.0000000000
40
1.0000000000
10
10.5613824740
20
-9.4458999558
30
0.0000000000
10
10.5688779957
20
-9.4513432735
30
0.0000000000
10
10.6059045217
20
-9.4452967415
30
0.0000000000
10
10.6728140998
20
-9.4544480833
30
0.0000000000
10
10.7811659041
20
-9.4527794634
30
0.0000000000
10
10.9138281304
20
-9.4554055357
30
0.0000000000
10
11.0105385196
20
-9.4553747491
30
0.0000000000
10
11.0612111365
20
-9.4553999558
30
0.0000000000
11
10.5613824740
21
-9.4458999558
31
0.0000000000
11
10.5890223882
21
-9.4487892682
31
0.0000000000
11
10.6613680055
21
-9.4514050274
31
0.0000000000
11
10.7715698158
21
-9.4534995795
31
0.0000000000
11
10.9091941746
21
-9.4548746174
31
0.0000000000
11
11.0612111365
21
-9.4553999558
31
0.0000000000
0
SPLINE
5
2A4
100
AcDbEntity
8
0
100
AcDbSpline
62
9
6
CONTINUOUS
70
0
71
3
72
10
73
6
74
4
42
0.0000001000
43
0.0000001000
44
0.0000000001
12
0.0094453641
22
18.9809983461
32
0.0000000000
13
-0.0094453649
23
18.9809983461
33
0.0000000000
40
0.0000000000
40
0.0000000000
40
0.0000000000
40
0.0000000000
40
0.3333302024
40
0.6666695646
40
1.0000000000
40
1.0000000000
40
1.0000000000
40
1.0000000000
10
10.5613824740
20
-9.4458999558
30
0.0000000000
10
10.5624319490
20
-7.3369199490
30
0.0000000000
10
10.5638310520
20
-3.1189015983
30
0.0000000000
10
10.5638310526
20
3.2080987382
30
0.0000000000
10
10.5624319498
20
7.4261185632
30
0.0000000000
10
10.5613824740
20
9.5351000442
30
0.0000000000
11
10.5613824740
21
-9.4458999558
31
0.0000000000
11
10.5634812668
21
-3.1189595002
31
0.0000000000
11
10.5634812675
21
3.2081551659
31
0.0000000000
11
10.5613824740
21
9.5351000442
31
0.0000000000
0
SPLINE
5
2A5
100
AcDbEntity
8
0
100
AcDbSpline
62
9
6
CONTINUOUS
70
0
71
3
72
12
73
8
74
6
42
0.0000001000
43
0.0000001000
44
0.0000000001
12
0.4046168641
22
0.2938356971
32
0.0000000000
13
0.5000541588
23
0.0002487483
33
0.0000000000
40
0.0000000000
40
0.0000000000
40
0.0000000000
40
0.0000000000
40
0.0555750303
40
0.2003451192
40
0.4207646415
40
0.6959972411
40
1.0000000000
40
1.0000000000
40
1.0000000000
40
1.0000000000
10
10.5613824740
20
9.5351000442
30
0.0000000000
10
10.5688780055
20
9.5405433534
30
0.0000000000
10
10.6059045200
20
9.5344968407
30
0.0000000000
10
10.6728141160
20
9.5436481645
30
0.0000000000
10
10.7811659124
20
9.5419795538
30
0.0000000000
10
10.9138281373
20
9.5446056224
30
0.0000000000
10
11.0105385218
20
9.5445748367
30
0.0000000000
10
11.0612111365
20
9.5446000434
30
0.0000000000
11
10.5613824740
21
9.5351000442
31
0.0000000000
11
10.5890223971
21
9.5379893564
31
0.0000000000
11
10.6613680182
21
9.5406051154
31
0.0000000000
11
10.7715698274
21
9.5426996673
31
0.0000000000
11
10.9091941815
21
9.5440747051
31
0.0000000000
11
11.0612111365
21
9.5446000434
31
0.0000000000
0
SPLINE
5
2A6
100
AcDbEntity
8
0
100
AcDbSpline
62
9
6
CONTINUOUS
70
0
71
3
72
10
73
6
74
4
42
0.0000001000
43
0.0000001000
44
0.0000000001
12
-0.0057627156
22
11.6448851991
32
0.0000000000
13
-0.0454999059
23
11.6447977340
33
0.0000000000
40
0.0000000000
40
0.0000000000
40
0.0000000000
40
0.0000000000
40
0.3344434555
40
0.6679851261
40
1.0000000000
40
1.0000000000
40
1.0000000000
40
1.0000000000
10
11.0612111365
20
9.5446000442
30
0.0000000000
10
11.0605687023
20
10.8427852592
30
0.0000000000
10
11.0578246422
20
13.4356548221
30
0.0000000000
10
11.0493251233
20
17.3172751405
30
0.0000000000
10
11.0407240860
20
19.9007050031
30
0.0000000000
10
11.0356885375
20
21.1894536869
30
0.0000000000
11
11.0612111365
21
9.5446000442
31
0.0000000000
11
11.0570855832
21
13.4391539809
31
0.0000000000
11
11.0485727337
21
17.3231995903
31
0.0000000000
11
11.0356885375
21
21.1894536869
31
0.0000000000
0
SPLINE
5
2A7
100
AcDbEntity
8
0
100
AcDbSpline
62
9
6
CONTINUOUS
70
0
71
3
72
10
73
6
74
4
42
0.0000001000
43
0.0000001000
44
0.0000000001
12
-0.0057627160
22
11.5801917440
32
0.0000000000
13
-0.0454999019
23
11.5801037904
33
0.0000000000
40
0.0000000000
40
0.0000000000
40
0.0000000000
40
0.0000000000
40
0.3344396111
40
0.6679863708
40
1.0000000000
40
1.0000000000
40
1.0000000000
40
1.0000000000
10
10.5613824740
20
9.5351000442
30
0.0000000000
10
10.5607400471
20
10.8260583185
30
0.0000000000
10
10.5579959986
20
13.4045279281
30
0.0000000000
10
10.5494964968
20
17.2645837164
30
0.0000000000
10
10.5408954042
20
19.8336759601
30
0.0000000000
10
10.5358598750
20
21.1152600556
30
0.0000000000
11
10.5613824740
21
9.5351000442
31
0.0000000000
11
10.5572569933
21
13.4079731494
31
0.0000000000
11
10.5487440309
21
17.2704996792
31
0.0000000000
11
10.5358598750
21
21.1152600556
31
0.0000000000
0
SPLINE
5
2A8
100
AcDbEntity
8
0
100
AcDbSpline
62
9
6
CONTINUOUS
70
0
71
3
72
12
73
8
74
6
42
0.0000001000
43
0.0000001000
44
0.0000000001
12
0.0881238524
22
0.5047544000
32
0.0000000000
13
0.5123855398
23
0.0019688484
33
0.0000000000
40
0.0000000000
40
0.0000000000
40
0.0000000000
40
0.0000000000
40
0.0695941118
40
0.2162844572
40
0.4337223860
40
0.7031639014
40
1.0000000000
40
1.0000000000
40
1.0000000000
40
1.0000000000
10
10.5358598752
20
21.1152600556
30
0.0000000000
10
10.5379041756
20
21.1269693670
30
0.0000000000
10
10.5788780969
20
21.1455380361
30
0.0000000000
10
10.6454815047
20
21.1616428125
30
0.0000000000
10
10.7554721455
20
21.1770481917
30
0.0000000000
10
10.8880029945
20
21.1866830279
30
0.0000000000
10
10.9849903626
20
21.1892552042
30
0.0000000000
10
11.0356885375
20
21.1894500126
30
0.0000000000
11
10.5358598752
21
21.1152600556
31
0.0000000000
11
10.5634691063
21
21.1378280549
31
0.0000000000
11
10.6358017379
21
21.1582584692
31
0.0000000000
11
10.7460072182
21
21.1746163542
31
0.0000000000
11
10.8836480951
21
21.1853524707
31
0.0000000000
11
11.0356885375
21
21.1894500126
31
0.0000000000
0
SPLINE
5
2A9
100
AcDbEntity
8
0
100
AcDbSpline
62
9
6
CONTINUOUS
70
0
71
3
72
13
73
9
74
7
42
0.0000001000
43
0.0000001000
44
0.0000000001
12
-0.0016804737
22
0.8514942990
32
0.0000000000
13
-0.3796923315
23
0.7621542486
33
0.0000000000
40
0.0000000000
40
0.0000000000
40
0.0000000000
40
0.0000000000
40
0.2630350912
40
0.5025168509
40
0.7055427468
40
0.8612016637
40
0.9611274487
40
1.0000000000
40
1.0000000000
40
1.0000000000
40
1.0000000000
10
11.0356885375
20
21.1894536869
30
0.0000000000
10
11.0355411963
20
21.2641113138
30
0.0000000000
10
11.0349407270
20
21.4067035984
30
0.0000000000
10
11.0339927557
20
21.6071034707
30
0.0000000000
10
11.0308700105
20
21.7764503499
30
0.0000000000
10
11.0316333370
20
21.9076508204
30
0.0000000000
10
11.0234020521
20
21.9891763280
30
0.0000000000
10
11.0280031282
20
22.0308481225
30
0.0000000000
10
11.0230832583
20
22.0407237492
30
0.0000000000
11
11.0356885375
21
21.1894536869
31
0.0000000000
11
11.0348921118
21
21.4134255877
31
0.0000000000
11
11.0334413022
21
21.6173381768
31
0.0000000000
11
11.0314139391
21
21.7902020183
31
0.0000000000
11
11.0289182339
21
21.9227214583
31
0.0000000000
11
11.0260911512
21
22.0077608809
31
0.0000000000
11
11.0230832583
21
22.0407237492
31
0.0000000000
0
SPLINE
5
2AA
100
AcDbEntity
8
0
100
AcDbSpline
62
9
6
CONTINUOUS
70
0
71
3
72
13
73
9
74
7
42
0.0000001000
43
0.0000001000
44
0.0000000001
12
-0.0016755606
22
0.4260821833
32
0.0000000000
13
-0.2997424063
23
0.3028255675
33
0.0000000000
40
0.0000000000
40
0.0000000000
40
0.0000000000
40
0.0000000000
40
0.2616786708
40
0.5014503413
40
0.7048876092
40
0.8609268278
40
0.9609802578
40
1.0000000000
40
1.0000000000
40
1.0000000000
40
1.0000000000
10
10.5358598750
20
21.1152600556
30
0.0000000000
10
10.5357137222
20
21.1524255954
30
0.0000000000
10
10.5351505926
20
21.2235956419
30
0.0000000000
10
10.5340619696
20
21.3238965921
30
0.0000000000
10
10.5313424561
20
21.4084307671
30
0.0000000000
10
10.5310911419
20
21.4750452671
30
0.0000000000
10
10.5247974876
20
21.5142353382
30
0.0000000000
10
10.5271532196
20
21.5369563615
30
0.0000000000
10
10.5232545958
20
21.5408950867
30
0.0000000000
11
10.5358598750
21
21.1152600556
31
0.0000000000
11
10.5350684479
21
21.2267547282
31
0.0000000000
11
10.5336175147
21
21.3289076513
31
0.0000000000
11
10.5315868761
21
21.4155655283
31
0.0000000000
11
10.5290849034
21
21.4820044801
31
0.0000000000
11
10.5262502419
21
21.5245414474
31
0.0000000000
11
10.5232545958
21
21.5408950867
31
0.0000000000
0
SPLINE
5
2AB
100
AcDbEntity
8
0
100
AcDbSpline
62
9
6
CONTINUOUS
70
0
71
3
72
12
73
8
74
6
42
0.0000001000
43
0.0000001000
44
0.0000000001
12
0.0005356733
22
0.7817393695
32
0.0000000000
13
0.7817393695
23
0.0005356729
33
0.0000000000
40
0.0000000000
40
0.0000000000
40
0.0000000000
40
0.0000000000
40
0.1999768525
40
0.3999879277
40
0.6000120718
40
0.8000231472
40
1.0000000000
40
1.0000000000
40
1.0000000000
40
1.0000000000
10
10.5232545958
20
21.5408950867
30
0.0000000000
10
10.5232903032
20
21.5930050129
30
0.0000000000
10
10.5399337663
20
21.6979553440
30
0.0000000000
10
10.6121321123
20
21.8394201886
30
0.0000000000
10
10.7245581562
20
21.9518462325
30
0.0000000000
10
10.8660230008
20
22.0240445788
30
0.0000000000
10
10.9709733320
20
22.0406880418
30
0.0000000000
10
11.0230832583
20
22.0407237492
30
0.0000000000
11
10.5232545958
21
21.5408950867
31
0.0000000000
11
10.5478025820
21
21.6952855253
31
0.0000000000
11
10.6188341047
21
21.8345762260
31
0.0000000000
11
10.7294021187
21
21.9451442401
31
0.0000000000
11
10.8686928195
21
22.0161757630
31
0.0000000000
11
11.0230832583
21
22.0407237492
31
0.0000000000
0
SPLINE
5
2AC
100
AcDbEntity
8
0
100
AcDbSpline
62
9
6
CONTINUOUS
70
0
71
3
72
12
73
8
74
6
42
0.0000001000
43
0.0000001000
44
0.0000000001
12
-0.0130830439
22
0.4999632443
32
0.0000000000
13
0.4999630101
23
0.0130919922
33
0.0000000000
40
0.0000000000
40
0.0000000000
40
0.0000000000
40
0.0000000000
40
0.3087678679
40
0.5872962581
40
0.8083747612
40
0.9504473484
40
1.0000000000
40
1.0000000000
40
1.0000000000
40
1.0000000000
10
-14.1443253157
20
21.5408950867
30
0.0000000000
10
-14.1456718568
20
21.5923526150
30
0.0000000000
10
-14.1485111335
20
21.6911409584
30
0.0000000000
10
-14.1477780772
20
21.8224136820
30
0.0000000000
10
-14.1545800174
20
21.9383123502
30
0.0000000000
10
-14.1408484776
20
21.9900396932
30
0.0000000000
10
-14.1525834753
20
22.0405075017
30
0.0000000000
10
-14.1443253111
20
22.0407237493
30
0.0000000000
11
-14.1443253157
21
21.5408950867
31
0.0000000000
11
-14.1477253206
21
21.6952830834
31
0.0000000000
11
-14.1495127730
21
21.8345732426
31
0.0000000000
11
-14.1495128126
21
21.9451422057
31
0.0000000000
11
-14.1477253945
21
22.0161751079
31
0.0000000000
11
-14.1443253111
21
22.0407237493
31
0.0000000000
0
SPLINE
5
2AD
100
AcDbEntity
8
0
100
AcDbSpline
62
9
6
CONTINUOUS
70
0
71
3
72
13
73
9
74
7
42
0.0000001000
43
0.0000001000
44
0.0000000001
12
-0.6960229530
22
-0.0184134747
32
0.0000000000
13
-0.1034026214
23
-0.6885454996
33
0.0000000000
40
0.0000000000
40
0.0000000000
40
0.0000000000
40
0.0000000000
40
0.1659739471
40
0.3330204080
40
0.5001626429
40
0.6671805142
40
0.8340887218
40
1.0000000000
40
1.0000000000
40
1.0000000000
40
1.0000000000
10
-14.1443253157
20
21.5408950867
30
0.0000000000
10
-14.1828325413
20
21.5398763677
30
0.0000000000
10
-14.2601579477
20
21.5288548430
30
0.0000000000
10
-14.3691308194
20
21.4860061775
30
0.0000000000
10
-14.4655206981
20
21.4189985424
30
0.0000000000
10
-14.5437695777
20
21.3315333366
30
0.0000000000
10
-14.5995827938
20
21.2286868322
30
0.0000000000
10
-14.6199829529
20
21.1533392102
30
0.0000000000
10
-14.6257015066
20
21.1152600556
30
0.0000000000
11
-14.1443253157
21
21.5408950867
31
0.0000000000
11
-14.2587244257
21
21.5245414474
31
0.0000000000
11
-14.3669757777
21
21.4820044801
31
0.0000000000
11
-14.4625222629
21
21.4155655283
31
0.0000000000
11
-14.5400692232
21
21.3289076513
31
0.0000000000
11
-14.5954781242
21
21.2267547282
31
0.0000000000
11
-14.6257015066
21
21.1152600556
31
0.0000000000
0
SPLINE
5
2AE
100
AcDbEntity
8
0
100
AcDbSpline
62
9
6
CONTINUOUS
70
0
71
3
72
12
73
8
74
6
42
0.0000001000
43
0.0000001000
44
0.0000000001
12
-0.4816675990
22
0.0723230103
32
0.0000000000
13
0.0722746892
23
0.4816748520
33
0.0000000000
40
0.0000000000
40
0.0000000000
40
0.0000000000
40
0.0000000000
40
0.3107996592
40
0.5896463585
40
0.8101305820
40
0.9513712896
40
1.0000000000
40
1.0000000000
40
1.0000000000
40
1.0000000000
10
-14.6257015066
20
21.1152600556
30
0.0000000000
10
-14.6756022152
20
21.1227527112
30
0.0000000000
10
-14.7713252828
20
21.1362796154
30
0.0000000000
10
-14.8972903038
20
21.1589018316
30
0.0000000000
10
-15.0104515035
20
21.1674467751
30
0.0000000000
10
-15.0565262780
20
21.1915932434
30
0.0000000000
10
-15.1082492168
20
21.1816459412
30
0.0000000000
10
-15.1070776751
20
21.1894536835
30
0.0000000000
11
-14.6257015066
21
21.1152600556
31
0.0000000000
11
-14.7753899386
21
21.1378290330
31
0.0000000000
11
-14.9096613949
21
21.1582604503
31
0.0000000000
11
-15.0157987185
21
21.1746192013
31
0.0000000000
11
-15.0837494002
21
21.1853559112
31
0.0000000000
11
-15.1070776751
21
21.1894536835
31
0.0000000000
0
SPLINE
5
2AF
100
AcDbEntity
8
0
100
AcDbSpline
62
9
6
CONTINUOUS
70
0
71
3
72
10
73
6
74
4
42
0.0000001000
43
0.0000001000
44
0.0000000001
12
-1.7254980515
22
-11.4996421818
32
0.0000000000
13
-0.2209450315
23
-11.6262761506
33
0.0000000000
40
0.0000000000
40
0.0000000000
40
0.0000000000
40
0.0000000000
40
0.3333325126
40
0.6666708735
40
1.0000000000
40
1.0000000000
40
1.0000000000
40
1.0000000000
10
-14.6257015066
20
21.1152600556
30
0.0000000000
10
-14.8174230403
20
19.8375251813
30
0.0000000000
10
-15.1455687735
20
17.2733678005
30
0.0000000000
10
-15.4707524377
20
13.4098121150
30
0.0000000000
10
-15.5758211011
20
10.8268922020
30
0.0000000000
10
-15.6003702392
20
9.5351000442
30
0.0000000000
11
-14.6257015066
21
21.1152600556
31
0.0000000000
11
-15.1177275694
21
17.2704996792
31
0.0000000000
11
-15.4428244886
21
13.4079731494
31
0.0000000000
11
-15.6003702392
21
9.5351000442
31
0.0000000000
0
SPLINE
5
2B0
100
AcDbEntity
8
0
100
AcDbSpline
62
9
6
CONTINUOUS
70
0
71
3
72
10
73
6
74
4
42
0.0000001000
43
0.0000001000
44
0.0000000001
12
-0.3606581412
22
-18.9785887347
32
0.0000000000
13
0.3606581121
23
-18.9785887353
33
0.0000000000
40
0.0000000000
40
0.0000000000
40
0.0000000000
40
0.0000000000
40
0.3333393440
40
0.6666608890
40
1.0000000000
40
1.0000000000
40
1.0000000000
40
1.0000000000
10
-15.6003702392
20
9.5351000442
30
0.0000000000
10
-15.6404440886
20
7.4263299380
30
0.0000000000
10
-15.6938775960
20
3.2083439291
30
0.0000000000
10
-15.6938775721
20
-3.1191467893
30
0.0000000000
10
-15.6404440574
20
-7.3371313236
30
0.0000000000
10
-15.6003702392
20
-9.4458999558
30
0.0000000000
11
-15.6003702392
21
9.5351000442
31
0.0000000000
11
-15.6805199284
21
3.2081551659
31
0.0000000000
11
-15.6805199013
21
-3.1189595002
31
0.0000000000
11
-15.6003702392
21
-9.4458999558
31
0.0000000000
0
SPLINE
5
2B1
100
AcDbEntity
8
0
100
AcDbSpline
62
9
6
CONTINUOUS
70
0
71
3
72
10
73
6
74
4
42
0.0000001000
43
0.0000001000
44
0.0000000001
12
0.2209439243
22
-11.6262761716
32
0.0000000000
13
1.7254969564
23
-11.4996423461
33
0.0000000000
40
0.0000000000
40
0.0000000000
40
0.0000000000
40
0.0000000000
40
0.3333316959
40
0.6666700568
40
1.0000000000
40
1.0000000000
40
1.0000000000
40
1.0000000000
10
-15.6003702392
20
-9.4458999558
30
0.0000000000
10
-15.5758210349
20
-10.7377020738
30
0.0000000000
10
-15.4707512519
20
-13.3206319291
30
0.0000000000
10
-15.1455666159
20
-17.1841875329
30
0.0000000000
10
-14.8174214408
20
-19.7483349241
30
0.0000000000
10
-14.6257015066
20
-21.0260599672
30
0.0000000000
11
-15.6003702392
21
-9.4458999558
31
0.0000000000
11
-15.4428225916
21
-13.3188028873
31
0.0000000000
11
-15.1177244542
21
-17.1813293146
31
0.0000000000
11
-14.6257015066
21
-21.0260599672
31
0.0000000000
0
SPLINE
5
2B2
100
AcDbEntity
8
0
100
AcDbSpline
62
9
6
CONTINUOUS
70
0
71
3
72
12
73
8
74
6
42
0.0000001000
43
0.0000001000
44
0.0000000001
12
-0.4816497072
22
-0.0723203706
32
0.0000000000
13
0.0724351636
23
-0.4816324569
33
0.0000000000
40
0.0000000000
40
0.0000000000
40
0.0000000000
40
0.0000000000
40
0.3108014113
40
0.5896483565
40
0.8101319943
40
0.9513718923
40
1.0000000000
40
1.0000000000
40
1.0000000000
40
1.0000000000
10
-14.6257015066
20
-21.0260599672
30
0.0000000000
10
-14.6756006429
20
-21.0335523917
30
0.0000000000
10
-14.7713208004
20
-21.0470788922
30
0.0000000000
10
-14.8972801412
20
-21.0697001432
30
0.0000000000
10
-15.0104400289
20
-21.0782452304
30
0.0000000000
10
-15.0565069944
20
-21.1023897994
30
0.0000000000
10
-15.1082339187
20
-21.0924439486
30
0.0000000000
10
-15.1070597904
20
-21.1002509069
30
0.0000000000
11
-14.6257015066
21
-21.0260599672
31
0.0000000000
11
-14.7753852222
21
-21.0486282481
31
0.0000000000
11
-14.9096518090
21
-21.0690589390
31
0.0000000000
11
-15.0157849075
21
-21.0854170535
31
0.0000000000
11
-15.0837326742
21
-21.0961533184
31
0.0000000000
11
-15.1070597904
21
-21.1002509069
31
0.0000000000
0
SPLINE
5
2B3
100
AcDbEntity
8
0
100
AcDbSpline
62
9
6
CONTINUOUS
70
0
71
3
72
13
73
9
74
7
42
0.0000001000
43
0.0000001000
44
0.0000000001
12
0.1035026642
22
-0.6885304693
32
0.0000000000
13
0.6960256179
23
-0.0183125046
33
0.0000000000
40
0.0000000000
40
0.0000000000
40
0.0000000000
40
0.0000000000
40
0.1659591839
40
0.3329962239
40
0.5001356281
40
0.6671566981
40
0.8340743296
40
1.0000000000
40
1.0000000000
40
1.0000000000
40
1.0000000000
10
-14.6257015066
20
-21.0260599672
30
0.0000000000
10
-14.6199757674
20
-21.0641492855
30
0.0000000000
10
-14.5995710605
20
-21.1395378152
30
0.0000000000
10
-14.5437070765
20
-21.2424397272
30
0.0000000000
10
-14.4654053976
20
-21.3299004166
30
0.0000000000
10
-14.3690173398
20
-21.3968551763
30
0.0000000000
10
-14.2601056532
20
-21.4396601948
30
0.0000000000
10
-14.1828214881
20
-21.4506821602
30
0.0000000000
10
-14.1443253157
20
-21.4516949984
30
0.0000000000
11
-14.6257015066
21
-21.0260599672
31
0.0000000000
11
-14.5954666881
21
-21.1375860989
31
0.0000000000
11
-14.5400004434
21
-21.2398099646
31
0.0000000000
11
-14.4623662873
21
-21.3265033570
31
0.0000000000
11
-14.3668654987
21
-21.3928602415
31
0.0000000000
11
-14.2586915529
21
-21.4353489292
31
0.0000000000
11
-14.1443253157
21
-21.4516949984
31
0.0000000000
0
SPLINE
5
2B4
100
AcDbEntity
8
0
100
AcDbSpline
62
9
6
CONTINUOUS
70
0
71
3
72
12
73
8
74
6
42
0.0000001000
43
0.0000001000
44
0.0000000001
12
-0.0130830273
22
-0.4999632459
32
0.0000000000
13
0.4999630113
23
-0.0130919922
33
0.0000000000
40
0.0000000000
40
0.0000000000
40
0.0000000000
40
0.0000000000
40
0.3087727501
40
0.5873022217
40
0.8083788267
40
0.9504486572
40
1.0000000000
40
1.0000000000
40
1.0000000000
40
1.0000000000
10
-14.1443253157
20
-21.4516949984
30
0.0000000000
10
-14.1456718764
20
-21.5031533405
30
0.0000000000
10
-14.1485111812
20
-21.6019427021
30
0.0000000000
10
-14.1477780862
20
-21.7332160568
30
0.0000000000
10
-14.1545799419
20
-21.8491141055
30
0.0000000000
10
-14.1408486390
20
-21.9008407178
30
0.0000000000
10
-14.1525832618
20
-21.9513074189
30
0.0000000000
10
-14.1443253157
20
-21.9515236609
30
0.0000000000
11
-14.1443253157
21
-21.4516949984
31
0.0000000000
11
-14.1477253598
21
-21.6060854369
31
0.0000000000
11
-14.1495127890
21
-21.7453761376
31
0.0000000000
11
-14.1495127885
21
-21.8559441517
31
0.0000000000
11
-14.1477253585
21
-21.9269756746
31
0.0000000000
11
-14.1443253157
21
-21.9515236609
31
0.0000000000
0
ENDSEC
0
SECTION
2
OBJECTS
0
DICTIONARY
5
2B5
100
AcDbDictionary
3
ACAD_GROUP
350
2B6
3
ACAD_MLINESTYLE
350
2B7
0
DICTIONARY
5
2B6
102
{ACAD_REACTORS
330
2B5
102
}
100
AcDbDictionary
0
DICTIONARY
5
2B7
102
{ACAD_REACTORS
330
2B5
102
}
100
AcDbDictionary
3
STANDARD
350
2B8
0
MLINESTYLE
5
2B8
102
{ACAD_REACTORS
330
2B7
102
}
100
AcDbMlineStyle
2
STANDARD
70
0
3

62
256
51
90.0
52
90.0
71
2
49
0.5
62
256
6
BYLAYER
49
-0.5
62
256
6
BYLAYER
0
ENDSEC
0
EOF
