0
SECTION
2
HEADER
9
$ACADVER
1
AC1014
9
$HANDSEED
5
       311
9
$EXTMAX
10
297.0000000000
20
210.0000000000
9
$EXTMIN
10
0.0000000000
20
0.0000000000
9
$LIMMIN
10
0.0000000000
20
0.0000000000
9
$LIMMAX
10
297.0000000000
20
210.0000000000
9
$VIEWCTR
10
148.5000000000
20
105.0000000000
9
$VIEWSIZE
40
210.0000000000
9
$CLAYER
8
0
9
$LTSCALE
40
16.3350000000
9
$CELTYPE
6
BYLAYER
9
$DIMSCALE
40
1
9
$DIMASZ
40
3.0000000000
9
$DIMEXO
40
1.8562500000
9
$DIMDLI
40
11.2860000000
9
$DIMEXE
40
5.3460000000
9
$DIMCEN
40
2.6730000000
9
$DIMLFAC
40
1.0000000000
9
$DIMTXT
40
3.0000000000
9
$DIMTOL
70
1
9
$DIMLIM
70
0
9
$DIMTFAC
40
1.0000000000
9
$DIMTP
40
0.0100000000
9
$DIMTM
40
0.0100000000
9
$MEASUREMENT
70
1
0
ENDSEC
0
SECTION
2
CLASSES
0
ENDSEC
0
SECTION
2
TABLES
0
TABLE
2
VPORT
5
8
100
AcDbSymbolTable
70
2
0
VPORT
5
1F4
100
AcDbSymbolTableRecord
100
AcDbViewportTableRecord
2
*ACTIVE
70
0
10
0.0
20
0.0
11
1.0
21
1.0
12
148.5000000000
22
105.0000000000
13
0.0
23
0.0
14
1.0
24
1.0
15
0.0
25
0.0
16
0.0
26
0.0
36
1.0
17
0.0
27
0.0
37
0.0
40
210.0000000000
41
1.4142857143
42
50.0
43
0.0
44
0.0
50
0.0
51
0.0
71
0
72
100
73
1
74
1
75
0
76
0
77
0
78
0
0
ENDTAB
0
TABLE
2
LTYPE
5
5
100
AcDbSymbolTable
70
6
0
LTYPE
5
14
100
AcDbSymbolTableRecord
100
AcDbLinetypeTableRecord
2
BYBLOCK
70
0
3

72
65
73
0
40
0.0
0
LTYPE
5
15
100
AcDbSymbolTableRecord
100
AcDbLinetypeTableRecord
2
BYLAYER
70
0
3

72
65
73
0
40
0.0
0
LTYPE
5
16
100
AcDbSymbolTableRecord
100
AcDbLinetypeTableRecord
2
CONTINUOUS
70
64
3
Solid line
72
65
73
0
40
0
0
LTYPE
5
1F5
100
AcDbSymbolTableRecord
100
AcDbLinetypeTableRecord
2
CENTER
70
64
3
____ _ ____ _ ____ _ ____ _ ____ _ ____ _ ____
72
65
73
4
40
0.6
49
0.375
74
0
49
-0.075
74
0
49
0.075
74
0
49
-0.075
74
0
0
LTYPE
5
1F6
100
AcDbSymbolTableRecord
100
AcDbLinetypeTableRecord
2
HIDDEN
70
64
3
- - - - - - - - - - - - - - - - - - - -
72
65
73
2
40
0.2
49
0.1
74
0
49
-0.1
74
0
0
LTYPE
5
1F7
100
AcDbSymbolTableRecord
100
AcDbLinetypeTableRecord
2
PHANTOM
70
64
3
_____ _ _ _____ _ _ _____ _ _ _____
72
65
73
6
40
0.8
49
0.45
74
0
49
-0.05
74
0
49
0.1
74
0
49
-0.05
74
0
49
0.1
74
0
49
-0.05
74
0
0
LTYPE
5
1F8
100
AcDbSymbolTableRecord
100
AcDbLinetypeTableRecord
2
DOT
70
64
3
. . . . . . . . . . . . . . . . . . . .
72
65
73
2
40
0.2
49
0.1
74
0
49
-0.1
74
0
0
LTYPE
5
1F9
100
AcDbSymbolTableRecord
100
AcDbLinetypeTableRecord
2
DASHED
70
64
3
- - - - - - - - - - - - - - - - - - - -
72
65
73
2
40
0.2
49
0.1
74
0
49
-0.1
74
0
0
ENDTAB
0
TABLE
2
LAYER
5
2
100
AcDbSymbolTable
70
36
0
LAYER
5
10
100
AcDbSymbolTableRecord
100
AcDbLayerTableRecord
2
0
70
0
62
7
6
CONTINUOUS
0
LAYER
5
1FA
100
AcDbSymbolTableRecord
100
AcDbLayerTableRecord
2
DEFAULT_1
70
0
62
7
6
CENTER
0
LAYER
5
1FB
100
AcDbSymbolTableRecord
100
AcDbLayerTableRecord
2
DEFAULT_2
70
0
62
8
6
HIDDEN
0
LAYER
5
1FC
100
AcDbSymbolTableRecord
100
AcDbLayerTableRecord
2
DEFAULT_3
70
0
62
7
6
PHANTOM
0
LAYER
5
1FD
100
AcDbSymbolTableRecord
100
AcDbLayerTableRecord
2
ASSI
70
0
62
7
6
CONTINUOUS
0
LAYER
5
1FE
100
AcDbSymbolTableRecord
100
AcDbLayerTableRecord
2
COLOR9
70
0
62
7
6
CONTINUOUS
0
LAYER
5
1FF
100
AcDbSymbolTableRecord
100
AcDbLayerTableRecord
2
COORDINATE
70
0
62
7
6
CONTINUOUS
0
LAYER
5
200
100
AcDbSymbolTableRecord
100
AcDbLayerTableRecord
2
COORD_ORIGINE
70
0
62
7
6
CONTINUOUS
0
LAYER
5
201
100
AcDbSymbolTableRecord
100
AcDbLayerTableRecord
2
CURVE
70
0
62
7
6
CONTINUOUS
0
LAYER
5
202
100
AcDbSymbolTableRecord
100
AcDbLayerTableRecord
2
DRAFT
70
0
62
7
6
CONTINUOUS
0
LAYER
5
203
100
AcDbSymbolTableRecord
100
AcDbLayerTableRecord
2
INTF_YELLOW
70
0
62
7
6
CONTINUOUS
0
LAYER
5
204
100
AcDbSymbolTableRecord
100
AcDbLayerTableRecord
2
NOTE
70
0
62
7
6
CONTINUOUS
0
LAYER
5
205
100
AcDbSymbolTableRecord
100
AcDbLayerTableRecord
2
PIANI
70
0
62
7
6
CONTINUOUS
0
LAYER
5
206
100
AcDbSymbolTableRecord
100
AcDbLayerTableRecord
2
PIANI_ORIGINE
70
0
62
7
6
CONTINUOUS
0
LAYER
5
207
100
AcDbSymbolTableRecord
100
AcDbLayerTableRecord
2
PIANI_RIFERIMENTO
70
0
62
7
6
CONTINUOUS
0
LAYER
5
208
100
AcDbSymbolTableRecord
100
AcDbLayerTableRecord
2
PUNTI
70
0
62
7
6
CONTINUOUS
0
LAYER
5
209
100
AcDbSymbolTableRecord
100
AcDbLayerTableRecord
2
RACCORDO
70
0
62
7
6
CONTINUOUS
0
LAYER
5
20A
100
AcDbSymbolTableRecord
100
AcDbLayerTableRecord
2
SNAPLINE
70
0
62
7
6
CONTINUOUS
0
LAYER
5
20B
100
AcDbSymbolTableRecord
100
AcDbLayerTableRecord
2
SUPERFICI
70
0
62
7
6
CONTINUOUS
0
LAYER
5
20C
100
AcDbSymbolTableRecord
100
AcDbLayerTableRecord
2
TRASH
70
0
62
7
6
CONTINUOUS
0
LAYER
5
20D
100
AcDbSymbolTableRecord
100
AcDbLayerTableRecord
2
XSEC_DATUMS
70
0
62
7
6
CONTINUOUS
0
ENDTAB
0
TABLE
2
STYLE
5
3
100
AcDbSymbolTable
70
1
0
STYLE
5
11
100
AcDbSymbolTableRecord
100
AcDbTextStyleTableRecord
2
STANDARD
70
0
40
0.0
41
0.8000000000
50
0.0
71
0
42
0.2
3
txt
4

0
ENDTAB
0
TABLE
2
VIEW
5
6
100
AcDbSymbolTable
70
0
0
ENDTAB
0
TABLE
2
UCS
5
7
100
AcDbSymbolTable
70
0
0
ENDTAB
0
TABLE
2
APPID
5
9
100
AcDbSymbolTable
70
1
0
APPID
5
20E
100
AcDbSymbolTableRecord
100
AcDbRegAppTableRecord
2
ACAD
70
0
0
ENDTAB
0
TABLE
2
DIMSTYLE
5
A
100
AcDbSymbolTable
70
1
0
DIMSTYLE
105
20F
100
AcDbSymbolTableRecord
100
AcDbDimStyleTableRecord
2
STANDARD
70
0
3

4

5

6

7

40
1.0
41
3.0000000000
42
0.0625
43
0.38
44
0.18
45
0.0
46
0.0
47
0.0100000000
48
0.0100000000
140
3.0000000000
141
0.09
142
0.0
143
25.4
144
1.0000000000
145
0.0
146
1.0000000000
147
0.09
71
1
72
0
73
0
74
0
75
0
76
0
77
1
78
8
170
0
171
2
172
0
173
0
174
0
175
0
176
0
177
0
178
0
270
2
271
2
272
2
273
2
274
2
340
11
275
0
280
0
281
0
282
0
283
1
284
8
285
0
286
0
287
3
288
0
0
DIMSTYLE
105
210
100
AcDbSymbolTableRecord
100
AcDbDimStyleTableRecord
2
DIMSTYLE_1
70
0
3

4

5

6

7

40
1.0
41
3.0000000000
42
0.0625
43
0.38
44
0.18
45
0.0
46
0.0
47
0.0000000000
48
0.0000000000
140
3.0000000000
141
0.09
142
0.0
143
25.4
144
1.0000000000
145
0.0
146
1.0000000000
147
0.09
71
0
72
0
73
0
74
0
75
0
76
0
77
1
78
8
170
0
171
2
172
0
173
0
174
0
175
0
176
0
177
0
178
0
270
2
271
2
272
2
273
2
274
2
340
11
275
0
280
0
281
0
282
0
283
1
284
8
285
0
286
0
287
3
288
0
0
ENDTAB
0
TABLE
2
BLOCK_RECORD
5
1
100
AcDbSymbolTable
70
0
0
BLOCK_RECORD
5
1B
100
AcDbSymbolTableRecord
100
AcDbBlockTableRecord
2
*MODEL_SPACE
0
BLOCK_RECORD
5
1C
100
AcDbSymbolTableRecord
100
AcDbBlockTableRecord
2
*PAPER_SPACE
0
BLOCK_RECORD
5
211
100
AcDbSymbolTableRecord
100
AcDbBlockTableRecord
2
*D0
0
BLOCK_RECORD
5
212
100
AcDbSymbolTableRecord
100
AcDbBlockTableRecord
2
*D1
0
BLOCK_RECORD
5
213
100
AcDbSymbolTableRecord
100
AcDbBlockTableRecord
2
*D2
0
ENDTAB
0
ENDSEC
0
SECTION
2
BLOCKS
0
BLOCK
5
1E
100
AcDbEntity
8
0
100
AcDbBlockBegin
2
*MODEL_SPACE
70
0
10
0.0
20
0.0
30
0.0
3
*MODEL_SPACE
1

0
ENDBLK
5
1F
100
AcDbEntity
8
0
100
AcDbBlockEnd
0
BLOCK
5
20
100
AcDbEntity
8
0
100
AcDbBlockBegin
2
*PAPER_SPACE
70
0
10
0.0
20
0.0
30
0.0
3
*PAPER_SPACE
1

0
ENDBLK
5
21
100
AcDbEntity
8
0
100
AcDbBlockEnd
0
BLOCK
5
214
100
AcDbEntity
8
0
100
AcDbBlockBegin
62
7
6
CONTINUOUS
2
*D0
70
65
10
0.0000000000
20
0.0000000000
3
*D0
1

0
TEXT
5
215
100
AcDbEntity
8
0
100
AcDbText
62
7
6
CONTINUOUS
10
-13.1897303718
20
31.2745005109
7
STANDARD
40
3.0000000000
1
6
41
0.7857142857
72
0
100
AcDbText
0
LINE
5
216
100
AcDbEntity
8
0
100
AcDbLine
62
7
6
CONTINUOUS
10
-9.2631159391
20
22.1246718650
11
-9.2631159391
21
32.0245005109
0
LINE
5
217
100
AcDbEntity
8
0
100
AcDbLine
62
7
6
CONTINUOUS
10
-15.2631159391
20
0.5245005275
11
-15.2631159391
21
32.0245005109
0
LINE
5
218
100
AcDbEntity
8
0
100
AcDbLine
62
7
6
CONTINUOUS
10
-9.2631159391
20
30.5245005109
11
-5.2631159391
21
30.5245005109
0
LINE
5
219
100
AcDbEntity
8
0
100
AcDbLine
62
7
6
CONTINUOUS
10
-5.2631159391
20
30.5245005109
11
-12.2631159391
21
30.5245005109
0
LINE
5
21A
100
AcDbEntity
8
0
100
AcDbLine
62
7
6
CONTINUOUS
10
-15.2631159391
20
30.5245005109
11
-19.2631159391
21
30.5245005109
0
LINE
5
21B
100
AcDbEntity
8
0
100
AcDbLine
62
7
6
CONTINUOUS
10
-19.2631159391
20
30.5245005109
11
-12.2631159391
21
30.5245005109
0
SOLID
5
21C
100
AcDbEntity
8
0
100
AcDbTrace
62
7
6
CONTINUOUS
10
-6.2631159391
20
31.4745005109
11
-9.2631159391
21
30.5245005109
12
-6.2631159391
22
29.5745005109
13
-6.2631159391
23
29.5745005109
0
SOLID
5
21D
100
AcDbEntity
8
0
100
AcDbTrace
62
7
6
CONTINUOUS
10
-18.2631159391
20
29.5745005109
11
-15.2631159391
21
30.5245005109
12
-18.2631159391
22
31.4745005109
13
-18.2631159391
23
31.4745005109
0
ENDBLK
5
21E
100
AcDbEntity
8
0
100
AcDbBlockEnd
0
BLOCK
5
21F
100
AcDbEntity
8
0
100
AcDbBlockBegin
62
7
6
CONTINUOUS
2
*D1
70
65
10
0.0000000000
20
0.0000000000
3
*D1
1

0
TEXT
5
220
100
AcDbEntity
8
0
100
AcDbText
62
7
6
CONTINUOUS
10
19.1747529498
20
31.2745005109
7
STANDARD
40
3.0000000000
1
22
41
0.7857142857
72
0
100
AcDbText
0
LINE
5
221
100
AcDbEntity
8
0
100
AcDbLine
62
7
6
CONTINUOUS
10
10.1357977113
20
22.1246718650
11
10.1357977113
21
32.0245005109
0
LINE
5
222
100
AcDbEntity
8
0
100
AcDbLine
62
7
6
CONTINUOUS
10
32.1357977113
20
22.1246718650
11
32.1357977113
21
32.0245005109
0
LINE
5
223
100
AcDbEntity
8
0
100
AcDbLine
62
7
6
CONTINUOUS
10
10.1357977113
20
30.5245005109
11
21.1357977113
21
30.5245005109
0
LINE
5
224
100
AcDbEntity
8
0
100
AcDbLine
62
7
6
CONTINUOUS
10
32.1357977113
20
30.5245005109
11
21.1357977113
21
30.5245005109
0
SOLID
5
225
100
AcDbEntity
8
0
100
AcDbTrace
62
7
6
CONTINUOUS
10
13.1357977113
20
31.4745005109
11
10.1357977113
21
30.5245005109
12
13.1357977113
22
29.5745005109
13
13.1357977113
23
29.5745005109
0
SOLID
5
226
100
AcDbEntity
8
0
100
AcDbTrace
62
7
6
CONTINUOUS
10
29.1357977113
20
29.5745005109
11
32.1357977113
21
30.5245005109
12
29.1357977113
22
31.4745005109
13
29.1357977113
23
31.4745005109
0
ENDBLK
5
227
100
AcDbEntity
8
0
100
AcDbBlockEnd
0
BLOCK
5
228
100
AcDbEntity
8
0
100
AcDbBlockBegin
62
7
6
CONTINUOUS
2
*D2
70
65
10
0.0000000000
20
0.0000000000
3
*D2
1

0
TEXT
5
229
100
AcDbEntity
8
0
100
AcDbText
62
7
6
CONTINUOUS
10
39.6357977157
20
-4.8529748672
7
STANDARD
40
3.0000000000
1
44,2
50
90.0000000000
41
0.7321428571
72
0
100
AcDbText
0
LINE
5
22A
100
AcDbEntity
8
0
100
AcDbLine
62
7
6
CONTINUOUS
10
32.1359690488
20
22.1245005275
11
41.8857977157
21
22.1245005275
0
LINE
5
22B
100
AcDbEntity
8
0
100
AcDbLine
62
7
6
CONTINUOUS
10
32.1359690488
20
-22.0754994725
11
41.8857977157
21
-22.0754994725
0
LINE
5
22C
100
AcDbEntity
8
0
100
AcDbLine
62
7
6
CONTINUOUS
10
40.3857977157
20
22.1245005275
11
40.3857977157
21
0.0245005275
0
LINE
5
22D
100
AcDbEntity
8
0
100
AcDbLine
62
7
6
CONTINUOUS
10
40.3857977157
20
-22.0754994725
11
40.3857977157
21
0.0245005275
0
SOLID
5
22E
100
AcDbEntity
8
0
100
AcDbTrace
62
7
6
CONTINUOUS
10
41.3357977157
20
19.1245005275
11
40.3857977157
21
22.1245005275
12
39.4357977157
22
19.1245005275
13
39.4357977157
23
19.1245005275
0
SOLID
5
22F
100
AcDbEntity
8
0
100
AcDbTrace
62
7
6
CONTINUOUS
10
39.4357977157
20
-19.0754994725
11
40.3857977157
21
-22.0754994725
12
41.3357977157
22
-19.0754994725
13
41.3357977157
23
-19.0754994725
0
ENDBLK
5
230
100
AcDbEntity
8
0
100
AcDbBlockEnd
0
ENDSEC
0
SECTION
2
ENTITIES
0
DIMENSION
5
231
100
AcDbEntity
8
0
100
AcDbDimension
62
7
6
CONTINUOUS
2
*D0
10
-15.2631159391
20
30.5245005109
11
-12.0111589432
21
32.7745005109
70
160
3
DIMSTYLE_1
100
AcDbAlignedDimension
13
-9.2631159391
23
22.1246718650
14
-15.2631159391
24
0.5245005275
50
180.000000
100
AcDbRotatedDimension
0
DIMENSION
5
232
100
AcDbEntity
8
0
100
AcDbDimension
62
7
6
CONTINUOUS
2
*D1
10
32.1357977113
20
30.5245005109
11
21.5318958069
21
32.7745005109
70
160
3
DIMSTYLE_1
100
AcDbAlignedDimension
13
10.1357977113
23
22.1246718650
14
32.1357977113
24
22.1246718650
100
AcDbRotatedDimension
0
DIMENSION
5
233
100
AcDbEntity
8
0
100
AcDbDimension
62
7
6
CONTINUOUS
2
*D2
10
40.3857977157
20
-22.0754994725
11
38.1357977157
21
-0.4601177243
70
160
3
DIMSTYLE_1
100
AcDbAlignedDimension
13
32.1359690488
23
22.1245005275
14
32.1359690488
24
-22.0754994725
50
270.000000
100
AcDbRotatedDimension
0
LINE
5
234
100
AcDbEntity
8
0
100
AcDbLine
62
7
6
CONTINUOUS
10
10.6356263738
20
-22.0754994725
11
31.6359690488
21
-22.0754994725
0
LINE
5
235
100
AcDbEntity
8
0
100
AcDbLine
62
9
6
CONTINUOUS
10
10.7395026687
20
-21.9716231775
11
31.5320927538
21
-21.9716231775
0
LINE
5
236
100
AcDbEntity
8
0
100
AcDbLine
62
9
6
CONTINUOUS
10
10.7521079479
20
-21.1203531152
11
31.5194874746
21
-21.1203531152
0
LINE
5
237
100
AcDbEntity
8
0
100
AcDbLine
62
7
6
CONTINUOUS
10
17.6357977009
20
-12.2754994851
11
19.0573367425
21
-12.2754994851
0
LINE
5
238
100
AcDbEntity
8
0
100
AcDbLine
62
7
6
CONTINUOUS
10
23.2142586795
20
-12.2754994851
11
24.6357976963
21
-12.2754994851
0
LINE
5
239
100
AcDbEntity
8
0
100
AcDbLine
62
7
6
CONTINUOUS
10
17.6357977009
20
-11.6754994659
11
19.3357977045
21
-11.6754994659
0
LINE
5
23A
100
AcDbEntity
8
0
100
AcDbLine
62
7
6
CONTINUOUS
10
22.9357976927
20
-11.6754994659
11
24.6357976963
21
-11.6754994659
0
LINE
5
23B
100
AcDbEntity
8
0
100
AcDbLine
62
7
6
CONTINUOUS
10
10.1357977113
20
-21.5756708100
11
10.1357977113
21
21.6246718650
0
LINE
5
23C
100
AcDbEntity
8
0
100
AcDbLine
62
9
6
CONTINUOUS
10
10.7776305469
20
-9.4754994725
11
10.7776305469
21
9.5245005275
0
LINE
5
23D
100
AcDbEntity
8
0
100
AcDbLine
62
7
6
CONTINUOUS
10
20.5457976975
20
-10.1754994687
11
21.7257976997
21
-10.1754994687
0
LINE
5
23E
100
AcDbEntity
8
0
100
AcDbLine
62
9
6
CONTINUOUS
10
31.6359690488
20
22.1245005275
11
31.5320927538
21
22.0206242326
0
LINE
5
23F
100
AcDbEntity
8
0
100
AcDbLine
62
7
6
CONTINUOUS
10
19.9457977037
20
-9.5754994749
11
22.3257976935
21
-9.5754994749
0
LINE
5
240
100
AcDbEntity
8
0
100
AcDbLine
62
9
6
CONTINUOUS
10
10.7776305469
20
-9.4754994725
11
31.4939648757
21
-9.4754994725
0
LINE
5
241
100
AcDbEntity
8
0
100
AcDbLine
62
9
6
CONTINUOUS
10
31.5320927538
20
-21.9716231775
11
31.6359690488
21
-22.0754994725
0
LINE
5
242
100
AcDbEntity
8
0
100
AcDbLine
62
9
6
CONTINUOUS
10
32.1357977113
20
21.6246718650
11
32.0319214163
21
21.5207955701
0
LINE
5
243
100
AcDbEntity
8
0
100
AcDbLine
62
9
6
CONTINUOUS
10
32.0319214163
20
-21.4717945150
11
32.1357977113
21
-21.5756708100
0
LINE
5
244
100
AcDbEntity
8
0
100
AcDbLine
62
9
6
CONTINUOUS
10
10.1357977113
20
-21.5756708100
11
10.2396740062
21
-21.4717945150
0
LINE
5
245
100
AcDbEntity
8
0
100
AcDbLine
62
9
6
CONTINUOUS
10
10.6356263738
20
-22.0754994725
11
10.7395026687
21
-21.9716231775
0
LINE
5
246
100
AcDbEntity
8
0
100
AcDbLine
62
9
6
CONTINUOUS
10
10.2396740062
20
21.5207955701
11
10.1357977113
21
21.6246718650
0
LINE
5
247
100
AcDbEntity
8
0
100
AcDbLine
62
9
6
CONTINUOUS
10
10.7395026687
20
22.0206242326
11
10.6356263738
21
22.1245005275
0
LINE
5
248
100
AcDbEntity
8
0
100
AcDbLine
62
9
6
CONTINUOUS
10
10.7776305469
20
9.5245005275
11
31.4939648757
21
9.5245005275
0
LINE
5
249
100
AcDbEntity
8
0
100
AcDbLine
62
9
6
CONTINUOUS
10
31.4939648757
20
9.5245005275
11
31.4939648757
21
-9.4754994725
0
LINE
5
24A
100
AcDbEntity
8
0
100
AcDbLine
62
7
6
CONTINUOUS
10
32.1357977113
20
-21.5756708100
11
32.1357977113
21
21.6246718650
0
LINE
5
24B
100
AcDbEntity
8
0
100
AcDbLine
62
9
6
CONTINUOUS
10
10.7521079479
20
21.1693541703
11
31.5194874746
21
21.1693541703
0
LINE
5
24C
100
AcDbEntity
8
0
100
AcDbLine
62
9
6
CONTINUOUS
10
10.7395026687
20
22.0206242326
11
31.5320927538
21
22.0206242326
0
LINE
5
24D
100
AcDbEntity
8
0
100
AcDbLine
62
7
6
CONTINUOUS
10
10.6356263738
20
22.1245005275
11
31.6359690488
21
22.1245005275
0
LINE
5
24E
100
AcDbEntity
8
0
100
AcDbLine
62
7
6
CONTINUOUS
10
-13.2299916013
20
-21.9716231775
11
-9.2631159391
21
-22.0754994725
0
LINE
5
24F
100
AcDbEntity
8
0
100
AcDbLine
62
9
6
CONTINUOUS
10
-13.2299916013
20
-21.4717945150
11
-9.2631159391
21
-21.5756708100
0
LINE
5
250
100
AcDbEntity
8
0
100
AcDbLine
62
9
6
CONTINUOUS
10
-14.6860365248
20
-9.4659994725
11
-15.1728577698
21
-9.4754994720
0
LINE
5
251
100
AcDbEntity
8
0
100
AcDbLine
62
7
6
CONTINUOUS
10
-9.2631159391
20
-22.0754994725
11
-9.2631159391
21
22.1245005275
0
LINE
5
252
100
AcDbEntity
8
0
100
AcDbLine
62
9
6
CONTINUOUS
10
-14.6860365248
20
9.5150005275
11
-15.1728577921
21
9.5245005275
0
LINE
5
253
100
AcDbEntity
8
0
100
AcDbLine
62
9
6
CONTINUOUS
10
-9.2631159391
20
21.6246718650
11
-13.2299916013
21
21.5207955701
0
LINE
5
254
100
AcDbEntity
8
0
100
AcDbLine
62
7
6
CONTINUOUS
10
-9.2631159391
20
22.1245005275
11
-13.2299916013
21
22.0206242326
0
ARC
5
255
100
AcDbEntity
8
0
100
AcDbCircle
62
7
6
CONTINUOUS
10
-13.2038146530
20
21.0209669076
40
1.0000000000
100
AcDbArc
50
91.5000000000
51
171.4665223736
0
ARC
5
256
100
AcDbEntity
8
0
100
AcDbCircle
62
7
6
CONTINUOUS
10
74.8108957411
20
7.8145005275
40
90.0000000000
100
AcDbArc
50
171.4665223736
51
178.9113146800
0
ARC
5
257
100
AcDbEntity
8
0
100
AcDbCircle
62
7
6
CONTINUOUS
10
484.7368840609
20
0.0245005275
40
500.0000000000
100
AcDbArc
50
178.9113146800
51
181.0886853200
0
ARC
5
258
100
AcDbEntity
8
0
100
AcDbCircle
62
7
6
CONTINUOUS
10
74.8108957411
20
-7.7654994725
40
90.0000000000
100
AcDbArc
50
181.0886853200
51
188.5334776264
0
ARC
5
259
100
AcDbEntity
8
0
100
AcDbCircle
62
7
6
CONTINUOUS
10
-13.2038146530
20
-20.9719658525
40
1.0000000000
100
AcDbArc
50
188.5334776264
51
268.5000000000
0
SPLINE
5
25A
100
AcDbEntity
8
0
100
AcDbSpline
62
7
6
CONTINUOUS
70
0
71
3
72
8
73
4
74
2
42
0.0000001000
43
0.0000001000
44
0.0000000001
12
-0.1116704545
22
-0.1116704543
32
0.0000000000
13
-0.1116704545
23
-0.1116704543
33
0.0000000000
40
0.0000000000
40
0.0000000000
40
0.0000000000
40
0.0000000000
40
1.0000000000
40
1.0000000000
40
1.0000000000
40
1.0000000000
10
18.6721326386
20
-14.0149004745
30
0.0000000000
10
18.6349091537
20
-14.0521239592
30
0.0000000000
10
18.5976856689
20
-14.0893474440
30
0.0000000000
10
18.5604621841
20
-14.1265709288
30
0.0000000000
11
18.6721326386
21
-14.0149004745
31
0.0000000000
11
18.5604621841
21
-14.1265709288
31
0.0000000000
0
SPLINE
5
25B
100
AcDbEntity
8
0
100
AcDbSpline
62
7
6
CONTINUOUS
70
0
71
3
72
8
73
4
74
2
42
0.0000001000
43
0.0000001000
44
0.0000000001
12
-0.1116702498
22
-0.1116702497
32
0.0000000000
13
-0.1116702498
23
-0.1116702498
33
0.0000000000
40
0.0000000000
40
0.0000000000
40
0.0000000000
40
0.0000000000
40
1.0000000000
40
1.0000000000
40
1.0000000000
40
1.0000000000
10
18.5604621841
20
-14.1265709288
30
0.0000000000
10
18.5232387674
20
-14.1637943453
30
0.0000000000
10
18.4860153508
20
-14.2010177619
30
0.0000000000
10
18.4487919343
20
-14.2382411785
30
0.0000000000
11
18.5604621841
21
-14.1265709288
31
0.0000000000
11
18.4487919343
21
-14.2382411785
31
0.0000000000
0
SPLINE
5
25C
100
AcDbEntity
8
0
100
AcDbSpline
62
7
6
CONTINUOUS
70
0
71
3
72
9
73
5
74
3
42
0.0000001000
43
0.0000001000
44
0.0000000001
12
0.1064780017
22
-0.3317064503
32
0.0000000000
13
0.1593970611
23
-0.3097730809
33
0.0000000000
40
0.0000000000
40
0.0000000000
40
0.0000000000
40
0.0000000000
40
0.4981319484
40
1.0000000000
40
1.0000000000
40
1.0000000000
40
1.0000000000
10
19.1358769660
20
-12.6160567618
30
0.0000000000
10
19.1535569974
20
-12.6711346219
30
0.0000000000
10
19.1936384775
20
-12.7802306179
30
0.0000000000
10
19.2424525629
20
-12.8857104048
30
0.0000000000
10
19.2691179937
20
-12.9375321423
30
0.0000000000
11
19.1358769660
21
-12.6160567618
31
0.0000000000
11
19.1956555978
21
-12.7789257144
31
0.0000000000
11
19.2691179937
21
-12.9375321423
31
0.0000000000
0
SPLINE
5
25D
100
AcDbEntity
8
0
100
AcDbSpline
62
7
6
CONTINUOUS
70
0
71
3
72
9
73
5
74
3
42
0.0000001000
43
0.0000001000
44
0.0000000001
12
0.1596719686
22
-0.3103073376
32
0.0000000000
13
0.2089266457
23
-0.2794123024
33
0.0000000000
40
0.0000000000
40
0.0000000000
40
0.0000000000
40
0.0000000000
40
0.4989032662
40
1.0000000000
40
1.0000000000
40
1.0000000000
40
1.0000000000
10
19.2691179937
20
-12.9375321423
30
0.0000000000
10
19.2956716160
20
-12.9891365904
30
0.0000000000
10
19.3532031809
20
-13.0903557784
30
0.0000000000
10
19.4190743416
20
-13.1863904205
30
0.0000000000
10
19.4539718282
20
-13.2330612845
30
0.0000000000
11
19.2691179937
21
-12.9375321423
31
0.0000000000
11
19.3551527499
21
-13.0888433007
31
0.0000000000
11
19.4539718282
21
-13.2330612845
31
0.0000000000
0
SPLINE
5
25E
100
AcDbEntity
8
0
100
AcDbSpline
62
7
6
CONTINUOUS
70
0
71
3
72
8
73
4
74
2
42
0.0000001000
43
0.0000001000
44
0.0000000001
12
-0.0369856905
22
-0.0000000004
32
0.0000000000
13
-0.0367678715
23
-0.0045584519
33
0.0000000000
40
0.0000000000
40
0.0000000000
40
0.0000000000
40
0.0000000000
40
1.0000000000
40
1.0000000000
40
1.0000000000
40
1.0000000000
10
17.6357976974
20
-11.6754994659
30
0.0000000000
10
17.6234691339
20
-11.6754994660
30
0.0000000000
10
17.6111212416
20
-11.6762633922
30
0.0000000000
10
17.5988652845
20
-11.6777828762
30
0.0000000000
11
17.6357976974
21
-11.6754994659
31
0.0000000000
11
17.5988652845
21
-11.6777828762
31
0.0000000000
0
SPLINE
5
25F
100
AcDbEntity
8
0
100
AcDbSpline
62
7
6
CONTINUOUS
70
0
71
3
72
23
73
19
74
17
42
0.0000001000
43
0.0000001000
44
0.0000000001
12
-0.8981753107
22
-0.1113550720
32
0.0000000000
13
0.9034963538
23
-0.0000041459
33
0.0000000000
40
0.0000000000
40
0.0000000000
40
0.0000000000
40
0.0000000000
40
0.0171595414
40
0.0746410798
40
0.1329585547
40
0.1912810321
40
0.2491305031
40
0.3069036730
40
0.3648655975
40
0.4228905558
40
0.5386108213
40
0.6537790211
40
0.7117927993
40
0.7698160362
40
0.8277483346
40
0.8855015856
40
0.9424707387
40
1.0000000000
40
1.0000000000
40
1.0000000000
40
1.0000000000
10
17.5988652845
20
-11.6777828762
30
0.0000000000
10
17.5937278590
20
-11.6784198102
30
0.0000000000
10
17.5714512008
20
-11.6817678439
30
0.0000000000
10
17.5325903292
20
-11.6921854676
30
0.0000000000
10
17.4848168086
20
-11.7144674907
30
0.0000000000
10
17.4415925925
20
-11.7448275425
30
0.0000000000
10
17.4044390840
20
-11.7821365889
30
0.0000000000
10
17.3743818556
20
-11.8252298745
30
0.0000000000
10
17.3522428458
20
-11.8729531388
30
0.0000000000
10
17.3342262287
20
-11.9406780943
30
0.0000000000
10
17.3344031134
20
-12.0296058356
30
0.0000000000
10
17.3651806470
20
-12.1130096336
30
0.0000000000
10
17.4055053809
20
-12.1701413621
30
0.0000000000
10
17.4428868127
20
-12.2072493729
30
0.0000000000
10
17.4860810351
20
-12.2372287219
30
0.0000000000
10
17.5335378059
20
-12.2591268316
30
0.0000000000
10
17.5839123489
20
-12.2724967285
30
0.0000000000
10
17.6184705053
20
-12.2754994056
30
0.0000000000
10
17.6357963313
20
-12.2754994851
30
0.0000000000
11
17.5988652845
21
-11.6777828762
31
0.0000000000
11
17.5835096648
21
-11.6800913391
31
0.0000000000
11
17.5333456633
21
-11.6935356733
31
0.0000000000
11
17.4855952467
21
-11.7158088355
31
0.0000000000
11
17.4424745986
21
-11.7460955002
31
0.0000000000
11
17.4055931928
21
-11.7831303245
31
0.0000000000
11
17.3757337933
21
-11.8259442358
31
0.0000000000
11
17.3536891564
21
-11.8734466711
31
0.0000000000
11
17.3402310309
21
-11.9241151456
31
0.0000000000
11
17.3405466764
21
-12.0286674952
31
0.0000000000
11
17.3764681464
21
-12.1263244997
31
0.0000000000
11
17.4066773327
21
-12.1691586159
31
0.0000000000
11
17.4438872825
21
-12.2060865460
31
0.0000000000
11
17.4868858297
21
-12.2359323083
31
0.0000000000
11
17.5342645101
21
-12.2577954495
31
0.0000000000
11
17.5840142774
21
-12.2709964853
31
0.0000000000
11
17.6357963313
21
-12.2754994851
31
0.0000000000
0
SPLINE
5
260
100
AcDbEntity
8
0
100
AcDbSpline
62
7
6
CONTINUOUS
70
0
71
3
72
9
73
5
74
3
42
0.0000001000
43
0.0000001000
44
0.0000000001
12
-0.0000000489
22
0.0934608909
32
0.0000000000
13
-0.0287054587
23
0.0890363824
33
0.0000000000
40
0.0000000000
40
0.0000000000
40
0.0000000000
40
0.0000000000
40
0.5078695369
40
1.0000000000
40
1.0000000000
40
1.0000000000
40
1.0000000000
10
19.6357977141
20
-11.9754993191
30
0.0000000000
10
19.6357977058
20
-11.9596773393
30
0.0000000000
10
19.6333226595
20
-11.9284670320
30
0.0000000000
10
19.6260360998
20
-11.8980566815
30
0.0000000000
10
19.6213271562
20
-11.8834508428
30
0.0000000000
11
19.6357977141
21
-11.9754993191
31
0.0000000000
11
19.6320426639
21
-11.9281821447
31
0.0000000000
11
19.6213271562
21
-11.8834508428
31
0.0000000000
0
SPLINE
5
261
100
AcDbEntity
8
0
100
AcDbSpline
62
7
6
CONTINUOUS
70
0
71
3
72
16
73
12
74
10
42
0.0000001000
43
0.0000001000
44
0.0000000001
12
-0.1158812009
22
0.3594313893
32
0.0000000000
13
-0.3772927266
23
0.0000010008
33
0.0000000000
40
0.0000000000
40
0.0000000000
40
0.0000000000
40
0.0000000000
40
0.0024631547
40
0.1277391259
40
0.2530450793
40
0.3783564289
40
0.5034731640
40
0.6281059905
40
0.7524044120
40
0.8756197671
40
1.0000000000
40
1.0000000000
40
1.0000000000
40
1.0000000000
10
19.6213271562
20
-11.8834508428
30
0.0000000000
10
19.6212320118
20
-11.8831557311
30
0.0000000000
10
19.6162740483
20
-11.8678588695
30
0.0000000000
10
19.6040118878
20
-11.8383468721
30
0.0000000000
10
19.5791369056
20
-11.7979165419
30
0.0000000000
10
19.5482320711
20
-11.7619104500
30
0.0000000000
10
19.5121229850
20
-11.7312581021
30
0.0000000000
10
19.4717717930
20
-11.7067043480
30
0.0000000000
10
19.4283026763
20
-11.6888400675
30
0.0000000000
10
19.3826350641
20
-11.6779451318
30
0.0000000000
10
19.3514410827
20
-11.6754995074
30
0.0000000000
10
19.3357984970
20
-11.6754994659
30
0.0000000000
11
19.6213271562
21
-11.8834508428
31
0.0000000000
11
19.6210403479
21
-11.8825659500
31
0.0000000000
11
19.6029037008
21
-11.8389183915
31
0.0000000000
11
19.5781300602
21
-11.7986519844
31
0.0000000000
11
19.5473367373
21
-11.7627760791
31
0.0000000000
11
19.5113492013
21
-11.7322266293
31
0.0000000000
11
19.4711785237
21
-11.7077831339
31
0.0000000000
11
19.4278022049
21
-11.6899558227
31
0.0000000000
11
19.3825824892
21
-11.6791699466
31
0.0000000000
11
19.3357984970
21
-11.6754994659
31
0.0000000000
0
SPLINE
5
262
100
AcDbEntity
8
0
100
AcDbSpline
62
7
6
CONTINUOUS
70
0
71
3
72
8
73
4
74
2
42
0.0000001000
43
0.0000001000
44
0.0000000001
12
0.0000089837
22
-0.1182571780
32
0.0000000000
13
-0.0092553368
23
-0.1179664047
33
0.0000000000
40
0.0000000000
40
0.0000000000
40
0.0000000000
40
0.0000000000
40
1.0000000000
40
1.0000000000
40
1.0000000000
40
1.0000000000
10
22.6357977041
20
-11.9753841467
30
0.0000000000
10
22.6358006986
20
-12.0148032060
30
0.0000000000
10
22.6342780294
20
-12.0542482097
30
0.0000000000
10
22.6311929171
20
-12.0935703446
30
0.0000000000
11
22.6357977041
21
-11.9753841467
31
0.0000000000
11
22.6311929171
21
-12.0935703446
31
0.0000000000
0
SPLINE
5
263
100
AcDbEntity
8
0
100
AcDbSpline
62
7
6
CONTINUOUS
70
0
71
3
72
8
73
4
74
2
42
0.0000001000
43
0.0000001000
44
0.0000000001
12
-0.0093089706
22
0.1182676943
32
0.0000000000
13
0.0000000121
23
0.1185616981
33
0.0000000000
40
0.0000000000
40
0.0000000000
40
0.0000000000
40
0.0000000000
40
1.0000000000
40
1.0000000000
40
1.0000000000
40
1.0000000000
10
19.6404324753
20
-12.0939889166
30
0.0000000000
10
19.6373294851
20
-12.0545663518
30
0.0000000000
10
19.6357977100
20
-12.0150198851
30
0.0000000000
10
19.6357977141
20
-11.9754993191
30
0.0000000000
11
19.6404324753
21
-12.0939889166
31
0.0000000000
11
19.6357977141
21
-11.9754993191
31
0.0000000000
0
SPLINE
5
264
100
AcDbEntity
8
0
100
AcDbSpline
62
7
6
CONTINUOUS
70
0
71
3
72
9
73
5
74
3
42
0.0000001000
43
0.0000001000
44
0.0000000001
12
0.0555687177
22
-0.0782595218
32
0.0000000000
13
0.0774731537
23
-0.0568443812
33
0.0000000000
40
0.0000000000
40
0.0000000000
40
0.0000000000
40
0.0000000000
40
0.5467216522
40
1.0000000000
40
1.0000000000
40
1.0000000000
40
1.0000000000
10
22.4403826996
20
-11.0491853000
30
0.0000000000
10
22.4505095734
20
-11.0634473584
30
0.0000000000
10
22.4713670377
20
-11.0879634599
30
0.0000000000
10
22.4958139195
20
-11.1087865946
30
0.0000000000
10
22.5075195538
20
-11.1173753704
30
0.0000000000
11
22.4403826996
21
-11.0491853000
31
0.0000000000
11
22.4743889213
21
-11.0891504808
31
0.0000000000
11
22.5075195538
21
-11.1173753704
31
0.0000000000
0
SPLINE
5
265
100
AcDbEntity
8
0
100
AcDbSpline
62
7
6
CONTINUOUS
70
0
71
3
72
8
73
4
74
2
42
0.0000001000
43
0.0000001000
44
0.0000000001
12
-0.0176297477
22
0.0327724192
32
0.0000000000
13
-0.0215080335
23
0.0302909965
33
0.0000000000
40
0.0000000000
40
0.0000000000
40
0.0000000000
40
0.0000000000
40
1.0000000000
40
1.0000000000
40
1.0000000000
40
1.0000000000
10
22.9491985827
20
-10.7333953435
30
0.0000000000
10
22.9433220001
20
-10.7224712038
30
0.0000000000
10
22.9367698428
20
-10.7119122286
30
0.0000000000
10
22.9296004983
20
-10.7018152298
30
0.0000000000
11
22.9491985827
21
-10.7333953435
31
0.0000000000
11
22.9296004983
21
-10.7018152298
31
0.0000000000
0
SPLINE
5
266
100
AcDbEntity
8
0
100
AcDbSpline
62
7
6
CONTINUOUS
70
0
71
3
72
9
73
5
74
3
42
0.0000001000
43
0.0000001000
44
0.0000000001
12
0.2577854954
22
-0.1657315478
32
0.0000000000
13
0.2219464527
23
-0.2113292595
33
0.0000000000
40
0.0000000000
40
0.0000000000
40
0.0000000000
40
0.0000000000
40
0.4975311660
40
1.0000000000
40
1.0000000000
40
1.0000000000
40
1.0000000000
10
21.9996862016
20
-10.6287656750
30
0.0000000000
10
22.0424383076
20
-10.6562512117
30
0.0000000000
10
22.1257171939
20
-10.7156139803
30
0.0000000000
10
22.2031102033
20
-10.7824725914
30
0.0000000000
10
22.2402839284
20
-10.8178680469
30
0.0000000000
11
21.9996862016
21
-10.6287656750
31
0.0000000000
11
22.1238490166
21
-10.7171763670
31
0.0000000000
11
22.2402839284
21
-10.8178680469
31
0.0000000000
0
SPLINE
5
267
100
AcDbEntity
8
0
100
AcDbSpline
62
7
6
CONTINUOUS
70
0
71
3
72
9
73
5
74
3
42
0.0000001000
43
0.0000001000
44
0.0000000001
12
0.2218419353
22
-0.2112297418
32
0.0000000000
13
0.1772807374
23
-0.2496753048
33
0.0000000000
40
0.0000000000
40
0.0000000000
40
0.0000000000
40
0.0000000000
40
0.4986137628
40
1.0000000000
40
1.0000000000
40
1.0000000000
40
1.0000000000
10
22.2402839284
20
-10.8178680469
30
0.0000000000
10
22.2771550758
20
-10.8529753990
30
0.0000000000
10
22.3477209406
20
-10.9269388555
30
0.0000000000
10
22.4107539923
20
-11.0074573795
30
0.0000000000
10
22.4403826996
20
-11.0491853000
30
0.0000000000
11
22.2402839284
21
-10.8178680469
31
0.0000000000
11
22.3456525230
21
-10.9283634863
31
0.0000000000
11
22.4403826996
21
-11.0491853000
31
0.0000000000
0
SPLINE
5
268
100
AcDbEntity
8
0
100
AcDbSpline
62
7
6
CONTINUOUS
70
0
71
3
72
8
73
4
74
2
42
0.0000001000
43
0.0000001000
44
0.0000000001
12
0.0000000000
22
-0.0463358550
32
0.0000000000
13
0.0000000000
23
-0.0463358550
33
0.0000000000
40
0.0000000000
40
0.0000000000
40
0.0000000000
40
0.0000000000
40
1.0000000000
40
1.0000000000
40
1.0000000000
40
1.0000000000
10
21.7257976997
20
-10.1754994687
30
0.0000000000
10
21.7257976997
20
-10.1909447537
30
0.0000000000
10
21.7257976997
20
-10.2063900387
30
0.0000000000
10
21.7257976997
20
-10.2218353237
30
0.0000000000
11
21.7257976997
21
-10.1754994687
31
0.0000000000
11
21.7257976997
21
-10.2218353237
31
0.0000000000
0
SPLINE
5
269
100
AcDbEntity
8
0
100
AcDbSpline
62
7
6
CONTINUOUS
70
0
71
3
72
8
73
4
74
2
42
0.0000001000
43
0.0000001000
44
0.0000000001
12
0.0000000000
22
-0.0115838703
32
0.0000000000
13
0.0000000000
23
-0.0115838703
33
0.0000000000
40
0.0000000000
40
0.0000000000
40
0.0000000000
40
0.0000000000
40
1.0000000000
40
1.0000000000
40
1.0000000000
40
1.0000000000
10
21.7257976997
20
-10.2218353237
30
0.0000000000
10
21.7257976997
20
-10.2256966138
30
0.0000000000
10
21.7257976997
20
-10.2295579039
30
0.0000000000
10
21.7257976997
20
-10.2334191940
30
0.0000000000
11
21.7257976997
21
-10.2218353237
31
0.0000000000
11
21.7257976997
21
-10.2334191940
31
0.0000000000
0
SPLINE
5
26A
100
AcDbEntity
8
0
100
AcDbSpline
62
7
6
CONTINUOUS
70
0
71
3
72
8
73
4
74
2
42
0.0000001000
43
0.0000001000
44
0.0000000001
12
0.0000000000
22
-0.0463351203
32
0.0000000000
13
0.0000000000
23
-0.0463351203
33
0.0000000000
40
0.0000000000
40
0.0000000000
40
0.0000000000
40
0.0000000000
40
1.0000000000
40
1.0000000000
40
1.0000000000
40
1.0000000000
10
21.7257976997
20
-10.2334191940
30
0.0000000000
10
21.7257976997
20
-10.2488642341
30
0.0000000000
10
21.7257976997
20
-10.2643092742
30
0.0000000000
10
21.7257976997
20
-10.2797543143
30
0.0000000000
11
21.7257976997
21
-10.2334191940
31
0.0000000000
11
21.7257976997
21
-10.2797543143
31
0.0000000000
0
SPLINE
5
26B
100
AcDbEntity
8
0
100
AcDbSpline
62
7
6
CONTINUOUS
70
0
71
3
72
8
73
4
74
2
42
0.0000001000
43
0.0000001000
44
0.0000000001
12
0.0000000000
22
-0.0463343648
32
0.0000000000
13
0.0000000000
23
-0.0463343648
33
0.0000000000
40
0.0000000000
40
0.0000000000
40
0.0000000000
40
0.0000000000
40
1.0000000000
40
1.0000000000
40
1.0000000000
40
1.0000000000
10
21.7257976997
20
-10.2797543143
30
0.0000000000
10
21.7257976997
20
-10.2951991026
30
0.0000000000
10
21.7257976997
20
-10.3106438909
30
0.0000000000
10
21.7257976997
20
-10.3260886792
30
0.0000000000
11
21.7257976997
21
-10.2797543143
31
0.0000000000
11
21.7257976997
21
-10.3260886792
31
0.0000000000
0
SPLINE
5
26C
100
AcDbEntity
8
0
100
AcDbSpline
62
7
6
CONTINUOUS
70
0
71
3
72
9
73
5
74
3
42
0.0000001000
43
0.0000001000
44
0.0000000001
12
0.0000000000
22
-0.0115834960
32
0.0000000000
13
-0.0000000000
23
-0.0115834960
33
0.0000000000
40
0.0000000000
40
0.0000000000
40
0.0000000000
40
0.0000000000
40
0.5000042908
40
1.0000000000
40
1.0000000000
40
1.0000000000
40
1.0000000000
10
21.7257976997
20
-10.3260886792
30
0.0000000000
10
21.7257976997
20
-10.3280192784
30
0.0000000000
10
21.7257976997
20
-10.3318804437
30
0.0000000000
10
21.7257976997
20
-10.3357416091
30
0.0000000000
10
21.7257976997
20
-10.3376721752
30
0.0000000000
11
21.7257976997
21
-10.3260886792
31
0.0000000000
11
21.7257976997
21
-10.3318804769
31
0.0000000000
11
21.7257976997
21
-10.3376721752
31
0.0000000000
0
SPLINE
5
26D
100
AcDbEntity
8
0
100
AcDbSpline
62
7
6
CONTINUOUS
70
0
71
3
72
8
73
4
74
2
42
0.0000001000
43
0.0000001000
44
0.0000000001
12
-0.0000000000
22
-0.0463336007
32
0.0000000000
13
-0.0000000000
23
-0.0463336007
33
0.0000000000
40
0.0000000000
40
0.0000000000
40
0.0000000000
40
0.0000000000
40
1.0000000000
40
1.0000000000
40
1.0000000000
40
1.0000000000
10
21.7257976997
20
-10.3376721752
30
0.0000000000
10
21.7257976997
20
-10.3531167087
30
0.0000000000
10
21.7257976997
20
-10.3685612423
30
0.0000000000
10
21.7257976997
20
-10.3840057759
30
0.0000000000
11
21.7257976997
21
-10.3376721752
31
0.0000000000
11
21.7257976997
21
-10.3840057759
31
0.0000000000
0
SPLINE
5
26E
100
AcDbEntity
8
0
100
AcDbSpline
62
7
6
CONTINUOUS
70
0
71
3
72
8
73
4
74
2
42
0.0000001000
43
0.0000001000
44
0.0000000001
12
-0.0000000000
22
-0.0463328141
32
0.0000000000
13
-0.0000000000
23
-0.0463328141
33
0.0000000000
40
0.0000000000
40
0.0000000000
40
0.0000000000
40
0.0000000000
40
1.0000000000
40
1.0000000000
40
1.0000000000
40
1.0000000000
10
21.7257976997
20
-10.3840057759
30
0.0000000000
10
21.7257976997
20
-10.3994500472
30
0.0000000000
10
21.7257976997
20
-10.4148943186
30
0.0000000000
10
21.7257976997
20
-10.4303385899
30
0.0000000000
11
21.7257976997
21
-10.3840057759
31
0.0000000000
11
21.7257976997
21
-10.4303385899
31
0.0000000000
0
SPLINE
5
26F
100
AcDbEntity
8
0
100
AcDbSpline
62
7
6
CONTINUOUS
70
0
71
3
72
8
73
4
74
2
42
0.0000001000
43
0.0000001000
44
0.0000000001
12
-0.0000000000
22
-0.0115831062
32
0.0000000000
13
-0.0000000000
23
-0.0115831062
33
0.0000000000
40
0.0000000000
40
0.0000000000
40
0.0000000000
40
0.0000000000
40
1.0000000000
40
1.0000000000
40
1.0000000000
40
1.0000000000
10
21.7257976997
20
-10.4303385899
30
0.0000000000
10
21.7257976997
20
-10.4341996253
30
0.0000000000
10
21.7257976997
20
-10.4380606608
30
0.0000000000
10
21.7257976997
20
-10.4419216962
30
0.0000000000
11
21.7257976997
21
-10.4303385899
31
0.0000000000
11
21.7257976997
21
-10.4419216962
31
0.0000000000
0
SPLINE
5
270
100
AcDbEntity
8
0
100
AcDbSpline
62
7
6
CONTINUOUS
70
0
71
3
72
8
73
4
74
2
42
0.0000001000
43
0.0000001000
44
0.0000000001
12
-0.0000000000
22
-0.0463320171
32
0.0000000000
13
0.0000000000
23
-0.0463320171
33
0.0000000000
40
0.0000000000
40
0.0000000000
40
0.0000000000
40
0.0000000000
40
1.0000000000
40
1.0000000000
40
1.0000000000
40
1.0000000000
10
21.7257976997
20
-10.4419216962
30
0.0000000000
10
21.7257976997
20
-10.4573657019
30
0.0000000000
10
21.7257976997
20
-10.4728097076
30
0.0000000000
10
21.7257976997
20
-10.4882537133
30
0.0000000000
11
21.7257976997
21
-10.4419216962
31
0.0000000000
11
21.7257976997
21
-10.4882537133
31
0.0000000000
0
SPLINE
5
271
100
AcDbEntity
8
0
100
AcDbSpline
62
7
6
CONTINUOUS
70
0
71
3
72
8
73
4
74
2
42
0.0000001000
43
0.0000001000
44
0.0000000001
12
0.0000000000
22
0.0463320186
32
0.0000000000
13
-0.0000000000
23
0.0463320186
33
0.0000000000
40
0.0000000000
40
0.0000000000
40
0.0000000000
40
0.0000000000
40
1.0000000000
40
1.0000000000
40
1.0000000000
40
1.0000000000
10
20.5457976975
20
-10.4882537073
30
0.0000000000
10
20.5457976975
20
-10.4728097011
30
0.0000000000
10
20.5457976975
20
-10.4573656949
30
0.0000000000
10
20.5457976975
20
-10.4419216886
30
0.0000000000
11
20.5457976975
21
-10.4882537073
31
0.0000000000
11
20.5457976975
21
-10.4419216886
31
0.0000000000
0
SPLINE
5
272
100
AcDbEntity
8
0
100
AcDbSpline
62
7
6
CONTINUOUS
70
0
71
3
72
8
73
4
74
2
42
0.0000001000
43
0.0000001000
44
0.0000000001
12
-0.0000000000
22
0.0115831054
32
0.0000000000
13
-0.0000000000
23
0.0115831054
33
0.0000000000
40
0.0000000000
40
0.0000000000
40
0.0000000000
40
0.0000000000
40
1.0000000000
40
1.0000000000
40
1.0000000000
40
1.0000000000
10
20.5457976975
20
-10.4419216886
30
0.0000000000
10
20.5457976975
20
-10.4380606535
30
0.0000000000
10
20.5457976975
20
-10.4341996184
30
0.0000000000
10
20.5457976975
20
-10.4303385832
30
0.0000000000
11
20.5457976975
21
-10.4419216886
31
0.0000000000
11
20.5457976975
21
-10.4303385832
31
0.0000000000
0
SPLINE
5
273
100
AcDbEntity
8
0
100
AcDbSpline
62
7
6
CONTINUOUS
70
0
71
3
72
8
73
4
74
2
42
0.0000001000
43
0.0000001000
44
0.0000000001
12
-0.0000000000
22
0.0463328156
32
0.0000000000
13
-0.0000000000
23
0.0463328156
33
0.0000000000
40
0.0000000000
40
0.0000000000
40
0.0000000000
40
0.0000000000
40
1.0000000000
40
1.0000000000
40
1.0000000000
40
1.0000000000
10
20.5457976975
20
-10.4303385832
30
0.0000000000
10
20.5457976975
20
-10.4148943113
30
0.0000000000
10
20.5457976975
20
-10.3994500395
30
0.0000000000
10
20.5457976975
20
-10.3840057676
30
0.0000000000
11
20.5457976975
21
-10.4303385832
31
0.0000000000
11
20.5457976975
21
-10.3840057676
31
0.0000000000
0
SPLINE
5
274
100
AcDbEntity
8
0
100
AcDbSpline
62
7
6
CONTINUOUS
70
0
71
3
72
8
73
4
74
2
42
0.0000001000
43
0.0000001000
44
0.0000000001
12
-0.0000000000
22
0.0463335993
32
0.0000000000
13
-0.0000000000
23
0.0463335993
33
0.0000000000
40
0.0000000000
40
0.0000000000
40
0.0000000000
40
0.0000000000
40
1.0000000000
40
1.0000000000
40
1.0000000000
40
1.0000000000
10
20.5457976975
20
-10.3840057676
30
0.0000000000
10
20.5457976975
20
-10.3685612345
30
0.0000000000
10
20.5457976975
20
-10.3531167014
30
0.0000000000
10
20.5457976975
20
-10.3376721683
30
0.0000000000
11
20.5457976975
21
-10.3840057676
31
0.0000000000
11
20.5457976975
21
-10.3376721683
31
0.0000000000
0
SPLINE
5
275
100
AcDbEntity
8
0
100
AcDbSpline
62
7
6
CONTINUOUS
70
0
71
3
72
9
73
5
74
3
42
0.0000001000
43
0.0000001000
44
0.0000000001
12
-0.0000000000
22
0.0115834958
32
0.0000000000
13
0.0000000000
23
0.0115834958
33
0.0000000000
40
0.0000000000
40
0.0000000000
40
0.0000000000
40
0.0000000000
40
0.4999957947
40
1.0000000000
40
1.0000000000
40
1.0000000000
40
1.0000000000
10
20.5457976975
20
-10.3376721683
30
0.0000000000
10
20.5457976975
20
-10.3357416019
30
0.0000000000
10
20.5457976975
20
-10.3318804366
30
0.0000000000
10
20.5457976975
20
-10.3280192713
30
0.0000000000
10
20.5457976975
20
-10.3260886725
30
0.0000000000
11
20.5457976975
21
-10.3376721683
31
0.0000000000
11
20.5457976975
21
-10.3318804691
31
0.0000000000
11
20.5457976975
21
-10.3260886725
31
0.0000000000
0
SPLINE
5
276
100
AcDbEntity
8
0
100
AcDbSpline
62
7
6
CONTINUOUS
70
0
71
3
72
8
73
4
74
2
42
0.0000001000
43
0.0000001000
44
0.0000000001
12
0.0000000000
22
0.0463343644
32
0.0000000000
13
0.0000000000
23
0.0463343644
33
0.0000000000
40
0.0000000000
40
0.0000000000
40
0.0000000000
40
0.0000000000
40
1.0000000000
40
1.0000000000
40
1.0000000000
40
1.0000000000
10
20.5457976975
20
-10.3260886725
30
0.0000000000
10
20.5457976975
20
-10.3106438843
30
0.0000000000
10
20.5457976975
20
-10.2951990962
30
0.0000000000
10
20.5457976975
20
-10.2797543081
30
0.0000000000
11
20.5457976975
21
-10.3260886725
31
0.0000000000
11
20.5457976975
21
-10.2797543081
31
0.0000000000
0
SPLINE
5
277
100
AcDbEntity
8
0
100
AcDbSpline
62
7
6
CONTINUOUS
70
0
71
3
72
8
73
4
74
2
42
0.0000001000
43
0.0000001000
44
0.0000000001
12
0.0000000000
22
0.0463351171
32
0.0000000000
13
0.0000000000
23
0.0463351171
33
0.0000000000
40
0.0000000000
40
0.0000000000
40
0.0000000000
40
0.0000000000
40
1.0000000000
40
1.0000000000
40
1.0000000000
40
1.0000000000
10
20.5457976975
20
-10.2797543081
30
0.0000000000
10
20.5457976975
20
-10.2643092691
30
0.0000000000
10
20.5457976975
20
-10.2488642300
30
0.0000000000
10
20.5457976975
20
-10.2334191910
30
0.0000000000
11
20.5457976975
21
-10.2797543081
31
0.0000000000
11
20.5457976975
21
-10.2334191910
31
0.0000000000
0
SPLINE
5
278
100
AcDbEntity
8
0
100
AcDbSpline
62
7
6
CONTINUOUS
70
0
71
3
72
8
73
4
74
2
42
0.0000001000
43
0.0000001000
44
0.0000000001
12
0.0000000000
22
0.0115838705
32
0.0000000000
13
0.0000000000
23
0.0115838705
33
0.0000000000
40
0.0000000000
40
0.0000000000
40
0.0000000000
40
0.0000000000
40
1.0000000000
40
1.0000000000
40
1.0000000000
40
1.0000000000
10
20.5457976975
20
-10.2334191910
30
0.0000000000
10
20.5457976975
20
-10.2295579008
30
0.0000000000
10
20.5457976975
20
-10.2256966107
30
0.0000000000
10
20.5457976975
20
-10.2218353205
30
0.0000000000
11
20.5457976975
21
-10.2334191910
31
0.0000000000
11
20.5457976975
21
-10.2218353205
31
0.0000000000
0
SPLINE
5
279
100
AcDbEntity
8
0
100
AcDbSpline
62
7
6
CONTINUOUS
70
0
71
3
72
8
73
4
74
2
42
0.0000001000
43
0.0000001000
44
0.0000000001
12
0.0000000000
22
0.0463358518
32
0.0000000000
13
0.0000000000
23
0.0463358518
33
0.0000000000
40
0.0000000000
40
0.0000000000
40
0.0000000000
40
0.0000000000
40
1.0000000000
40
1.0000000000
40
1.0000000000
40
1.0000000000
10
20.5457976975
20
-10.2218353205
30
0.0000000000
10
20.5457976975
20
-10.2063900366
30
0.0000000000
10
20.5457976975
20
-10.1909447526
30
0.0000000000
10
20.5457976975
20
-10.1754994687
30
0.0000000000
11
20.5457976975
21
-10.2218353205
31
0.0000000000
11
20.5457976975
21
-10.1754994687
31
0.0000000000
0
SPLINE
5
27A
100
AcDbEntity
8
0
100
AcDbSpline
62
7
6
CONTINUOUS
70
0
71
3
72
9
73
5
74
3
42
0.0000001000
43
0.0000001000
44
0.0000000001
12
0.1765121903
22
0.2485920972
32
0.0000000000
13
0.2207039224
23
0.2104983781
33
0.0000000000
40
0.0000000000
40
0.0000000000
40
0.0000000000
40
0.0000000000
40
0.5044820941
40
1.0000000000
40
1.0000000000
40
1.0000000000
40
1.0000000000
10
19.8312141790
20
-11.0491832235
30
0.0000000000
10
19.8608965922
20
-11.0073798029
30
0.0000000000
10
19.9236638914
20
-10.9272156228
30
0.0000000000
10
19.9938971750
20
-10.8535508832
30
0.0000000000
10
20.0303514234
20
-10.8187823113
30
0.0000000000
11
19.8312141790
21
-11.0491832235
31
0.0000000000
11
19.9261266586
21
-10.9281511378
31
0.0000000000
11
20.0303514234
21
-10.8187823113
31
0.0000000000
0
SPLINE
5
27B
100
AcDbEntity
8
0
100
AcDbSpline
62
7
6
CONTINUOUS
70
0
71
3
72
10
73
6
74
4
42
0.0000001000
43
0.0000001000
44
0.0000000001
12
0.1456710925
22
0.1389351326
32
0.0000000000
13
0.1617680144
23
0.1198238583
33
0.0000000000
40
0.0000000000
40
0.0000000000
40
0.0000000000
40
0.0000000000
40
0.0094113885
40
0.7740570909
40
1.0000000000
40
1.0000000000
40
1.0000000000
40
1.0000000000
10
20.0303514234
20
-10.8187823113
30
0.0000000000
10
20.0308084125
20
-10.8183464538
30
0.0000000000
10
20.0684156840
20
-10.7825209529
30
0.0000000000
10
20.1192665145
20
-10.7386214350
30
0.0000000000
10
20.1721296914
20
-10.6983094612
30
0.0000000000
10
20.1843131366
20
-10.6892850109
30
0.0000000000
11
20.0303514234
21
-10.8187823113
31
0.0000000000
11
20.0317231693
21
-10.8174755564
31
0.0000000000
11
20.1481442050
21
-10.7168640881
31
0.0000000000
11
20.1843131366
21
-10.6892850109
31
0.0000000000
0
SPLINE
5
27C
100
AcDbEntity
8
0
100
AcDbSpline
62
7
6
CONTINUOUS
70
0
71
3
72
8
73
4
74
2
42
0.0000001000
43
0.0000001000
44
0.0000000001
12
0.0641003629
22
0.0474800462
32
0.0000000000
13
0.0663642528
23
0.0442543165
33
0.0000000000
40
0.0000000000
40
0.0000000000
40
0.0000000000
40
0.0000000000
40
1.0000000000
40
1.0000000000
40
1.0000000000
40
1.0000000000
10
20.1843131366
20
-10.6892850109
30
0.0000000000
10
20.2056799243
20
-10.6734583288
30
0.0000000000
10
20.2274339593
20
-10.6581553993
30
0.0000000000
10
20.2495553769
20
-10.6434039605
30
0.0000000000
11
20.1843131366
21
-10.6892850109
31
0.0000000000
11
20.2495553769
21
-10.6434039605
31
0.0000000000
0
SPLINE
5
27D
100
AcDbEntity
8
0
100
AcDbSpline
62
7
6
CONTINUOUS
70
0
71
3
72
8
73
4
74
2
42
0.0000001000
43
0.0000001000
44
0.0000000001
12
0.0208041653
22
0.0138730427
32
0.0000000000
13
0.0210189511
23
0.0135453008
33
0.0000000000
40
0.0000000000
40
0.0000000000
40
0.0000000000
40
0.0000000000
40
1.0000000000
40
1.0000000000
40
1.0000000000
40
1.0000000000
10
20.2495553769
20
-10.6434039605
30
0.0000000000
10
20.2564900987
20
-10.6387796129
30
0.0000000000
10
20.2634609240
20
-10.6342094617
30
0.0000000000
10
20.2704672411
20
-10.6296943614
30
0.0000000000
11
20.2495553769
21
-10.6434039605
31
0.0000000000
11
20.2704672411
21
-10.6296943614
31
0.0000000000
0
SPLINE
5
27E
100
AcDbEntity
8
0
100
AcDbSpline
62
7
6
CONTINUOUS
70
0
71
3
72
9
73
5
74
3
42
0.0000001000
43
0.0000001000
44
0.0000000001
12
0.0500754083
22
0.0322702339
32
0.0000000000
13
0.0512524959
23
0.0303682133
33
0.0000000000
40
0.0000000000
40
0.0000000000
40
0.0000000000
40
0.0000000000
40
0.0606178043
40
1.0000000000
40
1.0000000000
40
1.0000000000
40
1.0000000000
10
20.2704672411
20
-10.6296943614
30
0.0000000000
10
20.2714790615
20
-10.6290423112
30
0.0000000000
10
20.2881830753
20
-10.6183045071
30
0.0000000000
10
20.3050880309
20
-10.6078798613
30
0.0000000000
10
20.3211365916
20
-10.5983707416
30
0.0000000000
11
20.2704672411
21
-10.6296943614
31
0.0000000000
11
20.2735049211
21
-10.6277416577
31
0.0000000000
11
20.3211365916
21
-10.5983707416
31
0.0000000000
0
SPLINE
5
27F
100
AcDbEntity
8
0
100
AcDbSpline
62
7
6
CONTINUOUS
70
0
71
3
72
8
73
4
74
2
42
0.0000001000
43
0.0000001000
44
0.0000000001
12
0.0370778551
22
0.0219694318
32
0.0000000000
13
0.0376646197
23
0.0209502656
33
0.0000000000
40
0.0000000000
40
0.0000000000
40
0.0000000000
40
0.0000000000
40
1.0000000000
40
1.0000000000
40
1.0000000000
40
1.0000000000
10
20.3211365916
20
-10.5983707416
30
0.0000000000
10
20.3334958767
20
-10.5910475977
30
0.0000000000
10
20.3459550049
20
-10.5838926559
30
0.0000000000
10
20.3585098781
20
-10.5769092340
30
0.0000000000
11
20.3211365916
21
-10.5983707416
31
0.0000000000
11
20.3585098781
21
-10.5769092340
31
0.0000000000
0
SPLINE
5
280
100
AcDbEntity
8
0
100
AcDbSpline
62
7
6
CONTINUOUS
70
0
71
3
72
8
73
4
74
2
42
0.0000001000
43
0.0000001000
44
0.0000000001
12
0.0448002730
22
0.0249193441
32
0.0000000000
13
0.0455923424
23
0.0234465991
33
0.0000000000
40
0.0000000000
40
0.0000000000
40
0.0000000000
40
0.0000000000
40
1.0000000000
40
1.0000000000
40
1.0000000000
40
1.0000000000
10
20.3585098781
20
-10.5769092340
30
0.0000000000
10
20.3734433024
20
-10.5686027860
30
0.0000000000
10
20.3885121865
20
-10.5605390039
30
0.0000000000
10
20.4037096340
20
-10.5527234708
30
0.0000000000
11
20.3585098781
21
-10.5769092340
31
0.0000000000
11
20.4037096340
21
-10.5527234708
31
0.0000000000
0
SPLINE
5
281
100
AcDbEntity
8
0
100
AcDbSpline
62
7
6
CONTINUOUS
70
0
71
3
72
9
73
5
74
3
42
0.0000001000
43
0.0000001000
44
0.0000000001
12
0.0462660545
22
0.0237930664
32
0.0000000000
13
0.0470264925
23
0.0222565083
33
0.0000000000
40
0.0000000000
40
0.0000000000
40
0.0000000000
40
0.0000000000
40
0.0484831593
40
1.0000000000
40
1.0000000000
40
1.0000000000
40
1.0000000000
10
20.4037096340
20
-10.5527234708
30
0.0000000000
10
20.4044573422
20
-10.5523389498
30
0.0000000000
10
20.4198857791
20
-10.5444203219
30
0.0000000000
10
20.4354462575
20
-10.5367576169
30
0.0000000000
10
20.4503617574
20
-10.5296984694
30
0.0000000000
11
20.4037096340
21
-10.5527234708
31
0.0000000000
11
20.4059536913
21
-10.5515717112
31
0.0000000000
11
20.4503617574
21
-10.5296984694
31
0.0000000000
0
SPLINE
5
282
100
AcDbEntity
8
0
100
AcDbSpline
62
7
6
CONTINUOUS
70
0
71
3
72
8
73
4
74
2
42
0.0000001000
43
0.0000001000
44
0.0000000001
12
0.0940785177
22
0.0445251007
32
0.0000000000
13
0.0966994411
23
0.0383612936
33
0.0000000000
40
0.0000000000
40
0.0000000000
40
0.0000000000
40
0.0000000000
40
1.0000000000
40
1.0000000000
40
1.0000000000
40
1.0000000000
10
20.4503617574
20
-10.5296984694
30
0.0000000000
10
20.4817212633
20
-10.5148567692
30
0.0000000000
10
20.5135645505
20
-10.5010408051
30
0.0000000000
10
20.5457976975
20
-10.4882537073
30
0.0000000000
11
20.4503617574
21
-10.5296984694
31
0.0000000000
11
20.5457976975
21
-10.4882537073
31
0.0000000000
0
SPLINE
5
283
100
AcDbEntity
8
0
100
AcDbSpline
62
7
6
CONTINUOUS
70
0
71
3
72
23
73
19
74
17
42
0.0000001000
43
0.0000001000
44
0.0000000001
12
-0.5229697996
22
-0.7365322589
32
0.0000000000
13
0.6110662987
23
0.6673475726
33
0.0000000000
40
0.0000000000
40
0.0000000000
40
0.0000000000
40
0.0000000000
40
0.0581084559
40
0.1155994296
40
0.1739238918
40
0.2322482369
40
0.2900915172
40
0.3478487962
40
0.4057779505
40
0.4637603353
40
0.5793726537
40
0.6944324520
40
0.7523616574
40
0.8103475805
40
0.8684035078
40
0.9263312700
40
0.9834535662
40
1.0000000000
40
1.0000000000
40
1.0000000000
40
1.0000000000
10
19.3419944780
20
-10.7018158479
30
0.0000000000
10
19.3318648221
20
-10.7160820987
30
0.0000000000
10
19.3141641115
20
-10.7462982795
30
0.0000000000
10
19.2958488972
20
-10.7956262751
30
0.0000000000
10
19.2863590270
20
-10.8474741428
30
0.0000000000
10
19.2860874650
20
-10.9002846058
30
0.0000000000
10
19.2949914372
20
-10.9521622561
30
0.0000000000
10
19.3127104507
20
-11.0015952918
30
0.0000000000
10
19.3387744466
20
-11.0472488792
30
0.0000000000
10
19.3834981707
20
-11.1011120521
30
0.0000000000
10
19.4559910516
20
-11.1524425297
30
0.0000000000
10
19.5416781382
20
-11.1756971440
30
0.0000000000
10
19.6115221252
20
-11.1759937152
30
0.0000000000
10
19.6634248700
20
-11.1670851881
30
0.0000000000
10
19.7129692418
20
-11.1492760024
30
0.0000000000
10
19.7584394905
20
-11.1232474604
30
0.0000000000
10
19.7890604966
20
-11.0978069599
30
0.0000000000
10
19.8044749088
20
-11.0817923579
30
0.0000000000
10
19.8078452315
20
-11.0781116171
30
0.0000000000
11
19.3419944780
21
-10.7018158479
31
0.0000000000
11
19.3154662157
21
-10.7471090461
31
0.0000000000
11
19.2973867214
21
-10.7957928130
31
0.0000000000
11
19.2879028534
21
-10.8476175222
31
0.0000000000
11
19.2876314102
21
-10.9003020493
31
0.0000000000
11
19.2964694821
21
-10.9517998297
31
0.0000000000
11
19.3140761318
21
-11.0009122161
31
0.0000000000
11
19.3400140376
21
-11.0463596610
31
0.0000000000
11
19.3734884102
21
-11.0866429851
31
0.0000000000
11
19.4587815915
21
-11.1469056827
31
0.0000000000
11
19.5590600943
21
-11.1742323051
31
0.0000000000
11
19.6113878272
21
-11.1744740069
31
0.0000000000
11
19.6630112583
21
-11.1656063132
31
0.0000000000
11
19.7123630899
21
-11.1478682222
31
0.0000000000
11
19.7577765238
21
-11.1218733452
31
0.0000000000
11
19.7974634252
21
-11.0888968725
31
0.0000000000
11
19.8078452315
21
-11.0781116171
31
0.0000000000
0
SPLINE
5
284
100
AcDbEntity
8
0
100
AcDbSpline
62
7
6
CONTINUOUS
70
0
71
3
72
8
73
4
74
2
42
0.0000001000
43
0.0000001000
44
0.0000000001
12
0.0251453705
22
0.0274613442
32
0.0000000000
13
0.0215202138
23
0.0303082788
33
0.0000000000
40
0.0000000000
40
0.0000000000
40
0.0000000000
40
0.0000000000
40
1.0000000000
40
1.0000000000
40
1.0000000000
40
1.0000000000
10
19.8078452315
20
-11.0781116171
30
0.0000000000
10
19.8162270217
20
-11.0689578357
30
0.0000000000
10
19.8240407577
20
-11.0592859712
30
0.0000000000
10
19.8312141623
20
-11.0491832116
30
0.0000000000
11
19.8078452315
21
-11.0781116171
31
0.0000000000
11
19.8312141623
21
-11.0491832116
31
0.0000000000
0
SPLINE
5
285
100
AcDbEntity
8
0
100
AcDbSpline
62
7
6
CONTINUOUS
70
0
71
3
72
8
73
4
74
2
42
0.0000001000
43
0.0000001000
44
0.0000000001
12
-0.2352398296
22
-0.1512854927
32
0.0000000000
13
-0.2143239255
23
-0.1800468823
33
0.0000000000
40
0.0000000000
40
0.0000000000
40
0.0000000000
40
0.0000000000
40
1.0000000000
40
1.0000000000
40
1.0000000000
40
1.0000000000
10
19.9457977037
20
-10.1251211341
30
0.0000000000
10
19.8673844271
20
-10.1755496316
30
0.0000000000
10
19.7920915420
20
-10.2310380461
30
0.0000000000
10
19.7206502335
20
-10.2910536736
30
0.0000000000
11
19.9457977037
21
-10.1251211341
31
0.0000000000
11
19.7206502335
21
-10.2910536736
31
0.0000000000
0
SPLINE
5
286
100
AcDbEntity
8
0
100
AcDbSpline
62
7
6
CONTINUOUS
70
0
71
3
72
8
73
4
74
2
42
0.0000001000
43
0.0000001000
44
0.0000000001
12
-0.2141954038
22
-0.1799389152
32
0.0000000000
13
-0.1896367247
23
-0.2056587955
33
0.0000000000
40
0.0000000000
40
0.0000000000
40
0.0000000000
40
0.0000000000
40
1.0000000000
40
1.0000000000
40
1.0000000000
40
1.0000000000
10
19.7206502335
20
-10.2910536736
30
0.0000000000
10
19.6492517656
20
-10.3510333120
30
0.0000000000
10
19.5817001478
20
-10.4155347634
30
0.0000000000
10
19.5184879063
20
-10.4840876953
30
0.0000000000
11
19.7206502335
21
-10.2910536736
31
0.0000000000
11
19.5184879063
21
-10.4840876953
31
0.0000000000
0
SPLINE
5
287
100
AcDbEntity
8
0
100
AcDbSpline
62
7
6
CONTINUOUS
70
0
71
3
72
8
73
4
74
2
42
0.0000001000
43
0.0000001000
44
0.0000000001
12
-0.1901512571
22
-0.2062167999
32
0.0000000000
13
-0.1622662241
23
-0.2285290254
33
0.0000000000
40
0.0000000000
40
0.0000000000
40
0.0000000000
40
0.0000000000
40
1.0000000000
40
1.0000000000
40
1.0000000000
40
1.0000000000
10
19.5184879063
20
-10.4840876953
30
0.0000000000
10
19.4551041539
20
-10.5528266286
30
0.0000000000
10
19.3960832191
20
-10.6256395059
30
0.0000000000
10
19.3419944777
20
-10.7018158477
30
0.0000000000
11
19.5184879063
21
-10.4840876953
31
0.0000000000
11
19.3419944777
21
-10.7018158477
31
0.0000000000
0
SPLINE
5
288
100
AcDbEntity
8
0
100
AcDbSpline
62
7
6
CONTINUOUS
70
0
71
3
72
8
73
4
74
2
42
0.0000001000
43
0.0000001000
44
0.0000000001
12
0.0000000000
22
-0.0814300852
32
0.0000000000
13
0.0000000000
23
-0.0814300852
33
0.0000000000
40
0.0000000000
40
0.0000000000
40
0.0000000000
40
0.0000000000
40
1.0000000000
40
1.0000000000
40
1.0000000000
40
1.0000000000
10
19.9457977037
20
-9.5754994749
30
0.0000000000
10
19.9457977037
20
-9.6026428366
30
0.0000000000
10
19.9457977037
20
-9.6297861983
30
0.0000000000
10
19.9457977037
20
-9.6569295601
30
0.0000000000
11
19.9457977037
21
-9.5754994749
31
0.0000000000
11
19.9457977037
21
-9.6569295601
31
0.0000000000
0
SPLINE
5
289
100
AcDbEntity
8
0
100
AcDbSpline
62
7
6
CONTINUOUS
70
0
71
3
72
8
73
4
74
2
42
0.0000001000
43
0.0000001000
44
0.0000000001
12
0.0000000000
22
-0.0203573069
32
0.0000000000
13
0.0000000000
23
-0.0203573069
33
0.0000000000
40
0.0000000000
40
0.0000000000
40
0.0000000000
40
0.0000000000
40
1.0000000000
40
1.0000000000
40
1.0000000000
40
1.0000000000
10
19.9457977037
20
-9.6569295601
30
0.0000000000
10
19.9457977037
20
-9.6637153291
30
0.0000000000
10
19.9457977037
20
-9.6705010980
30
0.0000000000
10
19.9457977037
20
-9.6772868670
30
0.0000000000
11
19.9457977037
21
-9.6569295601
31
0.0000000000
11
19.9457977037
21
-9.6772868670
31
0.0000000000
0
SPLINE
5
28A
100
AcDbEntity
8
0
100
AcDbSpline
62
7
6
CONTINUOUS
70
0
71
3
72
8
73
4
74
2
42
0.0000001000
43
0.0000001000
44
0.0000000001
12
0.0000000000
22
-0.0814283099
32
0.0000000000
13
0.0000000000
23
-0.0814283099
33
0.0000000000
40
0.0000000000
40
0.0000000000
40
0.0000000000
40
0.0000000000
40
1.0000000000
40
1.0000000000
40
1.0000000000
40
1.0000000000
10
19.9457977037
20
-9.6772868670
30
0.0000000000
10
19.9457977037
20
-9.7044296370
30
0.0000000000
10
19.9457977037
20
-9.7315724070
30
0.0000000000
10
19.9457977037
20
-9.7587151769
30
0.0000000000
11
19.9457977037
21
-9.6772868670
31
0.0000000000
11
19.9457977037
21
-9.7587151769
31
0.0000000000
0
SPLINE
5
28B
100
AcDbEntity
8
0
100
AcDbSpline
62
7
6
CONTINUOUS
70
0
71
3
72
8
73
4
74
2
42
0.0000001000
43
0.0000001000
44
0.0000000001
12
0.0000000000
22
-0.0814265277
32
0.0000000000
13
0.0000000000
23
-0.0814265277
33
0.0000000000
40
0.0000000000
40
0.0000000000
40
0.0000000000
40
0.0000000000
40
1.0000000000
40
1.0000000000
40
1.0000000000
40
1.0000000000
10
19.9457977037
20
-9.7587151769
30
0.0000000000
10
19.9457977037
20
-9.7858573528
30
0.0000000000
10
19.9457977037
20
-9.8129995287
30
0.0000000000
10
19.9457977037
20
-9.8401417046
30
0.0000000000
11
19.9457977037
21
-9.7587151769
31
0.0000000000
11
19.9457977037
21
-9.8401417046
31
0.0000000000
0
SPLINE
5
28C
100
AcDbEntity
8
0
100
AcDbSpline
62
7
6
CONTINUOUS
70
0
71
3
72
9
73
5
74
3
42
0.0000001000
43
0.0000001000
44
0.0000000001
12
0.0000000000
22
-0.0203563874
32
0.0000000000
13
-0.0000000000
23
-0.0203563874
33
0.0000000000
40
0.0000000000
40
0.0000000000
40
0.0000000000
40
0.0000000000
40
0.5000057626
40
1.0000000000
40
1.0000000000
40
1.0000000000
40
1.0000000000
10
19.9457977037
20
-9.8401417046
30
0.0000000000
10
19.9457977037
20
-9.8435344750
30
0.0000000000
10
19.9457977037
20
-9.8503199374
30
0.0000000000
10
19.9457977037
20
-9.8571053999
30
0.0000000000
10
19.9457977037
20
-9.8604980921
30
0.0000000000
11
19.9457977037
21
-9.8401417046
31
0.0000000000
11
19.9457977037
21
-9.8503200156
31
0.0000000000
11
19.9457977037
21
-9.8604980921
31
0.0000000000
0
SPLINE
5
28D
100
AcDbEntity
8
0
100
AcDbSpline
62
7
6
CONTINUOUS
70
0
71
3
72
8
73
4
74
2
42
0.0000001000
43
0.0000001000
44
0.0000000001
12
-0.0000000000
22
-0.0814245578
32
0.0000000000
13
-0.0000000000
23
-0.0814245578
33
0.0000000000
40
0.0000000000
40
0.0000000000
40
0.0000000000
40
0.0000000000
40
1.0000000000
40
1.0000000000
40
1.0000000000
40
1.0000000000
10
19.9457977037
20
-9.8604980921
30
0.0000000000
10
19.9457977037
20
-9.8876396113
30
0.0000000000
10
19.9457977037
20
-9.9147811306
30
0.0000000000
10
19.9457977037
20
-9.9419226498
30
0.0000000000
11
19.9457977037
21
-9.8604980921
31
0.0000000000
11
19.9457977037
21
-9.9419226498
31
0.0000000000
0
SPLINE
5
28E
100
AcDbEntity
8
0
100
AcDbSpline
62
7
6
CONTINUOUS
70
0
71
3
72
8
73
4
74
2
42
0.0000001000
43
0.0000001000
44
0.0000000001
12
-0.0000000000
22
-0.0814226068
32
0.0000000000
13
-0.0000000000
23
-0.0814226068
33
0.0000000000
40
0.0000000000
40
0.0000000000
40
0.0000000000
40
0.0000000000
40
1.0000000000
40
1.0000000000
40
1.0000000000
40
1.0000000000
10
19.9457977037
20
-9.9419226498
30
0.0000000000
10
19.9457977037
20
-9.9690635188
30
0.0000000000
10
19.9457977037
20
-9.9962043877
30
0.0000000000
10
19.9457977037
20
-10.0233452566
30
0.0000000000
11
19.9457977037
21
-9.9419226498
31
0.0000000000
11
19.9457977037
21
-10.0233452566
31
0.0000000000
0
SPLINE
5
28F
100
AcDbEntity
8
0
100
AcDbSpline
62
7
6
CONTINUOUS
70
0
71
3
72
8
73
4
74
2
42
0.0000001000
43
0.0000001000
44
0.0000000001
12
-0.0000000000
22
-0.0203553835
32
0.0000000000
13
-0.0000000000
23
-0.0203553835
33
0.0000000000
40
0.0000000000
40
0.0000000000
40
0.0000000000
40
0.0000000000
40
1.0000000000
40
1.0000000000
40
1.0000000000
40
1.0000000000
10
19.9457977037
20
-10.0233452566
30
0.0000000000
10
19.9457977037
20
-10.0301303845
30
0.0000000000
10
19.9457977037
20
-10.0369155123
30
0.0000000000
10
19.9457977037
20
-10.0437006402
30
0.0000000000
11
19.9457977037
21
-10.0233452566
31
0.0000000000
11
19.9457977037
21
-10.0437006402
31
0.0000000000
0
SPLINE
5
290
100
AcDbEntity
8
0
100
AcDbSpline
62
7
6
CONTINUOUS
70
0
71
3
72
8
73
4
74
2
42
0.0000001000
43
0.0000001000
44
0.0000000001
12
-0.0000000000
22
-0.0814204939
32
0.0000000000
13
0.0000000000
23
-0.0814204939
33
0.0000000000
40
0.0000000000
40
0.0000000000
40
0.0000000000
40
0.0000000000
40
1.0000000000
40
1.0000000000
40
1.0000000000
40
1.0000000000
10
19.9457977037
20
-10.0437006402
30
0.0000000000
10
19.9457977037
20
-10.0708408048
30
0.0000000000
10
19.9457977037
20
-10.0979809694
30
0.0000000000
10
19.9457977037
20
-10.1251211341
30
0.0000000000
11
19.9457977037
21
-10.0437006402
31
0.0000000000
11
19.9457977037
21
-10.1251211341
31
0.0000000000
0
SPLINE
5
291
100
AcDbEntity
8
0
100
AcDbSpline
62
7
6
CONTINUOUS
70
0
71
3
72
8
73
4
74
2
42
0.0000001000
43
0.0000001000
44
0.0000000001
12
0.0000000000
22
0.0610651051
32
0.0000000000
13
-0.0000000000
23
0.0610651051
33
0.0000000000
40
0.0000000000
40
0.0000000000
40
0.0000000000
40
0.0000000000
40
1.0000000000
40
1.0000000000
40
1.0000000000
40
1.0000000000
10
22.3257976935
20
-10.1251211182
30
0.0000000000
10
22.3257976935
20
-10.1047660831
30
0.0000000000
10
22.3257976935
20
-10.0844110481
30
0.0000000000
10
22.3257976935
20
-10.0640560130
30
0.0000000000
11
22.3257976935
21
-10.1251211182
31
0.0000000000
11
22.3257976935
21
-10.0640560130
31
0.0000000000
0
SPLINE
5
292
100
AcDbEntity
8
0
100
AcDbSpline
62
7
6
CONTINUOUS
70
0
71
3
72
8
73
4
74
2
42
0.0000001000
43
0.0000001000
44
0.0000000001
12
-0.0000000000
22
0.0610661614
32
0.0000000000
13
-0.0000000000
23
0.0610661614
33
0.0000000000
40
0.0000000000
40
0.0000000000
40
0.0000000000
40
0.0000000000
40
1.0000000000
40
1.0000000000
40
1.0000000000
40
1.0000000000
10
22.3257976935
20
-10.0640560130
30
0.0000000000
10
22.3257976935
20
-10.0437006259
30
0.0000000000
10
22.3257976935
20
-10.0233452388
30
0.0000000000
10
22.3257976935
20
-10.0029898516
30
0.0000000000
11
22.3257976935
21
-10.0640560130
31
0.0000000000
11
22.3257976935
21
-10.0029898516
31
0.0000000000
0
SPLINE
5
293
100
AcDbEntity
8
0
100
AcDbSpline
62
7
6
CONTINUOUS
70
0
71
3
72
8
73
4
74
2
42
0.0000001000
43
0.0000001000
44
0.0000000001
12
-0.0000000000
22
0.0610671896
32
0.0000000000
13
-0.0000000000
23
0.0610671896
33
0.0000000000
40
0.0000000000
40
0.0000000000
40
0.0000000000
40
0.0000000000
40
1.0000000000
40
1.0000000000
40
1.0000000000
40
1.0000000000
10
22.3257976935
20
-10.0029898516
30
0.0000000000
10
22.3257976935
20
-9.9826341217
30
0.0000000000
10
22.3257976935
20
-9.9622783919
30
0.0000000000
10
22.3257976934
20
-9.9419226620
30
0.0000000000
11
22.3257976935
21
-10.0029898516
31
0.0000000000
11
22.3257976934
21
-9.9419226620
31
0.0000000000
0
SPLINE
5
294
100
AcDbEntity
8
0
100
AcDbSpline
62
7
6
CONTINUOUS
70
0
71
3
72
8
73
4
74
2
42
0.0000001000
43
0.0000001000
44
0.0000000001
12
-0.0000000000
22
0.0610681885
32
0.0000000000
13
-0.0000000000
23
0.0610681885
33
0.0000000000
40
0.0000000000
40
0.0000000000
40
0.0000000000
40
0.0000000000
40
1.0000000000
40
1.0000000000
40
1.0000000000
40
1.0000000000
10
22.3257976934
20
-9.9419226620
30
0.0000000000
10
22.3257976934
20
-9.9215665992
30
0.0000000000
10
22.3257976934
20
-9.9012105363
30
0.0000000000
10
22.3257976934
20
-9.8808544735
30
0.0000000000
11
22.3257976934
21
-9.9419226620
31
0.0000000000
11
22.3257976934
21
-9.8808544735
31
0.0000000000
0
SPLINE
5
295
100
AcDbEntity
8
0
100
AcDbSpline
62
7
6
CONTINUOUS
70
0
71
3
72
8
73
4
74
2
42
0.0000001000
43
0.0000001000
44
0.0000000001
12
-0.0000000000
22
0.0610691604
32
0.0000000000
13
0.0000000000
23
0.0610691604
33
0.0000000000
40
0.0000000000
40
0.0000000000
40
0.0000000000
40
0.0000000000
40
1.0000000000
40
1.0000000000
40
1.0000000000
40
1.0000000000
10
22.3257976934
20
-9.8808544735
30
0.0000000000
10
22.3257976934
20
-9.8604980867
30
0.0000000000
10
22.3257976934
20
-9.8401416999
30
0.0000000000
10
22.3257976934
20
-9.8197853131
30
0.0000000000
11
22.3257976934
21
-9.8808544735
31
0.0000000000
11
22.3257976934
21
-9.8197853131
31
0.0000000000
0
SPLINE
5
296
100
AcDbEntity
8
0
100
AcDbSpline
62
7
6
CONTINUOUS
70
0
71
3
72
8
73
4
74
2
42
0.0000001000
43
0.0000001000
44
0.0000000001
12
0.0000000000
22
0.0610701078
32
0.0000000000
13
0.0000000000
23
0.0610701078
33
0.0000000000
40
0.0000000000
40
0.0000000000
40
0.0000000000
40
0.0000000000
40
1.0000000000
40
1.0000000000
40
1.0000000000
40
1.0000000000
10
22.3257976934
20
-9.8197853131
30
0.0000000000
10
22.3257976934
20
-9.7994286105
30
0.0000000000
10
22.3257976934
20
-9.7790719079
30
0.0000000000
10
22.3257976934
20
-9.7587152053
30
0.0000000000
11
22.3257976934
21
-9.8197853131
31
0.0000000000
11
22.3257976934
21
-9.7587152053
31
0.0000000000
0
SPLINE
5
297
100
AcDbEntity
8
0
100
AcDbSpline
62
7
6
CONTINUOUS
70
0
71
3
72
8
73
4
74
2
42
0.0000001000
43
0.0000001000
44
0.0000000001
12
0.0000000000
22
0.0610710281
32
0.0000000000
13
0.0000000000
23
0.0610710281
33
0.0000000000
40
0.0000000000
40
0.0000000000
40
0.0000000000
40
0.0000000000
40
1.0000000000
40
1.0000000000
40
1.0000000000
40
1.0000000000
10
22.3257976934
20
-9.7587152053
30
0.0000000000
10
22.3257976935
20
-9.7383581959
30
0.0000000000
10
22.3257976935
20
-9.7180011866
30
0.0000000000
10
22.3257976935
20
-9.6976441772
30
0.0000000000
11
22.3257976934
21
-9.7587152053
31
0.0000000000
11
22.3257976935
21
-9.6976441772
31
0.0000000000
0
SPLINE
5
298
100
AcDbEntity
8
0
100
AcDbSpline
62
7
6
CONTINUOUS
70
0
71
3
72
8
73
4
74
2
42
0.0000001000
43
0.0000001000
44
0.0000000001
12
0.0000000000
22
0.0610719191
32
0.0000000000
13
0.0000000000
23
0.0610719191
33
0.0000000000
40
0.0000000000
40
0.0000000000
40
0.0000000000
40
0.0000000000
40
1.0000000000
40
1.0000000000
40
1.0000000000
40
1.0000000000
10
22.3257976935
20
-9.6976441772
30
0.0000000000
10
22.3257976935
20
-9.6772868709
30
0.0000000000
10
22.3257976935
20
-9.6569295645
30
0.0000000000
10
22.3257976935
20
-9.6365722581
30
0.0000000000
11
22.3257976935
21
-9.6976441772
31
0.0000000000
11
22.3257976935
21
-9.6365722581
31
0.0000000000
0
SPLINE
5
299
100
AcDbEntity
8
0
100
AcDbSpline
62
7
6
CONTINUOUS
70
0
71
3
72
8
73
4
74
2
42
0.0000001000
43
0.0000001000
44
0.0000000001
12
0.0000000000
22
0.0610727832
32
0.0000000000
13
0.0000000000
23
0.0610727832
33
0.0000000000
40
0.0000000000
40
0.0000000000
40
0.0000000000
40
0.0000000000
40
1.0000000000
40
1.0000000000
40
1.0000000000
40
1.0000000000
10
22.3257976935
20
-9.6365722581
30
0.0000000000
10
22.3257976935
20
-9.6162146637
30
0.0000000000
10
22.3257976935
20
-9.5958570693
30
0.0000000000
10
22.3257976935
20
-9.5754994749
30
0.0000000000
11
22.3257976935
21
-9.6365722581
31
0.0000000000
11
22.3257976935
21
-9.5754994749
31
0.0000000000
0
SPLINE
5
29A
100
AcDbEntity
8
0
100
AcDbSpline
62
7
6
CONTINUOUS
70
0
71
3
72
8
73
4
74
2
42
0.0000001000
43
0.0000001000
44
0.0000000001
12
-0.1619229881
22
0.2280454581
32
0.0000000000
13
-0.1896935020
23
0.2058317387
33
0.0000000000
40
0.0000000000
40
0.0000000000
40
0.0000000000
40
0.0000000000
40
1.0000000000
40
1.0000000000
40
1.0000000000
40
1.0000000000
10
22.9296005032
20
-10.7018152263
30
0.0000000000
10
22.8756261738
20
-10.6258000736
30
0.0000000000
10
22.8167405796
20
-10.5531342356
30
0.0000000000
10
22.7535094123
20
-10.4845236560
30
0.0000000000
11
22.9296005032
21
-10.7018152263
31
0.0000000000
11
22.7535094123
21
-10.4845236560
31
0.0000000000
0
SPLINE
5
29B
100
AcDbEntity
8
0
100
AcDbSpline
62
7
6
CONTINUOUS
70
0
71
3
72
8
73
4
74
2
42
0.0000001000
43
0.0000001000
44
0.0000000001
12
-0.1895814147
22
0.2057101155
32
0.0000000000
13
-0.2141469102
23
0.1799966946
33
0.0000000000
40
0.0000000000
40
0.0000000000
40
0.0000000000
40
0.0000000000
40
1.0000000000
40
1.0000000000
40
1.0000000000
40
1.0000000000
10
22.7535094123
20
-10.4845236560
30
0.0000000000
10
22.6903156074
20
-10.4159536175
30
0.0000000000
10
22.6227813305
20
-10.3514339400
30
0.0000000000
10
22.5513990271
20
-10.2914350418
30
0.0000000000
11
22.7535094123
21
-10.4845236560
31
0.0000000000
11
22.5513990271
21
-10.2914350418
31
0.0000000000
0
SPLINE
5
29C
100
AcDbEntity
8
0
100
AcDbSpline
62
7
6
CONTINUOUS
70
0
71
3
72
8
73
4
74
2
42
0.0000001000
43
0.0000001000
44
0.0000000001
12
-0.2147289325
22
0.1804859013
32
0.0000000000
13
-0.2357378561
23
0.1516057748
33
0.0000000000
40
0.0000000000
40
0.0000000000
40
0.0000000000
40
0.0000000000
40
1.0000000000
40
1.0000000000
40
1.0000000000
40
1.0000000000
10
22.5513990271
20
-10.2914350418
30
0.0000000000
10
22.4798227162
20
-10.2312730747
30
0.0000000000
10
22.4043769788
20
-10.1756563764
30
0.0000000000
10
22.3257976935
20
-10.1251211182
30
0.0000000000
11
22.5513990271
21
-10.2914350418
31
0.0000000000
11
22.3257976935
21
-10.1251211182
31
0.0000000000
0
SPLINE
5
29D
100
AcDbEntity
8
0
100
AcDbSpline
62
7
6
CONTINUOUS
70
0
71
3
72
15
73
11
74
9
42
0.0000001000
43
0.0000001000
44
0.0000000001
12
-0.3750635919
22
-0.0000000767
32
0.0000000000
13
-0.1178548529
23
-0.3564411773
33
0.0000000000
40
0.0000000000
40
0.0000000000
40
0.0000000000
40
0.0000000000
40
0.1264003209
40
0.2513871214
40
0.3773053038
40
0.5032790733
40
0.6292930405
40
0.7551391050
40
0.8805241082
40
1.0000000000
40
1.0000000000
40
1.0000000000
40
1.0000000000
10
22.9357976316
20
-11.6754994659
30
0.0000000000
10
22.9199949121
20
-11.6754994691
30
0.0000000000
10
22.8885091606
20
-11.6779932931
30
0.0000000000
10
22.8424728148
20
-11.6890860890
30
0.0000000000
10
22.7987709222
20
-11.7072229840
30
0.0000000000
10
22.7583514253
20
-11.7320620602
30
0.0000000000
10
22.7223396177
20
-11.7629343215
30
0.0000000000
10
22.6916680331
20
-11.7990196017
30
0.0000000000
10
22.6674520456
20
-11.8387587210
30
0.0000000000
10
22.6556541109
20
-11.8671353907
30
0.0000000000
10
22.6509605063
20
-11.8813307666
30
0.0000000000
11
22.9357976316
21
-11.6754994659
31
0.0000000000
11
22.8885376938
21
-11.6792453645
31
0.0000000000
11
22.8429635161
21
-11.6902244828
31
0.0000000000
11
22.7993439330
21
-11.7083284119
31
0.0000000000
11
22.7590891068
21
-11.7330658115
31
0.0000000000
11
22.7232067478
21
-11.7638273329
31
0.0000000000
11
22.6926379239
21
-11.7997913862
31
0.0000000000
11
22.6681666243
21
-11.8399501598
31
0.0000000000
11
22.6509605063
21
-11.8813307666
31
0.0000000000
0
SPLINE
5
29E
100
AcDbEntity
8
0
100
AcDbSpline
62
7
6
CONTINUOUS
70
0
71
3
72
10
73
6
74
4
42
0.0000001000
43
0.0000001000
44
0.0000000001
12
-0.0300324696
22
-0.0908304456
32
0.0000000000
13
-0.0000362591
23
-0.0955759283
33
0.0000000000
40
0.0000000000
40
0.0000000000
40
0.0000000000
40
0.0000000000
40
0.0220314101
40
0.5088952898
40
1.0000000000
40
1.0000000000
40
1.0000000000
40
1.0000000000
10
22.6509605063
20
-11.8813307666
30
0.0000000000
10
22.6507399538
20
-11.8819978075
30
0.0000000000
10
22.6456997097
20
-11.8974233588
30
0.0000000000
10
22.6382632367
20
-11.9285270600
30
0.0000000000
10
22.6358036408
20
-11.9597382170
30
0.0000000000
10
22.6357977051
20
-11.9753841466
30
0.0000000000
11
22.6509605063
21
-11.8813307666
31
0.0000000000
11
22.6503058968
21
-11.8833341878
31
0.0000000000
11
22.6394876209
21
-11.9285916180
31
0.0000000000
11
22.6357977051
21
-11.9753841466
31
0.0000000000
0
SPLINE
5
29F
100
AcDbEntity
8
0
100
AcDbSpline
62
7
6
CONTINUOUS
70
0
71
3
72
8
73
4
74
2
42
0.0000001000
43
0.0000001000
44
0.0000000001
12
0.0369763141
22
0.0000000005
32
0.0000000000
13
0.0367586787
23
0.0045561451
33
0.0000000000
40
0.0000000000
40
0.0000000000
40
0.0000000000
40
0.0000000000
40
1.0000000000
40
1.0000000000
40
1.0000000000
40
1.0000000000
10
24.6357977000
20
-12.2754994851
30
0.0000000000
10
24.6481231380
20
-12.2754994849
30
0.0000000000
10
24.6604678930
20
-12.2747359468
30
0.0000000000
10
24.6727207859
20
-12.2732172318
30
0.0000000000
11
24.6357977000
21
-12.2754994851
31
0.0000000000
11
24.6727207859
21
-12.2732172318
31
0.0000000000
0
SPLINE
5
2A0
100
AcDbEntity
8
0
100
AcDbSpline
62
7
6
CONTINUOUS
70
0
71
3
72
23
73
19
74
17
42
0.0000001000
43
0.0000001000
44
0.0000000001
12
0.8981878099
22
0.1113281044
32
0.0000000000
13
-0.9035057733
23
0.0000041514
33
0.0000000000
40
0.0000000000
40
0.0000000000
40
0.0000000000
40
0.0000000000
40
0.0171639265
40
0.0746400614
40
0.1329529434
40
0.1912719398
40
0.2491201032
40
0.3068933453
40
0.3648570124
40
0.4228837752
40
0.5386017104
40
0.6537656219
40
0.7117789138
40
0.7698025674
40
0.8277359886
40
0.8854914435
40
0.9424648019
40
1.0000000000
40
1.0000000000
40
1.0000000000
40
1.0000000000
10
24.6727207859
20
-12.2732172318
30
0.0000000000
10
24.6778595957
20
-12.2725802893
30
0.0000000000
10
24.7001362618
20
-12.2692328109
30
0.0000000000
10
24.7389961269
20
-12.2588164927
30
0.0000000000
10
24.7867672626
20
-12.2365377989
30
0.0000000000
10
24.8299910553
20
-12.2061811753
30
0.0000000000
10
24.8671459509
20
-12.1688747586
30
0.0000000000
10
24.8972059088
20
-12.1257825150
30
0.0000000000
10
24.9193479768
20
-12.0780588317
30
0.0000000000
10
24.9373677412
20
-12.0103335456
30
0.0000000000
10
24.9371944290
20
-11.9214063902
30
0.0000000000
10
24.9064212698
20
-11.8380024404
30
0.0000000000
10
24.8660998031
20
-11.7808691214
30
0.0000000000
10
24.8287195862
20
-11.7437586416
30
0.0000000000
10
24.7855253301
20
-11.7137763650
30
0.0000000000
10
24.7380668143
20
-11.6918752329
30
0.0000000000
10
24.6876884581
20
-11.6785028649
30
0.0000000000
10
24.6531268622
20
-11.6754995455
30
0.0000000000
10
24.6357990677
20
-11.6754994659
30
0.0000000000
11
24.6727207859
21
-12.2732172318
31
0.0000000000
11
24.6880805403
21
-12.2709085308
31
0.0000000000
11
24.7382406830
21
-12.2574665662
31
0.0000000000
11
24.7859886857
21
-12.2351967463
31
0.0000000000
11
24.8291086782
21
-12.2049136643
31
0.0000000000
11
24.8659916308
21
-12.1678812789
31
0.0000000000
11
24.8958536885
21
-12.1250684785
31
0.0000000000
11
24.9179015635
21
-12.0775652084
31
0.0000000000
11
24.9313623855
21
-12.0268951977
31
0.0000000000
11
24.9310509526
21
-11.9223438510
31
0.0000000000
11
24.8951350064
21
-11.8246877871
31
0.0000000000
11
24.8649279534
21
-11.7818520355
31
0.0000000000
11
24.8277191772
21
-11.7449216125
31
0.0000000000
11
24.7847207024
21
-11.7150730098
31
0.0000000000
11
24.7373405623
21
-11.6932069816
31
0.0000000000
11
24.6875869607
21
-11.6800034893
31
0.0000000000
11
24.6357990677
21
-11.6754994659
31
0.0000000000
0
SPLINE
5
2A1
100
AcDbEntity
8
0
100
AcDbSpline
62
7
6
CONTINUOUS
70
0
71
3
72
9
73
5
74
3
42
0.0000001000
43
0.0000001000
44
0.0000000001
12
0.1592630053
22
0.3098419547
32
0.0000000000
13
0.1063345148
23
0.3317525749
33
0.0000000000
40
0.0000000000
40
0.0000000000
40
0.0000000000
40
0.0000000000
40
0.4980843981
40
1.0000000000
40
1.0000000000
40
1.0000000000
40
1.0000000000
10
23.0028899204
20
-12.9367295570
30
0.0000000000
10
23.0293320598
20
-12.8852870759
30
0.0000000000
10
23.0781339594
20
-12.7798032751
30
0.0000000000
10
23.1182039878
20
-12.6707014898
30
0.0000000000
10
23.1359943051
20
-12.6151975587
30
0.0000000000
11
23.0028899204
21
-12.9367295570
31
0.0000000000
11
23.0757807163
21
-12.7793098263
31
0.0000000000
11
23.1359943051
21
-12.6151975587
31
0.0000000000
0
SPLINE
5
2A2
100
AcDbEntity
8
0
100
AcDbSpline
62
7
6
CONTINUOUS
70
0
71
3
72
9
73
5
74
3
42
0.0000001000
43
0.0000001000
44
0.0000000001
12
0.1065230269
22
0.3323407129
32
0.0000000000
13
0.0498432848
23
0.3453243958
33
0.0000000000
40
0.0000000000
40
0.0000000000
40
0.0000000000
40
0.0000000000
40
0.4988756019
40
1.0000000000
40
1.0000000000
40
1.0000000000
40
1.0000000000
10
23.1359943051
20
-12.6151975587
30
0.0000000000
10
23.1537082182
20
-12.5599320010
30
0.0000000000
10
23.1846024119
20
-12.4476731104
30
0.0000000000
10
23.2059327841
20
-12.3331829784
30
0.0000000000
10
23.2142586795
20
-12.2754994851
30
0.0000000000
11
23.1359943051
21
-12.6151975587
31
0.0000000000
11
23.1821527232
21
-12.4473702534
31
0.0000000000
11
23.2142586795
21
-12.2754994851
31
0.0000000000
0
SPLINE
5
2A3
100
AcDbEntity
8
0
100
AcDbSpline
62
7
6
CONTINUOUS
70
0
71
3
72
8
73
4
74
2
42
0.0000001000
43
0.0000001000
44
0.0000000001
12
-0.1116194837
22
0.1116194836
32
0.0000000000
13
-0.1116194837
23
0.1116194835
33
0.0000000000
40
0.0000000000
40
0.0000000000
40
0.0000000000
40
0.0000000000
40
1.0000000000
40
1.0000000000
40
1.0000000000
40
1.0000000000
10
23.8228041412
20
-14.2382418567
30
0.0000000000
10
23.7855976466
20
-14.2010353622
30
0.0000000000
10
23.7483911520
20
-14.1638288676
30
0.0000000000
10
23.7111846575
20
-14.1266223731
30
0.0000000000
11
23.8228041412
21
-14.2382418567
31
0.0000000000
11
23.7111846575
21
-14.1266223731
31
0.0000000000
0
SPLINE
5
2A4
100
AcDbEntity
8
0
100
AcDbSpline
62
7
6
CONTINUOUS
70
0
71
3
72
8
73
4
74
2
42
0.0000001000
43
0.0000001000
44
0.0000000001
12
-0.1116269332
22
0.1116269330
32
0.0000000000
13
-0.1116269332
23
0.1116269330
33
0.0000000000
40
0.0000000000
40
0.0000000000
40
0.0000000000
40
0.0000000000
40
1.0000000000
40
1.0000000000
40
1.0000000000
40
1.0000000000
10
23.7111846575
20
-14.1266223731
30
0.0000000000
10
23.6739756797
20
-14.0894133955
30
0.0000000000
10
23.6367667020
20
-14.0522044178
30
0.0000000000
10
23.5995577243
20
-14.0149954401
30
0.0000000000
11
23.7111846575
21
-14.1266223731
31
0.0000000000
11
23.5995577243
21
-14.0149954401
31
0.0000000000
0
SPLINE
5
2A5
100
AcDbEntity
8
0
100
AcDbSpline
62
7
6
CONTINUOUS
70
0
71
3
72
8
73
4
74
2
42
0.0000001000
43
0.0000001000
44
0.0000000001
12
0.0262183175
22
-0.0262183170
32
0.0000000000
13
0.0293022783
23
-0.0228234453
33
0.0000000000
40
0.0000000000
40
0.0000000000
40
0.0000000000
40
0.0000000000
40
1.0000000000
40
1.0000000000
40
1.0000000000
40
1.0000000000
10
23.3985394158
20
-14.6625052540
30
0.0000000000
10
23.4072788550
20
-14.6712446930
30
0.0000000000
10
23.4165749019
20
-14.6794549767
30
0.0000000000
10
23.4263423280
20
-14.6870627918
30
0.0000000000
11
23.3985394158
21
-14.6625052540
31
0.0000000000
11
23.4263423280
21
-14.6870627918
31
0.0000000000
0
SPLINE
5
2A6
100
AcDbEntity
8
0
100
AcDbSpline
62
7
6
CONTINUOUS
70
0
71
3
72
23
73
19
74
17
42
0.0000001000
43
0.0000001000
44
0.0000000001
12
0.7139442309
22
-0.5560887439
32
0.0000000000
13
-0.6388021593
23
0.6388061980
33
0.0000000000
40
0.0000000000
40
0.0000000000
40
0.0000000000
40
0.0000000000
40
0.0170109188
40
0.0744371180
40
0.1326816338
40
0.1909197548
40
0.2486692682
40
0.3063398703
40
0.3642064256
40
0.4221466270
40
0.5377593413
40
0.6529264979
40
0.7109302196
40
0.7689948549
40
0.8271276360
40
0.8851223011
40
0.9422827564
40
1.0000000000
40
1.0000000000
40
1.0000000000
40
1.0000000000
10
23.4263423280
20
-14.6870627918
30
0.0000000000
10
23.4303906104
20
-14.6902159853
30
0.0000000000
10
23.4484595953
20
-14.7035609923
30
0.0000000000
10
23.4832235725
20
-14.7236375341
30
0.0000000000
10
23.5326860755
20
-14.7416608420
30
0.0000000000
10
23.5846288426
20
-14.7507792759
30
0.0000000000
10
23.6371887984
20
-14.7507220576
30
0.0000000000
10
23.6888312205
20
-14.7415894404
30
0.0000000000
10
23.7381746531
20
-14.7236111830
30
0.0000000000
10
23.7987885003
20
-14.6886265630
30
0.0000000000
10
23.8616349489
20
-14.6258128292
30
0.0000000000
10
23.8990262057
20
-14.5452072743
30
0.0000000000
10
23.9110827034
20
-14.4763231210
30
0.0000000000
10
23.9110191579
20
-14.4235856679
30
0.0000000000
10
23.9017593262
20
-14.3716838242
30
0.0000000000
10
23.8836935542
20
-14.3224389742
30
0.0000000000
10
23.8574724394
20
-14.2771838350
30
0.0000000000
10
23.8350941204
20
-14.2505318883
30
0.0000000000
10
23.8228041538
20
-14.2382418440
30
0.0000000000
11
23.4263423280
21
-14.6870627918
31
0.0000000000
11
23.4387240326
21
-14.6962066701
31
0.0000000000
11
23.4836479537
21
-14.7221544385
31
0.0000000000
11
23.5330871130
21
-14.7401674054
31
0.0000000000
11
23.5849072450
21
-14.7492648475
31
0.0000000000
11
23.6370784406
21
-14.7492087436
31
0.0000000000
11
23.6883819046
21
-14.7401336120
31
0.0000000000
11
23.7375026776
21
-14.7222442179
31
0.0000000000
11
23.7828268769
21
-14.6960610486
31
0.0000000000
11
23.8566239102
21
-14.6221503673
31
0.0000000000
11
23.9005041047
21
-14.5278137407
31
0.0000000000
11
23.9095576054
21
-14.4762008912
31
0.0000000000
11
23.9094873507
21
-14.4237450296
31
0.0000000000
11
23.9002650940
21
-14.3720436288
31
0.0000000000
11
23.8822213922
21
-14.3228560334
31
0.0000000000
11
23.8563304235
21
-14.2781766083
31
0.0000000000
11
23.8228041538
21
-14.2382418440
31
0.0000000000
0
SPLINE
5
2A7
100
AcDbEntity
8
0
100
AcDbSpline
62
7
6
CONTINUOUS
70
0
71
3
72
9
73
5
74
3
42
0.0000001000
43
0.0000001000
44
0.0000000001
12
0.5585054341
22
-0.5585054341
32
0.0000000000
13
0.5585054340
23
-0.5585054342
33
0.0000000000
40
0.0000000000
40
0.0000000000
40
0.0000000000
40
0.0000000000
40
0.6001208558
40
1.0000000000
40
1.0000000000
40
1.0000000000
40
1.0000000000
10
22.3933595178
20
-13.6573253560
30
0.0000000000
10
22.5050831041
20
-13.7690489423
30
0.0000000000
10
22.6912515824
20
-13.9552174201
30
0.0000000000
10
22.8774200604
20
-14.1413858981
30
0.0000000000
10
22.9518649521
20
-14.2158307898
30
0.0000000000
11
22.3933595178
21
-13.6573253560
31
0.0000000000
11
22.7285302770
21
-13.9924961148
31
0.0000000000
11
22.9518649521
21
-14.2158307898
31
0.0000000000
0
SPLINE
5
2A8
100
AcDbEntity
8
0
100
AcDbSpline
62
7
6
CONTINUOUS
70
0
71
3
72
9
73
5
74
3
42
0.0000001000
43
0.0000001000
44
0.0000000001
12
0.4466744639
22
-0.4466744641
32
0.0000000000
13
0.4466744640
23
-0.4466744640
33
0.0000000000
40
0.0000000000
40
0.0000000000
40
0.0000000000
40
0.0000000000
40
0.2501284949
40
1.0000000000
40
1.0000000000
40
1.0000000000
40
1.0000000000
10
22.9518649521
20
-14.2158307898
30
0.0000000000
10
22.9891069559
20
-14.2530727936
30
0.0000000000
10
23.1379984438
20
-14.4019642816
30
0.0000000000
10
23.2868899316
20
-14.5508557698
30
0.0000000000
10
23.3985394158
20
-14.6625052540
30
0.0000000000
11
22.9518649521
21
-14.2158307898
31
0.0000000000
11
23.0635909634
21
-14.3275568012
31
0.0000000000
11
23.3985394158
21
-14.6625052540
31
0.0000000000
0
SPLINE
5
2A9
100
AcDbEntity
8
0
100
AcDbSpline
62
7
6
CONTINUOUS
70
0
71
3
72
9
73
5
74
3
42
0.0000001000
43
0.0000001000
44
0.0000000001
12
0.3317042222
22
0.1064519396
32
0.0000000000
13
0.3097772007
23
0.1593671693
33
0.0000000000
40
0.0000000000
40
0.0000000000
40
0.0000000000
40
0.0000000000
40
0.4980665505
40
1.0000000000
40
1.0000000000
40
1.0000000000
40
1.0000000000
10
21.7762085717
20
-13.9754670921
30
0.0000000000
10
21.8312788309
20
-13.9577937087
30
0.0000000000
10
21.9403745908
20
-13.9177214597
30
0.0000000000
10
22.0458556607
20
-13.8689180822
30
0.0000000000
10
22.0976848404
20
-13.8422541779
30
0.0000000000
11
21.7762085717
21
-13.9754670921
31
0.0000000000
11
21.9390560314
21
-13.9157104815
31
0.0000000000
11
22.0976848404
21
-13.8422541779
31
0.0000000000
0
SPLINE
5
2AA
100
AcDbEntity
8
0
100
AcDbSpline
62
7
6
CONTINUOUS
70
0
71
3
72
8
73
4
74
2
42
0.0000001000
43
0.0000001000
44
0.0000000001
12
-0.0000000002
22
0.1051486598
32
0.0000000000
13
-0.0000000003
23
0.1051486598
33
0.0000000000
40
0.0000000000
40
0.0000000000
40
0.0000000000
40
0.0000000000
40
1.0000000000
40
1.0000000000
40
1.0000000000
40
1.0000000000
10
21.4357976955
20
-15.4754993858
30
0.0000000000
10
21.4357976954
20
-15.4404498325
30
0.0000000000
10
21.4357976953
20
-15.4054002793
30
0.0000000000
10
21.4357976952
20
-15.3703507260
30
0.0000000000
11
21.4357976955
21
-15.4754993858
31
0.0000000000
11
21.4357976952
21
-15.3703507260
31
0.0000000000
0
SPLINE
5
2AB
100
AcDbEntity
8
0
100
AcDbSpline
62
7
6
CONTINUOUS
70
0
71
3
72
8
73
4
74
2
42
0.0000001000
43
0.0000001000
44
0.0000000001
12
-0.0000000001
22
0.0527122511
32
0.0000000000
13
-0.0000000001
23
0.0527122511
33
0.0000000000
40
0.0000000000
40
0.0000000000
40
0.0000000000
40
0.0000000000
40
1.0000000000
40
1.0000000000
40
1.0000000000
40
1.0000000000
10
21.4357976952
20
-15.3703507260
30
0.0000000000
10
21.4357976952
20
-15.3527799756
30
0.0000000000
10
21.4357976951
20
-15.3352092253
30
0.0000000000
10
21.4357976951
20
-15.3176384749
30
0.0000000000
11
21.4357976952
21
-15.3703507260
31
0.0000000000
11
21.4357976951
21
-15.3176384749
31
0.0000000000
0
SPLINE
5
2AC
100
AcDbEntity
8
0
100
AcDbSpline
62
7
6
CONTINUOUS
70
0
71
3
72
8
73
4
74
2
42
0.0000001000
43
0.0000001000
44
0.0000000001
12
-0.0000000003
22
0.1230222258
32
0.0000000000
13
-0.0000000003
23
0.1230222258
33
0.0000000000
40
0.0000000000
40
0.0000000000
40
0.0000000000
40
0.0000000000
40
1.0000000000
40
1.0000000000
40
1.0000000000
40
1.0000000000
10
21.4357976951
20
-15.3176384749
30
0.0000000000
10
21.4357976950
20
-15.2766310663
30
0.0000000000
10
21.4357976948
20
-15.2356236577
30
0.0000000000
10
21.4357976947
20
-15.1946162491
30
0.0000000000
11
21.4357976951
21
-15.3176384749
31
0.0000000000
11
21.4357976947
21
-15.1946162491
31
0.0000000000
0
SPLINE
5
2AD
100
AcDbEntity
8
0
100
AcDbSpline
62
7
6
CONTINUOUS
70
0
71
3
72
8
73
4
74
2
42
0.0000001000
43
0.0000001000
44
0.0000000001
12
-0.0000000001
22
0.0348609009
32
0.0000000000
13
-0.0000000001
23
0.0348609009
33
0.0000000000
40
0.0000000000
40
0.0000000000
40
0.0000000000
40
0.0000000000
40
1.0000000000
40
1.0000000000
40
1.0000000000
40
1.0000000000
10
21.4357976947
20
-15.1946162491
30
0.0000000000
10
21.4357976947
20
-15.1829959488
30
0.0000000000
10
21.4357976947
20
-15.1713756485
30
0.0000000000
10
21.4357976946
20
-15.1597553482
30
0.0000000000
11
21.4357976947
21
-15.1946162491
31
0.0000000000
11
21.4357976946
21
-15.1597553482
31
0.0000000000
0
SPLINE
5
2AE
100
AcDbEntity
8
0
100
AcDbSpline
62
7
6
CONTINUOUS
70
0
71
3
72
8
73
4
74
2
42
0.0000001000
43
0.0000001000
44
0.0000000001
12
-0.0000000004
22
0.1579061739
32
0.0000000000
13
-0.0000000003
23
0.1579061739
33
0.0000000000
40
0.0000000000
40
0.0000000000
40
0.0000000000
40
0.0000000000
40
1.0000000000
40
1.0000000000
40
1.0000000000
40
1.0000000000
10
21.4357976946
20
-15.1597553482
30
0.0000000000
10
21.4357976945
20
-15.1071199569
30
0.0000000000
10
21.4357976944
20
-15.0544845656
30
0.0000000000
10
21.4357976942
20
-15.0018491743
30
0.0000000000
11
21.4357976946
21
-15.1597553482
31
0.0000000000
11
21.4357976942
21
-15.0018491743
31
0.0000000000
0
SPLINE
5
2AF
100
AcDbEntity
8
0
100
AcDbSpline
62
7
6
CONTINUOUS
70
0
71
3
72
8
73
4
74
2
42
0.0000001000
43
0.0000001000
44
0.0000000001
12
-0.0000000003
22
0.1579282845
32
0.0000000000
13
-0.0000000001
23
0.1579282845
33
0.0000000000
40
0.0000000000
40
0.0000000000
40
0.0000000000
40
0.0000000000
40
1.0000000000
40
1.0000000000
40
1.0000000000
40
1.0000000000
10
21.4357976942
20
-15.0018491743
30
0.0000000000
10
21.4357976941
20
-14.9492064128
30
0.0000000000
10
21.4357976941
20
-14.8965636513
30
0.0000000000
10
21.4357976940
20
-14.8439208898
30
0.0000000000
11
21.4357976942
21
-15.0018491743
31
0.0000000000
11
21.4357976940
21
-14.8439208898
31
0.0000000000
0
SPLINE
5
2B0
100
AcDbEntity
8
0
100
AcDbSpline
62
7
6
CONTINUOUS
70
0
71
3
72
8
73
4
74
2
42
0.0000001000
43
0.0000001000
44
0.0000000001
12
-0.0000000001
22
0.1579500765
32
0.0000000000
13
0.0000000001
23
0.1579500765
33
0.0000000000
40
0.0000000000
40
0.0000000000
40
0.0000000000
40
0.0000000000
40
1.0000000000
40
1.0000000000
40
1.0000000000
40
1.0000000000
10
21.4357976940
20
-14.8439208898
30
0.0000000000
10
21.4357976940
20
-14.7912708643
30
0.0000000000
10
21.4357976940
20
-14.7386208388
30
0.0000000000
10
21.4357976940
20
-14.6859708133
30
0.0000000000
11
21.4357976940
21
-14.8439208898
31
0.0000000000
11
21.4357976940
21
-14.6859708133
31
0.0000000000
0
SPLINE
5
2B1
100
AcDbEntity
8
0
100
AcDbSpline
62
7
6
CONTINUOUS
70
0
71
3
72
8
73
4
74
2
42
0.0000001000
43
0.0000001000
44
0.0000000001
12
0.0000000001
22
0.1579714844
32
0.0000000000
13
0.0000000004
23
0.1579714844
33
0.0000000000
40
0.0000000000
40
0.0000000000
40
0.0000000000
40
0.0000000000
40
1.0000000000
40
1.0000000000
40
1.0000000000
40
1.0000000000
10
21.4357976940
20
-14.6859708133
30
0.0000000000
10
21.4357976940
20
-14.6333136518
30
0.0000000000
10
21.4357976941
20
-14.5806564904
30
0.0000000000
10
21.4357976942
20
-14.5279993289
30
0.0000000000
11
21.4357976940
21
-14.6859708133
31
0.0000000000
11
21.4357976942
21
-14.5279993289
31
0.0000000000
0
SPLINE
5
2B2
100
AcDbEntity
8
0
100
AcDbSpline
62
7
6
CONTINUOUS
70
0
71
3
72
8
73
4
74
2
42
0.0000001000
43
0.0000001000
44
0.0000000001
12
0.0000000004
22
0.1579926019
32
0.0000000000
13
0.0000000005
23
0.1579926019
33
0.0000000000
40
0.0000000000
40
0.0000000000
40
0.0000000000
40
0.0000000000
40
1.0000000000
40
1.0000000000
40
1.0000000000
40
1.0000000000
10
21.4357976942
20
-14.5279993289
30
0.0000000000
10
21.4357976944
20
-14.4753351283
30
0.0000000000
10
21.4357976946
20
-14.4226709276
30
0.0000000000
10
21.4357976947
20
-14.3700067270
30
0.0000000000
11
21.4357976942
21
-14.5279993289
31
0.0000000000
11
21.4357976947
21
-14.3700067270
31
0.0000000000
0
SPLINE
5
2B3
100
AcDbEntity
8
0
100
AcDbSpline
62
7
6
CONTINUOUS
70
0
71
3
72
8
73
4
74
2
42
0.0000001000
43
0.0000001000
44
0.0000000001
12
0.0000000005
22
0.1580131248
32
0.0000000000
13
0.0000000004
23
0.1580131248
33
0.0000000000
40
0.0000000000
40
0.0000000000
40
0.0000000000
40
0.0000000000
40
1.0000000000
40
1.0000000000
40
1.0000000000
40
1.0000000000
10
21.4357976947
20
-14.3700067270
30
0.0000000000
10
21.4357976949
20
-14.3173356854
30
0.0000000000
10
21.4357976951
20
-14.2646646438
30
0.0000000000
10
21.4357976952
20
-14.2119936023
30
0.0000000000
11
21.4357976947
21
-14.3700067270
31
0.0000000000
11
21.4357976952
21
-14.2119936023
31
0.0000000000
0
SPLINE
5
2B4
100
AcDbEntity
8
0
100
AcDbSpline
62
7
6
CONTINUOUS
70
0
71
3
72
8
73
4
74
2
42
0.0000001000
43
0.0000001000
44
0.0000000001
12
0.0000000004
22
0.1580331580
32
0.0000000000
13
0.0000000000
23
0.1580331580
33
0.0000000000
40
0.0000000000
40
0.0000000000
40
0.0000000000
40
0.0000000000
40
1.0000000000
40
1.0000000000
40
1.0000000000
40
1.0000000000
10
21.4357976952
20
-14.2119936023
30
0.0000000000
10
21.4357976954
20
-14.1593158829
30
0.0000000000
10
21.4357976955
20
-14.1066381636
30
0.0000000000
10
21.4357976955
20
-14.0539604443
30
0.0000000000
11
21.4357976952
21
-14.2119936023
31
0.0000000000
11
21.4357976955
21
-14.0539604443
31
0.0000000000
0
SPLINE
5
2B5
100
AcDbEntity
8
0
100
AcDbSpline
62
7
6
CONTINUOUS
70
0
71
3
72
8
73
4
74
2
42
0.0000001000
43
0.0000001000
44
0.0000000001
12
0.0000000000
22
-0.0372619843
32
0.0000000000
13
0.0046266639
23
-0.0370385888
33
0.0000000000
40
0.0000000000
40
0.0000000000
40
0.0000000000
40
0.0000000000
40
1.0000000000
40
1.0000000000
40
1.0000000000
40
1.0000000000
10
20.8357977017
20
-15.4754994860
30
0.0000000000
10
20.8357977017
20
-15.4879201474
30
0.0000000000
10
20.8365731009
20
-15.5003604701
30
0.0000000000
10
20.8381153222
20
-15.5127066664
30
0.0000000000
11
20.8357977017
21
-15.4754994860
31
0.0000000000
11
20.8381153222
21
-15.5127066664
31
0.0000000000
0
SPLINE
5
2B6
100
AcDbEntity
8
0
100
AcDbSpline
62
7
6
CONTINUOUS
70
0
71
3
72
23
73
19
74
17
42
0.0000001000
43
0.0000001000
44
0.0000000001
12
0.1121497808
22
-0.8978109805
32
0.0000000000
13
0.0000056012
23
0.9032262002
33
0.0000000000
40
0.0000000000
40
0.0000000000
40
0.0000000000
40
0.0000000000
40
0.0169695809
40
0.0745486064
40
0.1329502110
40
0.1913305766
40
0.2491921662
40
0.3069421083
40
0.3648322868
40
0.4227616273
40
0.5382610846
40
0.6532769745
40
0.7112732209
40
0.7693114202
40
0.8272943784
40
0.8851330065
40
0.9422265375
40
1.0000000000
40
1.0000000000
40
1.0000000000
40
1.0000000000
10
20.8381153222
20
-15.5127066664
30
0.0000000000
10
20.8387497005
20
-15.5177851584
30
0.0000000000
10
20.8421065591
20
-15.5400253788
30
0.0000000000
10
20.8525382883
20
-15.5788679285
30
0.0000000000
10
20.8748769900
20
-15.6266783000
30
0.0000000000
10
20.9052913401
20
-15.6699025294
30
0.0000000000
10
20.9426324020
20
-15.7070215189
30
0.0000000000
10
20.9857167120
20
-15.7370196812
30
0.0000000000
10
21.0333864447
20
-15.7590974965
30
0.0000000000
10
21.1009824984
20
-15.7770562101
30
0.0000000000
10
21.1897306225
20
-15.7769003388
30
0.0000000000
10
21.2730192076
20
-15.7462524339
30
0.0000000000
10
21.3301458190
20
-15.7060385131
30
0.0000000000
10
21.3673018217
20
-15.6687065353
30
0.0000000000
10
21.3973529617
20
-15.6255253375
30
0.0000000000
10
21.4193304406
20
-15.5780349256
30
0.0000000000
10
21.4327744790
20
-15.5275532834
30
0.0000000000
10
21.4357976132
20
-15.4928935541
30
0.0000000000
10
21.4357977211
20
-15.4754993858
30
0.0000000000
11
20.8381153222
21
-15.5127066664
31
0.0000000000
11
20.8404071014
21
-15.5278864440
31
0.0000000000
11
20.8538931249
21
-15.5781143482
31
0.0000000000
11
20.8762241695
21
-15.6259042137
31
0.0000000000
11
20.9065680732
21
-15.6690292737
31
0.0000000000
11
20.9436325130
21
-15.7058742725
31
0.0000000000
11
20.9864409974
21
-15.7356774592
31
0.0000000000
11
21.0338842718
21
-15.7576584067
31
0.0000000000
11
21.0844584629
21
-15.7710739898
31
0.0000000000
11
21.1887801791
21
-15.7707838638
31
0.0000000000
11
21.2863116006
21
-15.7350097455
31
0.0000000000
11
21.3291577343
21
-15.7048723423
31
0.0000000000
11
21.3661327928
21
-15.6677122742
31
0.0000000000
11
21.3960499778
21
-15.6247267071
31
0.0000000000
11
21.4179914536
21
-15.5773164664
31
0.0000000000
11
21.4312593822
21
-15.5274841642
31
0.0000000000
11
21.4357977211
21
-15.4754993858
31
0.0000000000
0
SPLINE
5
2B7
100
AcDbEntity
8
0
100
AcDbSpline
62
7
6
CONTINUOUS
70
0
71
3
72
8
73
4
74
2
42
0.0000001000
43
0.0000001000
44
0.0000000001
12
0.0000000000
22
-0.1580333072
32
0.0000000000
13
0.0000000004
23
-0.1580333072
33
0.0000000000
40
0.0000000000
40
0.0000000000
40
0.0000000000
40
0.0000000000
40
1.0000000000
40
1.0000000000
40
1.0000000000
40
1.0000000000
10
20.8357977017
20
-14.0539604437
30
0.0000000000
10
20.8357977017
20
-14.1066382128
30
0.0000000000
10
20.8357977018
20
-14.1593159818
30
0.0000000000
10
20.8357977019
20
-14.2119937509
30
0.0000000000
11
20.8357977017
21
-14.0539604437
31
0.0000000000
11
20.8357977019
21
-14.2119937509
31
0.0000000000
0
SPLINE
5
2B8
100
AcDbEntity
8
0
100
AcDbSpline
62
7
6
CONTINUOUS
70
0
71
3
72
8
73
4
74
2
42
0.0000001000
43
0.0000001000
44
0.0000000001
12
0.0000000004
22
-0.1580133046
32
0.0000000000
13
0.0000000005
23
-0.1580133046
33
0.0000000000
40
0.0000000000
40
0.0000000000
40
0.0000000000
40
0.0000000000
40
1.0000000000
40
1.0000000000
40
1.0000000000
40
1.0000000000
10
20.8357977019
20
-14.2119937509
30
0.0000000000
10
20.8357977020
20
-14.2646648524
30
0.0000000000
10
20.8357977022
20
-14.3173359539
30
0.0000000000
10
20.8357977024
20
-14.3700070554
30
0.0000000000
11
20.8357977019
21
-14.2119937509
31
0.0000000000
11
20.8357977024
21
-14.3700070554
31
0.0000000000
0
SPLINE
5
2B9
100
AcDbEntity
8
0
100
AcDbSpline
62
7
6
CONTINUOUS
70
0
71
3
72
8
73
4
74
2
42
0.0000001000
43
0.0000001000
44
0.0000000001
12
0.0000000005
22
-0.1579928124
32
0.0000000000
13
0.0000000004
23
-0.1579928124
33
0.0000000000
40
0.0000000000
40
0.0000000000
40
0.0000000000
40
0.0000000000
40
1.0000000000
40
1.0000000000
40
1.0000000000
40
1.0000000000
10
20.8357977024
20
-14.3700070554
30
0.0000000000
10
20.8357977026
20
-14.4226713262
30
0.0000000000
10
20.8357977028
20
-14.4753355970
30
0.0000000000
10
20.8357977029
20
-14.5279998678
30
0.0000000000
11
20.8357977024
21
-14.3700070554
31
0.0000000000
11
20.8357977029
21
-14.5279998678
31
0.0000000000
0
SPLINE
5
2BA
100
AcDbEntity
8
0
100
AcDbSpline
62
7
6
CONTINUOUS
70
0
71
3
72
8
73
4
74
2
42
0.0000001000
43
0.0000001000
44
0.0000000001
12
0.0000000004
22
-0.1579718123
32
0.0000000000
13
0.0000000001
23
-0.1579718123
33
0.0000000000
40
0.0000000000
40
0.0000000000
40
0.0000000000
40
0.0000000000
40
1.0000000000
40
1.0000000000
40
1.0000000000
40
1.0000000000
10
20.8357977029
20
-14.5279998678
30
0.0000000000
10
20.8357977030
20
-14.5806571386
30
0.0000000000
10
20.8357977031
20
-14.6333144094
30
0.0000000000
10
20.8357977032
20
-14.6859716801
30
0.0000000000
11
20.8357977029
21
-14.5279998678
31
0.0000000000
11
20.8357977032
21
-14.6859716801
31
0.0000000000
0
SPLINE
5
2BB
100
AcDbEntity
8
0
100
AcDbSpline
62
7
6
CONTINUOUS
70
0
71
3
72
8
73
4
74
2
42
0.0000001000
43
0.0000001000
44
0.0000000001
12
0.0000000001
22
-0.1579502933
32
0.0000000000
13
-0.0000000001
23
-0.1579502933
33
0.0000000000
40
0.0000000000
40
0.0000000000
40
0.0000000000
40
0.0000000000
40
1.0000000000
40
1.0000000000
40
1.0000000000
40
1.0000000000
10
20.8357977032
20
-14.6859716801
30
0.0000000000
10
20.8357977032
20
-14.7386217779
30
0.0000000000
10
20.8357977032
20
-14.7912718757
30
0.0000000000
10
20.8357977032
20
-14.8439219734
30
0.0000000000
11
20.8357977032
21
-14.6859716801
31
0.0000000000
11
20.8357977032
21
-14.8439219734
31
0.0000000000
0
SPLINE
5
2BC
100
AcDbEntity
8
0
100
AcDbSpline
62
7
6
CONTINUOUS
70
0
71
3
72
8
73
4
74
2
42
0.0000001000
43
0.0000001000
44
0.0000000001
12
-0.0000000001
22
-0.1579283905
32
0.0000000000
13
-0.0000000004
23
-0.1579283905
33
0.0000000000
40
0.0000000000
40
0.0000000000
40
0.0000000000
40
0.0000000000
40
1.0000000000
40
1.0000000000
40
1.0000000000
40
1.0000000000
10
20.8357977032
20
-14.8439219734
30
0.0000000000
10
20.8357977031
20
-14.8965647703
30
0.0000000000
10
20.8357977030
20
-14.9492075671
30
0.0000000000
10
20.8357977029
20
-15.0018503640
30
0.0000000000
11
20.8357977032
21
-14.8439219734
31
0.0000000000
11
20.8357977029
21
-15.0018503640
31
0.0000000000
0
SPLINE
5
2BD
100
AcDbEntity
8
0
100
AcDbSpline
62
7
6
CONTINUOUS
70
0
71
3
72
8
73
4
74
2
42
0.0000001000
43
0.0000001000
44
0.0000000001
12
-0.0000000004
22
-0.1579060601
32
0.0000000000
13
-0.0000000005
23
-0.1579060601
33
0.0000000000
40
0.0000000000
40
0.0000000000
40
0.0000000000
40
0.0000000000
40
1.0000000000
40
1.0000000000
40
1.0000000000
40
1.0000000000
10
20.8357977029
20
-15.0018503640
30
0.0000000000
10
20.8357977028
20
-15.0544857173
30
0.0000000000
10
20.8357977026
20
-15.1071210707
30
0.0000000000
10
20.8357977024
20
-15.1597564241
30
0.0000000000
11
20.8357977029
21
-15.0018503640
31
0.0000000000
11
20.8357977024
21
-15.1597564241
31
0.0000000000
0
SPLINE
5
2BE
100
AcDbEntity
8
0
100
AcDbSpline
62
7
6
CONTINUOUS
70
0
71
3
72
8
73
4
74
2
42
0.0000001000
43
0.0000001000
44
0.0000000001
12
-0.0000000005
22
-0.1578832038
32
0.0000000000
13
-0.0000000004
23
-0.1578832038
33
0.0000000000
40
0.0000000000
40
0.0000000000
40
0.0000000000
40
0.0000000000
40
1.0000000000
40
1.0000000000
40
1.0000000000
40
1.0000000000
10
20.8357977024
20
-15.1597564241
30
0.0000000000
10
20.8357977022
20
-15.2123841586
30
0.0000000000
10
20.8357977020
20
-15.2650118932
30
0.0000000000
10
20.8357977019
20
-15.3176396278
30
0.0000000000
11
20.8357977024
21
-15.1597564241
31
0.0000000000
11
20.8357977019
21
-15.3176396278
31
0.0000000000
0
SPLINE
5
2BF
100
AcDbEntity
8
0
100
AcDbSpline
62
7
6
CONTINUOUS
70
0
71
3
72
8
73
4
74
2
42
0.0000001000
43
0.0000001000
44
0.0000000001
12
-0.0000000004
22
-0.1578598582
32
0.0000000000
13
-0.0000000000
23
-0.1578598582
33
0.0000000000
40
0.0000000000
40
0.0000000000
40
0.0000000000
40
0.0000000000
40
1.0000000000
40
1.0000000000
40
1.0000000000
40
1.0000000000
10
20.8357977019
20
-15.3176396278
30
0.0000000000
10
20.8357977018
20
-15.3702595805
30
0.0000000000
10
20.8357977017
20
-15.4228795333
30
0.0000000000
10
20.8357977017
20
-15.4754994860
30
0.0000000000
11
20.8357977019
21
-15.3176396278
31
0.0000000000
11
20.8357977017
21
-15.4754994860
31
0.0000000000
0
SPLINE
5
2C0
100
AcDbEntity
8
0
100
AcDbSpline
62
7
6
CONTINUOUS
70
0
71
3
72
9
73
5
74
3
42
0.0000001000
43
0.0000001000
44
0.0000000001
12
0.3098480355
22
-0.1592324144
32
0.0000000000
13
0.3317522242
23
-0.1063072543
33
0.0000000000
40
0.0000000000
40
0.0000000000
40
0.0000000000
40
0.0000000000
40
0.4981636323
40
1.0000000000
40
1.0000000000
40
1.0000000000
40
1.0000000000
10
20.1747212005
20
-13.8426707266
30
0.0000000000
10
20.2261728747
20
-13.8691119926
30
0.0000000000
10
20.3316586753
20
-13.9179027889
30
0.0000000000
10
20.4407609004
20
-13.9579631133
30
0.0000000000
10
20.4962560108
20
-13.9757460621
30
0.0000000000
11
20.1747212005
21
-13.8426707266
31
0.0000000000
11
20.3321687311
21
-13.9155569781
31
0.0000000000
11
20.4962560108
21
-13.9757460621
31
0.0000000000
0
SPLINE
5
2C1
100
AcDbEntity
8
0
100
AcDbSpline
62
7
6
CONTINUOUS
70
0
71
3
72
9
73
5
74
3
42
0.0000001000
43
0.0000001000
44
0.0000000001
12
0.3321923426
22
-0.1064482866
32
0.0000000000
13
0.3451620713
23
-0.0498198553
33
0.0000000000
40
0.0000000000
40
0.0000000000
40
0.0000000000
40
0.0000000000
40
0.4989827345
40
1.0000000000
40
1.0000000000
40
1.0000000000
40
1.0000000000
10
20.4962560108
20
-13.9757460621
30
0.0000000000
10
20.5515087587
20
-13.9934513478
30
0.0000000000
10
20.6637168755
20
-14.0243236239
30
0.0000000000
10
20.7781536493
20
-14.0456402412
30
0.0000000000
10
20.8357977017
20
-14.0539604437
30
0.0000000000
11
20.4962560108
21
-13.9757460621
31
0.0000000000
11
20.6640434840
21
-14.0218816093
31
0.0000000000
11
20.8357977017
21
-14.0539604437
31
0.0000000000
0
SPLINE
5
2C2
100
AcDbEntity
8
0
100
AcDbSpline
62
7
6
CONTINUOUS
70
0
71
3
72
9
73
5
74
3
42
0.0000001000
43
0.0000001000
44
0.0000000001
12
0.4465672905
22
0.4465673023
32
0.0000000000
13
0.4465672907
23
0.4465673021
33
0.0000000000
40
0.0000000000
40
0.0000000000
40
0.0000000000
40
0.0000000000
40
0.7500521396
40
1.0000000000
40
1.0000000000
40
1.0000000000
40
1.0000000000
10
18.8730554318
20
-14.6625058288
30
0.0000000000
10
18.9847050158
20
-14.5508562420
30
0.0000000000
10
19.1335607793
20
-14.4020004745
30
0.0000000000
10
19.2824165428
20
-14.2531447071
30
0.0000000000
10
19.3196227224
20
-14.2159385266
30
0.0000000000
11
18.8730554318
21
-14.6625058288
31
0.0000000000
11
19.2080041836
21
-14.3275570683
31
0.0000000000
11
19.3196227224
21
-14.2159385266
31
0.0000000000
0
SPLINE
5
2C3
100
AcDbEntity
8
0
100
AcDbSpline
62
7
6
CONTINUOUS
70
0
71
3
72
9
73
5
74
3
42
0.0000001000
43
0.0000001000
44
0.0000000001
12
0.5586131653
22
0.5586131797
32
0.0000000000
13
0.5586131654
23
0.5586131795
33
0.0000000000
40
0.0000000000
40
0.0000000000
40
0.0000000000
40
0.0000000000
40
0.3999944056
40
1.0000000000
40
1.0000000000
40
1.0000000000
40
1.0000000000
10
19.3196227224
20
-14.2159385266
30
0.0000000000
10
19.3941034361
20
-14.1414578110
30
0.0000000000
10
19.5803078246
20
-13.9552534178
30
0.0000000000
10
19.7665122133
20
-13.7690490249
30
0.0000000000
10
19.8782358881
20
-13.6573253473
30
0.0000000000
11
19.3196227224
21
-14.2159385266
31
0.0000000000
11
19.5430648635
21
-13.9924963799
31
0.0000000000
11
19.8782358881
21
-13.6573253473
31
0.0000000000
0
SPLINE
5
2C4
100
AcDbEntity
8
0
100
AcDbSpline
62
7
6
CONTINUOUS
70
0
71
3
72
8
73
4
74
2
42
0.0000001000
43
0.0000001000
44
0.0000000001
12
-0.0261573509
22
-0.0261573510
32
0.0000000000
13
-0.0227788433
23
-0.0292277037
33
0.0000000000
40
0.0000000000
40
0.0000000000
40
0.0000000000
40
0.0000000000
40
1.0000000000
40
1.0000000000
40
1.0000000000
40
1.0000000000
10
18.4487919343
20
-14.2382411785
30
0.0000000000
10
18.4400728173
20
-14.2469602955
30
0.0000000000
10
18.4318803883
20
-14.2562334579
30
0.0000000000
10
18.4242874406
20
-14.2659760258
30
0.0000000000
11
18.4487919343
21
-14.2382411785
31
0.0000000000
11
18.4242874406
21
-14.2659760258
31
0.0000000000
0
SPLINE
5
2C5
100
AcDbEntity
8
0
100
AcDbSpline
62
7
6
CONTINUOUS
70
0
71
3
72
23
73
19
74
17
42
0.0000001000
43
0.0000001000
44
0.0000000001
12
-0.5563499086
22
-0.7138567169
32
0.0000000000
13
0.6388682868
23
0.6388647947
33
0.0000000000
40
0.0000000000
40
0.0000000000
40
0.0000000000
40
0.0000000000
40
0.0171795091
40
0.0746887195
40
0.1330431342
40
0.1914032888
40
0.2492908943
40
0.3070907253
40
0.3650508856
40
0.4230532575
40
0.5386556371
40
0.6536310280
40
0.7114986079
40
0.7694173519
40
0.8274036395
40
0.8852666644
40
0.9423413299
40
1.0000000000
40
1.0000000000
40
1.0000000000
40
1.0000000000
10
18.4242874406
20
-14.2659760258
30
0.0000000000
10
18.4211015011
20
-14.2700639285
30
0.0000000000
10
18.4077093339
20
-14.2881955677
30
0.0000000000
10
18.3875883906
20
-14.3230654269
30
0.0000000000
10
18.3695634387
20
-14.3726354402
30
0.0000000000
10
18.3604785102
20
-14.4247042162
30
0.0000000000
10
18.3606120924
20
-14.4773883634
30
0.0000000000
10
18.3698615109
20
-14.5291274473
30
0.0000000000
10
18.3879811974
20
-14.5785174911
30
0.0000000000
10
18.4231415374
20
-14.6390892304
30
0.0000000000
10
18.4860933403
20
-14.7017492533
30
0.0000000000
10
18.5666922748
20
-14.7389120472
30
0.0000000000
10
18.6354625341
20
-14.7508190963
30
0.0000000000
10
18.6880739048
20
-14.7506808634
30
0.0000000000
10
18.7398439509
20
-14.7413913132
30
0.0000000000
10
18.7889783610
20
-14.7233329860
30
0.0000000000
10
18.8341576870
20
-14.6971388048
30
0.0000000000
10
18.8607766666
20
-14.6747845270
30
0.0000000000
10
18.8730554319
20
-14.6625058289
30
0.0000000000
11
18.4242874406
21
-14.2659760258
31
0.0000000000
11
18.4150516289
21
-14.2784814081
31
0.0000000000
11
18.3890800208
21
-14.3234840168
31
0.0000000000
11
18.3710644392
21
-14.3730333568
31
0.0000000000
11
18.3620008837
21
-14.4249765671
31
0.0000000000
11
18.3621328030
21
-14.4772774856
31
0.0000000000
11
18.3713252029
21
-14.5286838491
31
0.0000000000
11
18.3893545691
21
-14.5778489454
31
0.0000000000
11
18.4156805964
21
-14.6231612040
31
0.0000000000
11
18.4897819236
21
-14.6967680235
31
0.0000000000
11
18.5840713512
21
-14.7403623131
31
0.0000000000
11
18.6355845367
21
-14.7493011584
31
0.0000000000
11
18.6879135555
21
-14.7491566895
31
0.0000000000
11
18.7394805102
21
-14.7399053765
31
0.0000000000
11
18.7885505562
21
-14.7218717550
31
0.0000000000
11
18.8331599947
21
-14.6960045539
31
0.0000000000
11
18.8730554319
21
-14.6625058289
31
0.0000000000
0
SPLINE
5
2C6
100
AcDbEntity
8
0
100
AcDbSpline
62
7
6
CONTINUOUS
70
0
71
3
72
23
73
19
74
17
42
0.0000001000
43
0.0000001000
44
0.0000000001
12
0.5444917075
22
-0.7668390081
32
0.0000000000
13
-0.5444917076
23
0.7668390081
33
0.0000000000
40
0.0000000000
40
0.0000000000
40
0.0000000000
40
0.0000000000
40
0.0554256881
40
0.1103065844
40
0.1659707286
40
0.2217611356
40
0.2774843461
40
0.3331511809
40
0.4437019960
40
0.5547449988
40
0.6104208415
40
0.6660389304
40
0.7214849973
40
0.7770121192
40
0.8330053286
40
0.8890013081
40
0.9442021261
40
1.0000000000
40
1.0000000000
40
1.0000000000
40
1.0000000000
10
22.9296005114
20
-10.7018152483
30
0.0000000000
10
22.9396601206
20
-10.7159827748
30
0.0000000000
10
22.9572621580
20
-10.7459887175
30
0.0000000000
10
22.9755439405
20
-10.7949631881
30
0.0000000000
10
22.9851266155
20
-10.8464954973
30
0.0000000000
10
22.9855977485
20
-10.8991681413
30
0.0000000000
10
22.9768789426
20
-10.9511306533
30
0.0000000000
10
22.9535398438
20
-11.0169924030
30
0.0000000000
10
22.9032901623
20
-11.0902182523
30
0.0000000000
10
22.8308973388
20
-11.1417027351
30
0.0000000000
10
22.7652998876
20
-11.1661322635
30
0.0000000000
10
22.7136220568
20
-11.1756618805
30
0.0000000000
10
22.6611363983
20
-11.1760743778
30
0.0000000000
10
22.6092524250
20
-11.1673683553
30
0.0000000000
10
22.5595108318
20
-11.1497011869
30
0.0000000000
10
22.5137113838
20
-11.1236548089
30
0.0000000000
10
22.4731939245
20
-11.0901109813
30
0.0000000000
10
22.4505087117
20
-11.0634463456
30
0.0000000000
10
22.4403815518
20
-11.0491836835
30
0.0000000000
11
22.9296005114
21
-10.7018152483
31
0.0000000000
11
22.9559726726
21
-10.7467790118
31
0.0000000000
11
22.9740261563
21
-10.7951334178
31
0.0000000000
11
22.9835960834
21
-10.8466026146
31
0.0000000000
11
22.9840636083
21
-10.8990706096
31
0.0000000000
11
22.9753983943
21
-10.9507561511
31
0.0000000000
11
22.9578930862
21
-11.0000967111
31
0.0000000000
11
22.8989751230
21
-11.0857631421
31
0.0000000000
11
22.8139308918
21
-11.1463767764
31
0.0000000000
11
22.7648680042
21
-11.1646701320
31
0.0000000000
11
22.7134259763
21
-11.1741488571
31
0.0000000000
11
22.6612813747
21
-11.1745610935
31
0.0000000000
11
22.6097790490
21
-11.1659184092
31
0.0000000000
11
22.5601555409
21
-11.1482926206
31
0.0000000000
11
22.5143764248
21
-11.1222597969
31
0.0000000000
11
22.4743889213
21
-11.0891504808
31
0.0000000000
11
22.4403815518
21
-11.0491836835
31
0.0000000000
0
SPLINE
5
2C7
100
AcDbEntity
8
0
100
AcDbSpline
62
7
6
CONTINUOUS
70
0
71
3
72
10
73
6
74
4
42
0.0000001000
43
0.0000001000
44
0.0000000001
12
0.7060746522
22
-0.4540848741
32
0.0000000000
13
0.4860174389
23
-0.6844863303
33
0.0000000000
40
0.0000000000
40
0.0000000000
40
0.0000000000
40
0.0000000000
40
0.3332342830
40
0.6669885721
40
1.0000000000
40
1.0000000000
40
1.0000000000
40
1.0000000000
10
22.3257976935
20
-10.1251211182
30
0.0000000000
10
22.4042271203
20
-10.1755600006
30
0.0000000000
10
22.5549602774
20
-10.2866485280
30
0.0000000000
10
22.7578062619
20
-10.4804039854
30
0.0000000000
10
22.8756507292
20
-10.6258346547
30
0.0000000000
10
22.9296005163
20
-10.7018152448
30
0.0000000000
11
22.3257976935
21
-10.1251211182
31
0.0000000000
11
22.5509894753
21
-10.2910908867
31
0.0000000000
11
22.7535956763
21
-10.4846172644
31
0.0000000000
11
22.9296005163
21
-10.7018152448
31
0.0000000000
0
SPLINE
5
2C8
100
AcDbEntity
8
0
100
AcDbSpline
62
7
6
CONTINUOUS
70
0
71
3
72
10
73
6
74
4
42
0.0000001000
43
0.0000001000
44
0.0000000001
12
0.4860174261
22
0.6844863233
32
0.0000000000
13
0.7060746349
23
0.4540848766
33
0.0000000000
40
0.0000000000
40
0.0000000000
40
0.0000000000
40
0.0000000000
40
0.3332324275
40
0.6669867377
40
1.0000000000
40
1.0000000000
40
1.0000000000
40
1.0000000000
10
19.3419948964
20
-10.7018152581
30
0.0000000000
10
19.3959804853
20
-10.6257842451
30
0.0000000000
10
19.5138706925
20
-10.4803096839
30
0.0000000000
10
19.7167330860
20
-10.2865714131
30
0.0000000000
10
19.8674202978
20
-10.1755265628
30
0.0000000000
10
19.9457977037
20
-10.1251211341
30
0.0000000000
11
19.3419948964
21
-10.7018152581
31
0.0000000000
11
19.5181257182
21
-10.4844805798
31
0.0000000000
11
19.7207482799
21
-10.2909713127
31
0.0000000000
11
19.9457977037
21
-10.1251211341
31
0.0000000000
0
SPLINE
5
2C9
100
AcDbEntity
8
0
100
AcDbSpline
62
7
6
CONTINUOUS
70
0
71
3
72
23
73
19
74
17
42
0.0000001000
43
0.0000001000
44
0.0000000001
12
-0.5444919134
22
-0.7668393104
32
0.0000000000
13
0.5444919134
23
0.7668393104
33
0.0000000000
40
0.0000000000
40
0.0000000000
40
0.0000000000
40
0.0000000000
40
0.0554154360
40
0.1102800449
40
0.1659182849
40
0.2216796243
40
0.2773737264
40
0.3330133525
40
0.4435255563
40
0.5545684425
40
0.6102591461
40
0.6658987231
40
0.7213732180
40
0.7769303151
40
0.8329494634
40
0.8889687243
40
0.9441874392
40
1.0000000000
40
1.0000000000
40
1.0000000000
40
1.0000000000
10
19.8312138322
20
-11.0491836766
30
0.0000000000
10
19.8211560799
20
-11.0633485882
30
0.0000000000
10
19.7986354834
20
-11.0898518830
30
0.0000000000
10
19.7584394905
20
-11.1232474604
30
0.0000000000
10
19.7129692418
20
-11.1492760024
30
0.0000000000
10
19.6634248700
20
-11.1670851881
30
0.0000000000
10
19.6115221252
20
-11.1759937152
30
0.0000000000
10
19.5416781382
20
-11.1756971440
30
0.0000000000
10
19.4559910516
20
-11.1524425297
30
0.0000000000
10
19.3834981707
20
-11.1011120521
30
0.0000000000
10
19.3387744466
20
-11.0472488792
30
0.0000000000
10
19.3127104507
20
-11.0015952918
30
0.0000000000
10
19.2949914372
20
-10.9521622561
30
0.0000000000
10
19.2860874650
20
-10.9002846058
30
0.0000000000
10
19.2863590270
20
-10.8474741428
30
0.0000000000
10
19.2958488972
20
-10.7956262751
30
0.0000000000
10
19.3141641958
20
-10.7462980524
30
0.0000000000
10
19.3318650673
20
-10.7160816802
30
0.0000000000
10
19.3419948966
20
-10.7018152583
30
0.0000000000
11
19.8312138322
21
-11.0491836766
31
0.0000000000
11
19.7974634252
21
-11.0888968725
31
0.0000000000
11
19.7577765238
21
-11.1218733452
31
0.0000000000
11
19.7123630899
21
-11.1478682222
31
0.0000000000
11
19.6630112583
21
-11.1656063132
31
0.0000000000
11
19.6113878272
21
-11.1744740069
31
0.0000000000
11
19.5590600943
21
-11.1742323051
31
0.0000000000
11
19.4587815915
21
-11.1469056827
31
0.0000000000
11
19.3734884102
21
-11.0866429851
31
0.0000000000
11
19.3400140376
21
-11.0463596610
31
0.0000000000
11
19.3140761318
21
-11.0009122161
31
0.0000000000
11
19.2964694821
21
-10.9517998297
31
0.0000000000
11
19.2876314102
21
-10.9003020493
31
0.0000000000
11
19.2879028534
21
-10.8476175222
31
0.0000000000
11
19.2973867214
21
-10.7957928130
31
0.0000000000
11
19.3154662157
21
-10.7471090461
31
0.0000000000
11
19.3419948966
21
-10.7018152583
31
0.0000000000
0
SPLINE
5
2CA
100
AcDbEntity
8
0
100
AcDbSpline
62
7
6
CONTINUOUS
70
0
71
3
72
13
73
9
74
7
42
0.0000001000
43
0.0000001000
44
0.0000000001
12
-0.8558751345
22
-0.3395312005
32
0.0000000000
13
-0.5330730593
23
-0.7507574811
33
0.0000000000
40
0.0000000000
40
0.0000000000
40
0.0000000000
40
0.0000000000
40
0.1667211990
40
0.3326588689
40
0.4997073135
40
0.6668207354
40
0.8329543692
40
1.0000000000
40
1.0000000000
40
1.0000000000
40
1.0000000000
10
20.5457976975
20
-10.4882537073
30
0.0000000000
10
20.4982335213
20
-10.5071227236
30
0.0000000000
10
20.4050225393
20
-10.5492422246
30
0.0000000000
10
20.2718862731
20
-10.6258505717
30
0.0000000000
10
20.1466448804
20
-10.7149856939
30
0.0000000000
10
20.0302393627
20
-10.8154785681
30
0.0000000000
10
19.9240536575
20
-10.9267177971
30
0.0000000000
10
19.8608963574
20
-11.0073801028
30
0.0000000000
10
19.8312138489
20
-11.0491836885
30
0.0000000000
11
20.5457976975
21
-10.4882537073
31
0.0000000000
11
20.4059536913
21
-10.5515717112
31
0.0000000000
11
20.2735049211
21
-10.6277416577
31
0.0000000000
11
20.1481442050
21
-10.7168640881
31
0.0000000000
11
20.0317231693
21
-10.8174755564
31
0.0000000000
11
19.9261266586
21
-10.9281511378
31
0.0000000000
11
19.8312138489
21
-11.0491836885
31
0.0000000000
0
SPLINE
5
2CB
100
AcDbEntity
8
0
100
AcDbSpline
62
7
6
CONTINUOUS
70
0
71
3
72
13
73
9
74
7
42
0.0000001000
43
0.0000001000
44
0.0000000001
12
-0.5330730632
22
0.7507574739
32
0.0000000000
13
-0.8558751357
23
0.3395311878
33
0.0000000000
40
0.0000000000
40
0.0000000000
40
0.0000000000
40
0.0000000000
40
0.1667409840
40
0.3326912737
40
0.4997439935
40
0.6668531833
40
0.8329741236
40
1.0000000000
40
1.0000000000
40
1.0000000000
40
1.0000000000
10
22.4403815518
20
-11.0491836835
30
0.0000000000
10
22.4107531761
20
-11.0074563368
30
0.0000000000
10
22.3476959996
20
-10.9269071007
30
0.0000000000
10
22.2416523420
20
-10.8157661081
30
0.0000000000
10
22.1253196217
20
-10.7152754313
30
0.0000000000
10
22.0000588080
20
-10.6260701085
30
0.0000000000
10
21.8667933839
20
-10.5493471041
30
0.0000000000
10
21.7734487979
20
-10.5071572113
30
0.0000000000
10
21.7257976997
20
-10.4882537133
30
0.0000000000
11
22.4403815518
21
-11.0491836835
31
0.0000000000
11
22.3456525230
21
-10.9283634863
31
0.0000000000
11
22.2401977550
21
-10.8177860019
31
0.0000000000
11
22.1238490166
21
-10.7171763670
31
0.0000000000
11
21.9984693198
21
-10.6279841177
31
0.0000000000
11
21.8658916570
21
-10.5516998142
31
0.0000000000
11
21.7257976997
21
-10.4882537133
31
0.0000000000
0
SPLINE
5
2CC
100
AcDbEntity
8
0
100
AcDbSpline
62
7
6
CONTINUOUS
70
0
71
3
72
17
73
13
74
11
42
0.0000001000
43
0.0000001000
44
0.0000000001
12
0.0001749911
22
0.4706417963
32
0.0000000000
13
0.4706418289
23
0.0000000000
33
0.0000000000
40
0.0000000000
40
0.0000000000
40
0.0000000000
40
0.0000000000
40
0.0997362322
40
0.1986064554
40
0.2982931519
40
0.3982148898
40
0.4985040563
40
0.5989270278
40
0.6993179649
40
0.7996646036
40
0.8992690060
40
1.0000000000
40
1.0000000000
40
1.0000000000
40
1.0000000000
10
22.6357977042
20
-11.9753864054
30
0.0000000000
10
22.6358035219
20
-11.9597397255
30
0.0000000000
10
22.6382630609
20
-11.9285277950
30
0.0000000000
10
22.6491863224
20
-11.8828402949
30
0.0000000000
10
22.6670853064
20
-11.8393605503
30
0.0000000000
10
22.6916680331
20
-11.7990196017
30
0.0000000000
10
22.7223396177
20
-11.7629343215
30
0.0000000000
10
22.7583514253
20
-11.7320620602
30
0.0000000000
10
22.7987709222
20
-11.7072229840
30
0.0000000000
10
22.8424728148
20
-11.6890860890
30
0.0000000000
10
22.8885091805
20
-11.6779932883
30
0.0000000000
10
22.9199949529
20
-11.6754994659
30
0.0000000000
10
22.9357976927
20
-11.6754994659
30
0.0000000000
11
22.6357977042
21
-11.9753864054
31
0.0000000000
11
22.6394876209
21
-11.9285916180
31
0.0000000000
11
22.6503058968
21
-11.8833341878
31
0.0000000000
11
22.6681666243
21
-11.8399501598
31
0.0000000000
11
22.6926379239
21
-11.7997913862
31
0.0000000000
11
22.7232067478
21
-11.7638273329
31
0.0000000000
11
22.7590891068
21
-11.7330658115
31
0.0000000000
11
22.7993439330
21
-11.7083284119
31
0.0000000000
11
22.8429635161
21
-11.6902244828
31
0.0000000000
11
22.8885376938
21
-11.6792453645
31
0.0000000000
11
22.9357976927
21
-11.6754994659
31
0.0000000000
0
SPLINE
5
2CD
100
AcDbEntity
8
0
100
AcDbSpline
62
7
6
CONTINUOUS
70
0
71
3
72
32
73
28
74
26
42
0.0000001000
43
0.0000001000
44
0.0000000001
12
0.0000000000
22
-4.7081945763
32
0.0000000000
13
-0.0003507082
23
4.7081945632
33
0.0000000000
40
0.0000000000
40
0.0000000000
40
0.0000000000
40
0.0000000000
40
0.0333624330
40
0.0664759221
40
0.0997559656
40
0.1331596990
40
0.1998281389
40
0.2663558501
40
0.2997824292
40
0.3331954682
40
0.3664887982
40
0.3998020653
40
0.4332673736
40
0.4667282579
40
0.5000326032
40
0.5333404073
40
0.5668103228
40
0.6002814424
40
0.6335909363
40
0.6668850772
40
0.7003153266
40
0.7337541358
40
0.8002535714
40
0.8669272632
40
0.9334810866
40
0.9666057812
40
1.0000000000
40
1.0000000000
40
1.0000000000
40
1.0000000000
10
19.6357977141
20
-11.9754994755
30
0.0000000000
10
19.6357977141
20
-12.0278584174
30
0.0000000000
10
19.6411549184
20
-12.1322761931
30
0.0000000000
10
19.6657588928
20
-12.2871643687
30
0.0000000000
10
19.7063385430
20
-12.4387410746
30
0.0000000000
10
19.7811383765
20
-12.6345437412
30
0.0000000000
10
19.9127815460
20
-12.8628184357
30
0.0000000000
10
20.0889662357
20
-13.0588118056
30
0.0000000000
10
20.2519165618
20
-13.1906871950
30
0.0000000000
10
20.3838581878
20
-13.2765904777
30
0.0000000000
10
20.5239026372
20
-13.3481305368
30
0.0000000000
10
20.6708019333
20
-13.4045107666
30
0.0000000000
10
20.8230563201
20
-13.4452054459
30
0.0000000000
10
20.9786745566
20
-13.4700180935
30
0.0000000000
10
21.1358011287
20
-13.4783640570
30
0.0000000000
10
21.2929423337
20
-13.4700184536
30
0.0000000000
10
21.4485873340
20
-13.4451899330
30
0.0000000000
10
21.6008574241
20
-13.4044886757
30
0.0000000000
10
21.7477631178
20
-13.3481117476
30
0.0000000000
10
21.8878203531
20
-13.2765460139
30
0.0000000000
10
22.0197853418
20
-13.1905900787
30
0.0000000000
10
22.1827351498
20
-13.0587230213
30
0.0000000000
10
22.3589085243
20
-12.8626610439
30
0.0000000000
10
22.5165977484
20
-12.5892200250
30
0.0000000000
10
22.5976198994
20
-12.3388390138
30
0.0000000000
10
22.6304362212
20
-12.1322927047
30
0.0000000000
10
22.6358016081
20
-12.0277952319
30
0.0000000000
10
22.6357977042
20
-11.9753864054
30
0.0000000000
11
19.6357977141
21
-11.9754994755
31
0.0000000000
11
19.6439553195
21
-12.1323643304
31
0.0000000000
11
19.6683599042
21
-12.2863471454
31
0.0000000000
11
19.7088510152
21
-12.4377138777
31
0.0000000000
11
19.7650357790
21
-12.5846067867
31
0.0000000000
11
19.9218094359
21
-12.8565400301
31
0.0000000000
11
20.1312477913
21
-13.0894471627
31
0.0000000000
11
20.2535353740
21
-13.1885120192
31
0.0000000000
11
20.3853967708
21
-13.2743060123
31
0.0000000000
11
20.5250024932
21
-13.3455890214
31
0.0000000000
11
20.6714257899
21
-13.4018089476
31
0.0000000000
11
20.8236269060
21
-13.4425562983
31
0.0000000000
11
20.9792113365
21
-13.4673039864
31
0.0000000000
11
21.1357957733
21
-13.4755865580
31
0.0000000000
11
21.2923964488
21
-13.4673026887
31
0.0000000000
11
21.4480216584
21
-13.4425406911
31
0.0000000000
11
21.6002484101
21
-13.4017832971
31
0.0000000000
11
21.7466551766
21
-13.3455698811
31
0.0000000000
11
21.8862575745
21
-13.2742719672
31
0.0000000000
11
22.0181746588
21
-13.1884149868
31
0.0000000000
11
22.1405020949
21
-13.0893078491
31
0.0000000000
11
22.3498295376
21
-12.8564800180
31
0.0000000000
11
22.5065998470
21
-12.5845163031
31
0.0000000000
11
22.6032168619
21
-12.2864352051
31
0.0000000000
11
22.6276324557
21
-12.1324007191
31
0.0000000000
11
22.6357977042
21
-11.9753864054
31
0.0000000000
0
SPLINE
5
2CE
100
AcDbEntity
8
0
100
AcDbSpline
62
7
6
CONTINUOUS
70
0
71
3
72
17
73
13
74
11
42
0.0000001000
43
0.0000001000
44
0.0000000001
12
0.4707545427
22
0.0000000000
32
0.0000000000
13
0.0000000000
23
-0.4707545427
33
0.0000000000
40
0.0000000000
40
0.0000000000
40
0.0000000000
40
0.0000000000
40
0.0996879321
40
0.1984405734
40
0.2980612532
40
0.3979499464
40
0.4982264749
40
0.5986589798
40
0.6990871599
40
0.7994913103
40
0.8991701812
40
1.0000000000
40
1.0000000000
40
1.0000000000
40
1.0000000000
10
19.3357977045
20
-11.6754994659
30
0.0000000000
10
19.3514405534
20
-11.6754994659
30
0.0000000000
10
19.3826348062
20
-11.6779450703
30
0.0000000000
10
19.4283026763
20
-11.6888400675
30
0.0000000000
10
19.4717717930
20
-11.7067043480
30
0.0000000000
10
19.5121229850
20
-11.7312581021
30
0.0000000000
10
19.5482320711
20
-11.7619104500
30
0.0000000000
10
19.5791369056
20
-11.7979165419
30
0.0000000000
10
19.6040118878
20
-11.8383468721
30
0.0000000000
10
19.6221815091
20
-11.8820766715
30
0.0000000000
10
19.6332980611
20
-11.9281567425
30
0.0000000000
10
19.6357977141
20
-11.9596774437
30
0.0000000000
10
19.6357977141
20
-11.9754994755
30
0.0000000000
11
19.3357977045
21
-11.6754994659
31
0.0000000000
11
19.3825824892
21
-11.6791699466
31
0.0000000000
11
19.4278022049
21
-11.6899558227
31
0.0000000000
11
19.4711785237
21
-11.7077831339
31
0.0000000000
11
19.5113492013
21
-11.7322266293
31
0.0000000000
11
19.5473367373
21
-11.7627760791
31
0.0000000000
11
19.5781300602
21
-11.7986519844
31
0.0000000000
11
19.6029037008
21
-11.8389183915
31
0.0000000000
11
19.6210403479
21
-11.8825659500
31
0.0000000000
11
19.6320426639
21
-11.9281821447
31
0.0000000000
11
19.6357977141
21
-11.9754994755
31
0.0000000000
0
SPLINE
5
2CF
100
AcDbEntity
8
0
100
AcDbSpline
62
7
6
CONTINUOUS
70
0
71
3
72
23
73
19
74
17
42
0.0000001000
43
0.0000001000
44
0.0000000001
12
-0.9404833135
22
0.0000000000
32
0.0000000000
13
0.9404833135
23
0.0000000000
33
0.0000000000
40
0.0000000000
40
0.0000000000
40
0.0000000000
40
0.0000000000
40
0.0552682229
40
0.1099969092
40
0.1654788566
40
0.2211328098
40
0.2768741251
40
0.3326063538
40
0.4432452510
40
0.5544145024
40
0.6101574714
40
0.6658398857
40
0.7213409685
40
0.7769153518
40
0.8329441392
40
0.8889681208
40
0.9441890414
40
1.0000000000
40
1.0000000000
40
1.0000000000
40
1.0000000000
10
17.6357977009
20
-12.2754994851
30
0.0000000000
10
17.6184714204
20
-12.2754994851
30
0.0000000000
10
17.5839127922
20
-12.2724968462
30
0.0000000000
10
17.5335378059
20
-12.2591268316
30
0.0000000000
10
17.4860810351
20
-12.2372287219
30
0.0000000000
10
17.4428868127
20
-12.2072493729
30
0.0000000000
10
17.4055053809
20
-12.1701413621
30
0.0000000000
10
17.3651806470
20
-12.1130096336
30
0.0000000000
10
17.3344031134
20
-12.0296058356
30
0.0000000000
10
17.3342262287
20
-11.9406780943
30
0.0000000000
10
17.3522428458
20
-11.8729531388
30
0.0000000000
10
17.3743818556
20
-11.8252298745
30
0.0000000000
10
17.4044390840
20
-11.7821365889
30
0.0000000000
10
17.4415925925
20
-11.7448275425
30
0.0000000000
10
17.4848168086
20
-11.7144674907
30
0.0000000000
10
17.5325903292
20
-11.6921854676
30
0.0000000000
10
17.5834159519
20
-11.6785603946
30
0.0000000000
10
17.6183012758
20
-11.6754994659
30
0.0000000000
10
17.6357977009
20
-11.6754994659
30
0.0000000000
11
17.6357977009
21
-12.2754994851
31
0.0000000000
11
17.5840142774
21
-12.2709964853
31
0.0000000000
11
17.5342645101
21
-12.2577954495
31
0.0000000000
11
17.4868858297
21
-12.2359323083
31
0.0000000000
11
17.4438872825
21
-12.2060865460
31
0.0000000000
11
17.4066773327
21
-12.1691586159
31
0.0000000000
11
17.3764681464
21
-12.1263244997
31
0.0000000000
11
17.3405466764
21
-12.0286674952
31
0.0000000000
11
17.3402310309
21
-11.9241151456
31
0.0000000000
11
17.3536891564
21
-11.8734466711
31
0.0000000000
11
17.3757337933
21
-11.8259442358
31
0.0000000000
11
17.4055931928
21
-11.7831303245
31
0.0000000000
11
17.4424745986
21
-11.7460955002
31
0.0000000000
11
17.4855952467
21
-11.7158088355
31
0.0000000000
11
17.5333456633
21
-11.6935356733
31
0.0000000000
11
17.5835096648
21
-11.6800913391
31
0.0000000000
11
17.6357977009
21
-11.6754994659
31
0.0000000000
0
SPLINE
5
2D0
100
AcDbEntity
8
0
100
AcDbSpline
62
7
6
CONTINUOUS
70
0
71
3
72
13
73
9
74
7
42
0.0000001000
43
0.0000001000
44
0.0000000001
12
-0.6269706578
22
0.8384919713
32
0.0000000000
13
-0.1495681580
23
1.0362385622
33
0.0000000000
40
0.0000000000
40
0.0000000000
40
0.0000000000
40
0.0000000000
40
0.1669814344
40
0.3332373428
40
0.5001824628
40
0.6670873106
40
0.8332216829
40
1.0000000000
40
1.0000000000
40
1.0000000000
40
1.0000000000
10
19.4539718282
20
-13.2330612845
30
0.0000000000
10
19.4190743416
20
-13.1863904205
30
0.0000000000
10
19.3532021120
20
-13.0903542200
30
0.0000000000
10
19.2668472069
20
-12.9384236892
30
0.0000000000
10
19.1934621550
20
-12.7798492451
30
0.0000000000
10
19.1332670391
20
-12.6158587143
30
0.0000000000
10
19.0869541233
20
-12.4474825612
30
0.0000000000
10
19.0656516510
20
-12.3331068596
30
0.0000000000
10
19.0573367425
20
-12.2754994851
30
0.0000000000
11
19.4539718282
21
-13.2330612845
31
0.0000000000
11
19.3551527499
21
-13.0888433007
31
0.0000000000
11
19.2691154027
21
-12.9375271068
31
0.0000000000
11
19.1956555978
21
-12.7789257144
31
0.0000000000
11
19.1354941323
21
-12.6148629063
31
0.0000000000
11
19.0893908434
21
-12.4471452258
31
0.0000000000
11
19.0573367425
21
-12.2754994851
31
0.0000000000
0
SPLINE
5
2D1
100
AcDbEntity
8
0
100
AcDbSpline
62
7
6
CONTINUOUS
70
0
71
3
72
23
73
19
74
17
42
0.0000001000
43
0.0000001000
44
0.0000000001
12
-0.6650244191
22
-0.6650244359
32
0.0000000000
13
0.6650244275
23
0.6650244275
33
0.0000000000
40
0.0000000000
40
0.0000000000
40
0.0000000000
40
0.0000000000
40
0.0553916075
40
0.1102213101
40
0.1658083629
40
0.2215138301
40
0.2771544104
40
0.3327458392
40
0.4431988122
40
0.5542541121
40
0.6099750309
40
0.6656553985
40
0.7211817431
40
0.7767924098
40
0.8328570383
40
0.8889161528
40
0.9441633080
40
1.0000000000
40
1.0000000000
40
1.0000000000
40
1.0000000000
10
18.8730560114
20
-14.6625052494
30
0.0000000000
10
18.8607770875
20
-14.6747841736
30
0.0000000000
10
18.8341579244
20
-14.6971386672
30
0.0000000000
10
18.7889783610
20
-14.7233329860
30
0.0000000000
10
18.7398439509
20
-14.7413913132
30
0.0000000000
10
18.6880739048
20
-14.7506808634
30
0.0000000000
10
18.6354625341
20
-14.7508190963
30
0.0000000000
10
18.5666922748
20
-14.7389120472
30
0.0000000000
10
18.4860933403
20
-14.7017492533
30
0.0000000000
10
18.4231415374
20
-14.6390892304
30
0.0000000000
10
18.3879811974
20
-14.5785174911
30
0.0000000000
10
18.3698615109
20
-14.5291274473
30
0.0000000000
10
18.3606120924
20
-14.4773883634
30
0.0000000000
10
18.3604785102
20
-14.4247042162
30
0.0000000000
10
18.3695634387
20
-14.3726354402
30
0.0000000000
10
18.3875883906
20
-14.3230654269
30
0.0000000000
10
18.4139014561
20
-14.2774645385
30
0.0000000000
10
18.4364143466
20
-14.2506187661
30
0.0000000000
10
18.4487919347
20
-14.2382411781
30
0.0000000000
11
18.8730560114
21
-14.6625052494
31
0.0000000000
11
18.8331599947
21
-14.6960045539
31
0.0000000000
11
18.7885505562
21
-14.7218717550
31
0.0000000000
11
18.7394805102
21
-14.7399053765
31
0.0000000000
11
18.6879135555
21
-14.7491566895
31
0.0000000000
11
18.6355845367
21
-14.7493011584
31
0.0000000000
11
18.5840713512
21
-14.7403623131
31
0.0000000000
11
18.4897819236
21
-14.6967680235
31
0.0000000000
11
18.4156805964
21
-14.6231612040
31
0.0000000000
11
18.3893545691
21
-14.5778489454
31
0.0000000000
11
18.3713252029
21
-14.5286838491
31
0.0000000000
11
18.3621328030
21
-14.4772774856
31
0.0000000000
11
18.3620008837
21
-14.4249765671
31
0.0000000000
11
18.3710644392
21
-14.3730333568
31
0.0000000000
11
18.3890800208
21
-14.3234840168
31
0.0000000000
11
18.4150516289
21
-14.2784814081
31
0.0000000000
11
18.4487919347
21
-14.2382411781
31
0.0000000000
0
SPLINE
5
2D2
100
AcDbEntity
8
0
100
AcDbSpline
62
7
6
CONTINUOUS
70
0
71
3
72
13
73
9
74
7
42
0.0000001000
43
0.0000001000
44
0.0000000001
12
-1.0362385730
22
0.1495681596
32
0.0000000000
13
-0.8384919746
23
0.6269706716
33
0.0000000000
40
0.0000000000
40
0.0000000000
40
0.0000000000
40
0.0000000000
40
0.1668845010
40
0.3330883264
40
0.5000271890
40
0.6669598535
40
0.8331451897
40
1.0000000000
40
1.0000000000
40
1.0000000000
40
1.0000000000
10
20.8357977017
20
-14.0539604437
30
0.0000000000
10
20.7781536493
20
-14.0456402412
30
0.0000000000
10
20.6637179030
20
-14.0243238153
30
0.0000000000
10
20.4952742471
20
-13.9779793634
30
0.0000000000
10
20.3312599719
20
-13.9177564831
30
0.0000000000
10
20.1727081219
20
-13.8443635354
30
0.0000000000
10
20.0208481903
20
-13.7580328757
30
0.0000000000
10
19.9248713612
20
-13.6921963714
30
0.0000000000
10
19.8782358881
20
-13.6573253473
30
0.0000000000
11
20.8357977017
21
-14.0539604437
31
0.0000000000
11
20.6640434840
21
-14.0218816093
31
0.0000000000
11
20.4962589936
21
-13.9757470179
31
0.0000000000
11
20.3321687311
21
-13.9155569781
31
0.0000000000
11
20.1735863760
21
-13.8420870969
31
0.0000000000
11
20.0223412280
21
-13.7560742820
31
0.0000000000
11
19.8782358881
21
-13.6573253473
31
0.0000000000
0
SPLINE
5
2D3
100
AcDbEntity
8
0
100
AcDbSpline
62
7
6
CONTINUOUS
70
0
71
3
72
23
73
19
74
17
42
0.0000001000
43
0.0000001000
44
0.0000000001
12
0.0000000024
22
-0.9404898953
32
0.0000000000
13
-0.0000000000
23
0.9404898953
33
0.0000000000
40
0.0000000000
40
0.0000000000
40
0.0000000000
40
0.0000000000
40
0.0554863470
40
0.1103177336
40
0.1658646952
40
0.2215502684
40
0.2772888938
40
0.3329872286
40
0.4434459900
40
0.5543691591
40
0.6100032390
40
0.6655997084
40
0.7210614979
40
0.7766305113
40
0.8326977458
40
0.8887853778
40
0.9440830228
40
1.0000000000
40
1.0000000000
40
1.0000000000
40
1.0000000000
10
21.4357977211
20
-15.4754975339
30
0.0000000000
10
21.4357977211
20
-15.4928923168
30
0.0000000000
10
21.4327746386
20
-15.5275526842
30
0.0000000000
10
21.4193304406
20
-15.5780349256
30
0.0000000000
10
21.3973529617
20
-15.6255253375
30
0.0000000000
10
21.3673018217
20
-15.6687065353
30
0.0000000000
10
21.3301458190
20
-15.7060385131
30
0.0000000000
10
21.2730192076
20
-15.7462524339
30
0.0000000000
10
21.1897306225
20
-15.7769003388
30
0.0000000000
10
21.1009824984
20
-15.7770562101
30
0.0000000000
10
21.0333864447
20
-15.7590974965
30
0.0000000000
10
20.9857167120
20
-15.7370196812
30
0.0000000000
10
20.9426324020
20
-15.7070215189
30
0.0000000000
10
20.9052913401
20
-15.6699025294
30
0.0000000000
10
20.8748769900
20
-15.6266783000
30
0.0000000000
10
20.8525382883
20
-15.5788679285
30
0.0000000000
10
20.8388696031
20
-15.5279725714
30
0.0000000000
10
20.8357977017
20
-15.4930292699
30
0.0000000000
10
20.8357977017
20
-15.4754994859
30
0.0000000000
11
21.4357977211
21
-15.4754975339
31
0.0000000000
11
21.4312593822
21
-15.5274841642
31
0.0000000000
11
21.4179914536
21
-15.5773164664
31
0.0000000000
11
21.3960499778
21
-15.6247267071
31
0.0000000000
11
21.3661327928
21
-15.6677122742
31
0.0000000000
11
21.3291577343
21
-15.7048723423
31
0.0000000000
11
21.2863116006
21
-15.7350097455
31
0.0000000000
11
21.1887801791
21
-15.7707838638
31
0.0000000000
11
21.0844584629
21
-15.7710739898
31
0.0000000000
11
21.0338842718
21
-15.7576584067
31
0.0000000000
11
20.9864409974
21
-15.7356774592
31
0.0000000000
11
20.9436325130
21
-15.7058742725
31
0.0000000000
11
20.9065680732
21
-15.6690292737
31
0.0000000000
11
20.8762241695
21
-15.6259042137
31
0.0000000000
11
20.8538931249
21
-15.5781143482
31
0.0000000000
11
20.8404071014
21
-15.5278864440
31
0.0000000000
11
20.8357977017
21
-15.4754994859
31
0.0000000000
0
SPLINE
5
2D4
100
AcDbEntity
8
0
100
AcDbSpline
62
7
6
CONTINUOUS
70
0
71
3
72
13
73
9
74
7
42
0.0000001000
43
0.0000001000
44
0.0000000001
12
-0.8384919839
22
-0.6269706669
32
0.0000000000
13
-1.0362385794
23
-0.1495681478
33
0.0000000000
40
0.0000000000
40
0.0000000000
40
0.0000000000
40
0.0000000000
40
0.1670675389
40
0.3333807147
40
0.5003556673
40
0.6672519906
40
0.8333280136
40
1.0000000000
40
1.0000000000
40
1.0000000000
40
1.0000000000
10
22.3933595178
20
-13.6573253560
30
0.0000000000
10
22.3466645871
20
-13.6922408380
30
0.0000000000
10
22.2505857220
20
-13.7581397401
30
0.0000000000
10
22.0985973701
20
-13.8445157331
30
0.0000000000
10
21.9399917208
20
-13.9178988388
30
0.0000000000
10
21.7760086805
20
-13.9780766528
30
0.0000000000
10
21.6076879004
20
-14.0243623948
30
0.0000000000
10
21.4933683429
20
-14.0456508375
30
0.0000000000
10
21.4357976955
20
-14.0539604443
30
0.0000000000
11
22.3933595178
21
-13.6573253560
31
0.0000000000
11
22.2490651728
21
-13.7561924840
31
0.0000000000
11
22.0976918090
21
-13.8422505928
31
0.0000000000
11
21.9390560314
21
-13.9157104815
31
0.0000000000
11
21.7749967309
21
-13.9758555944
31
0.0000000000
11
21.6073349057
21
-14.0219316035
31
0.0000000000
11
21.4357976955
21
-14.0539604443
31
0.0000000000
0
SPLINE
5
2D5
100
AcDbEntity
8
0
100
AcDbSpline
62
7
6
CONTINUOUS
70
0
71
3
72
23
73
19
74
17
42
0.0000001000
43
0.0000001000
44
0.0000000001
12
0.6650231145
22
-0.6650231140
32
0.0000000000
13
-0.6650231143
23
0.6650231143
33
0.0000000000
40
0.0000000000
40
0.0000000000
40
0.0000000000
40
0.0000000000
40
0.0554427055
40
0.1103495712
40
0.1660577573
40
0.2218986142
40
0.2776740120
40
0.3333908976
40
0.4440175112
40
0.5550721159
40
0.6107279857
40
0.6663131129
40
0.7217100125
40
0.7771827122
40
0.8331247559
40
0.8890729422
40
0.9442350747
40
1.0000000000
40
1.0000000000
40
1.0000000000
40
1.0000000000
10
23.8228034866
20
-14.2382411768
30
0.0000000000
10
23.8350937135
20
-14.2505314037
30
0.0000000000
10
23.8574722810
20
-14.2771835616
30
0.0000000000
10
23.8836935542
20
-14.3224389742
30
0.0000000000
10
23.9017593262
20
-14.3716838242
30
0.0000000000
10
23.9110191579
20
-14.4235856679
30
0.0000000000
10
23.9110827034
20
-14.4763231210
30
0.0000000000
10
23.8990262057
20
-14.5452072743
30
0.0000000000
10
23.8616349489
20
-14.6258128292
30
0.0000000000
10
23.7987885003
20
-14.6886265630
30
0.0000000000
10
23.7381746531
20
-14.7236111830
30
0.0000000000
10
23.6888312205
20
-14.7415894404
30
0.0000000000
10
23.6371887984
20
-14.7507220576
30
0.0000000000
10
23.5846288426
20
-14.7507792759
30
0.0000000000
10
23.5326860755
20
-14.7416608420
30
0.0000000000
10
23.4832235725
20
-14.7236375341
30
0.0000000000
10
23.4377059483
20
-14.6973506545
30
0.0000000000
10
23.4109010686
20
-14.6748669069
30
0.0000000000
10
23.3985394139
20
-14.6625052521
30
0.0000000000
11
23.8228034866
21
-14.2382411768
31
0.0000000000
11
23.8563304235
21
-14.2781766083
31
0.0000000000
11
23.8822213922
21
-14.3228560334
31
0.0000000000
11
23.9002650940
21
-14.3720436288
31
0.0000000000
11
23.9094873507
21
-14.4237450296
31
0.0000000000
11
23.9095576054
21
-14.4762008912
31
0.0000000000
11
23.9005041047
21
-14.5278137407
31
0.0000000000
11
23.8566239102
21
-14.6221503673
31
0.0000000000
11
23.7828268769
21
-14.6960610486
31
0.0000000000
11
23.7375026776
21
-14.7222442179
31
0.0000000000
11
23.6883819046
21
-14.7401336120
31
0.0000000000
11
23.6370784406
21
-14.7492087436
31
0.0000000000
11
23.5849072450
21
-14.7492648475
31
0.0000000000
11
23.5330871130
21
-14.7401674054
31
0.0000000000
11
23.4836479537
21
-14.7221544385
31
0.0000000000
11
23.4387240326
21
-14.6962066701
31
0.0000000000
11
23.3985394139
21
-14.6625052521
31
0.0000000000
0
SPLINE
5
2D6
100
AcDbEntity
8
0
100
AcDbSpline
62
7
6
CONTINUOUS
70
0
71
3
72
13
73
9
74
7
42
0.0000001000
43
0.0000001000
44
0.0000000001
12
-0.1495681606
22
-1.0362385796
32
0.0000000000
13
-0.6269706756
23
-0.8384919800
33
0.0000000000
40
0.0000000000
40
0.0000000000
40
0.0000000000
40
0.0000000000
40
0.1669986849
40
0.3332655148
40
0.5002143135
40
0.6671154848
40
0.8332389374
40
1.0000000000
40
1.0000000000
40
1.0000000000
40
1.0000000000
10
23.2142586795
20
-12.2754994851
30
0.0000000000
10
23.2059327841
20
-12.3331829784
30
0.0000000000
10
23.1846012885
20
-12.4476791405
30
0.0000000000
10
23.1382275020
20
-12.6161826314
30
0.0000000000
10
23.0779857175
20
-12.7802054544
30
0.0000000000
10
23.0045904973
20
-12.9387240719
30
0.0000000000
10
22.9182825905
20
-13.0905215252
30
0.0000000000
10
22.8524750151
20
-13.1864520275
30
0.0000000000
10
22.8176235831
20
-13.2330612987
30
0.0000000000
11
23.2142586795
21
-12.2754994851
31
0.0000000000
11
23.1821527232
21
-12.4473702534
31
0.0000000000
11
23.1359886946
21
-12.6152150627
31
0.0000000000
11
23.0757807163
21
-12.7793098263
31
0.0000000000
11
23.0023106154
21
-12.9378557406
31
0.0000000000
11
22.9163202105
21
-13.0890390989
31
0.0000000000
11
22.8176235831
21
-13.2330612987
31
0.0000000000
0
SPLINE
5
2D7
100
AcDbEntity
8
0
100
AcDbSpline
62
7
6
CONTINUOUS
70
0
71
3
72
23
73
19
74
17
42
0.0000001000
43
0.0000001000
44
0.0000000001
12
0.9404833585
22
0.0000000000
32
0.0000000000
13
-0.9404833585
23
0.0000000000
33
0.0000000000
40
0.0000000000
40
0.0000000000
40
0.0000000000
40
0.0000000000
40
0.0552745017
40
0.1100077959
40
0.1654924363
40
0.2211480457
40
0.2768903398
40
0.3326226796
40
0.4432586053
40
0.5544267718
40
0.6101720528
40
0.6658567190
40
0.7213584472
40
0.7769321510
40
0.8329581757
40
0.8889783264
40
0.9441946290
40
1.0000000000
40
1.0000000000
40
1.0000000000
40
1.0000000000
10
24.6357976963
20
-11.6754994659
30
0.0000000000
10
24.6531259460
20
-11.6754994659
30
0.0000000000
10
24.6876880142
20
-11.6785027471
30
0.0000000000
10
24.7380668143
20
-11.6918752329
30
0.0000000000
10
24.7855253301
20
-11.7137763650
30
0.0000000000
10
24.8287195862
20
-11.7437586416
30
0.0000000000
10
24.8660998031
20
-11.7808691214
30
0.0000000000
10
24.9064212698
20
-11.8380024404
30
0.0000000000
10
24.9371944290
20
-11.9214063902
30
0.0000000000
10
24.9373677412
20
-12.0103335456
30
0.0000000000
10
24.9193479768
20
-12.0780588317
30
0.0000000000
10
24.8972059088
20
-12.1257825150
30
0.0000000000
10
24.8671459509
20
-12.1688747586
30
0.0000000000
10
24.8299910553
20
-12.2061811753
30
0.0000000000
10
24.7867672626
20
-12.2365377989
30
0.0000000000
10
24.7389961269
20
-12.2588164927
30
0.0000000000
10
24.6881744735
20
-12.2724391472
30
0.0000000000
10
24.6532923705
20
-12.2754994851
30
0.0000000000
10
24.6357976963
20
-12.2754994851
30
0.0000000000
11
24.6357976963
21
-11.6754994659
31
0.0000000000
11
24.6875869607
21
-11.6800034893
31
0.0000000000
11
24.7373405623
21
-11.6932069816
31
0.0000000000
11
24.7847207024
21
-11.7150730098
31
0.0000000000
11
24.8277191772
21
-11.7449216125
31
0.0000000000
11
24.8649279534
21
-11.7818520355
31
0.0000000000
11
24.8951350064
21
-11.8246877871
31
0.0000000000
11
24.9310509526
21
-11.9223438510
31
0.0000000000
11
24.9313623855
21
-12.0268951977
31
0.0000000000
11
24.9179015635
21
-12.0775652084
31
0.0000000000
11
24.8958536885
21
-12.1250684785
31
0.0000000000
11
24.8659916308
21
-12.1678812789
31
0.0000000000
11
24.8291086782
21
-12.2049136643
31
0.0000000000
11
24.7859886857
21
-12.2351967463
31
0.0000000000
11
24.7382406830
21
-12.2574665662
31
0.0000000000
11
24.6880805403
21
-12.2709085308
31
0.0000000000
11
24.6357976963
21
-12.2754994851
31
0.0000000000
0
SPLINE
5
2D8
100
AcDbEntity
8
0
100
AcDbSpline
62
7
6
CONTINUOUS
70
0
71
3
72
10
73
6
74
4
42
0.0000001000
43
0.0000001000
44
0.0000000001
12
-1.0051798935
22
-1.0051798935
32
0.0000000000
13
-1.0051798935
23
-1.0051798935
33
0.0000000000
40
0.0000000000
40
0.0000000000
40
0.0000000000
40
0.0000000000
40
0.3334356790
40
0.6667709428
40
1.0000000000
40
1.0000000000
40
1.0000000000
40
1.0000000000
10
19.4539718282
20
-13.2330612845
30
0.0000000000
10
19.3422508814
20
-13.3447822313
30
0.0000000000
10
19.1188426333
20
-13.5681904800
30
0.0000000000
10
18.7837826688
20
-13.9032504446
30
0.0000000000
10
18.5604436507
20
-14.1265894620
30
0.0000000000
10
18.4487919347
20
-14.2382411781
30
0.0000000000
11
19.4539718282
21
-13.2330612845
31
0.0000000000
11
19.1188089881
21
-13.5682241251
31
0.0000000000
11
18.7837470831
21
-13.9032860301
31
0.0000000000
11
18.4487919347
21
-14.2382411781
31
0.0000000000
0
SPLINE
5
2D9
100
AcDbEntity
8
0
100
AcDbSpline
62
7
6
CONTINUOUS
70
0
71
3
72
10
73
6
74
4
42
0.0000001000
43
0.0000001000
44
0.0000000001
12
-1.0051798767
22
-1.0051799021
32
0.0000000000
13
-1.0051798767
23
-1.0051799021
33
0.0000000000
40
0.0000000000
40
0.0000000000
40
0.0000000000
40
0.0000000000
40
0.3334430889
40
0.6667783451
40
1.0000000000
40
1.0000000000
40
1.0000000000
40
1.0000000000
10
19.8782358881
20
-13.6573253473
30
0.0000000000
10
19.7665124604
20
-13.7690487778
30
0.0000000000
10
19.5431017352
20
-13.9924595080
30
0.0000000000
10
19.2080417763
20
-14.3275194754
30
0.0000000000
10
18.9847052454
20
-14.5508560126
30
0.0000000000
10
18.8730560114
20
-14.6625052494
30
0.0000000000
11
19.8782358881
21
-13.6573253473
31
0.0000000000
11
19.5430656049
21
-13.9924956385
31
0.0000000000
11
19.2080037132
21
-14.3275575387
31
0.0000000000
11
18.8730560114
21
-14.6625052494
31
0.0000000000
0
SPLINE
5
2DA
100
AcDbEntity
8
0
100
AcDbSpline
62
7
6
CONTINUOUS
70
0
71
3
72
10
73
6
74
4
42
0.0000001000
43
0.0000001000
44
0.0000000001
12
0.0000000000
22
-1.4215390422
32
0.0000000000
13
-0.0000000000
23
-1.4215390422
33
0.0000000000
40
0.0000000000
40
0.0000000000
40
0.0000000000
40
0.0000000000
40
0.3334691050
40
0.6668055372
40
1.0000000000
40
1.0000000000
40
1.0000000000
40
1.0000000000
10
20.8357977017
20
-14.0539604437
30
0.0000000000
10
20.8357977017
20
-14.2119735611
30
0.0000000000
10
20.8357977033
20
-14.5279369293
30
0.0000000000
10
20.8357977033
20
-15.0017832767
30
0.0000000000
10
20.8357977017
20
-15.3176165067
30
0.0000000000
10
20.8357977017
20
-15.4754994859
30
0.0000000000
11
20.8357977017
21
-14.0539604437
31
0.0000000000
11
20.8357977029
21
-14.5279997959
31
0.0000000000
11
20.8357977029
21
-15.0018505483
31
0.0000000000
11
20.8357977017
21
-15.4754994859
31
0.0000000000
0
SPLINE
5
2DB
100
AcDbEntity
8
0
100
AcDbSpline
62
7
6
CONTINUOUS
70
0
71
3
72
10
73
6
74
4
42
0.0000001000
43
0.0000001000
44
0.0000000001
12
0.0000000000
22
-1.4215370896
32
0.0000000000
13
0.0000000000
23
-1.4215370896
33
0.0000000000
40
0.0000000000
40
0.0000000000
40
0.0000000000
40
0.0000000000
40
0.3334691046
40
0.6668055368
40
1.0000000000
40
1.0000000000
40
1.0000000000
40
1.0000000000
10
21.4357976955
20
-14.0539604443
30
0.0000000000
10
21.4357976955
20
-14.2119733444
30
0.0000000000
10
21.4357976938
20
-14.5279362785
30
0.0000000000
10
21.4357976938
20
-15.0017819750
30
0.0000000000
10
21.4357976955
20
-15.3176147714
30
0.0000000000
10
21.4357976955
20
-15.4754975339
30
0.0000000000
11
21.4357976955
21
-14.0539604443
31
0.0000000000
11
21.4357976942
21
-14.5279991447
31
0.0000000000
11
21.4357976942
21
-15.0018492463
31
0.0000000000
11
21.4357976955
21
-15.4754975339
31
0.0000000000
0
SPLINE
5
2DC
100
AcDbEntity
8
0
100
AcDbSpline
62
7
6
CONTINUOUS
70
0
71
3
72
10
73
6
74
4
42
0.0000001000
43
0.0000001000
44
0.0000000001
12
1.0051798961
22
-1.0051798961
32
0.0000000000
13
1.0051798961
23
-1.0051798961
33
0.0000000000
40
0.0000000000
40
0.0000000000
40
0.0000000000
40
0.0000000000
40
0.3334430889
40
0.6667783451
40
1.0000000000
40
1.0000000000
40
1.0000000000
40
1.0000000000
10
22.3933595178
20
-13.6573253560
30
0.0000000000
10
22.5050829476
20
-13.7690487858
30
0.0000000000
10
22.7284936771
20
-13.9924595147
30
0.0000000000
10
23.0635536425
20
-14.3275194801
30
0.0000000000
10
23.2868901777
20
-14.5508560159
30
0.0000000000
10
23.3985394139
20
-14.6625052521
30
0.0000000000
11
22.3933595178
21
-13.6573253560
31
0.0000000000
11
22.7285298074
21
-13.9924956452
31
0.0000000000
11
23.0635917056
21
-14.3275575434
31
0.0000000000
11
23.3985394139
21
-14.6625052521
31
0.0000000000
0
SPLINE
5
2DD
100
AcDbEntity
8
0
100
AcDbSpline
62
7
6
CONTINUOUS
70
0
71
3
72
10
73
6
74
4
42
0.0000001000
43
0.0000001000
44
0.0000000001
12
1.0051798908
22
-1.0051798908
32
0.0000000000
13
1.0051798908
23
-1.0051798908
33
0.0000000000
40
0.0000000000
40
0.0000000000
40
0.0000000000
40
0.0000000000
40
0.3334356790
40
0.6667709428
40
1.0000000000
40
1.0000000000
40
1.0000000000
40
1.0000000000
10
22.8176235831
20
-13.2330612987
30
0.0000000000
10
22.9293445295
20
-13.3447822451
30
0.0000000000
10
23.1527527771
20
-13.5681904933
30
0.0000000000
10
23.4878127407
20
-13.9032504569
30
0.0000000000
10
23.7111517581
20
-14.1265894737
30
0.0000000000
10
23.8228034739
20
-14.2382411895
30
0.0000000000
11
22.8176235831
21
-13.2330612987
31
0.0000000000
11
23.1527864223
21
-13.5682241383
31
0.0000000000
11
23.4878483264
21
-13.9032860424
31
0.0000000000
11
23.8228034739
21
-14.2382411895
31
0.0000000000
0
SPLINE
5
2DE
100
AcDbEntity
8
0
100
AcDbSpline
62
7
6
CONTINUOUS
70
0
71
3
72
10
73
6
74
4
42
0.0000001000
43
0.0000001000
44
0.0000000001
12
0.0000000000
22
-0.5496216433
32
0.0000000000
13
0.0000000000
23
-0.5496216433
33
0.0000000000
40
0.0000000000
40
0.0000000000
40
0.0000000000
40
0.0000000000
40
0.3333488298
40
0.6666826238
40
1.0000000000
40
1.0000000000
40
1.0000000000
40
1.0000000000
10
22.3257976935
20
-9.5754994749
30
0.0000000000
10
22.3257976935
20
-9.6365713854
30
0.0000000000
10
22.3257976934
20
-9.7587124518
30
0.0000000000
10
22.3257976934
20
-9.9419196662
30
0.0000000000
10
22.3257976935
20
-10.0640549701
30
0.0000000000
10
22.3257976935
20
-10.1251211182
30
0.0000000000
11
22.3257976935
21
-9.5754994749
31
0.0000000000
11
22.3257976934
21
-9.7587152065
31
0.0000000000
11
22.3257976934
21
-9.9419226741
31
0.0000000000
11
22.3257976935
21
-10.1251211182
31
0.0000000000
0
SPLINE
5
2DF
100
AcDbEntity
8
0
100
AcDbSpline
62
7
6
CONTINUOUS
70
0
71
3
72
10
73
6
74
4
42
0.0000001000
43
0.0000001000
44
0.0000000001
12
0.0000000000
22
-0.5496216592
32
0.0000000000
13
-0.0000000000
23
-0.5496216592
33
0.0000000000
40
0.0000000000
40
0.0000000000
40
0.0000000000
40
0.0000000000
40
0.3333488298
40
0.6666826238
40
1.0000000000
40
1.0000000000
40
1.0000000000
40
1.0000000000
10
19.9457977037
20
-9.5754994749
30
0.0000000000
10
19.9457977037
20
-9.6365713872
30
0.0000000000
10
19.9457977037
20
-9.7587124571
30
0.0000000000
10
19.9457977037
20
-9.9419196769
30
0.0000000000
10
19.9457977037
20
-10.0640549843
30
0.0000000000
10
19.9457977037
20
-10.1251211341
30
0.0000000000
11
19.9457977037
21
-9.5754994749
31
0.0000000000
11
19.9457977037
21
-9.7587152118
31
0.0000000000
11
19.9457977037
21
-9.9419226847
31
0.0000000000
11
19.9457977037
21
-10.1251211341
31
0.0000000000
0
SPLINE
5
2E0
100
AcDbEntity
8
0
100
AcDbSpline
62
7
6
CONTINUOUS
70
0
71
3
72
10
73
6
74
4
42
0.0000001000
43
0.0000001000
44
0.0000000001
12
0.0000000000
22
-0.3127542386
32
0.0000000000
13
0.0000000000
23
-0.3127542386
33
0.0000000000
40
0.0000000000
40
0.0000000000
40
0.0000000000
40
0.0000000000
40
0.3333442779
40
0.6666777605
40
1.0000000000
40
1.0000000000
40
1.0000000000
40
1.0000000000
10
20.5457976975
20
-10.1754994687
30
0.0000000000
10
20.5457976975
20
-10.2102510806
30
0.0000000000
10
20.5457976975
20
-10.2797531791
30
0.0000000000
10
20.5457976975
20
-10.3840045920
30
0.0000000000
10
20.5457976975
20
-10.4535043929
30
0.0000000000
10
20.5457976975
20
-10.4882537073
30
0.0000000000
11
20.5457976975
21
-10.1754994687
31
0.0000000000
11
20.5457976975
21
-10.2797543045
31
0.0000000000
11
20.5457976975
21
-10.3840057641
31
0.0000000000
11
20.5457976975
21
-10.4882537073
31
0.0000000000
0
SPLINE
5
2E1
100
AcDbEntity
8
0
100
AcDbSpline
62
7
6
CONTINUOUS
70
0
71
3
72
10
73
6
74
4
42
0.0000001000
43
0.0000001000
44
0.0000000001
12
0.0000000000
22
-0.3127542446
32
0.0000000000
13
0.0000000000
23
-0.3127542446
33
0.0000000000
40
0.0000000000
40
0.0000000000
40
0.0000000000
40
0.0000000000
40
0.3333442779
40
0.6666777605
40
1.0000000000
40
1.0000000000
40
1.0000000000
40
1.0000000000
10
21.7257976997
20
-10.1754994687
30
0.0000000000
10
21.7257976997
20
-10.2102510813
30
0.0000000000
10
21.7257976997
20
-10.2797531811
30
0.0000000000
10
21.7257976997
20
-10.3840045960
30
0.0000000000
10
21.7257976997
20
-10.4535043982
30
0.0000000000
10
21.7257976997
20
-10.4882537133
30
0.0000000000
11
21.7257976997
21
-10.1754994687
31
0.0000000000
11
21.7257976997
21
-10.2797543065
31
0.0000000000
11
21.7257976997
21
-10.3840057681
31
0.0000000000
11
21.7257976997
21
-10.4882537133
31
0.0000000000
0
SPLINE
5
2E2
100
AcDbEntity
8
0
100
AcDbSpline
62
7
6
CONTINUOUS
70
0
71
3
72
15
73
11
74
9
42
0.0000001000
43
0.0000001000
44
0.0000000001
12
-0.7838926164
22
0.0000000000
32
0.0000000000
13
0.0000000000
23
0.7838926164
33
0.0000000000
40
0.0000000000
40
0.0000000000
40
0.0000000000
40
0.0000000000
40
0.1249999601
40
0.2499995850
40
0.3750001236
40
0.5000004193
40
0.6250005909
40
0.7500008343
40
0.8750001722
40
1.0000000000
40
1.0000000000
40
1.0000000000
40
1.0000000000
10
10.6356263738
20
-22.0754994725
30
0.0000000000
10
10.6029641918
20
-22.0754994725
30
0.0000000000
10
10.5374589607
20
-22.0690595590
30
0.0000000000
10
10.4431146840
20
-22.0404430557
30
0.0000000000
10
10.3561279965
20
-21.9939633254
30
0.0000000000
10
10.2798943570
20
-21.9314024025
30
0.0000000000
10
10.2173335776
20
-21.8551687474
30
0.0000000000
10
10.1708540140
20
-21.7681821849
30
0.0000000000
10
10.1422376071
20
-21.6738380784
30
0.0000000000
10
10.1357977113
20
-21.6083329573
30
0.0000000000
10
10.1357977113
20
-21.5756708100
30
0.0000000000
11
10.6356263738
21
-22.0754994725
31
0.0000000000
11
10.5381111675
21
-22.0659001125
31
0.0000000000
11
10.4443411831
21
-22.0374659486
31
0.0000000000
11
10.3579201406
21
-21.9912831008
31
0.0000000000
11
10.2821731340
21
-21.9291235826
31
0.0000000000
11
10.2200137703
21
-21.8533765752
31
0.0000000000
11
10.1738311087
21
-21.7669556955
31
0.0000000000
11
10.1453970509
21
-21.6731859140
31
0.0000000000
11
10.1357977113
21
-21.5756708100
31
0.0000000000
0
SPLINE
5
2E3
100
AcDbEntity
8
0
100
AcDbSpline
62
7
6
CONTINUOUS
70
0
71
3
72
15
73
11
74
9
42
0.0000001000
43
0.0000001000
44
0.0000000001
12
0.0000000000
22
0.7838926164
32
0.0000000000
13
0.7838926164
23
0.0000000000
33
0.0000000000
40
0.0000000000
40
0.0000000000
40
0.0000000000
40
0.0000000000
40
0.1249999601
40
0.2499995850
40
0.3750001236
40
0.5000004193
40
0.6250005909
40
0.7500008343
40
0.8750001722
40
1.0000000000
40
1.0000000000
40
1.0000000000
40
1.0000000000
10
10.1357977113
20
21.6246718650
30
0.0000000000
10
10.1357977113
20
21.6573340470
30
0.0000000000
10
10.1422376248
20
21.7228392781
30
0.0000000000
10
10.1708541281
20
21.8171835548
30
0.0000000000
10
10.2173338584
20
21.9041702423
30
0.0000000000
10
10.2798947813
20
21.9804038818
30
0.0000000000
10
10.3561284364
20
22.0429646612
30
0.0000000000
10
10.4431149988
20
22.0894442248
30
0.0000000000
10
10.5374591054
20
22.1180606317
30
0.0000000000
10
10.6029642264
20
22.1245005275
30
0.0000000000
10
10.6356263738
20
22.1245005275
30
0.0000000000
11
10.1357977113
21
21.6246718650
31
0.0000000000
11
10.1453970712
21
21.7221870712
31
0.0000000000
11
10.1738312351
21
21.8159570557
31
0.0000000000
11
10.2200140829
21
21.9023780982
31
0.0000000000
11
10.2821736011
21
21.9781251048
31
0.0000000000
11
10.3579206086
21
22.0402844685
31
0.0000000000
11
10.4443414883
21
22.0864671301
31
0.0000000000
11
10.5381112698
21
22.1149011879
31
0.0000000000
11
10.6356263738
21
22.1245005275
31
0.0000000000
0
SPLINE
5
2E4
100
AcDbEntity
8
0
100
AcDbSpline
62
7
6
CONTINUOUS
70
0
71
3
72
15
73
11
74
9
42
0.0000001000
43
0.0000001000
44
0.0000000001
12
0.0000000000
22
-0.7838926164
32
0.0000000000
13
-0.7838926164
23
-0.0000000000
33
0.0000000000
40
0.0000000000
40
0.0000000000
40
0.0000000000
40
0.0000000000
40
0.1249999601
40
0.2499995850
40
0.3750001236
40
0.5000004193
40
0.6250005909
40
0.7500008343
40
0.8750001722
40
1.0000000000
40
1.0000000000
40
1.0000000000
40
1.0000000000
10
32.1357977113
20
-21.5756708100
30
0.0000000000
10
32.1357977113
20
-21.6083329919
30
0.0000000000
10
32.1293577978
20
-21.6738382231
30
0.0000000000
10
32.1007412945
20
-21.7681824998
30
0.0000000000
10
32.0542615642
20
-21.8551691873
30
0.0000000000
10
31.9917006413
20
-21.9314028267
30
0.0000000000
10
31.9154669862
20
-21.9939636062
30
0.0000000000
10
31.8284804237
20
-22.0404431697
30
0.0000000000
10
31.7341363172
20
-22.0690595767
30
0.0000000000
10
31.6686311961
20
-22.0754994725
30
0.0000000000
10
31.6359690488
20
-22.0754994725
30
0.0000000000
11
32.1357977113
21
-21.5756708100
31
0.0000000000
11
32.1261983513
21
-21.6731860162
31
0.0000000000
11
32.0977641874
21
-21.7669560007
31
0.0000000000
11
32.0515813396
21
-21.8533770432
31
0.0000000000
11
31.9894218214
21
-21.9291240498
31
0.0000000000
11
31.9136748140
21
-21.9912834135
31
0.0000000000
11
31.8272539343
21
-22.0374660750
31
0.0000000000
11
31.7334841528
21
-22.0659001329
31
0.0000000000
11
31.6359690488
21
-22.0754994725
31
0.0000000000
0
SPLINE
5
2E5
100
AcDbEntity
8
0
100
AcDbSpline
62
7
6
CONTINUOUS
70
0
71
3
72
15
73
11
74
9
42
0.0000001000
43
0.0000001000
44
0.0000000001
12
0.7838926164
22
0.0000000000
32
0.0000000000
13
0.0000000000
23
-0.7838926164
33
0.0000000000
40
0.0000000000
40
0.0000000000
40
0.0000000000
40
0.0000000000
40
0.1249999601
40
0.2499995850
40
0.3750001236
40
0.5000004193
40
0.6250005909
40
0.7500008343
40
0.8750001722
40
1.0000000000
40
1.0000000000
40
1.0000000000
40
1.0000000000
10
31.6359690488
20
22.1245005275
30
0.0000000000
10
31.6686312307
20
22.1245005275
30
0.0000000000
10
31.7341364619
20
22.1180606140
30
0.0000000000
10
31.8284807386
20
22.0894441107
30
0.0000000000
10
31.9154674261
20
22.0429643804
30
0.0000000000
10
31.9917010655
20
21.9804034575
30
0.0000000000
10
32.0542618450
20
21.9041698024
30
0.0000000000
10
32.1007414085
20
21.8171832400
30
0.0000000000
10
32.1293578155
20
21.7228391334
30
0.0000000000
10
32.1357977113
20
21.6573340124
30
0.0000000000
10
32.1357977113
20
21.6246718650
30
0.0000000000
11
31.6359690488
21
22.1245005275
31
0.0000000000
11
31.7334842550
21
22.1149011676
31
0.0000000000
11
31.8272542395
21
22.0864670037
31
0.0000000000
11
31.9136752819
21
22.0402841559
31
0.0000000000
11
31.9894222886
21
21.9781246377
31
0.0000000000
11
32.0515816523
21
21.9023776302
31
0.0000000000
11
32.0977643138
21
21.8159567505
31
0.0000000000
11
32.1261983717
21
21.7221869690
31
0.0000000000
11
32.1357977113
21
21.6246718650
31
0.0000000000
0
SPLINE
5
2E6
100
AcDbEntity
8
0
100
AcDbSpline
62
9
6
CONTINUOUS
70
0
71
3
72
12
73
8
74
6
42
0.0000001000
43
0.0000001000
44
0.0000000001
12
0.0005356705
22
-0.7817393705
32
0.0000000000
13
0.7817393705
23
-0.0005356703
33
0.0000000000
40
0.0000000000
40
0.0000000000
40
0.0000000000
40
0.0000000000
40
0.1999724359
40
0.3999815697
40
0.6000060912
40
0.8000194778
40
1.0000000000
40
1.0000000000
40
1.0000000000
40
1.0000000000
10
10.2396740062
20
-21.4717945150
30
0.0000000000
10
10.2397097127
20
-21.5239032904
30
0.0000000000
10
10.2563525304
20
-21.6288519174
30
0.0000000000
10
10.3285489224
20
-21.7703159309
30
0.0000000000
10
10.4409740156
20
-21.8827432202
30
0.0000000000
10
10.5824398568
20
-21.9549434430
30
0.0000000000
10
10.6873917861
20
-21.9715874697
30
0.0000000000
10
10.7395026686
20
-21.9716231776
30
0.0000000000
11
10.2396740062
21
-21.4717945150
31
0.0000000000
11
10.2642209101
21
-21.6261816299
31
0.0000000000
11
10.3352505559
21
-21.7654715844
31
0.0000000000
11
10.4458176995
21
-21.8760408863
31
0.0000000000
11
10.5851094680
21
-21.9470742931
31
0.0000000000
11
10.7395026686
21
-21.9716231776
31
0.0000000000
0
SPLINE
5
2E7
100
AcDbEntity
8
0
100
AcDbSpline
62
9
6
CONTINUOUS
70
0
71
3
72
13
73
9
74
7
42
0.0000001000
43
0.0000001000
44
0.0000000001
12
0.3807543814
22
0.7616242004
32
0.0000000000
13
0.0016819691
23
0.8514942704
33
0.0000000000
40
0.0000000000
40
0.0000000000
40
0.0000000000
40
0.0000000000
40
0.0388748883
40
0.1388025872
40
0.2944533186
40
0.4974686467
40
0.7369557802
40
1.0000000000
40
1.0000000000
40
1.0000000000
40
1.0000000000
10
10.7395026687
20
-21.9716231775
30
0.0000000000
10
10.7444365967
20
-21.9617538256
30
0.0000000000
10
10.7398040759
20
-21.9200654037
30
0.0000000000
10
10.7480622208
20
-21.8385543005
30
0.0000000000
10
10.7472839156
20
-21.7073517478
30
0.0000000000
10
10.7504140412
20
-21.5380114472
30
0.0000000000
10
10.7513595261
20
-21.3376094770
30
0.0000000000
10
10.7519604705
20
-21.1950133306
30
0.0000000000
10
10.7521079479
20
-21.1203531152
30
0.0000000000
11
10.7395026687
21
-21.9716231775
31
0.0000000000
11
10.7425104425
21
-21.9386583012
31
0.0000000000
11
10.7453373663
21
-21.8536172452
31
0.0000000000
11
10.7478324173
21
-21.7211047680
31
0.0000000000
11
10.7498605945
21
-21.5482499404
31
0.0000000000
11
10.7513114957
21
-21.3443327822
31
0.0000000000
11
10.7521079479
21
-21.1203531152
31
0.0000000000
0
SPLINE
5
2E8
100
AcDbEntity
8
0
100
AcDbSpline
62
9
6
CONTINUOUS
70
0
71
3
72
13
73
9
74
7
42
0.0000001000
43
0.0000001000
44
0.0000000001
12
0.3005742159
22
0.3019999733
32
0.0000000000
13
0.0016772188
23
0.4260821870
33
0.0000000000
40
0.0000000000
40
0.0000000000
40
0.0000000000
40
0.0000000000
40
0.0390043106
40
0.1389478136
40
0.2947875090
40
0.4982972059
40
0.7382384052
40
1.0000000000
40
1.0000000000
40
1.0000000000
40
1.0000000000
10
10.2396740062
20
-21.4717945150
30
0.0000000000
10
10.2435819029
20
-21.4678680814
30
0.0000000000
10
10.2412047046
20
-21.4451435522
30
0.0000000000
10
10.2475125360
20
-21.4060168337
30
0.0000000000
10
10.2477558975
20
-21.3394267109
30
0.0000000000
10
10.2504813879
20
-21.2548911001
30
0.0000000000
10
10.2515692760
20
-21.1545422805
30
0.0000000000
10
10.2521329416
20
-21.0833368015
30
0.0000000000
10
10.2522792854
20
-21.0461594839
30
0.0000000000
11
10.2396740062
21
-21.4717945150
31
0.0000000000
11
10.2426688933
21
-21.4554474209
31
0.0000000000
11
10.2455015485
21
-21.4129572611
31
0.0000000000
11
10.2480021886
21
-21.3466033317
31
0.0000000000
11
10.2500350290
21
-21.2599146349
31
0.0000000000
11
10.2514875182
21
-21.1576894904
31
0.0000000000
11
10.2522792854
21
-21.0461594839
31
0.0000000000
0
SPLINE
5
2E9
100
AcDbEntity
8
0
100
AcDbSpline
62
9
6
CONTINUOUS
70
0
71
3
72
12
73
8
74
6
42
0.0000001000
43
0.0000001000
44
0.0000000001
12
0.0880310235
22
-0.5047724848
32
0.0000000000
13
0.5123873982
23
-0.0019689315
33
0.0000000000
40
0.0000000000
40
0.0000000000
40
0.0000000000
40
0.0000000000
40
0.0695900778
40
0.2162777792
40
0.4337159066
40
0.7031599906
40
1.0000000000
40
1.0000000000
40
1.0000000000
40
1.0000000000
10
10.2522792854
20
-21.0461594839
30
0.0000000000
10
10.2543213140
20
-21.0578685361
30
0.0000000000
10
10.2952948584
20
-21.0764400973
30
0.0000000000
10
10.3618963129
20
-21.0925439615
30
0.0000000000
10
10.4718878015
20
-21.1079508596
30
0.0000000000
10
10.6044200397
20
-21.1175859010
30
0.0000000000
10
10.7014089212
20
-21.1201582904
30
0.0000000000
10
10.7521079479
20
-21.1203531096
30
0.0000000000
11
10.2522792854
21
-21.0461594839
31
0.0000000000
11
10.2798852148
21
-21.0687284608
31
0.0000000000
11
10.3522164388
21
-21.0891598773
31
0.0000000000
11
10.4624223021
21
-21.1055186275
31
0.0000000000
11
10.6000649552
21
-21.1162553368
31
0.0000000000
11
10.7521079479
21
-21.1203531096
31
0.0000000000
0
SPLINE
5
2EA
100
AcDbEntity
8
0
100
AcDbSpline
62
9
6
CONTINUOUS
70
0
71
3
72
10
73
6
74
4
42
0.0000001000
43
0.0000001000
44
0.0000000001
12
0.0454998765
22
11.6447977342
32
0.0000000000
13
0.0057626864
23
11.6448851991
33
0.0000000000
40
0.0000000000
40
0.0000000000
40
0.0000000000
40
0.0000000000
40
0.3320148751
40
0.6655565454
40
1.0000000000
40
1.0000000000
40
1.0000000000
40
1.0000000000
10
10.7521079479
20
-21.1203531152
30
0.0000000000
10
10.7571434932
20
-19.8316044268
30
0.0000000000
10
10.7657445379
20
-17.2481745607
30
0.0000000000
10
10.7742440484
20
-13.3665542423
30
0.0000000000
10
10.7769881160
20
-10.7736846839
30
0.0000000000
10
10.7776305469
20
-9.4754994725
30
0.0000000000
11
10.7521079479
21
-21.1203531152
31
0.0000000000
11
10.7649921451
21
-17.2540990050
31
0.0000000000
11
10.7735049927
21
-13.3700533985
31
0.0000000000
11
10.7776305469
21
-9.4754994725
31
0.0000000000
0
SPLINE
5
2EB
100
AcDbEntity
8
0
100
AcDbSpline
62
9
6
CONTINUOUS
70
0
71
3
72
10
73
6
74
4
42
0.0000001000
43
0.0000001000
44
0.0000000001
12
0.0454998724
22
11.5801037905
32
0.0000000000
13
0.0057626871
23
11.5801917440
33
0.0000000000
40
0.0000000000
40
0.0000000000
40
0.0000000000
40
0.0000000000
40
0.3320110626
40
0.6655578131
40
1.0000000000
40
1.0000000000
40
1.0000000000
40
1.0000000000
10
10.2522792854
20
-21.0461594839
30
0.0000000000
10
10.2573147724
20
-19.7645852956
30
0.0000000000
10
10.2659158508
20
-17.1955029945
30
0.0000000000
10
10.2744153781
20
-13.3354472064
30
0.0000000000
10
10.2771594558
20
-10.7569676895
30
0.0000000000
10
10.2778018844
20
-9.4659994725
30
0.0000000000
11
10.2522792854
21
-21.0461594839
31
0.0000000000
11
10.2651633597
21
-17.2014288291
31
0.0000000000
11
10.2736763541
21
-13.3389024057
31
0.0000000000
11
10.2778018844
21
-9.4659994725
31
0.0000000000
0
SPLINE
5
2EC
100
AcDbEntity
8
0
100
AcDbSpline
62
9
6
CONTINUOUS
70
0
71
3
72
12
73
8
74
6
42
0.0000001000
43
0.0000001000
44
0.0000000001
12
0.4046164664
22
-0.2938362448
32
0.0000000000
13
0.5000541589
23
-0.0002487483
33
0.0000000000
40
0.0000000000
40
0.0000000000
40
0.0000000000
40
0.0000000000
40
0.0555750126
40
0.2003450939
40
0.4207646183
40
0.6959972274
40
1.0000000000
40
1.0000000000
40
1.0000000000
40
1.0000000000
10
10.2778018844
20
-9.4659994725
30
0.0000000000
10
10.2852974062
20
-9.4714427902
30
0.0000000000
10
10.3223239321
20
-9.4653962582
30
0.0000000000
10
10.3892335102
20
-9.4745475999
30
0.0000000000
10
10.4975853146
20
-9.4728789800
30
0.0000000000
10
10.6302475409
20
-9.4755050523
30
0.0000000000
10
10.7269579300
20
-9.4754742657
30
0.0000000000
10
10.7776305469
20
-9.4754994725
30
0.0000000000
11
10.2778018844
21
-9.4659994725
31
0.0000000000
11
10.3054417986
21
-9.4688887849
31
0.0000000000
11
10.3777874159
21
-9.4715045440
31
0.0000000000
11
10.4879892262
21
-9.4735990962
31
0.0000000000
11
10.6256135851
21
-9.4749741341
31
0.0000000000
11
10.7776305469
21
-9.4754994725
31
0.0000000000
0
SPLINE
5
2ED
100
AcDbEntity
8
0
100
AcDbSpline
62
9
6
CONTINUOUS
70
0
71
3
72
10
73
6
74
4
42
0.0000001000
43
0.0000001000
44
0.0000000001
12
0.0094453641
22
18.9809983461
32
0.0000000000
13
-0.0094453649
23
18.9809983461
33
0.0000000000
40
0.0000000000
40
0.0000000000
40
0.0000000000
40
0.0000000000
40
0.3333309528
40
0.6666688022
40
1.0000000000
40
1.0000000000
40
1.0000000000
40
1.0000000000
10
10.2778018844
20
-9.4659994725
30
0.0000000000
10
10.2788513618
20
-7.3570147177
30
0.0000000000
10
10.2802504616
20
-3.1390011904
30
0.0000000000
10
10.2802504623
20
3.1879991460
30
0.0000000000
10
10.2788513627
20
7.4060142230
30
0.0000000000
10
10.2778018844
20
9.5150005275
30
0.0000000000
11
10.2778018844
21
-9.4659994725
31
0.0000000000
11
10.2799006795
21
-3.1390447728
31
0.0000000000
11
10.2799006803
21
3.1880411787
31
0.0000000000
11
10.2778018844
21
9.5150005275
31
0.0000000000
0
SPLINE
5
2EE
100
AcDbEntity
8
0
100
AcDbSpline
62
9
6
CONTINUOUS
70
0
71
3
72
12
73
8
74
6
42
0.0000001000
43
0.0000001000
44
0.0000000001
12
0.4046168641
22
0.2938356971
32
0.0000000000
13
0.5000541588
23
0.0002487483
33
0.0000000000
40
0.0000000000
40
0.0000000000
40
0.0000000000
40
0.0000000000
40
0.0555750303
40
0.2003451192
40
0.4207646415
40
0.6959972411
40
1.0000000000
40
1.0000000000
40
1.0000000000
40
1.0000000000
10
10.2778018844
20
9.5150005275
30
0.0000000000
10
10.2852974159
20
9.5204438368
30
0.0000000000
10
10.3223239304
20
9.5143973241
30
0.0000000000
10
10.3892335265
20
9.5235486478
30
0.0000000000
10
10.4975853229
20
9.5218800372
30
0.0000000000
10
10.6302475478
20
9.5245061057
30
0.0000000000
10
10.7269579323
20
9.5244753201
30
0.0000000000
10
10.7776305469
20
9.5245005268
30
0.0000000000
11
10.2778018844
21
9.5150005275
31
0.0000000000
11
10.3054418075
21
9.5178898397
31
0.0000000000
11
10.3777874286
21
9.5205055987
31
0.0000000000
11
10.4879892378
21
9.5226001507
31
0.0000000000
11
10.6256135919
21
9.5239751885
31
0.0000000000
11
10.7776305469
21
9.5245005268
31
0.0000000000
0
SPLINE
5
2EF
100
AcDbEntity
8
0
100
AcDbSpline
62
9
6
CONTINUOUS
70
0
71
3
72
10
73
6
74
4
42
0.0000001000
43
0.0000001000
44
0.0000000001
12
-0.0057627156
22
11.6448851991
32
0.0000000000
13
-0.0454999059
23
11.6447977340
33
0.0000000000
40
0.0000000000
40
0.0000000000
40
0.0000000000
40
0.0000000000
40
0.3344434556
40
0.6679851259
40
1.0000000000
40
1.0000000000
40
1.0000000000
40
1.0000000000
10
10.7776305469
20
9.5245005275
30
0.0000000000
10
10.7769881127
20
10.8226857430
30
0.0000000000
10
10.7742440527
20
13.4155553055
30
0.0000000000
10
10.7657445337
20
17.2971756238
30
0.0000000000
10
10.7571434964
20
19.8806054859
30
0.0000000000
10
10.7521079479
20
21.1693541703
30
0.0000000000
11
10.7776305469
21
9.5245005275
31
0.0000000000
11
10.7735049937
21
13.4190544659
31
0.0000000000
11
10.7649921442
21
17.3031000720
31
0.0000000000
11
10.7521079479
21
21.1693541703
31
0.0000000000
0
SPLINE
5
2F0
100
AcDbEntity
8
0
100
AcDbSpline
62
9
6
CONTINUOUS
70
0
71
3
72
10
73
6
74
4
42
0.0000001000
43
0.0000001000
44
0.0000000001
12
-0.0057627160
22
11.5801917440
32
0.0000000000
13
-0.0454999019
23
11.5801037904
33
0.0000000000
40
0.0000000000
40
0.0000000000
40
0.0000000000
40
0.0000000000
40
0.3344396113
40
0.6679863706
40
1.0000000000
40
1.0000000000
40
1.0000000000
40
1.0000000000
10
10.2778018844
20
9.5150005275
30
0.0000000000
10
10.2771594576
20
10.8059588026
30
0.0000000000
10
10.2744154090
20
13.3844284116
30
0.0000000000
10
10.2659159073
20
17.2444841998
30
0.0000000000
10
10.2573148146
20
19.8135764428
30
0.0000000000
10
10.2522792854
20
21.0951605389
30
0.0000000000
11
10.2778018844
21
9.5150005275
31
0.0000000000
11
10.2736764037
21
13.3878736349
31
0.0000000000
11
10.2651634413
21
17.2504001607
31
0.0000000000
11
10.2522792854
21
21.0951605389
31
0.0000000000
0
SPLINE
5
2F1
100
AcDbEntity
8
0
100
AcDbSpline
62
9
6
CONTINUOUS
70
0
71
3
72
12
73
8
74
6
42
0.0000001000
43
0.0000001000
44
0.0000000001
12
0.0881238627
22
0.5047543980
32
0.0000000000
13
0.5123855396
23
0.0019688484
33
0.0000000000
40
0.0000000000
40
0.0000000000
40
0.0000000000
40
0.0000000000
40
0.0695941123
40
0.2162844579
40
0.4337223867
40
0.7031639019
40
1.0000000000
40
1.0000000000
40
1.0000000000
40
1.0000000000
10
10.2522792856
20
21.0951605389
30
0.0000000000
10
10.2543235863
20
21.1068698503
30
0.0000000000
10
10.2952975076
20
21.1254385192
30
0.0000000000
10
10.3619009156
20
21.1415432956
30
0.0000000000
10
10.4718915564
20
21.1569486747
30
0.0000000000
10
10.6044224052
20
21.1665835108
30
0.0000000000
10
10.7014097731
20
21.1691556872
30
0.0000000000
10
10.7521079479
20
21.1693504956
30
0.0000000000
11
10.2522792856
21
21.0951605389
31
0.0000000000
11
10.2798885171
21
21.1177285381
31
0.0000000000
11
10.3522211489
21
21.1381589523
31
0.0000000000
11
10.4624266291
21
21.1545168372
31
0.0000000000
11
10.6000675058
21
21.1652529536
31
0.0000000000
11
10.7521079479
21
21.1693504956
31
0.0000000000
0
SPLINE
5
2F2
100
AcDbEntity
8
0
100
AcDbSpline
62
9
6
CONTINUOUS
70
0
71
3
72
13
73
9
74
7
42
0.0000001000
43
0.0000001000
44
0.0000000001
12
-0.0016804747
22
0.8514942973
32
0.0000000000
13
-0.3796921483
23
0.7621543380
33
0.0000000000
40
0.0000000000
40
0.0000000000
40
0.0000000000
40
0.0000000000
40
0.2630440154
40
0.5025267627
40
0.7055415303
40
0.8611945376
40
0.9611249442
40
1.0000000000
40
1.0000000000
40
1.0000000000
40
1.0000000000
10
10.7521079479
20
21.1693541703
30
0.0000000000
10
10.7519606016
20
21.2440143300
30
0.0000000000
10
10.7513601121
20
21.3866094267
30
0.0000000000
10
10.7504121118
20
21.5870089506
30
0.0000000000
10
10.7472894699
20
21.7563513048
30
0.0000000000
10
10.7480527373
20
21.8875481928
30
0.0000000000
10
10.7398213379
20
21.9690740114
30
0.0000000000
10
10.7444228532
20
22.0107479684
30
0.0000000000
10
10.7395026687
20
22.0206242326
30
0.0000000000
11
10.7521079479
21
21.1693541703
31
0.0000000000
11
10.7513114823
21
21.3933336694
31
0.0000000000
11
10.7498606347
21
21.5972470989
31
0.0000000000
11
10.7478333648
21
21.7701014647
31
0.0000000000
11
10.7453377930
21
21.9026158741
31
0.0000000000
11
10.7425106670
21
21.9876592326
31
0.0000000000
11
10.7395026687
21
22.0206242326
31
0.0000000000
0
SPLINE
5
2F3
100
AcDbEntity
8
0
100
AcDbSpline
62
9
6
CONTINUOUS
70
0
71
3
72
13
73
9
74
7
42
0.0000001000
43
0.0000001000
44
0.0000000001
12
-0.0016755610
22
0.4260821801
32
0.0000000000
13
-0.2997422112
23
0.3028257560
33
0.0000000000
40
0.0000000000
40
0.0000000000
40
0.0000000000
40
0.0000000000
40
0.2616874359
40
0.5014602521
40
0.7048864183
40
0.8609196988
40
0.9609777814
40
1.0000000000
40
1.0000000000
40
1.0000000000
40
1.0000000000
10
10.2522792854
20
21.0951605389
30
0.0000000000
10
10.2521331277
20
21.1323273233
30
0.0000000000
10
10.2515699786
20
21.2034987756
30
0.0000000000
10
10.2504813300
20
21.3037995528
30
0.0000000000
10
10.2477618887
20
21.3883315090
30
0.0000000000
10
10.2475105729
20
21.4549441761
30
0.0000000000
10
10.2412168350
20
21.4941343658
30
0.0000000000
10
10.2435728749
20
21.5168565924
30
0.0000000000
10
10.2396740062
20
21.5207955701
30
0.0000000000
11
10.2522792854
21
21.0951605389
31
0.0000000000
11
10.2514878192
21
21.2066589452
31
0.0000000000
11
10.2500368474
21
21.3088123552
31
0.0000000000
11
10.2480063016
21
21.3954655021
31
0.0000000000
11
10.2455044625
21
21.4619019265
31
0.0000000000
11
10.2426697570
21
21.5044408774
31
0.0000000000
11
10.2396740062
21
21.5207955701
31
0.0000000000
0
SPLINE
5
2F4
100
AcDbEntity
8
0
100
AcDbSpline
62
9
6
CONTINUOUS
70
0
71
3
72
12
73
8
74
6
42
0.0000001000
43
0.0000001000
44
0.0000000001
12
0.0005356733
22
0.7817393695
32
0.0000000000
13
0.7817393695
23
0.0005356729
33
0.0000000000
40
0.0000000000
40
0.0000000000
40
0.0000000000
40
0.0000000000
40
0.1999768525
40
0.3999879277
40
0.6000120718
40
0.8000231472
40
1.0000000000
40
1.0000000000
40
1.0000000000
40
1.0000000000
10
10.2396740062
20
21.5207955701
30
0.0000000000
10
10.2397097137
20
21.5729054963
30
0.0000000000
10
10.2563531767
20
21.6778558274
30
0.0000000000
10
10.3285515228
20
21.8193206719
30
0.0000000000
10
10.4409775666
20
21.9317467159
30
0.0000000000
10
10.5824424112
20
22.0039450621
30
0.0000000000
10
10.6873927425
20
22.0205885252
30
0.0000000000
10
10.7395026687
20
22.0206242326
30
0.0000000000
11
10.2396740062
21
21.5207955701
31
0.0000000000
11
10.2642219924
21
21.6751860086
31
0.0000000000
11
10.3352535152
21
21.8144767094
31
0.0000000000
11
10.4458215291
21
21.9250447235
31
0.0000000000
11
10.5851122299
21
21.9960762463
31
0.0000000000
11
10.7395026687
21
22.0206242326
31
0.0000000000
0
SPLINE
5
2F5
100
AcDbEntity
8
0
100
AcDbSpline
62
9
6
CONTINUOUS
70
0
71
3
72
12
73
8
74
6
42
0.0000001000
43
0.0000001000
44
0.0000000001
12
-0.0005356733
22
-0.7817393695
32
0.0000000000
13
-0.7817393695
23
-0.0005356730
33
0.0000000000
40
0.0000000000
40
0.0000000000
40
0.0000000000
40
0.0000000000
40
0.1999768524
40
0.3999879276
40
0.6000120716
40
0.8000231471
40
1.0000000000
40
1.0000000000
40
1.0000000000
40
1.0000000000
10
32.0319214163
20
-21.4717945150
30
0.0000000000
10
32.0318857089
20
-21.5239044412
30
0.0000000000
10
32.0152422458
20
-21.6288547723
30
0.0000000000
10
31.9430438999
20
-21.7703196168
30
0.0000000000
10
31.8306178560
20
-21.8827456608
30
0.0000000000
10
31.6891530114
20
-21.9549440070
30
0.0000000000
10
31.5842026801
20
-21.9715874701
30
0.0000000000
10
31.5320927538
20
-21.9716231775
30
0.0000000000
11
32.0319214163
21
-21.4717945150
31
0.0000000000
11
32.0073734301
21
-21.6261849535
31
0.0000000000
11
31.9363419075
21
-21.7654756542
31
0.0000000000
11
31.8257738935
21
-21.8760436683
31
0.0000000000
11
31.6864831927
21
-21.9470751912
31
0.0000000000
11
31.5320927538
21
-21.9716231775
31
0.0000000000
0
SPLINE
5
2F6
100
AcDbEntity
8
0
100
AcDbSpline
62
9
6
CONTINUOUS
70
0
71
3
72
12
73
8
74
6
42
0.0000001000
43
0.0000001000
44
0.0000000001
12
-0.0881016766
22
-0.5047587650
32
0.0000000000
13
-0.5123860264
23
-0.0019688162
33
0.0000000000
40
0.0000000000
40
0.0000000000
40
0.0000000000
40
0.0000000000
40
0.0695932119
40
0.2162829387
40
0.4337209020
40
0.7031630026
40
1.0000000000
40
1.0000000000
40
1.0000000000
40
1.0000000000
10
32.0193161370
20
-21.0461594839
30
0.0000000000
10
32.0172723775
20
-21.0578687451
30
0.0000000000
10
31.9762985671
20
-21.0764381597
30
0.0000000000
10
31.9096955945
20
-21.0925427392
30
0.0000000000
10
31.7997047600
20
-21.1079485070
30
0.0000000000
10
31.6671735771
20
-21.1175833954
30
0.0000000000
10
31.5701858512
20
-21.1201556175
30
0.0000000000
10
31.5194874746
20
-21.1203504233
30
0.0000000000
11
32.0193161370
21
-21.0461594839
31
0.0000000000
11
31.9917076878
21
-21.0687277647
31
0.0000000000
11
31.9193753895
21
-21.0891584555
31
0.0000000000
11
31.8091698185
21
-21.1055165700
31
0.0000000000
11
31.6715285209
21
-21.1162528348
31
0.0000000000
11
31.5194874746
21
-21.1203504233
31
0.0000000000
0
SPLINE
5
2F7
100
AcDbEntity
8
0
100
AcDbSpline
62
9
6
CONTINUOUS
70
0
71
3
72
13
73
9
74
7
42
0.0000001000
43
0.0000001000
44
0.0000000001
12
0.0016819691
22
-0.8514942704
32
0.0000000000
13
0.3807543852
23
-0.7616241985
33
0.0000000000
40
0.0000000000
40
0.0000000000
40
0.0000000000
40
0.0000000000
40
0.2630442198
40
0.5025313533
40
0.7055466814
40
0.8611974128
40
0.9611251117
40
1.0000000000
40
1.0000000000
40
1.0000000000
40
1.0000000000
10
31.5194874746
20
-21.1203531152
30
0.0000000000
10
31.5196349521
20
-21.1950133306
30
0.0000000000
10
31.5202358965
20
-21.3376094770
30
0.0000000000
10
31.5211813813
20
-21.5380114472
30
0.0000000000
10
31.5243115070
20
-21.7073517478
30
0.0000000000
10
31.5235332017
20
-21.8385543005
30
0.0000000000
10
31.5317913467
20
-21.9200654037
30
0.0000000000
10
31.5271588258
20
-21.9617538256
30
0.0000000000
10
31.5320927538
20
-21.9716231775
30
0.0000000000
11
31.5194874746
21
-21.1203531152
31
0.0000000000
11
31.5202839268
21
-21.3443327822
31
0.0000000000
11
31.5217348280
21
-21.5482499404
31
0.0000000000
11
31.5237630053
21
-21.7211047680
31
0.0000000000
11
31.5262580562
21
-21.8536172452
31
0.0000000000
11
31.5290849800
21
-21.9386583012
31
0.0000000000
11
31.5320927538
21
-21.9716231775
31
0.0000000000
0
SPLINE
5
2F8
100
AcDbEntity
8
0
100
AcDbSpline
62
9
6
CONTINUOUS
70
0
71
3
72
13
73
9
74
7
42
0.0000001000
43
0.0000001000
44
0.0000000001
12
0.0016772188
22
-0.4260821870
32
0.0000000000
13
0.3005742141
23
-0.3019999750
33
0.0000000000
40
0.0000000000
40
0.0000000000
40
0.0000000000
40
0.0000000000
40
0.2617615948
40
0.5017027941
40
0.7052124910
40
0.8610521863
40
0.9609956895
40
1.0000000000
40
1.0000000000
40
1.0000000000
40
1.0000000000
10
32.0193161371
20
-21.0461594839
30
0.0000000000
10
32.0194624809
20
-21.0833368015
30
0.0000000000
10
32.0200261466
20
-21.1545422805
30
0.0000000000
10
32.0211140347
20
-21.2548911001
30
0.0000000000
10
32.0238395251
20
-21.3394267109
30
0.0000000000
10
32.0240828866
20
-21.4060168337
30
0.0000000000
10
32.0303907179
20
-21.4451435522
30
0.0000000000
10
32.0280135197
20
-21.4678680814
30
0.0000000000
10
32.0319214163
20
-21.4717945150
30
0.0000000000
11
32.0193161371
21
-21.0461594839
31
0.0000000000
11
32.0201079043
21
-21.1576894904
31
0.0000000000
11
32.0215603935
21
-21.2599146349
31
0.0000000000
11
32.0235932339
21
-21.3466033317
31
0.0000000000
11
32.0260938741
21
-21.4129572610
31
0.0000000000
11
32.0289265292
21
-21.4554474209
31
0.0000000000
11
32.0319214163
21
-21.4717945150
31
0.0000000000
0
SPLINE
5
2F9
100
AcDbEntity
8
0
100
AcDbSpline
62
9
6
CONTINUOUS
70
0
71
3
72
12
73
8
74
6
42
0.0000001000
43
0.0000001000
44
0.0000000001
12
-0.4046167021
22
-0.2938359202
32
0.0000000000
13
-0.5000541588
23
-0.0002487483
33
0.0000000000
40
0.0000000000
40
0.0000000000
40
0.0000000000
40
0.0000000000
40
0.0555750231
40
0.2003451089
40
0.4207646321
40
0.6959972355
40
1.0000000000
40
1.0000000000
40
1.0000000000
40
1.0000000000
10
31.9937935381
20
-9.4659994725
30
0.0000000000
10
31.9862980106
20
-9.4714427852
30
0.0000000000
10
31.9492714915
20
-9.4653962646
30
0.0000000000
10
31.8823619027
20
-9.4745475957
30
0.0000000000
10
31.7740101031
20
-9.4728789813
30
0.0000000000
10
31.6413478776
20
-9.4755050514
30
0.0000000000
10
31.5446374912
20
-9.4754742653
30
0.0000000000
10
31.4939648757
20
-9.4754994720
30
0.0000000000
11
31.9937935381
21
-9.4659994725
31
0.0000000000
11
31.9661536187
21
-9.4688887848
31
0.0000000000
11
31.8938079991
21
-9.4715045438
31
0.0000000000
11
31.7836061895
21
-9.4735990959
31
0.0000000000
11
31.6459818334
21
-9.4749741337
31
0.0000000000
11
31.4939648757
21
-9.4754994720
31
0.0000000000
0
SPLINE
5
2FA
100
AcDbEntity
8
0
100
AcDbSpline
62
9
6
CONTINUOUS
70
0
71
3
72
10
73
6
74
4
42
0.0000001000
43
0.0000001000
44
0.0000000001
12
0.0057626864
22
-11.6448851991
32
0.0000000000
13
0.0454998764
23
-11.6447977342
33
0.0000000000
40
0.0000000000
40
0.0000000000
40
0.0000000000
40
0.0000000000
40
0.3344434546
40
0.6679851249
40
1.0000000000
40
1.0000000000
40
1.0000000000
40
1.0000000000
10
31.4939648757
20
-9.4754994725
30
0.0000000000
10
31.4946073066
20
-10.7736846839
30
0.0000000000
10
31.4973513741
20
-13.3665542423
30
0.0000000000
10
31.5058508846
20
-17.2481745607
30
0.0000000000
10
31.5144519294
20
-19.8316044268
30
0.0000000000
10
31.5194874746
20
-21.1203531152
30
0.0000000000
11
31.4939648757
21
-9.4754994725
31
0.0000000000
11
31.4980904298
21
-13.3700533985
31
0.0000000000
11
31.5066032774
21
-17.2540990050
31
0.0000000000
11
31.5194874746
21
-21.1203531152
31
0.0000000000
0
SPLINE
5
2FB
100
AcDbEntity
8
0
100
AcDbSpline
62
9
6
CONTINUOUS
70
0
71
3
72
10
73
6
74
4
42
0.0000001000
43
0.0000001000
44
0.0000000001
12
0.0057626871
22
-11.5801917440
32
0.0000000000
13
0.0454998724
23
-11.5801037905
33
0.0000000000
40
0.0000000000
40
0.0000000000
40
0.0000000000
40
0.0000000000
40
0.3344421869
40
0.6679889374
40
1.0000000000
40
1.0000000000
40
1.0000000000
40
1.0000000000
10
31.9937935381
20
-9.4659994725
30
0.0000000000
10
31.9944359667
20
-10.7569676895
30
0.0000000000
10
31.9971800444
20
-13.3354472064
30
0.0000000000
10
32.0056795717
20
-17.1955029945
30
0.0000000000
10
32.0142806501
20
-19.7645852956
30
0.0000000000
10
32.0193161371
20
-21.0461594839
30
0.0000000000
11
31.9937935381
21
-9.4659994725
31
0.0000000000
11
31.9979190685
21
-13.3389024057
31
0.0000000000
11
32.0064320628
21
-17.2014288291
31
0.0000000000
11
32.0193161371
21
-21.0461594839
31
0.0000000000
0
SPLINE
5
2FC
100
AcDbEntity
8
0
100
AcDbSpline
62
9
6
CONTINUOUS
70
0
71
3
72
12
73
8
74
6
42
0.0000001000
43
0.0000001000
44
0.0000000001
12
-0.4046164634
22
0.2938362490
32
0.0000000000
13
-0.5000541589
23
0.0002487483
33
0.0000000000
40
0.0000000000
40
0.0000000000
40
0.0000000000
40
0.0000000000
40
0.0555750125
40
0.2003450937
40
0.4207646181
40
0.6959972273
40
1.0000000000
40
1.0000000000
40
1.0000000000
40
1.0000000000
10
31.9937935381
20
9.5150005275
30
0.0000000000
10
31.9862980165
20
9.5204438453
30
0.0000000000
10
31.9492714904
20
9.5143973131
30
0.0000000000
10
31.8823619125
20
9.5235486550
30
0.0000000000
10
31.7740101081
20
9.5218800350
30
0.0000000000
10
31.6413478817
20
9.5245061074
30
0.0000000000
10
31.5446374926
20
9.5244753208
30
0.0000000000
10
31.4939648757
20
9.5245005275
30
0.0000000000
11
31.9937935381
21
9.5150005275
31
0.0000000000
11
31.9661536240
21
9.5178898399
31
0.0000000000
11
31.8938080067
21
9.5205055991
31
0.0000000000
11
31.7836061964
21
9.5226001512
31
0.0000000000
11
31.6459818375
21
9.5239751891
31
0.0000000000
11
31.4939648757
21
9.5245005275
31
0.0000000000
0
SPLINE
5
2FD
100
AcDbEntity
8
0
100
AcDbSpline
62
9
6
CONTINUOUS
70
0
71
3
72
10
73
6
74
4
42
0.0000001000
43
0.0000001000
44
0.0000000001
12
-0.0094453649
22
-18.9809983461
32
0.0000000000
13
0.0094453641
23
-18.9809983461
33
0.0000000000
40
0.0000000000
40
0.0000000000
40
0.0000000000
40
0.0000000000
40
0.3333311978
40
0.6666690472
40
1.0000000000
40
1.0000000000
40
1.0000000000
40
1.0000000000
10
31.9937935381
20
9.5150005275
30
0.0000000000
10
31.9927440599
20
7.4060142230
30
0.0000000000
10
31.9913449603
20
3.1879991460
30
0.0000000000
10
31.9913449609
20
-3.1390011904
30
0.0000000000
10
31.9927440607
20
-7.3570147177
30
0.0000000000
10
31.9937935381
20
-9.4659994725
30
0.0000000000
11
31.9937935381
21
9.5150005275
31
0.0000000000
11
31.9916947423
21
3.1880411787
31
0.0000000000
11
31.9916947430
21
-3.1390447729
31
0.0000000000
11
31.9937935381
21
-9.4659994725
31
0.0000000000
0
SPLINE
5
2FE
100
AcDbEntity
8
0
100
AcDbSpline
62
9
6
CONTINUOUS
70
0
71
3
72
12
73
8
74
6
42
0.0000001000
43
0.0000001000
44
0.0000000001
12
-0.0880309235
22
0.5047725038
32
0.0000000000
13
-0.5123873998
23
0.0019689281
33
0.0000000000
40
0.0000000000
40
0.0000000000
40
0.0000000000
40
0.0000000000
40
0.0695900728
40
0.2162777711
40
0.4337158988
40
0.7031599859
40
1.0000000000
40
1.0000000000
40
1.0000000000
40
1.0000000000
10
32.0193161371
20
21.0951605389
30
0.0000000000
10
32.0172741110
20
21.1068695907
30
0.0000000000
10
31.9763005669
20
21.1254411545
30
0.0000000000
10
31.9096991148
20
21.1415450176
30
0.0000000000
10
31.7997076252
20
21.1569519171
30
0.0000000000
10
31.6671753855
20
21.1665869589
30
0.0000000000
10
31.5701865023
20
21.1691593480
30
0.0000000000
10
31.5194874746
20
21.1693541669
30
0.0000000000
11
32.0193161371
21
21.0951605389
31
0.0000000000
11
31.9917102114
21
21.1177295164
31
0.0000000000
11
31.9193789889
21
21.1381609337
31
0.0000000000
11
31.8091731253
21
21.1545196846
31
0.0000000000
11
31.6715304702
21
21.1652563946
31
0.0000000000
11
31.5194874746
21
21.1693541669
31
0.0000000000
0
SPLINE
5
2FF
100
AcDbEntity
8
0
100
AcDbSpline
62
9
6
CONTINUOUS
70
0
71
3
72
10
73
6
74
4
42
0.0000001000
43
0.0000001000
44
0.0000000001
12
-0.0454999059
22
-11.6447977340
32
0.0000000000
13
-0.0057627156
23
-11.6448851991
33
0.0000000000
40
0.0000000000
40
0.0000000000
40
0.0000000000
40
0.0000000000
40
0.3320148741
40
0.6655565444
40
1.0000000000
40
1.0000000000
40
1.0000000000
40
1.0000000000
10
31.5194874746
20
21.1693541703
30
0.0000000000
10
31.5144519261
20
19.8806054859
30
0.0000000000
10
31.5058508889
20
17.2971756238
30
0.0000000000
10
31.4973513699
20
13.4155553055
30
0.0000000000
10
31.4946073098
20
10.8226857430
30
0.0000000000
10
31.4939648757
20
9.5245005275
30
0.0000000000
11
31.5194874746
21
21.1693541703
31
0.0000000000
11
31.5066032784
21
17.3031000720
31
0.0000000000
11
31.4980904289
21
13.4190544659
31
0.0000000000
11
31.4939648757
21
9.5245005275
31
0.0000000000
0
SPLINE
5
300
100
AcDbEntity
8
0
100
AcDbSpline
62
9
6
CONTINUOUS
70
0
71
3
72
10
73
6
74
4
42
0.0000001000
43
0.0000001000
44
0.0000000001
12
-0.0454999019
22
-11.5801037904
32
0.0000000000
13
-0.0057627160
23
-11.5801917440
33
0.0000000000
40
0.0000000000
40
0.0000000000
40
0.0000000000
40
0.0000000000
40
0.3320136294
40
0.6655603887
40
1.0000000000
40
1.0000000000
40
1.0000000000
40
1.0000000000
10
32.0193161371
20
21.0951605389
30
0.0000000000
10
32.0142806079
20
19.8135764428
30
0.0000000000
10
32.0056795153
20
17.2444841998
30
0.0000000000
10
31.9971800135
20
13.3844284116
30
0.0000000000
10
31.9944359650
20
10.8059588026
30
0.0000000000
10
31.9937935381
20
9.5150005275
30
0.0000000000
11
32.0193161371
21
21.0951605389
31
0.0000000000
11
32.0064319812
21
17.2504001607
31
0.0000000000
11
31.9979190188
21
13.3878736349
31
0.0000000000
11
31.9937935381
21
9.5150005275
31
0.0000000000
0
SPLINE
5
301
100
AcDbEntity
8
0
100
AcDbSpline
62
9
6
CONTINUOUS
70
0
71
3
72
12
73
8
74
6
42
0.0000001000
43
0.0000001000
44
0.0000000001
12
-0.0005356740
22
0.7817393693
32
0.0000000000
13
-0.7817393693
23
0.0005356738
33
0.0000000000
40
0.0000000000
40
0.0000000000
40
0.0000000000
40
0.0000000000
40
0.1999736078
40
0.3999832677
40
0.6000076998
40
0.8000204728
40
1.0000000000
40
1.0000000000
40
1.0000000000
40
1.0000000000
10
32.0319214163
20
21.5207955701
30
0.0000000000
10
32.0318857094
20
21.5729046507
30
0.0000000000
10
32.0152427197
20
21.6778537325
30
0.0000000000
10
31.9430458050
20
21.8193179709
30
0.0000000000
10
31.8306204526
20
21.9317449310
30
0.0000000000
10
31.6891548763
20
22.0039446500
30
0.0000000000
10
31.5842033771
20
22.0205885247
30
0.0000000000
10
31.5320927539
20
22.0206242327
30
0.0000000000
11
32.0319214163
21
21.5207955701
31
0.0000000000
11
32.0073742247
21
21.6751835665
31
0.0000000000
11
31.9363440757
21
21.8144737257
31
0.0000000000
11
31.8257766924
21
21.9250426889
31
0.0000000000
11
31.6864852055
21
21.9960755912
31
0.0000000000
11
31.5320927539
21
22.0206242327
31
0.0000000000
0
SPLINE
5
302
100
AcDbEntity
8
0
100
AcDbSpline
62
9
6
CONTINUOUS
70
0
71
3
72
13
73
9
74
7
42
0.0000001000
43
0.0000001000
44
0.0000000001
12
-0.3796921540
22
-0.7621543352
32
0.0000000000
13
-0.0016804747
23
-0.8514942973
33
0.0000000000
40
0.0000000000
40
0.0000000000
40
0.0000000000
40
0.0000000000
40
0.0388750558
40
0.1388054624
40
0.2944584697
40
0.4974732373
40
0.7369559846
40
1.0000000000
40
1.0000000000
40
1.0000000000
40
1.0000000000
10
31.5320927538
20
22.0206242326
30
0.0000000000
10
31.5271725693
20
22.0107479685
30
0.0000000000
10
31.5317740848
20
21.9690740113
30
0.0000000000
10
31.5235426852
20
21.8875481928
30
0.0000000000
10
31.5243059526
20
21.7563513048
30
0.0000000000
10
31.5211833107
20
21.5870089506
30
0.0000000000
10
31.5202353105
20
21.3866094267
30
0.0000000000
10
31.5196348209
20
21.2440143300
30
0.0000000000
10
31.5194874746
20
21.1693541703
30
0.0000000000
11
31.5320927538
21
22.0206242326
31
0.0000000000
11
31.5290847556
21
21.9876592326
31
0.0000000000
11
31.5262576295
21
21.9026158741
31
0.0000000000
11
31.5237620578
21
21.7701014647
31
0.0000000000
11
31.5217347879
21
21.5972470989
31
0.0000000000
11
31.5202839403
21
21.3933336694
31
0.0000000000
11
31.5194874746
21
21.1693541703
31
0.0000000000
0
SPLINE
5
303
100
AcDbEntity
8
0
100
AcDbSpline
62
9
6
CONTINUOUS
70
0
71
3
72
13
73
9
74
7
42
0.0000001000
43
0.0000001000
44
0.0000000001
12
-0.2997422238
22
-0.3028257435
32
0.0000000000
13
-0.0016755610
23
-0.4260821801
33
0.0000000000
40
0.0000000000
40
0.0000000000
40
0.0000000000
40
0.0000000000
40
0.0390222187
40
0.1390803011
40
0.2951135816
40
0.4985397479
40
0.7383125641
40
1.0000000000
40
1.0000000000
40
1.0000000000
40
1.0000000000
10
32.0319214163
20
21.5207955701
30
0.0000000000
10
32.0280225474
20
21.5168565926
30
0.0000000000
10
32.0303785877
20
21.4941343656
30
0.0000000000
10
32.0240848495
20
21.4549441762
30
0.0000000000
10
32.0238335339
20
21.3883315089
30
0.0000000000
10
32.0211140926
20
21.3037995529
30
0.0000000000
10
32.0200254439
20
21.2034987756
30
0.0000000000
10
32.0194622949
20
21.1323273233
30
0.0000000000
10
32.0193161371
20
21.0951605389
30
0.0000000000
11
32.0319214163
21
21.5207955701
31
0.0000000000
11
32.0289256656
21
21.5044408773
31
0.0000000000
11
32.0260909600
21
21.4619019265
31
0.0000000000
11
32.0235891209
21
21.3954655021
31
0.0000000000
11
32.0215585752
21
21.3088123552
31
0.0000000000
11
32.0201076034
21
21.2066589452
31
0.0000000000
11
32.0193161371
21
21.0951605389
31
0.0000000000
0
SPLINE
5
304
100
AcDbEntity
8
0
100
AcDbSpline
62
9
6
CONTINUOUS
70
0
71
3
72
13
73
9
74
7
42
0.0000001000
43
0.0000001000
44
0.0000000001
12
0.1035026888
22
-0.6885304667
32
0.0000000000
13
0.6960256184
23
-0.0183125268
33
0.0000000000
40
0.0000000000
40
0.0000000000
40
0.0000000000
40
0.0000000000
40
0.1659651375
40
0.3330052161
40
0.5001366146
40
0.6671491356
40
0.8340685967
40
1.0000000000
40
1.0000000000
40
1.0000000000
40
1.0000000000
10
-13.7113677923
20
-21.0461594839
30
0.0000000000
10
-13.7056418463
20
-21.0842501684
30
0.0000000000
10
-13.6852362616
20
-21.1596407073
30
0.0000000000
10
-13.6293710622
20
-21.2625422728
30
0.0000000000
10
-13.5510709515
20
-21.3499999685
30
0.0000000000
10
-13.4546861357
20
-21.4169531450
30
0.0000000000
10
-13.3457750388
20
-21.4597591078
30
0.0000000000
10
-13.2684891038
20
-21.4707816406
30
0.0000000000
10
-13.2299916013
20
-21.4717945150
30
0.0000000000
11
-13.7113677923
21
-21.0461594839
31
0.0000000000
11
-13.6811314235
21
-21.1576894904
31
0.0000000000
11
-13.6256630991
21
-21.2599146349
31
0.0000000000
11
-13.5480320548
21
-21.3466033317
31
0.0000000000
11
-13.4525364609
21
-21.4129572610
31
0.0000000000
11
-13.3443617244
21
-21.4554474209
31
0.0000000000
11
-13.2299916013
21
-21.4717945150
31
0.0000000000
0
SPLINE
5
305
100
AcDbEntity
8
0
100
AcDbSpline
62
9
6
CONTINUOUS
70
0
71
3
72
12
73
8
74
6
42
0.0000001000
43
0.0000001000
44
0.0000000001
12
-0.4816497056
22
-0.0723203704
32
0.0000000000
13
0.0724351773
23
-0.4816324532
33
0.0000000000
40
0.0000000000
40
0.0000000000
40
0.0000000000
40
0.0000000000
40
0.3108014115
40
0.5896483567
40
0.8101319945
40
0.9513718923
40
1.0000000000
40
1.0000000000
40
1.0000000000
40
1.0000000000
10
-13.7113677923
20
-21.0461594839
30
0.0000000000
10
-13.7612669284
20
-21.0536519083
30
0.0000000000
10
-13.8569870856
20
-21.0671784088
30
0.0000000000
10
-13.9829464259
20
-21.0897996597
30
0.0000000000
10
-14.0961063135
20
-21.0983447469
30
0.0000000000
10
-14.1421732784
20
-21.1224893158
30
0.0000000000
10
-14.1939002030
20
-21.1125434651
30
0.0000000000
10
-14.1927260745
20
-21.1203504233
30
0.0000000000
11
-13.7113677923
21
-21.0461594839
31
0.0000000000
11
-13.8610515074
21
-21.0687277647
31
0.0000000000
11
-13.9953180938
21
-21.0891584555
31
0.0000000000
11
-14.1014511919
21
-21.1055165700
31
0.0000000000
11
-14.1693989584
21
-21.1162528348
31
0.0000000000
11
-14.1927260745
21
-21.1203504233
31
0.0000000000
0
SPLINE
5
306
100
AcDbEntity
8
0
100
AcDbSpline
62
9
6
CONTINUOUS
70
0
71
3
72
12
73
8
74
6
42
0.0000001000
43
0.0000001000
44
0.0000000001
12
-0.0130830273
22
-0.4999632459
32
0.0000000000
13
0.4999630113
23
-0.0130919922
33
0.0000000000
40
0.0000000000
40
0.0000000000
40
0.0000000000
40
0.0000000000
40
0.3087727501
40
0.5873022217
40
0.8083788267
40
0.9504486572
40
1.0000000000
40
1.0000000000
40
1.0000000000
40
1.0000000000
10
-13.2299916013
20
-21.4717945150
30
0.0000000000
10
-13.2313381621
20
-21.5232528572
30
0.0000000000
10
-13.2341774668
20
-21.6220422188
30
0.0000000000
10
-13.2334443718
20
-21.7533155734
30
0.0000000000
10
-13.2402462275
20
-21.8692136221
30
0.0000000000
10
-13.2265149246
20
-21.9209402344
30
0.0000000000
10
-13.2382495475
20
-21.9714069356
30
0.0000000000
10
-13.2299916013
20
-21.9716231775
30
0.0000000000
11
-13.2299916013
21
-21.4717945150
31
0.0000000000
11
-13.2333916455
21
-21.6261849535
31
0.0000000000
11
-13.2351790746
21
-21.7654756542
31
0.0000000000
11
-13.2351790741
21
-21.8760436683
31
0.0000000000
11
-13.2333916442
21
-21.9470751912
31
0.0000000000
11
-13.2299916013
21
-21.9716231775
31
0.0000000000
0
SPLINE
5
307
100
AcDbEntity
8
0
100
AcDbSpline
62
9
6
CONTINUOUS
70
0
71
3
72
13
73
9
74
7
42
0.0000001000
43
0.0000001000
44
0.0000000001
12
-0.6960229535
22
-0.0184134977
32
0.0000000000
13
-0.1034026451
23
-0.6885454972
33
0.0000000000
40
0.0000000000
40
0.0000000000
40
0.0000000000
40
0.0000000000
40
0.1659798398
40
0.3330295974
40
0.5001637400
40
0.6671731523
40
0.8340829852
40
1.0000000000
40
1.0000000000
40
1.0000000000
40
1.0000000000
10
-13.2299916013
20
21.5207955701
30
0.0000000000
10
-13.2685001941
20
21.5197768136
30
0.0000000000
10
-13.3458277473
20
21.5087546605
30
0.0000000000
10
-13.4548004478
20
21.4659047250
30
0.0000000000
10
-13.5511871977
20
21.3988982251
30
0.0000000000
10
-13.6294340595
20
21.3114360595
30
0.0000000000
10
-13.6852481128
20
21.2085902741
30
0.0000000000
10
-13.7056490395
20
21.1332410101
30
0.0000000000
10
-13.7113677923
20
21.0951605389
30
0.0000000000
11
-13.2299916013
21
21.5207955701
31
0.0000000000
11
-13.3443947056
21
21.5044408773
31
0.0000000000
11
-13.4526477445
21
21.4619019265
31
0.0000000000
11
-13.5481891247
21
21.3954655021
31
0.0000000000
11
-13.6257325390
21
21.3088123552
31
0.0000000000
11
-13.6811429160
21
21.2066589452
31
0.0000000000
11
-13.7113677923
21
21.0951605389
31
0.0000000000
0
SPLINE
5
308
100
AcDbEntity
8
0
100
AcDbSpline
62
9
6
CONTINUOUS
70
0
71
3
72
12
73
8
74
6
42
0.0000001000
43
0.0000001000
44
0.0000000001
12
-0.0130830439
22
0.4999632443
32
0.0000000000
13
0.4999630101
23
0.0130919922
33
0.0000000000
40
0.0000000000
40
0.0000000000
40
0.0000000000
40
0.0000000000
40
0.3087678675
40
0.5872962576
40
0.8083747609
40
0.9504473483
40
1.0000000000
40
1.0000000000
40
1.0000000000
40
1.0000000000
10
-13.2299916013
20
21.5207955701
30
0.0000000000
10
-13.2313381425
20
21.5722530983
30
0.0000000000
10
-13.2341774191
20
21.6710414416
30
0.0000000000
10
-13.2334443629
20
21.8023141652
30
0.0000000000
10
-13.2402463031
20
21.9182128334
30
0.0000000000
10
-13.2265147632
20
21.9699401765
30
0.0000000000
10
-13.2382497610
20
22.0204079850
30
0.0000000000
10
-13.2299915967
20
22.0206242327
30
0.0000000000
11
-13.2299916013
21
21.5207955701
31
0.0000000000
11
-13.2333916063
21
21.6751835665
31
0.0000000000
11
-13.2351790586
21
21.8144737257
31
0.0000000000
11
-13.2351790982
21
21.9250426889
31
0.0000000000
11
-13.2333916801
21
21.9960755912
31
0.0000000000
11
-13.2299915967
21
22.0206242327
31
0.0000000000
0
SPLINE
5
309
100
AcDbEntity
8
0
100
AcDbSpline
62
9
6
CONTINUOUS
70
0
71
3
72
10
73
6
74
4
42
0.0000001000
43
0.0000001000
44
0.0000000001
12
-1.7254980515
22
-11.4996421818
32
0.0000000000
13
-0.2209450314
23
-11.6262761506
33
0.0000000000
40
0.0000000000
40
0.0000000000
40
0.0000000000
40
0.0000000000
40
0.3333325128
40
0.6666708733
40
1.0000000000
40
1.0000000000
40
1.0000000000
40
1.0000000000
10
-13.7113677923
20
21.0951605389
30
0.0000000000
10
-13.9030893261
20
19.8174256641
30
0.0000000000
10
-14.2312350591
20
17.2532682840
30
0.0000000000
10
-14.5564187233
20
13.3897125984
30
0.0000000000
10
-14.6614873867
20
10.8067926861
30
0.0000000000
10
-14.6860365248
20
9.5150005275
30
0.0000000000
11
-13.7113677923
21
21.0951605389
31
0.0000000000
11
-14.2033938552
21
17.2504001607
31
0.0000000000
11
-14.5284907741
21
13.3878736349
31
0.0000000000
11
-14.6860365248
21
9.5150005275
31
0.0000000000
0
SPLINE
5
30A
100
AcDbEntity
8
0
100
AcDbSpline
62
9
6
CONTINUOUS
70
0
71
3
72
12
73
8
74
6
42
0.0000001000
43
0.0000001000
44
0.0000000001
12
-0.4816675990
22
0.0723230103
32
0.0000000000
13
0.0722746892
23
0.4816748520
33
0.0000000000
40
0.0000000000
40
0.0000000000
40
0.0000000000
40
0.0000000000
40
0.3107996592
40
0.5896463585
40
0.8101305820
40
0.9513712896
40
1.0000000000
40
1.0000000000
40
1.0000000000
40
1.0000000000
10
-13.7113677923
20
21.0951605389
30
0.0000000000
10
-13.7612685008
20
21.1026531946
30
0.0000000000
10
-13.8569915684
20
21.1161800988
30
0.0000000000
10
-13.9829565894
20
21.1388023149
30
0.0000000000
10
-14.0961177892
20
21.1473472584
30
0.0000000000
10
-14.1421925637
20
21.1714937267
30
0.0000000000
10
-14.1939155024
20
21.1615464246
30
0.0000000000
10
-14.1927439608
20
21.1693541669
30
0.0000000000
11
-13.7113677923
21
21.0951605389
31
0.0000000000
11
-13.8610562243
21
21.1177295164
31
0.0000000000
11
-13.9953276806
21
21.1381609337
31
0.0000000000
11
-14.1014650041
21
21.1545196846
31
0.0000000000
11
-14.1694156859
21
21.1652563946
31
0.0000000000
11
-14.1927439608
21
21.1693541669
31
0.0000000000
0
SPLINE
5
30B
100
AcDbEntity
8
0
100
AcDbSpline
62
9
6
CONTINUOUS
70
0
71
3
72
10
73
6
74
4
42
0.0000001000
43
0.0000001000
44
0.0000000001
12
-0.3606581412
22
-18.9785887347
32
0.0000000000
13
0.3606581121
23
-18.9785887353
33
0.0000000000
40
0.0000000000
40
0.0000000000
40
0.0000000000
40
0.0000000000
40
0.3333401063
40
0.6666601386
40
1.0000000000
40
1.0000000000
40
1.0000000000
40
1.0000000000
10
-14.6860365248
20
9.5150005275
30
0.0000000000
10
-14.7261104659
20
7.4062255987
30
0.0000000000
10
-14.7795438520
20
3.1882443359
30
0.0000000000
10
-14.7795438267
20
-3.1392463804
30
0.0000000000
10
-14.7261104332
20
-7.3572260931
30
0.0000000000
10
-14.6860365248
20
-9.4659994725
30
0.0000000000
11
-14.6860365248
21
9.5150005275
31
0.0000000000
11
-14.7661863057
21
3.1880411787
31
0.0000000000
11
-14.7661862772
21
-3.1390447729
31
0.0000000000
11
-14.6860365248
21
-9.4659994725
31
0.0000000000
0
SPLINE
5
30C
100
AcDbEntity
8
0
100
AcDbSpline
62
9
6
CONTINUOUS
70
0
71
3
72
10
73
6
74
4
42
0.0000001000
43
0.0000001000
44
0.0000000001
12
0.2209439242
22
-11.6262761716
32
0.0000000000
13
1.7254969565
23
-11.4996423461
33
0.0000000000
40
0.0000000000
40
0.0000000000
40
0.0000000000
40
0.0000000000
40
0.3333316961
40
0.6666700567
40
1.0000000000
40
1.0000000000
40
1.0000000000
40
1.0000000000
10
-14.6860365248
20
-9.4659994725
30
0.0000000000
10
-14.6614873205
20
-10.7578015910
30
0.0000000000
10
-14.5564175376
20
-13.3407314457
30
0.0000000000
10
-14.2312329015
20
-17.2042870494
30
0.0000000000
10
-13.9030877265
20
-19.7684344400
30
0.0000000000
10
-13.7113677923
20
-21.0461594839
30
0.0000000000
11
-14.6860365248
21
-9.4659994725
31
0.0000000000
11
-14.5284888771
21
-13.3389024057
31
0.0000000000
11
-14.2033907401
21
-17.2014288291
31
0.0000000000
11
-13.7113677923
21
-21.0461594839
31
0.0000000000
0
ENDSEC
0
SECTION
2
OBJECTS
0
DICTIONARY
5
30D
100
AcDbDictionary
3
ACAD_GROUP
350
30E
3
ACAD_MLINESTYLE
350
30F
0
DICTIONARY
5
30E
102
{ACAD_REACTORS
330
30D
102
}
100
AcDbDictionary
0
DICTIONARY
5
30F
102
{ACAD_REACTORS
330
30D
102
}
100
AcDbDictionary
3
STANDARD
350
310
0
MLINESTYLE
5
310
102
{ACAD_REACTORS
330
30F
102
}
100
AcDbMlineStyle
2
STANDARD
70
0
3

62
256
51
90.0
52
90.0
71
2
49
0.5
62
256
6
BYLAYER
49
-0.5
62
256
6
BYLAYER
0
ENDSEC
0
EOF
