0
SECTION
2
HEADER
9
$ACADVER
1
AC1014
9
$HANDSEED
5
       2EB
9
$EXTMAX
10
297.0000000000
20
210.0000000000
9
$EXTMIN
10
0.0000000000
20
0.0000000000
9
$LIMMIN
10
0.0000000000
20
0.0000000000
9
$LIMMAX
10
297.0000000000
20
210.0000000000
9
$VIEWCTR
10
148.5000000000
20
105.0000000000
9
$VIEWSIZE
40
210.0000000000
9
$CLAYER
8
0
9
$LTSCALE
40
16.3350000000
9
$CELTYPE
6
BYLAYER
9
$DIMSCALE
40
1
9
$DIMASZ
40
3.0000000000
9
$DIMEXO
40
1.8562500000
9
$DIMDLI
40
11.2860000000
9
$DIMEXE
40
5.3460000000
9
$DIMCEN
40
2.6730000000
9
$DIMLFAC
40
1.0000000000
9
$DIMTXT
40
3.0000000000
9
$DIMTOL
70
1
9
$DIMLIM
70
0
9
$DIMTFAC
40
1.0000000000
9
$DIMTP
40
0.0100000000
9
$DIMTM
40
0.0100000000
9
$MEASUREMENT
70
1
0
ENDSEC
0
SECTION
2
CLASSES
0
ENDSEC
0
SECTION
2
TABLES
0
TABLE
2
VPORT
5
8
100
AcDbSymbolTable
70
2
0
VPORT
5
1F4
100
AcDbSymbolTableRecord
100
AcDbViewportTableRecord
2
*ACTIVE
70
0
10
0.0
20
0.0
11
1.0
21
1.0
12
148.5000000000
22
105.0000000000
13
0.0
23
0.0
14
1.0
24
1.0
15
0.0
25
0.0
16
0.0
26
0.0
36
1.0
17
0.0
27
0.0
37
0.0
40
210.0000000000
41
1.4142857143
42
50.0
43
0.0
44
0.0
50
0.0
51
0.0
71
0
72
100
73
1
74
1
75
0
76
0
77
0
78
0
0
ENDTAB
0
TABLE
2
LTYPE
5
5
100
AcDbSymbolTable
70
6
0
LTYPE
5
14
100
AcDbSymbolTableRecord
100
AcDbLinetypeTableRecord
2
BYBLOCK
70
0
3

72
65
73
0
40
0.0
0
LTYPE
5
15
100
AcDbSymbolTableRecord
100
AcDbLinetypeTableRecord
2
BYLAYER
70
0
3

72
65
73
0
40
0.0
0
LTYPE
5
16
100
AcDbSymbolTableRecord
100
AcDbLinetypeTableRecord
2
CONTINUOUS
70
64
3
Solid line
72
65
73
0
40
0
0
LTYPE
5
1F5
100
AcDbSymbolTableRecord
100
AcDbLinetypeTableRecord
2
CENTER
70
64
3
____ _ ____ _ ____ _ ____ _ ____ _ ____ _ ____
72
65
73
4
40
0.6
49
0.375
74
0
49
-0.075
74
0
49
0.075
74
0
49
-0.075
74
0
0
LTYPE
5
1F6
100
AcDbSymbolTableRecord
100
AcDbLinetypeTableRecord
2
HIDDEN
70
64
3
- - - - - - - - - - - - - - - - - - - -
72
65
73
2
40
0.2
49
0.1
74
0
49
-0.1
74
0
0
LTYPE
5
1F7
100
AcDbSymbolTableRecord
100
AcDbLinetypeTableRecord
2
PHANTOM
70
64
3
_____ _ _ _____ _ _ _____ _ _ _____
72
65
73
6
40
0.8
49
0.45
74
0
49
-0.05
74
0
49
0.1
74
0
49
-0.05
74
0
49
0.1
74
0
49
-0.05
74
0
0
LTYPE
5
1F8
100
AcDbSymbolTableRecord
100
AcDbLinetypeTableRecord
2
DOT
70
64
3
. . . . . . . . . . . . . . . . . . . .
72
65
73
2
40
0.2
49
0.1
74
0
49
-0.1
74
0
0
LTYPE
5
1F9
100
AcDbSymbolTableRecord
100
AcDbLinetypeTableRecord
2
DASHED
70
64
3
- - - - - - - - - - - - - - - - - - - -
72
65
73
2
40
0.2
49
0.1
74
0
49
-0.1
74
0
0
ENDTAB
0
TABLE
2
LAYER
5
2
100
AcDbSymbolTable
70
36
0
LAYER
5
10
100
AcDbSymbolTableRecord
100
AcDbLayerTableRecord
2
0
70
0
62
7
6
CONTINUOUS
0
LAYER
5
1FA
100
AcDbSymbolTableRecord
100
AcDbLayerTableRecord
2
DEFAULT_1
70
0
62
7
6
CENTER
0
LAYER
5
1FB
100
AcDbSymbolTableRecord
100
AcDbLayerTableRecord
2
DEFAULT_2
70
0
62
8
6
HIDDEN
0
LAYER
5
1FC
100
AcDbSymbolTableRecord
100
AcDbLayerTableRecord
2
DEFAULT_3
70
0
62
7
6
PHANTOM
0
LAYER
5
1FD
100
AcDbSymbolTableRecord
100
AcDbLayerTableRecord
2
ASSI
70
0
62
7
6
CONTINUOUS
0
LAYER
5
1FE
100
AcDbSymbolTableRecord
100
AcDbLayerTableRecord
2
COLOR9
70
0
62
7
6
CONTINUOUS
0
LAYER
5
1FF
100
AcDbSymbolTableRecord
100
AcDbLayerTableRecord
2
COORDINATE
70
0
62
7
6
CONTINUOUS
0
LAYER
5
200
100
AcDbSymbolTableRecord
100
AcDbLayerTableRecord
2
COORD_ORIGINE
70
0
62
7
6
CONTINUOUS
0
LAYER
5
201
100
AcDbSymbolTableRecord
100
AcDbLayerTableRecord
2
CURVE
70
0
62
7
6
CONTINUOUS
0
LAYER
5
202
100
AcDbSymbolTableRecord
100
AcDbLayerTableRecord
2
DRAFT
70
0
62
7
6
CONTINUOUS
0
LAYER
5
203
100
AcDbSymbolTableRecord
100
AcDbLayerTableRecord
2
NOTE
70
0
62
7
6
CONTINUOUS
0
LAYER
5
204
100
AcDbSymbolTableRecord
100
AcDbLayerTableRecord
2
PIANI
70
0
62
7
6
CONTINUOUS
0
LAYER
5
205
100
AcDbSymbolTableRecord
100
AcDbLayerTableRecord
2
PIANI_ORIGINE
70
0
62
7
6
CONTINUOUS
0
LAYER
5
206
100
AcDbSymbolTableRecord
100
AcDbLayerTableRecord
2
PIANI_RIFERIMENTO
70
0
62
7
6
CONTINUOUS
0
LAYER
5
207
100
AcDbSymbolTableRecord
100
AcDbLayerTableRecord
2
PUNTI
70
0
62
7
6
CONTINUOUS
0
LAYER
5
208
100
AcDbSymbolTableRecord
100
AcDbLayerTableRecord
2
RACCORDO
70
0
62
7
6
CONTINUOUS
0
LAYER
5
209
100
AcDbSymbolTableRecord
100
AcDbLayerTableRecord
2
SNAPLINE
70
0
62
7
6
CONTINUOUS
0
LAYER
5
20A
100
AcDbSymbolTableRecord
100
AcDbLayerTableRecord
2
SUPERFICI
70
0
62
7
6
CONTINUOUS
0
LAYER
5
20B
100
AcDbSymbolTableRecord
100
AcDbLayerTableRecord
2
TRASH
70
0
62
7
6
CONTINUOUS
0
LAYER
5
20C
100
AcDbSymbolTableRecord
100
AcDbLayerTableRecord
2
XSEC_DATUMS
70
0
62
7
6
CONTINUOUS
0
ENDTAB
0
TABLE
2
STYLE
5
3
100
AcDbSymbolTable
70
1
0
STYLE
5
11
100
AcDbSymbolTableRecord
100
AcDbTextStyleTableRecord
2
STANDARD
70
0
40
0.0
41
0.8000000000
50
0.0
71
0
42
0.2
3
txt
4

0
ENDTAB
0
TABLE
2
VIEW
5
6
100
AcDbSymbolTable
70
0
0
ENDTAB
0
TABLE
2
UCS
5
7
100
AcDbSymbolTable
70
0
0
ENDTAB
0
TABLE
2
APPID
5
9
100
AcDbSymbolTable
70
1
0
APPID
5
20D
100
AcDbSymbolTableRecord
100
AcDbRegAppTableRecord
2
ACAD
70
0
0
ENDTAB
0
TABLE
2
DIMSTYLE
5
A
100
AcDbSymbolTable
70
1
0
DIMSTYLE
105
20E
100
AcDbSymbolTableRecord
100
AcDbDimStyleTableRecord
2
STANDARD
70
0
3

4

5

6

7

40
1.0
41
3.0000000000
42
0.0625
43
0.38
44
0.18
45
0.0
46
0.0
47
0.0100000000
48
0.0100000000
140
3.0000000000
141
0.09
142
0.0
143
25.4
144
1.0000000000
145
0.0
146
1.0000000000
147
0.09
71
1
72
0
73
0
74
0
75
0
76
0
77
1
78
8
170
0
171
2
172
0
173
0
174
0
175
0
176
0
177
0
178
0
270
2
271
2
272
2
273
2
274
2
340
11
275
0
280
0
281
0
282
0
283
1
284
8
285
0
286
0
287
3
288
0
0
DIMSTYLE
105
20F
100
AcDbSymbolTableRecord
100
AcDbDimStyleTableRecord
2
DIMSTYLE_1
70
0
3

4

5

6

7

40
1.0
41
3.0000000000
42
0.0625
43
0.38
44
0.18
45
0.0
46
0.0
47
0.0000000000
48
0.0000000000
140
3.0000000000
141
0.09
142
0.0
143
25.4
144
1.0000000000
145
0.0
146
1.0000000000
147
0.09
71
0
72
0
73
0
74
0
75
0
76
0
77
1
78
8
170
0
171
2
172
0
173
0
174
0
175
0
176
0
177
0
178
0
270
2
271
2
272
2
273
2
274
2
340
11
275
0
280
0
281
0
282
0
283
1
284
8
285
0
286
0
287
3
288
0
0
ENDTAB
0
TABLE
2
BLOCK_RECORD
5
1
100
AcDbSymbolTable
70
0
0
BLOCK_RECORD
5
1B
100
AcDbSymbolTableRecord
100
AcDbBlockTableRecord
2
*MODEL_SPACE
0
BLOCK_RECORD
5
1C
100
AcDbSymbolTableRecord
100
AcDbBlockTableRecord
2
*PAPER_SPACE
0
BLOCK_RECORD
5
210
100
AcDbSymbolTableRecord
100
AcDbBlockTableRecord
2
*D0
0
BLOCK_RECORD
5
211
100
AcDbSymbolTableRecord
100
AcDbBlockTableRecord
2
*D1
0
BLOCK_RECORD
5
212
100
AcDbSymbolTableRecord
100
AcDbBlockTableRecord
2
*D2
0
ENDTAB
0
ENDSEC
0
SECTION
2
BLOCKS
0
BLOCK
5
1E
100
AcDbEntity
8
0
100
AcDbBlockBegin
2
*MODEL_SPACE
70
0
10
0.0
20
0.0
30
0.0
3
*MODEL_SPACE
1

0
ENDBLK
5
1F
100
AcDbEntity
8
0
100
AcDbBlockEnd
0
BLOCK
5
20
100
AcDbEntity
8
0
100
AcDbBlockBegin
2
*PAPER_SPACE
70
0
10
0.0
20
0.0
30
0.0
3
*PAPER_SPACE
1

0
ENDBLK
5
21
100
AcDbEntity
8
0
100
AcDbBlockEnd
0
BLOCK
5
213
100
AcDbEntity
8
0
100
AcDbBlockBegin
62
7
6
CONTINUOUS
2
*D0
70
65
10
0.0000000000
20
0.0000000000
3
*D0
1

0
TEXT
5
214
100
AcDbEntity
8
0
100
AcDbText
62
7
6
CONTINUOUS
10
-12.8763426360
20
30.8757158030
7
STANDARD
40
3.0000000000
1
6
41
0.7857142857
72
0
100
AcDbText
0
LINE
5
215
100
AcDbEntity
8
0
100
AcDbLine
62
7
6
CONTINUOUS
10
-8.9413504968
20
21.7258871572
11
-8.9413504968
21
31.6257158030
0
LINE
5
216
100
AcDbEntity
8
0
100
AcDbLine
62
7
6
CONTINUOUS
10
-14.9413504968
20
0.1257158196
11
-14.9413504968
21
31.6257158030
0
LINE
5
217
100
AcDbEntity
8
0
100
AcDbLine
62
7
6
CONTINUOUS
10
-8.9413504968
20
30.1257158030
11
-4.9413504968
21
30.1257158030
0
LINE
5
218
100
AcDbEntity
8
0
100
AcDbLine
62
7
6
CONTINUOUS
10
-4.9413504968
20
30.1257158030
11
-11.9413504968
21
30.1257158030
0
LINE
5
219
100
AcDbEntity
8
0
100
AcDbLine
62
7
6
CONTINUOUS
10
-14.9413504968
20
30.1257158030
11
-18.9413504968
21
30.1257158030
0
LINE
5
21A
100
AcDbEntity
8
0
100
AcDbLine
62
7
6
CONTINUOUS
10
-18.9413504968
20
30.1257158030
11
-11.9413504968
21
30.1257158030
0
SOLID
5
21B
100
AcDbEntity
8
0
100
AcDbTrace
62
7
6
CONTINUOUS
10
-5.9413504968
20
31.0757158030
11
-8.9413504968
21
30.1257158030
12
-5.9413504968
22
29.1757158030
13
-5.9413504968
23
29.1757158030
0
SOLID
5
21C
100
AcDbEntity
8
0
100
AcDbTrace
62
7
6
CONTINUOUS
10
-17.9413504968
20
29.1757158030
11
-14.9413504968
21
30.1257158030
12
-17.9413504968
22
31.0757158030
13
-17.9413504968
23
31.0757158030
0
ENDBLK
5
21D
100
AcDbEntity
8
0
100
AcDbBlockEnd
0
BLOCK
5
21E
100
AcDbEntity
8
0
100
AcDbBlockBegin
62
7
6
CONTINUOUS
2
*D1
70
65
10
0.0000000000
20
0.0000000000
3
*D1
1

0
TEXT
5
21F
100
AcDbEntity
8
0
100
AcDbText
62
7
6
CONTINUOUS
10
19.7328040711
20
30.8757158030
7
STANDARD
40
3.0000000000
1
22
41
0.7857142857
72
0
100
AcDbText
0
LINE
5
220
100
AcDbEntity
8
0
100
AcDbLine
62
7
6
CONTINUOUS
10
11.4158210816
20
21.7258871572
11
11.4158210816
21
31.6257158030
0
LINE
5
221
100
AcDbEntity
8
0
100
AcDbLine
62
7
6
CONTINUOUS
10
33.4158210816
20
21.7258871572
11
33.4158210816
21
31.6257158030
0
LINE
5
222
100
AcDbEntity
8
0
100
AcDbLine
62
7
6
CONTINUOUS
10
11.4158210816
20
30.1257158030
11
22.4158210816
21
30.1257158030
0
LINE
5
223
100
AcDbEntity
8
0
100
AcDbLine
62
7
6
CONTINUOUS
10
33.4158210816
20
30.1257158030
11
22.4158210816
21
30.1257158030
0
SOLID
5
224
100
AcDbEntity
8
0
100
AcDbTrace
62
7
6
CONTINUOUS
10
14.4158210816
20
31.0757158030
11
11.4158210816
21
30.1257158030
12
14.4158210816
22
29.1757158030
13
14.4158210816
23
29.1757158030
0
SOLID
5
225
100
AcDbEntity
8
0
100
AcDbTrace
62
7
6
CONTINUOUS
10
30.4158210816
20
29.1757158030
11
33.4158210816
21
30.1257158030
12
30.4158210816
22
31.0757158030
13
30.4158210816
23
31.0757158030
0
ENDBLK
5
226
100
AcDbEntity
8
0
100
AcDbBlockEnd
0
BLOCK
5
227
100
AcDbEntity
8
0
100
AcDbBlockBegin
62
7
6
CONTINUOUS
2
*D2
70
65
10
0.0000000000
20
0.0000000000
3
*D2
1

0
TEXT
5
228
100
AcDbEntity
8
0
100
AcDbText
62
7
6
CONTINUOUS
10
41.0658209336
20
-4.4817546904
7
STANDARD
40
3.0000000000
1
44,2
50
90.0000000000
41
0.7321428571
72
0
100
AcDbText
0
LINE
5
229
100
AcDbEntity
8
0
100
AcDbLine
62
7
6
CONTINUOUS
10
33.4159924191
20
21.7257158196
11
43.3158209336
21
21.7257158196
0
LINE
5
22A
100
AcDbEntity
8
0
100
AcDbLine
62
7
6
CONTINUOUS
10
33.4159924191
20
-22.4742841804
11
43.3158209336
21
-22.4742841804
0
LINE
5
22B
100
AcDbEntity
8
0
100
AcDbLine
62
7
6
CONTINUOUS
10
41.8158209336
20
21.7257158196
11
41.8158209336
21
-0.3742841804
0
LINE
5
22C
100
AcDbEntity
8
0
100
AcDbLine
62
7
6
CONTINUOUS
10
41.8158209336
20
-22.4742841804
11
41.8158209336
21
-0.3742841804
0
SOLID
5
22D
100
AcDbEntity
8
0
100
AcDbTrace
62
7
6
CONTINUOUS
10
42.7658209336
20
18.7257158196
11
41.8158209336
21
21.7257158196
12
40.8658209336
22
18.7257158196
13
40.8658209336
23
18.7257158196
0
SOLID
5
22E
100
AcDbEntity
8
0
100
AcDbTrace
62
7
6
CONTINUOUS
10
40.8658209336
20
-19.4742841804
11
41.8158209336
21
-22.4742841804
12
42.7658209336
22
-19.4742841804
13
42.7658209336
23
-19.4742841804
0
ENDBLK
5
22F
100
AcDbEntity
8
0
100
AcDbBlockEnd
0
ENDSEC
0
SECTION
2
ENTITIES
0
DIMENSION
5
230
100
AcDbEntity
8
0
100
AcDbDimension
62
7
6
CONTINUOUS
2
*D0
10
-14.9413504968
20
30.1257158030
11
-11.6977712074
21
32.3757158030
70
160
3
DIMSTYLE_1
100
AcDbAlignedDimension
13
-8.9413504968
23
21.7258871572
14
-14.9413504968
24
0.1257158196
50
180.000000
100
AcDbRotatedDimension
0
DIMENSION
5
231
100
AcDbEntity
8
0
100
AcDbDimension
62
7
6
CONTINUOUS
2
*D1
10
33.4158210816
20
30.1257158030
11
22.0899469283
21
32.3757158030
70
160
3
DIMSTYLE_1
100
AcDbAlignedDimension
13
11.4158210816
23
21.7258871572
14
33.4158210816
24
21.7258871572
100
AcDbRotatedDimension
0
DIMENSION
5
232
100
AcDbEntity
8
0
100
AcDbDimension
62
7
6
CONTINUOUS
2
*D2
10
41.8158209336
20
-22.4742841804
11
39.5658209336
21
-0.0888975476
70
160
3
DIMSTYLE_1
100
AcDbAlignedDimension
13
33.4159924191
23
21.7257158196
14
33.4159924191
24
-22.4742841804
50
270.000000
100
AcDbRotatedDimension
0
LINE
5
233
100
AcDbEntity
8
0
100
AcDbLine
62
7
6
CONTINUOUS
10
11.9156497441
20
-22.4742841804
11
32.9159924191
21
-22.4742841804
0
LINE
5
234
100
AcDbEntity
8
0
100
AcDbLine
62
9
6
CONTINUOUS
10
12.0195260390
20
-22.3704078854
11
32.8121161241
21
-22.3704078854
0
LINE
5
235
100
AcDbEntity
8
0
100
AcDbLine
62
9
6
CONTINUOUS
10
12.0321313182
20
-21.5191378231
11
32.7995108450
21
-21.5191378231
0
LINE
5
236
100
AcDbEntity
8
0
100
AcDbLine
62
7
6
CONTINUOUS
10
18.9561917650
20
-14.1142841827
11
19.6447321814
21
-14.1142841832
0
LINE
5
237
100
AcDbEntity
8
0
100
AcDbLine
62
7
6
CONTINUOUS
10
19.1116453636
20
-13.5142841894
11
19.5043194576
21
-13.5142841894
0
LINE
5
238
100
AcDbEntity
8
0
100
AcDbLine
62
7
6
CONTINUOUS
10
19.1116453636
20
-12.2342841840
11
22.5097929996
21
-12.2342841840
0
LINE
5
239
100
AcDbEntity
8
0
100
AcDbLine
62
7
6
CONTINUOUS
10
11.4158210816
20
-21.9744555179
11
11.4158210816
21
21.2258871572
0
LINE
5
23A
100
AcDbEntity
8
0
100
AcDbLine
62
9
6
CONTINUOUS
10
12.0576539172
20
-9.8742841804
11
12.0576539172
21
9.1257158196
0
LINE
5
23B
100
AcDbEntity
8
0
100
AcDbLine
62
7
6
CONTINUOUS
10
18.9561917756
20
-11.6342841902
11
22.3251708193
21
-11.6342841902
0
LINE
5
23C
100
AcDbEntity
8
0
100
AcDbLine
62
9
6
CONTINUOUS
10
32.9159924191
20
21.7257158196
11
32.8121161241
21
21.6218395247
0
LINE
5
23D
100
AcDbEntity
8
0
100
AcDbLine
62
9
6
CONTINUOUS
10
12.0576539172
20
-9.8742841804
11
32.7739882460
21
-9.8742841804
0
LINE
5
23E
100
AcDbEntity
8
0
100
AcDbLine
62
9
6
CONTINUOUS
10
32.8121161241
20
-22.3704078854
11
32.9159924191
21
-22.4742841804
0
LINE
5
23F
100
AcDbEntity
8
0
100
AcDbLine
62
9
6
CONTINUOUS
10
33.4158210816
20
21.2258871572
11
33.3119447866
21
21.1220108622
0
LINE
5
240
100
AcDbEntity
8
0
100
AcDbLine
62
9
6
CONTINUOUS
10
33.3119447866
20
-21.8705792229
11
33.4158210816
21
-21.9744555179
0
LINE
5
241
100
AcDbEntity
8
0
100
AcDbLine
62
9
6
CONTINUOUS
10
11.4158210816
20
-21.9744555179
11
11.5196973766
21
-21.8705792229
0
LINE
5
242
100
AcDbEntity
8
0
100
AcDbLine
62
9
6
CONTINUOUS
10
11.9156497441
20
-22.4742841804
11
12.0195260390
21
-22.3704078854
0
LINE
5
243
100
AcDbEntity
8
0
100
AcDbLine
62
9
6
CONTINUOUS
10
11.5196973766
20
21.1220108622
11
11.4158210816
21
21.2258871572
0
LINE
5
244
100
AcDbEntity
8
0
100
AcDbLine
62
9
6
CONTINUOUS
10
12.0195260390
20
21.6218395247
11
11.9156497441
21
21.7257158196
0
LINE
5
245
100
AcDbEntity
8
0
100
AcDbLine
62
9
6
CONTINUOUS
10
32.7739882460
20
9.1257158196
11
32.7739882460
21
-9.8742841804
0
LINE
5
246
100
AcDbEntity
8
0
100
AcDbLine
62
9
6
CONTINUOUS
10
12.0576539172
20
9.1257158196
11
32.7739882460
21
9.1257158196
0
LINE
5
247
100
AcDbEntity
8
0
100
AcDbLine
62
7
6
CONTINUOUS
10
33.4158210816
20
-21.9744555179
11
33.4158210816
21
21.2258871572
0
LINE
5
248
100
AcDbEntity
8
0
100
AcDbLine
62
9
6
CONTINUOUS
10
12.0321313182
20
20.7705694624
11
32.7995108450
21
20.7705694624
0
LINE
5
249
100
AcDbEntity
8
0
100
AcDbLine
62
9
6
CONTINUOUS
10
12.0195260390
20
21.6218395247
11
32.8121161241
21
21.6218395247
0
LINE
5
24A
100
AcDbEntity
8
0
100
AcDbLine
62
7
6
CONTINUOUS
10
11.9156497441
20
21.7257158196
11
32.9159924191
21
21.7257158196
0
LINE
5
24B
100
AcDbEntity
8
0
100
AcDbLine
62
7
6
CONTINUOUS
10
-12.9082261590
20
-22.3704078854
11
-8.9413504968
21
-22.4742841804
0
LINE
5
24C
100
AcDbEntity
8
0
100
AcDbLine
62
9
6
CONTINUOUS
10
-12.9082261590
20
-21.8705792229
11
-8.9413504968
21
-21.9744555179
0
LINE
5
24D
100
AcDbEntity
8
0
100
AcDbLine
62
9
6
CONTINUOUS
10
-14.3642710825
20
-9.8647841804
11
-14.8510923269
21
-9.8742841799
0
LINE
5
24E
100
AcDbEntity
8
0
100
AcDbLine
62
7
6
CONTINUOUS
10
-8.9413504968
20
-22.4742841804
11
-8.9413504968
21
21.7257158196
0
LINE
5
24F
100
AcDbEntity
8
0
100
AcDbLine
62
9
6
CONTINUOUS
10
-14.3642710825
20
9.1162158196
11
-14.8510923497
21
9.1257158196
0
LINE
5
250
100
AcDbEntity
8
0
100
AcDbLine
62
9
6
CONTINUOUS
10
-8.9413504968
20
21.2258871572
11
-12.9082261590
21
21.1220108622
0
LINE
5
251
100
AcDbEntity
8
0
100
AcDbLine
62
7
6
CONTINUOUS
10
-8.9413504968
20
21.7257158196
11
-12.9082261590
21
21.6218395247
0
ARC
5
252
100
AcDbEntity
8
0
100
AcDbCircle
62
7
6
CONTINUOUS
10
-12.8820492107
20
20.6221821997
40
1.0000000000
100
AcDbArc
50
91.5000000000
51
171.4665223736
0
ARC
5
253
100
AcDbEntity
8
0
100
AcDbCircle
62
7
6
CONTINUOUS
10
75.1326611834
20
7.4157158196
40
90.0000000000
100
AcDbArc
50
171.4665223736
51
178.9113146800
0
ARC
5
254
100
AcDbEntity
8
0
100
AcDbCircle
62
7
6
CONTINUOUS
10
485.0586495032
20
-0.3742841804
40
500.0000000000
100
AcDbArc
50
178.9113146800
51
181.0886853200
0
ARC
5
255
100
AcDbEntity
8
0
100
AcDbCircle
62
7
6
CONTINUOUS
10
75.1326611834
20
-8.1642841804
40
90.0000000000
100
AcDbArc
50
181.0886853200
51
188.5334776264
0
ARC
5
256
100
AcDbEntity
8
0
100
AcDbCircle
62
7
6
CONTINUOUS
10
-12.8820492107
20
-21.3707505604
40
1.0000000000
100
AcDbArc
50
188.5334776264
51
268.5000000000
0
SPLINE
5
257
100
AcDbEntity
8
0
100
AcDbSpline
62
7
6
CONTINUOUS
70
0
71
3
72
9
73
5
74
3
42
0.0000001000
43
0.0000001000
44
0.0000000001
12
0.1592374119
22
-0.3490919420
32
0.0000000000
13
0.2097673855
23
-0.3214977426
33
0.0000000000
40
0.0000000000
40
0.0000000000
40
0.0000000000
40
0.0000000000
40
0.7155134352
40
1.0000000000
40
1.0000000000
40
1.0000000000
40
1.0000000000
10
22.2368475907
20
-13.9387862675
30
0.0000000000
10
22.2748264266
20
-14.0220462591
30
0.0000000000
10
22.3340342364
20
-14.1357423703
30
0.0000000000
10
22.4016475278
20
-14.2444195645
30
0.0000000000
10
22.4215395288
20
-14.2749068273
30
0.0000000000
11
22.2368475907
21
-13.9387862675
31
0.0000000000
11
22.3638576593
21
-14.1821789672
31
0.0000000000
11
22.4215395288
21
-14.2749068273
31
0.0000000000
0
SPLINE
5
258
100
AcDbEntity
8
0
100
AcDbSpline
62
7
6
CONTINUOUS
70
0
71
3
72
27
73
23
74
21
42
0.0000001000
43
0.0000001000
44
0.0000000001
12
2.7926228754
22
-4.2800836201
32
0.0000000000
13
2.7697395747
23
4.2948805970
33
0.0000000000
40
0.0000000000
40
0.0000000000
40
0.0000000000
40
0.0000000000
40
0.0319862199
40
0.0856698667
40
0.1395045104
40
0.1932051223
40
0.2468932592
40
0.3007112223
40
0.3544991686
40
0.4081053754
40
0.4617203447
40
0.5155225964
40
0.5692872020
40
0.6228027304
40
0.6763357013
40
0.7301426312
40
0.7839462321
40
0.8374775384
40
0.8910468635
40
0.9449540782
40
0.9988603600
40
1.0000000000
40
1.0000000000
40
1.0000000000
40
1.0000000000
10
22.4215395288
20
-14.2749068273
30
0.0000000000
10
22.4513146785
20
-14.3205413925
30
0.0000000000
10
22.5350047116
20
-14.4401861051
30
0.0000000000
10
22.6875638295
20
-14.6228324384
30
0.0000000000
10
22.8850038846
20
-14.8142885503
30
0.0000000000
10
23.1019245916
20
-14.9834024880
30
0.0000000000
10
23.3357749669
20
-15.1281417810
30
0.0000000000
10
23.5839090622
20
-15.2470499996
30
0.0000000000
10
23.8430660714
20
-15.3390806046
30
0.0000000000
10
24.1102588926
20
-15.4027817012
30
0.0000000000
10
24.3827853267
20
-15.4373387671
30
0.0000000000
10
24.6576985918
20
-15.4424665164
30
0.0000000000
10
24.9314564900
20
-15.4187051563
30
0.0000000000
10
25.2006808010
20
-15.3659302548
30
0.0000000000
10
25.4627017313
20
-15.2843617494
30
0.0000000000
10
25.7149032932
20
-15.1749990612
30
0.0000000000
10
25.9542679251
20
-15.0398424269
30
0.0000000000
10
26.1775078959
20
-14.8800991534
30
0.0000000000
10
26.3822451413
20
-14.6969716896
30
0.0000000000
10
26.5665633378
20
-14.4924802491
30
0.0000000000
10
26.6758927278
20
-14.3421775282
30
0.0000000000
10
26.7268033944
20
-14.2634302977
30
0.0000000000
10
26.7278555631
20
-14.2617987584
30
0.0000000000
11
22.4215395288
21
-14.2749068273
31
0.0000000000
11
22.5152022725
21
-14.4088410157
31
0.0000000000
11
22.6909125157
21
-14.6193727737
31
0.0000000000
11
22.8884235888
21
-14.8107120044
31
0.0000000000
11
23.1047652183
21
-14.9793582187
31
0.0000000000
11
23.3379399384
21
-15.1237183240
31
0.0000000000
11
23.5858167049
21
-15.2425946411
31
0.0000000000
11
23.8447573505
21
-15.3344637481
31
0.0000000000
11
24.1111281326
21
-15.3979265286
31
0.0000000000
11
24.3828201297
21
-15.4324068311
31
0.0000000000
11
24.6575981196
21
-15.4376420069
31
0.0000000000
11
24.9311968569
21
-15.4138004537
31
0.0000000000
11
25.1994417519
21
-15.3611493496
31
0.0000000000
11
25.4605508610
21
-15.2799199486
31
0.0000000000
11
25.7127656799
21
-15.1706900471
31
0.0000000000
11
25.9520288148
21
-15.0354595353
31
0.0000000000
11
26.1743564914
21
-14.8762680266
31
0.0000000000
11
26.3783583034
21
-14.6938919351
31
0.0000000000
11
26.5628268632
21
-14.4894495387
31
0.0000000000
11
26.7246934885
21
-14.2666897703
31
0.0000000000
11
26.7278555631
21
-14.2617987584
31
0.0000000000
0
SPLINE
5
259
100
AcDbEntity
8
0
100
AcDbSpline
62
7
6
CONTINUOUS
70
0
71
3
72
8
73
4
74
2
42
0.0000001000
43
0.0000001000
44
0.0000000001
12
0.0119924406
22
0.0185960084
32
0.0000000000
13
0.0118310357
23
0.0186993212
33
0.0000000000
40
0.0000000000
40
0.0000000000
40
0.0000000000
40
0.0000000000
40
1.0000000000
40
1.0000000000
40
1.0000000000
40
1.0000000000
10
26.7278555631
20
-14.2617987584
30
0.0000000000
10
26.7318530433
20
-14.2556000890
30
0.0000000000
10
26.7358237140
20
-14.2493840895
30
0.0000000000
10
26.7397673926
20
-14.2431509825
30
0.0000000000
11
26.7278555631
21
-14.2617987584
31
0.0000000000
11
26.7397673926
21
-14.2431509825
31
0.0000000000
0
SPLINE
5
25A
100
AcDbEntity
8
0
100
AcDbSpline
62
7
6
CONTINUOUS
70
0
71
3
72
8
73
4
74
2
42
0.0000001000
43
0.0000001000
44
0.0000000001
12
0.0100129790
22
0.0158258259
32
0.0000000000
13
0.0098966434
23
0.0158989445
33
0.0000000000
40
0.0000000000
40
0.0000000000
40
0.0000000000
40
0.0000000000
40
1.0000000000
40
1.0000000000
40
1.0000000000
40
1.0000000000
10
26.7397673926
20
-14.2431509825
30
0.0000000000
10
26.7431050523
20
-14.2378757072
30
0.0000000000
10
26.7464233780
20
-14.2325881781
30
0.0000000000
10
26.7497222592
20
-14.2272885299
30
0.0000000000
11
26.7397673926
21
-14.2431509825
31
0.0000000000
11
26.7497222592
21
-14.2272885299
31
0.0000000000
0
SPLINE
5
25B
100
AcDbEntity
8
0
100
AcDbSpline
62
7
6
CONTINUOUS
70
0
71
3
72
8
73
4
74
2
42
0.0000001000
43
0.0000001000
44
0.0000000001
12
0.0346270228
22
0.0556282663
32
0.0000000000
13
0.0331845321
23
0.0565011237
33
0.0000000000
40
0.0000000000
40
0.0000000000
40
0.0000000000
40
0.0000000000
40
1.0000000000
40
1.0000000000
40
1.0000000000
40
1.0000000000
10
26.7497222592
20
-14.2272885299
30
0.0000000000
10
26.7612646001
20
-14.2087457745
30
0.0000000000
10
26.7725688984
20
-14.1900546568
30
0.0000000000
10
26.7836304091
20
-14.1712209489
30
0.0000000000
11
26.7497222592
21
-14.2272885299
31
0.0000000000
11
26.7836304091
21
-14.1712209489
31
0.0000000000
0
SPLINE
5
25C
100
AcDbEntity
8
0
100
AcDbSpline
62
7
6
CONTINUOUS
70
0
71
3
72
17
73
13
74
11
42
0.0000001000
43
0.0000001000
44
0.0000000001
12
1.3200260931
22
2.2475217454
32
0.0000000000
13
-1.2204466186
23
2.3030779076
33
0.0000000000
40
0.0000000000
40
0.0000000000
40
0.0000000000
40
0.0000000000
40
0.0619930249
40
0.1670455083
40
0.2727682588
40
0.3784681479
40
0.4834579500
40
0.5884361252
40
0.6941016088
40
0.7997708190
40
0.9047578167
40
1.0000000000
40
1.0000000000
40
1.0000000000
40
1.0000000000
10
26.7836304091
20
-14.1712209489
30
0.0000000000
10
26.8109078793
20
-14.1247773917
30
0.0000000000
10
26.8804310545
20
-13.9972947799
30
0.0000000000
10
26.9756072417
20
-13.7798744641
30
0.0000000000
10
27.0583374282
20
-13.5172574336
30
0.0000000000
10
27.1131986937
20
-13.2474952338
30
0.0000000000
10
27.1387913084
20
-12.9740234927
30
0.0000000000
10
27.1344847601
20
-12.6994206091
30
0.0000000000
10
27.1007245914
20
-12.4263019085
30
0.0000000000
10
27.0386584304
20
-12.1581866117
30
0.0000000000
10
26.9511935061
20
-11.9068018553
30
0.0000000000
10
26.8772051035
20
-11.7491220148
30
0.0000000000
10
26.8384591033
20
-11.6760052920
30
0.0000000000
11
26.7836304091
21
-14.1712209489
31
0.0000000000
11
26.8609624495
21
-14.0293755342
31
0.0000000000
11
26.9707911213
21
-13.7786949653
31
0.0000000000
11
27.0536897235
21
-13.5160359369
31
0.0000000000
11
27.1084267494
21
-13.2461600462
31
0.0000000000
11
27.1338197298
21
-12.9738203248
31
0.0000000000
11
27.1296240728
21
-12.7003618192
31
0.0000000000
11
27.0959975009
21
-12.4271420631
31
0.0000000000
11
27.0337691184
21
-12.1589765266
31
0.0000000000
11
26.9438056755
21
-11.9006815220
31
0.0000000000
11
26.8384591033
21
-11.6760052920
31
0.0000000000
0
SPLINE
5
25D
100
AcDbEntity
8
0
100
AcDbSpline
62
7
6
CONTINUOUS
70
0
71
3
72
8
73
4
74
2
42
0.0000001000
43
0.0000001000
44
0.0000000001
12
-0.0108814418
22
0.0205341290
32
0.0000000000
13
-0.0110676443
23
0.0204341330
33
0.0000000000
40
0.0000000000
40
0.0000000000
40
0.0000000000
40
0.0000000000
40
1.0000000000
40
1.0000000000
40
1.0000000000
40
1.0000000000
10
26.8384591033
20
-11.6760052920
30
0.0000000000
10
26.8348319560
20
-11.6691605823
30
0.0000000000
10
26.8311736787
20
-11.6623324023
30
0.0000000000
10
26.8274844639
20
-11.6555210246
30
0.0000000000
11
26.8384591033
21
-11.6760052920
31
0.0000000000
11
26.8274844639
21
-11.6555210246
31
0.0000000000
0
SPLINE
5
25E
100
AcDbEntity
8
0
100
AcDbSpline
62
7
6
CONTINUOUS
70
0
71
3
72
8
73
4
74
2
42
0.0000001000
43
0.0000001000
44
0.0000000001
12
-0.0154291173
22
0.0338247863
32
0.0000000000
13
-0.0195274413
23
0.0317115300
33
0.0000000000
40
0.0000000000
40
0.0000000000
40
0.0000000000
40
0.0000000000
40
1.0000000000
40
1.0000000000
40
1.0000000000
40
1.0000000000
10
22.7827380510
20
-13.6897807644
30
0.0000000000
10
22.7775950119
20
-13.6785058356
30
0.0000000000
10
22.7717416013
20
-13.6675334713
30
0.0000000000
10
22.7652324542
20
-13.6569629613
30
0.0000000000
11
22.7827380510
21
-13.6897807644
31
0.0000000000
11
22.7652324542
21
-13.6569629613
31
0.0000000000
0
SPLINE
5
25F
100
AcDbEntity
8
0
100
AcDbSpline
62
7
6
CONTINUOUS
70
0
71
3
72
23
73
19
74
17
42
0.0000001000
43
0.0000001000
44
0.0000000001
12
-0.4744603097
22
0.7704984051
32
0.0000000000
13
0.3748791994
23
-0.8218462117
33
0.0000000000
40
0.0000000000
40
0.0000000000
40
0.0000000000
40
0.0000000000
40
0.0169560431
40
0.0744411035
40
0.1327511492
40
0.1910492004
40
0.2488402504
40
0.3065393961
40
0.3644192478
40
0.4223586042
40
0.5379163100
40
0.6529934824
40
0.7109558771
40
0.7689862088
40
0.8271000185
40
0.8850876286
40
0.9422577213
40
1.0000000000
40
1.0000000000
40
1.0000000000
40
1.0000000000
10
22.7652324542
20
-13.6569629613
30
0.0000000000
10
22.7625507977
20
-13.6526080932
30
0.0000000000
10
22.7502890563
20
-13.6337886197
30
0.0000000000
10
22.7247284407
20
-13.6028107942
30
0.0000000000
10
22.6846457006
20
-13.5686041984
30
0.0000000000
10
22.6391217496
20
-13.5418917789
30
0.0000000000
10
22.5898188982
20
-13.5235790500
30
0.0000000000
10
22.5382181749
20
-13.5141035363
30
0.0000000000
10
22.4856961441
20
-13.5137255352
30
0.0000000000
10
22.4167029819
20
-13.5253463402
30
0.0000000000
10
22.3359301381
20
-13.5622369750
30
0.0000000000
10
22.2727793599
20
-13.6246455220
30
0.0000000000
10
22.2374276730
20
-13.6849159262
30
0.0000000000
10
22.2190529536
20
-13.7343117905
30
0.0000000000
10
22.2095729458
20
-13.7861492988
30
0.0000000000
10
22.2092645934
20
-13.8385916999
30
0.0000000000
10
22.2179916975
20
-13.8901639651
30
0.0000000000
10
22.2296319303
20
-13.9229679347
30
0.0000000000
10
22.2368473900
20
-13.9387863591
30
0.0000000000
11
22.7652324542
21
-13.6569629613
31
0.0000000000
11
22.7568574110
21
-13.6441099200
31
0.0000000000
11
22.7238116438
21
-13.6040554412
31
0.0000000000
11
22.6837449946
21
-13.5698648547
31
0.0000000000
11
22.6383259493
21
-13.5432133695
31
0.0000000000
11
22.5893897456
21
-13.5250360828
31
0.0000000000
11
22.5381263472
21
-13.5156249675
31
0.0000000000
11
22.4858444183
21
-13.5152414251
31
0.0000000000
11
22.4342376541
21
-13.5239542065
31
0.0000000000
11
22.3393323198
21
-13.5674172932
31
0.0000000000
11
22.2653193828
21
-13.6404084976
31
0.0000000000
11
22.2388125377
21
-13.6855608685
31
0.0000000000
11
22.2205432465
21
-13.7346934687
31
0.0000000000
11
22.2110979330
21
-13.7863314067
31
0.0000000000
11
22.2107889498
21
-13.8387111703
31
0.0000000000
11
22.2194083244
21
-13.8896289834
31
0.0000000000
11
22.2368473900
21
-13.9387863591
31
0.0000000000
0
SPLINE
5
260
100
AcDbEntity
8
0
100
AcDbSpline
62
7
6
CONTINUOUS
70
0
71
3
72
8
73
4
74
2
42
0.0000001000
43
0.0000001000
44
0.0000000001
12
0.0652319613
22
0.1430077605
32
0.0000000000
13
0.0764063258
23
0.1374890896
33
0.0000000000
40
0.0000000000
40
0.0000000000
40
0.0000000000
40
0.0000000000
40
1.0000000000
40
1.0000000000
40
1.0000000000
40
1.0000000000
10
22.7827344706
20
-12.0587954328
30
0.0000000000
10
22.8044784577
20
-12.0111261793
30
0.0000000000
10
22.8280992373
20
-11.9642713985
30
0.0000000000
10
22.8535680125
20
-11.9184417020
30
0.0000000000
11
22.7827344706
21
-12.0587954328
31
0.0000000000
11
22.8535680125
21
-11.9184417020
31
0.0000000000
0
SPLINE
5
261
100
AcDbEntity
8
0
100
AcDbSpline
62
7
6
CONTINUOUS
70
0
71
3
72
8
73
4
74
2
42
0.0000001000
43
0.0000001000
44
0.0000000001
12
0.0104313540
22
-0.0215838392
32
0.0000000000
13
0.0101663652
23
-0.0217099391
33
0.0000000000
40
0.0000000000
40
0.0000000000
40
0.0000000000
40
0.0000000000
40
1.0000000000
40
1.0000000000
40
1.0000000000
40
1.0000000000
10
26.3397334811
20
-12.0192203019
30
0.0000000000
10
26.3432105991
20
-12.0264149150
30
0.0000000000
10
26.3466436514
20
-12.0336308257
30
0.0000000000
10
26.3500324398
20
-12.0408674721
30
0.0000000000
11
26.3397334811
21
-12.0192203019
31
0.0000000000
11
26.3500324398
21
-12.0408674721
31
0.0000000000
0
SPLINE
5
262
100
AcDbEntity
8
0
100
AcDbSpline
62
7
6
CONTINUOUS
70
0
71
3
72
8
73
4
74
2
42
0.0000001000
43
0.0000001000
44
0.0000000001
12
0.0246399409
22
-0.0526177847
32
0.0000000000
13
0.0230713956
23
-0.0533246095
33
0.0000000000
40
0.0000000000
40
0.0000000000
40
0.0000000000
40
0.0000000000
40
1.0000000000
40
1.0000000000
40
1.0000000000
40
1.0000000000
10
26.3500324398
20
-12.0408674721
30
0.0000000000
10
26.3582457534
20
-12.0584067337
30
0.0000000000
10
26.3661990530
20
-12.0760678003
30
0.0000000000
10
26.3738895182
20
-12.0938426701
30
0.0000000000
11
26.3500324398
21
-12.0408674721
31
0.0000000000
11
26.3738895182
21
-12.0938426701
31
0.0000000000
0
SPLINE
5
263
100
AcDbEntity
8
0
100
AcDbSpline
62
7
6
CONTINUOUS
70
0
71
3
72
8
73
4
74
2
42
0.0000001000
43
0.0000001000
44
0.0000000001
12
0.0261109194
22
-0.0603498203
32
0.0000000000
13
0.0240787550
23
-0.0611896073
33
0.0000000000
40
0.0000000000
40
0.0000000000
40
0.0000000000
40
0.0000000000
40
1.0000000000
40
1.0000000000
40
1.0000000000
40
1.0000000000
10
26.3738895182
20
-12.0938426701
30
0.0000000000
10
26.3825931579
20
-12.1139592769
30
0.0000000000
10
26.3909601477
20
-12.1342216479
30
0.0000000000
10
26.3989863994
20
-12.1546181837
30
0.0000000000
11
26.3738895182
21
-12.0938426701
31
0.0000000000
11
26.3989863994
21
-12.1546181837
31
0.0000000000
0
SPLINE
5
264
100
AcDbEntity
8
0
100
AcDbSpline
62
7
6
CONTINUOUS
70
0
71
3
72
11
73
7
74
5
42
0.0000001000
43
0.0000001000
44
0.0000000001
12
0.5866092259
22
-1.4907078148
32
0.0000000000
13
-0.6826791690
23
-1.4492057939
33
0.0000000000
40
0.0000000000
40
0.0000000000
40
0.0000000000
40
0.0000000000
40
0.1830119745
40
0.4604748203
40
0.7380033971
40
1.0000000000
40
1.0000000000
40
1.0000000000
40
1.0000000000
10
26.3989863994
20
-12.1546181837
30
0.0000000000
10
26.4347719036
20
-12.2455573105
30
0.0000000000
10
26.5077688968
20
-12.4810789291
30
0.0000000000
10
26.5523599646
20
-12.8751789251
30
0.0000000000
10
26.5026061943
20
-13.3114150586
30
0.0000000000
10
26.4077461601
20
-13.5851967760
30
0.0000000000
10
26.3481262857
20
-13.7117591076
30
0.0000000000
11
26.3989863994
21
-12.1546181837
31
0.0000000000
11
26.4856602544
21
-12.4344085771
31
0.0000000000
11
26.5355270565
21
-12.8751366395
31
0.0000000000
11
26.4852541107
21
-13.3159243148
31
0.0000000000
11
26.3481262857
21
-13.7117591076
31
0.0000000000
0
SPLINE
5
265
100
AcDbEntity
8
0
100
AcDbSpline
62
7
6
CONTINUOUS
70
0
71
3
72
8
73
4
74
2
42
0.0000001000
43
0.0000001000
44
0.0000000001
12
-0.0115298092
22
-0.0244757230
32
0.0000000000
13
-0.0118669204
23
-0.0243140387
33
0.0000000000
40
0.0000000000
40
0.0000000000
40
0.0000000000
40
0.0000000000
40
1.0000000000
40
1.0000000000
40
1.0000000000
40
1.0000000000
10
26.3481262857
20
-13.7117591076
30
0.0000000000
10
26.3442830160
20
-13.7199176820
30
0.0000000000
10
26.3403834168
20
-13.7280497121
30
0.0000000000
10
26.3364277766
20
-13.7361543916
30
0.0000000000
11
26.3481262857
21
-13.7117591076
31
0.0000000000
11
26.3364277766
21
-13.7361543916
31
0.0000000000
0
SPLINE
5
266
100
AcDbEntity
8
0
100
AcDbSpline
62
7
6
CONTINUOUS
70
0
71
3
72
9
73
5
74
3
42
0.0000001000
43
0.0000001000
44
0.0000000001
12
0.1143182436
22
0.0000000410
32
0.0000000000
13
0.1062406289
23
0.0426402046
33
0.0000000000
40
0.0000000000
40
0.0000000000
40
0.0000000000
40
0.0000000000
40
0.4986302367
40
1.0000000000
40
1.0000000000
40
1.0000000000
40
1.0000000000
10
22.5097931066
20
-12.2342841840
30
0.0000000000
10
22.5287939509
20
-12.2342841771
30
0.0000000000
10
22.5669992230
20
-12.2306420706
30
0.0000000000
10
22.6037696401
20
-12.2198272559
30
0.0000000000
10
22.6215249198
20
-12.2127010861
30
0.0000000000
11
22.5097931066
21
-12.2342841840
31
0.0000000000
11
22.5665378076
21
-12.2288686826
31
0.0000000000
11
22.6215249198
21
-12.2127010861
31
0.0000000000
0
SPLINE
5
267
100
AcDbEntity
8
0
100
AcDbSpline
62
7
6
CONTINUOUS
70
0
71
3
72
9
73
5
74
3
42
0.0000001000
43
0.0000001000
44
0.0000000001
12
0.1059019584
22
0.0425042775
32
0.0000000000
13
0.0825542982
23
0.0787825059
33
0.0000000000
40
0.0000000000
40
0.0000000000
40
0.0000000000
40
0.0000000000
40
0.4975772460
40
1.0000000000
40
1.0000000000
40
1.0000000000
40
1.0000000000
10
22.6215249198
20
-12.2127010861
30
0.0000000000
10
22.6390897214
20
-12.2056513657
30
0.0000000000
10
22.6730523764
20
-12.1881325277
30
0.0000000000
10
22.7030906402
20
-12.1645033829
30
0.0000000000
10
22.7169163594
20
-12.1513093418
30
0.0000000000
11
22.6215249198
21
-12.2127010861
31
0.0000000000
11
22.6719161971
21
-12.1867046066
31
0.0000000000
11
22.7169163594
21
-12.1513093418
31
0.0000000000
0
SPLINE
5
268
100
AcDbEntity
8
0
100
AcDbSpline
62
7
6
CONTINUOUS
70
0
71
3
72
9
73
5
74
3
42
0.0000001000
43
0.0000001000
44
0.0000000001
12
0.0826265460
22
0.0788514528
32
0.0000000000
13
0.0473365661
23
0.1037664810
33
0.0000000000
40
0.0000000000
40
0.0000000000
40
0.0000000000
40
0.0000000000
40
0.4992886188
40
1.0000000000
40
1.0000000000
40
1.0000000000
40
1.0000000000
10
22.7169163594
20
-12.1513093418
30
0.0000000000
10
22.7306678574
20
-12.1381861308
30
0.0000000000
10
22.7557015452
20
-12.1092826395
30
0.0000000000
10
22.7748336751
20
-12.0761143869
30
0.0000000000
10
22.7827343276
20
-12.0587953676
30
0.0000000000
11
22.7169163594
21
-12.1513093418
31
0.0000000000
11
22.7541947340
21
-12.1082606037
31
0.0000000000
11
22.7827343276
21
-12.0587953676
31
0.0000000000
0
SPLINE
5
269
100
AcDbEntity
8
0
100
AcDbSpline
62
7
6
CONTINUOUS
70
0
71
3
72
9
73
5
74
3
42
0.0000001000
43
0.0000001000
44
0.0000000001
12
0.1991411172
22
0.2844028979
32
0.0000000000
13
0.1991411172
23
0.2844028979
33
0.0000000000
40
0.0000000000
40
0.0000000000
40
0.0000000000
40
0.0000000000
40
0.7500077488
40
1.0000000000
40
1.0000000000
40
1.0000000000
40
1.0000000000
10
18.6635124016
20
-12.8742841740
30
0.0000000000
10
18.7132981953
20
-12.8031827149
30
0.0000000000
10
18.7796785676
20
-12.7083817489
30
0.0000000000
10
18.8460589400
20
-12.6135807829
30
0.0000000000
10
18.8626535188
20
-12.5898812760
30
0.0000000000
11
18.6635124016
21
-12.8742841740
31
0.0000000000
11
18.8128697826
21
-12.6609797967
31
0.0000000000
11
18.8626535188
21
-12.5898812760
31
0.0000000000
0
SPLINE
5
26A
100
AcDbEntity
8
0
100
AcDbSpline
62
7
6
CONTINUOUS
70
0
71
3
72
9
73
5
74
3
42
0.0000001000
43
0.0000001000
44
0.0000000001
12
0.2489918447
22
0.3555970921
32
0.0000000000
13
0.2489918448
23
0.3555970921
33
0.0000000000
40
0.0000000000
40
0.0000000000
40
0.0000000000
40
0.0000000000
40
0.3999893665
40
1.0000000000
40
1.0000000000
40
1.0000000000
40
1.0000000000
10
18.8626535188
20
-12.5898812760
30
0.0000000000
10
18.8958515489
20
-12.5424695908
30
0.0000000000
10
18.9788488305
20
-12.4239372268
30
0.0000000000
10
19.0618461121
20
-12.3054048628
30
0.0000000000
10
19.1116453636
20
-12.2342841840
30
0.0000000000
11
18.8626535188
21
-12.5898812760
31
0.0000000000
11
18.9622476090
21
-12.4476462204
31
0.0000000000
11
19.1116453636
21
-12.2342841840
31
0.0000000000
0
SPLINE
5
26B
100
AcDbEntity
8
0
100
AcDbSpline
62
7
6
CONTINUOUS
70
0
71
3
72
8
73
4
74
2
42
0.0000001000
43
0.0000001000
44
0.0000000001
12
-0.0497781331
22
0.0710905215
32
0.0000000000
13
-0.0497781331
23
0.0710905215
33
0.0000000000
40
0.0000000000
40
0.0000000000
40
0.0000000000
40
0.0000000000
40
1.0000000000
40
1.0000000000
40
1.0000000000
40
1.0000000000
10
19.1116453636
20
-13.5142841894
30
0.0000000000
10
19.0950526525
20
-13.4905873489
30
0.0000000000
10
19.0784599415
20
-13.4668905084
30
0.0000000000
10
19.0618672304
20
-13.4431936679
30
0.0000000000
11
19.1116453636
21
-13.5142841894
31
0.0000000000
11
19.0618672304
21
-13.4431936679
31
0.0000000000
0
SPLINE
5
26C
100
AcDbEntity
8
0
100
AcDbSpline
62
7
6
CONTINUOUS
70
0
71
3
72
8
73
4
74
2
42
0.0000001000
43
0.0000001000
44
0.0000000001
12
-0.0497823727
22
0.0710965762
32
0.0000000000
13
-0.0497823727
23
0.0710965762
33
0.0000000000
40
0.0000000000
40
0.0000000000
40
0.0000000000
40
0.0000000000
40
1.0000000000
40
1.0000000000
40
1.0000000000
40
1.0000000000
10
19.0618672304
20
-13.4431936679
30
0.0000000000
10
19.0452731062
20
-13.4194948091
30
0.0000000000
10
19.0286789820
20
-13.3957959504
30
0.0000000000
10
19.0120848577
20
-13.3720970916
30
0.0000000000
11
19.0618672304
21
-13.4431936679
31
0.0000000000
11
19.0120848577
21
-13.3720970916
31
0.0000000000
0
SPLINE
5
26D
100
AcDbEntity
8
0
100
AcDbSpline
62
7
6
CONTINUOUS
70
0
71
3
72
10
73
6
74
4
42
0.0000001000
43
0.0000001000
44
0.0000000001
12
-0.3136955822
22
-0.3760174943
32
0.0000000000
13
-0.3136955827
23
-0.3760174939
33
0.0000000000
40
0.0000000000
40
0.0000000000
40
0.0000000000
40
0.0000000000
40
0.4286161439
40
0.8571800930
40
1.0000000000
40
1.0000000000
40
1.0000000000
40
1.0000000000
10
19.9076350782
20
-13.0308418417
30
0.0000000000
10
19.8628167479
20
-13.0845642312
30
0.0000000000
10
19.7731855450
20
-13.1920024680
30
0.0000000000
10
19.6686203508
20
-13.3173416326
30
0.0000000000
10
19.6088734869
20
-13.3889584078
30
0.0000000000
10
19.5939394956
20
-13.4068593357
30
0.0000000000
11
19.9076350782
21
-13.0308418417
31
0.0000000000
11
19.7731800872
21
-13.1920090100
31
0.0000000000
11
19.6387414695
21
-13.3531565522
31
0.0000000000
11
19.5939394956
21
-13.4068593357
31
0.0000000000
0
SPLINE
5
26E
100
AcDbEntity
8
0
100
AcDbSpline
62
7
6
CONTINUOUS
70
0
71
3
72
8
73
4
74
2
42
0.0000001000
43
0.0000001000
44
0.0000000001
12
-0.0448100631
22
-0.0537124797
32
0.0000000000
13
-0.0448100631
23
-0.0537124797
33
0.0000000000
40
0.0000000000
40
0.0000000000
40
0.0000000000
40
0.0000000000
40
1.0000000000
40
1.0000000000
40
1.0000000000
40
1.0000000000
10
19.5939394956
20
-13.4068593357
30
0.0000000000
10
19.5790028079
20
-13.4247634956
30
0.0000000000
10
19.5640661202
20
-13.4426676555
30
0.0000000000
10
19.5491294324
20
-13.4605718154
30
0.0000000000
11
19.5939394956
21
-13.4068593357
31
0.0000000000
11
19.5491294324
21
-13.4605718154
31
0.0000000000
0
SPLINE
5
26F
100
AcDbEntity
8
0
100
AcDbSpline
62
7
6
CONTINUOUS
70
0
71
3
72
8
73
4
74
2
42
0.0000001000
43
0.0000001000
44
0.0000000001
12
-0.0448099749
22
-0.0537123740
32
0.0000000000
13
-0.0448099749
23
-0.0537123740
33
0.0000000000
40
0.0000000000
40
0.0000000000
40
0.0000000000
40
0.0000000000
40
1.0000000000
40
1.0000000000
40
1.0000000000
40
1.0000000000
10
19.5491294324
20
-13.4605718154
30
0.0000000000
10
19.5341927742
20
-13.4784759400
30
0.0000000000
10
19.5192561159
20
-13.4963800647
30
0.0000000000
10
19.5043194576
20
-13.5142841894
30
0.0000000000
11
19.5491294324
21
-13.4605718154
31
0.0000000000
11
19.5043194576
21
-13.5142841894
31
0.0000000000
0
SPLINE
5
270
100
AcDbEntity
8
0
100
AcDbSpline
62
7
6
CONTINUOUS
70
0
71
3
72
8
73
4
74
2
42
0.0000001000
43
0.0000001000
44
0.0000000001
12
0.0237567859
22
0.0284765415
32
0.0000000000
13
0.0200968650
23
0.0312435513
33
0.0000000000
40
0.0000000000
40
0.0000000000
40
0.0000000000
40
0.0000000000
40
1.0000000000
40
1.0000000000
40
1.0000000000
40
1.0000000000
10
20.3683582920
20
-13.4152038607
30
0.0000000000
10
20.3762772206
20
-13.4057116802
30
0.0000000000
10
20.3836188485
20
-13.3957125643
30
0.0000000000
10
20.3903178035
20
-13.3852980472
30
0.0000000000
11
20.3683582920
21
-13.4152038607
31
0.0000000000
11
20.3903178035
21
-13.3852980472
31
0.0000000000
0
SPLINE
5
271
100
AcDbEntity
8
0
100
AcDbSpline
62
7
6
CONTINUOUS
70
0
71
3
72
23
73
19
74
17
42
0.0000001000
43
0.0000001000
44
0.0000000001
12
0.4895645625
22
0.7611005754
32
0.0000000000
13
-0.5787255837
23
-0.6936920120
33
0.0000000000
40
0.0000000000
40
0.0000000000
40
0.0000000000
40
0.0000000000
40
0.0170730607
40
0.0745797945
40
0.1329289982
40
0.1912768991
40
0.2491318304
40
0.3068961675
40
0.3648308703
40
0.4228143232
40
0.5384047218
40
0.6534158105
40
0.7113135265
40
0.7692684461
40
0.8272994749
40
0.8852068038
40
0.9423149973
40
1.0000000000
40
1.0000000000
40
1.0000000000
40
1.0000000000
10
20.3903178035
20
-13.3852980472
30
0.0000000000
10
20.3931039254
20
-13.3809666085
30
0.0000000000
10
20.4047888588
20
-13.3617318203
30
0.0000000000
10
20.4216749229
20
-13.3252283867
30
0.0000000000
10
20.4351658425
20
-13.2742494125
30
0.0000000000
10
20.4395318442
20
-13.2215955281
30
0.0000000000
10
20.4346703662
20
-13.1691662881
30
0.0000000000
10
20.4208271236
20
-13.1184981656
30
0.0000000000
10
20.3983690619
20
-13.0709567403
30
0.0000000000
10
20.3579435095
20
-13.0137945215
30
0.0000000000
10
20.2896478768
20
-12.9570197257
30
0.0000000000
10
20.2060411373
20
-12.9272095704
30
0.0000000000
10
20.1364574699
20
-12.9215023348
30
0.0000000000
10
20.0840416071
20
-12.9263548910
30
0.0000000000
10
20.0332814803
20
-12.9402579649
30
0.0000000000
10
19.9859379724
20
-12.9626687001
30
0.0000000000
10
19.9432745183
20
-12.9928330539
30
0.0000000000
10
19.9187640773
20
-13.0175017127
30
0.0000000000
10
19.9076361483
20
-13.0308402546
30
0.0000000000
11
20.3903178035
21
-13.3852980472
31
0.0000000000
11
20.3983379649
21
-13.3720947526
31
0.0000000000
11
20.4201524665
21
-13.3249450462
31
0.0000000000
11
20.4336362819
21
-13.2739861150
31
0.0000000000
11
20.4379926435
21
-13.2214549436
31
0.0000000000
11
20.4331676813
21
-13.1694119811
31
0.0000000000
11
20.4194119408
21
-13.1190733152
31
0.0000000000
11
20.3970633289
21
-13.0717464929
31
0.0000000000
11
20.3668010378
21
-13.0289902736
31
0.0000000000
11
20.2864317164
21
-12.9623177787
31
0.0000000000
11
20.1886018136
21
-12.9273215972
31
0.0000000000
11
20.1364736603
21
-12.9230265213
31
0.0000000000
11
20.0843407618
21
-12.9278599049
31
0.0000000000
11
20.0337773762
21
-12.9417072590
31
0.0000000000
11
19.9864934306
21
-12.9640887039
31
0.0000000000
11
19.9443693061
21
-12.9938753724
31
0.0000000000
11
19.9076361483
21
-13.0308402546
31
0.0000000000
0
SPLINE
5
272
100
AcDbEntity
8
0
100
AcDbSpline
62
7
6
CONTINUOUS
70
0
71
3
72
8
73
4
74
2
42
0.0000001000
43
0.0000001000
44
0.0000000001
12
0.1643950082
22
0.1970553091
32
0.0000000000
13
0.1643950084
23
0.1970553090
33
0.0000000000
40
0.0000000000
40
0.0000000000
40
0.0000000000
40
0.0000000000
40
1.0000000000
40
1.0000000000
40
1.0000000000
40
1.0000000000
10
19.8750931073
20
-14.0064658727
30
0.0000000000
10
19.9298914433
20
-13.9407807697
30
0.0000000000
10
19.9846897795
20
-13.8750956667
30
0.0000000000
10
20.0394881156
20
-13.8094105637
30
0.0000000000
11
19.8750931073
21
-14.0064658727
31
0.0000000000
11
20.0394881156
21
-13.8094105637
31
0.0000000000
0
SPLINE
5
273
100
AcDbEntity
8
0
100
AcDbSpline
62
7
6
CONTINUOUS
70
0
71
3
72
9
73
5
74
3
42
0.0000001000
43
0.0000001000
44
0.0000000001
12
0.3288701666
22
0.3942066912
32
0.0000000000
13
0.3288701666
23
0.3942066913
33
0.0000000000
40
0.0000000000
40
0.0000000000
40
0.0000000000
40
0.0000000000
40
0.4999597355
40
1.0000000000
40
1.0000000000
40
1.0000000000
40
1.0000000000
10
20.0394881156
20
-13.8094105637
30
0.0000000000
10
20.0942953961
20
-13.7437147394
30
0.0000000000
10
20.2039187849
20
-13.6123125089
30
0.0000000000
10
20.3135421739
20
-13.4809102785
30
0.0000000000
10
20.3683582822
20
-13.4152038725
30
0.0000000000
11
20.0394881156
21
-13.8094105637
31
0.0000000000
11
20.2039099571
21
-13.6123230906
31
0.0000000000
11
20.3683582822
21
-13.4152038725
31
0.0000000000
0
SPLINE
5
274
100
AcDbEntity
8
0
100
AcDbSpline
62
7
6
CONTINUOUS
70
0
71
3
72
8
73
4
74
2
42
0.0000001000
43
0.0000001000
44
0.0000000001
12
0.0237567862
22
0.0284765419
32
0.0000000000
13
0.0200968652
23
0.0312435517
33
0.0000000000
40
0.0000000000
40
0.0000000000
40
0.0000000000
40
0.0000000000
40
1.0000000000
40
1.0000000000
40
1.0000000000
40
1.0000000000
10
21.8008888280
20
-13.4152038607
30
0.0000000000
10
21.8088077568
20
-13.4057116801
30
0.0000000000
10
21.8161493847
20
-13.3957125641
30
0.0000000000
10
21.8228483398
20
-13.3852980468
30
0.0000000000
11
21.8008888280
21
-13.4152038607
31
0.0000000000
11
21.8228483398
21
-13.3852980468
31
0.0000000000
0
SPLINE
5
275
100
AcDbEntity
8
0
100
AcDbSpline
62
7
6
CONTINUOUS
70
0
71
3
72
9
73
5
74
3
42
0.0000001000
43
0.0000001000
44
0.0000000001
12
-0.0576094640
22
-0.0425944893
32
0.0000000000
13
-0.0458404186
23
-0.0549468039
33
0.0000000000
40
0.0000000000
40
0.0000000000
40
0.0000000000
40
0.0000000000
40
0.2717389244
40
1.0000000000
40
1.0000000000
40
1.0000000000
40
1.0000000000
10
21.3921701317
20
-12.9817989143
30
0.0000000000
10
21.3869518871
20
-12.9856571078
30
0.0000000000
10
21.3682072666
20
-13.0004798899
30
0.0000000000
10
21.3512946480
20
-13.0175016757
30
0.0000000000
10
21.3401667172
20
-13.0308402152
30
0.0000000000
11
21.3921701317
21
-12.9817989143
31
0.0000000000
11
21.3768998798
21
-12.9938753405
31
0.0000000000
11
21.3401667172
21
-13.0308402152
31
0.0000000000
0
SPLINE
5
276
100
AcDbEntity
8
0
100
AcDbSpline
62
7
6
CONTINUOUS
70
0
71
3
72
9
73
5
74
3
42
0.0000001000
43
0.0000001000
44
0.0000000001
12
0.2191708655
22
0.2627134679
32
0.0000000000
13
0.2191708659
23
0.2627134676
33
0.0000000000
40
0.0000000000
40
0.0000000000
40
0.0000000000
40
0.0000000000
40
0.7500803169
40
1.0000000000
40
1.0000000000
40
1.0000000000
40
1.0000000000
10
21.3076230769
20
-14.0064665515
30
0.0000000000
10
21.3624216610
20
-13.9407811511
30
0.0000000000
10
21.4354786164
20
-13.8532099953
30
0.0000000000
10
21.5085355717
20
-13.7656388395
30
0.0000000000
10
21.5267939428
20
-13.7437530840
30
0.0000000000
11
21.3076230769
21
-14.0064665515
31
0.0000000000
11
21.4720188295
21
-13.8094103505
31
0.0000000000
11
21.5267939428
21
-13.7437530840
31
0.0000000000
0
SPLINE
5
277
100
AcDbEntity
8
0
100
AcDbSpline
62
7
6
CONTINUOUS
70
0
71
3
72
9
73
5
74
3
42
0.0000001000
43
0.0000001000
44
0.0000000001
12
0.2740948852
22
0.3285492232
32
0.0000000000
13
0.2740948852
23
0.3285492232
33
0.0000000000
40
0.0000000000
40
0.0000000000
40
0.0000000000
40
0.0000000000
40
0.4000313704
40
1.0000000000
40
1.0000000000
40
1.0000000000
40
1.0000000000
10
21.5267939428
20
-13.7437530840
30
0.0000000000
10
21.5633427937
20
-13.6999430853
30
0.0000000000
10
21.6547077554
20
-13.5904266775
30
0.0000000000
10
21.7460727171
20
-13.4809102698
30
0.0000000000
10
21.8008888280
20
-13.4152038607
30
0.0000000000
11
21.5267939428
21
-13.7437530840
31
0.0000000000
11
21.6364404953
21
-13.6123230879
31
0.0000000000
11
21.8008888280
21
-13.4152038607
31
0.0000000000
0
SPLINE
5
278
100
AcDbEntity
8
0
100
AcDbSpline
62
7
6
CONTINUOUS
70
0
71
3
72
8
73
4
74
2
42
0.0000001000
43
0.0000001000
44
0.0000000001
12
-0.0237485158
22
-0.0284666270
32
0.0000000000
13
-0.0200912199
23
-0.0312318221
33
0.0000000000
40
0.0000000000
40
0.0000000000
40
0.0000000000
40
0.0000000000
40
1.0000000000
40
1.0000000000
40
1.0000000000
40
1.0000000000
10
20.8469010556
20
-13.6221030778
30
0.0000000000
10
20.8389848837
20
-13.6315919535
30
0.0000000000
10
20.8316456097
20
-13.6415874147
30
0.0000000000
10
20.8249485364
20
-13.6519980220
30
0.0000000000
11
20.8469010556
21
-13.6221030778
31
0.0000000000
11
20.8249485364
21
-13.6519980220
31
0.0000000000
0
SPLINE
5
279
100
AcDbEntity
8
0
100
AcDbSpline
62
7
6
CONTINUOUS
70
0
71
3
72
23
73
19
74
17
42
0.0000001000
43
0.0000001000
44
0.0000000001
12
-0.4896046402
22
-0.7610909196
32
0.0000000000
13
0.5787339498
23
0.6937021918
33
0.0000000000
40
0.0000000000
40
0.0000000000
40
0.0000000000
40
0.0000000000
40
0.0170960589
40
0.0746116408
40
0.1329707201
40
0.1913292229
40
0.2491978785
40
0.3069753184
40
0.3649204746
40
0.4229108740
40
0.5384985086
40
0.6534863412
40
0.7113687494
40
0.7693076660
40
0.8273228183
40
0.8852165674
40
0.9423171442
40
1.0000000000
40
1.0000000000
40
1.0000000000
40
1.0000000000
10
20.8249485364
20
-13.6519980220
30
0.0000000000
10
20.8221584331
20
-13.6563352404
30
0.0000000000
10
20.8104681632
20
-13.6755784600
30
0.0000000000
10
20.7935780486
20
-13.7120946470
30
0.0000000000
10
20.7800883332
20
-13.7630840243
30
0.0000000000
10
20.7757269894
20
-13.8157495616
30
0.0000000000
10
20.7805972217
20
-13.8681902763
30
0.0000000000
10
20.7944532268
20
-13.9188675353
30
0.0000000000
10
20.8169263860
20
-13.9664130061
30
0.0000000000
10
20.8573697355
20
-14.0235694171
30
0.0000000000
10
20.9256769682
20
-14.0803231113
30
0.0000000000
10
21.0092791021
20
-14.1101098638
30
0.0000000000
10
21.0788481911
20
-14.1158035888
30
0.0000000000
10
21.1312498112
20
-14.1109454008
30
0.0000000000
10
21.1819960826
20
-14.0970414451
30
0.0000000000
10
21.2293290494
20
-14.0746331634
30
0.0000000000
10
21.2719868796
20
-14.0444718736
30
0.0000000000
10
21.2964955386
20
-14.0198049073
30
0.0000000000
10
21.3076232142
20
-14.0064666661
30
0.0000000000
11
20.8249485364
21
-13.6519980220
31
0.0000000000
11
20.8169173458
21
-13.6652192338
31
0.0000000000
11
20.7951011356
21
-13.7123777925
31
0.0000000000
11
20.7816185389
21
-13.7633470704
31
0.0000000000
11
20.7772668954
21
-13.8158890154
31
0.0000000000
11
20.7821006417
21
-13.8679443806
31
0.0000000000
11
20.7958691942
21
-13.9182926052
31
0.0000000000
11
20.8182328932
21
-13.9656235899
31
0.0000000000
11
20.8485101766
21
-14.0083778206
31
0.0000000000
11
20.9288964569
21
-14.0750283424
31
0.0000000000
11
21.0267160852
21
-14.1099953617
31
0.0000000000
11
21.0788319722
21
-14.1142801840
31
0.0000000000
11
21.1309506005
21
-14.1094412166
31
0.0000000000
11
21.1814997027
21
-14.0955931137
31
0.0000000000
11
21.2287722695
21
-14.0732145205
31
0.0000000000
11
21.2708909645
21
-14.0434307879
31
0.0000000000
11
21.3076232142
21
-14.0064666661
31
0.0000000000
0
SPLINE
5
27A
100
AcDbEntity
8
0
100
AcDbSpline
62
7
6
CONTINUOUS
70
0
71
3
72
8
73
4
74
2
42
0.0000001000
43
0.0000001000
44
0.0000000001
12
-0.1644475186
22
-0.1971182435
32
0.0000000000
13
-0.1644475188
23
-0.1971182433
33
0.0000000000
40
0.0000000000
40
0.0000000000
40
0.0000000000
40
0.0000000000
40
1.0000000000
40
1.0000000000
40
1.0000000000
40
1.0000000000
10
21.3401668669
20
-13.0308403401
30
0.0000000000
10
21.2853510274
20
-13.0965464213
30
0.0000000000
10
21.2305351877
20
-13.1622525024
30
0.0000000000
10
21.1757193481
20
-13.2279585834
30
0.0000000000
11
21.3401668669
21
-13.0308403401
31
0.0000000000
11
21.1757193481
21
-13.2279585834
31
0.0000000000
0
SPLINE
5
27B
100
AcDbEntity
8
0
100
AcDbSpline
62
7
6
CONTINUOUS
70
0
71
3
72
9
73
5
74
3
42
0.0000001000
43
0.0000001000
44
0.0000000001
12
-0.2192126069
22
-0.2627634900
32
0.0000000000
13
-0.2192126070
23
-0.2627634900
33
0.0000000000
40
0.0000000000
40
0.0000000000
40
0.0000000000
40
0.0000000000
40
0.7500561058
40
1.0000000000
40
1.0000000000
40
1.0000000000
40
1.0000000000
10
21.1757193481
20
-13.2279585834
30
0.0000000000
10
21.1209120967
20
-13.2936543701
30
0.0000000000
10
21.0478412277
20
-13.3812422001
30
0.0000000000
10
20.9747703588
20
-13.4688300301
30
0.0000000000
10
20.9565067412
20
-13.4907220735
30
0.0000000000
11
21.1757193481
21
-13.2279585834
31
0.0000000000
11
21.0112975939
21
-13.4250459435
31
0.0000000000
11
20.9565067412
21
-13.4907220735
31
0.0000000000
0
SPLINE
5
27C
100
AcDbEntity
8
0
100
AcDbSpline
62
7
6
CONTINUOUS
70
0
71
3
72
8
73
4
74
2
42
0.0000001000
43
0.0000001000
44
0.0000000001
12
-0.0548031308
22
-0.0656908474
32
0.0000000000
13
-0.0548031308
23
-0.0656908474
33
0.0000000000
40
0.0000000000
40
0.0000000000
40
0.0000000000
40
0.0000000000
40
1.0000000000
40
1.0000000000
40
1.0000000000
40
1.0000000000
10
20.9565067412
20
-13.4907220735
30
0.0000000000
10
20.9382390309
20
-13.5126190226
30
0.0000000000
10
20.9199713207
20
-13.5345159717
30
0.0000000000
10
20.9017036104
20
-13.5564129209
30
0.0000000000
11
20.9565067412
21
-13.4907220735
31
0.0000000000
11
20.9017036104
21
-13.5564129209
31
0.0000000000
0
SPLINE
5
27D
100
AcDbEntity
8
0
100
AcDbSpline
62
7
6
CONTINUOUS
70
0
71
3
72
8
73
4
74
2
42
0.0000001000
43
0.0000001000
44
0.0000000001
12
-0.0548025548
22
-0.0656901570
32
0.0000000000
13
-0.0548025548
23
-0.0656901570
33
0.0000000000
40
0.0000000000
40
0.0000000000
40
0.0000000000
40
0.0000000000
40
1.0000000000
40
1.0000000000
40
1.0000000000
40
1.0000000000
10
20.9017036104
20
-13.5564129209
30
0.0000000000
10
20.8834360921
20
-13.5783096399
30
0.0000000000
10
20.8651685739
20
-13.6002063588
30
0.0000000000
10
20.8469010556
20
-13.6221030778
30
0.0000000000
11
20.9017036104
21
-13.5564129209
31
0.0000000000
11
20.8469010556
21
-13.6221030778
31
0.0000000000
0
SPLINE
5
27E
100
AcDbEntity
8
0
100
AcDbSpline
62
7
6
CONTINUOUS
70
0
71
3
72
9
73
5
74
3
42
0.0000001000
43
0.0000001000
44
0.0000000001
12
0.1766840717
22
0.0000003821
32
0.0000000000
13
0.1703214234
23
0.0475224267
33
0.0000000000
40
0.0000000000
40
0.0000000000
40
0.0000000000
40
0.0000000000
40
0.5226299588
40
1.0000000000
40
1.0000000000
40
1.0000000000
40
1.0000000000
10
25.4255284723
20
-13.5242841440
30
0.0000000000
10
25.4563086020
20
-13.5242840774
30
0.0000000000
10
25.5152902841
20
-13.5200853168
30
0.0000000000
10
25.5730850904
20
-13.5079406090
30
0.0000000000
10
25.6001872053
20
-13.5003786814
30
0.0000000000
11
25.4255284723
21
-13.5242841440
31
0.0000000000
11
25.5176356044
21
-13.5177249087
31
0.0000000000
11
25.6001872053
21
-13.5003786814
31
0.0000000000
0
SPLINE
5
27F
100
AcDbEntity
8
0
100
AcDbSpline
62
7
6
CONTINUOUS
70
0
71
3
72
25
73
21
74
19
42
0.0000001000
43
0.0000001000
44
0.0000000001
12
1.6829641114
22
0.4695741561
32
0.0000000000
13
-1.7191442915
23
0.3126025192
33
0.0000000000
40
0.0000000000
40
0.0000000000
40
0.0000000000
40
0.0000000000
40
0.0041490800
40
0.0569408700
40
0.1098786051
40
0.2161821287
40
0.2692370554
40
0.3223405604
40
0.3758367945
40
0.4293245686
40
0.4823569878
40
0.5354119701
40
0.5889962785
40
0.6425839970
40
0.6956642301
40
0.7486972343
40
0.8551980394
40
0.9084022397
40
0.9614501575
40
1.0000000000
40
1.0000000000
40
1.0000000000
40
1.0000000000
10
25.6001872053
20
-13.5003786814
30
0.0000000000
10
25.6025147895
20
-13.4997292478
30
0.0000000000
10
25.6344086013
20
-13.4906379965
30
0.0000000000
10
25.6945975150
20
-13.4683755680
30
0.0000000000
10
25.8034015532
20
-13.4095118602
30
0.0000000000
10
25.8985764998
20
-13.3275955739
30
0.0000000000
10
25.9731206457
20
-13.2285544909
30
0.0000000000
10
26.0180704226
20
-13.1468591817
30
0.0000000000
10
26.0509620530
20
-13.0593574809
30
0.0000000000
10
26.0709720263
20
-12.9680815424
30
0.0000000000
10
26.0777326312
20
-12.8751486474
30
0.0000000000
10
26.0712153936
20
-12.7821416361
30
0.0000000000
10
26.0514074480
20
-12.6906945700
30
0.0000000000
10
26.0186784610
20
-12.6030279381
30
0.0000000000
10
25.9738920140
20
-12.5212125615
30
0.0000000000
10
25.8995148400
20
-12.4219358100
30
0.0000000000
10
25.8042988248
20
-12.3396556299
30
0.0000000000
10
25.6952018851
20
-12.2804430423
30
0.0000000000
10
25.6158990540
20
-12.2510523402
30
0.0000000000
10
25.5639135144
20
-12.2387886437
30
0.0000000000
10
25.5418226005
20
-12.2347717178
30
0.0000000000
11
25.6001872053
21
-13.5003786814
31
0.0000000000
11
25.6071590359
21
-13.4983913687
31
0.0000000000
11
25.6936047453
21
-13.4664280094
31
0.0000000000
11
25.7748760915
21
-13.4224221340
31
0.0000000000
11
25.9155378738
21
-13.3013548645
31
0.0000000000
11
25.9712656912
21
-13.2273696028
31
0.0000000000
11
26.0159471455
21
-13.1461372544
31
0.0000000000
11
26.0488127831
21
-13.0587154153
31
0.0000000000
11
26.0688082446
21
-12.9675005538
31
0.0000000000
11
26.0755264531
21
-12.8751588162
31
0.0000000000
11
26.0690512199
21
-12.7827602343
31
0.0000000000
11
26.0492482252
21
-12.6913309464
31
0.0000000000
11
26.0165232675
21
-12.6036858416
31
0.0000000000
11
25.9720365154
21
-12.5223930134
31
0.0000000000
11
25.9164957691
21
-12.4483150447
31
0.0000000000
11
25.7758131517
21
-12.3267445652
31
0.0000000000
11
25.6941925783
21
-12.2824068163
31
0.0000000000
11
25.6073482983
21
-12.2502320908
31
0.0000000000
11
25.5418226005
21
-12.2347717178
31
0.0000000000
0
SPLINE
5
280
100
AcDbEntity
8
0
100
AcDbSpline
62
7
6
CONTINUOUS
70
0
71
3
72
9
73
5
74
3
42
0.0000001000
43
0.0000001000
44
0.0000000001
12
-0.1150394980
22
0.0209183354
32
0.0000000000
13
-0.1168254830
23
-0.0000002551
33
0.0000000000
40
0.0000000000
40
0.0000000000
40
0.0000000000
40
0.0000000000
40
0.2094412262
40
1.0000000000
40
1.0000000000
40
1.0000000000
40
1.0000000000
10
25.5418226005
20
-12.2347717178
30
0.0000000000
10
25.5337912627
20
-12.2333113305
30
0.0000000000
10
25.4953108006
20
-12.2270607470
30
0.0000000000
10
25.4563114609
20
-12.2242841367
30
0.0000000000
10
25.4255256574
20
-12.2242842040
30
0.0000000000
11
25.5418226005
21
-12.2347717178
31
0.0000000000
11
25.5176497115
21
-12.2308454588
31
0.0000000000
11
25.4255256574
21
-12.2242842040
31
0.0000000000
0
SPLINE
5
281
100
AcDbEntity
8
0
100
AcDbSpline
62
7
6
CONTINUOUS
70
0
71
3
72
9
73
5
74
3
42
0.0000001000
43
0.0000001000
44
0.0000000001
12
-0.1766649395
22
-0.0000003858
32
0.0000000000
13
-0.1703043892
23
-0.0475122608
33
0.0000000000
40
0.0000000000
40
0.0000000000
40
0.0000000000
40
0.0000000000
40
0.5228799639
40
1.0000000000
40
1.0000000000
40
1.0000000000
40
1.0000000000
10
25.4255256574
20
-12.2242842040
30
0.0000000000
10
25.3947341383
20
-12.2242842712
30
0.0000000000
10
25.3357587758
20
-12.2284841432
30
0.0000000000
10
25.2779704835
20
-12.2406281979
30
0.0000000000
10
25.2508852714
20
-12.2481845484
30
0.0000000000
11
25.4255256574
21
-12.2242842040
31
0.0000000000
11
25.3333846165
21
-12.2308482960
31
0.0000000000
11
25.2508852714
21
-12.2481845484
31
0.0000000000
0
SPLINE
5
282
100
AcDbEntity
8
0
100
AcDbSpline
62
7
6
CONTINUOUS
70
0
71
3
72
25
73
21
74
19
42
0.0000001000
43
0.0000001000
44
0.0000000001
12
-1.6827959604
22
-0.4694737513
32
0.0000000000
13
1.7188546910
23
-0.3131186010
33
0.0000000000
40
0.0000000000
40
0.0000000000
40
0.0000000000
40
0.0000000000
40
0.0041948007
40
0.0570018154
40
0.1099514858
40
0.2162721525
40
0.2693299009
40
0.3224340944
40
0.3759300579
40
0.4294181659
40
0.4824549654
40
0.5355168255
40
0.5891124457
40
0.6427121049
40
0.6958030064
40
0.7488446715
40
0.8553526304
40
0.9085583354
40
0.9616037864
40
1.0000000000
40
1.0000000000
40
1.0000000000
40
1.0000000000
10
25.2508852714
20
-12.2481845484
30
0.0000000000
10
25.2485322735
20
-12.2488409980
30
0.0000000000
10
25.2166080495
20
-12.2579420033
30
0.0000000000
10
25.1563879982
20
-12.2802231537
30
0.0000000000
10
25.0475803646
20
-12.3391065735
30
0.0000000000
10
24.9524129103
20
-12.4210400038
30
0.0000000000
10
24.8778840899
20
-12.5200908508
30
0.0000000000
10
24.8329493513
20
-12.6017850095
30
0.0000000000
10
24.8000716856
20
-12.6892815451
30
0.0000000000
10
24.7800729094
20
-12.7805521740
30
0.0000000000
10
24.7733214411
20
-12.8734823982
30
0.0000000000
10
24.7798477707
20
-12.9664918812
30
0.0000000000
10
24.7996668582
20
-13.0579442488
30
0.0000000000
10
24.8324097862
20
-13.1456160896
30
0.0000000000
10
24.8772112290
20
-13.2274326376
30
0.0000000000
10
24.9516041027
20
-13.3267002241
30
0.0000000000
10
25.0468292430
20
-13.4089644131
30
0.0000000000
10
25.1559253134
20
-13.4681579072
30
0.0000000000
10
25.2351382049
20
-13.4975049016
30
0.0000000000
10
25.2870276620
20
-13.5097518496
30
0.0000000000
10
25.3090268326
20
-13.5137593725
30
0.0000000000
11
25.2508852714
21
-12.2481845484
31
0.0000000000
11
25.2438374400
21
-12.2501937648
31
0.0000000000
11
25.1573795195
21
-12.2821719791
31
0.0000000000
11
25.0761042067
21
-12.3261932851
31
0.0000000000
11
24.9354522004
21
-12.4472870057
31
0.0000000000
11
24.8797382579
21
-12.5212763385
31
0.0000000000
11
24.8350720539
21
-12.6025069986
31
0.0000000000
11
24.8022206627
21
-12.6899228936
31
0.0000000000
11
24.7822368075
21
-12.7811305531
31
0.0000000000
11
24.7755276108
21
-12.8734705696
31
0.0000000000
11
24.7820118011
21
-12.9658705135
31
0.0000000000
11
24.8018263785
21
-13.0573071411
31
0.0000000000
11
24.8345656127
21
-13.1449583602
31
0.0000000000
11
24.8790674660
21
-13.2262527244
31
0.0000000000
11
24.9346220550
21
-13.3003266902
31
0.0000000000
11
25.0753163511
21
-13.4218719863
31
0.0000000000
11
25.1569362493
21
-13.4661954268
31
0.0000000000
11
25.2437707992
21
-13.4983551783
31
0.0000000000
11
25.3090268326
21
-13.5137593725
31
0.0000000000
0
SPLINE
5
283
100
AcDbEntity
8
0
100
AcDbSpline
62
7
6
CONTINUOUS
70
0
71
3
72
9
73
5
74
3
42
0.0000001000
43
0.0000001000
44
0.0000000001
12
0.1152373374
22
-0.0209924399
32
0.0000000000
13
0.1170334482
23
0.0000002531
33
0.0000000000
40
0.0000000000
40
0.0000000000
40
0.0000000000
40
0.0000000000
40
0.2111846641
40
1.0000000000
40
1.0000000000
40
1.0000000000
40
1.0000000000
10
25.3090268326
20
-13.5137593725
30
0.0000000000
10
25.3171389521
20
-13.5152371329
30
0.0000000000
10
25.3556871679
20
-13.5215038592
30
0.0000000000
10
25.3947558794
20
-13.5242842105
30
0.0000000000
10
25.4255284723
20
-13.5242841440
30
0.0000000000
11
25.3090268326
21
-13.5137593725
31
0.0000000000
11
25.3334437497
21
-13.5177285172
31
0.0000000000
11
25.4255284723
21
-13.5242841440
31
0.0000000000
0
SPLINE
5
284
100
AcDbEntity
8
0
100
AcDbSpline
62
7
6
CONTINUOUS
70
0
71
3
72
9
73
5
74
3
42
0.0000001000
43
0.0000001000
44
0.0000000001
12
0.0592157699
22
0.0000000532
32
0.0000000000
13
0.0581482893
23
0.0116439511
33
0.0000000000
40
0.0000000000
40
0.0000000000
40
0.0000000000
40
0.0000000000
40
0.8863350895
40
1.0000000000
40
1.0000000000
40
1.0000000000
40
1.0000000000
10
19.6447324496
20
-14.1142841832
30
0.0000000000
10
19.6622274545
20
-14.1142841674
30
0.0000000000
10
19.6820096962
20
-14.1125485695
30
0.0000000000
10
19.7014373324
20
-14.1088851004
30
0.0000000000
10
19.7036404724
20
-14.1084439309
30
0.0000000000
11
19.6447324496
21
-14.1142841832
31
0.0000000000
11
19.6970162699
21
-14.1096930087
31
0.0000000000
11
19.7036404724
21
-14.1084439309
31
0.0000000000
0
SPLINE
5
285
100
AcDbEntity
8
0
100
AcDbSpline
62
7
6
CONTINUOUS
70
0
71
3
72
8
73
4
74
2
42
0.0000001000
43
0.0000001000
44
0.0000000001
12
0.0280936828
22
0.0056256422
32
0.0000000000
13
0.0274211784
23
0.0082762783
33
0.0000000000
40
0.0000000000
40
0.0000000000
40
0.0000000000
40
0.0000000000
40
1.0000000000
40
1.0000000000
40
1.0000000000
40
1.0000000000
10
19.7036404724
20
-14.1084439309
30
0.0000000000
10
19.7130050333
20
-14.1065687168
30
0.0000000000
10
19.7222774425
20
-14.1042461290
30
0.0000000000
10
19.7314178353
20
-14.1014873695
30
0.0000000000
11
19.7036404724
21
-14.1084439309
31
0.0000000000
11
19.7314178353
21
-14.1014873695
31
0.0000000000
0
SPLINE
5
286
100
AcDbEntity
8
0
100
AcDbSpline
62
7
6
CONTINUOUS
70
0
71
3
72
8
73
4
74
2
42
0.0000001000
43
0.0000001000
44
0.0000000001
12
0.0119670995
22
0.0036119179
32
0.0000000000
13
0.0118062951
23
0.0041075660
33
0.0000000000
40
0.0000000000
40
0.0000000000
40
0.0000000000
40
0.0000000000
40
1.0000000000
40
1.0000000000
40
1.0000000000
40
1.0000000000
10
19.7314178353
20
-14.1014873695
30
0.0000000000
10
19.7354068685
20
-14.1002833969
30
0.0000000000
10
19.7393707577
20
-14.0989963507
30
0.0000000000
10
19.7433061894
20
-14.0976271620
30
0.0000000000
11
19.7314178353
21
-14.1014873695
31
0.0000000000
11
19.7433061894
21
-14.0976271620
31
0.0000000000
0
SPLINE
5
287
100
AcDbEntity
8
0
100
AcDbSpline
62
7
6
CONTINUOUS
70
0
71
3
72
9
73
5
74
3
42
0.0000001000
43
0.0000001000
44
0.0000000001
12
0.0158140059
22
0.0055019016
32
0.0000000000
13
0.0154836056
23
0.0063770284
33
0.0000000000
40
0.0000000000
40
0.0000000000
40
0.0000000000
40
0.0000000000
40
0.2779600438
40
1.0000000000
40
1.0000000000
40
1.0000000000
40
1.0000000000
10
19.7433061894
20
-14.0976271620
30
0.0000000000
10
19.7447714100
20
-14.0971173924
30
0.0000000000
10
19.7500285535
20
-14.0952424608
30
0.0000000000
10
19.7552324269
20
-14.0932207761
30
0.0000000000
10
19.7589590208
20
-14.0916859530
30
0.0000000000
11
19.7433061894
21
-14.0976271620
31
0.0000000000
11
19.7476898459
21
-14.0960637419
31
0.0000000000
11
19.7589590208
21
-14.0916859530
31
0.0000000000
0
SPLINE
5
288
100
AcDbEntity
8
0
100
AcDbSpline
62
7
6
CONTINUOUS
70
0
71
3
72
8
73
4
74
2
42
0.0000001000
43
0.0000001000
44
0.0000000001
12
0.0088456693
22
0.0036431491
32
0.0000000000
13
0.0087254244
23
0.0039230713
33
0.0000000000
40
0.0000000000
40
0.0000000000
40
0.0000000000
40
0.0000000000
40
1.0000000000
40
1.0000000000
40
1.0000000000
40
1.0000000000
10
19.7589590208
20
-14.0916859530
30
0.0000000000
10
19.7619075773
20
-14.0904715700
30
0.0000000000
10
19.7648368454
20
-14.0892101809
30
0.0000000000
10
19.7677453202
20
-14.0879024905
30
0.0000000000
11
19.7589590208
21
-14.0916859530
31
0.0000000000
11
19.7677453202
21
-14.0879024905
31
0.0000000000
0
SPLINE
5
289
100
AcDbEntity
8
0
100
AcDbSpline
62
7
6
CONTINUOUS
70
0
71
3
72
8
73
4
74
2
42
0.0000001000
43
0.0000001000
44
0.0000000001
12
0.0183255855
22
0.0082394363
32
0.0000000000
13
0.0177334309
23
0.0094452801
33
0.0000000000
40
0.0000000000
40
0.0000000000
40
0.0000000000
40
0.0000000000
40
1.0000000000
40
1.0000000000
40
1.0000000000
40
1.0000000000
10
19.7677453202
20
-14.0879024905
30
0.0000000000
10
19.7738538487
20
-14.0851560117
30
0.0000000000
10
19.7798706565
20
-14.0822052950
30
0.0000000000
10
19.7857818001
20
-14.0790568683
30
0.0000000000
11
19.7677453202
21
-14.0879024905
31
0.0000000000
11
19.7857818001
21
-14.0790568683
31
0.0000000000
0
SPLINE
5
28A
100
AcDbEntity
8
0
100
AcDbSpline
62
7
6
CONTINUOUS
70
0
71
3
72
8
73
4
74
2
42
0.0000001000
43
0.0000001000
44
0.0000000001
12
0.0072390338
22
0.0038556951
32
0.0000000000
13
0.0071305419
23
0.0040520396
33
0.0000000000
40
0.0000000000
40
0.0000000000
40
0.0000000000
40
0.0000000000
40
1.0000000000
40
1.0000000000
40
1.0000000000
40
1.0000000000
10
19.7857818001
20
-14.0790568683
30
0.0000000000
10
19.7881948114
20
-14.0777716366
30
0.0000000000
10
19.7905902149
20
-14.0764534588
30
0.0000000000
10
19.7929670623
20
-14.0751027789
30
0.0000000000
11
19.7857818001
21
-14.0790568683
31
0.0000000000
11
19.7929670623
21
-14.0751027789
31
0.0000000000
0
SPLINE
5
28B
100
AcDbEntity
8
0
100
AcDbSpline
62
7
6
CONTINUOUS
70
0
71
3
72
9
73
5
74
3
42
0.0000001000
43
0.0000001000
44
0.0000000001
12
0.0178737123
22
0.0101570105
32
0.0000000000
13
0.0171346581
23
0.0113575020
33
0.0000000000
40
0.0000000000
40
0.0000000000
40
0.0000000000
40
0.0000000000
40
0.1254702850
40
1.0000000000
40
1.0000000000
40
1.0000000000
40
1.0000000000
10
19.7929670623
20
-14.0751027789
30
0.0000000000
10
19.7937146022
20
-14.0746779779
30
0.0000000000
10
19.7996578773
20
-14.0712666844
30
0.0000000000
10
19.8054826846
20
-14.0676520498
30
0.0000000000
10
19.8104776071
20
-14.0643412255
30
0.0000000000
11
19.7929670623
21
-14.0751027789
31
0.0000000000
11
19.7952041460
21
-14.0738187448
31
0.0000000000
11
19.8104776071
21
-14.0643412255
31
0.0000000000
0
SPLINE
5
28C
100
AcDbEntity
8
0
100
AcDbSpline
62
7
6
CONTINUOUS
70
0
71
3
72
9
73
5
74
3
42
0.0000001000
43
0.0000001000
44
0.0000000001
12
0.0725489739
22
0.0480882145
32
0.0000000000
13
0.0556925202
23
0.0667565095
33
0.0000000000
40
0.0000000000
40
0.0000000000
40
0.0000000000
40
0.0000000000
40
0.3967990193
40
1.0000000000
40
1.0000000000
40
1.0000000000
40
1.0000000000
10
19.8104776071
20
-14.0643412255
30
0.0000000000
10
19.8200733944
20
-14.0579807734
30
0.0000000000
10
19.8433351651
20
-14.0405588213
30
0.0000000000
10
19.8638952362
20
-14.0198884506
30
0.0000000000
10
19.8750931638
20
-14.0064659199
30
0.0000000000
11
19.8104776071
21
-14.0643412255
31
0.0000000000
11
19.8381085088
21
-14.0436432846
31
0.0000000000
11
19.8750931638
21
-14.0064659199
31
0.0000000000
0
SPLINE
5
28D
100
AcDbEntity
8
0
100
AcDbSpline
62
7
6
CONTINUOUS
70
0
71
3
72
9
73
5
74
3
42
0.0000001000
43
0.0000001000
44
0.0000000001
12
0.0369921660
22
-0.0528302940
32
0.0000000000
13
0.0475083426
23
-0.0437847471
33
0.0000000000
40
0.0000000000
40
0.0000000000
40
0.0000000000
40
0.0000000000
40
0.8904758484
40
1.0000000000
40
1.0000000000
40
1.0000000000
40
1.0000000000
10
18.7104462204
20
-13.9863570411
30
0.0000000000
10
18.7214264305
20
-14.0020384081
30
0.0000000000
10
18.7354858308
20
-14.0185075206
30
0.0000000000
10
18.7511506183
20
-14.0332905936
30
0.0000000000
10
18.7528850553
20
-14.0348890894
30
0.0000000000
11
18.7104462204
21
-13.9863570411
31
0.0000000000
11
18.7477385307
21
-14.0300321616
31
0.0000000000
11
18.7528850553
21
-14.0348890894
31
0.0000000000
0
SPLINE
5
28E
100
AcDbEntity
8
0
100
AcDbSpline
62
7
6
CONTINUOUS
70
0
71
3
72
8
73
4
74
2
42
0.0000001000
43
0.0000001000
44
0.0000000001
12
0.0239771435
22
-0.0220978697
32
0.0000000000
13
0.0262230869
23
-0.0193599607
33
0.0000000000
40
0.0000000000
40
0.0000000000
40
0.0000000000
40
0.0000000000
40
1.0000000000
40
1.0000000000
40
1.0000000000
40
1.0000000000
10
18.7528850553
20
-14.0348890894
30
0.0000000000
10
18.7608774364
20
-14.0422550460
30
0.0000000000
10
18.7692682645
20
-14.0491834135
30
0.0000000000
10
18.7780092934
20
-14.0556367338
30
0.0000000000
11
18.7528850553
21
-14.0348890894
31
0.0000000000
11
18.7780092934
21
-14.0556367338
31
0.0000000000
0
SPLINE
5
28F
100
AcDbEntity
8
0
100
AcDbSpline
62
7
6
CONTINUOUS
70
0
71
3
72
9
73
5
74
3
42
0.0000001000
43
0.0000001000
44
0.0000000001
12
0.0248582299
22
-0.0183523151
32
0.0000000000
13
0.0266185390
23
-0.0156984986
33
0.0000000000
40
0.0000000000
40
0.0000000000
40
0.0000000000
40
0.0000000000
40
0.5785191598
40
1.0000000000
40
1.0000000000
40
1.0000000000
40
1.0000000000
10
18.7780092934
20
-14.0556367338
30
0.0000000000
10
18.7828029475
20
-14.0591757891
30
0.0000000000
10
18.7912710814
20
-14.0650462670
30
0.0000000000
10
18.8000301344
20
-14.0704714014
30
0.0000000000
10
18.8037698692
20
-14.0726769402
30
0.0000000000
11
18.7780092934
21
-14.0556367338
31
0.0000000000
11
18.7926982690
21
-14.0658191074
31
0.0000000000
11
18.8037698692
21
-14.0726769402
31
0.0000000000
0
SPLINE
5
290
100
AcDbEntity
8
0
100
AcDbSpline
62
7
6
CONTINUOUS
70
0
71
3
72
9
73
5
74
3
42
0.0000001000
43
0.0000001000
44
0.0000000001
12
0.0557334329
22
-0.0328692426
32
0.0000000000
13
0.0614671707
23
-0.0201833933
33
0.0000000000
40
0.0000000000
40
0.0000000000
40
0.0000000000
40
0.0000000000
40
0.6889169913
40
1.0000000000
40
1.0000000000
40
1.0000000000
40
1.0000000000
10
18.8037698692
20
-14.0726769402
30
0.0000000000
10
18.8165684388
20
-14.0802250001
30
0.0000000000
10
18.8359616459
20
-14.0898034592
30
0.0000000000
10
18.8562243539
20
-14.0972180760
30
0.0000000000
10
18.8625981514
20
-14.0993109796
30
0.0000000000
11
18.8037698692
21
-14.0726769402
31
0.0000000000
11
18.8437017295
21
-14.0923955527
31
0.0000000000
11
18.8625981514
21
-14.0993109796
31
0.0000000000
0
SPLINE
5
291
100
AcDbEntity
8
0
100
AcDbSpline
62
7
6
CONTINUOUS
70
0
71
3
72
8
73
4
74
2
42
0.0000001000
43
0.0000001000
44
0.0000000001
12
0.0292236115
22
-0.0095958808
32
0.0000000000
13
0.0300633779
23
-0.0065559683
33
0.0000000000
40
0.0000000000
40
0.0000000000
40
0.0000000000
40
0.0000000000
40
1.0000000000
40
1.0000000000
40
1.0000000000
40
1.0000000000
10
18.8625981514
20
-14.0993109796
30
0.0000000000
10
18.8723393552
20
-14.1025096065
30
0.0000000000
10
18.8822450278
20
-14.1052091797
30
0.0000000000
10
18.8922661538
20
-14.1073945024
30
0.0000000000
11
18.8625981514
21
-14.0993109796
31
0.0000000000
11
18.8922661538
21
-14.1073945024
31
0.0000000000
0
SPLINE
5
292
100
AcDbEntity
8
0
100
AcDbSpline
62
7
6
CONTINUOUS
70
0
71
3
72
9
73
5
74
3
42
0.0000001000
43
0.0000001000
44
0.0000000001
12
0.0629542881
22
-0.0137285410
32
0.0000000000
13
0.0643194280
23
0.0000002650
33
0.0000000000
40
0.0000000000
40
0.0000000000
40
0.0000000000
40
0.0000000000
40
0.1046084612
40
1.0000000000
40
1.0000000000
40
1.0000000000
40
1.0000000000
10
18.8922661538
20
-14.1073945024
30
0.0000000000
10
18.8944613375
20
-14.1078732096
30
0.0000000000
10
18.9154990603
20
-14.1122134961
30
0.0000000000
10
18.9369959696
20
-14.1142841687
30
0.0000000000
10
18.9561929935
20
-14.1142840897
30
0.0000000000
11
18.8922661538
21
-14.1073945024
31
0.0000000000
11
18.8988678100
21
-14.1087564348
31
0.0000000000
11
18.9561929935
21
-14.1142840897
31
0.0000000000
0
SPLINE
5
293
100
AcDbEntity
8
0
100
AcDbSpline
62
7
6
CONTINUOUS
70
0
71
3
72
9
73
5
74
3
42
0.0000001000
43
0.0000001000
44
0.0000000001
12
0.3657045613
22
-0.5222800862
32
0.0000000000
13
0.3657045613
23
-0.5222800862
33
0.0000000000
40
0.0000000000
40
0.0000000000
40
0.0000000000
40
0.0000000000
40
0.6000773117
40
1.0000000000
40
1.0000000000
40
1.0000000000
40
1.0000000000
10
18.0522511419
20
-13.0463573294
30
0.0000000000
10
18.1254014786
20
-13.1508268061
30
0.0000000000
10
18.2473029993
20
-13.3249201680
30
0.0000000000
10
18.3692045198
20
-13.4990135300
30
0.0000000000
10
18.4179557036
20
-13.5686374154
30
0.0000000000
11
18.0522511419
21
-13.0463573294
31
0.0000000000
11
18.2717021522
21
-13.3597657594
31
0.0000000000
11
18.4179557036
21
-13.5686374154
31
0.0000000000
0
SPLINE
5
294
100
AcDbEntity
8
0
100
AcDbSpline
62
7
6
CONTINUOUS
70
0
71
3
72
9
73
5
74
3
42
0.0000001000
43
0.0000001000
44
0.0000000001
12
0.2924905170
22
-0.4177196256
32
0.0000000000
13
0.2924905170
23
-0.4177196256
33
0.0000000000
40
0.0000000000
40
0.0000000000
40
0.0000000000
40
0.0000000000
40
0.2500777510
40
1.0000000000
40
1.0000000000
40
1.0000000000
40
1.0000000000
10
18.4179557036
20
-13.5686374154
30
0.0000000000
10
18.4423374938
20
-13.6034582103
30
0.0000000000
10
18.5398343327
20
-13.7426980855
30
0.0000000000
10
18.6373311716
20
-13.8819379608
30
0.0000000000
10
18.7104462204
20
-13.9863570411
30
0.0000000000
11
18.4179557036
21
-13.5686374154
31
0.0000000000
11
18.4911010742
21
-13.6730998000
31
0.0000000000
11
18.7104462204
21
-13.9863570411
31
0.0000000000
0
SPLINE
5
295
100
AcDbEntity
8
0
100
AcDbSpline
62
7
6
CONTINUOUS
70
0
71
3
72
8
73
4
74
2
42
0.0000001000
43
0.0000001000
44
0.0000000001
12
-0.0163281660
22
-0.0233190498
32
0.0000000000
13
-0.0140691367
23
-0.0248121196
33
0.0000000000
40
0.0000000000
40
0.0000000000
40
0.0000000000
40
0.0000000000
40
1.0000000000
40
1.0000000000
40
1.0000000000
40
1.0000000000
10
18.0522510048
20
-12.7022112397
30
0.0000000000
10
18.0468082829
20
-12.7099842563
30
0.0000000000
10
18.0417293381
20
-12.7180280940
30
0.0000000000
10
18.0370396259
20
-12.7262988005
30
0.0000000000
11
18.0522510048
21
-12.7022112397
31
0.0000000000
11
18.0370396259
21
-12.7262988005
31
0.0000000000
0
SPLINE
5
296
100
AcDbEntity
8
0
100
AcDbSpline
62
7
6
CONTINUOUS
70
0
71
3
72
13
73
9
74
7
42
0.0000001000
43
0.0000001000
44
0.0000000001
12
-0.1667595972
22
-0.2940947388
32
0.0000000000
13
0.1935356735
23
-0.2763975046
33
0.0000000000
40
0.0000000000
40
0.0000000000
40
0.0000000000
40
0.0000000000
40
0.0962793409
40
0.2768848593
40
0.4575098767
40
0.6382156002
40
0.8190648381
40
1.0000000000
40
1.0000000000
40
1.0000000000
40
1.0000000000
10
18.0370396259
20
-12.7262988005
30
0.0000000000
10
18.0316877912
20
-12.7357372164
30
0.0000000000
10
18.0177544892
20
-12.7637303538
30
0.0000000000
10
18.0021759907
20
-12.8131296587
30
0.0000000000
10
17.9959165078
20
-12.8741887205
30
0.0000000000
10
18.0021393264
20
-12.9352796602
30
0.0000000000
10
18.0205846190
20
-12.9938642827
30
0.0000000000
10
18.0405786000
20
-13.0296871914
30
0.0000000000
10
18.0522510695
20
-13.0463572005
30
0.0000000000
11
18.0370396259
21
-12.7262988005
31
0.0000000000
11
18.0225426519
21
-12.7554350855
31
0.0000000000
11
18.0042083939
21
-12.8135514164
31
0.0000000000
11
17.9979966579
21
-12.8741803633
31
0.0000000000
11
18.0041719571
21
-12.9348404048
31
0.0000000000
11
18.0225040072
21
-12.9930436562
31
0.0000000000
11
18.0522510695
21
-13.0463572005
31
0.0000000000
0
SPLINE
5
297
100
AcDbEntity
8
0
100
AcDbSpline
62
7
6
CONTINUOUS
70
0
71
3
72
10
73
6
74
4
42
0.0000001000
43
0.0000001000
44
0.0000000001
12
-0.5119465273
22
-0.7311351979
32
0.0000000000
13
-0.5119465285
23
-0.7311351970
33
0.0000000000
40
0.0000000000
40
0.0000000000
40
0.0000000000
40
0.0000000000
40
0.4286352624
40
0.8571935887
40
1.0000000000
40
1.0000000000
40
1.0000000000
40
1.0000000000
10
18.7104462616
20
-11.7622112732
30
0.0000000000
10
18.6373001503
20
-11.8666747157
30
0.0000000000
10
18.4910210566
20
-12.0755828504
30
0.0000000000
10
18.3203722140
20
-12.3192945829
30
0.0000000000
10
18.2228694827
20
-12.4585428729
30
0.0000000000
10
18.1984997339
20
-12.4933464708
30
0.0000000000
11
18.7104462616
21
-11.7622112732
31
0.0000000000
11
18.4910079275
21
-12.0756016006
31
0.0000000000
11
18.2716089804
21
-12.3889356771
31
0.0000000000
11
18.1984997339
21
-12.4933464708
31
0.0000000000
0
SPLINE
5
298
100
AcDbEntity
8
0
100
AcDbSpline
62
7
6
CONTINUOUS
70
0
71
3
72
8
73
4
74
2
42
0.0000001000
43
0.0000001000
44
0.0000000001
12
-0.0731255193
22
-0.1044340336
32
0.0000000000
13
-0.0731255193
23
-0.1044340336
33
0.0000000000
40
0.0000000000
40
0.0000000000
40
0.0000000000
40
0.0000000000
40
1.0000000000
40
1.0000000000
40
1.0000000000
40
1.0000000000
10
18.1984997339
20
-12.4933464708
30
0.0000000000
10
18.1741245608
20
-12.5281578153
30
0.0000000000
10
18.1497493877
20
-12.5629691598
30
0.0000000000
10
18.1253742146
20
-12.5977805044
30
0.0000000000
11
18.1984997339
21
-12.4933464708
31
0.0000000000
11
18.1253742146
21
-12.5977805044
31
0.0000000000
0
SPLINE
5
299
100
AcDbEntity
8
0
100
AcDbSpline
62
7
6
CONTINUOUS
70
0
71
3
72
8
73
4
74
2
42
0.0000001000
43
0.0000001000
44
0.0000000001
12
-0.0731232098
22
-0.1044307353
32
0.0000000000
13
-0.0731232097
23
-0.1044307354
33
0.0000000000
40
0.0000000000
40
0.0000000000
40
0.0000000000
40
0.0000000000
40
1.0000000000
40
1.0000000000
40
1.0000000000
40
1.0000000000
10
18.1253742146
20
-12.5977805044
30
0.0000000000
10
18.1009998113
20
-12.6325907495
30
0.0000000000
10
18.0766254081
20
-12.6674009946
30
0.0000000000
10
18.0522510048
20
-12.7022112397
30
0.0000000000
11
18.1253742146
21
-12.5977805044
31
0.0000000000
11
18.0522510048
21
-12.7022112397
31
0.0000000000
0
SPLINE
5
29A
100
AcDbEntity
8
0
100
AcDbSpline
62
7
6
CONTINUOUS
70
0
71
3
72
8
73
4
74
2
42
0.0000001000
43
0.0000001000
44
0.0000000001
12
-0.0326564748
22
-0.0000000198
32
0.0000000000
13
-0.0325256120
23
-0.0035581159
33
0.0000000000
40
0.0000000000
40
0.0000000000
40
0.0000000000
40
0.0000000000
40
1.0000000000
40
1.0000000000
40
1.0000000000
40
1.0000000000
10
18.9561915946
20
-11.6342841902
30
0.0000000000
10
18.9453061030
20
-11.6342841968
30
0.0000000000
10
18.9344042070
20
-11.6348803606
30
0.0000000000
10
18.9235623363
20
-11.6360663992
30
0.0000000000
11
18.9561915946
21
-11.6342841902
31
0.0000000000
11
18.9235623363
21
-11.6360663992
31
0.0000000000
0
SPLINE
5
29B
100
AcDbEntity
8
0
100
AcDbSpline
62
7
6
CONTINUOUS
70
0
71
3
72
9
73
5
74
3
42
0.0000001000
43
0.0000001000
44
0.0000000001
12
-0.0318283446
22
-0.0034818388
32
0.0000000000
13
-0.0312710467
23
-0.0068516454
33
0.0000000000
40
0.0000000000
40
0.0000000000
40
0.0000000000
40
0.0000000000
40
0.7775813546
40
1.0000000000
40
1.0000000000
40
1.0000000000
40
1.0000000000
10
18.9235623363
20
-11.6360663992
30
0.0000000000
10
18.9153126272
20
-11.6369688702
30
0.0000000000
10
18.9047478738
20
-11.6385687039
30
0.0000000000
10
18.8942962892
20
-11.6407288150
30
0.0000000000
10
18.8919778679
20
-11.6412367929
30
0.0000000000
11
18.9235623363
21
-11.6360663992
31
0.0000000000
11
18.8989511423
21
-11.6397956340
31
0.0000000000
11
18.8919778679
21
-11.6412367929
31
0.0000000000
0
SPLINE
5
29C
100
AcDbEntity
8
0
100
AcDbSpline
62
7
6
CONTINUOUS
70
0
71
3
72
8
73
4
74
2
42
0.0000001000
43
0.0000001000
44
0.0000000001
12
-0.0318303586
22
-0.0069741935
32
0.0000000000
13
-0.0308757949
23
-0.0103794789
33
0.0000000000
40
0.0000000000
40
0.0000000000
40
0.0000000000
40
0.0000000000
40
1.0000000000
40
1.0000000000
40
1.0000000000
40
1.0000000000
10
18.8919778679
20
-11.6412367929
30
0.0000000000
10
18.8813677484
20
-11.6435615241
30
0.0000000000
10
18.8708876065
20
-11.6464628154
30
0.0000000000
10
18.8605956749
20
-11.6499226417
30
0.0000000000
11
18.8919778679
21
-11.6412367929
31
0.0000000000
11
18.8605956749
21
-11.6499226417
31
0.0000000000
0
SPLINE
5
29D
100
AcDbEntity
8
0
100
AcDbSpline
62
7
6
CONTINUOUS
70
0
71
3
72
9
73
5
74
3
42
0.0000001000
43
0.0000001000
44
0.0000000001
12
-0.0595863440
22
-0.0200310697
32
0.0000000000
13
-0.0541252006
23
-0.0319882701
33
0.0000000000
40
0.0000000000
40
0.0000000000
40
0.0000000000
40
0.0000000000
40
0.2846843992
40
1.0000000000
40
1.0000000000
40
1.0000000000
40
1.0000000000
10
18.8605956749
20
-11.6499226417
30
0.0000000000
10
18.8549412407
20
-11.6518234861
30
0.0000000000
10
18.8352786817
20
-11.6590927132
30
0.0000000000
10
18.8164362504
20
-11.6684052686
30
0.0000000000
10
18.8035307169
20
-11.6760325048
30
0.0000000000
11
18.8605956749
21
-11.6499226417
31
0.0000000000
11
18.8438124605
21
-11.6561279591
31
0.0000000000
11
18.8035307169
21
-11.6760325048
31
0.0000000000
0
SPLINE
5
29E
100
AcDbEntity
8
0
100
AcDbSpline
62
7
6
CONTINUOUS
70
0
71
3
72
9
73
5
74
3
42
0.0000001000
43
0.0000001000
44
0.0000000001
12
-0.0280558525
22
-0.0165811522
32
0.0000000000
13
-0.0260878188
23
-0.0195251882
33
0.0000000000
40
0.0000000000
40
0.0000000000
40
0.0000000000
40
0.0000000000
40
0.3874023667
40
1.0000000000
40
1.0000000000
40
1.0000000000
40
1.0000000000
10
18.8035307169
20
-11.6760325048
30
0.0000000000
10
18.7999077491
20
-11.6781736974
30
0.0000000000
10
18.7906723130
20
-11.6838972248
30
0.0000000000
10
18.7817602070
20
-11.6901161671
30
0.0000000000
10
18.7764330950
20
-11.6941031951
30
0.0000000000
11
18.8035307169
21
-11.6760325048
31
0.0000000000
11
18.7928006151
21
-11.6826826656
31
0.0000000000
11
18.7764330950
21
-11.6941031951
31
0.0000000000
0
SPLINE
5
29F
100
AcDbEntity
8
0
100
AcDbSpline
62
7
6
CONTINUOUS
70
0
71
3
72
8
73
4
74
2
42
0.0000001000
43
0.0000001000
44
0.0000000001
12
-0.0245877625
22
-0.0184024849
32
0.0000000000
13
-0.0225859226
23
-0.0208269002
33
0.0000000000
40
0.0000000000
40
0.0000000000
40
0.0000000000
40
0.0000000000
40
1.0000000000
40
1.0000000000
40
1.0000000000
40
1.0000000000
10
18.7764330950
20
-11.6941031951
30
0.0000000000
10
18.7682371742
20
-11.7002373567
30
0.0000000000
10
18.7603547085
20
-11.7067912448
30
0.0000000000
10
18.7528260676
20
-11.7137335449
30
0.0000000000
11
18.7764330950
21
-11.6941031951
31
0.0000000000
11
18.7528260676
21
-11.7137335449
31
0.0000000000
0
SPLINE
5
2A0
100
AcDbEntity
8
0
100
AcDbSpline
62
7
6
CONTINUOUS
70
0
71
3
72
9
73
5
74
3
42
0.0000001000
43
0.0000001000
44
0.0000000001
12
-0.0474370334
22
-0.0437425728
32
0.0000000000
13
-0.0369457105
23
-0.0527635394
33
0.0000000000
40
0.0000000000
40
0.0000000000
40
0.0000000000
40
0.0000000000
40
0.1072468128
40
1.0000000000
40
1.0000000000
40
1.0000000000
40
1.0000000000
10
18.7528260676
20
-11.7137335449
30
0.0000000000
10
18.7511302441
20
-11.7152972954
30
0.0000000000
10
18.7354852906
20
-11.7300619068
30
0.0000000000
10
18.7214412512
20
-11.7465087767
30
0.0000000000
10
18.7104467843
20
-11.7622103827
30
0.0000000000
11
18.7528260676
21
-11.7137335449
31
0.0000000000
11
18.7477929148
21
-11.7184835596
31
0.0000000000
11
18.7104467843
21
-11.7622103827
31
0.0000000000
0
SPLINE
5
2A1
100
AcDbEntity
8
0
100
AcDbSpline
62
7
6
CONTINUOUS
70
0
71
3
72
8
73
4
74
2
42
0.0000001000
43
0.0000001000
44
0.0000000001
12
-0.0400016926
22
0.0738549126
32
0.0000000000
13
-0.0423940202
23
0.0725066793
33
0.0000000000
40
0.0000000000
40
0.0000000000
40
0.0000000000
40
0.0000000000
40
1.0000000000
40
1.0000000000
40
1.0000000000
40
1.0000000000
10
26.8274844639
20
-11.6555210246
30
0.0000000000
10
26.8141505664
20
-11.6309027204
30
0.0000000000
10
26.8004124844
20
-11.6065039709
30
0.0000000000
10
26.7862811444
20
-11.5823350778
30
0.0000000000
11
26.8274844639
21
-11.6555210246
31
0.0000000000
11
26.7862811444
21
-11.5823350778
31
0.0000000000
0
SPLINE
5
2A2
100
AcDbEntity
8
0
100
AcDbSpline
62
7
6
CONTINUOUS
70
0
71
3
72
8
73
4
74
2
42
0.0000001000
43
0.0000001000
44
0.0000000001
12
-0.1074417923
22
-0.1638986538
32
0.0000000000
13
-0.0946810007
23
-0.1714456430
33
0.0000000000
40
0.0000000000
40
0.0000000000
40
0.0000000000
40
0.0000000000
40
1.0000000000
40
1.0000000000
40
1.0000000000
40
1.0000000000
10
22.4262563419
20
-11.4664937009
30
0.0000000000
10
22.3904424111
20
-11.5211265855
30
0.0000000000
10
22.3567311528
20
-11.5771356425
30
0.0000000000
10
22.3251708193
20
-11.6342841902
30
0.0000000000
11
22.4262563419
21
-11.4664937009
31
0.0000000000
11
22.3251708193
21
-11.6342841902
31
0.0000000000
0
SPLINE
5
2A3
100
AcDbEntity
8
0
100
AcDbSpline
62
7
6
CONTINUOUS
70
0
71
3
72
8
73
4
74
2
42
0.0000001000
43
0.0000001000
44
0.0000000001
12
-0.0318781585
22
-0.0653149053
32
0.0000000000
13
-0.0342773564
23
-0.0640888937
33
0.0000000000
40
0.0000000000
40
0.0000000000
40
0.0000000000
40
0.0000000000
40
1.0000000000
40
1.0000000000
40
1.0000000000
40
1.0000000000
10
26.3364277766
20
-13.7361543916
30
0.0000000000
10
26.3258017238
20
-13.7579260268
30
0.0000000000
10
26.3147713502
20
-13.7795003350
30
0.0000000000
10
26.3033455647
20
-13.8008632995
30
0.0000000000
11
26.3364277766
21
-13.7361543916
31
0.0000000000
11
26.3033455647
21
-13.8008632995
31
0.0000000000
0
SPLINE
5
2A4
100
AcDbEntity
8
0
100
AcDbSpline
62
7
6
CONTINUOUS
70
0
71
3
72
8
73
4
74
2
42
0.0000001000
43
0.0000001000
44
0.0000000001
12
-0.0765304819
22
0.1376770667
32
0.0000000000
13
-0.0653258350
23
0.1432119079
33
0.0000000000
40
0.0000000000
40
0.0000000000
40
0.0000000000
40
0.0000000000
40
1.0000000000
40
1.0000000000
40
1.0000000000
40
1.0000000000
10
22.8536801856
20
-13.8303312451
30
0.0000000000
10
22.8281700250
20
-13.7844388895
30
0.0000000000
10
22.8045133293
20
-13.7375180670
30
0.0000000000
10
22.7827380510
20
-13.6897807644
30
0.0000000000
11
22.8536801856
21
-13.8303312451
31
0.0000000000
11
22.7827380510
21
-13.6897807644
31
0.0000000000
0
SPLINE
5
2A5
100
AcDbEntity
8
0
100
AcDbSpline
62
7
6
CONTINUOUS
70
0
71
3
72
27
73
23
74
21
42
0.0000001000
43
0.0000001000
44
0.0000000001
12
2.0393435767
22
0.0000000000
32
0.0000000000
13
-2.0393435767
23
-0.0000000000
33
0.0000000000
40
0.0000000000
40
0.0000000000
40
0.0000000000
40
0.0000000000
40
0.0452871216
40
0.0902867489
40
0.1356998227
40
0.1812466864
40
0.2724195190
40
0.3178198257
40
0.3632605640
40
0.4091357486
40
0.4550080138
40
0.5004271355
40
0.5458269414
40
0.5916165659
40
0.6374134328
40
0.6828740936
40
0.7282931677
40
0.8192971123
40
0.8646158613
40
0.9098096703
40
0.9547198487
40
1.0000000000
40
1.0000000000
40
1.0000000000
40
1.0000000000
10
25.4255270716
20
-12.2242842040
30
0.0000000000
10
25.4563124051
20
-12.2242842040
30
0.0000000000
10
25.5177782694
20
-12.2286604155
30
0.0000000000
10
25.6082234763
20
-12.2482076673
30
0.0000000000
10
25.6952018851
20
-12.2804430423
30
0.0000000000
10
25.8042988248
20
-12.3396556299
30
0.0000000000
10
25.8995148400
20
-12.4219358100
30
0.0000000000
10
25.9738920140
20
-12.5212125615
30
0.0000000000
10
26.0186784610
20
-12.6030279381
30
0.0000000000
10
26.0514074480
20
-12.6906945700
30
0.0000000000
10
26.0712153936
20
-12.7821416361
30
0.0000000000
10
26.0777326312
20
-12.8751486474
30
0.0000000000
10
26.0709720263
20
-12.9680815424
30
0.0000000000
10
26.0509620530
20
-13.0593574809
30
0.0000000000
10
26.0180704226
20
-13.1468591817
30
0.0000000000
10
25.9731206457
20
-13.2285544909
30
0.0000000000
10
25.8985764998
20
-13.3275955739
30
0.0000000000
10
25.8034015532
20
-13.4095118602
30
0.0000000000
10
25.6945975150
20
-13.4683755680
30
0.0000000000
10
25.6079447558
20
-13.5004263351
30
0.0000000000
10
25.5177079278
20
-13.5199132770
30
0.0000000000
10
25.4563076668
20
-13.5242841440
30
0.0000000000
10
25.4255270716
20
-13.5242841440
30
0.0000000000
11
25.4255270716
21
-12.2242842040
31
0.0000000000
11
25.5176497115
21
-12.2308454588
31
0.0000000000
11
25.6073482983
21
-12.2502320908
31
0.0000000000
11
25.6941925783
21
-12.2824068163
31
0.0000000000
11
25.7758131517
21
-12.3267445652
31
0.0000000000
11
25.9164957691
21
-12.4483150447
31
0.0000000000
11
25.9720365154
21
-12.5223930134
31
0.0000000000
11
26.0165232675
21
-12.6036858416
31
0.0000000000
11
26.0492482252
21
-12.6913309464
31
0.0000000000
11
26.0690512199
21
-12.7827602343
31
0.0000000000
11
26.0755264531
21
-12.8751588162
31
0.0000000000
11
26.0688082446
21
-12.9675005538
31
0.0000000000
11
26.0488127831
21
-13.0587154153
31
0.0000000000
11
26.0159471455
21
-13.1461372544
31
0.0000000000
11
25.9712656912
21
-13.2273696028
31
0.0000000000
11
25.9155378738
21
-13.3013548645
31
0.0000000000
11
25.7748760915
21
-13.4224221340
31
0.0000000000
11
25.6936047453
21
-13.4664280094
31
0.0000000000
11
25.6071590359
21
-13.4983913687
31
0.0000000000
11
25.5176356044
21
-13.5177249087
31
0.0000000000
11
25.4255270716
21
-13.5242841440
31
0.0000000000
0
SPLINE
5
2A6
100
AcDbEntity
8
0
100
AcDbSpline
62
7
6
CONTINUOUS
70
0
71
3
72
27
73
23
74
21
42
0.0000001000
43
0.0000001000
44
0.0000000001
12
-2.0393435602
22
0.0000000000
32
0.0000000000
13
2.0393435602
23
0.0000000000
33
0.0000000000
40
0.0000000000
40
0.0000000000
40
0.0000000000
40
0.0000000000
40
0.0452676949
40
0.0902536585
40
0.1356597081
40
0.1812029326
40
0.2723720258
40
0.3177748347
40
0.3632197893
40
0.4091002321
40
0.4549772177
40
0.5003973133
40
0.5457959573
40
0.5915809142
40
0.6373725953
40
0.6828289275
40
0.7282455035
40
0.8192542777
40
0.8645783406
40
0.9097802926
40
0.9547030873
40
1.0000000000
40
1.0000000000
40
1.0000000000
40
1.0000000000
10
25.4255270716
20
-13.5242841440
30
0.0000000000
10
25.3947549442
20
-13.5242841440
30
0.0000000000
10
25.3333116899
20
-13.5199114268
30
0.0000000000
10
25.2428917757
20
-13.5003774643
30
0.0000000000
10
25.1559253134
20
-13.4681579072
30
0.0000000000
10
25.0468292430
20
-13.4089644131
30
0.0000000000
10
24.9516041027
20
-13.3267002241
30
0.0000000000
10
24.8772112290
20
-13.2274326376
30
0.0000000000
10
24.8324097862
20
-13.1456160896
30
0.0000000000
10
24.7996668582
20
-13.0579442488
30
0.0000000000
10
24.7798477707
20
-12.9664918812
30
0.0000000000
10
24.7733214411
20
-12.8734823982
30
0.0000000000
10
24.7800729094
20
-12.7805521740
30
0.0000000000
10
24.8000716856
20
-12.6892815451
30
0.0000000000
10
24.8329493513
20
-12.6017850095
30
0.0000000000
10
24.8778840899
20
-12.5200908508
30
0.0000000000
10
24.9524129103
20
-12.4210400038
30
0.0000000000
10
25.0475803646
20
-12.3391065735
30
0.0000000000
10
25.1563879982
20
-12.2802231537
30
0.0000000000
10
25.2430541749
20
-12.2481570548
30
0.0000000000
10
25.3333147519
20
-12.2286581250
30
0.0000000000
10
25.3947350825
20
-12.2242842040
30
0.0000000000
10
25.4255270716
20
-12.2242842040
30
0.0000000000
11
25.4255270716
21
-13.5242841440
31
0.0000000000
11
25.3334437497
21
-13.5177285172
31
0.0000000000
11
25.2437707992
21
-13.4983551783
31
0.0000000000
11
25.1569362493
21
-13.4661954268
31
0.0000000000
11
25.0753163511
21
-13.4218719863
31
0.0000000000
11
24.9346220550
21
-13.3003266902
31
0.0000000000
11
24.8790674660
21
-13.2262527244
31
0.0000000000
11
24.8345656127
21
-13.1449583602
31
0.0000000000
11
24.8018263785
21
-13.0573071411
31
0.0000000000
11
24.7820118011
21
-12.9658705135
31
0.0000000000
11
24.7755276108
21
-12.8734705696
31
0.0000000000
11
24.7822368075
21
-12.7811305531
31
0.0000000000
11
24.8022206627
21
-12.6899228936
31
0.0000000000
11
24.8350720539
21
-12.6025069986
31
0.0000000000
11
24.8797382579
21
-12.5212763385
31
0.0000000000
11
24.9354522004
21
-12.4472870057
31
0.0000000000
11
25.0761042067
21
-12.3261932851
31
0.0000000000
11
25.1573795195
21
-12.2821719791
31
0.0000000000
11
25.2438374400
21
-12.2501937648
31
0.0000000000
11
25.3333846165
21
-12.2308482960
31
0.0000000000
11
25.4255270716
21
-12.2242842040
31
0.0000000000
0
SPLINE
5
2A7
100
AcDbEntity
8
0
100
AcDbSpline
62
7
6
CONTINUOUS
70
0
71
3
72
12
73
8
74
6
42
0.0000001000
43
0.0000001000
44
0.0000000001
12
-0.1680420259
22
-0.2014268783
32
0.0000000000
13
-0.2623183367
23
0.0000000002
33
0.0000000000
40
0.0000000000
40
0.0000000000
40
0.0000000000
40
0.0000000000
40
0.1999157797
40
0.3998760421
40
0.5998764859
40
0.7999176025
40
1.0000000000
40
1.0000000000
40
1.0000000000
40
1.0000000000
10
19.8750937623
20
-14.0064652025
30
0.0000000000
10
19.8638956781
20
-14.0198880063
30
0.0000000000
10
19.8390888015
20
-14.0448280428
30
0.0000000000
10
19.7959743742
20
-14.0751477714
30
0.0000000000
10
19.7482108399
20
-14.0975094542
30
0.0000000000
10
19.6972912297
20
-14.1112078576
30
0.0000000000
10
19.6622272753
20
-14.1142841832
30
0.0000000000
10
19.6447321814
20
-14.1142841832
30
0.0000000000
11
19.8750937623
21
-14.0064652025
31
0.0000000000
11
19.8381085088
21
-14.0436432846
31
0.0000000000
11
19.7952041460
21
-14.0738187448
31
0.0000000000
11
19.7476898459
21
-14.0960637419
31
0.0000000000
11
19.6970162699
21
-14.1096930087
31
0.0000000000
11
19.6447321814
21
-14.1142841832
31
0.0000000000
0
SPLINE
5
2A8
100
AcDbEntity
8
0
100
AcDbSpline
62
7
6
CONTINUOUS
70
0
71
3
72
23
73
19
74
17
42
0.0000001000
43
0.0000001000
44
0.0000000001
12
0.6024790778
22
0.7221736110
32
0.0000000000
13
-0.6024791853
23
-0.7221735212
33
0.0000000000
40
0.0000000000
40
0.0000000000
40
0.0000000000
40
0.0000000000
40
0.0554122912
40
0.1102684941
40
0.1658923196
40
0.2216349670
40
0.2773045065
40
0.3329190980
40
0.4433948676
40
0.5544271026
40
0.6101240502
40
0.6657741701
40
0.7212606424
40
0.7768341365
40
0.8328811605
40
0.8889294360
40
0.9441684633
40
1.0000000000
40
1.0000000000
40
1.0000000000
40
1.0000000000
10
19.9076349284
20
-13.0308417168
30
0.0000000000
10
19.9187631771
20
-13.0175026187
30
0.0000000000
10
19.9432739976
20
-12.9928334221
30
0.0000000000
10
19.9859379724
20
-12.9626687001
30
0.0000000000
10
20.0332814803
20
-12.9402579649
30
0.0000000000
10
20.0840416071
20
-12.9263548910
30
0.0000000000
10
20.1364574699
20
-12.9215023348
30
0.0000000000
10
20.2060411373
20
-12.9272095704
30
0.0000000000
10
20.2896478768
20
-12.9570197257
30
0.0000000000
10
20.3579435095
20
-13.0137945215
30
0.0000000000
10
20.3983690619
20
-13.0709567403
30
0.0000000000
10
20.4208271236
20
-13.1184981656
30
0.0000000000
10
20.4346703662
20
-13.1691662881
30
0.0000000000
10
20.4395318442
20
-13.2215955281
30
0.0000000000
10
20.4351658425
20
-13.2742494125
30
0.0000000000
10
20.4216749229
20
-13.3252283867
30
0.0000000000
10
20.3995741841
20
-13.3730046386
30
0.0000000000
10
20.3795707285
20
-13.4017638533
30
0.0000000000
10
20.3683582822
20
-13.4152038725
30
0.0000000000
11
19.9076349284
21
-13.0308417168
31
0.0000000000
11
19.9443693061
21
-12.9938753724
31
0.0000000000
11
19.9864934306
21
-12.9640887039
31
0.0000000000
11
20.0337773762
21
-12.9417072590
31
0.0000000000
11
20.0843407618
21
-12.9278599049
31
0.0000000000
11
20.1364736603
21
-12.9230265213
31
0.0000000000
11
20.1886018136
21
-12.9273215972
31
0.0000000000
11
20.2864317164
21
-12.9623177787
31
0.0000000000
11
20.3668010378
21
-13.0289902736
31
0.0000000000
11
20.3970633289
21
-13.0717464929
31
0.0000000000
11
20.4194119408
21
-13.1190733152
31
0.0000000000
11
20.4331676813
21
-13.1694119811
31
0.0000000000
11
20.4379926435
21
-13.2214549436
31
0.0000000000
11
20.4336362819
21
-13.2739861150
31
0.0000000000
11
20.4201524665
21
-13.3249450462
31
0.0000000000
11
20.3983379649
21
-13.3720947526
31
0.0000000000
11
20.3683582822
21
-13.4152038725
31
0.0000000000
0
SPLINE
5
2A9
100
AcDbEntity
8
0
100
AcDbSpline
62
7
6
CONTINUOUS
70
0
71
3
72
13
73
9
74
7
42
0.0000001000
43
0.0000001000
44
0.0000000001
12
-0.1420725770
22
-0.3114615314
32
0.0000000000
13
-0.3423344895
23
0.0000000000
33
0.0000000000
40
0.0000000000
40
0.0000000000
40
0.0000000000
40
0.0000000000
40
0.1668446503
40
0.3337230921
40
0.5004325187
40
0.6670059104
40
0.8334884708
40
1.0000000000
40
1.0000000000
40
1.0000000000
40
1.0000000000
10
22.7827379664
20
-12.0587873906
30
0.0000000000
10
22.7748366166
20
-12.0761092874
30
0.0000000000
10
22.7556728387
20
-12.1093335225
30
0.0000000000
10
22.7180565371
20
-12.1527380535
30
0.0000000000
10
22.6729127947
20
-12.1882275469
30
0.0000000000
10
22.6219055613
20
-12.2145038145
30
0.0000000000
10
22.5668912456
20
-12.2306523699
30
0.0000000000
10
22.5287938794
20
-12.2342841840
30
0.0000000000
10
22.5097929996
20
-12.2342841840
30
0.0000000000
11
22.7827379664
21
-12.0587873906
31
0.0000000000
11
22.7541947340
21
-12.1082606037
31
0.0000000000
11
22.7167840306
21
-12.1514355475
31
0.0000000000
11
22.6719161971
21
-12.1867046066
31
0.0000000000
11
22.6212246892
21
-12.2128213968
31
0.0000000000
11
22.5665378076
21
-12.2288686826
31
0.0000000000
11
22.5097929996
21
-12.2342841840
31
0.0000000000
0
SPLINE
5
2AA
100
AcDbEntity
8
0
100
AcDbSpline
62
7
6
CONTINUOUS
70
0
71
3
72
24
73
20
74
18
42
0.0000001000
43
0.0000001000
44
0.0000000001
12
2.5597104292
22
-5.6115776322
32
0.0000000000
13
-2.5808200060
23
5.6163166078
33
0.0000000000
40
0.0000000000
40
0.0000000000
40
0.0000000000
40
0.0000000000
40
0.0360216069
40
0.0717417267
40
0.1076888729
40
0.1437725357
40
0.1798124436
40
0.2158205923
40
0.2877374386
40
0.3596231809
40
0.4314773425
40
0.5033128492
40
0.5751765112
40
0.6470890001
40
0.7190351315
40
0.7909736497
40
0.8629027546
40
0.9348148236
40
1.0000000000
40
1.0000000000
40
1.0000000000
40
1.0000000000
10
22.7827380679
20
-13.6897808015
30
0.0000000000
10
22.8134730289
20
-13.7571601494
30
0.0000000000
10
22.8821507440
20
-13.8881152992
30
0.0000000000
10
23.0070895352
20
-14.0714530462
30
0.0000000000
10
23.1519041679
20
-14.2397050872
30
0.0000000000
10
23.3149429562
20
-14.3913355294
30
0.0000000000
10
23.4943612495
20
-14.5234642043
30
0.0000000000
10
23.7514581173
20
-14.6711544523
30
0.0000000000
10
24.1016687951
20
-14.7998857491
30
0.0000000000
10
24.5452371175
20
-14.8559183678
30
0.0000000000
10
24.9900091517
20
-14.8111817665
30
0.0000000000
10
25.4133749877
20
-14.6679204523
30
0.0000000000
10
25.7939846897
20
-14.4333718141
30
0.0000000000
10
26.1124833003
20
-14.1192939402
30
0.0000000000
10
26.3524925202
20
-13.7416378247
30
0.0000000000
10
26.5016581004
20
-13.3197278517
30
0.0000000000
10
26.5523599646
20
-12.8751789251
30
0.0000000000
10
26.5036302799
20
-12.4445014486
30
0.0000000000
10
26.4120555848
20
-12.1757187517
30
0.0000000000
10
26.3559785156
20
-12.0536852221
30
0.0000000000
11
22.7827380679
21
-13.6897808015
31
0.0000000000
11
22.8861089566
21
-13.8864429192
31
0.0000000000
11
23.0100982950
21
-14.0685565001
31
0.0000000000
11
23.1546745202
21
-14.2366498775
31
0.0000000000
11
23.3177281880
21
-14.3881267772
31
0.0000000000
11
23.4966957976
21
-14.5199687035
31
0.0000000000
11
23.6892755022
21
-14.6305928825
31
0.0000000000
11
24.1056555473
21
-14.7835037080
31
0.0000000000
11
24.5455307126
21
-14.8391251622
31
0.0000000000
11
24.9864869196
21
-14.7947535165
31
0.0000000000
11
25.4061794562
21
-14.6527414659
31
0.0000000000
11
25.7835239470
21
-14.4202026607
31
0.0000000000
11
26.0993403295
21
-14.1087701104
31
0.0000000000
11
26.3373547705
21
-13.7342524733
31
0.0000000000
11
26.4852541107
21
-13.3159243148
31
0.0000000000
11
26.5355270565
21
-12.8751366395
31
0.0000000000
11
26.4856602544
21
-12.4344085771
31
0.0000000000
11
26.3559785156
21
-12.0536852221
31
0.0000000000
0
SPLINE
5
2AB
100
AcDbEntity
8
0
100
AcDbSpline
62
7
6
CONTINUOUS
70
0
71
3
72
23
73
19
74
17
42
0.0000001000
43
0.0000001000
44
0.0000000001
12
-0.3903124566
22
0.8556704905
32
0.0000000000
13
0.3903124606
23
-0.8556704886
33
0.0000000000
40
0.0000000000
40
0.0000000000
40
0.0000000000
40
0.0000000000
40
0.0554610332
40
0.1103711007
40
0.1660663679
40
0.2218828458
40
0.2776191457
40
0.3332901942
40
0.4438181820
40
0.5548077069
40
0.6104566279
40
0.6660483965
40
0.7214666028
40
0.7769730801
40
0.8329665162
40
0.8889714725
40
0.9441840566
40
1.0000000000
40
1.0000000000
40
1.0000000000
40
1.0000000000
10
22.2368479361
20
-13.9387875562
30
0.0000000000
10
22.2296322254
20
-13.9229687664
30
0.0000000000
10
22.2179917710
20
-13.8901643995
30
0.0000000000
10
22.2092645934
20
-13.8385916999
30
0.0000000000
10
22.2095729458
20
-13.7861492988
30
0.0000000000
10
22.2190529536
20
-13.7343117905
30
0.0000000000
10
22.2374276730
20
-13.6849159262
30
0.0000000000
10
22.2727793599
20
-13.6246455220
30
0.0000000000
10
22.3359301381
20
-13.5622369750
30
0.0000000000
10
22.4167029819
20
-13.5253463402
30
0.0000000000
10
22.4856961441
20
-13.5137255352
30
0.0000000000
10
22.5382181749
20
-13.5141035363
30
0.0000000000
10
22.5898188982
20
-13.5235790500
30
0.0000000000
10
22.6391217496
20
-13.5418917789
30
0.0000000000
10
22.6846457006
20
-13.5686041984
30
0.0000000000
10
22.7247284407
20
-13.6028107942
30
0.0000000000
10
22.7582136854
20
-13.6433927615
30
0.0000000000
10
22.7754761818
20
-13.6738607829
30
0.0000000000
10
22.7827380679
20
-13.6897808015
30
0.0000000000
11
22.2368479361
21
-13.9387875562
31
0.0000000000
11
22.2194083244
21
-13.8896289834
31
0.0000000000
11
22.2107889498
21
-13.8387111703
31
0.0000000000
11
22.2110979330
21
-13.7863314067
31
0.0000000000
11
22.2205432465
21
-13.7346934687
31
0.0000000000
11
22.2388125377
21
-13.6855608685
31
0.0000000000
11
22.2653193828
21
-13.6404084976
31
0.0000000000
11
22.3393323198
21
-13.5674172932
31
0.0000000000
11
22.4342376541
21
-13.5239542065
31
0.0000000000
11
22.4858444183
21
-13.5152414251
31
0.0000000000
11
22.5381263472
21
-13.5156249675
31
0.0000000000
11
22.5893897456
21
-13.5250360828
31
0.0000000000
11
22.6383259493
21
-13.5432133695
31
0.0000000000
11
22.6837449946
21
-13.5698648547
31
0.0000000000
11
22.7238116438
21
-13.6040554412
31
0.0000000000
11
22.7568574110
21
-13.6441099200
31
0.0000000000
11
22.7827380679
21
-13.6897808015
31
0.0000000000
0
SPLINE
5
2AC
100
AcDbEntity
8
0
100
AcDbSpline
62
7
6
CONTINUOUS
70
0
71
3
72
37
73
33
74
31
42
0.0000001000
43
0.0000001000
44
0.0000000001
12
3.9569836019
22
7.1651925185
32
0.0000000000
13
-4.3275530568
23
-6.9523414945
33
0.0000000000
40
0.0000000000
40
0.0000000000
40
0.0000000000
40
0.0000000000
40
0.0335697151
40
0.0668861290
40
0.1003957912
40
0.1339883740
40
0.1674884114
40
0.2009842551
40
0.2345756330
40
0.2681552113
40
0.3016207505
40
0.3351016821
40
0.3687194735
40
0.4023218318
40
0.4357642307
40
0.4692182911
40
0.5028491587
40
0.5364698708
40
0.5698989060
40
0.6033372736
40
0.6369810042
40
0.6706161398
40
0.7040321465
40
0.7374477330
40
0.7710804563
40
0.8047119934
40
0.8381247719
40
0.8715412510
40
0.9051837388
40
0.9388335030
40
0.9722699325
40
1.0000000000
40
1.0000000000
40
1.0000000000
40
1.0000000000
10
22.3251708193
20
-11.6342841902
30
0.0000000000
10
22.3694490900
20
-11.5541063662
30
0.0000000000
10
22.4661070466
20
-11.3988245684
30
0.0000000000
10
22.6356240341
20
-11.1830067900
30
0.0000000000
10
22.8272365212
20
-10.9864557091
30
0.0000000000
10
23.0387618228
20
-10.8107250289
30
0.0000000000
10
23.2679459632
20
-10.6587701842
30
0.0000000000
10
23.5121690022
20
-10.5324122402
30
0.0000000000
10
23.7687137516
20
-10.4328767084
30
0.0000000000
10
24.0342382009
20
-10.3609536104
30
0.0000000000
10
24.3056523832
20
-10.3179009011
30
0.0000000000
10
24.5802347298
20
-10.3043717096
30
0.0000000000
10
24.8550366573
20
-10.3204253293
30
0.0000000000
10
25.1265235599
20
-10.3652423252
30
0.0000000000
10
25.3912496788
20
-10.4387247642
30
0.0000000000
10
25.6465408926
20
-10.5404630859
30
0.0000000000
10
25.8898475868
20
-10.6692300515
30
0.0000000000
10
26.1182767802
20
-10.8227223036
30
0.0000000000
10
26.3285884680
20
-10.9994535414
30
0.0000000000
10
26.5185144831
20
-11.1980209567
30
0.0000000000
10
26.6863688245
20
-11.4162414927
30
0.0000000000
10
26.8304831823
20
-11.6507444561
30
0.0000000000
10
26.9484068130
20
-11.8987925629
30
0.0000000000
10
27.0386584304
20
-12.1581866117
30
0.0000000000
10
27.1007245914
20
-12.4263019085
30
0.0000000000
10
27.1344847601
20
-12.6994206091
30
0.0000000000
10
27.1387913084
20
-12.9740234927
30
0.0000000000
10
27.1131986937
20
-13.2474952338
30
0.0000000000
10
27.0583374282
20
-13.5172574336
30
0.0000000000
10
26.9756072417
20
-13.7798744641
30
0.0000000000
10
26.8716622125
20
-14.0173263072
30
0.0000000000
10
26.7897349638
20
-14.1630069412
30
0.0000000000
10
26.7497338510
20
-14.2272699075
30
0.0000000000
11
22.3251708193
21
-11.6342841902
31
0.0000000000
11
22.4705735778
21
-11.4011330027
31
0.0000000000
11
22.6389461192
21
-11.1866172042
31
0.0000000000
11
22.8303323019
21
-10.9901410485
31
0.0000000000
11
23.0419140115
21
-10.8145349079
31
0.0000000000
11
23.2704604436
21
-10.6630262667
31
0.0000000000
11
23.5139520060
21
-10.5370049368
31
0.0000000000
11
23.7702556405
21
-10.4374692157
31
0.0000000000
11
24.0355732131
21
-10.3656890163
31
0.0000000000
11
24.3061206878
21
-10.3228214697
31
0.0000000000
11
24.5798354982
21
-10.3093009671
31
0.0000000000
11
24.8545426561
21
-10.3252329021
31
0.0000000000
11
25.1258960196
21
-10.3701294197
31
0.0000000000
11
25.3896373917
21
-10.4434118899
31
0.0000000000
11
25.6440315097
21
-10.5447318317
31
0.0000000000
11
25.8873970428
21
-10.6733785633
31
0.0000000000
11
26.1157454508
21
-10.8269624527
31
0.0000000000
11
26.3251713599
21
-11.0030611414
31
0.0000000000
11
26.5144092698
21
-11.2008003176
31
0.0000000000
11
26.6824229188
21
-11.4189886640
31
0.0000000000
11
26.8264531265
21
-11.6536187943
31
0.0000000000
11
26.9438056755
21
-11.9006815220
31
0.0000000000
11
27.0337691184
21
-12.1589765266
31
0.0000000000
11
27.0959975009
21
-12.4271420631
31
0.0000000000
11
27.1296240728
21
-12.7003618192
31
0.0000000000
11
27.1338197298
21
-12.9738203248
31
0.0000000000
11
27.1084267494
21
-13.2461600462
31
0.0000000000
11
27.0536897235
21
-13.5160359369
31
0.0000000000
11
26.9707911213
21
-13.7786949653
31
0.0000000000
11
26.8609624495
21
-14.0293755342
31
0.0000000000
11
26.7497338510
21
-14.2272699075
31
0.0000000000
0
SPLINE
5
2AD
100
AcDbEntity
8
0
100
AcDbSpline
62
7
6
CONTINUOUS
70
0
71
3
72
12
73
8
74
6
42
0.0000001000
43
0.0000001000
44
0.0000000001
12
0.1649246011
22
0.2355366704
32
0.0000000000
13
0.2875372100
23
-0.0000000000
33
0.0000000000
40
0.0000000000
40
0.0000000000
40
0.0000000000
40
0.0000000000
40
0.1999933618
40
0.4000021671
40
0.6000098754
40
0.8000072503
40
1.0000000000
40
1.0000000000
40
1.0000000000
40
1.0000000000
10
18.7104461939
20
-11.7622112258
30
0.0000000000
10
18.7214408024
20
-11.7465093023
30
0.0000000000
10
18.7465178955
20
-11.7171416039
30
0.0000000000
10
18.7917905510
20
-11.6811352110
30
0.0000000000
10
18.8431232541
20
-11.6544134807
30
0.0000000000
10
18.8985842371
20
-11.6379813979
30
0.0000000000
10
18.9370233232
20
-11.6342841902
30
0.0000000000
10
18.9561917756
20
-11.6342841902
30
0.0000000000
11
18.7104461939
21
-11.7622112258
31
0.0000000000
11
18.7477929148
21
-11.7184835596
31
0.0000000000
11
18.7928006151
21
-11.6826826656
31
0.0000000000
11
18.8438124605
21
-11.6561279591
31
0.0000000000
11
18.8989511423
21
-11.6397956340
31
0.0000000000
11
18.9561917756
21
-11.6342841902
31
0.0000000000
0
SPLINE
5
2AE
100
AcDbEntity
8
0
100
AcDbSpline
62
7
6
CONTINUOUS
70
0
71
3
72
13
73
9
74
7
42
0.0000001000
43
0.0000001000
44
0.0000000001
12
-0.2098639138
22
0.2997166415
32
0.0000000000
13
0.2098639137
23
0.2997166416
33
0.0000000000
40
0.0000000000
40
0.0000000000
40
0.0000000000
40
0.0000000000
40
0.1668576926
40
0.3336361464
40
0.5002822519
40
0.6668539305
40
0.8334076271
40
1.0000000000
40
1.0000000000
40
1.0000000000
40
1.0000000000
10
18.0522510695
20
-13.0463572005
30
0.0000000000
10
18.0405786000
20
-13.0296871914
30
0.0000000000
10
18.0205846190
20
-12.9938642827
30
0.0000000000
10
18.0021393264
20
-12.9352796602
30
0.0000000000
10
17.9959165078
20
-12.8741887205
30
0.0000000000
10
18.0021759907
20
-12.8131296587
30
0.0000000000
10
18.0206272765
20
-12.7546207662
30
0.0000000000
10
18.0405971613
20
-12.7188546483
30
0.0000000000
10
18.0522510704
20
-12.7022111461
30
0.0000000000
11
18.0522510695
21
-13.0463572005
31
0.0000000000
11
18.0225040072
21
-12.9930436562
31
0.0000000000
11
18.0041719571
21
-12.9348404048
31
0.0000000000
11
17.9979966579
21
-12.8741803633
31
0.0000000000
11
18.0042083939
21
-12.8135514164
31
0.0000000000
11
18.0225426519
21
-12.7554350855
31
0.0000000000
11
18.0522510704
21
-12.7022111461
31
0.0000000000
0
SPLINE
5
2AF
100
AcDbEntity
8
0
100
AcDbSpline
62
7
6
CONTINUOUS
70
0
71
3
72
12
73
8
74
6
42
0.0000001000
43
0.0000001000
44
0.0000000001
12
-0.2875372708
22
0.0000000002
32
0.0000000000
13
-0.1649245218
23
0.2355368001
33
0.0000000000
40
0.0000000000
40
0.0000000000
40
0.0000000000
40
0.0000000000
40
0.2002865562
40
0.4004034707
40
0.6004201957
40
0.8002682312
40
1.0000000000
40
1.0000000000
40
1.0000000000
40
1.0000000000
10
18.9561917650
20
-14.1142840897
30
0.0000000000
10
18.9369951485
20
-14.1142840896
30
0.0000000000
10
18.8985159866
20
-14.1105775361
30
0.0000000000
10
18.8430212298
20
-14.0941148378
30
0.0000000000
10
18.7917019832
20
-14.0673738426
30
0.0000000000
10
18.7464728273
20
-14.0313776429
30
0.0000000000
10
18.7214263924
20
-14.0020383635
30
0.0000000000
10
18.7104461703
20
-13.9863569696
30
0.0000000000
11
18.9561917650
21
-14.1142840897
31
0.0000000000
11
18.8988678100
21
-14.1087564348
31
0.0000000000
11
18.8437017295
21
-14.0923955527
31
0.0000000000
11
18.7926982690
21
-14.0658191074
31
0.0000000000
11
18.7477385307
21
-14.0300321616
31
0.0000000000
11
18.7104461703
21
-13.9863569696
31
0.0000000000
0
SPLINE
5
2B0
100
AcDbEntity
8
0
100
AcDbSpline
62
7
6
CONTINUOUS
70
0
71
3
72
23
73
19
74
17
42
0.0000001000
43
0.0000001000
44
0.0000000001
12
0.6024791680
22
0.7221734696
32
0.0000000000
13
-0.6024791529
23
-0.7221734823
33
0.0000000000
40
0.0000000000
40
0.0000000000
40
0.0000000000
40
0.0000000000
40
0.0554122925
40
0.1102684958
40
0.1658923216
40
0.2216349691
40
0.2773045082
40
0.3329190993
40
0.4433948688
40
0.5544271036
40
0.6101240510
40
0.6657741706
40
0.7212606428
40
0.7768341369
40
0.8328811607
40
0.8889294361
40
0.9441684634
40
1.0000000000
40
1.0000000000
40
1.0000000000
40
1.0000000000
10
21.3401654971
20
-13.0308416776
30
0.0000000000
10
21.3512937477
20
-13.0175025818
30
0.0000000000
10
21.3758045714
20
-12.9928333902
30
0.0000000000
10
21.4184685492
20
-12.9626686765
30
0.0000000000
10
21.4658120582
20
-12.9402579495
30
0.0000000000
10
21.5165721842
20
-12.9263548836
30
0.0000000000
10
21.5689880446
20
-12.9215023348
30
0.0000000000
10
21.6385717073
20
-12.9272095786
30
0.0000000000
10
21.7221784386
20
-12.9570197413
30
0.0000000000
10
21.7904740623
20
-13.0137945397
30
0.0000000000
10
21.8308996082
20
-13.0709567582
30
0.0000000000
10
21.8533576656
20
-13.1184981822
30
0.0000000000
10
21.8672009046
20
-13.1691663026
30
0.0000000000
10
21.8720623801
20
-13.2215955399
30
0.0000000000
10
21.8676963769
20
-13.2742494211
30
0.0000000000
10
21.8542054567
20
-13.3252283922
30
0.0000000000
10
21.8321047185
20
-13.3730046411
30
0.0000000000
10
21.8121012638
20
-13.4017638541
30
0.0000000000
10
21.8008888182
20
-13.4152038725
30
0.0000000000
11
21.3401654971
21
-13.0308416776
31
0.0000000000
11
21.3768998798
21
-12.9938753405
31
0.0000000000
11
21.4190240072
21
-12.9640886801
31
0.0000000000
11
21.4663079539
21
-12.9417072436
31
0.0000000000
11
21.5168713389
21
-12.9278598974
31
0.0000000000
11
21.5690042349
21
-12.9230265211
31
0.0000000000
11
21.6211323844
21
-12.9273216032
31
0.0000000000
11
21.7189622781
21
-12.9623177933
31
0.0000000000
11
21.7993315891
21
-13.0289902916
31
0.0000000000
11
21.8295938752
21
-13.0717465106
31
0.0000000000
11
21.8519424829
21
-13.1190733316
31
0.0000000000
11
21.8656982199
21
-13.1694119955
31
0.0000000000
11
21.8705231796
21
-13.2214549553
31
0.0000000000
11
21.8661668164
21
-13.2739861236
31
0.0000000000
11
21.8526830005
21
-13.3249450516
31
0.0000000000
11
21.8308684995
21
-13.3720947552
31
0.0000000000
11
21.8008888182
21
-13.4152038725
31
0.0000000000
0
SPLINE
5
2B1
100
AcDbEntity
8
0
100
AcDbSpline
62
7
6
CONTINUOUS
70
0
71
3
72
23
73
19
74
17
42
0.0000001000
43
0.0000001000
44
0.0000000001
12
-0.6024793078
22
-0.7221736727
32
0.0000000000
13
0.6024793254
23
0.7221736581
33
0.0000000000
40
0.0000000000
40
0.0000000000
40
0.0000000000
40
0.0000000000
40
0.0554109455
40
0.1102606211
40
0.1658722022
40
0.2216004007
40
0.2772553688
40
0.3328560561
40
0.4433110753
40
0.5543422525
40
0.6100466739
40
0.6657076356
40
0.7212074924
40
0.7767949691
40
0.8328529834
40
0.8889115513
40
0.9441598725
40
1.0000000000
40
1.0000000000
40
1.0000000000
40
1.0000000000
10
21.3076243857
20
-14.0064652619
30
0.0000000000
10
21.2964964030
20
-14.0198040373
30
0.0000000000
10
21.2719873796
20
-14.0444715200
30
0.0000000000
10
21.2293290494
20
-14.0746331634
30
0.0000000000
10
21.1819960826
20
-14.0970414451
30
0.0000000000
10
21.1312498112
20
-14.1109454008
30
0.0000000000
10
21.0788481911
20
-14.1158035888
30
0.0000000000
10
21.0092791021
20
-14.1101098638
30
0.0000000000
10
20.9256769682
20
-14.0803231113
30
0.0000000000
10
20.8573697355
20
-14.0235694171
30
0.0000000000
10
20.8169263860
20
-13.9664130061
30
0.0000000000
10
20.7944532268
20
-13.9188675353
30
0.0000000000
10
20.7805972217
20
-13.8681902763
30
0.0000000000
10
20.7757269894
20
-13.8157495616
30
0.0000000000
10
20.7800883332
20
-13.7630840243
30
0.0000000000
10
20.7935780486
20
-13.7120946470
30
0.0000000000
10
20.8156805607
20
-13.6643093308
30
0.0000000000
10
20.8356868909
20
-13.6355451563
30
0.0000000000
10
20.8469010650
20
-13.6221030666
30
0.0000000000
11
21.3076243857
21
-14.0064652619
31
0.0000000000
11
21.2708909645
21
-14.0434307879
31
0.0000000000
11
21.2287722695
21
-14.0732145205
31
0.0000000000
11
21.1814997027
21
-14.0955931137
31
0.0000000000
11
21.1309506005
21
-14.1094412166
31
0.0000000000
11
21.0788319722
21
-14.1142801840
31
0.0000000000
11
21.0267160852
21
-14.1099953617
31
0.0000000000
11
20.9288964569
21
-14.0750283424
31
0.0000000000
11
20.8485101766
21
-14.0083778206
31
0.0000000000
11
20.8182328932
21
-13.9656235899
31
0.0000000000
11
20.7958691942
21
-13.9182926052
31
0.0000000000
11
20.7821006417
21
-13.8679443806
31
0.0000000000
11
20.7772668954
21
-13.8158890154
31
0.0000000000
11
20.7816185389
21
-13.7633470704
31
0.0000000000
11
20.7951011356
21
-13.7123777925
31
0.0000000000
11
20.8169173458
21
-13.6652192338
31
0.0000000000
11
20.8469010650
21
-13.6221030666
31
0.0000000000
0
SPLINE
5
2B2
100
AcDbEntity
8
0
100
AcDbSpline
62
7
6
CONTINUOUS
70
0
71
3
72
10
73
6
74
4
42
0.0000001000
43
0.0000001000
44
0.0000000001
12
-0.4932645818
22
-0.5912612640
32
0.0000000000
13
-0.4932645819
23
-0.5912612640
33
0.0000000000
40
0.0000000000
40
0.0000000000
40
0.0000000000
40
0.0000000000
40
0.3333836206
40
0.6667175978
40
1.0000000000
40
1.0000000000
40
1.0000000000
40
1.0000000000
10
21.3401654971
20
-13.0308416776
30
0.0000000000
10
21.2853500531
20
-13.0965472846
30
0.0000000000
10
21.1757275470
20
-13.2279488977
30
0.0000000000
10
21.0113059299
20
-13.4250359108
30
0.0000000000
10
20.9016998666
20
-13.5564174084
30
0.0000000000
10
20.8469010650
20
-13.6221030666
30
0.0000000000
11
21.3401654971
21
-13.0308416776
31
0.0000000000
11
21.1757193147
21
-13.2279586235
31
0.0000000000
11
21.0112974698
21
-13.4250460922
31
0.0000000000
11
20.8469010650
21
-13.6221030666
31
0.0000000000
0
SPLINE
5
2B3
100
AcDbEntity
8
0
100
AcDbSpline
62
7
6
CONTINUOUS
70
0
71
3
72
10
73
6
74
4
42
0.0000001000
43
0.0000001000
44
0.0000000001
12
-0.4932645698
22
-0.5912612749
32
0.0000000000
13
-0.4932645698
23
-0.5912612749
33
0.0000000000
40
0.0000000000
40
0.0000000000
40
0.0000000000
40
0.0000000000
40
0.3333874150
40
0.6667213900
40
1.0000000000
40
1.0000000000
40
1.0000000000
40
1.0000000000
10
21.8008888182
20
-13.4152038725
30
0.0000000000
10
21.7460727516
20
-13.4809102285
30
0.0000000000
10
21.6364494050
20
-13.6123124081
30
0.0000000000
10
21.4720278818
20
-13.8093994998
30
0.0000000000
10
21.3624224252
20
-13.9407802354
30
0.0000000000
10
21.3076242484
20
-14.0064651474
30
0.0000000000
11
21.8008888182
21
-13.4152038725
31
0.0000000000
11
21.6364406184
21
-13.6123229405
31
0.0000000000
11
21.4720187786
21
-13.8094104115
31
0.0000000000
11
21.3076242484
21
-14.0064651474
31
0.0000000000
0
SPLINE
5
2B4
100
AcDbEntity
8
0
100
AcDbSpline
62
7
6
CONTINUOUS
70
0
71
3
72
10
73
6
74
4
42
0.0000001000
43
0.0000001000
44
0.0000000001
12
-0.4932645764
22
-0.5912612828
32
0.0000000000
13
-0.4932645764
23
-0.5912612829
33
0.0000000000
40
0.0000000000
40
0.0000000000
40
0.0000000000
40
0.0000000000
40
0.3333874150
40
0.6667213902
40
1.0000000000
40
1.0000000000
40
1.0000000000
40
1.0000000000
10
20.3683582822
20
-13.4152038725
30
0.0000000000
10
20.3135422149
20
-13.4809102294
30
0.0000000000
10
20.2039188743
20
-13.6123124171
30
0.0000000000
10
20.0394973150
20
-13.8093994831
30
0.0000000000
10
19.9298919398
20
-13.9407802897
30
0.0000000000
10
19.8750937623
20
-14.0064652025
30
0.0000000000
11
20.3683582822
21
-13.4152038725
31
0.0000000000
11
20.2039100801
21
-13.6123229431
31
0.0000000000
11
20.0394882381
21
-13.8094104169
31
0.0000000000
11
19.8750937623
21
-14.0064652025
31
0.0000000000
0
SPLINE
5
2B5
100
AcDbEntity
8
0
100
AcDbSpline
62
7
6
CONTINUOUS
70
0
71
3
72
10
73
6
74
4
42
0.0000001000
43
0.0000001000
44
0.0000000001
12
-0.4033156206
22
-0.4834423476
32
0.0000000000
13
-0.4033156206
23
-0.4834423476
33
0.0000000000
40
0.0000000000
40
0.0000000000
40
0.0000000000
40
0.0000000000
40
0.3333740639
40
0.6667078276
40
1.0000000000
40
1.0000000000
40
1.0000000000
40
1.0000000000
10
19.9076350782
20
-13.0308418418
30
0.0000000000
10
19.8628167557
20
-13.0845642218
30
0.0000000000
10
19.7731855286
20
-13.1920024876
30
0.0000000000
10
19.6387469884
20
-13.3531499368
30
0.0000000000
10
19.5491267707
20
-13.4605750059
30
0.0000000000
10
19.5043194576
20
-13.5142841894
30
0.0000000000
11
19.9076350782
21
-13.0308418418
31
0.0000000000
11
19.7731801107
21
-13.1920089818
31
0.0000000000
11
19.6387413969
21
-13.3531566391
31
0.0000000000
11
19.5043194576
21
-13.5142841894
31
0.0000000000
0
SPLINE
5
2B6
100
AcDbEntity
8
0
100
AcDbSpline
62
7
6
CONTINUOUS
70
0
71
3
72
10
73
6
74
4
42
0.0000001000
43
0.0000001000
44
0.0000000001
12
0.4481329620
22
-0.6400000154
32
0.0000000000
13
0.4481329620
23
-0.6400000154
33
0.0000000000
40
0.0000000000
40
0.0000000000
40
0.0000000000
40
0.0000000000
40
0.3333845383
40
0.6667186005
40
1.0000000000
40
1.0000000000
40
1.0000000000
40
1.0000000000
10
18.6635124016
20
-12.8742841740
30
0.0000000000
10
18.7133126018
20
-12.9454062105
30
0.0000000000
10
18.8129054622
20
-13.0876395154
30
0.0000000000
10
18.9622831162
20
-13.3009728539
30
0.0000000000
10
19.0618605700
20
-13.4431841558
30
0.0000000000
10
19.1116453636
20
-13.5142841894
30
0.0000000000
11
18.6635124016
21
-12.8742841740
31
0.0000000000
11
18.8129130022
21
-13.0876502836
31
0.0000000000
11
18.9622909828
21
-13.3009840886
31
0.0000000000
11
19.1116453636
21
-13.5142841894
31
0.0000000000
0
SPLINE
5
2B7
100
AcDbEntity
8
0
100
AcDbSpline
62
7
6
CONTINUOUS
70
0
71
3
72
10
73
6
74
4
42
0.0000001000
43
0.0000001000
44
0.0000000001
12
-0.4481329620
22
-0.6399999900
32
0.0000000000
13
-0.4481329620
23
-0.6399999900
33
0.0000000000
40
0.0000000000
40
0.0000000000
40
0.0000000000
40
0.0000000000
40
0.3333779474
40
0.6667120075
40
1.0000000000
40
1.0000000000
40
1.0000000000
40
1.0000000000
10
19.1116453636
20
-12.2342841840
30
0.0000000000
10
19.0618461479
20
-12.3054048116
30
0.0000000000
10
18.9622542723
20
-12.4476367043
30
0.0000000000
10
18.8128766183
20
-12.6609700343
30
0.0000000000
10
18.7132981800
20
-12.8031827367
30
0.0000000000
10
18.6635124016
20
-12.8742841740
30
0.0000000000
11
19.1116453636
21
-12.2342841840
31
0.0000000000
11
18.9622477165
21
-12.4476460669
31
0.0000000000
11
18.8128697368
21
-12.6609798620
31
0.0000000000
11
18.6635124016
21
-12.8742841740
31
0.0000000000
0
SPLINE
5
2B8
100
AcDbEntity
8
0
100
AcDbSpline
62
7
6
CONTINUOUS
70
0
71
3
72
10
73
6
74
4
42
0.0000001000
43
0.0000001000
44
0.0000000001
12
-0.6581951912
22
-0.9399998728
32
0.0000000000
13
-0.6581951912
23
-0.9399998728
33
0.0000000000
40
0.0000000000
40
0.0000000000
40
0.0000000000
40
0.0000000000
40
0.3333937438
40
0.6667286485
40
1.0000000000
40
1.0000000000
40
1.0000000000
40
1.0000000000
10
18.7104462616
20
-11.7622112733
30
0.0000000000
10
18.6373002086
20
-11.8666746322
30
0.0000000000
10
18.4910210121
20
-12.0755829140
30
0.0000000000
10
18.2716226150
20
-12.3889162049
30
0.0000000000
10
18.1253702707
20
-12.5977861368
30
0.0000000000
10
18.0522510704
20
-12.7022111461
30
0.0000000000
11
18.7104462616
21
-11.7622112733
31
0.0000000000
11
18.4910081028
21
-12.0756013502
31
0.0000000000
11
18.2716086715
21
-12.3889361182
31
0.0000000000
11
18.0522510704
21
-12.7022111461
31
0.0000000000
0
SPLINE
5
2B9
100
AcDbEntity
8
0
100
AcDbSpline
62
7
6
CONTINUOUS
70
0
71
3
72
10
73
6
74
4
42
0.0000001000
43
0.0000001000
44
0.0000000001
12
0.6581951128
22
-0.9399997608
32
0.0000000000
13
0.6581951128
23
-0.9399997608
33
0.0000000000
40
0.0000000000
40
0.0000000000
40
0.0000000000
40
0.0000000000
40
0.3334131726
40
0.6667480739
40
1.0000000000
40
1.0000000000
40
1.0000000000
40
1.0000000000
10
18.0522510575
20
-13.0463572088
30
0.0000000000
10
18.1254013644
20
-13.1508266430
30
0.0000000000
10
18.2716848059
20
-13.3597409861
30
0.0000000000
10
18.4910831768
20
-13.6730742397
30
0.0000000000
10
18.6373312406
20
-13.8819380593
30
0.0000000000
10
18.7104461703
20
-13.9863569696
30
0.0000000000
11
18.0522510575
21
-13.0463572088
31
0.0000000000
11
18.2717019784
21
-13.3597655111
31
0.0000000000
11
18.4911013814
21
-13.6731002387
31
0.0000000000
11
18.7104461703
21
-13.9863569696
31
0.0000000000
0
SPLINE
5
2BA
100
AcDbEntity
8
0
100
AcDbSpline
62
7
6
CONTINUOUS
70
0
71
3
72
15
73
11
74
9
42
0.0000001000
43
0.0000001000
44
0.0000000001
12
-0.7838926164
22
0.0000000000
32
0.0000000000
13
0.0000000000
23
0.7838926164
33
0.0000000000
40
0.0000000000
40
0.0000000000
40
0.0000000000
40
0.0000000000
40
0.1249999601
40
0.2499995848
40
0.3750001233
40
0.5000004189
40
0.6250005906
40
0.7500008341
40
0.8750001721
40
1.0000000000
40
1.0000000000
40
1.0000000000
40
1.0000000000
10
11.9156497441
20
-22.4742841804
30
0.0000000000
10
11.8829875622
20
-22.4742841804
30
0.0000000000
10
11.8174823311
20
-22.4678442669
30
0.0000000000
10
11.7231380544
20
-22.4392277636
30
0.0000000000
10
11.6361513670
20
-22.3927480334
30
0.0000000000
10
11.5599177275
20
-22.3301871105
30
0.0000000000
10
11.4973569480
20
-22.2539534555
30
0.0000000000
10
11.4508773844
20
-22.1669668930
30
0.0000000000
10
11.4222609774
20
-22.0726227863
30
0.0000000000
10
11.4158210816
20
-22.0071176652
30
0.0000000000
10
11.4158210816
20
-21.9744555179
30
0.0000000000
11
11.9156497441
21
-22.4742841804
31
0.0000000000
11
11.8181345379
21
-22.4646848204
31
0.0000000000
11
11.7243645536
21
-22.4362506566
31
0.0000000000
11
11.6379435111
21
-22.3900678089
31
0.0000000000
11
11.5621965045
21
-22.3279082907
31
0.0000000000
11
11.5000371407
21
-22.2521612833
31
0.0000000000
11
11.4538544791
21
-22.1657404035
31
0.0000000000
11
11.4254204212
21
-22.0719706219
31
0.0000000000
11
11.4158210816
21
-21.9744555179
31
0.0000000000
0
SPLINE
5
2BB
100
AcDbEntity
8
0
100
AcDbSpline
62
7
6
CONTINUOUS
70
0
71
3
72
15
73
11
74
9
42
0.0000001000
43
0.0000001000
44
0.0000000001
12
0.0000000000
22
0.7838926164
32
0.0000000000
13
0.7838926164
23
0.0000000000
33
0.0000000000
40
0.0000000000
40
0.0000000000
40
0.0000000000
40
0.0000000000
40
0.1249999601
40
0.2499995848
40
0.3750001233
40
0.5000004189
40
0.6250005906
40
0.7500008341
40
0.8750001721
40
1.0000000000
40
1.0000000000
40
1.0000000000
40
1.0000000000
10
11.4158210816
20
21.2258871572
30
0.0000000000
10
11.4158210816
20
21.2585493391
30
0.0000000000
10
11.4222609951
20
21.3240545702
30
0.0000000000
10
11.4508774983
20
21.4183988468
30
0.0000000000
10
11.4973572286
20
21.5053855342
30
0.0000000000
10
11.5599181514
20
21.5816191737
30
0.0000000000
10
11.6361518065
20
21.6441799532
30
0.0000000000
10
11.7231383690
20
21.6906595168
30
0.0000000000
10
11.8174824756
20
21.7192759238
30
0.0000000000
10
11.8829875967
20
21.7257158196
30
0.0000000000
10
11.9156497441
20
21.7257158196
30
0.0000000000
11
11.4158210816
21
21.2258871572
31
0.0000000000
11
11.4254204415
21
21.3234023633
31
0.0000000000
11
11.4538546054
21
21.4171723477
31
0.0000000000
11
11.5000374531
21
21.5035933901
31
0.0000000000
11
11.5621969712
21
21.5793403967
31
0.0000000000
11
11.6379439787
21
21.6414997605
31
0.0000000000
11
11.7243648584
21
21.6876824221
31
0.0000000000
11
11.8181346400
21
21.7161164800
31
0.0000000000
11
11.9156497441
21
21.7257158196
31
0.0000000000
0
SPLINE
5
2BC
100
AcDbEntity
8
0
100
AcDbSpline
62
7
6
CONTINUOUS
70
0
71
3
72
15
73
11
74
9
42
0.0000001000
43
0.0000001000
44
0.0000000001
12
0.0000000000
22
-0.7838926164
32
0.0000000000
13
-0.7838926164
23
0.0000000000
33
0.0000000000
40
0.0000000000
40
0.0000000000
40
0.0000000000
40
0.0000000000
40
0.1249999601
40
0.2499995848
40
0.3750001233
40
0.5000004189
40
0.6250005906
40
0.7500008341
40
0.8750001721
40
1.0000000000
40
1.0000000000
40
1.0000000000
40
1.0000000000
10
33.4158210816
20
-21.9744555179
30
0.0000000000
10
33.4158210816
20
-22.0071176998
30
0.0000000000
10
33.4093811681
20
-22.0726229309
30
0.0000000000
10
33.3807646649
20
-22.1669672075
30
0.0000000000
10
33.3342849346
20
-22.2539538950
30
0.0000000000
10
33.2717240118
20
-22.3301875344
30
0.0000000000
10
33.1954903567
20
-22.3927483139
30
0.0000000000
10
33.1085037942
20
-22.4392278775
30
0.0000000000
10
33.0141596875
20
-22.4678442845
30
0.0000000000
10
32.9486545665
20
-22.4742841804
30
0.0000000000
10
32.9159924191
20
-22.4742841804
30
0.0000000000
11
33.4158210816
21
-21.9744555179
31
0.0000000000
11
33.4062217217
21
-22.0719707240
31
0.0000000000
11
33.3777875578
21
-22.1657407084
31
0.0000000000
11
33.3316047101
21
-22.2521617508
31
0.0000000000
11
33.2694451920
21
-22.3279087574
31
0.0000000000
11
33.1936981845
21
-22.3900681212
31
0.0000000000
11
33.1072773047
21
-22.4362507828
31
0.0000000000
11
33.0135075231
21
-22.4646848407
31
0.0000000000
11
32.9159924191
21
-22.4742841804
31
0.0000000000
0
SPLINE
5
2BD
100
AcDbEntity
8
0
100
AcDbSpline
62
7
6
CONTINUOUS
70
0
71
3
72
15
73
11
74
9
42
0.0000001000
43
0.0000001000
44
0.0000000001
12
0.7838926164
22
0.0000000000
32
0.0000000000
13
0.0000000000
23
-0.7838926164
33
0.0000000000
40
0.0000000000
40
0.0000000000
40
0.0000000000
40
0.0000000000
40
0.1249999601
40
0.2499995848
40
0.3750001233
40
0.5000004189
40
0.6250005906
40
0.7500008341
40
0.8750001721
40
1.0000000000
40
1.0000000000
40
1.0000000000
40
1.0000000000
10
32.9159924191
20
21.7257158196
30
0.0000000000
10
32.9486546010
20
21.7257158196
30
0.0000000000
10
33.0141598321
20
21.7192759062
30
0.0000000000
10
33.1085041088
20
21.6906594029
30
0.0000000000
10
33.1954907962
20
21.6441796727
30
0.0000000000
10
33.2717244356
20
21.5816187498
30
0.0000000000
10
33.3342852151
20
21.5053850947
30
0.0000000000
10
33.3807647788
20
21.4183985322
30
0.0000000000
10
33.4093811858
20
21.3240544256
30
0.0000000000
10
33.4158210816
20
21.2585493045
30
0.0000000000
10
33.4158210816
20
21.2258871572
30
0.0000000000
11
32.9159924191
21
21.7257158196
31
0.0000000000
11
33.0135076253
21
21.7161164597
31
0.0000000000
11
33.1072776096
21
21.6876822959
31
0.0000000000
11
33.1936986520
21
21.6414994482
31
0.0000000000
11
33.2694456587
21
21.5793399300
31
0.0000000000
11
33.3316050225
21
21.5035929225
31
0.0000000000
11
33.3777876841
21
21.4171720428
31
0.0000000000
11
33.4062217420
21
21.3234022612
31
0.0000000000
11
33.4158210816
21
21.2258871572
31
0.0000000000
0
SPLINE
5
2BE
100
AcDbEntity
8
0
100
AcDbSpline
62
7
6
CONTINUOUS
70
0
71
3
72
21
73
17
74
15
42
0.0000001000
43
0.0000001000
44
0.0000000001
12
-1.8738827028
22
4.0778971492
32
0.0000000000
13
-1.8585553769
23
-4.0744563072
33
0.0000000000
40
0.0000000000
40
0.0000000000
40
0.0000000000
40
0.0000000000
40
0.0092685805
40
0.1083342590
40
0.2074058242
40
0.3064630216
40
0.4055171910
40
0.5045761893
40
0.6036409519
40
0.7027042657
40
0.7522935124
40
0.8019219684
40
0.8516094758
40
0.9011207485
40
0.9503426871
40
1.0000000000
40
1.0000000000
40
1.0000000000
40
1.0000000000
10
26.3559785156
20
-12.0536852221
30
0.0000000000
10
26.3501891047
20
-12.0410864493
30
0.0000000000
10
26.2809587530
20
-11.8945458392
30
0.0000000000
10
26.1137393991
20
-11.6308298809
30
0.0000000000
10
25.7954624980
20
-11.3163329413
30
0.0000000000
10
25.4147607150
20
-11.0812617083
30
0.0000000000
10
24.9910554581
20
-10.9375756973
30
0.0000000000
10
24.5458822932
20
-10.8926149065
30
0.0000000000
10
24.1020397755
20
-10.9485794587
30
0.0000000000
10
23.7517079938
20
-11.0772968807
30
0.0000000000
10
23.4945880524
20
-11.2249595376
30
0.0000000000
10
23.3151750106
20
-11.3570439049
30
0.0000000000
10
23.1521225424
20
-11.5086288548
30
0.0000000000
10
23.0072648165
20
-11.6768835041
30
0.0000000000
10
22.8822396736
20
-11.8602985407
30
0.0000000000
10
22.8135017312
20
-11.9913452718
30
0.0000000000
10
22.7827381093
20
-12.0587874558
30
0.0000000000
11
26.3559785156
21
-12.0536852221
31
0.0000000000
11
26.3382104598
21
-12.0160761380
31
0.0000000000
11
26.1006333931
21
-11.6414013124
31
0.0000000000
11
25.7850390426
21
-11.3295556994
31
0.0000000000
11
25.4075867682
21
-11.0964888224
31
0.0000000000
11
24.9874864289
21
-10.9540315901
31
0.0000000000
11
24.5461149716
21
-10.9094358397
31
0.0000000000
11
24.1059625070
21
-10.9649899251
31
0.0000000000
11
23.6894964065
21
-11.1178646410
31
0.0000000000
11
23.4969157358
21
-11.2284577769
31
0.0000000000
11
23.3179567109
21
-11.3602524828
31
0.0000000000
11
23.1549057612
21
-11.5116730393
31
0.0000000000
11
23.0102958156
21
-11.6797538128
31
0.0000000000
11
22.8862174617
21
-11.8619482801
31
0.0000000000
11
22.7827381093
21
-12.0587874558
31
0.0000000000
0
SPLINE
5
2BF
100
AcDbEntity
8
0
100
AcDbSpline
62
7
6
CONTINUOUS
70
0
71
3
72
28
73
24
74
22
42
0.0000001000
43
0.0000001000
44
0.0000000001
12
-2.9251393568
22
-4.6993225642
32
0.0000000000
13
-2.2961155249
23
5.0337063035
33
0.0000000000
40
0.0000000000
40
0.0000000000
40
0.0000000000
40
0.0000000000
40
0.0084369704
40
0.0582067319
40
0.1079773547
40
0.1574360160
40
0.2068595759
40
0.2565345357
40
0.3062125691
40
0.3556376658
40
0.4050466586
40
0.4546856154
40
0.5043593296
40
0.5538601325
40
0.6033528454
40
0.6530133519
40
0.7027015718
40
0.7522699278
40
0.8018498016
40
0.8515534222
40
0.9011176327
40
0.9503787652
40
1.0000000000
40
1.0000000000
40
1.0000000000
40
1.0000000000
10
26.7497338510
20
-14.2272699075
30
0.0000000000
10
26.7415074129
20
-14.2404859226
30
0.0000000000
10
26.6839189031
20
-14.3311433866
30
0.0000000000
10
26.5665633378
20
-14.4924802491
30
0.0000000000
10
26.3822451413
20
-14.6969716896
30
0.0000000000
10
26.1775078959
20
-14.8800991534
30
0.0000000000
10
25.9542679251
20
-15.0398424269
30
0.0000000000
10
25.7149032932
20
-15.1749990612
30
0.0000000000
10
25.4627017313
20
-15.2843617494
30
0.0000000000
10
25.2006808010
20
-15.3659302548
30
0.0000000000
10
24.9314564900
20
-15.4187051563
30
0.0000000000
10
24.6576985918
20
-15.4424665164
30
0.0000000000
10
24.3827853267
20
-15.4373387671
30
0.0000000000
10
24.1102588926
20
-15.4027817012
30
0.0000000000
10
23.8430660714
20
-15.3390806046
30
0.0000000000
10
23.5839090622
20
-15.2470499996
30
0.0000000000
10
23.3357749669
20
-15.1281417810
30
0.0000000000
10
23.1019245916
20
-14.9834024880
30
0.0000000000
10
22.8850038846
20
-14.8142885503
30
0.0000000000
10
22.6875638295
20
-14.6228324384
30
0.0000000000
10
22.5116358609
20
-14.4122085253
30
0.0000000000
10
22.3592469996
20
-14.1841580611
30
0.0000000000
10
22.2748268326
20
-14.0220470389
30
0.0000000000
10
22.2368481368
20
-13.9387874647
30
0.0000000000
11
26.7497338510
21
-14.2272699075
31
0.0000000000
11
26.7246934885
21
-14.2666897703
31
0.0000000000
11
26.5628268632
21
-14.4894495387
31
0.0000000000
11
26.3783583034
21
-14.6938919351
31
0.0000000000
11
26.1743564914
21
-14.8762680266
31
0.0000000000
11
25.9520288148
21
-15.0354595353
31
0.0000000000
11
25.7127656799
21
-15.1706900471
31
0.0000000000
11
25.4605508610
21
-15.2799199486
31
0.0000000000
11
25.1994417519
21
-15.3611493496
31
0.0000000000
11
24.9311968569
21
-15.4138004537
31
0.0000000000
11
24.6575981196
21
-15.4376420069
31
0.0000000000
11
24.3828201297
21
-15.4324068311
31
0.0000000000
11
24.1111281326
21
-15.3979265286
31
0.0000000000
11
23.8447573505
21
-15.3344637481
31
0.0000000000
11
23.5858167049
21
-15.2425946411
31
0.0000000000
11
23.3379399384
21
-15.1237183240
31
0.0000000000
11
23.1047652183
21
-14.9793582187
31
0.0000000000
11
22.8884235888
21
-14.8107120044
31
0.0000000000
11
22.6909125157
21
-14.6193727737
31
0.0000000000
11
22.5152022725
21
-14.4088410157
31
0.0000000000
11
22.3638576593
21
-14.1821789672
31
0.0000000000
11
22.2368481368
21
-13.9387874647
31
0.0000000000
0
SPLINE
5
2C0
100
AcDbEntity
8
0
100
AcDbSpline
62
9
6
CONTINUOUS
70
0
71
3
72
12
73
8
74
6
42
0.0000001000
43
0.0000001000
44
0.0000000001
12
0.0005356703
22
-0.7817393705
32
0.0000000000
13
0.7817393705
23
-0.0005356701
33
0.0000000000
40
0.0000000000
40
0.0000000000
40
0.0000000000
40
0.0000000000
40
0.1999723684
40
0.3999814722
40
0.6000059989
40
0.8000194208
40
1.0000000000
40
1.0000000000
40
1.0000000000
40
1.0000000000
10
11.5196973766
20
-21.8705792229
30
0.0000000000
10
11.5197330830
20
-21.9226879807
30
0.0000000000
10
11.5363758908
20
-22.0276365815
30
0.0000000000
10
11.6085722528
20
-22.1691005821
30
0.0000000000
10
11.7209973311
20
-22.2815278904
30
0.0000000000
10
11.8624631876
20
-22.3537281421
30
0.0000000000
10
11.9674151416
20
-22.3703721776
30
0.0000000000
10
12.0195260390
20
-22.3704078855
30
0.0000000000
11
11.5196973766
21
-21.8705792229
31
0.0000000000
11
11.5442442639
21
-22.0249662870
31
0.0000000000
11
11.6152738807
21
-22.1642562298
31
0.0000000000
11
11.7258410107
21
-22.2748255512
31
0.0000000000
11
11.8651327953
21
-22.3458589870
31
0.0000000000
11
12.0195260390
21
-22.3704078855
31
0.0000000000
0
SPLINE
5
2C1
100
AcDbEntity
8
0
100
AcDbSpline
62
9
6
CONTINUOUS
70
0
71
3
72
13
73
9
74
7
42
0.0000001000
43
0.0000001000
44
0.0000000001
12
0.3808045829
22
0.7615991010
32
0.0000000000
13
0.0016820275
23
0.8514942700
33
0.0000000000
40
0.0000000000
40
0.0000000000
40
0.0000000000
40
0.0000000000
40
0.0388749341
40
0.1388026332
40
0.2944532441
40
0.4974684135
40
0.7369555823
40
1.0000000000
40
1.0000000000
40
1.0000000000
40
1.0000000000
10
12.0195260390
20
-22.3704078854
30
0.0000000000
10
12.0244606234
20
-22.3605388471
30
0.0000000000
10
12.0198266439
20
-22.3188496867
30
0.0000000000
10
12.0280860403
20
-22.2373392325
30
0.0000000000
10
12.0273070817
20
-22.1061364332
30
0.0000000000
10
12.0304374880
20
-21.9367963331
30
0.0000000000
10
12.0313828769
20
-21.7363942955
30
0.0000000000
10
12.0319838356
20
-21.5937980946
30
0.0000000000
10
12.0321313182
20
-21.5191378231
30
0.0000000000
11
12.0195260390
21
-22.3704078854
31
0.0000000000
11
12.0225338119
21
-22.3374429698
31
0.0000000000
11
12.0253607293
21
-22.2524019135
31
0.0000000000
11
12.0278557787
21
-22.1198895390
31
0.0000000000
11
12.0298839670
21
-21.9470348467
31
0.0000000000
11
12.0313348683
21
-21.7431176585
31
0.0000000000
11
12.0321313182
21
-21.5191378231
31
0.0000000000
0
SPLINE
5
2C2
100
AcDbEntity
8
0
100
AcDbSpline
62
9
6
CONTINUOUS
70
0
71
3
72
13
73
9
74
7
42
0.0000001000
43
0.0000001000
44
0.0000000001
12
0.3006167389
22
0.3019576448
32
0.0000000000
13
0.0016771959
23
0.4260821869
33
0.0000000000
40
0.0000000000
40
0.0000000000
40
0.0000000000
40
0.0000000000
40
0.0390039504
40
0.1389464137
40
0.2947875035
40
0.4983049014
40
0.7382507965
40
1.0000000000
40
1.0000000000
40
1.0000000000
40
1.0000000000
10
11.5196973766
20
-21.8705792229
30
0.0000000000
10
11.5236057900
20
-21.8666533759
30
0.0000000000
10
11.5212274048
20
-21.8439278571
30
0.0000000000
10
11.5275362937
20
-21.8048021885
30
0.0000000000
10
11.5277791104
20
-21.7382103432
30
0.0000000000
10
11.5305048799
20
-21.6536730204
30
0.0000000000
10
11.5315926530
20
-21.5533241178
30
0.0000000000
10
11.5321563208
20
-21.4821197494
30
0.0000000000
10
11.5323026557
20
-21.4449441918
30
0.0000000000
11
11.5196973766
21
-21.8705792229
31
0.0000000000
11
11.5226922441
21
-21.8542322812
31
0.0000000000
11
11.5255248848
21
-21.8117425644
31
0.0000000000
11
11.5280255583
21
-21.7453880418
31
0.0000000000
11
11.5300584592
21
-21.6586960642
31
0.0000000000
11
11.5315109437
21
-21.5564689187
31
0.0000000000
11
11.5323026557
21
-21.4449441918
31
0.0000000000
0
SPLINE
5
2C3
100
AcDbEntity
8
0
100
AcDbSpline
62
9
6
CONTINUOUS
70
0
71
3
72
12
73
8
74
6
42
0.0000001000
43
0.0000001000
44
0.0000000001
12
0.0880310294
22
-0.5047724837
32
0.0000000000
13
0.5123873981
23
-0.0019689316
33
0.0000000000
40
0.0000000000
40
0.0000000000
40
0.0000000000
40
0.0000000000
40
0.0695900781
40
0.2162777797
40
0.4337159070
40
0.7031599909
40
1.0000000000
40
1.0000000000
40
1.0000000000
40
1.0000000000
10
11.5323026557
20
-21.4449441918
30
0.0000000000
10
11.5343446845
20
-21.4566532440
30
0.0000000000
10
11.5753182288
20
-21.4752248050
30
0.0000000000
10
11.6419196835
20
-21.4913286694
30
0.0000000000
10
11.7519111721
20
-21.5067355673
30
0.0000000000
10
11.8844434102
20
-21.5163706087
30
0.0000000000
10
11.9814322916
20
-21.5189429981
30
0.0000000000
10
12.0321313182
20
-21.5191378173
30
0.0000000000
11
11.5323026557
21
-21.4449441918
31
0.0000000000
11
11.5599085853
21
-21.4675131686
31
0.0000000000
11
11.6322398095
21
-21.4879445851
31
0.0000000000
11
11.7424456727
21
-21.5043033352
31
0.0000000000
11
11.8800883257
21
-21.5150400446
31
0.0000000000
11
12.0321313182
21
-21.5191378173
31
0.0000000000
0
SPLINE
5
2C4
100
AcDbEntity
8
0
100
AcDbSpline
62
9
6
CONTINUOUS
70
0
71
3
72
10
73
6
74
4
42
0.0000001000
43
0.0000001000
44
0.0000000001
12
0.0454998749
22
11.6447977342
32
0.0000000000
13
0.0057626876
23
11.6448851991
33
0.0000000000
40
0.0000000000
40
0.0000000000
40
0.0000000000
40
0.0000000000
40
0.3320148751
40
0.6655565454
40
1.0000000000
40
1.0000000000
40
1.0000000000
40
1.0000000000
10
12.0321313182
20
-21.5191378231
30
0.0000000000
10
12.0371668633
20
-20.2303891346
30
0.0000000000
10
12.0457679084
20
-17.6469592685
30
0.0000000000
10
12.0542674188
20
-13.7653389501
30
0.0000000000
10
12.0570114862
20
-11.1724693918
30
0.0000000000
10
12.0576539172
20
-9.8742841804
30
0.0000000000
11
12.0321313182
21
-21.5191378231
31
0.0000000000
11
12.0450155155
21
-17.6528837126
31
0.0000000000
11
12.0535283630
21
-13.7688381065
31
0.0000000000
11
12.0576539172
21
-9.8742841804
31
0.0000000000
0
SPLINE
5
2C5
100
AcDbEntity
8
0
100
AcDbSpline
62
9
6
CONTINUOUS
70
0
71
3
72
10
73
6
74
4
42
0.0000001000
43
0.0000001000
44
0.0000000001
12
0.0454998708
22
11.5801037905
32
0.0000000000
13
0.0057626883
23
11.5801917440
33
0.0000000000
40
0.0000000000
40
0.0000000000
40
0.0000000000
40
0.0000000000
40
0.3320110042
40
0.6655578332
40
1.0000000000
40
1.0000000000
40
1.0000000000
40
1.0000000000
10
11.5323026557
20
-21.4449441918
30
0.0000000000
10
11.5373381417
20
-20.1633702291
30
0.0000000000
10
11.5459392209
20
-17.5942878505
30
0.0000000000
10
11.5544387483
20
-13.7342320624
30
0.0000000000
10
11.5571828261
20
-11.1557523198
30
0.0000000000
10
11.5578252547
20
-9.8647841804
30
0.0000000000
11
11.5323026557
21
-21.4449441918
31
0.0000000000
11
11.5451867282
21
-17.6002142140
31
0.0000000000
11
11.5536997248
21
-13.7376868810
31
0.0000000000
11
11.5578252547
21
-9.8647841804
31
0.0000000000
0
SPLINE
5
2C6
100
AcDbEntity
8
0
100
AcDbSpline
62
9
6
CONTINUOUS
70
0
71
3
72
12
73
8
74
6
42
0.0000001000
43
0.0000001000
44
0.0000000001
12
0.4046164666
22
-0.2938362446
32
0.0000000000
13
0.5000541589
23
-0.0002487483
33
0.0000000000
40
0.0000000000
40
0.0000000000
40
0.0000000000
40
0.0000000000
40
0.0555750126
40
0.2003450939
40
0.4207646183
40
0.6959972274
40
1.0000000000
40
1.0000000000
40
1.0000000000
40
1.0000000000
10
11.5578252547
20
-9.8647841804
30
0.0000000000
10
11.5653207765
20
-9.8702274980
30
0.0000000000
10
11.6023473024
20
-9.8641809661
30
0.0000000000
10
11.6692568805
20
-9.8733323078
30
0.0000000000
10
11.7776086849
20
-9.8716636879
30
0.0000000000
10
11.9102709112
20
-9.8742897602
30
0.0000000000
10
12.0069813003
20
-9.8742589736
30
0.0000000000
10
12.0576539172
20
-9.8742841803
30
0.0000000000
11
11.5578252547
21
-9.8647841804
31
0.0000000000
11
11.5854651689
21
-9.8676734927
31
0.0000000000
11
11.6578107863
21
-9.8702892519
31
0.0000000000
11
11.7680125965
21
-9.8723838040
31
0.0000000000
11
11.9056369554
21
-9.8737588420
31
0.0000000000
11
12.0576539172
21
-9.8742841803
31
0.0000000000
0
SPLINE
5
2C7
100
AcDbEntity
8
0
100
AcDbSpline
62
9
6
CONTINUOUS
70
0
71
3
72
10
73
6
74
4
42
0.0000001000
43
0.0000001000
44
0.0000000001
12
0.0094453641
22
18.9809983461
32
0.0000000000
13
-0.0094453648
23
18.9809983461
33
0.0000000000
40
0.0000000000
40
0.0000000000
40
0.0000000000
40
0.0000000000
40
0.3333309504
40
0.6666688009
40
1.0000000000
40
1.0000000000
40
1.0000000000
40
1.0000000000
10
11.5578252547
20
-9.8647841804
30
0.0000000000
10
11.5588747321
20
-7.7557994408
30
0.0000000000
10
11.5602738319
20
-3.5377859223
30
0.0000000000
10
11.5602738326
20
2.7892144142
30
0.0000000000
10
11.5588747330
20
7.0072295064
30
0.0000000000
10
11.5578252547
20
9.1162158196
30
0.0000000000
11
11.5578252547
21
-9.8647841804
31
0.0000000000
11
11.5599240498
21
-3.5378295265
31
0.0000000000
11
11.5599240506
21
2.7892564447
31
0.0000000000
11
11.5578252547
21
9.1162158196
31
0.0000000000
0
SPLINE
5
2C8
100
AcDbEntity
8
0
100
AcDbSpline
62
9
6
CONTINUOUS
70
0
71
3
72
12
73
8
74
6
42
0.0000001000
43
0.0000001000
44
0.0000000001
12
0.4046168738
22
0.2938356838
32
0.0000000000
13
0.5000541588
23
0.0002487483
33
0.0000000000
40
0.0000000000
40
0.0000000000
40
0.0000000000
40
0.0000000000
40
0.0555750307
40
0.2003451198
40
0.4207646421
40
0.6959972414
40
1.0000000000
40
1.0000000000
40
1.0000000000
40
1.0000000000
10
11.5578252547
20
9.1162158196
30
0.0000000000
10
11.5653207865
20
9.1216591287
30
0.0000000000
10
11.6023473006
20
9.1156126165
30
0.0000000000
10
11.6692568972
20
9.1247639398
30
0.0000000000
10
11.7776086934
20
9.1230953294
30
0.0000000000
10
11.9102709183
20
9.1257213978
30
0.0000000000
10
12.0069813026
20
9.1256906122
30
0.0000000000
10
12.0576539172
20
9.1257158189
30
0.0000000000
11
11.5578252547
21
9.1162158196
31
0.0000000000
11
11.5854651780
21
9.1191051318
31
0.0000000000
11
11.6578107993
21
9.1217208908
31
0.0000000000
11
11.7680126084
21
9.1238154428
31
0.0000000000
11
11.9056369624
21
9.1251904806
31
0.0000000000
11
12.0576539172
21
9.1257158189
31
0.0000000000
0
SPLINE
5
2C9
100
AcDbEntity
8
0
100
AcDbSpline
62
9
6
CONTINUOUS
70
0
71
3
72
10
73
6
74
4
42
0.0000001000
43
0.0000001000
44
0.0000000001
12
-0.0057627171
22
11.6448851991
32
0.0000000000
13
-0.0454999047
23
11.6447977340
33
0.0000000000
40
0.0000000000
40
0.0000000000
40
0.0000000000
40
0.0000000000
40
0.3344434557
40
0.6679851259
40
1.0000000000
40
1.0000000000
40
1.0000000000
40
1.0000000000
10
12.0576539172
20
9.1257158196
30
0.0000000000
10
12.0570114829
20
10.4239010352
30
0.0000000000
10
12.0542674231
20
13.0167705977
30
0.0000000000
10
12.0457679040
20
16.8983909160
30
0.0000000000
10
12.0371668666
20
19.4818207780
30
0.0000000000
10
12.0321313182
20
20.7705694624
30
0.0000000000
11
12.0576539172
21
9.1257158196
31
0.0000000000
11
12.0535283640
21
13.0202697582
31
0.0000000000
11
12.0450155145
21
16.9043153641
31
0.0000000000
11
12.0321313182
21
20.7705694624
31
0.0000000000
0
SPLINE
5
2CA
100
AcDbEntity
8
0
100
AcDbSpline
62
9
6
CONTINUOUS
70
0
71
3
72
10
73
6
74
4
42
0.0000001000
43
0.0000001000
44
0.0000000001
12
-0.0057627176
22
11.5801917440
32
0.0000000000
13
-0.0454999007
23
11.5801037904
33
0.0000000000
40
0.0000000000
40
0.0000000000
40
0.0000000000
40
0.0000000000
40
0.3344395526
40
0.6679863906
40
1.0000000000
40
1.0000000000
40
1.0000000000
40
1.0000000000
10
11.5578252547
20
9.1162158196
30
0.0000000000
10
11.5571828278
20
10.4071738682
30
0.0000000000
10
11.5544387797
20
12.9856435545
30
0.0000000000
10
11.5459392782
20
16.8456993428
30
0.0000000000
10
11.5373381845
20
19.4147918122
30
0.0000000000
10
11.5323026557
20
20.6963758310
30
0.0000000000
11
11.5578252547
21
9.1162158196
31
0.0000000000
11
11.5536997752
21
12.9890882476
31
0.0000000000
11
11.5451868110
21
16.8516156847
31
0.0000000000
11
11.5323026557
21
20.6963758310
31
0.0000000000
0
SPLINE
5
2CB
100
AcDbEntity
8
0
100
AcDbSpline
62
9
6
CONTINUOUS
70
0
71
3
72
12
73
8
74
6
42
0.0000001000
43
0.0000001000
44
0.0000000001
12
0.0881251714
22
0.5047541410
32
0.0000000000
13
0.5123855114
23
0.0019688497
33
0.0000000000
40
0.0000000000
40
0.0000000000
40
0.0000000000
40
0.0000000000
40
0.0695941662
40
0.2162845485
40
0.4337224751
40
0.7031639554
40
1.0000000000
40
1.0000000000
40
1.0000000000
40
1.0000000000
10
11.5323026559
20
20.6963758310
30
0.0000000000
10
11.5343469885
20
20.7080851456
30
0.0000000000
10
11.5753209161
20
20.7266537712
30
0.0000000000
10
11.6419243503
20
20.7427585595
30
0.0000000000
10
11.7519149795
20
20.7581639160
30
0.0000000000
10
11.8844458086
20
20.7677987492
30
0.0000000000
10
11.9814331553
20
20.7703709228
30
0.0000000000
10
12.0321313182
20
20.7705657313
30
0.0000000000
11
11.5323026559
21
20.6963758310
31
0.0000000000
11
11.5599119336
21
20.7189438143
31
0.0000000000
11
11.6322445851
21
20.7393742126
31
0.0000000000
11
11.7424500600
21
20.7557320844
31
0.0000000000
11
11.8800909118
21
20.7664681922
31
0.0000000000
11
12.0321313182
21
20.7705657313
31
0.0000000000
0
SPLINE
5
2CC
100
AcDbEntity
8
0
100
AcDbSpline
62
9
6
CONTINUOUS
70
0
71
3
72
13
73
9
74
7
42
0.0000001000
43
0.0000001000
44
0.0000000001
12
-0.0016803623
22
0.8514942968
32
0.0000000000
13
-0.3797162962
23
0.7621423066
33
0.0000000000
40
0.0000000000
40
0.0000000000
40
0.0000000000
40
0.0000000000
40
0.2630442076
40
0.5025268793
40
0.7055414886
40
0.8611944214
40
0.9611248970
40
1.0000000000
40
1.0000000000
40
1.0000000000
40
1.0000000000
10
12.0321313182
20
20.7705694624
30
0.0000000000
10
12.0319839817
20
20.8452296766
30
0.0000000000
10
12.0313834639
20
20.9878248006
30
0.0000000000
10
12.0304355083
20
21.1882243347
30
0.0000000000
10
12.0273127610
20
21.3575665387
30
0.0000000000
10
12.0280763257
20
21.4887635364
30
0.0000000000
10
12.0198442996
20
21.5702890631
30
0.0000000000
10
12.0244465424
20
21.6119634044
30
0.0000000000
10
12.0195260390
20
21.6218395247
30
0.0000000000
11
12.0321313182
21
20.7705694624
31
0.0000000000
11
12.0313348489
21
20.9945491250
31
0.0000000000
11
12.0298840020
21
21.1984624899
31
0.0000000000
11
12.0278567422
21
21.3713167209
31
0.0000000000
11
12.0253611571
21
21.5038310664
31
0.0000000000
11
12.0225340286
21
21.5888744835
31
0.0000000000
11
12.0195260390
21
21.6218395247
31
0.0000000000
0
SPLINE
5
2CD
100
AcDbEntity
8
0
100
AcDbSpline
62
9
6
CONTINUOUS
70
0
71
3
72
13
73
9
74
7
42
0.0000001000
43
0.0000001000
44
0.0000000001
12
-0.0016754764
22
0.4260821846
32
0.0000000000
13
-0.2997536766
23
0.3028144128
33
0.0000000000
40
0.0000000000
40
0.0000000000
40
0.0000000000
40
0.0000000000
40
0.2616857737
40
0.5014574387
40
0.7048863924
40
0.8609240958
40
0.9609811876
40
1.0000000000
40
1.0000000000
40
1.0000000000
40
1.0000000000
10
11.5323026557
20
20.6963758310
30
0.0000000000
10
11.5321565063
20
20.7335423798
30
0.0000000000
10
11.5315933466
20
20.8047134280
30
0.0000000000
10
11.5305047206
20
20.9050142245
30
0.0000000000
10
11.5277852089
20
20.9895469678
30
0.0000000000
10
11.5275340260
20
21.0561607162
30
0.0000000000
10
11.5212400528
20
21.0953506225
30
0.0000000000
10
11.5235960540
20
21.1180723759
30
0.0000000000
10
11.5196973766
20
21.1220108622
30
0.0000000000
11
11.5323026557
21
20.6963758310
31
0.0000000000
11
11.5315111957
21
20.8078735302
31
0.0000000000
11
11.5300602370
21
20.9100264509
31
0.0000000000
11
11.5280296717
21
20.9966807862
31
0.0000000000
11
11.5255277400
21
21.0631190936
31
0.0000000000
11
11.5226929830
21
21.1056576184
31
0.0000000000
11
11.5196973766
21
21.1220108622
31
0.0000000000
0
SPLINE
5
2CE
100
AcDbEntity
8
0
100
AcDbSpline
62
9
6
CONTINUOUS
70
0
71
3
72
12
73
8
74
6
42
0.0000001000
43
0.0000001000
44
0.0000000001
12
0.0005356733
22
0.7817393695
32
0.0000000000
13
0.7817393695
23
0.0005356729
33
0.0000000000
40
0.0000000000
40
0.0000000000
40
0.0000000000
40
0.0000000000
40
0.1999768525
40
0.3999879277
40
0.6000120718
40
0.8000231472
40
1.0000000000
40
1.0000000000
40
1.0000000000
40
1.0000000000
10
11.5196973766
20
21.1220108622
30
0.0000000000
10
11.5197330840
20
21.1741207884
30
0.0000000000
10
11.5363765470
20
21.2790711195
30
0.0000000000
10
11.6085748931
20
21.4205359640
30
0.0000000000
10
11.7210009369
20
21.5329620080
30
0.0000000000
10
11.8624657815
20
21.6051603542
30
0.0000000000
10
11.9674161128
20
21.6218038173
30
0.0000000000
10
12.0195260390
20
21.6218395247
30
0.0000000000
11
11.5196973766
21
21.1220108622
31
0.0000000000
11
11.5442453628
21
21.2764013007
31
0.0000000000
11
11.6152768855
21
21.4156920015
31
0.0000000000
11
11.7258448994
21
21.5262600156
31
0.0000000000
11
11.8651356002
21
21.5972915385
31
0.0000000000
11
12.0195260390
21
21.6218395247
31
0.0000000000
0
SPLINE
5
2CF
100
AcDbEntity
8
0
100
AcDbSpline
62
9
6
CONTINUOUS
70
0
71
3
72
12
73
8
74
6
42
0.0000001000
43
0.0000001000
44
0.0000000001
12
-0.0005356733
22
-0.7817393695
32
0.0000000000
13
-0.7817393695
23
-0.0005356730
33
0.0000000000
40
0.0000000000
40
0.0000000000
40
0.0000000000
40
0.0000000000
40
0.1999768524
40
0.3999879276
40
0.6000120716
40
0.8000231471
40
1.0000000000
40
1.0000000000
40
1.0000000000
40
1.0000000000
10
33.3119447866
20
-21.8705792229
30
0.0000000000
10
33.3119090792
20
-21.9226891491
30
0.0000000000
10
33.2952656161
20
-22.0276394801
30
0.0000000000
10
33.2230672702
20
-22.1691043247
30
0.0000000000
10
33.1106412263
20
-22.2815303686
30
0.0000000000
10
32.9691763817
20
-22.3537287149
30
0.0000000000
10
32.8642260504
20
-22.3703721780
30
0.0000000000
10
32.8121161241
20
-22.3704078854
30
0.0000000000
11
33.3119447866
21
-21.8705792229
31
0.0000000000
11
33.2873968004
21
-22.0249696614
31
0.0000000000
11
33.2163652778
21
-22.1642603621
31
0.0000000000
11
33.1057972639
21
-22.2748283762
31
0.0000000000
11
32.9665065630
21
-22.3458598991
31
0.0000000000
11
32.8121161241
21
-22.3704078854
31
0.0000000000
0
SPLINE
5
2D0
100
AcDbEntity
8
0
100
AcDbSpline
62
9
6
CONTINUOUS
70
0
71
3
72
12
73
8
74
6
42
0.0000001000
43
0.0000001000
44
0.0000000001
12
-0.0881031633
22
-0.5047584743
32
0.0000000000
13
-0.5123859956
23
-0.0019688162
33
0.0000000000
40
0.0000000000
40
0.0000000000
40
0.0000000000
40
0.0000000000
40
0.0695932751
40
0.2162830439
40
0.4337210043
40
0.7031630644
40
1.0000000000
40
1.0000000000
40
1.0000000000
40
1.0000000000
10
33.2993395073
20
-21.4449441918
30
0.0000000000
10
33.2972957114
20
-21.4566534569
30
0.0000000000
10
33.2563218945
20
-21.4752228239
30
0.0000000000
10
33.1897188914
20
-21.4913274175
30
0.0000000000
10
33.0797280702
20
-21.5067331603
30
0.0000000000
10
32.9471969097
20
-21.5163680453
30
0.0000000000
10
32.8502092079
20
-21.5189402641
30
0.0000000000
10
32.7995108450
20
-21.5191350699
30
0.0000000000
11
33.2993395073
21
-21.4449441918
31
0.0000000000
11
33.2717310054
21
-21.4675124558
31
0.0000000000
11
33.1993986846
21
-21.4879431297
31
0.0000000000
11
33.0891931197
21
-21.5043012297
31
0.0000000000
11
32.9515518505
21
-21.5150374849
31
0.0000000000
11
32.7995108450
21
-21.5191350699
31
0.0000000000
0
SPLINE
5
2D1
100
AcDbEntity
8
0
100
AcDbSpline
62
9
6
CONTINUOUS
70
0
71
3
72
13
73
9
74
7
42
0.0000001000
43
0.0000001000
44
0.0000000001
12
0.0016820275
22
-0.8514942700
32
0.0000000000
13
0.3808045871
23
-0.7615990989
33
0.0000000000
40
0.0000000000
40
0.0000000000
40
0.0000000000
40
0.0000000000
40
0.2630444177
40
0.5025315865
40
0.7055467559
40
0.8611973668
40
0.9611250659
40
1.0000000000
40
1.0000000000
40
1.0000000000
40
1.0000000000
10
32.7995108450
20
-21.5191378231
30
0.0000000000
10
32.7996583276
20
-21.5937980946
30
0.0000000000
10
32.8002592862
20
-21.7363942955
30
0.0000000000
10
32.8012046752
20
-21.9367963331
30
0.0000000000
10
32.8043350814
20
-22.1061364332
30
0.0000000000
10
32.8035561229
20
-22.2373392325
30
0.0000000000
10
32.8118155193
20
-22.3188496867
30
0.0000000000
10
32.8071815397
20
-22.3605388471
30
0.0000000000
10
32.8121161241
20
-22.3704078854
30
0.0000000000
11
32.7995108450
21
-21.5191378231
31
0.0000000000
11
32.8003072949
21
-21.7431176585
31
0.0000000000
11
32.8017581962
21
-21.9470348467
31
0.0000000000
11
32.8037863845
21
-22.1198895390
31
0.0000000000
11
32.8062814339
21
-22.2524019135
31
0.0000000000
11
32.8091083513
21
-22.3374429698
31
0.0000000000
11
32.8121161241
21
-22.3704078854
31
0.0000000000
0
SPLINE
5
2D2
100
AcDbEntity
8
0
100
AcDbSpline
62
9
6
CONTINUOUS
70
0
71
3
72
13
73
9
74
7
42
0.0000001000
43
0.0000001000
44
0.0000000001
12
0.0016771959
22
-0.4260821869
32
0.0000000000
13
0.3006167377
23
-0.3019576460
33
0.0000000000
40
0.0000000000
40
0.0000000000
40
0.0000000000
40
0.0000000000
40
0.2617492035
40
0.5016950986
40
0.7052124965
40
0.8610535862
40
0.9609960498
40
1.0000000000
40
1.0000000000
40
1.0000000000
40
1.0000000000
10
33.2993395074
20
-21.4449441918
30
0.0000000000
10
33.2994858423
20
-21.4821197494
30
0.0000000000
10
33.3000495102
20
-21.5533241178
30
0.0000000000
10
33.3011372833
20
-21.6536730204
30
0.0000000000
10
33.3038630528
20
-21.7382103432
30
0.0000000000
10
33.3041058695
20
-21.8048021885
30
0.0000000000
10
33.3104147583
20
-21.8439278572
30
0.0000000000
10
33.3080363732
20
-21.8666533759
30
0.0000000000
10
33.3119447866
20
-21.8705792229
30
0.0000000000
11
33.2993395074
21
-21.4449441918
31
0.0000000000
11
33.3001312194
21
-21.5564689187
31
0.0000000000
11
33.3015837040
21
-21.6586960642
31
0.0000000000
11
33.3036166048
21
-21.7453880418
31
0.0000000000
11
33.3061172783
21
-21.8117425644
31
0.0000000000
11
33.3089499191
21
-21.8542322813
31
0.0000000000
11
33.3119447866
21
-21.8705792229
31
0.0000000000
0
SPLINE
5
2D3
100
AcDbEntity
8
0
100
AcDbSpline
62
9
6
CONTINUOUS
70
0
71
3
72
12
73
8
74
6
42
0.0000001000
43
0.0000001000
44
0.0000000001
12
-0.4046167076
22
-0.2938359126
32
0.0000000000
13
-0.5000541588
23
-0.0002487483
33
0.0000000000
40
0.0000000000
40
0.0000000000
40
0.0000000000
40
0.0000000000
40
0.0555750234
40
0.2003451092
40
0.4207646324
40
0.6959972357
40
1.0000000000
40
1.0000000000
40
1.0000000000
40
1.0000000000
10
33.2738169085
20
-9.8647841804
30
0.0000000000
10
33.2663213808
20
-9.8702274929
30
0.0000000000
10
33.2292948618
20
-9.8641809727
30
0.0000000000
10
33.1623852728
20
-9.8733323035
30
0.0000000000
10
33.0540334733
20
-9.8716636892
30
0.0000000000
10
32.9213712478
20
-9.8742897592
30
0.0000000000
10
32.8246608615
20
-9.8742589732
30
0.0000000000
10
32.7739882460
20
-9.8742841799
30
0.0000000000
11
33.2738169085
21
-9.8647841804
31
0.0000000000
11
33.2461769889
21
-9.8676734926
31
0.0000000000
11
33.1738313692
21
-9.8702892517
31
0.0000000000
11
33.0636295596
21
-9.8723838037
31
0.0000000000
11
32.9260052036
21
-9.8737588416
31
0.0000000000
11
32.7739882460
21
-9.8742841799
31
0.0000000000
0
SPLINE
5
2D4
100
AcDbEntity
8
0
100
AcDbSpline
62
9
6
CONTINUOUS
70
0
71
3
72
10
73
6
74
4
42
0.0000001000
43
0.0000001000
44
0.0000000001
12
0.0057626876
22
-11.6448851991
32
0.0000000000
13
0.0454998749
23
-11.6447977342
33
0.0000000000
40
0.0000000000
40
0.0000000000
40
0.0000000000
40
0.0000000000
40
0.3344434546
40
0.6679851249
40
1.0000000000
40
1.0000000000
40
1.0000000000
40
1.0000000000
10
32.7739882460
20
-9.8742841804
30
0.0000000000
10
32.7746306770
20
-11.1724693918
30
0.0000000000
10
32.7773747444
20
-13.7653389501
30
0.0000000000
10
32.7858742548
20
-17.6469592685
30
0.0000000000
10
32.7944752999
20
-20.2303891346
30
0.0000000000
10
32.7995108450
20
-21.5191378231
30
0.0000000000
11
32.7739882460
21
-9.8742841804
31
0.0000000000
11
32.7781138001
21
-13.7688381065
31
0.0000000000
11
32.7866266477
21
-17.6528837126
31
0.0000000000
11
32.7995108450
21
-21.5191378231
31
0.0000000000
0
SPLINE
5
2D5
100
AcDbEntity
8
0
100
AcDbSpline
62
9
6
CONTINUOUS
70
0
71
3
72
10
73
6
74
4
42
0.0000001000
43
0.0000001000
44
0.0000000001
12
0.0057626883
22
-11.5801917440
32
0.0000000000
13
0.0454998708
23
-11.5801037905
33
0.0000000000
40
0.0000000000
40
0.0000000000
40
0.0000000000
40
0.0000000000
40
0.3344421668
40
0.6679889958
40
1.0000000000
40
1.0000000000
40
1.0000000000
40
1.0000000000
10
33.2738169085
20
-9.8647841804
30
0.0000000000
10
33.2744593371
20
-11.1557523198
30
0.0000000000
10
33.2772034148
20
-13.7342320624
30
0.0000000000
10
33.2857029423
20
-17.5942878505
30
0.0000000000
10
33.2943040215
20
-20.1633702291
30
0.0000000000
10
33.2993395074
20
-21.4449441918
30
0.0000000000
11
33.2738169085
21
-9.8647841804
31
0.0000000000
11
33.2779424384
21
-13.7376868810
31
0.0000000000
11
33.2864554350
21
-17.6002142140
31
0.0000000000
11
33.2993395074
21
-21.4449441918
31
0.0000000000
0
SPLINE
5
2D6
100
AcDbEntity
8
0
100
AcDbSpline
62
9
6
CONTINUOUS
70
0
71
3
72
12
73
8
74
6
42
0.0000001000
43
0.0000001000
44
0.0000000001
12
-0.4046164635
22
0.2938362489
32
0.0000000000
13
-0.5000541589
23
0.0002487483
33
0.0000000000
40
0.0000000000
40
0.0000000000
40
0.0000000000
40
0.0000000000
40
0.0555750125
40
0.2003450937
40
0.4207646181
40
0.6959972273
40
1.0000000000
40
1.0000000000
40
1.0000000000
40
1.0000000000
10
33.2738169085
20
9.1162158196
30
0.0000000000
10
33.2663213868
20
9.1216591374
30
0.0000000000
10
33.2292948608
20
9.1156126053
30
0.0000000000
10
33.1623852828
20
9.1247639471
30
0.0000000000
10
33.0540334784
20
9.1230953272
30
0.0000000000
10
32.9213712520
20
9.1257213995
30
0.0000000000
10
32.8246608629
20
9.1256906129
30
0.0000000000
10
32.7739882460
20
9.1257158196
30
0.0000000000
11
33.2738169085
21
9.1162158196
31
0.0000000000
11
33.2461769943
21
9.1191051320
31
0.0000000000
11
33.1738313770
21
9.1217208912
31
0.0000000000
11
33.0636295668
21
9.1238154433
31
0.0000000000
11
32.9260052078
21
9.1251904812
31
0.0000000000
11
32.7739882460
21
9.1257158196
31
0.0000000000
0
SPLINE
5
2D7
100
AcDbEntity
8
0
100
AcDbSpline
62
9
6
CONTINUOUS
70
0
71
3
72
10
73
6
74
4
42
0.0000001000
43
0.0000001000
44
0.0000000001
12
-0.0094453648
22
-18.9809983461
32
0.0000000000
13
0.0094453641
23
-18.9809983461
33
0.0000000000
40
0.0000000000
40
0.0000000000
40
0.0000000000
40
0.0000000000
40
0.3333311991
40
0.6666690496
40
1.0000000000
40
1.0000000000
40
1.0000000000
40
1.0000000000
10
33.2738169085
20
9.1162158196
30
0.0000000000
10
33.2727674302
20
7.0072295064
30
0.0000000000
10
33.2713683306
20
2.7892144142
30
0.0000000000
10
33.2713683312
20
-3.5377859223
30
0.0000000000
10
33.2727674311
20
-7.7557994408
30
0.0000000000
10
33.2738169085
20
-9.8647841804
30
0.0000000000
11
33.2738169085
21
9.1162158196
31
0.0000000000
11
33.2717181126
21
2.7892564447
31
0.0000000000
11
33.2717181133
21
-3.5378295265
31
0.0000000000
11
33.2738169085
21
-9.8647841804
31
0.0000000000
0
SPLINE
5
2D8
100
AcDbEntity
8
0
100
AcDbSpline
62
9
6
CONTINUOUS
70
0
71
3
72
12
73
8
74
6
42
0.0000001000
43
0.0000001000
44
0.0000000001
12
-0.0880309269
22
0.5047725032
32
0.0000000000
13
-0.5123873997
23
0.0019689279
33
0.0000000000
40
0.0000000000
40
0.0000000000
40
0.0000000000
40
0.0000000000
40
0.0695900730
40
0.2162777714
40
0.4337158990
40
0.7031599860
40
1.0000000000
40
1.0000000000
40
1.0000000000
40
1.0000000000
10
33.2993395074
20
20.6963758310
30
0.0000000000
10
33.2972974812
20
20.7080848828
30
0.0000000000
10
33.2563239371
20
20.7266564465
30
0.0000000000
10
33.1897224850
20
20.7427603097
30
0.0000000000
10
33.0797309954
20
20.7581672092
30
0.0000000000
10
32.9471987557
20
20.7678022510
30
0.0000000000
10
32.8502098726
20
20.7703746401
30
0.0000000000
10
32.7995108450
20
20.7705694589
30
0.0000000000
11
33.2993395074
21
20.6963758310
31
0.0000000000
11
33.2717335816
21
20.7189448085
31
0.0000000000
11
33.1994023591
21
20.7393762258
31
0.0000000000
11
33.0891964955
21
20.7557349767
31
0.0000000000
11
32.9515538404
21
20.7664716867
31
0.0000000000
11
32.7995108450
21
20.7705694589
31
0.0000000000
0
SPLINE
5
2D9
100
AcDbEntity
8
0
100
AcDbSpline
62
9
6
CONTINUOUS
70
0
71
3
72
10
73
6
74
4
42
0.0000001000
43
0.0000001000
44
0.0000000001
12
-0.0454999047
22
-11.6447977340
32
0.0000000000
13
-0.0057627171
23
-11.6448851991
33
0.0000000000
40
0.0000000000
40
0.0000000000
40
0.0000000000
40
0.0000000000
40
0.3320148741
40
0.6655565443
40
1.0000000000
40
1.0000000000
40
1.0000000000
40
1.0000000000
10
32.7995108450
20
20.7705694624
30
0.0000000000
10
32.7944752966
20
19.4818207780
30
0.0000000000
10
32.7858742591
20
16.8983909160
30
0.0000000000
10
32.7773747401
20
13.0167705977
30
0.0000000000
10
32.7746306803
20
10.4239010352
30
0.0000000000
10
32.7739882460
20
9.1257158196
30
0.0000000000
11
32.7995108450
21
20.7705694624
31
0.0000000000
11
32.7866266487
21
16.9043153641
31
0.0000000000
11
32.7781137992
21
13.0202697582
31
0.0000000000
11
32.7739882460
21
9.1257158196
31
0.0000000000
0
SPLINE
5
2DA
100
AcDbEntity
8
0
100
AcDbSpline
62
9
6
CONTINUOUS
70
0
71
3
72
10
73
6
74
4
42
0.0000001000
43
0.0000001000
44
0.0000000001
12
-0.0454999007
22
-11.5801037904
32
0.0000000000
13
-0.0057627176
23
-11.5801917440
33
0.0000000000
40
0.0000000000
40
0.0000000000
40
0.0000000000
40
0.0000000000
40
0.3320136094
40
0.6655604474
40
1.0000000000
40
1.0000000000
40
1.0000000000
40
1.0000000000
10
33.2993395074
20
20.6963758310
30
0.0000000000
10
33.2943039787
20
19.4147918122
30
0.0000000000
10
33.2857028850
20
16.8456993428
30
0.0000000000
10
33.2772033834
20
12.9856435545
30
0.0000000000
10
33.2744593353
20
10.4071738682
30
0.0000000000
10
33.2738169085
20
9.1162158196
30
0.0000000000
11
33.2993395074
21
20.6963758310
31
0.0000000000
11
33.2864553522
21
16.8516156847
31
0.0000000000
11
33.2779423880
21
12.9890882476
31
0.0000000000
11
33.2738169085
21
9.1162158196
31
0.0000000000
0
SPLINE
5
2DB
100
AcDbEntity
8
0
100
AcDbSpline
62
9
6
CONTINUOUS
70
0
71
3
72
12
73
8
74
6
42
0.0000001000
43
0.0000001000
44
0.0000000001
12
-0.0005356739
22
0.7817393693
32
0.0000000000
13
-0.7817393693
23
0.0005356736
33
0.0000000000
40
0.0000000000
40
0.0000000000
40
0.0000000000
40
0.0000000000
40
0.1999735344
40
0.3999831618
40
0.6000075999
40
0.8000204113
40
1.0000000000
40
1.0000000000
40
1.0000000000
40
1.0000000000
10
33.3119447866
20
21.1220108622
30
0.0000000000
10
33.3119090798
20
21.1741199237
30
0.0000000000
10
33.2952661007
20
21.2790689771
30
0.0000000000
10
33.2230692186
20
21.4205332016
30
0.0000000000
10
33.1106438822
20
21.5329601823
30
0.0000000000
10
32.9691782893
20
21.6051599327
30
0.0000000000
10
32.8642267634
20
21.6218038169
30
0.0000000000
10
32.8121161243
20
21.6218395248
30
0.0000000000
11
33.3119447866
21
21.1220108622
31
0.0000000000
11
33.2873976130
21
21.2763988034
31
0.0000000000
11
33.2163674953
21
21.4156889501
31
0.0000000000
11
33.1058001267
21
21.5262579346
31
0.0000000000
11
32.9665086220
21
21.5972908683
31
0.0000000000
11
32.8121161243
21
21.6218395248
31
0.0000000000
0
SPLINE
5
2DC
100
AcDbEntity
8
0
100
AcDbSpline
62
9
6
CONTINUOUS
70
0
71
3
72
13
73
9
74
7
42
0.0000001000
43
0.0000001000
44
0.0000000001
12
-0.3797163017
22
-0.7621423039
32
0.0000000000
13
-0.0016803622
23
-0.8514942968
33
0.0000000000
40
0.0000000000
40
0.0000000000
40
0.0000000000
40
0.0000000000
40
0.0388751030
40
0.1388055786
40
0.2944585114
40
0.4974731207
40
0.7369557924
40
1.0000000000
40
1.0000000000
40
1.0000000000
40
1.0000000000
10
32.8121161241
20
21.6218395247
30
0.0000000000
10
32.8071956207
20
21.6119634045
30
0.0000000000
10
32.8117978637
20
21.5702890630
30
0.0000000000
10
32.8035658374
20
21.4887635364
30
0.0000000000
10
32.8043294022
20
21.3575665387
30
0.0000000000
10
32.8012066548
20
21.1882243347
30
0.0000000000
10
32.8002586993
20
20.9878248006
30
0.0000000000
10
32.7996581815
20
20.8452296766
30
0.0000000000
10
32.7995108450
20
20.7705694624
30
0.0000000000
11
32.8121161241
21
21.6218395247
31
0.0000000000
11
32.8091081345
21
21.5888744835
31
0.0000000000
11
32.8062810061
21
21.5038310664
31
0.0000000000
11
32.8037854209
21
21.3713167209
31
0.0000000000
11
32.8017581611
21
21.1984624899
31
0.0000000000
11
32.8003073143
21
20.9945491250
31
0.0000000000
11
32.7995108450
21
20.7705694624
31
0.0000000000
0
SPLINE
5
2DD
100
AcDbEntity
8
0
100
AcDbSpline
62
9
6
CONTINUOUS
70
0
71
3
72
13
73
9
74
7
42
0.0000001000
43
0.0000001000
44
0.0000000001
12
-0.2997536890
22
-0.3028144005
32
0.0000000000
13
-0.0016754764
23
-0.4260821846
33
0.0000000000
40
0.0000000000
40
0.0000000000
40
0.0000000000
40
0.0000000000
40
0.0390188125
40
0.1390759042
40
0.2951136076
40
0.4985425613
40
0.7383142263
40
1.0000000000
40
1.0000000000
40
1.0000000000
40
1.0000000000
10
33.3119447866
20
21.1220108622
30
0.0000000000
10
33.3080461090
20
21.1180723761
30
0.0000000000
10
33.3104021106
20
21.0953506223
30
0.0000000000
10
33.3041081370
20
21.0561607163
30
0.0000000000
10
33.3038569543
20
20.9895469678
30
0.0000000000
10
33.3011374425
20
20.9050142245
30
0.0000000000
10
33.3000488166
20
20.8047134280
30
0.0000000000
10
33.2994856569
20
20.7335423798
30
0.0000000000
10
33.2993395074
20
20.6963758310
30
0.0000000000
11
33.3119447866
21
21.1220108622
31
0.0000000000
11
33.3089491802
21
21.1056576183
31
0.0000000000
11
33.3061144232
21
21.0631190936
31
0.0000000000
11
33.3036124915
21
20.9966807862
31
0.0000000000
11
33.3015819262
21
20.9100264509
31
0.0000000000
11
33.3001309675
21
20.8078735302
31
0.0000000000
11
33.2993395074
21
20.6963758310
31
0.0000000000
0
SPLINE
5
2DE
100
AcDbEntity
8
0
100
AcDbSpline
62
9
6
CONTINUOUS
70
0
71
3
72
10
73
6
74
4
42
0.0000001000
43
0.0000001000
44
0.0000000001
12
0.2209439691
22
-11.6262761708
32
0.0000000000
13
1.7254968972
23
-11.4996423551
33
0.0000000000
40
0.0000000000
40
0.0000000000
40
0.0000000000
40
0.0000000000
40
0.3333316761
40
0.6666701152
40
1.0000000000
40
1.0000000000
40
1.0000000000
40
1.0000000000
10
-14.3642710825
20
-9.8647841804
30
0.0000000000
10
-14.3397218747
20
-11.1565862211
30
0.0000000000
10
-14.2346520924
20
-13.7395163025
30
0.0000000000
10
-13.9094674489
20
-17.6030719069
30
0.0000000000
10
-13.5813222440
20
-20.1672193712
30
0.0000000000
10
-13.3896023500
20
-21.4449441918
30
0.0000000000
11
-14.3642710825
21
-9.8647841804
31
0.0000000000
11
-14.2067234496
21
-13.7376868810
31
0.0000000000
11
-13.8816252268
21
-17.6002142140
31
0.0000000000
11
-13.3896023500
21
-21.4449441918
31
0.0000000000
0
SPLINE
5
2DF
100
AcDbEntity
8
0
100
AcDbSpline
62
9
6
CONTINUOUS
70
0
71
3
72
13
73
9
74
7
42
0.0000001000
43
0.0000001000
44
0.0000000001
12
0.1035013030
22
-0.6885306357
32
0.0000000000
13
0.6960257151
23
-0.0183073726
33
0.0000000000
40
0.0000000000
40
0.0000000000
40
0.0000000000
40
0.0000000000
40
0.1659570361
40
0.3329995281
40
0.5001366579
40
0.6671511769
40
0.8340696777
40
1.0000000000
40
1.0000000000
40
1.0000000000
40
1.0000000000
10
-13.3896023500
20
-21.4449441918
30
0.0000000000
10
-13.3838767601
20
-21.4830330263
30
0.0000000000
10
-13.3634718676
20
-21.5584222881
30
0.0000000000
10
-13.3076076659
20
-21.6613244258
30
0.0000000000
10
-13.2293062924
20
-21.7487842811
30
0.0000000000
10
-13.1329199850
20
-21.8157381599
30
0.0000000000
10
-13.0240088615
20
-21.8585437779
30
0.0000000000
10
-12.9467234161
20
-21.8695666402
30
0.0000000000
10
-12.9082261590
20
-21.8705792229
30
0.0000000000
11
-13.3896023500
21
-21.4449441918
31
0.0000000000
11
-13.3593680890
21
-21.5564689187
31
0.0000000000
11
-13.3038999427
21
-21.6586960642
31
0.0000000000
11
-13.2262665900
21
-21.7453880418
31
0.0000000000
11
-13.1307697222
21
-21.8117425644
31
0.0000000000
11
-13.0225955371
21
-21.8542322813
31
0.0000000000
11
-12.9082261590
21
-21.8705792229
31
0.0000000000
0
SPLINE
5
2E0
100
AcDbEntity
8
0
100
AcDbSpline
62
9
6
CONTINUOUS
70
0
71
3
72
12
73
8
74
6
42
0.0000001000
43
0.0000001000
44
0.0000000001
12
-0.4816492978
22
-0.0723203075
32
0.0000000000
13
0.0724389656
23
-0.4816314662
33
0.0000000000
40
0.0000000000
40
0.0000000000
40
0.0000000000
40
0.0000000000
40
0.3108014490
40
0.5896483998
40
0.8101320253
40
0.9513719058
40
1.0000000000
40
1.0000000000
40
1.0000000000
40
1.0000000000
10
-13.3896023500
20
-21.4449441918
30
0.0000000000
10
-13.4395014498
20
-21.4524366106
30
0.0000000000
10
-13.5352215405
20
-21.4659631015
30
0.0000000000
10
-13.6611807502
20
-21.4885843295
30
0.0000000000
10
-13.7743406106
20
-21.4971294210
30
0.0000000000
10
-13.8204073931
20
-21.5212739451
30
0.0000000000
10
-13.8721344137
20
-21.5113281298
30
0.0000000000
10
-13.8709602241
20
-21.5191350699
30
0.0000000000
11
-13.3896023500
21
-21.4449441918
31
0.0000000000
11
-13.5392859564
21
-21.4675124558
31
0.0000000000
11
-13.6735524318
21
-21.4879431297
31
0.0000000000
11
-13.7796854340
21
-21.5043012297
31
0.0000000000
11
-13.8476331344
21
-21.5150374849
31
0.0000000000
11
-13.8709602241
21
-21.5191350699
31
0.0000000000
0
SPLINE
5
2E1
100
AcDbEntity
8
0
100
AcDbSpline
62
9
6
CONTINUOUS
70
0
71
3
72
12
73
8
74
6
42
0.0000001000
43
0.0000001000
44
0.0000000001
12
-0.0130830273
22
-0.4999632459
32
0.0000000000
13
0.4999630113
23
-0.0130919922
33
0.0000000000
40
0.0000000000
40
0.0000000000
40
0.0000000000
40
0.0000000000
40
0.3087727501
40
0.5873022216
40
0.8083788267
40
0.9504486572
40
1.0000000000
40
1.0000000000
40
1.0000000000
40
1.0000000000
10
-12.9082261590
20
-21.8705792229
30
0.0000000000
10
-12.9095727198
20
-21.9220375650
30
0.0000000000
10
-12.9124120245
20
-22.0208269266
30
0.0000000000
10
-12.9116789295
20
-22.1521002813
30
0.0000000000
10
-12.9184807852
20
-22.2679983300
30
0.0000000000
10
-12.9047494824
20
-22.3197249423
30
0.0000000000
10
-12.9164841052
20
-22.3701916435
30
0.0000000000
10
-12.9082261590
20
-22.3704078854
30
0.0000000000
11
-12.9082261590
21
-21.8705792229
31
0.0000000000
11
-12.9116262031
21
-22.0249696614
31
0.0000000000
11
-12.9134136323
21
-22.1642603621
31
0.0000000000
11
-12.9134136318
21
-22.2748283762
31
0.0000000000
11
-12.9116262019
21
-22.3458598991
31
0.0000000000
11
-12.9082261590
21
-22.3704078854
31
0.0000000000
0
SPLINE
5
2E2
100
AcDbEntity
8
0
100
AcDbSpline
62
9
6
CONTINUOUS
70
0
71
3
72
13
73
9
74
7
42
0.0000001000
43
0.0000001000
44
0.0000000001
12
-0.6960229514
22
-0.0184121037
32
0.0000000000
13
-0.1033975329
23
-0.6885462255
33
0.0000000000
40
0.0000000000
40
0.0000000000
40
0.0000000000
40
0.0000000000
40
0.1659717210
40
0.3330238865
40
0.5001637533
40
0.6671751637
40
0.8340840451
40
1.0000000000
40
1.0000000000
40
1.0000000000
40
1.0000000000
10
-12.9082261590
20
21.1220108622
30
0.0000000000
10
-12.9467328680
20
21.1209922327
30
0.0000000000
10
-13.0240590636
20
21.1099706123
30
0.0000000000
10
-13.1330322045
20
21.0671217425
30
0.0000000000
10
-13.2294212524
20
21.0001142591
30
0.0000000000
10
-13.3076689978
20
20.9126507019
30
0.0000000000
10
-13.3634827187
20
20.8098048434
30
0.0000000000
10
-13.3838839165
20
20.7344560992
30
0.0000000000
10
-13.3896023500
20
20.6963758310
30
0.0000000000
11
-12.9082261590
21
21.1220108622
31
0.0000000000
11
-13.0226237535
21
21.1056576183
31
0.0000000000
11
-13.1308787543
21
21.0631190936
31
0.0000000000
11
-13.2264236716
21
20.9966807862
31
0.0000000000
11
-13.3039678342
21
20.9100264509
31
0.0000000000
11
-13.3593777105
21
20.8078735302
31
0.0000000000
11
-13.3896023500
21
20.6963758310
31
0.0000000000
0
SPLINE
5
2E3
100
AcDbEntity
8
0
100
AcDbSpline
62
9
6
CONTINUOUS
70
0
71
3
72
12
73
8
74
6
42
0.0000001000
43
0.0000001000
44
0.0000000001
12
-0.0130830414
22
0.4999632442
32
0.0000000000
13
0.4999630099
23
0.0130919922
33
0.0000000000
40
0.0000000000
40
0.0000000000
40
0.0000000000
40
0.0000000000
40
0.3087677571
40
0.5872961223
40
0.8083746683
40
0.9504473185
40
1.0000000000
40
1.0000000000
40
1.0000000000
40
1.0000000000
10
-12.9082261590
20
21.1220108622
30
0.0000000000
10
-12.9095726994
20
21.1734683720
30
0.0000000000
10
-12.9124119750
20
21.2722566922
30
0.0000000000
10
-12.9116789190
20
21.4035294013
30
0.0000000000
10
-12.9184808617
20
21.5194280835
30
0.0000000000
10
-12.9047493155
20
21.5711554430
30
0.0000000000
10
-12.9164843236
20
21.6216232770
30
0.0000000000
10
-12.9082261543
20
21.6218395248
30
0.0000000000
11
-12.9082261590
21
21.1220108622
31
0.0000000000
11
-12.9116261623
21
21.2763988034
31
0.0000000000
11
-12.9134136148
21
21.4156889501
31
0.0000000000
11
-12.9134136553
21
21.5262579346
31
0.0000000000
11
-12.9116262379
21
21.5972908683
31
0.0000000000
11
-12.9082261543
21
21.6218395248
31
0.0000000000
0
SPLINE
5
2E4
100
AcDbEntity
8
0
100
AcDbSpline
62
9
6
CONTINUOUS
70
0
71
3
72
10
73
6
74
4
42
0.0000001000
43
0.0000001000
44
0.0000000001
12
-1.7254980072
22
-11.4996421885
32
0.0000000000
13
-0.2209450914
23
-11.6262761495
33
0.0000000000
40
0.0000000000
40
0.0000000000
40
0.0000000000
40
0.0000000000
40
0.3333324927
40
0.6666709319
40
1.0000000000
40
1.0000000000
40
1.0000000000
40
1.0000000000
10
-13.3896023500
20
20.6963758310
30
0.0000000000
10
-13.5813238673
20
19.4186410323
30
0.0000000000
10
-13.9094696389
20
16.8544834288
30
0.0000000000
10
-14.2346532959
20
12.9909277414
30
0.0000000000
10
-14.3397219420
20
10.4080077512
30
0.0000000000
10
-14.3642710825
20
9.1162158196
30
0.0000000000
11
-13.3896023500
21
20.6963758310
31
0.0000000000
11
-13.8816283886
21
16.8516156847
31
0.0000000000
11
-14.2067253750
21
12.9890882476
31
0.0000000000
11
-14.3642710825
21
9.1162158196
31
0.0000000000
0
SPLINE
5
2E5
100
AcDbEntity
8
0
100
AcDbSpline
62
9
6
CONTINUOUS
70
0
71
3
72
12
73
8
74
6
42
0.0000001000
43
0.0000001000
44
0.0000000001
12
-0.4816675985
22
0.0723230102
32
0.0000000000
13
0.0722746925
23
0.4816748510
33
0.0000000000
40
0.0000000000
40
0.0000000000
40
0.0000000000
40
0.0000000000
40
0.3107996593
40
0.5896463586
40
0.8101305820
40
0.9513712896
40
1.0000000000
40
1.0000000000
40
1.0000000000
40
1.0000000000
10
-13.3896023500
20
20.6963758310
30
0.0000000000
10
-13.4395030585
20
20.7038684867
30
0.0000000000
10
-13.5352261260
20
20.7173953909
30
0.0000000000
10
-13.6611911468
20
20.7400176070
30
0.0000000000
10
-13.7743523465
20
20.7485625505
30
0.0000000000
10
-13.8204271208
20
20.7727090189
30
0.0000000000
10
-13.8721500596
20
20.7627617167
30
0.0000000000
10
-13.8709785179
20
20.7705694589
30
0.0000000000
11
-13.3896023500
21
20.6963758310
31
0.0000000000
11
-13.5392907818
21
20.7189448085
31
0.0000000000
11
-13.6735622380
21
20.7393762258
31
0.0000000000
11
-13.7796995614
21
20.7557349767
31
0.0000000000
11
-13.8476502431
21
20.7664716867
31
0.0000000000
11
-13.8709785179
21
20.7705694589
31
0.0000000000
0
SPLINE
5
2E6
100
AcDbEntity
8
0
100
AcDbSpline
62
9
6
CONTINUOUS
70
0
71
3
72
10
73
6
74
4
42
0.0000001000
43
0.0000001000
44
0.0000000001
12
-0.3606581400
22
-18.9785887348
32
0.0000000000
13
0.3606581106
23
-18.9785887353
33
0.0000000000
40
0.0000000000
40
0.0000000000
40
0.0000000000
40
0.0000000000
40
0.3333401077
40
0.6666601410
40
1.0000000000
40
1.0000000000
40
1.0000000000
40
1.0000000000
10
-14.3642710825
20
9.1162158196
30
0.0000000000
10
-14.4043450236
20
7.0074408822
30
0.0000000000
10
-14.4577784100
20
2.7894596040
30
0.0000000000
10
-14.4577783843
20
-3.5380311123
30
0.0000000000
10
-14.4043449904
20
-7.7560108162
30
0.0000000000
10
-14.3642710825
20
-9.8647841804
30
0.0000000000
11
-14.3642710825
21
9.1162158196
31
0.0000000000
11
-14.4444208636
21
2.7892564447
31
0.0000000000
11
-14.4444208346
21
-3.5378295265
31
0.0000000000
11
-14.3642710825
21
-9.8647841804
31
0.0000000000
0
ENDSEC
0
SECTION
2
OBJECTS
0
DICTIONARY
5
2E7
100
AcDbDictionary
3
ACAD_GROUP
350
2E8
3
ACAD_MLINESTYLE
350
2E9
0
DICTIONARY
5
2E8
102
{ACAD_REACTORS
330
2E7
102
}
100
AcDbDictionary
0
DICTIONARY
5
2E9
102
{ACAD_REACTORS
330
2E7
102
}
100
AcDbDictionary
3
STANDARD
350
2EA
0
MLINESTYLE
5
2EA
102
{ACAD_REACTORS
330
2E9
102
}
100
AcDbMlineStyle
2
STANDARD
70
0
3

62
256
51
90.0
52
90.0
71
2
49
0.5
62
256
6
BYLAYER
49
-0.5
62
256
6
BYLAYER
0
ENDSEC
0
EOF
