0
SECTION
2
HEADER
9
$ACADVER
1
AC1014
9
$HANDSEED
5
       35D
9
$EXTMAX
10
297.0000000000
20
210.0000000000
9
$EXTMIN
10
0.0000000000
20
0.0000000000
9
$LIMMIN
10
0.0000000000
20
0.0000000000
9
$LIMMAX
10
297.0000000000
20
210.0000000000
9
$VIEWCTR
10
148.5000000000
20
105.0000000000
9
$VIEWSIZE
40
210.0000000000
9
$CLAYER
8
0
9
$LTSCALE
40
16.3350000000
9
$CELTYPE
6
BYLAYER
9
$DIMSCALE
40
1
9
$DIMASZ
40
3.0000000000
9
$DIMEXO
40
1.8562500000
9
$DIMDLI
40
11.2860000000
9
$DIMEXE
40
5.3460000000
9
$DIMCEN
40
2.6730000000
9
$DIMLFAC
40
1.0000000000
9
$DIMTXT
40
3.0000000000
9
$DIMTOL
70
1
9
$DIMLIM
70
0
9
$DIMTFAC
40
1.0000000000
9
$DIMTP
40
0.0100000000
9
$DIMTM
40
0.0100000000
9
$MEASUREMENT
70
1
0
ENDSEC
0
SECTION
2
CLASSES
0
ENDSEC
0
SECTION
2
TABLES
0
TABLE
2
VPORT
5
8
100
AcDbSymbolTable
70
2
0
VPORT
5
1F4
100
AcDbSymbolTableRecord
100
AcDbViewportTableRecord
2
*ACTIVE
70
0
10
0.0
20
0.0
11
1.0
21
1.0
12
148.5000000000
22
105.0000000000
13
0.0
23
0.0
14
1.0
24
1.0
15
0.0
25
0.0
16
0.0
26
0.0
36
1.0
17
0.0
27
0.0
37
0.0
40
210.0000000000
41
1.4142857143
42
50.0
43
0.0
44
0.0
50
0.0
51
0.0
71
0
72
100
73
1
74
1
75
0
76
0
77
0
78
0
0
ENDTAB
0
TABLE
2
LTYPE
5
5
100
AcDbSymbolTable
70
6
0
LTYPE
5
14
100
AcDbSymbolTableRecord
100
AcDbLinetypeTableRecord
2
BYBLOCK
70
0
3

72
65
73
0
40
0.0
0
LTYPE
5
15
100
AcDbSymbolTableRecord
100
AcDbLinetypeTableRecord
2
BYLAYER
70
0
3

72
65
73
0
40
0.0
0
LTYPE
5
16
100
AcDbSymbolTableRecord
100
AcDbLinetypeTableRecord
2
CONTINUOUS
70
64
3
Solid line
72
65
73
0
40
0
0
LTYPE
5
1F5
100
AcDbSymbolTableRecord
100
AcDbLinetypeTableRecord
2
CENTER
70
64
3
____ _ ____ _ ____ _ ____ _ ____ _ ____ _ ____
72
65
73
4
40
0.6
49
0.375
74
0
49
-0.075
74
0
49
0.075
74
0
49
-0.075
74
0
0
LTYPE
5
1F6
100
AcDbSymbolTableRecord
100
AcDbLinetypeTableRecord
2
HIDDEN
70
64
3
- - - - - - - - - - - - - - - - - - - -
72
65
73
2
40
0.2
49
0.1
74
0
49
-0.1
74
0
0
LTYPE
5
1F7
100
AcDbSymbolTableRecord
100
AcDbLinetypeTableRecord
2
PHANTOM
70
64
3
_____ _ _ _____ _ _ _____ _ _ _____
72
65
73
6
40
0.8
49
0.45
74
0
49
-0.05
74
0
49
0.1
74
0
49
-0.05
74
0
49
0.1
74
0
49
-0.05
74
0
0
LTYPE
5
1F8
100
AcDbSymbolTableRecord
100
AcDbLinetypeTableRecord
2
DOT
70
64
3
. . . . . . . . . . . . . . . . . . . .
72
65
73
2
40
0.2
49
0.1
74
0
49
-0.1
74
0
0
LTYPE
5
1F9
100
AcDbSymbolTableRecord
100
AcDbLinetypeTableRecord
2
DASHED
70
64
3
- - - - - - - - - - - - - - - - - - - -
72
65
73
2
40
0.2
49
0.1
74
0
49
-0.1
74
0
0
ENDTAB
0
TABLE
2
LAYER
5
2
100
AcDbSymbolTable
70
36
0
LAYER
5
10
100
AcDbSymbolTableRecord
100
AcDbLayerTableRecord
2
0
70
0
62
7
6
CONTINUOUS
0
LAYER
5
1FA
100
AcDbSymbolTableRecord
100
AcDbLayerTableRecord
2
DEFAULT_1
70
0
62
7
6
CENTER
0
LAYER
5
1FB
100
AcDbSymbolTableRecord
100
AcDbLayerTableRecord
2
DEFAULT_2
70
0
62
8
6
HIDDEN
0
LAYER
5
1FC
100
AcDbSymbolTableRecord
100
AcDbLayerTableRecord
2
DEFAULT_3
70
0
62
7
6
PHANTOM
0
LAYER
5
1FD
100
AcDbSymbolTableRecord
100
AcDbLayerTableRecord
2
ASSI
70
0
62
7
6
CONTINUOUS
0
LAYER
5
1FE
100
AcDbSymbolTableRecord
100
AcDbLayerTableRecord
2
COORDINATE
70
0
62
7
6
CONTINUOUS
0
LAYER
5
1FF
100
AcDbSymbolTableRecord
100
AcDbLayerTableRecord
2
COORD_ORIGINE
70
0
62
7
6
CONTINUOUS
0
LAYER
5
200
100
AcDbSymbolTableRecord
100
AcDbLayerTableRecord
2
COPY_GEOM
70
0
62
7
6
CONTINUOUS
0
LAYER
5
201
100
AcDbSymbolTableRecord
100
AcDbLayerTableRecord
2
COPY_GEOMETRY
70
0
62
7
6
CONTINUOUS
0
LAYER
5
202
100
AcDbSymbolTableRecord
100
AcDbLayerTableRecord
2
CURVE
70
0
62
7
6
CONTINUOUS
0
LAYER
5
203
100
AcDbSymbolTableRecord
100
AcDbLayerTableRecord
2
DRAFT
70
0
62
7
6
CONTINUOUS
0
LAYER
5
204
100
AcDbSymbolTableRecord
100
AcDbLayerTableRecord
2
IGS
70
0
62
7
6
CONTINUOUS
0
LAYER
5
205
100
AcDbSymbolTableRecord
100
AcDbLayerTableRecord
2
NOTE
70
0
62
7
6
CONTINUOUS
0
LAYER
5
206
100
AcDbSymbolTableRecord
100
AcDbLayerTableRecord
2
PIANI
70
0
62
7
6
CONTINUOUS
0
LAYER
5
207
100
AcDbSymbolTableRecord
100
AcDbLayerTableRecord
2
PIANI_ORIGINE
70
0
62
7
6
CONTINUOUS
0
LAYER
5
208
100
AcDbSymbolTableRecord
100
AcDbLayerTableRecord
2
PIANI_RIFERIMENTO
70
0
62
7
6
CONTINUOUS
0
LAYER
5
209
100
AcDbSymbolTableRecord
100
AcDbLayerTableRecord
2
PUNTI
70
0
62
7
6
CONTINUOUS
0
LAYER
5
20A
100
AcDbSymbolTableRecord
100
AcDbLayerTableRecord
2
RACCORDO
70
0
62
7
6
CONTINUOUS
0
LAYER
5
20B
100
AcDbSymbolTableRecord
100
AcDbLayerTableRecord
2
SMUSSO
70
0
62
7
6
CONTINUOUS
0
LAYER
5
20C
100
AcDbSymbolTableRecord
100
AcDbLayerTableRecord
2
SNAPLINE
70
0
62
7
6
CONTINUOUS
0
LAYER
5
20D
100
AcDbSymbolTableRecord
100
AcDbLayerTableRecord
2
SUPERFICI
70
0
62
7
6
CONTINUOUS
0
LAYER
5
20E
100
AcDbSymbolTableRecord
100
AcDbLayerTableRecord
2
SUP_ARANCIONE
70
0
62
7
6
CONTINUOUS
0
LAYER
5
20F
100
AcDbSymbolTableRecord
100
AcDbLayerTableRecord
2
SUP_DIFF
70
0
62
7
6
CONTINUOUS
0
LAYER
5
210
100
AcDbSymbolTableRecord
100
AcDbLayerTableRecord
2
SUP_ROSSA
70
0
62
7
6
CONTINUOUS
0
LAYER
5
211
100
AcDbSymbolTableRecord
100
AcDbLayerTableRecord
2
SUP_VERDE
70
0
62
7
6
CONTINUOUS
0
LAYER
5
212
100
AcDbSymbolTableRecord
100
AcDbLayerTableRecord
2
TRASH
70
0
62
7
6
CONTINUOUS
0
LAYER
5
213
100
AcDbSymbolTableRecord
100
AcDbLayerTableRecord
2
XSEC_DATUMS
70
0
62
7
6
CONTINUOUS
0
ENDTAB
0
TABLE
2
STYLE
5
3
100
AcDbSymbolTable
70
1
0
STYLE
5
11
100
AcDbSymbolTableRecord
100
AcDbTextStyleTableRecord
2
STANDARD
70
0
40
0.0
41
0.8000000000
50
0.0
71
0
42
0.2
3
txt
4

0
ENDTAB
0
TABLE
2
VIEW
5
6
100
AcDbSymbolTable
70
0
0
ENDTAB
0
TABLE
2
UCS
5
7
100
AcDbSymbolTable
70
0
0
ENDTAB
0
TABLE
2
APPID
5
9
100
AcDbSymbolTable
70
1
0
APPID
5
214
100
AcDbSymbolTableRecord
100
AcDbRegAppTableRecord
2
ACAD
70
0
0
ENDTAB
0
TABLE
2
DIMSTYLE
5
A
100
AcDbSymbolTable
70
1
0
DIMSTYLE
105
215
100
AcDbSymbolTableRecord
100
AcDbDimStyleTableRecord
2
STANDARD
70
0
3

4

5

6

7

40
1.0
41
3.0000000000
42
0.0625
43
0.38
44
0.18
45
0.0
46
0.0
47
0.0100000000
48
0.0100000000
140
3.0000000000
141
0.09
142
0.0
143
25.4
144
1.0000000000
145
0.0
146
1.0000000000
147
0.09
71
1
72
0
73
0
74
0
75
0
76
0
77
1
78
8
170
0
171
2
172
0
173
0
174
0
175
0
176
0
177
0
178
0
270
2
271
2
272
2
273
2
274
2
340
11
275
0
280
0
281
0
282
0
283
1
284
8
285
0
286
0
287
3
288
0
0
DIMSTYLE
105
216
100
AcDbSymbolTableRecord
100
AcDbDimStyleTableRecord
2
DIMSTYLE_1
70
0
3

4

5

6

7

40
1.0
41
3.0000000000
42
0.0625
43
0.38
44
0.18
45
0.0
46
0.0
47
0.0000000000
48
0.0000000000
140
3.0000000000
141
0.09
142
0.0
143
25.4
144
1.0000000000
145
0.0
146
1.0000000000
147
0.09
71
0
72
0
73
0
74
0
75
0
76
0
77
1
78
8
170
0
171
2
172
0
173
0
174
0
175
0
176
0
177
0
178
0
270
2
271
2
272
2
273
2
274
2
340
11
275
0
280
0
281
0
282
0
283
1
284
8
285
0
286
0
287
3
288
0
0
ENDTAB
0
TABLE
2
BLOCK_RECORD
5
1
100
AcDbSymbolTable
70
0
0
BLOCK_RECORD
5
1B
100
AcDbSymbolTableRecord
100
AcDbBlockTableRecord
2
*MODEL_SPACE
0
BLOCK_RECORD
5
1C
100
AcDbSymbolTableRecord
100
AcDbBlockTableRecord
2
*PAPER_SPACE
0
BLOCK_RECORD
5
217
100
AcDbSymbolTableRecord
100
AcDbBlockTableRecord
2
*D0
0
BLOCK_RECORD
5
218
100
AcDbSymbolTableRecord
100
AcDbBlockTableRecord
2
*D1
0
BLOCK_RECORD
5
219
100
AcDbSymbolTableRecord
100
AcDbBlockTableRecord
2
*D2
0
ENDTAB
0
ENDSEC
0
SECTION
2
BLOCKS
0
BLOCK
5
1E
100
AcDbEntity
8
0
100
AcDbBlockBegin
2
*MODEL_SPACE
70
0
10
0.0
20
0.0
30
0.0
3
*MODEL_SPACE
1

0
ENDBLK
5
1F
100
AcDbEntity
8
0
100
AcDbBlockEnd
0
BLOCK
5
20
100
AcDbEntity
8
0
100
AcDbBlockBegin
2
*PAPER_SPACE
70
0
10
0.0
20
0.0
30
0.0
3
*PAPER_SPACE
1

0
ENDBLK
5
21
100
AcDbEntity
8
0
100
AcDbBlockEnd
0
BLOCK
5
21A
100
AcDbEntity
8
0
100
AcDbBlockBegin
62
7
6
CONTINUOUS
2
*D0
70
65
10
0.0000000000
20
0.0000000000
3
*D0
1

0
TEXT
5
21B
100
AcDbEntity
8
0
100
AcDbText
62
7
6
CONTINUOUS
10
-37.5927404067
20
31.8325319931
7
STANDARD
40
3.0000000000
1
6
41
0.7857142857
72
0
100
AcDbText
0
LINE
5
21C
100
AcDbEntity
8
0
100
AcDbLine
62
7
6
CONTINUOUS
10
-33.5189610799
20
22.3661285911
11
-33.5189610799
21
32.5825319931
0
LINE
5
21D
100
AcDbEntity
8
0
100
AcDbLine
62
7
6
CONTINUOUS
10
-39.5189610799
20
0.7659572535
11
-39.5189610799
21
32.5825319931
0
LINE
5
21E
100
AcDbEntity
8
0
100
AcDbLine
62
7
6
CONTINUOUS
10
-33.5189610799
20
31.0825319931
11
-29.5189610799
21
31.0825319931
0
LINE
5
21F
100
AcDbEntity
8
0
100
AcDbLine
62
7
6
CONTINUOUS
10
-29.5189610799
20
31.0825319931
11
-36.5189610799
21
31.0825319931
0
LINE
5
220
100
AcDbEntity
8
0
100
AcDbLine
62
7
6
CONTINUOUS
10
-39.5189610799
20
31.0825319931
11
-43.5189610799
21
31.0825319931
0
LINE
5
221
100
AcDbEntity
8
0
100
AcDbLine
62
7
6
CONTINUOUS
10
-43.5189610799
20
31.0825319931
11
-36.5189610799
21
31.0825319931
0
SOLID
5
222
100
AcDbEntity
8
0
100
AcDbTrace
62
7
6
CONTINUOUS
10
-30.5189610799
20
32.0325319931
11
-33.5189610799
21
31.0825319931
12
-30.5189610799
22
30.1325319931
13
-30.5189610799
23
30.1325319931
0
SOLID
5
223
100
AcDbEntity
8
0
100
AcDbTrace
62
7
6
CONTINUOUS
10
-42.5189610799
20
30.1325319931
11
-39.5189610799
21
31.0825319931
12
-42.5189610799
22
32.0325319931
13
-42.5189610799
23
32.0325319931
0
ENDBLK
5
224
100
AcDbEntity
8
0
100
AcDbBlockEnd
0
BLOCK
5
225
100
AcDbEntity
8
0
100
AcDbBlockBegin
62
7
6
CONTINUOUS
2
*D1
70
65
10
0.0000000000
20
0.0000000000
3
*D1
1

0
TEXT
5
226
100
AcDbEntity
8
0
100
AcDbText
62
7
6
CONTINUOUS
10
-2.5885240956
20
31.8325319931
7
STANDARD
40
3.0000000000
1
22
41
0.7857142857
72
0
100
AcDbText
0
LINE
5
227
100
AcDbEntity
8
0
100
AcDbLine
62
7
6
CONTINUOUS
10
11.0227758060
20
22.3661285911
11
11.0227758060
21
32.5825319931
0
LINE
5
228
100
AcDbEntity
8
0
100
AcDbLine
62
7
6
CONTINUOUS
10
-10.9772241940
20
22.3661285911
11
-10.9772241940
21
32.5825319931
0
LINE
5
229
100
AcDbEntity
8
0
100
AcDbLine
62
7
6
CONTINUOUS
10
11.0227758060
20
31.0825319931
11
0.0227758060
21
31.0825319931
0
LINE
5
22A
100
AcDbEntity
8
0
100
AcDbLine
62
7
6
CONTINUOUS
10
-10.9772241940
20
31.0825319931
11
0.0227758060
21
31.0825319931
0
SOLID
5
22B
100
AcDbEntity
8
0
100
AcDbTrace
62
7
6
CONTINUOUS
10
8.0227758060
20
30.1325319931
11
11.0227758060
21
31.0825319931
12
8.0227758060
22
32.0325319931
13
8.0227758060
23
32.0325319931
0
SOLID
5
22C
100
AcDbEntity
8
0
100
AcDbTrace
62
7
6
CONTINUOUS
10
-7.9772241940
20
32.0325319931
11
-10.9772241940
21
31.0825319931
12
-7.9772241940
22
30.1325319931
13
-7.9772241940
23
30.1325319931
0
ENDBLK
5
22D
100
AcDbEntity
8
0
100
AcDbBlockEnd
0
BLOCK
5
22E
100
AcDbEntity
8
0
100
AcDbBlockBegin
62
7
6
CONTINUOUS
2
*D2
70
65
10
0.0000000000
20
0.0000000000
3
*D2
1

0
TEXT
5
22F
100
AcDbEntity
8
0
100
AcDbText
62
7
6
CONTINUOUS
10
18.4232121494
20
-2.8562915515
7
STANDARD
40
3.0000000000
1
44,2
50
90.0000000000
41
0.7321428571
72
0
100
AcDbText
0
LINE
5
230
100
AcDbEntity
8
0
100
AcDbLine
62
7
6
CONTINUOUS
10
11.0229471435
20
-21.8340427465
11
20.6732121494
21
-21.8340427465
0
LINE
5
231
100
AcDbEntity
8
0
100
AcDbLine
62
7
6
CONTINUOUS
10
11.0229471435
20
22.3659572535
11
20.6732121494
21
22.3659572535
0
LINE
5
232
100
AcDbEntity
8
0
100
AcDbLine
62
7
6
CONTINUOUS
10
19.1732121494
20
-21.8340427465
11
19.1732121494
21
0.2659572535
0
LINE
5
233
100
AcDbEntity
8
0
100
AcDbLine
62
7
6
CONTINUOUS
10
19.1732121494
20
22.3659572535
11
19.1732121494
21
0.2659572535
0
SOLID
5
234
100
AcDbEntity
8
0
100
AcDbTrace
62
7
6
CONTINUOUS
10
18.2232121494
20
-18.8340427465
11
19.1732121494
21
-21.8340427465
12
20.1232121494
22
-18.8340427465
13
20.1232121494
23
-18.8340427465
0
SOLID
5
235
100
AcDbEntity
8
0
100
AcDbTrace
62
7
6
CONTINUOUS
10
20.1232121494
20
19.3659572535
11
19.1732121494
21
22.3659572535
12
18.2232121494
22
19.3659572535
13
18.2232121494
23
19.3659572535
0
ENDBLK
5
236
100
AcDbEntity
8
0
100
AcDbBlockEnd
0
ENDSEC
0
SECTION
2
ENTITIES
0
DIMENSION
5
237
100
AcDbEntity
8
0
100
AcDbDimension
62
7
6
CONTINUOUS
2
*D0
10
-39.5189610799
20
31.0825319931
11
-36.4141689781
21
33.3325319931
70
160
3
DIMSTYLE_1
100
AcDbAlignedDimension
13
-33.5189610799
23
22.3661285911
14
-39.5189610799
24
0.7659572535
50
180.000000
100
AcDbRotatedDimension
0
DIMENSION
5
238
100
AcDbEntity
8
0
100
AcDbDimension
62
7
6
CONTINUOUS
2
*D1
10
-10.9772241940
20
31.0825319931
11
-0.2313812384
21
33.3325319931
70
160
3
DIMSTYLE_1
100
AcDbAlignedDimension
13
11.0227758060
23
22.3661285911
14
-10.9772241940
24
22.3661285911
50
180.000000
100
AcDbRotatedDimension
0
DIMENSION
5
239
100
AcDbEntity
8
0
100
AcDbDimension
62
7
6
CONTINUOUS
2
*D2
10
19.1732121494
20
22.3659572535
11
16.9232121494
21
1.5365655913
70
160
3
DIMSTYLE_1
100
AcDbAlignedDimension
13
11.0229471435
23
-21.8340427465
14
11.0229471435
24
22.3659572535
50
90.000000
100
AcDbRotatedDimension
0
LINE
5
23A
100
AcDbEntity
8
0
100
AcDbLine
62
7
6
CONTINUOUS
10
-10.4773955315
20
-21.8340427465
11
10.5229471435
21
-21.8340427465
0
LINE
5
23B
100
AcDbEntity
8
0
100
AcDbLine
62
9
6
CONTINUOUS
10
-10.3735192366
20
-21.7301664515
11
10.4190708485
21
-21.7301664515
0
LINE
5
23C
100
AcDbEntity
8
0
100
AcDbLine
62
9
6
CONTINUOUS
10
-10.3609139574
20
-20.8788963892
11
10.4064655693
21
-20.8788963892
0
LINE
5
23D
100
AcDbEntity
8
0
100
AcDbLine
62
9
6
CONTINUOUS
10
5.6738959329
20
-14.5949409569
11
-5.6283443209
21
-14.5949409569
0
LINE
5
23E
100
AcDbEntity
8
0
100
AcDbLine
62
7
6
CONTINUOUS
10
5.6738959329
20
-14.4870882110
11
-5.6283443209
21
-14.4870882110
0
LINE
5
23F
100
AcDbEntity
8
0
100
AcDbLine
62
7
6
CONTINUOUS
10
-4.4772241940
20
-14.4865530721
11
4.5227758060
21
-14.4865530721
0
LINE
5
240
100
AcDbEntity
8
0
100
AcDbLine
62
7
6
CONTINUOUS
10
5.6714485372
20
-14.4840427465
11
4.5227758060
21
-14.4840427465
0
LINE
5
241
100
AcDbEntity
8
0
100
AcDbLine
62
7
6
CONTINUOUS
10
-4.4772241940
20
-14.4840427465
11
-5.6258969314
21
-14.4840427465
0
LINE
5
242
100
AcDbEntity
8
0
100
AcDbLine
62
7
6
CONTINUOUS
10
5.0227758060
20
-14.4821630240
11
4.5227758060
21
-14.4821630240
0
LINE
5
243
100
AcDbEntity
8
0
100
AcDbLine
62
9
6
CONTINUOUS
10
5.5892895044
20
-14.4823126040
11
5.0227758060
21
-14.4821630240
0
LINE
5
244
100
AcDbEntity
8
0
100
AcDbLine
62
7
6
CONTINUOUS
10
-4.4772241940
20
-14.4821630240
11
-4.9772241940
21
-14.4821630240
0
LINE
5
245
100
AcDbEntity
8
0
100
AcDbLine
62
9
6
CONTINUOUS
10
-4.9772241940
20
-14.4821630240
11
-5.5437378924
21
-14.4823126040
0
LINE
5
246
100
AcDbEntity
8
0
100
AcDbLine
62
7
6
CONTINUOUS
10
5.5848887787
20
-14.4768920095
11
-5.5393371667
21
-14.4768920095
0
LINE
5
247
100
AcDbEntity
8
0
100
AcDbLine
62
9
6
CONTINUOUS
10
5.5834662838
20
-14.4751404650
11
-5.5379146719
21
-14.4751404650
0
LINE
5
248
100
AcDbEntity
8
0
100
AcDbLine
62
9
6
CONTINUOUS
10
5.5834662838
20
-14.3364750551
11
-5.5379146719
21
-14.3364750551
0
LINE
5
249
100
AcDbEntity
8
0
100
AcDbLine
62
7
6
CONTINUOUS
10
-10.9772241940
20
-21.3342140840
11
-10.9772241940
21
21.8661285911
0
LINE
5
24A
100
AcDbEntity
8
0
100
AcDbLine
62
9
6
CONTINUOUS
10
-10.3353913584
20
-9.2340427465
11
-10.3353913584
21
9.7659572535
0
LINE
5
24B
100
AcDbEntity
8
0
100
AcDbLine
62
9
6
CONTINUOUS
10
-6.0335824288
20
-14.0853062535
11
-6.0330244496
21
-14.0851889557
0
LINE
5
24C
100
AcDbEntity
8
0
100
AcDbLine
62
9
6
CONTINUOUS
10
6.0791340407
20
-10.3827792394
11
6.0785760615
21
-10.3828965372
0
LINE
5
24D
100
AcDbEntity
8
0
100
AcDbLine
62
9
6
CONTINUOUS
10
-5.5363618892
20
-10.1492165330
11
5.5819135012
21
-10.1492165330
0
LINE
5
24E
100
AcDbEntity
8
0
100
AcDbLine
62
9
6
CONTINUOUS
10
-5.5363618892
20
-9.9948566562
11
5.5819135012
21
-9.9948566562
0
LINE
5
24F
100
AcDbEntity
8
0
100
AcDbLine
62
7
6
CONTINUOUS
10
-5.5377798788
20
-9.9931109857
11
5.5833314907
21
-9.9931109857
0
LINE
5
250
100
AcDbEntity
8
0
100
AcDbLine
62
7
6
CONTINUOUS
10
5.0227758060
20
-9.9908759004
11
-4.9772241940
21
-9.9908759004
0
LINE
5
251
100
AcDbEntity
8
0
100
AcDbLine
62
7
6
CONTINUOUS
10
-4.9772241940
20
-9.9859224689
11
-4.4772241940
21
-9.9859224689
0
LINE
5
252
100
AcDbEntity
8
0
100
AcDbLine
62
7
6
CONTINUOUS
10
4.5227758060
20
-9.9859224689
11
5.0227758060
21
-9.9859224689
0
LINE
5
253
100
AcDbEntity
8
0
100
AcDbLine
62
9
6
CONTINUOUS
10
5.5892895044
20
-9.9857728889
11
5.0227758060
21
-9.9857728889
0
LINE
5
254
100
AcDbEntity
8
0
100
AcDbLine
62
9
6
CONTINUOUS
10
-4.9772241940
20
-9.9857728889
11
-5.5437378924
21
-9.9857728889
0
LINE
5
255
100
AcDbEntity
8
0
100
AcDbLine
62
7
6
CONTINUOUS
10
-5.6258968759
20
-9.9840427465
11
-4.4772241940
21
-9.9840427465
0
LINE
5
256
100
AcDbEntity
8
0
100
AcDbLine
62
7
6
CONTINUOUS
10
4.5227758060
20
-9.9840427465
11
5.6714485050
21
-9.9840427465
0
LINE
5
257
100
AcDbEntity
8
0
100
AcDbLine
62
7
6
CONTINUOUS
10
4.5227758060
20
-9.9815324208
11
-4.4772241940
21
-9.9815324208
0
LINE
5
258
100
AcDbEntity
8
0
100
AcDbLine
62
7
6
CONTINUOUS
10
-5.6300763170
20
-9.9788413994
11
5.6756279289
21
-9.9788413994
0
LINE
5
259
100
AcDbEntity
8
0
100
AcDbLine
62
9
6
CONTINUOUS
10
-5.6300763170
20
-9.8814645647
11
5.6756279289
21
-9.8814645647
0
LINE
5
25A
100
AcDbEntity
8
0
100
AcDbLine
62
9
6
CONTINUOUS
10
6.0791340422
20
-14.0853062538
11
6.0785760615
21
-14.0851889557
0
LINE
5
25B
100
AcDbEntity
8
0
100
AcDbLine
62
9
6
CONTINUOUS
10
-6.0335824303
20
-10.3827792391
11
-6.0330244496
21
-10.3828965372
0
LINE
5
25C
100
AcDbEntity
8
0
100
AcDbLine
62
9
6
CONTINUOUS
10
-5.6258968759
20
-9.9840427465
11
-5.6300763170
21
-9.9788413994
0
LINE
5
25D
100
AcDbEntity
8
0
100
AcDbLine
62
9
6
CONTINUOUS
10
-6.0165175060
20
-10.2979841016
11
-6.0205775661
21
-10.2926933435
0
LINE
5
25E
100
AcDbEntity
8
0
100
AcDbLine
62
9
6
CONTINUOUS
10
10.5229471435
20
22.3659572535
11
10.4190708485
21
22.2620809586
0
LINE
5
25F
100
AcDbEntity
8
0
100
AcDbLine
62
9
6
CONTINUOUS
10
11.0227758060
20
21.8661285911
11
10.9188995110
21
21.7622522961
0
LINE
5
260
100
AcDbEntity
8
0
100
AcDbLine
62
9
6
CONTINUOUS
10
-10.3353913584
20
-9.2340427465
11
10.3809429703
21
-9.2340427465
0
LINE
5
261
100
AcDbEntity
8
0
100
AcDbLine
62
9
6
CONTINUOUS
10
10.4190708485
20
-21.7301664515
11
10.5229471435
21
-21.8340427465
0
LINE
5
262
100
AcDbEntity
8
0
100
AcDbLine
62
9
6
CONTINUOUS
10
10.9188995110
20
-21.2303377890
11
11.0227758060
21
-21.3342140840
0
LINE
5
263
100
AcDbEntity
8
0
100
AcDbLine
62
9
6
CONTINUOUS
10
-5.6300763170
20
-9.8814645647
11
-5.6300763170
21
-9.9788413994
0
LINE
5
264
100
AcDbEntity
8
0
100
AcDbLine
62
9
6
CONTINUOUS
10
-5.6283443209
20
-14.5949409569
11
-5.6283443225
21
-14.4870882110
0
LINE
5
265
100
AcDbEntity
8
0
100
AcDbLine
62
9
6
CONTINUOUS
10
-5.5437378924
20
-9.9840427465
11
-5.5437378924
21
-9.9857728889
0
LINE
5
266
100
AcDbEntity
8
0
100
AcDbLine
62
9
6
CONTINUOUS
10
-5.5437378924
20
-14.4840427465
11
-5.5437378924
21
-14.4823126040
0
LINE
5
267
100
AcDbEntity
8
0
100
AcDbLine
62
9
6
CONTINUOUS
10
-5.5379146719
20
-14.4751404650
11
-5.5379146719
21
-14.3364750551
0
LINE
5
268
100
AcDbEntity
8
0
100
AcDbLine
62
9
6
CONTINUOUS
10
-5.5363618892
20
-9.9948566562
11
-5.5363618892
21
-10.1492165330
0
LINE
5
269
100
AcDbEntity
8
0
100
AcDbLine
62
7
6
CONTINUOUS
10
-4.9772241940
20
-14.4821630240
11
-4.9772241940
21
-14.4772038810
0
LINE
5
26A
100
AcDbEntity
8
0
100
AcDbLine
62
7
6
CONTINUOUS
10
-4.9772241940
20
-9.9908816120
11
-4.9772241940
21
-9.9859224689
0
LINE
5
26B
100
AcDbEntity
8
0
100
AcDbLine
62
7
6
CONTINUOUS
10
-4.4772241940
20
-14.4865530721
11
-4.4772241940
21
-14.4785324955
0
LINE
5
26C
100
AcDbEntity
8
0
100
AcDbLine
62
7
6
CONTINUOUS
10
-4.4772241940
20
-9.9931109857
11
-4.4772241940
21
-9.9815324208
0
LINE
5
26D
100
AcDbEntity
8
0
100
AcDbLine
62
9
6
CONTINUOUS
10
5.6714485372
20
-14.4840427465
11
5.6738959329
21
-14.4870882110
0
LINE
5
26E
100
AcDbEntity
8
0
100
AcDbLine
62
9
6
CONTINUOUS
10
6.0620690933
20
-14.1701015031
11
6.0647002802
21
-14.1735300116
0
LINE
5
26F
100
AcDbEntity
8
0
100
AcDbLine
62
7
6
CONTINUOUS
10
4.5227758060
20
-9.9815324208
11
4.5227758060
21
-9.9908759004
0
LINE
5
270
100
AcDbEntity
8
0
100
AcDbLine
62
7
6
CONTINUOUS
10
4.5227758060
20
-14.4772095925
11
4.5227758060
21
-14.4865530721
0
LINE
5
271
100
AcDbEntity
8
0
100
AcDbLine
62
7
6
CONTINUOUS
10
5.0227758060
20
-9.9859224689
11
5.0227758060
21
-9.9908816120
0
LINE
5
272
100
AcDbEntity
8
0
100
AcDbLine
62
7
6
CONTINUOUS
10
5.0227758060
20
-14.4772038810
11
5.0227758060
21
-14.4821630240
0
LINE
5
273
100
AcDbEntity
8
0
100
AcDbLine
62
9
6
CONTINUOUS
10
5.5819135012
20
-9.9948566562
11
5.5819135012
21
-10.1492165330
0
LINE
5
274
100
AcDbEntity
8
0
100
AcDbLine
62
9
6
CONTINUOUS
10
5.5834662838
20
-14.4751404650
11
5.5834662838
21
-14.3364750551
0
LINE
5
275
100
AcDbEntity
8
0
100
AcDbLine
62
9
6
CONTINUOUS
10
5.5892895044
20
-9.9840427465
11
5.5892895044
21
-9.9857728889
0
LINE
5
276
100
AcDbEntity
8
0
100
AcDbLine
62
9
6
CONTINUOUS
10
5.5892895043
20
-14.4840427465
11
5.5892895044
21
-14.4823126040
0
LINE
5
277
100
AcDbEntity
8
0
100
AcDbLine
62
9
6
CONTINUOUS
10
5.6738959329
20
-14.5949409569
11
5.6738959329
21
-14.4870882110
0
LINE
5
278
100
AcDbEntity
8
0
100
AcDbLine
62
9
6
CONTINUOUS
10
5.6756279289
20
-9.8814645647
11
5.6756279305
21
-9.9788413994
0
LINE
5
279
100
AcDbEntity
8
0
100
AcDbLine
62
9
6
CONTINUOUS
10
-6.0165174783
20
-14.1701015169
11
-6.0191486683
21
-14.1735300116
0
LINE
5
27A
100
AcDbEntity
8
0
100
AcDbLine
62
9
6
CONTINUOUS
10
-5.6258969314
20
-14.4840427465
11
-5.6283443209
21
-14.4870882110
0
LINE
5
27B
100
AcDbEntity
8
0
100
AcDbLine
62
9
6
CONTINUOUS
10
10.3809429703
20
9.7659572535
11
10.3809429703
21
-9.2340427465
0
LINE
5
27C
100
AcDbEntity
8
0
100
AcDbLine
62
9
6
CONTINUOUS
10
-10.9772241940
20
-21.3342140840
11
-10.8733478991
21
-21.2303377890
0
LINE
5
27D
100
AcDbEntity
8
0
100
AcDbLine
62
9
6
CONTINUOUS
10
-10.4773955315
20
-21.8340427465
11
-10.3735192366
21
-21.7301664515
0
LINE
5
27E
100
AcDbEntity
8
0
100
AcDbLine
62
9
6
CONTINUOUS
10
-10.3353913584
20
9.7659572535
11
10.3809429703
21
9.7659572535
0
LINE
5
27F
100
AcDbEntity
8
0
100
AcDbLine
62
9
6
CONTINUOUS
10
-10.8733478991
20
21.7622522961
11
-10.9772241940
21
21.8661285911
0
LINE
5
280
100
AcDbEntity
8
0
100
AcDbLine
62
9
6
CONTINUOUS
10
-10.3735192366
20
22.2620809586
11
-10.4773955315
21
22.3659572535
0
LINE
5
281
100
AcDbEntity
8
0
100
AcDbLine
62
7
6
CONTINUOUS
10
11.0227758060
20
-21.3342140840
11
11.0227758060
21
21.8661285911
0
LINE
5
282
100
AcDbEntity
8
0
100
AcDbLine
62
9
6
CONTINUOUS
10
6.0620691093
20
-10.2979840626
11
6.0661291780
21
-10.2926933435
0
LINE
5
283
100
AcDbEntity
8
0
100
AcDbLine
62
9
6
CONTINUOUS
10
5.6714485050
20
-9.9840427465
11
5.6756279289
21
-9.9788413994
0
LINE
5
284
100
AcDbEntity
8
0
100
AcDbLine
62
9
6
CONTINUOUS
10
-10.3609139574
20
21.4108108963
11
10.4064655693
21
21.4108108963
0
LINE
5
285
100
AcDbEntity
8
0
100
AcDbLine
62
9
6
CONTINUOUS
10
-10.3735192366
20
22.2620809586
11
10.4190708485
21
22.2620809586
0
LINE
5
286
100
AcDbEntity
8
0
100
AcDbLine
62
7
6
CONTINUOUS
10
-10.4773955315
20
22.3659572535
11
10.5229471435
21
22.3659572535
0
LINE
5
287
100
AcDbEntity
8
0
100
AcDbLine
62
7
6
CONTINUOUS
10
-37.4858367421
20
-21.7301664515
11
-33.5189610799
21
-21.8340427465
0
LINE
5
288
100
AcDbEntity
8
0
100
AcDbLine
62
9
6
CONTINUOUS
10
-37.4858367421
20
-21.2303377890
11
-33.5189610799
21
-21.3342140840
0
LINE
5
289
100
AcDbEntity
8
0
100
AcDbLine
62
7
6
CONTINUOUS
10
-39.2390615000
20
-14.4751404650
11
-39.1760726574
21
-14.4756901603
0
LINE
5
28A
100
AcDbEntity
8
0
100
AcDbLine
62
7
6
CONTINUOUS
10
-39.4581124015
20
-9.9948566562
11
-39.4110369594
21
-9.9944458351
0
LINE
5
28B
100
AcDbEntity
8
0
100
AcDbLine
62
9
6
CONTINUOUS
10
-38.9418816656
20
-9.2245427465
11
-39.4287029116
21
-9.2340427460
0
LINE
5
28C
100
AcDbEntity
8
0
100
AcDbLine
62
7
6
CONTINUOUS
10
-33.5189610799
20
-21.8340427465
11
-33.5189610799
21
22.3659572535
0
LINE
5
28D
100
AcDbEntity
8
0
100
AcDbLine
62
9
6
CONTINUOUS
10
-38.9418816656
20
9.7564572535
11
-39.4287029329
21
9.7659572535
0
LINE
5
28E
100
AcDbEntity
8
0
100
AcDbLine
62
9
6
CONTINUOUS
10
-33.5189610799
20
21.8661285911
11
-37.4858367421
21
21.7622522961
0
LINE
5
28F
100
AcDbEntity
8
0
100
AcDbLine
62
7
6
CONTINUOUS
10
-33.5189610799
20
22.3659572535
11
-37.4858367421
21
22.2620809586
0
ARC
5
290
100
AcDbEntity
8
0
100
AcDbCircle
62
9
6
CONTINUOUS
10
2.7727758060
20
-12.2340427465
40
8.9982698575
100
AcDbArc
50
168.1282055782
51
191.8717944218
0
ARC
5
291
100
AcDbEntity
8
0
100
AcDbCircle
62
9
6
CONTINUOUS
10
-2.7272241940
20
-12.2340427465
40
8.9982698575
100
AcDbArc
50
348.1282055782
51
11.8717944218
0
ARC
5
292
100
AcDbEntity
8
0
100
AcDbCircle
62
7
6
CONTINUOUS
10
-39.4568034212
20
-10.1448509447
40
0.1500000000
100
AcDbArc
50
90.5000000000
51
181.6677674123
0
ARC
5
293
100
AcDbEntity
8
0
100
AcDbCircle
62
7
6
CONTINUOUS
10
-39.2377525196
20
-14.3251461765
40
0.1500000000
100
AcDbArc
50
184.3314373947
51
269.5000000000
0
ARC
5
294
100
AcDbEntity
8
0
100
AcDbCircle
62
7
6
CONTINUOUS
10
50.5550506003
20
-7.5240427465
40
90.2000000000
100
AcDbArc
50
181.6677674123
51
184.3314373947
0
ARC
5
295
100
AcDbEntity
8
0
100
AcDbCircle
62
7
6
CONTINUOUS
10
460.4810389201
20
0.2659572535
40
500.0000000000
100
AcDbArc
50
178.9113146800
51
181.0886853200
0
ARC
5
296
100
AcDbEntity
8
0
100
AcDbCircle
62
7
6
CONTINUOUS
10
50.5550506003
20
8.0559572535
40
90.0000000000
100
AcDbArc
50
171.4665223736
51
178.9113146800
0
ARC
5
297
100
AcDbEntity
8
0
100
AcDbCircle
62
7
6
CONTINUOUS
10
-37.4596597938
20
21.2624236336
40
1.0000000000
100
AcDbArc
50
91.5000000000
51
171.4665223736
0
ARC
5
298
100
AcDbEntity
8
0
100
AcDbCircle
62
7
6
CONTINUOUS
10
50.5550506003
20
-7.5240427465
40
90.0000000000
100
AcDbArc
50
181.0886853200
51
188.5334776264
0
ARC
5
299
100
AcDbEntity
8
0
100
AcDbCircle
62
7
6
CONTINUOUS
10
-37.4596597938
20
-20.7305091265
40
1.0000000000
100
AcDbArc
50
188.5334776264
51
268.5000000000
0
SPLINE
5
29A
100
AcDbEntity
8
0
100
AcDbSpline
62
7
6
CONTINUOUS
70
0
71
3
72
13
73
9
74
7
42
0.0000001000
43
0.0000001000
44
0.0000000001
12
-0.7599640845
22
3.6358445970
32
0.0000000000
13
0.7625942435
23
3.6352938483
33
0.0000000000
40
0.0000000000
40
0.0000000000
40
0.0000000000
40
0.0000000000
40
0.1666652524
40
0.3334999573
40
0.5003104488
40
0.6670527223
40
0.8336811350
40
1.0000000000
40
1.0000000000
40
1.0000000000
40
1.0000000000
10
-6.0285320072
20
-14.0793257905
30
0.0000000000
10
-6.0707518758
20
-13.8773361380
30
0.0000000000
10
-6.1413509601
20
-13.4701056287
30
0.0000000000
10
-6.2049707869
20
-12.8534578390
30
0.0000000000
10
-6.2260139726
20
-12.2337708716
30
0.0000000000
10
-6.2043815756
20
-11.6143604044
30
0.0000000000
10
-6.1402811688
20
-10.9985369724
30
0.0000000000
10
-6.0694762134
20
-10.5920391156
30
0.0000000000
10
-6.0271982770
20
-10.3904998000
30
0.0000000000
11
-6.0285320072
21
-14.0793257905
31
0.0000000000
11
-6.1342744995
21
-13.4693589401
31
0.0000000000
11
-6.1978739569
21
-12.8529371373
31
0.0000000000
11
-6.2189006766
21
-12.2336898961
31
0.0000000000
11
-6.1972850705
21
-11.6147164756
31
0.0000000000
11
-6.1332048127
21
-10.9991148599
31
0.0000000000
11
-6.0271982770
21
-10.3904998000
31
0.0000000000
0
SPLINE
5
29B
100
AcDbEntity
8
0
100
AcDbSpline
62
7
6
CONTINUOUS
70
0
71
3
72
17
73
13
74
11
42
0.0000001000
43
0.0000001000
44
0.0000000001
12
0.1352416098
22
0.6448091425
32
0.0000000000
13
0.6586227025
23
0.0299967207
33
0.0000000000
40
0.0000000000
40
0.0000000000
40
0.0000000000
40
0.0000000000
40
0.1034613506
40
0.2068936512
40
0.3103443363
40
0.4137925644
40
0.5172438776
40
0.6206957417
40
0.7241458673
40
0.8275990552
40
0.9310340394
40
1.0000000000
40
1.0000000000
40
1.0000000000
40
1.0000000000
10
-6.0271977004
20
-10.3904999209
30
0.0000000000
10
-6.0225336072
20
-10.3682623126
30
0.0000000000
10
-6.0101557011
20
-10.3243708092
30
0.0000000000
10
-5.9828175570
20
-10.2617181982
30
0.0000000000
10
-5.9472122817
20
-10.2033545094
30
0.0000000000
10
-5.9039984945
20
-10.1503756595
30
0.0000000000
10
-5.8539817672
20
-10.1037639706
30
0.0000000000
10
-5.7980909239
20
-10.0643864290
30
0.0000000000
10
-5.7373656639
20
-10.0329734827
30
0.0000000000
10
-5.6729330532
20
-10.0101109715
30
0.0000000000
10
-5.6134408515
20
-9.9977622118
30
0.0000000000
10
-5.5756505159
20
-9.9943192234
30
0.0000000000
10
-5.5605096668
20
-9.9936296392
30
0.0000000000
11
-6.0271977004
21
-10.3904999209
31
0.0000000000
11
-6.0086917284
21
-10.3248956994
31
0.0000000000
11
-5.9814414034
21
-10.2624361461
31
0.0000000000
11
-5.9459442555
21
-10.2042521324
31
0.0000000000
11
-5.9028651696
21
-10.1514373744
31
0.0000000000
11
-5.8530028883
21
-10.1049697914
31
0.0000000000
11
-5.7972849232
21
-10.0657136935
31
0.0000000000
11
-5.7367478059
21
-10.0343986148
31
0.0000000000
11
-5.6725131030
21
-10.0116048727
31
0.0000000000
11
-5.6057877103
21
-9.9977578892
31
0.0000000000
11
-5.5605096668
21
-9.9936296392
31
0.0000000000
0
SPLINE
5
29C
100
AcDbEntity
8
0
100
AcDbSpline
62
7
6
CONTINUOUS
70
0
71
3
72
8
73
4
74
2
42
0.0000001000
43
0.0000001000
44
0.0000000001
12
0.0227214201
22
0.0010348384
32
0.0000000000
13
0.0227288898
23
0.0000009542
33
0.0000000000
40
0.0000000000
40
0.0000000000
40
0.0000000000
40
0.0000000000
40
1.0000000000
40
1.0000000000
40
1.0000000000
40
1.0000000000
10
-5.5605096668
20
-9.9936296392
30
0.0000000000
10
-5.5529358601
20
-9.9932846931
30
0.0000000000
10
-5.5453561753
20
-9.9931118312
30
0.0000000000
10
-5.5377798787
20
-9.9931115131
30
0.0000000000
11
-5.5605096668
21
-9.9936296392
31
0.0000000000
11
-5.5377798787
21
-9.9931115131
31
0.0000000000
0
SPLINE
5
29D
100
AcDbEntity
8
0
100
AcDbSpline
62
7
6
CONTINUOUS
70
0
71
3
72
8
73
4
74
2
42
0.0000001000
43
0.0000001000
44
0.0000000001
12
0.0227292131
22
-0.0000009504
32
0.0000000000
13
0.0227217448
23
-0.0010348458
33
0.0000000000
40
0.0000000000
40
0.0000000000
40
0.0000000000
40
0.0000000000
40
1.0000000000
40
1.0000000000
40
1.0000000000
40
1.0000000000
10
5.5833314907
20
-9.9931115755
30
0.0000000000
10
5.5909078950
20
-9.9931118923
30
0.0000000000
10
5.5984876882
20
-9.9932847533
30
0.0000000000
10
5.6060616031
20
-9.9936297019
30
0.0000000000
11
5.5833314907
21
-9.9931115755
31
0.0000000000
11
5.6060616031
21
-9.9936297019
31
0.0000000000
0
SPLINE
5
29E
100
AcDbEntity
8
0
100
AcDbSpline
62
7
6
CONTINUOUS
70
0
71
3
72
17
73
13
74
11
42
0.0000001000
43
0.0000001000
44
0.0000000001
12
0.6586224200
22
-0.0299964929
32
0.0000000000
13
0.1352416578
23
-0.6448088021
33
0.0000000000
40
0.0000000000
40
0.0000000000
40
0.0000000000
40
0.0000000000
40
0.0689655962
40
0.1724005588
40
0.2758538738
40
0.3793040193
40
0.4827559454
40
0.5862072842
40
0.6896555814
40
0.7931062413
40
0.8965386695
40
1.0000000000
40
1.0000000000
40
1.0000000000
40
1.0000000000
10
5.6060616031
20
-9.9936297019
30
0.0000000000
10
5.6212023657
20
-9.9943192772
30
0.0000000000
10
5.6589926009
20
-9.9977622182
30
0.0000000000
10
5.7184847009
20
-10.0101110492
30
0.0000000000
10
5.7829173214
20
-10.0329735047
30
0.0000000000
10
5.8436425829
20
-10.0643864814
30
0.0000000000
10
5.8995334229
20
-10.1037640062
30
0.0000000000
10
5.9495501612
20
-10.1503756884
30
0.0000000000
10
5.9927639159
20
-10.2033545374
30
0.0000000000
10
6.0283692446
20
-10.2617182028
30
0.0000000000
10
6.0557072907
20
-10.3243708376
30
0.0000000000
10
6.0680852789
20
-10.3682623160
30
0.0000000000
10
6.0727493729
20
-10.3904999082
30
0.0000000000
11
5.6060616031
21
-9.9936297019
31
0.0000000000
11
5.6513393865
21
-9.9977579056
31
0.0000000000
11
5.7180647249
21
-10.0116049159
31
0.0000000000
11
5.7822994807
21
-10.0343986595
31
0.0000000000
11
5.8428365766
21
-10.0657137351
31
0.0000000000
11
5.8985545511
21
-10.1049698325
31
0.0000000000
11
5.9484168245
21
-10.1514373997
31
0.0000000000
11
5.9914959141
21
-10.2042521703
31
0.0000000000
11
6.0269930517
21
-10.2624361317
31
0.0000000000
11
6.0542433646
21
-10.3248957454
31
0.0000000000
11
6.0727493729
21
-10.3904999082
31
0.0000000000
0
SPLINE
5
29F
100
AcDbEntity
8
0
100
AcDbSpline
62
7
6
CONTINUOUS
70
0
71
3
72
13
73
9
74
7
42
0.0000001000
43
0.0000001000
44
0.0000000001
12
0.7625943774
22
-3.6352938202
32
0.0000000000
13
-0.7599639572
23
-3.6358446237
33
0.0000000000
40
0.0000000000
40
0.0000000000
40
0.0000000000
40
0.0000000000
40
0.1663192845
40
0.3329473871
40
0.4996892077
40
0.6664996694
40
0.8333345326
40
1.0000000000
40
1.0000000000
40
1.0000000000
40
1.0000000000
10
6.0727498889
20
-10.3904998000
30
0.0000000000
10
6.1150279393
20
-10.5920396224
30
0.0000000000
10
6.1858328723
20
-10.9985376234
30
0.0000000000
10
6.2499331718
20
-11.6143606359
30
0.0000000000
10
6.2715655635
20
-12.2337701178
30
0.0000000000
10
6.2505224824
20
-12.8534566863
30
0.0000000000
10
6.1869026909
20
-13.4701049089
30
0.0000000000
10
6.1163035351
20
-13.8773358760
30
0.0000000000
10
6.0740836191
20
-14.0793257905
30
0.0000000000
11
6.0727498889
21
-10.3904998000
31
0.0000000000
11
6.1787566393
21
-10.9991164042
31
0.0000000000
11
6.2428367105
21
-11.6147168811
31
0.0000000000
11
6.2644522879
21
-12.2336886193
31
0.0000000000
11
6.2434256636
21
-12.8529357533
31
0.0000000000
11
6.1798262208
21
-13.4693581487
31
0.0000000000
11
6.0740836191
21
-14.0793257905
31
0.0000000000
0
SPLINE
5
2A0
100
AcDbEntity
8
0
100
AcDbSpline
62
9
6
CONTINUOUS
70
0
71
3
72
8
73
4
74
2
42
0.0000001000
43
0.0000001000
44
0.0000000001
12
0.0202621560
22
-0.0000002410
32
0.0000000000
13
0.0202569186
23
0.0008213792
33
0.0000000000
40
0.0000000000
40
0.0000000000
40
0.0000000000
40
0.0000000000
40
1.0000000000
40
1.0000000000
40
1.0000000000
40
1.0000000000
10
5.5892895043
20
-14.4823119415
30
0.0000000000
10
5.5960435563
20
-14.4823120219
30
0.0000000000
10
5.6028000103
20
-14.4821750275
30
0.0000000000
10
5.6095523165
20
-14.4819012344
30
0.0000000000
11
5.5892895043
21
-14.4823119415
31
0.0000000000
11
5.6095523165
21
-14.4819012344
31
0.0000000000
0
SPLINE
5
2A1
100
AcDbEntity
8
0
100
AcDbSpline
62
9
6
CONTINUOUS
70
0
71
3
72
10
73
6
74
4
42
0.0000001000
43
0.0000001000
44
0.0000000001
12
0.1234179673
22
0.0050043618
32
0.0000000000
13
0.1184559050
23
0.0350391510
33
0.0000000000
40
0.0000000000
40
0.0000000000
40
0.0000000000
40
0.0000000000
40
0.3304443720
40
0.8319039119
40
1.0000000000
40
1.0000000000
40
1.0000000000
40
1.0000000000
10
5.6095523165
20
-14.4819012344
30
0.0000000000
10
5.6231465740
20
-14.4813500134
30
0.0000000000
10
5.6573282126
20
-14.4785663679
30
0.0000000000
10
5.6978813753
20
-14.4710130136
30
0.0000000000
10
5.7244808432
20
-14.4637415077
30
0.0000000000
10
5.7311181680
20
-14.4617781930
30
0.0000000000
11
5.6095523165
21
-14.4819012344
31
0.0000000000
11
5.6502312054
21
-14.4785863731
31
0.0000000000
11
5.7110900575
21
-14.4672530670
31
0.0000000000
11
5.7311181680
21
-14.4617781930
31
0.0000000000
0
SPLINE
5
2A2
100
AcDbEntity
8
0
100
AcDbSpline
62
9
6
CONTINUOUS
70
0
71
3
72
8
73
4
74
2
42
0.0000001000
43
0.0000001000
44
0.0000000001
12
0.0199596010
22
0.0059040322
32
0.0000000000
13
0.0196971708
23
0.0067291136
33
0.0000000000
40
0.0000000000
40
0.0000000000
40
0.0000000000
40
0.0000000000
40
1.0000000000
40
1.0000000000
40
1.0000000000
40
1.0000000000
10
5.7311181680
20
-14.4617781930
30
0.0000000000
10
5.7377713683
20
-14.4598101823
30
0.0000000000
10
5.7443837375
20
-14.4577037536
30
0.0000000000
10
5.7509494611
20
-14.4554607157
30
0.0000000000
11
5.7311181680
21
-14.4617781930
31
0.0000000000
11
5.7509494611
21
-14.4554607157
31
0.0000000000
0
SPLINE
5
2A3
100
AcDbEntity
8
0
100
AcDbSpline
62
9
6
CONTINUOUS
70
0
71
3
72
14
73
10
74
8
42
0.0000001000
43
0.0000001000
44
0.0000000001
12
0.3337948819
22
0.1140338234
32
0.0000000000
13
0.1801501000
23
0.3032632465
33
0.0000000000
40
0.0000000000
40
0.0000000000
40
0.0000000000
40
0.0000000000
40
0.0590207225
40
0.2360224069
40
0.4121548501
40
0.5877374704
40
0.7639405723
40
0.9409937837
40
1.0000000000
40
1.0000000000
40
1.0000000000
40
1.0000000000
10
5.7509494611
20
-14.4554607157
30
0.0000000000
10
5.7575163995
20
-14.4532172628
30
0.0000000000
10
5.7835908194
20
-14.4436992513
30
0.0000000000
10
5.8276577915
20
-14.4233126067
30
0.0000000000
10
5.8804991835
20
-14.3903402219
30
0.0000000000
10
5.9287797593
20
-14.3511418572
30
0.0000000000
10
5.9719130549
20
-14.3061894345
30
0.0000000000
10
6.0009224533
20
-14.2672380825
30
0.0000000000
10
6.0155943197
20
-14.2436701884
30
0.0000000000
10
6.0191376450
20
-14.2377053828
30
0.0000000000
11
5.7509494611
21
-14.4554607157
31
0.0000000000
11
5.7705044696
21
-14.4483221874
31
0.0000000000
11
5.8271318491
21
-14.4221251855
31
0.0000000000
11
5.8798054540
21
-14.3892573836
31
0.0000000000
11
5.9278560780
21
-14.3502457252
31
0.0000000000
11
5.9708597128
21
-14.3054285198
31
0.0000000000
11
6.0081383231
21
-14.2553733990
31
0.0000000000
11
6.0191376450
21
-14.2377053828
31
0.0000000000
0
SPLINE
5
2A4
100
AcDbEntity
8
0
100
AcDbSpline
62
9
6
CONTINUOUS
70
0
71
3
72
10
73
6
74
4
42
0.0000001000
43
0.0000001000
44
0.0000000001
12
0.0736436621
22
0.1239721081
32
0.0000000000
13
0.0353430363
23
0.1397822315
33
0.0000000000
40
0.0000000000
40
0.0000000000
40
0.0000000000
40
0.0000000000
40
0.2882109583
40
0.7173503302
40
1.0000000000
40
1.0000000000
40
1.0000000000
40
1.0000000000
10
6.0191385070
20
-14.2377039317
30
0.0000000000
10
6.0262134771
20
-14.2257938917
30
0.0000000000
10
6.0425913947
20
-14.1954187958
30
0.0000000000
10
6.0609455892
20
-14.1509035005
30
0.0000000000
10
6.0706847016
20
-14.1180659245
30
0.0000000000
10
6.0740146007
20
-14.1048961239
30
0.0000000000
11
6.0191385070
21
-14.2377039317
31
0.0000000000
11
6.0388554335
21
-14.2011347052
31
0.0000000000
11
6.0624256073
21
-14.1439636982
31
0.0000000000
11
6.0740146007
21
-14.1048961239
31
0.0000000000
0
SPLINE
5
2A5
100
AcDbEntity
8
0
100
AcDbSpline
62
9
6
CONTINUOUS
70
0
71
3
72
8
73
4
74
2
42
0.0000001000
43
0.0000001000
44
0.0000000001
12
0.0049600247
22
0.0196170299
32
0.0000000000
13
0.0041601805
23
0.0197904961
33
0.0000000000
40
0.0000000000
40
0.0000000000
40
0.0000000000
40
0.0000000000
40
1.0000000000
40
1.0000000000
40
1.0000000000
40
1.0000000000
10
6.0740146882
20
-14.1048957778
30
0.0000000000
10
6.0756680298
20
-14.0983567679
30
0.0000000000
10
6.0771888681
20
-14.0917856896
30
0.0000000000
10
6.0785755950
20
-14.0851888576
30
0.0000000000
11
6.0740146882
21
-14.1048957778
31
0.0000000000
11
6.0785755950
21
-14.0851888576
31
0.0000000000
0
SPLINE
5
2A6
100
AcDbEntity
8
0
100
AcDbSpline
62
9
6
CONTINUOUS
70
0
71
3
72
8
73
4
74
2
42
0.0000001000
43
0.0000001000
44
0.0000000001
12
0.0041685752
22
-0.0198308843
32
0.0000000000
13
0.0049717157
23
-0.0196566954
33
0.0000000000
40
0.0000000000
40
0.0000000000
40
0.0000000000
40
0.0000000000
40
1.0000000000
40
1.0000000000
40
1.0000000000
40
1.0000000000
10
-6.0330237932
20
-14.0851888177
30
0.0000000000
10
-6.0316342681
20
-14.0917991125
30
0.0000000000
10
-6.0301100772
20
-14.0983835532
30
0.0000000000
10
-6.0284528386
20
-14.1049357850
30
0.0000000000
11
-6.0330237932
21
-14.0851888177
31
0.0000000000
11
-6.0284528386
21
-14.1049357850
31
0.0000000000
0
SPLINE
5
2A7
100
AcDbEntity
8
0
100
AcDbSpline
62
9
6
CONTINUOUS
70
0
71
3
72
10
73
6
74
4
42
0.0000001000
43
0.0000001000
44
0.0000000001
12
0.0353930596
22
-0.1399332701
32
0.0000000000
13
0.0737740080
23
-0.1240789351
33
0.0000000000
40
0.0000000000
40
0.0000000000
40
0.0000000000
40
0.0000000000
40
0.2828001350
40
0.7119504675
40
1.0000000000
40
1.0000000000
40
1.0000000000
40
1.0000000000
10
-6.0284527479
20
-14.1049361437
30
0.0000000000
10
-6.0251163605
20
-14.1181271929
30
0.0000000000
10
-6.0153594370
20
-14.1510070664
30
0.0000000000
10
-5.9969720822
20
-14.1955661655
30
0.0000000000
10
-5.9805681555
20
-14.2259621309
30
0.0000000000
10
-5.9734846326
20
-14.2378757573
30
0.0000000000
11
-6.0284527479
21
-14.1049361437
31
0.0000000000
11
-6.0168390510
21
-14.1440658057
31
0.0000000000
11
-5.9932259510
21
-14.2012942890
31
0.0000000000
11
-5.9734846326
21
-14.2378757573
31
0.0000000000
0
SPLINE
5
2A8
100
AcDbEntity
8
0
100
AcDbSpline
62
9
6
CONTINUOUS
70
0
71
3
72
14
73
10
74
8
42
0.0000001000
43
0.0000001000
44
0.0000000001
12
0.1802709625
22
-0.3031915874
32
0.0000000000
13
0.3338401884
23
-0.1139008224
33
0.0000000000
40
0.0000000000
40
0.0000000000
40
0.0000000000
40
0.0000000000
40
0.0590164172
40
0.2360149327
40
0.4121435645
40
0.5877270894
40
0.7639340796
40
0.9409896026
40
1.0000000000
40
1.0000000000
40
1.0000000000
40
1.0000000000
10
-5.9734837768
20
-14.2378771968
30
0.0000000000
10
-5.9699374613
20
-14.2438416239
30
0.0000000000
10
-5.9552588861
20
-14.2673991837
30
0.0000000000
10
-5.9262427723
20
-14.3063279545
30
0.0000000000
10
-5.8831047272
20
-14.3512546770
30
0.0000000000
10
-5.8348116790
20
-14.3904378679
30
0.0000000000
10
-5.7819459819
20
-14.4234003518
30
0.0000000000
10
-5.7378583760
20
-14.4437757167
30
0.0000000000
10
-5.7117753274
20
-14.4532849975
30
0.0000000000
10
-5.7052086466
20
-14.4555254418
30
0.0000000000
11
-5.9734837768
21
-14.2378771968
31
0.0000000000
11
-5.9624754460
21
-14.2555438449
31
0.0000000000
11
-5.9251889527
21
-14.3055690545
31
0.0000000000
11
-5.8821882020
21
-14.3503526476
31
0.0000000000
11
-5.8341250201
21
-14.3893493466
31
0.0000000000
11
-5.7814178762
21
-14.4222130394
31
0.0000000000
11
-5.7247631026
21
-14.4483960264
31
0.0000000000
11
-5.7052086466
21
-14.4555254418
31
0.0000000000
0
SPLINE
5
2A9
100
AcDbEntity
8
0
100
AcDbSpline
62
9
6
CONTINUOUS
70
0
71
3
72
8
73
4
74
2
42
0.0000001000
43
0.0000001000
44
0.0000000001
12
0.0196916125
22
-0.0067184567
32
0.0000000000
13
0.0199534969
23
-0.0058939492
33
0.0000000000
40
0.0000000000
40
0.0000000000
40
0.0000000000
40
0.0000000000
40
1.0000000000
40
1.0000000000
40
1.0000000000
40
1.0000000000
10
-5.7052086466
20
-14.4555254418
30
0.0000000000
10
-5.6986447758
20
-14.4577649273
30
0.0000000000
10
-5.6920343542
20
-14.4598678989
30
0.0000000000
10
-5.6853831886
20
-14.4618325486
30
0.0000000000
11
-5.7052086466
21
-14.4555254418
31
0.0000000000
11
-5.6853831886
21
-14.4618325486
31
0.0000000000
0
SPLINE
5
2AA
100
AcDbEntity
8
0
100
AcDbSpline
62
9
6
CONTINUOUS
70
0
71
3
72
10
73
6
74
4
42
0.0000001000
43
0.0000001000
44
0.0000000001
12
0.1183255477
22
-0.0349515061
32
0.0000000000
13
0.1232684530
23
-0.0049885097
33
0.0000000000
40
0.0000000000
40
0.0000000000
40
0.0000000000
40
0.0000000000
40
0.1681889754
40
0.6696930260
40
1.0000000000
40
1.0000000000
40
1.0000000000
40
1.0000000000
10
-5.6853831886
20
-14.4618325486
30
0.0000000000
10
-5.6787495044
20
-14.4637920347
30
0.0000000000
10
-5.6521741906
20
-14.4710464176
30
0.0000000000
10
-5.6116682230
20
-14.4785788467
30
0.0000000000
10
-5.5775316475
20
-14.4813537777
30
0.0000000000
10
-5.5639595043
20
-14.4819030242
30
0.0000000000
11
-5.6853831886
21
-14.4618325486
31
0.0000000000
11
-5.6653663067
21
-14.4672964260
31
0.0000000000
11
-5.6045725947
21
-14.4785995480
31
0.0000000000
11
-5.5639595043
21
-14.4819030242
31
0.0000000000
0
SPLINE
5
2AB
100
AcDbEntity
8
0
100
AcDbSpline
62
9
6
CONTINUOUS
70
0
71
3
72
8
73
4
74
2
42
0.0000001000
43
0.0000001000
44
0.0000000001
12
0.0202157535
22
-0.0008181046
32
0.0000000000
13
0.0202209620
23
0.0000001510
33
0.0000000000
40
0.0000000000
40
0.0000000000
40
0.0000000000
40
0.0000000000
40
1.0000000000
40
1.0000000000
40
1.0000000000
40
1.0000000000
10
-5.5639595043
20
-14.4819030242
30
0.0000000000
10
-5.5572209198
20
-14.4821757258
30
0.0000000000
10
-5.5504782131
20
-14.4823121889
30
0.0000000000
10
-5.5437378924
20
-14.4823121385
30
0.0000000000
11
-5.5639595043
21
-14.4819030242
31
0.0000000000
11
-5.5437378924
21
-14.4823121385
31
0.0000000000
0
SPLINE
5
2AC
100
AcDbEntity
8
0
100
AcDbSpline
62
9
6
CONTINUOUS
70
0
71
3
72
8
73
4
74
2
42
0.0000001000
43
0.0000001000
44
0.0000000001
12
-0.0202619911
22
0.0000002409
32
0.0000000000
13
-0.0202567538
23
-0.0008213657
33
0.0000000000
40
0.0000000000
40
0.0000000000
40
0.0000000000
40
0.0000000000
40
1.0000000000
40
1.0000000000
40
1.0000000000
40
1.0000000000
10
-5.5437378924
20
-9.9857735516
30
0.0000000000
10
-5.5504918895
20
-9.9857734713
30
0.0000000000
10
-5.5572482884
20
-9.9859104634
30
0.0000000000
10
-5.5640005397
20
-9.9861842520
30
0.0000000000
11
-5.5437378924
21
-9.9857735516
31
0.0000000000
11
-5.5640005397
21
-9.9861842520
31
0.0000000000
0
SPLINE
5
2AD
100
AcDbEntity
8
0
100
AcDbSpline
62
9
6
CONTINUOUS
70
0
71
3
72
10
73
6
74
4
42
0.0000001000
43
0.0000001000
44
0.0000000001
12
-0.1234173085
22
-0.0050042937
32
0.0000000000
13
-0.1184553296
23
-0.0350387678
33
0.0000000000
40
0.0000000000
40
0.0000000000
40
0.0000000000
40
0.0000000000
40
0.3304438640
40
0.8319035729
40
1.0000000000
40
1.0000000000
40
1.0000000000
40
1.0000000000
10
-5.5640005397
20
-9.9861842520
30
0.0000000000
10
-5.5775947038
20
-9.9867354647
30
0.0000000000
10
-5.6117761467
20
-9.9895190729
30
0.0000000000
10
-5.6523291008
20
-9.9970723378
30
0.0000000000
10
-5.6789284582
20
-10.0043437682
30
0.0000000000
10
-5.6855657641
20
-10.0063070654
30
0.0000000000
11
-5.5640005397
21
-9.9861842520
31
0.0000000000
11
-5.6046791505
21
-9.9894990654
31
0.0000000000
11
-5.6655377116
21
-10.0008322414
31
0.0000000000
11
-5.6855657641
21
-10.0063070654
31
0.0000000000
0
SPLINE
5
2AE
100
AcDbEntity
8
0
100
AcDbSpline
62
9
6
CONTINUOUS
70
0
71
3
72
8
73
4
74
2
42
0.0000001000
43
0.0000001000
44
0.0000000001
12
-0.0199595617
22
-0.0059039846
32
0.0000000000
13
-0.0196971342
23
-0.0067290625
33
0.0000000000
40
0.0000000000
40
0.0000000000
40
0.0000000000
40
0.0000000000
40
1.0000000000
40
1.0000000000
40
1.0000000000
40
1.0000000000
10
-5.6855657641
20
-10.0063070654
30
0.0000000000
10
-5.6922189513
20
-10.0082750603
30
0.0000000000
10
-5.6988313079
20
-10.0103814725
30
0.0000000000
10
-5.7053970193
20
-10.0126244933
30
0.0000000000
11
-5.6855657641
21
-10.0063070654
31
0.0000000000
11
-5.7053970193
21
-10.0126244933
31
0.0000000000
0
SPLINE
5
2AF
100
AcDbEntity
8
0
100
AcDbSpline
62
9
6
CONTINUOUS
70
0
71
3
72
14
73
10
74
8
42
0.0000001000
43
0.0000001000
44
0.0000000001
12
-0.3337943785
22
-0.1140329967
32
0.0000000000
13
-0.1801506964
23
-0.3032620290
33
0.0000000000
40
0.0000000000
40
0.0000000000
40
0.0000000000
40
0.0000000000
40
0.0590207576
40
0.2360228821
40
0.4121556868
40
0.5877380283
40
0.7639405558
40
0.9409935916
40
1.0000000000
40
1.0000000000
40
1.0000000000
40
1.0000000000
10
-5.7053970193
20
-10.0126244933
30
0.0000000000
10
-5.7119639517
20
-10.0148679313
30
0.0000000000
10
-5.7380383861
20
-10.0243858953
30
0.0000000000
10
-5.7821053917
20
-10.0447724592
30
0.0000000000
10
-5.8349467831
20
-10.0777447137
30
0.0000000000
10
-5.8832272899
20
-10.1169428618
30
0.0000000000
10
-5.9263605243
20
-10.1618949909
30
0.0000000000
10
-5.9553699429
20
-10.2008461175
30
0.0000000000
10
-5.9700418558
20
-10.2244139161
30
0.0000000000
10
-5.9735852043
20
-10.2303787172
30
0.0000000000
11
-5.7053970193
21
-10.0126244933
31
0.0000000000
11
-5.7249520110
21
-10.0197629759
31
0.0000000000
11
-5.7815794591
21
-10.0459598861
31
0.0000000000
11
-5.8342531194
21
-10.0788275929
31
0.0000000000
11
-5.8823036441
21
-10.1178390110
31
0.0000000000
11
-5.9253071629
21
-10.1626558658
31
0.0000000000
11
-5.9625858125
21
-10.2127107164
31
0.0000000000
11
-5.9735852043
21
-10.2303787172
31
0.0000000000
0
SPLINE
5
2B0
100
AcDbEntity
8
0
100
AcDbSpline
62
9
6
CONTINUOUS
70
0
71
3
72
10
73
6
74
4
42
0.0000001000
43
0.0000001000
44
0.0000000001
12
-0.0736447159
22
-0.1239729713
32
0.0000000000
13
-0.0353434398
23
-0.1397834528
33
0.0000000000
40
0.0000000000
40
0.0000000000
40
0.0000000000
40
0.0000000000
40
0.2882095687
40
0.7173490682
40
1.0000000000
40
1.0000000000
40
1.0000000000
40
1.0000000000
10
-5.9735860639
20
-10.2303801643
30
0.0000000000
10
-5.9806611012
20
-10.2422902298
30
0.0000000000
10
-5.9970392284
20
-10.2726654922
30
0.0000000000
10
-6.0153936938
20
-10.3171811406
30
0.0000000000
10
-6.0251329506
20
-10.3500190625
30
0.0000000000
10
-6.0284629027
20
-10.3631890369
30
0.0000000000
11
-5.9735860639
21
-10.2303801643
31
0.0000000000
11
-5.9933031828
21
-10.2669494788
31
0.0000000000
11
-6.0168737080
21
-10.3241209546
31
0.0000000000
11
-6.0284629027
21
-10.3631890369
31
0.0000000000
0
SPLINE
5
2B1
100
AcDbEntity
8
0
100
AcDbSpline
62
9
6
CONTINUOUS
70
0
71
3
72
8
73
4
74
2
42
0.0000001000
43
0.0000001000
44
0.0000000001
12
-0.0049601215
22
-0.0196173602
32
0.0000000000
13
-0.0041602506
23
-0.0197908322
33
0.0000000000
40
0.0000000000
40
0.0000000000
40
0.0000000000
40
0.0000000000
40
1.0000000000
40
1.0000000000
40
1.0000000000
40
1.0000000000
10
-6.0284629900
20
-10.3631893823
30
0.0000000000
10
-6.0301163639
20
-10.3697285023
30
0.0000000000
10
-6.0316372300
20
-10.3762996918
30
0.0000000000
10
-6.0330239802
20
-10.3828966359
30
0.0000000000
11
-6.0284629900
21
-10.3631893823
31
0.0000000000
11
-6.0330239802
21
-10.3828966359
31
0.0000000000
0
SPLINE
5
2B2
100
AcDbEntity
8
0
100
AcDbSpline
62
9
6
CONTINUOUS
70
0
71
3
72
10
73
6
74
4
42
0.0000001000
43
0.0000001000
44
0.0000000001
12
0.0051399221
22
0.0063282384
32
0.0000000000
13
0.0051380076
23
0.0063297929
33
0.0000000000
40
0.0000000000
40
0.0000000000
40
0.0000000000
40
0.0000000000
40
0.3865607547
40
0.7730322565
40
1.0000000000
40
1.0000000000
40
1.0000000000
40
1.0000000000
10
5.5833314907
20
-9.9931109857
30
0.0000000000
10
5.5839937881
20
-9.9922955695
30
0.0000000000
10
5.5853181346
20
-9.9906648479
30
0.0000000000
10
5.5870310718
20
-9.9885551346
30
0.0000000000
10
5.5880817347
20
-9.9872608562
30
0.0000000000
10
5.5884704554
20
-9.9867819699
30
0.0000000000
11
5.5833314907
21
-9.9931109857
31
0.0000000000
11
5.5853182398
21
-9.9906646209
31
0.0000000000
11
5.5873042441
21
-9.9882185887
31
0.0000000000
11
5.5884704554
21
-9.9867819699
31
0.0000000000
0
SPLINE
5
2B3
100
AcDbEntity
8
0
100
AcDbSpline
62
9
6
CONTINUOUS
70
0
71
3
72
10
73
6
74
4
42
0.0000001000
43
0.0000001000
44
0.0000000001
12
0.0058273896
22
0.0076023301
32
0.0000000000
13
0.0058249559
23
0.0076041950
33
0.0000000000
40
0.0000000000
40
0.0000000000
40
0.0000000000
40
0.0000000000
40
0.3334139419
40
0.6667472544
40
1.0000000000
40
1.0000000000
40
1.0000000000
40
1.0000000000
10
6.0727498889
20
-10.3904998000
30
0.0000000000
10
6.0733975333
20
-10.3896548924
30
0.0000000000
10
6.0746925751
20
-10.3879652124
30
0.0000000000
10
6.0766346325
20
-10.3854307913
30
0.0000000000
10
6.0779290007
20
-10.3837412435
30
0.0000000000
10
6.0785760615
20
-10.3828965372
30
0.0000000000
11
6.0727498889
21
-10.3904998000
31
0.0000000000
11
6.0746926866
21
-10.3879649735
31
0.0000000000
11
6.0766347439
21
-10.3854305526
31
0.0000000000
11
6.0785760615
21
-10.3828965372
31
0.0000000000
0
SPLINE
5
2B4
100
AcDbEntity
8
0
100
AcDbSpline
62
9
6
CONTINUOUS
70
0
71
3
72
10
73
6
74
4
42
0.0000001000
43
0.0000001000
44
0.0000000001
12
0.0038380351
22
-0.0050078065
32
0.0000000000
13
0.0038369793
23
-0.0050086156
33
0.0000000000
40
0.0000000000
40
0.0000000000
40
0.0000000000
40
0.0000000000
40
0.3903041956
40
0.7805356328
40
1.0000000000
40
1.0000000000
40
1.0000000000
40
1.0000000000
10
6.0740836191
20
-14.0793257905
30
0.0000000000
10
6.0745829528
20
-14.0799773131
30
0.0000000000
10
6.0755814736
20
-14.0812802780
30
0.0000000000
10
6.0768606126
20
-14.0829497048
30
0.0000000000
10
6.0776404328
20
-14.0839675974
30
0.0000000000
10
6.0779211262
20
-14.0843340016
30
0.0000000000
11
6.0740836191
21
-14.0793257905
31
0.0000000000
11
6.0755815399
21
-14.0812804200
31
0.0000000000
11
6.0770790206
21
-14.0832348084
31
0.0000000000
11
6.0779211262
21
-14.0843340016
31
0.0000000000
0
SPLINE
5
2B5
100
AcDbEntity
8
0
100
AcDbSpline
62
9
6
CONTINUOUS
70
0
71
3
72
10
73
6
74
4
42
0.0000001000
43
0.0000001000
44
0.0000000001
12
0.0044014278
22
-0.0054200244
32
0.0000000000
13
0.0044000238
23
-0.0054211642
33
0.0000000000
40
0.0000000000
40
0.0000000000
40
0.0000000000
40
0.0000000000
40
0.3333901428
40
0.6667234807
40
1.0000000000
40
1.0000000000
40
1.0000000000
40
1.0000000000
10
5.5848887787
20
-14.4768920095
30
0.0000000000
10
5.5853779095
20
-14.4774943371
30
0.0000000000
10
5.5863560359
20
-14.4786989319
30
0.0000000000
10
5.5878229444
20
-14.4805057967
30
0.0000000000
10
5.5888006962
20
-14.4817103550
30
0.0000000000
10
5.5892895044
20
-14.4823126040
30
0.0000000000
11
5.5848887787
21
-14.4768920095
31
0.0000000000
11
5.5863560932
21
-14.4786990556
31
0.0000000000
11
5.5878230018
21
-14.4805059205
31
0.0000000000
11
5.5892895044
21
-14.4823126040
31
0.0000000000
0
SPLINE
5
2B6
100
AcDbEntity
8
0
100
AcDbSpline
62
9
6
CONTINUOUS
70
0
71
3
72
17
73
13
74
11
42
0.0000001000
43
0.0000001000
44
0.0000000001
12
-0.1349394627
22
-0.6448762332
32
0.0000000000
13
-0.6586266317
23
-0.0299886134
33
0.0000000000
40
0.0000000000
40
0.0000000000
40
0.0000000000
40
0.0000000000
40
0.1035969257
40
0.2071351943
40
0.3106563586
40
0.4141373479
40
0.5175840710
40
0.6209985756
40
0.7243858491
40
0.8277573855
40
0.9310979452
40
1.0000000000
40
1.0000000000
40
1.0000000000
40
1.0000000000
10
6.0740830508
20
-14.0793256713
30
0.0000000000
10
6.0694232796
20
-14.1015947363
30
0.0000000000
10
6.0570501355
20
-14.1455433663
30
0.0000000000
10
6.0297067330
20
-14.2082693621
30
0.0000000000
10
5.9940930597
20
-14.2666826790
30
0.0000000000
10
5.9508752377
20
-14.3196870948
30
0.0000000000
10
5.9008649854
20
-14.3663036353
30
0.0000000000
10
5.8449947238
20
-14.4056712606
30
0.0000000000
10
5.7843048381
20
-14.4370664922
30
0.0000000000
10
5.7199208908
20
-14.4599100739
30
0.0000000000
10
5.6604797144
20
-14.4722462354
30
0.0000000000
10
5.6227238318
20
-14.4756852235
30
0.0000000000
10
5.6075969224
20
-14.4763739825
30
0.0000000000
11
6.0740830508
21
-14.0793256713
31
0.0000000000
11
6.0555811731
21
-14.1450242486
31
0.0000000000
11
6.0283247037
21
-14.2075577072
31
0.0000000000
11
5.9928186295
21
-14.2657911162
31
0.0000000000
11
5.9497353648
21
-14.3186308139
31
0.0000000000
11
5.8998801665
21
-14.3651021243
31
0.0000000000
11
5.8441840042
21
-14.4043470986
31
0.0000000000
11
5.7836834991
21
-14.4356436624
31
0.0000000000
11
5.7194986115
21
-14.4584180747
31
0.0000000000
11
5.6528333361
21
-14.4722504718
31
0.0000000000
11
5.6075969224
21
-14.4763739825
31
0.0000000000
0
SPLINE
5
2B7
100
AcDbEntity
8
0
100
AcDbSpline
62
9
6
CONTINUOUS
70
0
71
3
72
8
73
4
74
2
42
0.0000001000
43
0.0000001000
44
0.0000000001
12
-0.0226997893
22
-0.0010335677
32
0.0000000000
13
-0.0227072443
23
-0.0000009649
33
0.0000000000
40
0.0000000000
40
0.0000000000
40
0.0000000000
40
0.0000000000
40
1.0000000000
40
1.0000000000
40
1.0000000000
40
1.0000000000
10
5.6075969224
20
-14.4763739825
30
0.0000000000
10
5.6000303260
20
-14.4767185050
30
0.0000000000
10
5.5924578601
20
-14.4768911509
30
0.0000000000
10
5.5848887786
20
-14.4768914725
30
0.0000000000
11
5.6075969224
21
-14.4763739825
31
0.0000000000
11
5.5848887786
21
-14.4768914725
31
0.0000000000
0
SPLINE
5
2B8
100
AcDbEntity
8
0
100
AcDbSpline
62
9
6
CONTINUOUS
70
0
71
3
72
10
73
6
74
4
42
0.0000001000
43
0.0000001000
44
0.0000000001
12
-0.0037545280
22
-0.0046234165
32
0.0000000000
13
-0.0037535064
23
-0.0046242459
33
0.0000000000
40
0.0000000000
40
0.0000000000
40
0.0000000000
40
0.0000000000
40
0.3908327751
40
0.7815989649
40
1.0000000000
40
1.0000000000
40
1.0000000000
40
1.0000000000
10
-5.5393371667
20
-14.4768920095
30
0.0000000000
10
-5.5398262976
20
-14.4774943371
30
0.0000000000
10
-5.5408044240
20
-14.4786989319
30
0.0000000000
10
-5.5420557337
20
-14.4802402328
30
0.0000000000
10
-5.5428179273
20
-14.4811791941
30
0.0000000000
10
-5.5430911839
20
-14.4815158408
30
0.0000000000
11
-5.5393371667
21
-14.4768920095
31
0.0000000000
11
-5.5408044813
21
-14.4786990556
31
0.0000000000
11
-5.5422713898
21
-14.4805059205
31
0.0000000000
11
-5.5430911839
21
-14.4815158408
31
0.0000000000
0
SPLINE
5
2B9
100
AcDbEntity
8
0
100
AcDbSpline
62
9
6
CONTINUOUS
70
0
71
3
72
8
73
4
74
2
42
0.0000001000
43
0.0000001000
44
0.0000000001
12
-0.0227076041
22
0.0000009609
32
0.0000000000
13
-0.0227001504
23
0.0010335784
33
0.0000000000
40
0.0000000000
40
0.0000000000
40
0.0000000000
40
0.0000000000
40
1.0000000000
40
1.0000000000
40
1.0000000000
40
1.0000000000
10
-5.5393371667
20
-14.4768914089
30
0.0000000000
10
-5.5469063681
20
-14.4768910886
30
0.0000000000
10
-5.5544789545
20
-14.4767184431
30
0.0000000000
10
-5.5620456713
20
-14.4763739170
30
0.0000000000
11
-5.5393371667
21
-14.4768914089
31
0.0000000000
11
-5.5620456713
21
-14.4763739170
31
0.0000000000
0
SPLINE
5
2BA
100
AcDbEntity
8
0
100
AcDbSpline
62
9
6
CONTINUOUS
70
0
71
3
72
17
73
13
74
11
42
0.0000001000
43
0.0000001000
44
0.0000000001
12
-0.6586263115
22
0.0299884315
32
0.0000000000
13
-0.1349395129
23
0.6448758546
33
0.0000000000
40
0.0000000000
40
0.0000000000
40
0.0000000000
40
0.0000000000
40
0.0689017883
40
0.1722424457
40
0.2756141110
40
0.3790013481
40
0.4824158466
40
0.5858625384
40
0.6893435650
40
0.7928646793
40
0.8964030564
40
1.0000000000
40
1.0000000000
40
1.0000000000
40
1.0000000000
10
-5.5620456713
20
-14.4763739170
30
0.0000000000
10
-5.5771725149
20
-14.4756851648
30
0.0000000000
10
-5.6149283424
20
-14.4722462148
30
0.0000000000
10
-5.6743694580
20
-14.4599099568
30
0.0000000000
10
-5.7387534172
20
-14.4370664057
30
0.0000000000
10
-5.7994432675
20
-14.4056711398
30
0.0000000000
10
-5.8553134817
20
-14.3663035454
30
0.0000000000
10
-5.9053237110
20
-14.3196870317
30
0.0000000000
10
-5.9485414792
20
-14.2666826368
30
0.0000000000
10
-5.9841551937
20
-14.2082693602
30
0.0000000000
10
-6.0114984981
20
-14.1455433463
30
0.0000000000
10
-6.0238717247
20
-14.1015947396
30
0.0000000000
10
-6.0285314984
20
-14.0793256838
30
0.0000000000
11
-5.5620456713
21
-14.4763739170
31
0.0000000000
11
-5.6072818862
21
-14.4722504408
31
0.0000000000
11
-5.6739471769
21
-14.4584179837
31
0.0000000000
11
-5.7381321071
21
-14.4356435490
31
0.0000000000
11
-5.7986325454
21
-14.4043469894
31
0.0000000000
11
-5.8543286691
21
-14.3651020321
31
0.0000000000
11
-5.9041838237
21
-14.3186307596
31
0.0000000000
11
-5.9472670731
21
-14.2657910659
31
0.0000000000
11
-5.9827731254
21
-14.2075577258
31
0.0000000000
11
-6.0100295777
21
-14.1450242225
31
0.0000000000
11
-6.0285314984
21
-14.0793256838
31
0.0000000000
0
SPLINE
5
2BB
100
AcDbEntity
8
0
100
AcDbSpline
62
9
6
CONTINUOUS
70
0
71
3
72
10
73
6
74
4
42
0.0000001000
43
0.0000001000
44
0.0000000001
12
-0.0044931660
22
-0.0058626108
32
0.0000000000
13
-0.0044917190
23
-0.0058637195
33
0.0000000000
40
0.0000000000
40
0.0000000000
40
0.0000000000
40
0.0000000000
40
0.3333954754
40
0.6667287998
40
1.0000000000
40
1.0000000000
40
1.0000000000
40
1.0000000000
10
-6.0285320072
20
-14.0793257905
30
0.0000000000
10
-6.0290313409
20
-14.0799773131
30
0.0000000000
10
-6.0300298617
20
-14.0812802780
30
0.0000000000
10
-6.0315273424
20
-14.0832346665
30
0.0000000000
10
-6.0325254627
20
-14.0845375528
30
0.0000000000
10
-6.0330244496
20
-14.0851889557
30
0.0000000000
11
-6.0285320072
21
-14.0793257905
31
0.0000000000
11
-6.0300299279
21
-14.0812804200
31
0.0000000000
11
-6.0315274087
21
-14.0832348084
31
0.0000000000
11
-6.0330244496
21
-14.0851889557
31
0.0000000000
0
SPLINE
5
2BC
100
AcDbEntity
8
0
100
AcDbSpline
62
9
6
CONTINUOUS
70
0
71
3
72
10
73
6
74
4
42
0.0000001000
43
0.0000001000
44
0.0000000001
12
-0.0050245702
22
0.0065549832
32
0.0000000000
13
-0.0050227607
23
0.0065563698
33
0.0000000000
40
0.0000000000
40
0.0000000000
40
0.0000000000
40
0.0000000000
40
0.3866863976
40
0.7732792828
40
1.0000000000
40
1.0000000000
40
1.0000000000
40
1.0000000000
10
-6.0271982770
20
-10.3904998000
30
0.0000000000
10
-6.0278459213
20
-10.3896548924
30
0.0000000000
10
-6.0291409631
20
-10.3879652124
30
0.0000000000
10
-6.0308154700
20
-10.3857799498
30
0.0000000000
10
-6.0318423544
20
-10.3844396116
30
0.0000000000
10
-6.0322219423
20
-10.3839441233
30
0.0000000000
11
-6.0271982770
21
-10.3904998000
31
0.0000000000
11
-6.0291410746
21
-10.3879649735
31
0.0000000000
11
-6.0310831319
21
-10.3854305526
31
0.0000000000
11
-6.0322219423
21
-10.3839441233
31
0.0000000000
0
SPLINE
5
2BD
100
AcDbEntity
8
0
100
AcDbSpline
62
9
6
CONTINUOUS
70
0
71
3
72
10
73
6
74
4
42
0.0000001000
43
0.0000001000
44
0.0000000001
12
-0.0059593006
22
0.0073370518
32
0.0000000000
13
-0.0059567272
23
0.0073391412
33
0.0000000000
40
0.0000000000
40
0.0000000000
40
0.0000000000
40
0.0000000000
40
0.3334102951
40
0.6667436101
40
1.0000000000
40
1.0000000000
40
1.0000000000
40
1.0000000000
10
-5.5377798788
20
-9.9931109857
30
0.0000000000
10
-5.5384421762
20
-9.9922955695
30
0.0000000000
10
-5.5397665226
20
-9.9906648479
30
0.0000000000
10
-5.5417525271
20
-9.9882188155
30
0.0000000000
10
-5.5430761866
20
-9.9865881608
30
0.0000000000
10
-5.5437378924
20
-9.9857728889
30
0.0000000000
11
-5.5377798788
21
-9.9931109857
31
0.0000000000
11
-5.5397666278
21
-9.9906646209
31
0.0000000000
11
-5.5417526322
21
-9.9882185887
31
0.0000000000
11
-5.5437378924
21
-9.9857728889
31
0.0000000000
0
SPLINE
5
2BE
100
AcDbEntity
8
0
100
AcDbSpline
62
9
6
CONTINUOUS
70
0
71
3
72
8
73
4
74
2
42
0.0000001000
43
0.0000001000
44
0.0000000001
12
-0.0041686470
22
0.0198312329
32
0.0000000000
13
-0.0049718164
23
0.0196570377
33
0.0000000000
40
0.0000000000
40
0.0000000000
40
0.0000000000
40
0.0000000000
40
1.0000000000
40
1.0000000000
40
1.0000000000
40
1.0000000000
10
6.0785754029
20
-10.3828966757
30
0.0000000000
10
6.0771858539
20
-10.3762862647
30
0.0000000000
10
6.0756616342
20
-10.3697017087
30
0.0000000000
10
6.0740043620
20
-10.3631493628
30
0.0000000000
11
6.0785754029
21
-10.3828966757
31
0.0000000000
11
6.0740043620
21
-10.3631493628
31
0.0000000000
0
SPLINE
5
2BF
100
AcDbEntity
8
0
100
AcDbSpline
62
9
6
CONTINUOUS
70
0
71
3
72
10
73
6
74
4
42
0.0000001000
43
0.0000001000
44
0.0000000001
12
-0.0353934624
22
0.1399344656
32
0.0000000000
13
-0.0737750480
23
0.1240797771
33
0.0000000000
40
0.0000000000
40
0.0000000000
40
0.0000000000
40
0.0000000000
40
0.2828015235
40
0.7119519321
40
1.0000000000
40
1.0000000000
40
1.0000000000
40
1.0000000000
10
6.0740042715
20
-10.3631490049
30
0.0000000000
10
6.0706678298
20
-10.3499577782
30
0.0000000000
10
6.0609107595
20
-10.3170775617
30
0.0000000000
10
6.0425231367
20
-10.2725181176
30
0.0000000000
10
6.0261190059
20
-10.2421219967
30
0.0000000000
10
6.0190354192
20
-10.2302083500
30
0.0000000000
11
6.0740042715
21
-10.3631490049
31
0.0000000000
11
6.0623903674
21
-10.3240188245
31
0.0000000000
11
6.0387769211
21
-10.2667898899
31
0.0000000000
11
6.0190354192
21
-10.2302083500
31
0.0000000000
0
SPLINE
5
2C0
100
AcDbEntity
8
0
100
AcDbSpline
62
9
6
CONTINUOUS
70
0
71
3
72
14
73
10
74
8
42
0.0000001000
43
0.0000001000
44
0.0000000001
12
-0.1802715558
22
0.3031903752
32
0.0000000000
13
-0.3338396853
23
0.1139000045
33
0.0000000000
40
0.0000000000
40
0.0000000000
40
0.0000000000
40
0.0000000000
40
0.0590165737
40
0.2360147501
40
0.4121428096
40
0.5877262795
40
0.7639336503
40
0.9409895702
40
1.0000000000
40
1.0000000000
40
1.0000000000
40
1.0000000000
10
6.0190345657
20
-10.2302069146
30
0.0000000000
10
6.0154882292
20
-10.2242424956
30
0.0000000000
10
6.0008096204
20
-10.2006850505
30
0.0000000000
10
5.9717935046
20
-10.1617565204
30
0.0000000000
10
5.9286555224
20
-10.1168300788
30
0.0000000000
10
5.8803625233
20
-10.0776470816
30
0.0000000000
10
5.8274968064
20
-10.0446847152
30
0.0000000000
10
5.7834091697
20
-10.0243094321
30
0.0000000000
10
5.7573261116
20
-10.0148002000
30
0.0000000000
10
5.7507594371
20
-10.0125597706
30
0.0000000000
11
6.0190345657
21
-10.2302069146
31
0.0000000000
11
6.0080261720
21
-10.2125402921
31
0.0000000000
11
5.9707396789
21
-10.1625153945
31
0.0000000000
11
5.9277390506
21
-10.1177321440
31
0.0000000000
11
5.8796759096
21
-10.0787356312
31
0.0000000000
11
5.8269687041
21
-10.0458720297
31
0.0000000000
11
5.7703138754
21
-10.0196891404
31
0.0000000000
11
5.7507594371
21
-10.0125597706
31
0.0000000000
0
SPLINE
5
2C1
100
AcDbEntity
8
0
100
AcDbSpline
62
9
6
CONTINUOUS
70
0
71
3
72
8
73
4
74
2
42
0.0000001000
43
0.0000001000
44
0.0000000001
12
-0.0196915767
22
0.0067184064
32
0.0000000000
13
-0.0199534584
23
0.0058939024
33
0.0000000000
40
0.0000000000
40
0.0000000000
40
0.0000000000
40
0.0000000000
40
1.0000000000
40
1.0000000000
40
1.0000000000
40
1.0000000000
10
5.7507594371
20
-10.0125597706
30
0.0000000000
10
5.7441955782
20
-10.0103203018
30
0.0000000000
10
5.7375851690
20
-10.0082173464
30
0.0000000000
10
5.7309340162
20
-10.0062527123
30
0.0000000000
11
5.7507594371
21
-10.0125597706
31
0.0000000000
11
5.7309340162
21
-10.0062527123
31
0.0000000000
0
SPLINE
5
2C2
100
AcDbEntity
8
0
100
AcDbSpline
62
9
6
CONTINUOUS
70
0
71
3
72
10
73
6
74
4
42
0.0000001000
43
0.0000001000
44
0.0000000001
12
-0.1183249779
22
0.0349511276
32
0.0000000000
13
-0.1232678009
23
0.0049884426
33
0.0000000000
40
0.0000000000
40
0.0000000000
40
0.0000000000
40
0.0000000000
40
0.1681893151
40
0.6696935338
40
1.0000000000
40
1.0000000000
40
1.0000000000
40
1.0000000000
10
5.7309340162
20
-10.0062527123
30
0.0000000000
10
5.7243003506
20
-10.0042932436
30
0.0000000000
10
5.6977251461
20
-9.9970389352
30
0.0000000000
10
5.6572193849
20
-9.9895065947
30
0.0000000000
10
5.6230830032
20
-9.9867317005
30
0.0000000000
10
5.6095109526
20
-9.9861824622
30
0.0000000000
11
5.7309340162
21
-10.0062527123
31
0.0000000000
11
5.7109171914
21
-10.0007888843
31
0.0000000000
11
5.6501237674
21
-9.9894858910
31
0.0000000000
11
5.6095109526
21
-9.9861824622
31
0.0000000000
0
SPLINE
5
2C3
100
AcDbEntity
8
0
100
AcDbSpline
62
9
6
CONTINUOUS
70
0
71
3
72
8
73
4
74
2
42
0.0000001000
43
0.0000001000
44
0.0000000001
12
-0.0202155901
22
0.0008180913
32
0.0000000000
13
-0.0202207985
23
-0.0000001509
33
0.0000000000
40
0.0000000000
40
0.0000000000
40
0.0000000000
40
0.0000000000
40
1.0000000000
40
1.0000000000
40
1.0000000000
40
1.0000000000
10
5.6095109526
20
-9.9861824622
30
0.0000000000
10
5.6027724226
20
-9.9859097651
30
0.0000000000
10
5.5960297705
20
-9.9857733042
30
0.0000000000
10
5.5892895043
20
-9.9857733545
30
0.0000000000
11
5.6095109526
21
-9.9861824622
31
0.0000000000
11
5.5892895043
21
-9.9857733545
31
0.0000000000
0
SPLINE
5
2C4
100
AcDbEntity
8
0
100
AcDbSpline
62
9
6
CONTINUOUS
70
0
71
3
72
10
73
6
74
4
42
0.0000001000
43
0.0000001000
44
0.0000000001
12
-0.0051774834
22
-0.0063745870
32
0.0000000000
13
-0.0051755408
23
-0.0063761643
33
0.0000000000
40
0.0000000000
40
0.0000000000
40
0.0000000000
40
0.0000000000
40
0.3750704971
40
0.7500563951
40
1.0000000000
40
1.0000000000
40
1.0000000000
40
1.0000000000
10
-5.5379146719
20
-14.4751404650
30
0.0000000000
10
-5.5385619790
20
-14.4759374381
30
0.0000000000
10
-5.5398563561
20
-14.4775312787
30
0.0000000000
10
-5.5415818195
20
-14.4796564369
30
0.0000000000
10
-5.5426599861
20
-14.4809846136
30
0.0000000000
10
-5.5430911839
20
-14.4815158408
30
0.0000000000
11
-5.5379146719
21
-14.4751404650
31
0.0000000000
11
-5.5398564565
21
-14.4775314955
31
0.0000000000
11
-5.5417975299
21
-14.4799222085
31
0.0000000000
11
-5.5430911839
21
-14.4815158408
31
0.0000000000
0
SPLINE
5
2C5
100
AcDbEntity
8
0
100
AcDbSpline
62
9
6
CONTINUOUS
70
0
71
3
72
8
73
4
74
2
42
0.0000001000
43
0.0000001000
44
0.0000000001
12
-0.0006467237
22
-0.0007967509
32
0.0000000000
13
-0.0006466934
23
-0.0007967755
33
0.0000000000
40
0.0000000000
40
0.0000000000
40
0.0000000000
40
0.0000000000
40
1.0000000000
40
1.0000000000
40
1.0000000000
40
1.0000000000
10
-5.5430911839
20
-14.4815158408
30
0.0000000000
10
-5.5433067585
20
-14.4817814244
30
0.0000000000
10
-5.5435223280
20
-14.4820470121
30
0.0000000000
10
-5.5437378924
20
-14.4823126040
30
0.0000000000
11
-5.5430911839
21
-14.4815158408
31
0.0000000000
11
-5.5437378924
21
-14.4823126040
31
0.0000000000
0
SPLINE
5
2C6
100
AcDbEntity
8
0
100
AcDbSpline
62
9
6
CONTINUOUS
70
0
71
3
72
8
73
4
74
2
42
0.0000001000
43
0.0000001000
44
0.0000000001
12
-0.0014050794
22
-0.0018330318
32
0.0000000000
13
-0.0014049378
23
-0.0018331403
33
0.0000000000
40
0.0000000000
40
0.0000000000
40
0.0000000000
40
0.0000000000
40
1.0000000000
40
1.0000000000
40
1.0000000000
40
1.0000000000
10
-6.0271269998
20
-14.0774927060
30
0.0000000000
10
-6.0275953596
20
-14.0781037166
30
0.0000000000
10
-6.0280636958
20
-14.0787147453
30
0.0000000000
10
-6.0285320084
20
-14.0793257921
30
0.0000000000
11
-6.0271269998
21
-14.0774927060
31
0.0000000000
11
-6.0285320084
21
-14.0793257921
31
0.0000000000
0
SPLINE
5
2C7
100
AcDbEntity
8
0
100
AcDbSpline
62
9
6
CONTINUOUS
70
0
71
3
72
10
73
6
74
4
42
0.0000001000
43
0.0000001000
44
0.0000000001
12
-0.0038380339
22
-0.0050078049
32
0.0000000000
13
-0.0038369780
23
-0.0050086139
33
0.0000000000
40
0.0000000000
40
0.0000000000
40
0.0000000000
40
0.0000000000
40
0.1463190825
40
0.6585694100
40
1.0000000000
40
1.0000000000
40
1.0000000000
40
1.0000000000
10
-6.0285320084
20
-14.0793257921
30
0.0000000000
10
-6.0287192009
20
-14.0795700379
30
0.0000000000
10
-6.0295617212
20
-14.0806693799
30
0.0000000000
10
-6.0308409242
20
-14.0823387568
30
0.0000000000
10
-6.0319328271
20
-14.0837639702
30
0.0000000000
10
-6.0323695143
20
-14.0843340016
30
0.0000000000
11
-6.0285320084
21
-14.0793257921
31
0.0000000000
11
-6.0290935747
21
-14.0800585382
31
0.0000000000
11
-6.0310593911
21
-14.0826239547
31
0.0000000000
11
-6.0323695143
21
-14.0843340016
31
0.0000000000
0
SPLINE
5
2C8
100
AcDbEntity
8
0
100
AcDbSpline
62
9
6
CONTINUOUS
70
0
71
3
72
8
73
4
74
2
42
0.0000001000
43
0.0000001000
44
0.0000000001
12
-0.0006549507
22
-0.0008549423
32
0.0000000000
13
-0.0006549199
23
-0.0008549659
33
0.0000000000
40
0.0000000000
40
0.0000000000
40
0.0000000000
40
0.0000000000
40
1.0000000000
40
1.0000000000
40
1.0000000000
40
1.0000000000
10
-6.0323695143
20
-14.0843340016
30
0.0000000000
10
-6.0325878312
20
-14.0846189824
30
0.0000000000
10
-6.0328061429
20
-14.0849039671
30
0.0000000000
10
-6.0330244496
20
-14.0851889557
30
0.0000000000
11
-6.0323695143
21
-14.0843340016
31
0.0000000000
11
-6.0330244496
21
-14.0851889557
31
0.0000000000
0
SPLINE
5
2C9
100
AcDbEntity
8
0
100
AcDbSpline
62
9
6
CONTINUOUS
70
0
71
3
72
10
73
6
74
4
42
0.0000001000
43
0.0000001000
44
0.0000000001
12
-0.0064260917
22
0.0083820514
32
0.0000000000
13
-0.0064231322
23
0.0083843194
33
0.0000000000
40
0.0000000000
40
0.0000000000
40
0.0000000000
40
0.0000000000
40
0.3750937523
40
0.7500749751
40
1.0000000000
40
1.0000000000
40
1.0000000000
40
1.0000000000
10
-6.0257973307
20
-10.3923273091
30
0.0000000000
10
-6.0266007929
20
-10.3912792908
30
0.0000000000
10
-6.0282073376
20
-10.3891834620
30
0.0000000000
10
-6.0303488130
20
-10.3863890193
30
0.0000000000
10
-6.0316868418
20
-10.3846426071
30
0.0000000000
10
-6.0322219423
20
-10.3839441233
30
0.0000000000
11
-6.0257973307
21
-10.3923273091
31
0.0000000000
11
-6.0282075092
21
-10.3891830943
31
0.0000000000
11
-6.0306165485
21
-10.3860395038
31
0.0000000000
11
-6.0322219423
21
-10.3839441233
31
0.0000000000
0
SPLINE
5
2CA
100
AcDbEntity
8
0
100
AcDbSpline
62
9
6
CONTINUOUS
70
0
71
3
72
8
73
4
74
2
42
0.0000001000
43
0.0000001000
44
0.0000000001
12
-0.0008025303
22
0.0010475684
32
0.0000000000
13
-0.0008024842
23
0.0010476038
33
0.0000000000
40
0.0000000000
40
0.0000000000
40
0.0000000000
40
0.0000000000
40
1.0000000000
40
1.0000000000
40
1.0000000000
40
1.0000000000
10
-6.0322219423
20
-10.3839441233
30
0.0000000000
10
-6.0324894524
20
-10.3835949339
30
0.0000000000
10
-6.0327569549
20
-10.3832457385
30
0.0000000000
10
-6.0330244496
20
-10.3828965372
30
0.0000000000
11
-6.0322219423
21
-10.3839441233
31
0.0000000000
11
-6.0330244496
21
-10.3828965372
31
0.0000000000
0
SPLINE
5
2CB
100
AcDbEntity
8
0
100
AcDbSpline
62
9
6
CONTINUOUS
70
0
71
3
72
8
73
4
74
2
42
0.0000001000
43
0.0000001000
44
0.0000000001
12
-0.0014180592
22
0.0017456073
32
0.0000000000
13
-0.0014179135
23
0.0017457257
33
0.0000000000
40
0.0000000000
40
0.0000000000
40
0.0000000000
40
0.0000000000
40
1.0000000000
40
1.0000000000
40
1.0000000000
40
1.0000000000
10
-5.5363618892
20
-9.9948566562
30
0.0000000000
10
-5.5368345756
20
-9.9942747871
30
0.0000000000
10
-5.5373072377
20
-9.9936928983
30
0.0000000000
10
-5.5377798756
20
-9.9931109897
30
0.0000000000
11
-5.5363618892
21
-9.9948566562
31
0.0000000000
11
-5.5377798756
21
-9.9931109897
31
0.0000000000
0
SPLINE
5
2CC
100
AcDbEntity
8
0
100
AcDbSpline
62
9
6
CONTINUOUS
70
0
71
3
72
10
73
6
74
4
42
0.0000001000
43
0.0000001000
44
0.0000000001
12
-0.0051399221
22
0.0063282384
32
0.0000000000
13
-0.0051380076
23
0.0063297929
33
0.0000000000
40
0.0000000000
40
0.0000000000
40
0.0000000000
40
0.0000000000
40
0.2026993225
40
0.6811252943
40
1.0000000000
40
1.0000000000
40
1.0000000000
40
1.0000000000
10
-5.5377798788
20
-9.9931109857
30
0.0000000000
10
-5.5381271650
20
-9.9926834092
30
0.0000000000
10
-5.5392940979
20
-9.9912465990
30
0.0000000000
10
-5.5410071232
20
-9.9891369571
30
0.0000000000
10
-5.5423727166
20
-9.9874547735
30
0.0000000000
10
-5.5429188435
20
-9.9867819699
30
0.0000000000
11
-5.5377798788
21
-9.9931109857
31
0.0000000000
11
-5.5388216981
21
-9.9918282242
31
0.0000000000
11
-5.5412803655
21
-9.9888003018
31
0.0000000000
11
-5.5429188435
21
-9.9867819699
31
0.0000000000
0
SPLINE
5
2CD
100
AcDbEntity
8
0
100
AcDbSpline
62
9
6
CONTINUOUS
70
0
71
3
72
8
73
4
74
2
42
0.0000001000
43
0.0000001000
44
0.0000000001
12
-0.0008190733
22
0.0010090612
32
0.0000000000
13
-0.0008190246
23
0.0010091007
33
0.0000000000
40
0.0000000000
40
0.0000000000
40
0.0000000000
40
0.0000000000
40
1.0000000000
40
1.0000000000
40
1.0000000000
40
1.0000000000
10
-5.5429188435
20
-9.9867819699
30
0.0000000000
10
-5.5431918679
20
-9.9864456162
30
0.0000000000
10
-5.5434648842
20
-9.9861092558
30
0.0000000000
10
-5.5437378924
20
-9.9857728889
30
0.0000000000
11
-5.5429188435
21
-9.9867819699
31
0.0000000000
11
-5.5437378924
21
-9.9857728889
31
0.0000000000
0
SPLINE
5
2CE
100
AcDbEntity
8
0
100
AcDbSpline
62
9
6
CONTINUOUS
70
0
71
3
72
10
73
6
74
4
42
0.0000001000
43
0.0000001000
44
0.0000000001
12
-0.1234164545
22
-0.0050042584
32
0.0000000000
13
-0.1184545701
23
-0.0350383225
33
0.0000000000
40
0.0000000000
40
0.0000000000
40
0.0000000000
40
0.0000000000
40
0.3304424119
40
0.8319029893
40
1.0000000000
40
1.0000000000
40
1.0000000000
40
1.0000000000
10
-5.5640005396
20
-9.9861842522
30
0.0000000000
10
-5.5775945499
20
-9.9867354586
30
0.0000000000
10
-5.6117757326
20
-9.9895190293
30
0.0000000000
10
-5.6523284148
20
-9.9970721913
30
0.0000000000
10
-5.6789276577
20
-10.0043435435
30
0.0000000000
10
-5.6855649441
20
-10.0063068226
30
0.0000000000
11
-5.5640005396
21
-9.9861842522
31
0.0000000000
11
-5.6046786918
21
-9.9894990090
31
0.0000000000
11
-5.6655369516
21
-10.0008320503
31
0.0000000000
11
-5.6855649441
21
-10.0063068226
31
0.0000000000
0
SPLINE
5
2CF
100
AcDbEntity
8
0
100
AcDbSpline
62
9
6
CONTINUOUS
70
0
71
3
72
14
73
10
74
8
42
0.0000001000
43
0.0000001000
44
0.0000000001
12
-0.3582021272
22
-0.1059545584
32
0.0000000000
13
-0.1907817799
23
-0.3211581970
33
0.0000000000
40
0.0000000000
40
0.0000000000
40
0.0000000000
40
0.0000000000
40
0.1114531997
40
0.2785921547
40
0.4449101567
40
0.6107077452
40
0.7770906700
40
0.9442770955
40
1.0000000000
40
1.0000000000
40
1.0000000000
40
1.0000000000
10
-5.6855649441
20
-10.0063068226
30
0.0000000000
10
-5.6988725352
20
-10.0102431474
30
0.0000000000
10
-5.7317283176
20
-10.0214667396
30
0.0000000000
10
-5.7821045760
20
-10.0447720172
30
0.0000000000
10
-5.8349459668
20
-10.0777441368
30
0.0000000000
10
-5.8832264024
20
-10.1169420608
30
0.0000000000
10
-5.9263595733
20
-10.1618938860
30
0.0000000000
10
-5.9553693474
20
-10.2008452286
30
0.0000000000
10
-5.9700415650
20
-10.2244134286
30
0.0000000000
10
-5.9735852033
20
-10.2303787178
30
0.0000000000
11
-5.6855649441
21
-10.0063068226
31
0.0000000000
11
-5.7249511343
21
-10.0197626346
31
0.0000000000
11
-5.7815786535
21
-10.0459594499
31
0.0000000000
11
-5.8342523712
21
-10.0788270583
31
0.0000000000
11
-5.8823027933
21
-10.1178382278
31
0.0000000000
11
-5.9253061921
21
-10.1626547199
31
0.0000000000
11
-5.9625848820
21
-10.2127092900
31
0.0000000000
11
-5.9735852033
21
-10.2303787178
31
0.0000000000
0
SPLINE
5
2D0
100
AcDbEntity
8
0
100
AcDbSpline
62
9
6
CONTINUOUS
70
0
71
3
72
10
73
6
74
4
42
0.0000001000
43
0.0000001000
44
0.0000000001
12
-0.0736459886
22
-0.1239741706
32
0.0000000000
13
-0.0353438453
23
-0.1397850858
33
0.0000000000
40
0.0000000000
40
0.0000000000
40
0.0000000000
40
0.0000000000
40
0.2882074182
40
0.7173459911
40
1.0000000000
40
1.0000000000
40
1.0000000000
40
1.0000000000
10
-5.9735852033
20
-10.2303787178
30
0.0000000000
10
-5.9806603101
20
-10.2422888096
30
0.0000000000
10
-5.9970386544
20
-10.2726642444
30
0.0000000000
10
-6.0153934455
20
-10.3171803679
30
0.0000000000
10
-6.0251328741
20
-10.3500187658
30
0.0000000000
10
-6.0284629006
20
-10.3631890374
30
0.0000000000
11
-5.9735852033
21
-10.2303787178
31
0.0000000000
11
-5.9933025212
21
-10.2669481232
31
0.0000000000
11
-6.0168734102
21
-10.3241200843
31
0.0000000000
11
-6.0284629006
21
-10.3631890374
31
0.0000000000
0
SPLINE
5
2D1
100
AcDbEntity
8
0
100
AcDbSpline
62
9
6
CONTINUOUS
70
0
71
3
72
8
73
4
74
2
42
0.0000001000
43
0.0000001000
44
0.0000000001
12
-0.0049602219
22
-0.0196177025
32
0.0000000000
13
-0.0041603232
23
-0.0197911805
33
0.0000000000
40
0.0000000000
40
0.0000000000
40
0.0000000000
40
0.0000000000
40
1.0000000000
40
1.0000000000
40
1.0000000000
40
1.0000000000
10
-6.0284629006
20
-10.3631890374
30
0.0000000000
10
-6.0301163079
20
-10.3697282716
30
0.0000000000
10
-6.0316372029
20
-10.3762995763
30
0.0000000000
10
-6.0330239773
20
-10.3828966365
30
0.0000000000
11
-6.0284629006
21
-10.3631890374
31
0.0000000000
11
-6.0330239773
21
-10.3828966365
31
0.0000000000
0
SPLINE
5
2D2
100
AcDbEntity
8
0
100
AcDbSpline
62
9
6
CONTINUOUS
70
0
71
3
72
8
73
4
74
2
42
0.0000001000
43
0.0000001000
44
0.0000000001
12
0.0041686497
22
-0.0198312463
32
0.0000000000
13
0.0049718202
23
-0.0196570509
33
0.0000000000
40
0.0000000000
40
0.0000000000
40
0.0000000000
40
0.0000000000
40
1.0000000000
40
1.0000000000
40
1.0000000000
40
1.0000000000
10
-6.0330237909
20
-14.0851888172
30
0.0000000000
10
-6.0316342410
20
-14.0917992326
30
0.0000000000
10
-6.0301100201
20
-14.0983837931
30
0.0000000000
10
-6.0284527467
20
-14.1049361434
30
0.0000000000
11
-6.0330237909
21
-14.0851888172
31
0.0000000000
11
-6.0284527467
21
-14.1049361434
31
0.0000000000
0
SPLINE
5
2D3
100
AcDbEntity
8
0
100
AcDbSpline
62
9
6
CONTINUOUS
70
0
71
3
72
10
73
6
74
4
42
0.0000001000
43
0.0000001000
44
0.0000000001
12
0.0353934649
22
-0.1399348944
32
0.0000000000
13
0.0737752766
23
-0.1240801267
33
0.0000000000
40
0.0000000000
40
0.0000000000
40
0.0000000000
40
0.0000000000
40
0.2828034108
40
0.7119527249
40
1.0000000000
40
1.0000000000
40
1.0000000000
40
1.0000000000
10
-6.0284527467
20
-14.1049361434
30
0.0000000000
10
-6.0251162825
20
-14.1181274985
30
0.0000000000
10
-6.0153591834
20
-14.1510078505
30
0.0000000000
10
-5.9969715034
20
-14.1955674217
30
0.0000000000
10
-5.9805673647
20
-14.2259635486
30
0.0000000000
10
-5.9734837756
20
-14.2378771961
30
0.0000000000
11
-6.0284527467
21
-14.1049361434
31
0.0000000000
11
-6.0168387441
21
-14.1440667015
31
0.0000000000
11
-5.9932252846
21
-14.2012956535
31
0.0000000000
11
-5.9734837756
21
-14.2378771961
31
0.0000000000
0
SPLINE
5
2D4
100
AcDbEntity
8
0
100
AcDbSpline
62
9
6
CONTINUOUS
70
0
71
3
72
14
73
10
74
8
42
0.0000001000
43
0.0000001000
44
0.0000000001
12
0.1909047022
22
-0.3210761211
32
0.0000000000
13
0.3582345151
23
-0.1058161816
33
0.0000000000
40
0.0000000000
40
0.0000000000
40
0.0000000000
40
0.0000000000
40
0.0557335963
40
0.2228722723
40
0.3891892920
40
0.5549920765
40
0.7213840240
40
0.8885772537
40
1.0000000000
40
1.0000000000
40
1.0000000000
40
1.0000000000
10
-5.9734837756
20
-14.2378771961
30
0.0000000000
10
-5.9699371737
20
-14.2438421051
30
0.0000000000
10
-5.9552583081
20
-14.2674000436
30
0.0000000000
10
-5.9262418589
20
-14.3063290116
30
0.0000000000
10
-5.8831038791
20
-14.3512554424
30
0.0000000000
10
-5.8348108819
20
-14.3904384322
30
0.0000000000
10
-5.7819451642
20
-14.4234007940
30
0.0000000000
10
-5.7315497880
20
-14.4466912208
30
0.0000000000
10
-5.6986875320
20
-14.4579026796
30
0.0000000000
10
-5.6853823742
20
-14.4618327895
30
0.0000000000
11
-5.9734837756
21
-14.2378771961
31
0.0000000000
11
-5.9624745261
21
-14.2555452528
31
0.0000000000
11
-5.9251880330
21
-14.3055701384
31
0.0000000000
11
-5.8821874094
21
-14.3503533758
31
0.0000000000
11
-5.8341242700
21
-14.3893498814
31
0.0000000000
11
-5.7814170621
21
-14.4222134795
31
0.0000000000
11
-5.7247622313
21
-14.4483963651
31
0.0000000000
11
-5.6853823742
21
-14.4618327895
31
0.0000000000
0
SPLINE
5
2D5
100
AcDbEntity
8
0
100
AcDbSpline
62
9
6
CONTINUOUS
70
0
71
3
72
10
73
6
74
4
42
0.0000001000
43
0.0000001000
44
0.0000000001
12
0.1183247931
22
-0.0349510649
32
0.0000000000
13
0.1232676048
23
-0.0049884750
33
0.0000000000
40
0.0000000000
40
0.0000000000
40
0.0000000000
40
0.0000000000
40
0.1681895598
40
0.6696944759
40
1.0000000000
40
1.0000000000
40
1.0000000000
40
1.0000000000
10
-5.6853823742
20
-14.4618327895
30
0.0000000000
10
-5.6787487092
20
-14.4637922576
30
0.0000000000
10
-5.6521735090
20
-14.4710465631
30
0.0000000000
10
-5.6116678115
20
-14.4785788898
30
0.0000000000
10
-5.5775314945
20
-14.4813537838
30
0.0000000000
10
-5.5639595043
20
-14.4819030241
30
0.0000000000
11
-5.6853823742
21
-14.4618327895
31
0.0000000000
11
-5.6653655516
21
-14.4672966157
31
0.0000000000
11
-5.6045721386
21
-14.4785996040
31
0.0000000000
11
-5.5639595043
21
-14.4819030241
31
0.0000000000
0
SPLINE
5
2D6
100
AcDbEntity
8
0
100
AcDbSpline
62
9
6
CONTINUOUS
70
0
71
3
72
10
73
6
74
4
42
0.0000001000
43
0.0000001000
44
0.0000000001
12
0.1234171108
22
0.0050043264
32
0.0000000000
13
0.1184551432
23
0.0350387044
33
0.0000000000
40
0.0000000000
40
0.0000000000
40
0.0000000000
40
0.0000000000
40
0.3304429158
40
0.8319033267
40
1.0000000000
40
1.0000000000
40
1.0000000000
40
1.0000000000
10
5.6095523165
20
-14.4819012342
30
0.0000000000
10
5.6231464198
20
-14.4813500195
30
0.0000000000
10
5.6573277974
20
-14.4785664116
30
0.0000000000
10
5.6978806873
20
-14.4710131605
30
0.0000000000
10
5.7244800404
20
-14.4637417331
30
0.0000000000
10
5.7311173456
20
-14.4617784365
30
0.0000000000
11
5.6095523165
21
-14.4819012342
31
0.0000000000
11
5.6502307454
21
-14.4785864296
31
0.0000000000
11
5.7110892953
21
-14.4672532586
31
0.0000000000
11
5.7311173456
21
-14.4617784365
31
0.0000000000
0
SPLINE
5
2D7
100
AcDbEntity
8
0
100
AcDbSpline
62
9
6
CONTINUOUS
70
0
71
3
72
14
73
10
74
8
42
0.0000001000
43
0.0000001000
44
0.0000000001
12
0.3582027174
22
0.1059553752
32
0.0000000000
13
0.1907811532
23
0.3211594948
33
0.0000000000
40
0.0000000000
40
0.0000000000
40
0.0000000000
40
0.0000000000
40
0.1114531824
40
0.2785917175
40
0.4449093737
40
0.6107072186
40
0.7770906782
40
0.9442772653
40
1.0000000000
40
1.0000000000
40
1.0000000000
40
1.0000000000
10
5.7311173456
20
-14.4617784365
30
0.0000000000
10
5.7444249565
20
-14.4578420819
30
0.0000000000
10
5.7772807382
20
-14.4466184264
30
0.0000000000
10
5.8276569734
20
-14.4233130501
30
0.0000000000
10
5.8804983647
20
-14.3903408006
30
0.0000000000
10
5.9287788689
20
-14.3511426608
30
0.0000000000
10
5.9719121009
20
-14.3061905429
30
0.0000000000
10
6.0009218561
20
-14.2672389742
30
0.0000000000
10
6.0155940281
20
-14.2436706773
30
0.0000000000
10
6.0191376440
20
-14.2377053822
30
0.0000000000
11
5.7311173456
21
-14.4617784365
31
0.0000000000
11
5.7705035904
21
-14.4483225297
31
0.0000000000
11
5.8271310412
21
-14.4221256230
31
0.0000000000
11
5.8798047035
21
-14.3892579198
31
0.0000000000
11
5.9278552245
21
-14.3502465109
31
0.0000000000
11
5.9708587388
21
-14.3054296696
31
0.0000000000
11
6.0081373899
21
-14.2553748294
31
0.0000000000
11
6.0191376440
21
-14.2377053822
31
0.0000000000
0
SPLINE
5
2D8
100
AcDbEntity
8
0
100
AcDbSpline
62
9
6
CONTINUOUS
70
0
71
3
72
10
73
6
74
4
42
0.0000001000
43
0.0000001000
44
0.0000000001
12
0.0736449383
22
0.1239733107
32
0.0000000000
13
0.0353434429
23
0.1397838691
33
0.0000000000
40
0.0000000000
40
0.0000000000
40
0.0000000000
40
0.0000000000
40
0.2882088033
40
0.7173472475
40
1.0000000000
40
1.0000000000
40
1.0000000000
40
1.0000000000
10
6.0191376440
20
-14.2377053822
30
0.0000000000
10
6.0262126838
20
-14.2257953157
30
0.0000000000
10
6.0425908191
20
-14.1954200469
30
0.0000000000
10
6.0609453402
20
-14.1509042750
30
0.0000000000
10
6.0706846248
20
-14.1180662219
30
0.0000000000
10
6.0740145986
20
-14.1048961234
30
0.0000000000
11
6.0191376440
21
-14.2377053822
31
0.0000000000
11
6.0388547702
21
-14.2011360643
31
0.0000000000
11
6.0624253089
21
-14.1439645706
31
0.0000000000
11
6.0740145986
21
-14.1048961234
31
0.0000000000
0
SPLINE
5
2D9
100
AcDbEntity
8
0
100
AcDbSpline
62
9
6
CONTINUOUS
70
0
71
3
72
8
73
4
74
2
42
0.0000001000
43
0.0000001000
44
0.0000000001
12
0.0049601252
22
0.0196173729
32
0.0000000000
13
0.0041602533
23
0.0197908451
33
0.0000000000
40
0.0000000000
40
0.0000000000
40
0.0000000000
40
0.0000000000
40
1.0000000000
40
1.0000000000
40
1.0000000000
40
1.0000000000
10
6.0740145986
20
-14.1048961234
30
0.0000000000
10
6.0756679737
20
-14.0983569991
30
0.0000000000
10
6.0771888409
20
-14.0917858054
30
0.0000000000
10
6.0785755920
20
-14.0851888570
30
0.0000000000
11
6.0740145986
21
-14.1048961234
31
0.0000000000
11
6.0785755920
21
-14.0851888570
31
0.0000000000
0
SPLINE
5
2DA
100
AcDbEntity
8
0
100
AcDbSpline
62
9
6
CONTINUOUS
70
0
71
3
72
8
73
4
74
2
42
0.0000001000
43
0.0000001000
44
0.0000000001
12
-0.0041687213
22
0.0198315941
32
0.0000000000
13
-0.0049719207
23
0.0196573923
33
0.0000000000
40
0.0000000000
40
0.0000000000
40
0.0000000000
40
0.0000000000
40
1.0000000000
40
1.0000000000
40
1.0000000000
40
1.0000000000
10
6.0785754006
20
-10.3828966762
30
0.0000000000
10
6.0771858269
20
-10.3762861448
30
0.0000000000
10
6.0756615773
20
-10.3697014693
30
0.0000000000
10
6.0740042704
20
-10.3631490052
30
0.0000000000
11
6.0785754006
21
-10.3828966762
31
0.0000000000
11
6.0740042704
21
-10.3631490052
31
0.0000000000
0
SPLINE
5
2DB
100
AcDbEntity
8
0
100
AcDbSpline
62
9
6
CONTINUOUS
70
0
71
3
72
10
73
6
74
4
42
0.0000001000
43
0.0000001000
44
0.0000000001
12
-0.0353938666
22
0.1399360853
32
0.0000000000
13
-0.0737763130
23
0.1240809654
33
0.0000000000
40
0.0000000000
40
0.0000000000
40
0.0000000000
40
0.0000000000
40
0.2828047923
40
0.7119541844
40
1.0000000000
40
1.0000000000
40
1.0000000000
40
1.0000000000
10
6.0740042704
20
-10.3631490052
30
0.0000000000
10
6.0706677520
20
-10.3499574734
30
0.0000000000
10
6.0609105066
20
-10.3170767797
30
0.0000000000
10
6.0425225595
20
-10.2725168649
30
0.0000000000
10
6.0261182173
20
-10.2421205830
30
0.0000000000
10
6.0190345646
20
-10.2302069153
30
0.0000000000
11
6.0740042704
21
-10.3631490052
31
0.0000000000
11
6.0623900612
21
-10.3240179309
31
0.0000000000
11
6.0387762565
21
-10.2667885292
31
0.0000000000
11
6.0190345646
21
-10.2302069153
31
0.0000000000
0
SPLINE
5
2DC
100
AcDbEntity
8
0
100
AcDbSpline
62
9
6
CONTINUOUS
70
0
71
3
72
14
73
10
74
8
42
0.0000001000
43
0.0000001000
44
0.0000000001
12
-0.1909053259
22
0.3210748296
32
0.0000000000
13
-0.3582339267
23
0.1058153732
33
0.0000000000
40
0.0000000000
40
0.0000000000
40
0.0000000000
40
0.0000000000
40
0.0557337324
40
0.2228720928
40
0.3891885786
40
0.5549913174
40
0.7213836287
40
0.8885772371
40
1.0000000000
40
1.0000000000
40
1.0000000000
40
1.0000000000
10
6.0190345646
20
-10.2302069153
30
0.0000000000
10
6.0154879424
20
-10.2242420158
30
0.0000000000
10
6.0008090442
20
-10.2006841933
30
0.0000000000
10
5.9717925941
20
-10.1617554667
30
0.0000000000
10
5.9286546772
20
-10.1168293159
30
0.0000000000
10
5.8803617288
20
-10.0776465191
30
0.0000000000
10
5.8274959912
20
-10.0446842743
30
0.0000000000
10
5.7771005941
20
-10.0213939473
30
0.0000000000
10
5.7442383422
20
-10.0101825526
30
0.0000000000
10
5.7309332042
20
-10.0062524722
30
0.0000000000
11
6.0190345646
21
-10.2302069153
31
0.0000000000
11
6.0080252548
21
-10.2125388883
31
0.0000000000
11
5.9707387622
21
-10.1625143142
31
0.0000000000
11
5.9277382607
21
-10.1177314183
31
0.0000000000
11
5.8796751619
21
-10.0787350980
31
0.0000000000
11
5.8269678925
21
-10.0458715909
31
0.0000000000
11
5.7703130067
21
-10.0196888027
31
0.0000000000
11
5.7309332042
21
-10.0062524722
31
0.0000000000
0
SPLINE
5
2DD
100
AcDbEntity
8
0
100
AcDbSpline
62
9
6
CONTINUOUS
70
0
71
3
72
10
73
6
74
4
42
0.0000001000
43
0.0000001000
44
0.0000000001
12
-0.1183242255
22
0.0349506877
32
0.0000000000
13
-0.1232669553
23
0.0049884079
33
0.0000000000
40
0.0000000000
40
0.0000000000
40
0.0000000000
40
0.0000000000
40
0.1681898978
40
0.6696949796
40
1.0000000000
40
1.0000000000
40
1.0000000000
40
1.0000000000
10
5.7309332042
20
-10.0062524722
30
0.0000000000
10
5.7242995578
20
-10.0042930213
30
0.0000000000
10
5.6977244665
20
-9.9970387901
30
0.0000000000
10
5.6572189745
20
-9.9895065516
30
0.0000000000
10
5.6230828507
20
-9.9867316944
30
0.0000000000
10
5.6095109526
20
-9.9861824624
30
0.0000000000
11
5.7309332042
21
-10.0062524722
31
0.0000000000
11
5.7109164385
21
-10.0007886951
31
0.0000000000
11
5.6501233125
21
-9.9894858352
31
0.0000000000
11
5.6095109526
21
-9.9861824624
31
0.0000000000
0
SPLINE
5
2DE
100
AcDbEntity
8
0
100
AcDbSpline
62
9
6
CONTINUOUS
70
0
71
3
72
17
73
13
74
11
42
0.0000001000
43
0.0000001000
44
0.0000000001
12
0.4774917653
22
-0.0000234798
32
0.0000000000
13
0.0978238443
23
-0.4673637577
33
0.0000000000
40
0.0000000000
40
0.0000000000
40
0.0000000000
40
0.0000000000
40
0.0998152269
40
0.1997678457
40
0.2997493731
40
0.3997478069
40
0.4997707981
40
0.5998159103
40
0.6998762449
40
0.7999551839
40
0.9000338982
40
1.0000000000
40
1.0000000000
40
1.0000000000
40
1.0000000000
10
5.5819135012
20
-10.1492165330
30
0.0000000000
10
5.5978004841
20
-10.1492173142
30
0.0000000000
10
5.6296389603
20
-10.1513906246
30
0.0000000000
10
5.6764895821
20
-10.1611237751
30
0.0000000000
10
5.7216149985
20
-10.1771564685
30
0.0000000000
10
5.7641441547
20
-10.1991900529
30
0.0000000000
10
5.8032869639
20
-10.2268136034
30
0.0000000000
10
5.8383134948
20
-10.2595137384
30
0.0000000000
10
5.8685720056
20
-10.2966805859
30
0.0000000000
10
5.8934983917
20
-10.3376237334
30
0.0000000000
10
5.9126221140
20
-10.3815516283
30
0.0000000000
10
5.9212767637
20
-10.4123135663
30
0.0000000000
10
5.9245364532
20
-10.4278870773
30
0.0000000000
11
5.5819135012
21
-10.1492165330
31
0.0000000000
11
5.6294635498
21
-10.1524659831
31
0.0000000000
11
5.6761928720
21
-10.1621713558
31
0.0000000000
11
5.7211781015
21
-10.1781548074
31
0.0000000000
11
5.7635749837
21
-10.2001187967
31
0.0000000000
11
5.8025968983
21
-10.2276564538
31
0.0000000000
11
5.8375161506
21
-10.2602553380
31
0.0000000000
11
5.8676810705
21
-10.2973068365
31
0.0000000000
11
5.8925322388
21
-10.3381235526
31
0.0000000000
11
5.9116051132
21
-10.3819390759
31
0.0000000000
11
5.9245364532
21
-10.4278870773
31
0.0000000000
0
SPLINE
5
2DF
100
AcDbEntity
8
0
100
AcDbSpline
62
9
6
CONTINUOUS
70
0
71
3
72
17
73
13
74
11
42
0.0000001000
43
0.0000001000
44
0.0000000001
12
0.6816514507
22
-0.0000285102
32
0.0000000000
13
0.1398128286
23
-0.6671589571
33
0.0000000000
40
0.0000000000
40
0.0000000000
40
0.0000000000
40
0.0000000000
40
0.1000141392
40
0.1999997202
40
0.3000030420
40
0.4000032932
40
0.5000052621
40
0.6000066591
40
0.7000051117
40
0.8000058467
40
0.8999889491
40
1.0000000000
40
1.0000000000
40
1.0000000000
40
1.0000000000
10
5.5819135011
20
-9.9948572462
30
0.0000000000
10
5.6046384288
20
-9.9948581966
30
0.0000000000
10
5.6501427687
20
-9.9979642810
30
0.0000000000
10
5.7170829749
20
-10.0118608807
30
0.0000000000
10
5.7815225699
20
-10.0347288527
30
0.0000000000
10
5.8422534612
20
-10.0661492607
30
0.0000000000
10
5.8981482060
20
-10.1055358476
30
0.0000000000
10
5.9481667978
20
-10.1521578746
30
0.0000000000
10
5.9913800943
20
-10.2051479450
30
0.0000000000
10
6.0269824653
20
-10.2635232581
30
0.0000000000
10
6.0543149532
20
-10.3261874813
30
0.0000000000
10
6.0666874837
20
-10.3700863277
30
0.0000000000
10
6.0713484264
20
-10.3923274172
30
0.0000000000
11
5.5819135011
21
-9.9948572462
31
0.0000000000
11
5.6499296909
21
-9.9995047163
31
0.0000000000
11
5.7166628462
21
-10.0133551006
31
0.0000000000
11
5.7809045069
21
-10.0361543275
31
0.0000000000
11
5.8414471686
21
-10.0674767868
31
0.0000000000
11
5.8971689934
21
-10.1067418886
31
0.0000000000
11
5.9470330768
21
-10.1532197331
31
0.0000000000
11
5.9901116764
21
-10.2060456497
31
0.0000000000
11
6.0256058397
21
-10.2642411795
31
0.0000000000
11
6.0528505890
21
-10.3267122967
31
0.0000000000
11
6.0713484264
21
-10.3923274172
31
0.0000000000
0
SPLINE
5
2E0
100
AcDbEntity
8
0
100
AcDbSpline
62
9
6
CONTINUOUS
70
0
71
3
72
15
73
11
74
9
42
0.0000001000
43
0.0000001000
44
0.0000000001
12
0.0096257589
22
-0.1509037209
32
0.0000000000
13
0.1480007345
23
-0.0309898500
33
0.0000000000
40
0.0000000000
40
0.0000000000
40
0.0000000000
40
0.0000000000
40
0.0215719212
40
0.0797859461
40
0.1728657942
40
0.2973221456
40
0.4484151759
40
0.6203704092
40
0.8066084177
40
1.0000000000
40
1.0000000000
40
1.0000000000
40
1.0000000000
10
-6.0257967538
20
-10.3923274299
30
0.0000000000
10
-6.0257275384
20
-10.3934125243
30
0.0000000000
10
-6.0202177781
20
-10.3941634577
30
0.0000000000
10
-6.0134499523
20
-10.3973107823
30
0.0000000000
10
-5.9991692800
20
-10.4005463460
30
0.0000000000
10
-5.9814858485
20
-10.4051549130
30
0.0000000000
10
-5.9594035976
20
-10.4102749274
30
0.0000000000
10
-5.9344094197
20
-10.4159630490
30
0.0000000000
10
-5.9072391285
20
-10.4219095835
30
0.0000000000
10
-5.8885255400
20
-10.4258893518
30
0.0000000000
10
-5.8789848413
20
-10.4278870771
30
0.0000000000
11
-6.0257967538
21
-10.3923274299
31
0.0000000000
11
-6.0229225892
21
-10.3938698835
31
0.0000000000
11
-6.0145319006
21
-10.3965309967
31
0.0000000000
11
-6.0009462665
21
-10.4002087807
31
0.0000000000
11
-5.9826863651
21
-10.4047622819
31
0.0000000000
11
-5.9604520187
21
-10.4100169845
31
0.0000000000
11
-5.9350953730
21
-10.4157714988
31
0.0000000000
11
-5.9075882377
21
-10.4218052791
31
0.0000000000
11
-5.8789848413
21
-10.4278870771
31
0.0000000000
0
SPLINE
5
2E1
100
AcDbEntity
8
0
100
AcDbSpline
62
9
6
CONTINUOUS
70
0
71
3
72
17
73
13
74
11
42
0.0000001000
43
0.0000001000
44
0.0000000001
12
0.0978235103
22
0.4673638275
32
0.0000000000
13
0.4774917653
23
0.0000238124
33
0.0000000000
40
0.0000000000
40
0.0000000000
40
0.0000000000
40
0.0000000000
40
0.0999591327
40
0.2000367730
40
0.3001143823
40
0.4001732334
40
0.5002168988
40
0.6002413132
40
0.7002412390
40
0.8002240926
40
0.9001777760
40
1.0000000000
40
1.0000000000
40
1.0000000000
40
1.0000000000
10
-5.8789848413
20
-10.4278870773
30
0.0000000000
10
-5.8757253902
20
-10.4123146496
30
0.0000000000
10
-5.8670712269
20
-10.3815539250
30
0.0000000000
10
-5.8479485173
20
-10.3376272250
30
0.0000000000
10
-5.8230229741
20
-10.2966842971
30
0.0000000000
10
-5.7927653989
20
-10.2595175686
30
0.0000000000
10
-5.7577395750
20
-10.2268170387
30
0.0000000000
10
-5.7185970141
20
-10.1991927182
30
0.0000000000
10
-5.6760675543
20
-10.1771582417
30
0.0000000000
10
-5.6309417524
20
-10.1611247658
30
0.0000000000
10
-5.5840897524
20
-10.1513908654
30
0.0000000000
10
-5.5522499859
20
-10.1492173253
30
0.0000000000
10
-5.5363618892
20
-10.1492165330
30
0.0000000000
11
-5.8789848413
21
-10.4278870773
31
0.0000000000
11
-5.8660546171
21
-10.3819422189
31
0.0000000000
11
-5.8469823746
21
-10.3381269798
31
0.0000000000
11
-5.8221320351
21
-10.2973105024
31
0.0000000000
11
-5.7919680745
21
-10.2602591364
31
0.0000000000
11
-5.7570498489
21
-10.2276601648
31
0.0000000000
11
-5.7180278206
21
-10.2001214903
31
0.0000000000
11
-5.6756306105
21
-10.1781565850
31
0.0000000000
11
-5.6306449805
21
-10.1621723693
31
0.0000000000
11
-5.5839152559
21
-10.1524664344
31
0.0000000000
11
-5.5363618892
21
-10.1492165330
31
0.0000000000
0
SPLINE
5
2E2
100
AcDbEntity
8
0
100
AcDbSpline
62
9
6
CONTINUOUS
70
0
71
3
72
17
73
13
74
11
42
0.0000001000
43
0.0000001000
44
0.0000000001
12
0.1398127104
22
0.6671589818
32
0.0000000000
13
0.6816514507
23
0.0000286261
33
0.0000000000
40
0.0000000000
40
0.0000000000
40
0.0000000000
40
0.0000000000
40
0.1000111195
40
0.1999941476
40
0.2999949560
40
0.3999933909
40
0.4999948121
40
0.5999967702
40
0.6999970512
40
0.8000002992
40
0.8999859502
40
1.0000000000
40
1.0000000000
40
1.0000000000
40
1.0000000000
10
-6.0257967538
20
-10.3923274299
30
0.0000000000
10
-6.0211358119
20
-10.3700863244
30
0.0000000000
10
-6.0087633636
20
-10.3261874529
30
0.0000000000
10
-5.9814307777
20
-10.2635232534
30
0.0000000000
10
-5.9458284601
20
-10.2051479170
30
0.0000000000
10
-5.9026151311
20
-10.1521578458
30
0.0000000000
10
-5.8525965504
20
-10.1055358121
30
0.0000000000
10
-5.7967018023
20
-10.0661492082
30
0.0000000000
10
-5.7359709125
20
-10.0347288308
30
0.0000000000
10
-5.6715313272
20
-10.0118608030
30
0.0000000000
10
-5.6045911231
20
-9.9979643077
30
0.0000000000
10
-5.5590867966
20
-9.9948581381
30
0.0000000000
10
-5.5363618892
20
-9.9948571838
30
0.0000000000
11
-6.0257967538
21
-10.3923274299
31
0.0000000000
11
-6.0072989527
21
-10.3267122506
31
0.0000000000
11
-5.9800541915
21
-10.2642411938
31
0.0000000000
11
-5.9445600178
21
-10.2060456118
31
0.0000000000
11
-5.9014814218
21
-10.1532197078
31
0.0000000000
11
-5.8516173306
21
-10.1067418475
31
0.0000000000
11
-5.7958955151
21
-10.0674767453
31
0.0000000000
11
-5.7353528321
21
-10.0361542827
31
0.0000000000
11
-5.6711112243
21
-10.0133550574
31
0.0000000000
11
-5.6043780148
21
-9.9995046999
31
0.0000000000
11
-5.5363618892
21
-9.9948571838
31
0.0000000000
0
SPLINE
5
2E3
100
AcDbEntity
8
0
100
AcDbSpline
62
9
6
CONTINUOUS
70
0
71
3
72
9
73
5
74
3
42
0.0000001000
43
0.0000001000
44
0.0000000001
12
0.0040089081
22
-0.0117562981
32
0.0000000000
13
0.0117247175
23
0.0003440321
33
0.0000000000
40
0.0000000000
40
0.0000000000
40
0.0000000000
40
0.0000000000
40
0.2954497973
40
1.0000000000
40
1.0000000000
40
1.0000000000
40
1.0000000000
10
-6.0271269401
20
-14.0774926935
30
0.0000000000
10
-6.0267321298
20
-14.0786504921
30
0.0000000000
10
-6.0213965976
20
-14.0790750363
30
0.0000000000
10
-6.0177290962
20
-14.0791278027
30
0.0000000000
10
-6.0149755455
20
-14.0790470067
30
0.0000000000
11
-6.0271269401
21
-14.0774926935
31
0.0000000000
11
-6.0237249694
21
-14.0788689024
31
0.0000000000
11
-6.0149755455
21
-14.0790470067
31
0.0000000000
0
SPLINE
5
2E4
100
AcDbEntity
8
0
100
AcDbSpline
62
9
6
CONTINUOUS
70
0
71
3
72
13
73
9
74
7
42
0.0000001000
43
0.0000001000
44
0.0000000001
12
0.1287999446
22
0.0037793080
32
0.0000000000
13
0.1335967768
23
0.0277536586
33
0.0000000000
40
0.0000000000
40
0.0000000000
40
0.0000000000
40
0.0000000000
40
0.1012013531
40
0.2361191926
40
0.3998882881
40
0.5864916780
40
0.7890309321
40
1.0000000000
40
1.0000000000
40
1.0000000000
40
1.0000000000
10
-6.0149755455
20
-14.0790470067
30
0.0000000000
10
-6.0106306359
20
-14.0789195164
30
0.0000000000
10
-5.9995079384
20
-14.0779367281
30
0.0000000000
10
-5.9816730918
20
-14.0757495614
30
0.0000000000
10
-5.9597646387
20
-14.0724574403
30
0.0000000000
10
-5.9349960042
20
-14.0682524464
30
0.0000000000
10
-5.9081529539
20
-14.0632564471
30
0.0000000000
10
-5.8897143131
20
-14.0595555181
30
0.0000000000
10
-5.8803193839
20
-14.0576037970
30
0.0000000000
11
-6.0149755455
21
-14.0790470067
31
0.0000000000
11
-6.0012049258
21
-14.0780203651
31
0.0000000000
11
-5.9829266029
21
-14.0758272601
31
0.0000000000
11
-5.9608221571
21
-14.0725494703
31
0.0000000000
11
-5.9357158412
21
-14.0683092212
31
0.0000000000
11
-5.9085438447
21
-14.0632646274
31
0.0000000000
11
-5.8803193839
21
-14.0576037970
31
0.0000000000
0
SPLINE
5
2E5
100
AcDbEntity
8
0
100
AcDbSpline
62
9
6
CONTINUOUS
70
0
71
3
72
13
73
9
74
7
42
0.0000001000
43
0.0000001000
44
0.0000000001
12
-0.7459331470
22
3.5778438931
32
0.0000000000
13
0.7485651262
23
3.5772941499
33
0.0000000000
40
0.0000000000
40
0.0000000000
40
0.0000000000
40
0.0000000000
40
0.1666520467
40
0.3334916979
40
0.5003100989
40
0.6670604778
40
0.8336945479
40
1.0000000000
40
1.0000000000
40
1.0000000000
40
1.0000000000
10
-5.8803193839
20
-14.0576037976
30
0.0000000000
10
-5.9217564791
20
-13.8588521284
30
0.0000000000
10
-5.9910492986
20
-13.4581429184
30
0.0000000000
10
-6.0534897658
20
-12.8513832874
30
0.0000000000
10
-6.0741408150
20
-12.2416218815
30
0.0000000000
10
-6.0529030294
20
-11.6321318563
30
0.0000000000
10
-5.9899823550
20
-11.0261830907
30
0.0000000000
10
-5.9204816619
20
-10.6261949176
30
0.0000000000
10
-5.8789848413
20
-10.4278870773
30
0.0000000000
11
-5.8803193839
21
-14.0576037976
31
0.0000000000
11
-5.9841001299
21
-13.4574347493
31
0.0000000000
11
-6.0465234870
21
-12.8508769589
31
0.0000000000
11
-6.0671586181
21
-12.2415424763
31
0.0000000000
11
-6.0459370786
21
-11.6324768911
31
0.0000000000
11
-5.9830330759
21
-11.0267241468
31
0.0000000000
11
-5.8789848413
21
-10.4278870773
31
0.0000000000
0
SPLINE
5
2E6
100
AcDbEntity
8
0
100
AcDbSpline
62
9
6
CONTINUOUS
70
0
71
3
72
13
73
9
74
7
42
0.0000001000
43
0.0000001000
44
0.0000000001
12
-0.7585984981
22
3.6323219497
32
0.0000000000
13
0.7612207012
23
3.6317733233
33
0.0000000000
40
0.0000000000
40
0.0000000000
40
0.0000000000
40
0.0000000000
40
0.1666643636
40
0.3334985061
40
0.5003087853
40
0.6670511940
40
0.8336801290
40
1.0000000000
40
1.0000000000
40
1.0000000000
40
1.0000000000
10
-6.0271269998
20
-14.0774927060
30
0.0000000000
10
-6.0692707784
20
-13.8756998306
30
0.0000000000
10
-6.1397424709
20
-13.4688706436
30
0.0000000000
10
-6.2032475958
20
-12.8528392539
30
0.0000000000
10
-6.2242533165
20
-12.2337751884
30
0.0000000000
10
-6.2026607678
20
-11.6149859206
30
0.0000000000
10
-6.1386766781
20
-10.9997737481
30
0.0000000000
10
-6.0679993736
20
-10.5936726660
30
0.0000000000
10
-6.0257973307
20
-10.3923273091
30
0.0000000000
11
-6.0271269998
21
-14.0774927060
31
0.0000000000
11
-6.1326787292
21
-13.4681266452
31
0.0000000000
11
-6.1961635961
21
-12.8523202931
31
0.0000000000
11
-6.2171529080
21
-12.2336947101
31
0.0000000000
11
-6.1955770927
21
-11.6153413050
31
0.0000000000
11
-6.1316130504
21
-11.0003501046
31
0.0000000000
11
-6.0257973307
21
-10.3923273091
31
0.0000000000
0
SPLINE
5
2E7
100
AcDbEntity
8
0
100
AcDbSpline
62
9
6
CONTINUOUS
70
0
71
3
72
17
73
13
74
11
42
0.0000001000
43
0.0000001000
44
0.0000000001
12
-0.4774981057
22
0.0000237252
32
0.0000000000
13
-0.0974810226
23
0.4674418592
33
0.0000000000
40
0.0000000000
40
0.0000000000
40
0.0000000000
40
0.0000000000
40
0.0997195256
40
0.1995773305
40
0.2994755422
40
0.3994093511
40
0.4993941677
40
0.5994357534
40
0.6995325265
40
0.7996888292
40
0.8998839382
40
1.0000000000
40
1.0000000000
40
1.0000000000
40
1.0000000000
10
-5.5379146719
20
-14.3364750551
30
0.0000000000
10
-5.5537866334
20
-14.3364742664
30
0.0000000000
10
-5.5855951935
20
-14.3343030544
30
0.0000000000
10
-5.6324034350
20
-14.3245772174
30
0.0000000000
10
-5.6774916448
20
-14.3085532304
30
0.0000000000
10
-5.7199914447
20
-14.2865257927
30
0.0000000000
10
-5.7591138857
20
-14.2589013627
30
0.0000000000
10
-5.7941286638
20
-14.2261886205
30
0.0000000000
10
-5.8243816626
20
-14.1889934836
30
0.0000000000
10
-5.8493046510
20
-14.1480042581
30
0.0000000000
10
-5.8684220905
20
-14.1040129128
30
0.0000000000
10
-5.8770662452
20
-14.0732032769
30
0.0000000000
10
-5.8803193839
20
-14.0576037976
30
0.0000000000
11
-5.5379146719
21
-14.3364750551
31
0.0000000000
11
-5.5854197473
21
-14.3332284746
31
0.0000000000
11
-5.6321050379
21
-14.3235306172
31
0.0000000000
11
-5.6770519573
21
-14.3075562758
31
0.0000000000
11
-5.7194183780
21
-14.2855991941
31
0.0000000000
11
-5.7584189107
21
-14.2580617553
31
0.0000000000
11
-5.7933259314
21
-14.2254513112
31
0.0000000000
11
-5.8234854853
21
-14.1883721958
31
0.0000000000
11
-5.8483337566
21
-14.1475097321
31
0.0000000000
11
-5.8674011170
21
-14.1036305114
31
0.0000000000
11
-5.8803193839
21
-14.0576037976
31
0.0000000000
0
SPLINE
5
2E8
100
AcDbEntity
8
0
100
AcDbSpline
62
9
6
CONTINUOUS
70
0
71
3
72
17
73
13
74
11
42
0.0000001000
43
0.0000001000
44
0.0000000001
12
-0.6801674466
22
0.0000287891
32
0.0000000000
13
-0.1411588516
23
0.6653982126
33
0.0000000000
40
0.0000000000
40
0.0000000000
40
0.0000000000
40
0.0000000000
40
0.1001395421
40
0.2002528487
40
0.3003961255
40
0.4005543981
40
0.5007389761
40
0.6009546150
40
0.7012033772
40
0.8014908423
40
0.9017949031
40
1.0000000000
40
1.0000000000
40
1.0000000000
40
1.0000000000
10
-5.5379146719
20
-14.4751398642
30
0.0000000000
10
-5.5606185574
20
-14.4751389032
30
0.0000000000
10
-5.6060812914
20
-14.4720365517
30
0.0000000000
10
-5.6729637185
20
-14.4581541537
30
0.0000000000
10
-5.7373548263
20
-14.4353049788
30
0.0000000000
10
-5.7980504110
20
-14.4039021717
30
0.0000000000
10
-5.8539245625
20
-14.3645254306
30
0.0000000000
10
-5.9039366111
20
-14.3178985422
30
0.0000000000
10
-5.9471538376
20
-14.2648829752
30
0.0000000000
10
-5.9827644885
20
-14.2064581934
30
0.0000000000
10
-6.0099063287
20
-14.1441701919
30
0.0000000000
10
-6.0222034818
20
-14.1007091785
30
0.0000000000
10
-6.0268243214
20
-14.0789273465
30
0.0000000000
11
-5.5379146719
21
-14.4751398642
31
0.0000000000
11
-5.6058679525
21
-14.4704977269
31
0.0000000000
11
-5.6725412968
21
-14.4566618165
31
0.0000000000
11
-5.7367333077
21
-14.4338817910
31
0.0000000000
11
-5.7972394194
21
-14.4025777361
31
0.0000000000
11
-5.8529394296
21
-14.3633236871
31
0.0000000000
11
-5.9027963620
21
-14.3168421049
31
0.0000000000
11
-5.9458790376
21
-14.2639913139
31
0.0000000000
11
-5.9813820085
21
-14.2057465483
31
0.0000000000
11
-6.0086327988
21
-14.1432017791
31
0.0000000000
11
-6.0268243214
21
-14.0789273465
31
0.0000000000
0
SPLINE
5
2E9
100
AcDbEntity
8
0
100
AcDbSpline
62
9
6
CONTINUOUS
70
0
71
3
72
8
73
4
74
2
42
0.0000001000
43
0.0000001000
44
0.0000000001
12
-0.0003042843
22
0.0014343433
32
0.0000000000
13
-0.0003000539
23
0.0014351486
33
0.0000000000
40
0.0000000000
40
0.0000000000
40
0.0000000000
40
0.0000000000
40
1.0000000000
40
1.0000000000
40
1.0000000000
40
1.0000000000
10
-6.0268243214
20
-14.0789273465
30
0.0000000000
10
-6.0269257495
20
-14.0784492321
30
0.0000000000
10
-6.0270264729
20
-14.0779709822
30
0.0000000000
10
-6.0271264908
20
-14.0774925994
30
0.0000000000
11
-6.0268243214
21
-14.0789273465
31
0.0000000000
11
-6.0271264908
21
-14.0774925994
31
0.0000000000
0
SPLINE
5
2EA
100
AcDbEntity
8
0
100
AcDbSpline
62
9
6
CONTINUOUS
70
0
71
3
72
9
73
5
74
3
42
0.0000001000
43
0.0000001000
44
0.0000000001
12
-0.0040088694
22
-0.0117562565
32
0.0000000000
13
-0.0117246688
23
0.0003440276
33
0.0000000000
40
0.0000000000
40
0.0000000000
40
0.0000000000
40
0.0000000000
40
0.2954498545
40
1.0000000000
40
1.0000000000
40
1.0000000000
40
1.0000000000
10
6.0726780431
20
-14.0774925869
30
0.0000000000
10
6.0722832365
20
-14.0786503816
30
0.0000000000
10
6.0669477271
20
-14.0790749342
30
0.0000000000
10
6.0632802409
20
-14.0791277006
30
0.0000000000
10
6.0605267018
20
-14.0790469057
30
0.0000000000
11
6.0726780431
21
-14.0774925869
31
0.0000000000
11
6.0692760883
21
-14.0788687962
31
0.0000000000
11
6.0605267018
21
-14.0790469057
31
0.0000000000
0
SPLINE
5
2EB
100
AcDbEntity
8
0
100
AcDbSpline
62
9
6
CONTINUOUS
70
0
71
3
72
13
73
9
74
7
42
0.0000001000
43
0.0000001000
44
0.0000000001
12
-0.1287995079
22
0.0037792616
32
0.0000000000
13
-0.1335963256
23
0.0277535404
33
0.0000000000
40
0.0000000000
40
0.0000000000
40
0.0000000000
40
0.0000000000
40
0.1012012815
40
0.2361190493
40
0.3998880932
40
0.5864914741
40
0.7890307854
40
1.0000000000
40
1.0000000000
40
1.0000000000
40
1.0000000000
10
6.0605267018
20
-14.0790469057
30
0.0000000000
10
6.0561818101
20
-14.0789194170
30
0.0000000000
10
6.0450591569
20
-14.0779366386
30
0.0000000000
10
6.0272243792
20
-14.0757494844
30
0.0000000000
10
6.0053160062
20
-14.0724573807
30
0.0000000000
10
5.9805474556
20
-14.0682524057
30
0.0000000000
10
5.9537044874
20
-14.0632564266
30
0.0000000000
10
5.9352658998
20
-14.0595555115
30
0.0000000000
10
5.9258709959
20
-14.0576037973
30
0.0000000000
11
6.0605267018
21
-14.0790469057
31
0.0000000000
11
6.0467561384
21
-14.0780202739
31
0.0000000000
11
6.0284778870
21
-14.0758271828
31
0.0000000000
11
6.0063735230
21
-14.0725494102
31
0.0000000000
11
5.9812672932
21
-14.0683091807
31
0.0000000000
11
5.9540953808
21
-14.0632646075
31
0.0000000000
11
5.9258709959
21
-14.0576037973
31
0.0000000000
0
SPLINE
5
2EC
100
AcDbEntity
8
0
100
AcDbSpline
62
9
6
CONTINUOUS
70
0
71
3
72
17
73
13
74
11
42
0.0000001000
43
0.0000001000
44
0.0000000001
12
-0.0974806899
22
-0.4674419287
32
0.0000000000
13
-0.4774981058
23
-0.0000240624
33
0.0000000000
40
0.0000000000
40
0.0000000000
40
0.0000000000
40
0.0000000000
40
0.1001090594
40
0.2003031161
40
0.3004581164
40
0.4005534387
40
0.5005936407
40
0.6005799574
40
0.7005153161
40
0.8004148568
40
0.9002736156
40
1.0000000000
40
1.0000000000
40
1.0000000000
40
1.0000000000
10
5.9258709959
20
-14.0576037976
30
0.0000000000
10
5.9226180958
20
-14.0732021882
30
0.0000000000
10
5.9139744283
20
-14.1040106087
30
0.0000000000
10
5.8948580010
20
-14.1480007616
30
0.0000000000
10
5.8699358486
20
-14.1889897782
30
0.0000000000
10
5.8396837717
20
-14.2261848099
30
0.0000000000
10
5.8046696772
20
-14.2588979623
30
0.0000000000
10
5.7655474535
20
-14.2865231731
30
0.0000000000
10
5.7230473242
20
-14.3085515010
30
0.0000000000
10
5.6779587312
20
-14.3245762531
30
0.0000000000
10
5.6311491477
20
-14.3343028201
30
0.0000000000
10
5.5993393371
20
-14.3364742552
30
0.0000000000
10
5.5834662838
20
-14.3364750551
30
0.0000000000
11
5.9258709959
21
-14.0576037976
31
0.0000000000
11
5.9129538482
21
-14.1036273527
31
0.0000000000
11
5.8938871170
21
-14.1475062990
31
0.0000000000
11
5.8690396676
21
-14.1883685346
31
0.0000000000
11
5.8388810618
21
-14.2254475282
31
0.0000000000
11
5.8039750427
21
-14.2580580765
31
0.0000000000
11
5.7649743611
21
-14.2855965465
31
0.0000000000
11
5.7226075819
21
-14.3075545448
31
0.0000000000
11
5.6776602556
21
-14.3235296359
31
0.0000000000
11
5.6309746117
21
-14.3332280326
31
0.0000000000
11
5.5834662838
21
-14.3364750551
31
0.0000000000
0
SPLINE
5
2ED
100
AcDbEntity
8
0
100
AcDbSpline
62
9
6
CONTINUOUS
70
0
71
3
72
8
73
4
74
2
42
0.0000001000
43
0.0000001000
44
0.0000000001
12
-0.0003000543
22
-0.0014351520
32
0.0000000000
13
-0.0003042847
23
-0.0014343466
33
0.0000000000
40
0.0000000000
40
0.0000000000
40
0.0000000000
40
0.0000000000
40
1.0000000000
40
1.0000000000
40
1.0000000000
40
1.0000000000
10
6.0726780431
20
-14.0774925869
30
0.0000000000
10
6.0725780250
20
-14.0779709709
30
0.0000000000
10
6.0724773016
20
-14.0784492218
30
0.0000000000
10
6.0723758733
20
-14.0789273374
30
0.0000000000
11
6.0726780431
21
-14.0774925869
31
0.0000000000
11
6.0723758733
21
-14.0789273374
31
0.0000000000
0
SPLINE
5
2EE
100
AcDbEntity
8
0
100
AcDbSpline
62
9
6
CONTINUOUS
70
0
71
3
72
17
73
13
74
11
42
0.0000001000
43
0.0000001000
44
0.0000000001
12
-0.1411586809
22
-0.6653982510
32
0.0000000000
13
-0.6801674437
23
-0.0000289085
33
0.0000000000
40
0.0000000000
40
0.0000000000
40
0.0000000000
40
0.0000000000
40
0.0982051301
40
0.1985091409
40
0.2987967097
40
0.3990454908
40
0.4992612149
40
0.5994458537
40
0.6996042166
40
0.7997474237
40
0.8998606913
40
1.0000000000
40
1.0000000000
40
1.0000000000
40
1.0000000000
10
6.0723758733
20
-14.0789273374
30
0.0000000000
10
6.0677550378
20
-14.1007091780
30
0.0000000000
10
6.0554579649
20
-14.1441702128
30
0.0000000000
10
6.0283160277
20
-14.2064581954
30
0.0000000000
10
5.9927054182
20
-14.2648830173
30
0.0000000000
10
5.9494881379
20
-14.3178986051
30
0.0000000000
10
5.8994760664
20
-14.3645255202
30
0.0000000000
10
5.8436018677
20
-14.4039022922
30
0.0000000000
10
5.7829062478
20
-14.4353050651
30
0.0000000000
10
5.7185151519
20
-14.4581542707
30
0.0000000000
10
5.6516327792
20
-14.4720365346
30
0.0000000000
10
5.6061701164
20
-14.4751389628
30
0.0000000000
10
5.5834662838
20
-14.4751399278
30
0.0000000000
11
6.0723758733
21
-14.0789273374
31
0.0000000000
11
6.0541843942
21
-14.1432018054
31
0.0000000000
11
6.0269335867
21
-14.2057465297
31
0.0000000000
11
5.9914305940
21
-14.2639913642
31
0.0000000000
11
5.9483479032
21
-14.3168421591
31
0.0000000000
11
5.8984909272
21
-14.3633237791
31
0.0000000000
11
5.8427908787
21
-14.4025778450
31
0.0000000000
11
5.7822847003
21
-14.4338819041
31
0.0000000000
11
5.7180927321
21
-14.4566619074
31
0.0000000000
11
5.6514194028
21
-14.4704977579
31
0.0000000000
11
5.5834662838
21
-14.4751399278
31
0.0000000000
0
SPLINE
5
2EF
100
AcDbEntity
8
0
100
AcDbSpline
62
9
6
CONTINUOUS
70
0
71
3
72
15
73
11
74
9
42
0.0000001000
43
0.0000001000
44
0.0000000001
12
-0.0096259898
22
-0.1509042301
32
0.0000000000
13
-0.1480012491
23
-0.0309899438
33
0.0000000000
40
0.0000000000
40
0.0000000000
40
0.0000000000
40
0.0000000000
40
0.0215719369
40
0.0797860030
40
0.1728659069
40
0.2973223144
40
0.4484153827
40
0.6203706152
40
0.8066085619
40
1.0000000000
40
1.0000000000
40
1.0000000000
40
1.0000000000
10
6.0713488778
20
-10.3923273227
30
0.0000000000
10
6.0712796607
20
-10.3934124215
30
0.0000000000
10
6.0657698783
20
-10.3941633540
30
0.0000000000
10
6.0590020229
20
-10.3973106921
30
0.0000000000
10
6.0447212935
20
-10.4005462655
30
0.0000000000
10
6.0270377928
20
-10.4051548487
30
0.0000000000
10
6.0049554606
20
-10.4102748795
30
0.0000000000
10
5.9799611969
20
-10.4159630183
30
0.0000000000
10
5.9527908214
20
-10.4219095687
30
0.0000000000
10
5.9340771780
20
-10.4258893470
30
0.0000000000
10
5.9245364532
20
-10.4278870770
30
0.0000000000
11
6.0713488778
21
-10.3923273227
31
0.0000000000
11
6.0684747001
21
-10.3938697808
31
0.0000000000
11
6.0600839759
21
-10.3965309030
31
0.0000000000
11
6.0464982861
21
-10.4002086997
31
0.0000000000
11
6.0282383127
21
-10.4047622165
31
0.0000000000
11
6.0060038834
21
-10.4100169364
31
0.0000000000
11
5.9806471496
21
-10.4157714681
31
0.0000000000
11
5.9531399277
21
-10.4218052650
31
0.0000000000
11
5.9245364532
21
-10.4278870770
31
0.0000000000
0
SPLINE
5
2F0
100
AcDbEntity
8
0
100
AcDbSpline
62
9
6
CONTINUOUS
70
0
71
3
72
13
73
9
74
7
42
0.0000001000
43
0.0000001000
44
0.0000000001
12
0.7485653830
22
-3.5772940962
32
0.0000000000
13
-0.7459329033
23
-3.5778439439
33
0.0000000000
40
0.0000000000
40
0.0000000000
40
0.0000000000
40
0.0000000000
40
0.1663066265
40
0.3329404240
40
0.4996903700
40
0.6665087063
40
0.8333484852
40
1.0000000000
40
1.0000000000
40
1.0000000000
40
1.0000000000
10
5.9245364532
20
-10.4278870773
30
0.0000000000
10
5.9660335811
20
-10.6261963150
30
0.0000000000
10
6.0355343390
20
-11.0261855997
30
0.0000000000
10
6.0984548331
20
-11.6321349552
30
0.0000000000
10
6.1196924071
20
-12.2416240468
30
0.0000000000
10
6.0990412570
20
-12.8513849966
30
0.0000000000
10
6.0366007509
20
-13.4581440512
30
0.0000000000
10
5.9673079453
20
-13.8588527600
30
0.0000000000
10
5.9258709959
20
-14.0576037976
30
0.0000000000
11
5.9245364532
21
-10.4278870773
31
0.0000000000
11
6.0285852745
21
-11.0267284012
31
0.0000000000
11
6.0914889207
21
-11.6324801812
31
0.0000000000
11
6.1127102309
21
-12.2415441911
31
0.0000000000
11
6.0920749960
21
-12.8508784338
31
0.0000000000
11
6.0296514795
21
-13.4574366769
31
0.0000000000
11
5.9258709959
21
-14.0576037976
31
0.0000000000
0
SPLINE
5
2F1
100
AcDbEntity
8
0
100
AcDbSpline
62
9
6
CONTINUOUS
70
0
71
3
72
13
73
9
74
7
42
0.0000001000
43
0.0000001000
44
0.0000000001
12
0.7612208325
22
-3.6317732958
32
0.0000000000
13
-0.7585983732
23
-3.6323219758
33
0.0000000000
40
0.0000000000
40
0.0000000000
40
0.0000000000
40
0.0000000000
40
0.1663202908
40
0.3329489319
40
0.4996908867
40
0.6665011172
40
0.8333354078
40
1.0000000000
40
1.0000000000
40
1.0000000000
40
1.0000000000
10
6.0713489426
20
-10.3923273091
30
0.0000000000
10
6.1135510993
20
-10.5936731727
30
0.0000000000
10
6.1842283852
20
-10.9997744191
30
0.0000000000
10
6.2482123675
20
-11.6149861919
30
0.0000000000
10
6.2698049067
20
-12.2337744709
30
0.0000000000
10
6.2487992901
20
-12.8528381004
30
0.0000000000
10
6.1852942045
20
-13.4688699035
30
0.0000000000
10
6.1148224412
20
-13.8756995524
30
0.0000000000
10
6.0726786117
20
-14.0774927060
30
0.0000000000
11
6.0713489426
21
-10.3923273091
31
0.0000000000
11
6.1771648767
21
-11.0003516487
31
0.0000000000
11
6.2411287370
21
-11.6153417714
31
0.0000000000
11
6.2627045194
21
-12.2336934923
31
0.0000000000
11
6.2417153036
21
-12.8523188977
31
0.0000000000
11
6.1782304572
21
-13.4681258044
31
0.0000000000
11
6.0726786117
21
-14.0774927060
31
0.0000000000
0
SPLINE
5
2F2
100
AcDbEntity
8
0
100
AcDbSpline
62
9
6
CONTINUOUS
70
0
71
3
72
10
73
6
74
4
42
0.0000001000
43
0.0000001000
44
0.0000000001
12
0.0065585130
22
0.0080734204
32
0.0000000000
13
0.0065553961
23
0.0080759514
33
0.0000000000
40
0.0000000000
40
0.0000000000
40
0.0000000000
40
0.0000000000
40
0.3750893353
40
0.7500714471
40
1.0000000000
40
1.0000000000
40
1.0000000000
40
1.0000000000
10
5.5819135012
20
-9.9948566562
30
0.0000000000
10
5.5827335106
20
-9.9938472383
30
0.0000000000
10
5.5843731488
20
-9.9918285721
30
0.0000000000
10
5.5865587351
20
-9.9891369571
30
0.0000000000
10
5.5879243285
20
-9.9874547735
30
0.0000000000
10
5.5884704554
20
-9.9867819699
30
0.0000000000
11
5.5819135012
21
-9.9948566562
31
0.0000000000
11
5.5843733101
21
-9.9918282242
31
0.0000000000
11
5.5868319774
21
-9.9888003018
31
0.0000000000
11
5.5884704554
21
-9.9867819699
31
0.0000000000
0
SPLINE
5
2F3
100
AcDbEntity
8
0
100
AcDbSpline
62
9
6
CONTINUOUS
70
0
71
3
72
8
73
4
74
2
42
0.0000001000
43
0.0000001000
44
0.0000000001
12
0.0008190733
22
0.0010090612
32
0.0000000000
13
0.0008190246
23
0.0010091007
33
0.0000000000
40
0.0000000000
40
0.0000000000
40
0.0000000000
40
0.0000000000
40
1.0000000000
40
1.0000000000
40
1.0000000000
40
1.0000000000
10
5.5884704554
20
-9.9867819699
30
0.0000000000
10
5.5887434798
20
-9.9864456162
30
0.0000000000
10
5.5890164961
20
-9.9861092558
30
0.0000000000
10
5.5892895044
20
-9.9857728889
30
0.0000000000
11
5.5884704554
21
-9.9867819699
31
0.0000000000
11
5.5892895044
21
-9.9857728889
31
0.0000000000
0
SPLINE
5
2F4
100
AcDbEntity
8
0
100
AcDbSpline
62
9
6
CONTINUOUS
70
0
71
3
72
8
73
4
74
2
42
0.0000001000
43
0.0000001000
44
0.0000000001
12
0.0014010196
22
0.0018274589
32
0.0000000000
13
0.0014008789
23
0.0018275668
33
0.0000000000
40
0.0000000000
40
0.0000000000
40
0.0000000000
40
0.0000000000
40
1.0000000000
40
1.0000000000
40
1.0000000000
40
1.0000000000
10
6.0713489426
20
-10.3923273091
30
0.0000000000
10
6.0718159491
20
-10.3917181561
30
0.0000000000
10
6.0722829322
20
-10.3911089852
30
0.0000000000
10
6.0727498919
20
-10.3904997962
30
0.0000000000
11
6.0713489426
21
-10.3923273091
31
0.0000000000
11
6.0727498919
21
-10.3904997962
31
0.0000000000
0
SPLINE
5
2F5
100
AcDbEntity
8
0
100
AcDbSpline
62
9
6
CONTINUOUS
70
0
71
3
72
10
73
6
74
4
42
0.0000001000
43
0.0000001000
44
0.0000000001
12
0.0050245673
22
0.0065549794
32
0.0000000000
13
0.0050227578
23
0.0065563660
33
0.0000000000
40
0.0000000000
40
0.0000000000
40
0.0000000000
40
0.0000000000
40
0.2008662144
40
0.6803944086
40
1.0000000000
40
1.0000000000
40
1.0000000000
40
1.0000000000
10
6.0727498919
20
-10.3904997962
30
0.0000000000
10
6.0730863138
20
-10.3900609049
30
0.0000000000
10
6.0742258351
20
-10.3885742162
30
0.0000000000
10
6.0759004250
20
-10.3863890193
30
0.0000000000
10
6.0772384538
20
-10.3846426071
30
0.0000000000
10
6.0777735543
20
-10.3839441233
30
0.0000000000
11
6.0727498919
21
-10.3904997962
31
0.0000000000
11
6.0737591211
21
-10.3891830943
31
0.0000000000
11
6.0761681604
21
-10.3860395038
31
0.0000000000
11
6.0777735543
21
-10.3839441233
31
0.0000000000
0
SPLINE
5
2F6
100
AcDbEntity
8
0
100
AcDbSpline
62
9
6
CONTINUOUS
70
0
71
3
72
8
73
4
74
2
42
0.0000001000
43
0.0000001000
44
0.0000000001
12
0.0008025303
22
0.0010475684
32
0.0000000000
13
0.0008024842
23
0.0010476038
33
0.0000000000
40
0.0000000000
40
0.0000000000
40
0.0000000000
40
0.0000000000
40
1.0000000000
40
1.0000000000
40
1.0000000000
40
1.0000000000
10
6.0777735543
20
-10.3839441233
30
0.0000000000
10
6.0780410644
20
-10.3835949339
30
0.0000000000
10
6.0783085668
20
-10.3832457385
30
0.0000000000
10
6.0785760615
20
-10.3828965372
30
0.0000000000
11
6.0777735543
21
-10.3839441233
31
0.0000000000
11
6.0785760615
21
-10.3828965372
31
0.0000000000
0
SPLINE
5
2F7
100
AcDbEntity
8
0
100
AcDbSpline
62
9
6
CONTINUOUS
70
0
71
3
72
10
73
6
74
4
42
0.0000001000
43
0.0000001000
44
0.0000000001
12
0.0052434999
22
-0.0068405404
32
0.0000000000
13
0.0052415294
23
-0.0068420504
33
0.0000000000
40
0.0000000000
40
0.0000000000
40
0.0000000000
40
0.0000000000
40
0.3750764922
40
0.7500611783
40
1.0000000000
40
1.0000000000
40
1.0000000000
40
1.0000000000
10
6.0726786117
20
-14.0774927060
30
0.0000000000
10
6.0733341829
20
-14.0783479480
30
0.0000000000
10
6.0746450724
20
-14.0800582934
30
0.0000000000
10
6.0763925361
20
-14.0823387568
30
0.0000000000
10
6.0774844390
20
-14.0837639702
30
0.0000000000
10
6.0779211262
20
-14.0843340016
30
0.0000000000
11
6.0726786117
21
-14.0774927060
31
0.0000000000
11
6.0746451866
21
-14.0800585382
31
0.0000000000
11
6.0766110030
21
-14.0826239547
31
0.0000000000
11
6.0779211262
21
-14.0843340016
31
0.0000000000
0
SPLINE
5
2F8
100
AcDbEntity
8
0
100
AcDbSpline
62
9
6
CONTINUOUS
70
0
71
3
72
8
73
4
74
2
42
0.0000001000
43
0.0000001000
44
0.0000000001
12
0.0006549507
22
-0.0008549423
32
0.0000000000
13
0.0006549199
23
-0.0008549659
33
0.0000000000
40
0.0000000000
40
0.0000000000
40
0.0000000000
40
0.0000000000
40
1.0000000000
40
1.0000000000
40
1.0000000000
40
1.0000000000
10
6.0779211262
20
-14.0843340016
30
0.0000000000
10
6.0781394431
20
-14.0846189824
30
0.0000000000
10
6.0783577549
20
-14.0849039671
30
0.0000000000
10
6.0785760615
20
-14.0851889557
30
0.0000000000
11
6.0779211262
21
-14.0843340016
31
0.0000000000
11
6.0785760615
21
-14.0851889557
31
0.0000000000
0
SPLINE
5
2F9
100
AcDbEntity
8
0
100
AcDbSpline
62
9
6
CONTINUOUS
70
0
71
3
72
8
73
4
74
2
42
0.0000001000
43
0.0000001000
44
0.0000000001
12
0.0014225666
22
-0.0017514830
32
0.0000000000
13
0.0014224199
23
-0.0017516022
33
0.0000000000
40
0.0000000000
40
0.0000000000
40
0.0000000000
40
0.0000000000
40
1.0000000000
40
1.0000000000
40
1.0000000000
40
1.0000000000
10
5.5834662838
20
-14.4751404650
30
0.0000000000
10
5.5839404727
20
-14.4757242926
30
0.0000000000
10
5.5844146371
20
-14.4763081402
30
0.0000000000
10
5.5848887771
20
-14.4768920076
30
0.0000000000
11
5.5834662838
21
-14.4751404650
31
0.0000000000
11
5.5848887771
21
-14.4768920076
31
0.0000000000
0
SPLINE
5
2FA
100
AcDbEntity
8
0
100
AcDbSpline
62
9
6
CONTINUOUS
70
0
71
3
72
10
73
6
74
4
42
0.0000001000
43
0.0000001000
44
0.0000000001
12
0.0037545280
22
-0.0046234165
32
0.0000000000
13
0.0037535064
23
-0.0046242459
33
0.0000000000
40
0.0000000000
40
0.0000000000
40
0.0000000000
40
0.0000000000
40
0.1383128762
40
0.6553640294
40
1.0000000000
40
1.0000000000
40
1.0000000000
40
1.0000000000
10
5.5848887787
20
-14.4768920095
30
0.0000000000
10
5.5850618785
20
-14.4771051689
30
0.0000000000
10
5.5858820573
20
-14.4781151884
30
0.0000000000
10
5.5871334315
20
-14.4796564369
30
0.0000000000
10
5.5882115981
20
-14.4809846136
30
0.0000000000
10
5.5886427958
20
-14.4815158408
30
0.0000000000
11
5.5848887787
21
-14.4768920095
31
0.0000000000
11
5.5854080685
21
-14.4775314955
31
0.0000000000
11
5.5873491418
21
-14.4799222086
31
0.0000000000
11
5.5886427958
21
-14.4815158408
31
0.0000000000
0
SPLINE
5
2FB
100
AcDbEntity
8
0
100
AcDbSpline
62
9
6
CONTINUOUS
70
0
71
3
72
8
73
4
74
2
42
0.0000001000
43
0.0000001000
44
0.0000000001
12
0.0006467237
22
-0.0007967509
32
0.0000000000
13
0.0006466934
23
-0.0007967755
33
0.0000000000
40
0.0000000000
40
0.0000000000
40
0.0000000000
40
0.0000000000
40
1.0000000000
40
1.0000000000
40
1.0000000000
40
1.0000000000
10
5.5886427958
20
-14.4815158408
30
0.0000000000
10
5.5888583704
20
-14.4817814244
30
0.0000000000
10
5.5890739399
20
-14.4820470121
30
0.0000000000
10
5.5892895044
20
-14.4823126040
30
0.0000000000
11
5.5886427958
21
-14.4815158408
31
0.0000000000
11
5.5892895044
21
-14.4823126040
31
0.0000000000
0
SPLINE
5
2FC
100
AcDbEntity
8
0
100
AcDbSpline
62
9
6
CONTINUOUS
70
0
71
3
72
12
73
8
74
6
42
0.0000001000
43
0.0000001000
44
0.0000000001
12
0.4046164661
22
-0.2938362453
32
0.0000000000
13
0.5000541589
23
-0.0002487483
33
0.0000000000
40
0.0000000000
40
0.0000000000
40
0.0000000000
40
0.0000000000
40
0.0555750126
40
0.2003450939
40
0.4207646183
40
0.6959972274
40
1.0000000000
40
1.0000000000
40
1.0000000000
40
1.0000000000
10
-10.8352200209
20
-9.2245427465
30
0.0000000000
10
-10.8277244992
20
-9.2299860641
30
0.0000000000
10
-10.7906979732
20
-9.2239395321
30
0.0000000000
10
-10.7237883951
20
-9.2330908739
30
0.0000000000
10
-10.6154365908
20
-9.2314222540
30
0.0000000000
10
-10.4827743644
20
-9.2340483263
30
0.0000000000
10
-10.3860639753
20
-9.2340175397
30
0.0000000000
10
-10.3353913584
20
-9.2340427464
30
0.0000000000
11
-10.8352200209
21
-9.2245427465
31
0.0000000000
11
-10.8075801067
21
-9.2274320588
31
0.0000000000
11
-10.7352344894
21
-9.2300478180
31
0.0000000000
11
-10.6250326791
21
-9.2321423701
31
0.0000000000
11
-10.4874083202
21
-9.2335174081
31
0.0000000000
11
-10.3353913584
21
-9.2340427464
31
0.0000000000
0
SPLINE
5
2FD
100
AcDbEntity
8
0
100
AcDbSpline
62
9
6
CONTINUOUS
70
0
71
3
72
13
73
9
74
7
42
0.0000001000
43
0.0000001000
44
0.0000000001
12
0.0016772595
22
-0.4260821867
32
0.0000000000
13
0.3004932447
23
-0.3020805404
33
0.0000000000
40
0.0000000000
40
0.0000000000
40
0.0000000000
40
0.0000000000
40
0.2617862601
40
0.5017178244
40
0.7052122814
40
0.8610490658
40
0.9609946333
40
1.0000000000
40
1.0000000000
40
1.0000000000
40
1.0000000000
10
10.9062942318
20
-20.8047027579
30
0.0000000000
10
10.9064405930
20
-20.8418835786
30
0.0000000000
10
10.9070042564
20
-20.9130912257
30
0.0000000000
10
10.9080923653
20
-21.0134398585
30
0.0000000000
10
10.9108173187
20
-21.0979719951
30
0.0000000000
10
10.9110617126
20
-21.1645587281
30
0.0000000000
10
10.9173675396
20
-21.2036874722
30
0.0000000000
10
10.9149925613
20
-21.2264102016
30
0.0000000000
10
10.9188995110
20
-21.2303377890
30
0.0000000000
11
10.9062942318
21
-20.8047027579
31
0.0000000000
11
10.9070861089
21
-20.9162432733
31
0.0000000000
11
10.9085386051
21
-21.0184643119
31
0.0000000000
11
10.9105713250
21
-21.1051465163
31
0.0000000000
11
10.9130718945
21
-21.1714992071
31
0.0000000000
11
10.9159045711
21
-21.2139902471
31
0.0000000000
11
10.9188995110
21
-21.2303377890
31
0.0000000000
0
SPLINE
5
2FE
100
AcDbEntity
8
0
100
AcDbSpline
62
9
6
CONTINUOUS
70
0
71
3
72
12
73
8
74
6
42
0.0000001000
43
0.0000001000
44
0.0000000001
12
-0.0880987669
22
-0.5047593339
32
0.0000000000
13
-0.5123860865
23
-0.0019688163
33
0.0000000000
40
0.0000000000
40
0.0000000000
40
0.0000000000
40
0.0000000000
40
0.0695930882
40
0.2162827327
40
0.4337207017
40
0.7031628815
40
1.0000000000
40
1.0000000000
40
1.0000000000
40
1.0000000000
10
10.9062942317
20
-20.8047027579
30
0.0000000000
10
10.9042505433
20
-20.8164120115
30
0.0000000000
10
10.8632767456
20
-20.8349815191
30
0.0000000000
10
10.7966738329
20
-20.8510860709
30
0.0000000000
10
10.6866829722
20
-20.8664918875
30
0.0000000000
10
10.5541517457
20
-20.8761267826
30
0.0000000000
10
10.4571639725
20
-20.8786990112
30
0.0000000000
10
10.4064655693
20
-20.8788938171
30
0.0000000000
11
10.9062942317
21
-20.8047027579
31
0.0000000000
11
10.8786858857
21
-20.8272710714
31
0.0000000000
11
10.8063536314
21
-20.8477017952
31
0.0000000000
11
10.6961480484
21
-20.8640599379
31
0.0000000000
11
10.5585066953
21
-20.8747962217
31
0.0000000000
11
10.4064655693
21
-20.8788938171
31
0.0000000000
0
SPLINE
5
2FF
100
AcDbEntity
8
0
100
AcDbSpline
62
9
6
CONTINUOUS
70
0
71
3
72
13
73
9
74
7
42
0.0000001000
43
0.0000001000
44
0.0000000001
12
-0.2997217763
22
-0.3028459697
32
0.0000000000
13
-0.0016757221
23
-0.4260821711
33
0.0000000000
40
0.0000000000
40
0.0000000000
40
0.0000000000
40
0.0000000000
40
0.0390290036
40
0.1390888901
40
0.2951133333
40
0.4985335899
40
0.7383080486
40
1.0000000000
40
1.0000000000
40
1.0000000000
40
1.0000000000
10
10.9188995110
20
21.7622522961
30
0.0000000000
10
10.9150002302
20
21.7583123706
30
0.0000000000
10
10.9173564150
20
21.7355891594
30
0.0000000000
10
10.9110630899
20
21.6963984898
30
0.0000000000
10
10.9108115412
20
21.6297880250
30
0.0000000000
10
10.9080922308
20
21.5452577952
30
0.0000000000
10
10.9070035379
20
21.4449570245
30
0.0000000000
10
10.9064404061
20
21.3737846899
30
0.0000000000
10
10.9062942318
20
21.3366172650
30
0.0000000000
11
10.9188995110
21
21.7622522961
31
0.0000000000
11
10.9159034731
21
21.7458947172
31
0.0000000000
11
10.9130688732
21
21.7033549899
31
0.0000000000
11
10.9105672176
21
21.6369223280
31
0.0000000000
11
10.9085367128
21
21.5502717005
31
0.0000000000
11
10.9070857159
21
21.4481175929
31
0.0000000000
11
10.9062942318
21
21.3366172650
31
0.0000000000
0
SPLINE
5
300
100
AcDbEntity
8
0
100
AcDbSpline
62
9
6
CONTINUOUS
70
0
71
3
72
12
73
8
74
6
42
0.0000001000
43
0.0000001000
44
0.0000000001
12
-0.4046164632
22
0.2938362493
32
0.0000000000
13
-0.5000541589
23
0.0002487483
33
0.0000000000
40
0.0000000000
40
0.0000000000
40
0.0000000000
40
0.0000000000
40
0.0555750125
40
0.2003450937
40
0.4207646181
40
0.6959972273
40
1.0000000000
40
1.0000000000
40
1.0000000000
40
1.0000000000
10
10.8807716328
20
9.7564572535
30
0.0000000000
10
10.8732761112
20
9.7619005713
30
0.0000000000
10
10.8362495851
20
9.7558540391
30
0.0000000000
10
10.7693400072
20
9.7650053811
30
0.0000000000
10
10.6609882028
20
9.7633367611
30
0.0000000000
10
10.5283259764
20
9.7659628334
30
0.0000000000
10
10.4316155873
20
9.7659320468
30
0.0000000000
10
10.3809429703
20
9.7659572535
30
0.0000000000
11
10.8807716328
21
9.7564572535
31
0.0000000000
11
10.8531317187
21
9.7593465659
31
0.0000000000
11
10.7807861014
21
9.7619623251
31
0.0000000000
11
10.6705842911
21
9.7640568772
31
0.0000000000
11
10.5329599322
21
9.7654319152
31
0.0000000000
11
10.3809429703
21
9.7659572535
31
0.0000000000
0
SPLINE
5
301
100
AcDbEntity
8
0
100
AcDbSpline
62
9
6
CONTINUOUS
70
0
71
3
72
13
73
9
74
7
42
0.0000001000
43
0.0000001000
44
0.0000000001
12
0.3004932473
22
0.3020805378
32
0.0000000000
13
0.0016772595
23
0.4260821867
33
0.0000000000
40
0.0000000000
40
0.0000000000
40
0.0000000000
40
0.0000000000
40
0.0390053668
40
0.1389509341
40
0.2947877186
40
0.4982821756
40
0.7382137399
40
1.0000000000
40
1.0000000000
40
1.0000000000
40
1.0000000000
10
-10.8733478991
20
-21.2303377890
30
0.0000000000
10
-10.8694409493
20
-21.2264102016
30
0.0000000000
10
-10.8718159277
20
-21.2036874722
30
0.0000000000
10
-10.8655101006
20
-21.1645587281
30
0.0000000000
10
-10.8652657068
20
-21.0979719951
30
0.0000000000
10
-10.8625407534
20
-21.0134398585
30
0.0000000000
10
-10.8614526444
20
-20.9130912257
30
0.0000000000
10
-10.8608889811
20
-20.8418835786
30
0.0000000000
10
-10.8607426199
20
-20.8047027579
30
0.0000000000
11
-10.8733478991
21
-21.2303377890
31
0.0000000000
11
-10.8703529591
21
-21.2139902470
31
0.0000000000
11
-10.8675202825
21
-21.1714992071
31
0.0000000000
11
-10.8650197131
21
-21.1051465163
31
0.0000000000
11
-10.8629869932
21
-21.0184643119
31
0.0000000000
11
-10.8615344970
21
-20.9162432733
31
0.0000000000
11
-10.8607426199
21
-20.8047027579
31
0.0000000000
0
SPLINE
5
302
100
AcDbEntity
8
0
100
AcDbSpline
62
9
6
CONTINUOUS
70
0
71
3
72
12
73
8
74
6
42
0.0000001000
43
0.0000001000
44
0.0000000001
12
0.0881212121
22
0.5047549185
32
0.0000000000
13
0.5123855964
23
0.0019688459
33
0.0000000000
40
0.0000000000
40
0.0000000000
40
0.0000000000
40
0.0000000000
40
0.0695940028
40
0.2162842741
40
0.4337222074
40
0.7031637934
40
1.0000000000
40
1.0000000000
40
1.0000000000
40
1.0000000000
10
-10.8607426197
20
21.3366172650
30
0.0000000000
10
-10.8586983837
20
21.3483265700
30
0.0000000000
10
-10.8177244751
20
21.3668953264
30
0.0000000000
10
-10.7511211200
20
21.3830000786
30
0.0000000000
10
-10.6411304558
20
21.3984055032
30
0.0000000000
10
-10.5085995672
20
21.4080403454
30
0.0000000000
10
-10.4116121564
20
21.4106125273
30
0.0000000000
10
-10.3609139574
20
21.4108073356
30
0.0000000000
11
-10.8607426197
21
21.3366172650
31
0.0000000000
11
-10.8331334819
21
21.3591852964
31
0.0000000000
11
-10.7608008900
21
21.3796157425
31
0.0000000000
11
-10.6505953990
21
21.3959736541
31
0.0000000000
11
-10.5129544718
21
21.4067097879
31
0.0000000000
11
-10.3609139574
21
21.4108073356
31
0.0000000000
0
SPLINE
5
303
100
AcDbEntity
8
0
100
AcDbSpline
62
9
6
CONTINUOUS
70
0
71
3
72
13
73
9
74
7
42
0.0000001000
43
0.0000001000
44
0.0000000001
12
-0.0016757221
22
0.4260821711
32
0.0000000000
13
-0.2997217633
23
0.3028459825
33
0.0000000000
40
0.0000000000
40
0.0000000000
40
0.0000000000
40
0.0000000000
40
0.2616919514
40
0.5014664101
40
0.7048866667
40
0.8609111099
40
0.9609709965
40
1.0000000000
40
1.0000000000
40
1.0000000000
40
1.0000000000
10
-10.8607426199
20
21.3366172650
30
0.0000000000
10
-10.8608887942
20
21.3737846899
30
0.0000000000
10
-10.8614519260
20
21.4449570245
30
0.0000000000
10
-10.8625406189
20
21.5452577952
30
0.0000000000
10
-10.8652599292
20
21.6297880250
30
0.0000000000
10
-10.8655114781
20
21.6963984897
30
0.0000000000
10
-10.8718048029
20
21.7355891596
30
0.0000000000
10
-10.8694486185
20
21.7583123705
30
0.0000000000
10
-10.8733478991
20
21.7622522961
30
0.0000000000
11
-10.8607426199
21
21.3366172650
31
0.0000000000
11
-10.8615341039
21
21.4481175929
31
0.0000000000
11
-10.8629851009
21
21.5502717005
31
0.0000000000
11
-10.8650156056
21
21.6369223280
31
0.0000000000
11
-10.8675172613
21
21.7033549898
31
0.0000000000
11
-10.8703518612
21
21.7458947173
31
0.0000000000
11
-10.8733478991
21
21.7622522961
31
0.0000000000
0
SPLINE
5
304
100
AcDbEntity
8
0
100
AcDbSpline
62
9
6
CONTINUOUS
70
0
71
3
72
12
73
8
74
6
42
0.0000001000
43
0.0000001000
44
0.0000000001
12
-0.0880309169
22
0.5047725051
32
0.0000000000
13
-0.5123873999
23
0.0019689286
33
0.0000000000
40
0.0000000000
40
0.0000000000
40
0.0000000000
40
0.0000000000
40
0.0695900725
40
0.2162777706
40
0.4337158983
40
0.7031599856
40
1.0000000000
40
1.0000000000
40
1.0000000000
40
1.0000000000
10
10.9062942318
20
21.3366172650
30
0.0000000000
10
10.9042522059
20
21.3483263167
30
0.0000000000
10
10.8632786617
20
21.3668978807
30
0.0000000000
10
10.7966772098
20
21.3830017437
30
0.0000000000
10
10.6866857201
20
21.3984086432
30
0.0000000000
10
10.5541534804
20
21.4080436849
30
0.0000000000
10
10.4571645971
20
21.4106160741
30
0.0000000000
10
10.4064655693
20
21.4108108931
30
0.0000000000
11
10.9062942318
21
21.3366172650
31
0.0000000000
11
10.8786883064
21
21.3591862424
31
0.0000000000
11
10.8063570840
21
21.3796176598
31
0.0000000000
11
10.6961512203
21
21.3959764107
31
0.0000000000
11
10.5585085651
21
21.4067131207
31
0.0000000000
11
10.4064655693
21
21.4108108931
31
0.0000000000
0
SPLINE
5
305
100
AcDbEntity
8
0
100
AcDbSpline
62
9
6
CONTINUOUS
70
0
71
3
72
12
73
8
74
6
42
0.0000001000
43
0.0000001000
44
0.0000000001
12
-0.4046166914
22
-0.2938359350
32
0.0000000000
13
-0.5000541588
23
-0.0002487483
33
0.0000000000
40
0.0000000000
40
0.0000000000
40
0.0000000000
40
0.0000000000
40
0.0555750226
40
0.2003451082
40
0.4207646314
40
0.6959972351
40
1.0000000000
40
1.0000000000
40
1.0000000000
40
1.0000000000
10
10.8807716328
20
-9.2245427465
30
0.0000000000
10
10.8732761056
20
-9.2299860594
30
0.0000000000
10
10.8362495861
20
-9.2239395383
30
0.0000000000
10
10.7693399978
20
-9.2330908699
30
0.0000000000
10
10.6609881980
20
-9.2314222552
30
0.0000000000
10
10.5283259725
20
-9.2340483254
30
0.0000000000
10
10.4316155860
20
-9.2340175393
30
0.0000000000
10
10.3809429703
20
-9.2340427460
30
0.0000000000
11
10.8807716328
21
-9.2245427465
31
0.0000000000
11
10.8531317136
21
-9.2274320587
31
0.0000000000
11
10.7807860941
21
-9.2300478178
31
0.0000000000
11
10.6705842845
21
-9.2321423698
31
0.0000000000
11
10.5329599283
21
-9.2335174077
31
0.0000000000
11
10.3809429703
21
-9.2340427460
31
0.0000000000
0
SPLINE
5
306
100
AcDbEntity
8
0
100
AcDbSpline
62
9
6
CONTINUOUS
70
0
71
3
72
12
73
8
74
6
42
0.0000001000
43
0.0000001000
44
0.0000000001
12
0.4046168455
22
0.2938357228
32
0.0000000000
13
0.5000541588
23
0.0002487483
33
0.0000000000
40
0.0000000000
40
0.0000000000
40
0.0000000000
40
0.0000000000
40
0.0555750295
40
0.2003451180
40
0.4207646404
40
0.6959972405
40
1.0000000000
40
1.0000000000
40
1.0000000000
40
1.0000000000
10
-10.8352200209
20
9.7564572535
30
0.0000000000
10
-10.8277244899
20
9.7619005632
30
0.0000000000
10
-10.7906979748
20
9.7558540496
30
0.0000000000
10
-10.7237883796
20
9.7650053742
30
0.0000000000
10
-10.6154365828
20
9.7633367631
30
0.0000000000
10
-10.4827743579
20
9.7659628318
30
0.0000000000
10
-10.3860639731
20
9.7659320461
30
0.0000000000
10
-10.3353913584
20
9.7659572529
30
0.0000000000
11
-10.8352200209
21
9.7564572535
31
0.0000000000
11
-10.8075800982
21
9.7593465658
31
0.0000000000
11
-10.7352344773
21
9.7619623247
31
0.0000000000
11
-10.6250326680
21
9.7640568767
31
0.0000000000
11
-10.4874083137
21
9.7654319145
31
0.0000000000
11
-10.3353913584
21
9.7659572529
31
0.0000000000
0
SPLINE
5
307
100
AcDbEntity
8
0
100
AcDbSpline
62
9
6
CONTINUOUS
70
0
71
3
72
12
73
8
74
6
42
0.0000001000
43
0.0000001000
44
0.0000000001
12
0.0880310120
22
-0.5047724870
32
0.0000000000
13
0.5123873984
23
-0.0019689311
33
0.0000000000
40
0.0000000000
40
0.0000000000
40
0.0000000000
40
0.0000000000
40
0.0695900773
40
0.2162777783
40
0.4337159057
40
0.7031599901
40
1.0000000000
40
1.0000000000
40
1.0000000000
40
1.0000000000
10
-10.8607426199
20
-20.8047027579
30
0.0000000000
10
-10.8587005916
20
-20.8164118100
30
0.0000000000
10
-10.8177270472
20
-20.8349833715
30
0.0000000000
10
-10.7511255930
20
-20.8510872356
30
0.0000000000
10
-10.6411341042
20
-20.8664941339
30
0.0000000000
10
-10.5086018659
20
-20.8761291753
30
0.0000000000
10
-10.4116129842
20
-20.8787015647
30
0.0000000000
10
-10.3609139574
20
-20.8788963838
30
0.0000000000
11
-10.8607426199
21
-20.8047027579
31
0.0000000000
11
-10.8331366910
21
-20.8272717348
31
0.0000000000
11
-10.7608054670
21
-20.8477031515
31
0.0000000000
11
-10.6505996038
21
-20.8640619017
31
0.0000000000
11
-10.5129569504
21
-20.8747986111
31
0.0000000000
11
-10.3609139574
21
-20.8788963838
31
0.0000000000
0
SPLINE
5
308
100
AcDbEntity
8
0
100
AcDbSpline
62
7
6
CONTINUOUS
70
0
71
3
72
8
73
4
74
2
42
0.0000001000
43
0.0000001000
44
0.0000000001
12
-0.0455085219
22
0.0000000000
32
0.0000000000
13
-0.0454136474
23
-0.0052156660
33
0.0000000000
40
0.0000000000
40
0.0000000000
40
0.0000000000
40
0.0000000000
40
1.0000000000
40
1.0000000000
40
1.0000000000
40
1.0000000000
10
-5.6258970425
20
-9.9840427465
30
0.0000000000
10
-5.6410665498
20
-9.9840427465
30
0.0000000000
10
-5.6562786612
20
-9.9849197769
30
0.0000000000
10
-5.6714165436
20
-9.9866583322
30
0.0000000000
11
-5.6258970425
21
-9.9840427465
31
0.0000000000
11
-5.6714165436
21
-9.9866583322
31
0.0000000000
0
SPLINE
5
309
100
AcDbEntity
8
0
100
AcDbSpline
62
7
6
CONTINUOUS
70
0
71
3
72
11
73
7
74
5
42
0.0000001000
43
0.0000001000
44
0.0000000001
12
-0.4924943278
22
-0.0565619822
32
0.0000000000
13
-0.1061716980
23
-0.4819675572
33
0.0000000000
40
0.0000000000
40
0.0000000000
40
0.0000000000
40
0.0000000000
40
0.1825866414
40
0.4538937079
40
0.7251876874
40
1.0000000000
40
1.0000000000
40
1.0000000000
40
1.0000000000
10
-5.6714165436
20
-9.9866583322
30
0.0000000000
10
-5.7013908387
20
-9.9901008197
30
0.0000000000
10
-5.7751807187
20
-10.0070554620
30
0.0000000000
10
-5.8812462449
20
-10.0663059223
30
0.0000000000
10
-5.9721876114
20
-10.1686934619
30
0.0000000000
10
-6.0067916633
20
-10.2538335349
30
0.0000000000
10
-6.0165174266
20
-10.2979837412
30
0.0000000000
11
-5.6714165436
21
-9.9866583322
31
0.0000000000
11
-5.7595593129
21
-10.0069988561
31
0.0000000000
11
-5.8764995792
21
-10.0722154356
31
0.0000000000
11
-5.9653418960
21
-10.1723830017
31
0.0000000000
11
-6.0165174266
21
-10.2979837412
31
0.0000000000
0
SPLINE
5
30A
100
AcDbEntity
8
0
100
AcDbSpline
62
7
6
CONTINUOUS
70
0
71
3
72
11
73
7
74
5
42
0.0000001000
43
0.0000001000
44
0.0000000001
12
-0.1159619527
22
0.5264105130
32
0.0000000000
13
-0.5390317269
23
0.0000000000
33
0.0000000000
40
0.0000000000
40
0.0000000000
40
0.0000000000
40
0.0000000000
40
0.2516108890
40
0.5000004884
40
0.7484020700
40
1.0000000000
40
1.0000000000
40
1.0000000000
40
1.0000000000
10
6.0620690382
20
-10.2979837395
30
0.0000000000
10
6.0523432748
20
-10.2538335338
30
0.0000000000
10
6.0177392229
20
-10.1686934614
30
0.0000000000
10
5.9267978568
20
-10.0663059222
30
0.0000000000
10
5.8072455287
20
-9.9995214474
30
0.0000000000
10
5.7166550767
20
-9.9840427465
30
0.0000000000
10
5.6714486544
20
-9.9840427465
30
0.0000000000
11
6.0620690382
21
-10.2979837395
31
0.0000000000
11
6.0108935080
21
-10.1723830017
31
0.0000000000
11
5.9220511911
21
-10.0722154356
31
0.0000000000
11
5.8051109248
21
-10.0069988561
31
0.0000000000
11
5.6714486544
21
-9.9840427465
31
0.0000000000
0
SPLINE
5
30B
100
AcDbEntity
8
0
100
AcDbSpline
62
7
6
CONTINUOUS
70
0
71
3
72
11
73
7
74
5
42
0.0000001000
43
0.0000001000
44
0.0000000001
12
0.5390317237
22
0.0000000000
32
0.0000000000
13
0.1159619560
23
0.5264105089
33
0.0000000000
40
0.0000000000
40
0.0000000000
40
0.0000000000
40
0.0000000000
40
0.2515979315
40
0.4999995146
40
0.7483891156
40
1.0000000000
40
1.0000000000
40
1.0000000000
40
1.0000000000
10
5.6714486544
20
-14.4840427465
30
0.0000000000
10
5.7166550767
20
-14.4840427465
30
0.0000000000
10
5.8072455287
20
-14.4685640455
30
0.0000000000
10
5.9267978568
20
-14.4017795707
30
0.0000000000
10
6.0177392222
20
-14.2993920323
30
0.0000000000
10
6.0523432740
20
-14.2142519612
30
0.0000000000
10
6.0620690374
20
-14.1701017567
30
0.0000000000
11
5.6714486544
21
-14.4840427465
31
0.0000000000
11
5.8051109248
21
-14.4610866368
31
0.0000000000
11
5.9220511911
21
-14.3958700574
31
0.0000000000
11
6.0108935080
21
-14.2957024913
31
0.0000000000
11
6.0620690374
21
-14.1701017567
31
0.0000000000
0
SPLINE
5
30C
100
AcDbEntity
8
0
100
AcDbSpline
62
7
6
CONTINUOUS
70
0
71
3
72
11
73
7
74
5
42
0.0000001000
43
0.0000001000
44
0.0000000001
12
0.1159619566
22
-0.5264105081
32
0.0000000000
13
0.5390317230
23
0.0000000000
33
0.0000000000
40
0.0000000000
40
0.0000000000
40
0.0000000000
40
0.0000000000
40
0.2516108836
40
0.5000004848
40
0.7484020682
40
1.0000000000
40
1.0000000000
40
1.0000000000
40
1.0000000000
10
-6.0165174254
20
-14.1701017573
30
0.0000000000
10
-6.0067916619
20
-14.2142519616
30
0.0000000000
10
-5.9721876101
20
-14.2993920325
30
0.0000000000
10
-5.8812462449
20
-14.4017795707
30
0.0000000000
10
-5.7616939168
20
-14.4685640455
30
0.0000000000
10
-5.6711034647
20
-14.4840427465
30
0.0000000000
10
-5.6258970425
20
-14.4840427465
30
0.0000000000
11
-6.0165174254
21
-14.1701017573
31
0.0000000000
11
-5.9653418960
21
-14.2957024913
31
0.0000000000
11
-5.8764995792
21
-14.3958700574
31
0.0000000000
11
-5.7595593129
21
-14.4610866368
31
0.0000000000
11
-5.6258970425
21
-14.4840427465
31
0.0000000000
0
SPLINE
5
30D
100
AcDbEntity
8
0
100
AcDbSpline
62
7
6
CONTINUOUS
70
0
71
3
72
15
73
11
74
9
42
0.0000001000
43
0.0000001000
44
0.0000000001
12
-0.7838926164
22
0.0000000000
32
0.0000000000
13
0.0000000000
23
0.7838926164
33
0.0000000000
40
0.0000000000
40
0.0000000000
40
0.0000000000
40
0.0000000000
40
0.1249999603
40
0.2499995854
40
0.3750001243
40
0.5000004202
40
0.6250005916
40
0.7500008347
40
0.8750001723
40
1.0000000000
40
1.0000000000
40
1.0000000000
40
1.0000000000
10
-10.4773955315
20
-21.8340427465
30
0.0000000000
10
-10.5100577135
20
-21.8340427465
30
0.0000000000
10
-10.5755629448
20
-21.8276028330
30
0.0000000000
10
-10.6699072217
20
-21.7989863296
30
0.0000000000
10
-10.7568939093
20
-21.7525065991
30
0.0000000000
10
-10.8331275487
20
-21.6899456760
30
0.0000000000
10
-10.8956883280
20
-21.6137120209
30
0.0000000000
10
-10.9421678914
20
-21.5267254586
30
0.0000000000
10
-10.9707842982
20
-21.4323813522
30
0.0000000000
10
-10.9772241940
20
-21.3668762313
30
0.0000000000
10
-10.9772241940
20
-21.3342140840
30
0.0000000000
11
-10.4773955315
21
-21.8340427465
31
0.0000000000
11
-10.5749107379
21
-21.8244433865
31
0.0000000000
11
-10.6686807225
21
-21.7960092225
31
0.0000000000
11
-10.7551017652
21
-21.7498263745
31
0.0000000000
11
-10.8308487718
21
-21.6876668562
31
0.0000000000
11
-10.8930081354
21
-21.6119198487
31
0.0000000000
11
-10.9391907967
21
-21.5254989692
31
0.0000000000
11
-10.9676248544
21
-21.4317291879
31
0.0000000000
11
-10.9772241940
21
-21.3342140840
31
0.0000000000
0
SPLINE
5
30E
100
AcDbEntity
8
0
100
AcDbSpline
62
7
6
CONTINUOUS
70
0
71
3
72
15
73
11
74
9
42
0.0000001000
43
0.0000001000
44
0.0000000001
12
0.0000000000
22
0.7838926164
32
0.0000000000
13
0.7838926164
23
-0.0000000000
33
0.0000000000
40
0.0000000000
40
0.0000000000
40
0.0000000000
40
0.0000000000
40
0.1249999603
40
0.2499995854
40
0.3750001243
40
0.5000004202
40
0.6250005916
40
0.7500008347
40
0.8750001723
40
1.0000000000
40
1.0000000000
40
1.0000000000
40
1.0000000000
10
-10.9772241940
20
21.8661285911
30
0.0000000000
10
-10.9772241940
20
21.8987907730
30
0.0000000000
10
-10.9707842805
20
21.9642960043
30
0.0000000000
10
-10.9421677771
20
22.0586402812
30
0.0000000000
10
-10.8956880466
20
22.1456269688
30
0.0000000000
10
-10.8331271236
20
22.2218606082
30
0.0000000000
10
-10.7568934685
20
22.2844213875
30
0.0000000000
10
-10.6699069062
20
22.3309009509
30
0.0000000000
10
-10.5755627998
20
22.3595173577
30
0.0000000000
10
-10.5100576789
20
22.3659572535
30
0.0000000000
10
-10.4773955315
20
22.3659572535
30
0.0000000000
11
-10.9772241940
21
21.8661285911
31
0.0000000000
11
-10.9676248341
21
21.9636437974
31
0.0000000000
11
-10.9391906701
21
22.0574137820
31
0.0000000000
11
-10.8930078221
21
22.1438348247
31
0.0000000000
11
-10.8308483037
21
22.2195818313
31
0.0000000000
11
-10.7551012963
21
22.2817411949
31
0.0000000000
11
-10.6686804167
21
22.3279238562
31
0.0000000000
11
-10.5749106354
21
22.3563579139
31
0.0000000000
11
-10.4773955315
21
22.3659572535
31
0.0000000000
0
SPLINE
5
30F
100
AcDbEntity
8
0
100
AcDbSpline
62
7
6
CONTINUOUS
70
0
71
3
72
15
73
11
74
9
42
0.0000001000
43
0.0000001000
44
0.0000000001
12
0.7838926164
22
0.0000000000
32
0.0000000000
13
-0.0000000000
23
-0.7838926164
33
0.0000000000
40
0.0000000000
40
0.0000000000
40
0.0000000000
40
0.0000000000
40
0.1249999603
40
0.2499995854
40
0.3750001243
40
0.5000004202
40
0.6250005916
40
0.7500008347
40
0.8750001723
40
1.0000000000
40
1.0000000000
40
1.0000000000
40
1.0000000000
10
10.5229471435
20
22.3659572535
30
0.0000000000
10
10.5556093254
20
22.3659572535
30
0.0000000000
10
10.6211145567
20
22.3595173401
30
0.0000000000
10
10.7154588336
20
22.3309008366
30
0.0000000000
10
10.8024455212
20
22.2844211062
30
0.0000000000
10
10.8786791606
20
22.2218601831
30
0.0000000000
10
10.9412399399
20
22.1456265280
30
0.0000000000
10
10.9877195033
20
22.0586399657
30
0.0000000000
10
11.0163359102
20
21.9642958593
30
0.0000000000
10
11.0227758060
20
21.8987907384
30
0.0000000000
10
11.0227758060
20
21.8661285911
30
0.0000000000
11
10.5229471435
21
22.3659572535
31
0.0000000000
11
10.6204623498
21
22.3563578936
31
0.0000000000
11
10.7142323344
21
22.3279237296
31
0.0000000000
11
10.8006533771
21
22.2817408816
31
0.0000000000
11
10.8764003837
21
22.2195813633
31
0.0000000000
11
10.9385597473
21
22.1438343558
31
0.0000000000
11
10.9847424086
21
22.0574134762
31
0.0000000000
11
11.0131764664
21
21.9636436950
31
0.0000000000
11
11.0227758060
21
21.8661285911
31
0.0000000000
0
SPLINE
5
310
100
AcDbEntity
8
0
100
AcDbSpline
62
7
6
CONTINUOUS
70
0
71
3
72
15
73
11
74
9
42
0.0000001000
43
0.0000001000
44
0.0000000001
12
0.0000000000
22
-0.7838926164
32
0.0000000000
13
-0.7838926164
23
0.0000000000
33
0.0000000000
40
0.0000000000
40
0.0000000000
40
0.0000000000
40
0.0000000000
40
0.1249999603
40
0.2499995854
40
0.3750001243
40
0.5000004202
40
0.6250005916
40
0.7500008347
40
0.8750001723
40
1.0000000000
40
1.0000000000
40
1.0000000000
40
1.0000000000
10
11.0227758060
20
-21.3342140840
30
0.0000000000
10
11.0227758060
20
-21.3668762659
30
0.0000000000
10
11.0163358925
20
-21.4323814972
30
0.0000000000
10
10.9877193891
20
-21.5267257741
30
0.0000000000
10
10.9412396586
20
-21.6137124617
30
0.0000000000
10
10.8786787355
20
-21.6899461011
30
0.0000000000
10
10.8024450804
20
-21.7525068804
30
0.0000000000
10
10.7154585181
20
-21.7989864438
30
0.0000000000
10
10.6211144117
20
-21.8276028507
30
0.0000000000
10
10.5556092908
20
-21.8340427465
30
0.0000000000
10
10.5229471435
20
-21.8340427465
30
0.0000000000
11
11.0227758060
21
-21.3342140840
31
0.0000000000
11
11.0131764460
21
-21.4317292903
31
0.0000000000
11
10.9847422820
21
-21.5254992749
31
0.0000000000
11
10.9385594340
21
-21.6119203176
31
0.0000000000
11
10.8763999157
21
-21.6876673242
31
0.0000000000
11
10.8006529082
21
-21.7498266878
31
0.0000000000
11
10.7142320287
21
-21.7960093491
31
0.0000000000
11
10.6204622474
21
-21.8244434069
31
0.0000000000
11
10.5229471435
21
-21.8340427465
31
0.0000000000
0
SPLINE
5
311
100
AcDbEntity
8
0
100
AcDbSpline
62
7
6
CONTINUOUS
70
0
71
3
72
8
73
4
74
2
42
0.0000001000
43
0.0000001000
44
0.0000000001
12
0.0202354475
22
-0.0918590281
32
0.0000000000
13
0.0192795718
23
-0.0920791528
33
0.0000000000
40
0.0000000000
40
0.0000000000
40
0.0000000000
40
0.0000000000
40
1.0000000000
40
1.0000000000
40
1.0000000000
40
1.0000000000
10
6.0617963589
20
-10.2967462489
30
0.0000000000
10
6.0685415081
20
-10.3273659249
30
0.0000000000
10
6.0751275591
20
-10.3580232758
30
0.0000000000
10
6.0815540830
20
-10.3887163267
30
0.0000000000
11
6.0617963589
21
-10.2967462489
31
0.0000000000
11
6.0815540830
21
-10.3887163267
31
0.0000000000
0
SPLINE
5
312
100
AcDbEntity
8
0
100
AcDbSpline
62
7
6
CONTINUOUS
70
0
71
3
72
11
73
7
74
5
42
0.0000001000
43
0.0000001000
44
0.0000000001
12
0.7617755521
22
-3.6382367943
32
0.0000000000
13
-0.7623554496
23
-3.6381069626
33
0.0000000000
40
0.0000000000
40
0.0000000000
40
0.0000000000
40
0.0000000000
40
0.2373662874
40
0.4998060637
40
0.7622458401
40
1.0000000000
40
1.0000000000
40
1.0000000000
40
1.0000000000
10
6.0815540830
20
-10.3887163267
30
0.0000000000
10
6.1418273612
20
-10.6765812469
30
0.0000000000
10
6.2391936495
20
-11.2893310897
30
0.0000000000
10
6.2904092525
20
-12.2340431000
30
0.0000000000
10
6.2391675131
20
-13.1792358276
30
0.0000000000
10
6.1416760813
20
-13.7924559814
30
0.0000000000
10
6.0812583548
20
-14.0807810029
30
0.0000000000
11
6.0815540830
21
-10.3887163267
31
0.0000000000
11
6.2199228802
21
-11.2601026905
31
0.0000000000
11
6.2727758060
21
-12.2340430993
31
0.0000000000
11
6.2199228038
21
-13.2079835040
31
0.0000000000
11
6.0812583548
21
-14.0807810029
31
0.0000000000
0
SPLINE
5
313
100
AcDbEntity
8
0
100
AcDbSpline
62
7
6
CONTINUOUS
70
0
71
3
72
8
73
4
74
2
42
0.0000001000
43
0.0000001000
44
0.0000000001
12
-0.0189984073
22
-0.0906640569
32
0.0000000000
13
-0.0199251757
23
-0.0904505427
33
0.0000000000
40
0.0000000000
40
0.0000000000
40
0.0000000000
40
0.0000000000
40
1.0000000000
40
1.0000000000
40
1.0000000000
40
1.0000000000
10
6.0812583548
20
-14.0807810029
30
0.0000000000
10
6.0749255524
20
-14.1110023552
30
0.0000000000
10
6.0684380838
20
-14.1411890645
30
0.0000000000
10
6.0617963586
20
-14.1713392454
30
0.0000000000
11
6.0812583548
21
-14.0807810029
31
0.0000000000
11
6.0617963586
21
-14.1713392454
31
0.0000000000
0
SPLINE
5
314
100
AcDbEntity
8
0
100
AcDbSpline
62
7
6
CONTINUOUS
70
0
71
3
72
8
73
4
74
2
42
0.0000001000
43
0.0000001000
44
0.0000000001
12
-0.0199251755
22
0.0904505414
32
0.0000000000
13
-0.0189984071
23
0.0906640555
33
0.0000000000
40
0.0000000000
40
0.0000000000
40
0.0000000000
40
0.0000000000
40
1.0000000000
40
1.0000000000
40
1.0000000000
40
1.0000000000
10
-6.0162447470
20
-14.1713392440
30
0.0000000000
10
-6.0228864722
20
-14.1411890635
30
0.0000000000
10
-6.0293739407
20
-14.1110023547
30
0.0000000000
10
-6.0357067431
20
-14.0807810029
30
0.0000000000
11
-6.0162447470
21
-14.1713392440
31
0.0000000000
11
-6.0357067431
21
-14.0807810029
31
0.0000000000
0
SPLINE
5
315
100
AcDbEntity
8
0
100
AcDbSpline
62
7
6
CONTINUOUS
70
0
71
3
72
11
73
7
74
5
42
0.0000001000
43
0.0000001000
44
0.0000000001
12
-0.7623554543
22
3.6381069665
32
0.0000000000
13
0.7617755443
23
3.6382367995
33
0.0000000000
40
0.0000000000
40
0.0000000000
40
0.0000000000
40
0.0000000000
40
0.2377543492
40
0.5001941253
40
0.7626339013
40
1.0000000000
40
1.0000000000
40
1.0000000000
40
1.0000000000
10
-6.0357067431
20
-14.0807810029
30
0.0000000000
10
-6.0961245180
20
-13.7924557515
30
0.0000000000
10
-6.1936159624
20
-13.1792353592
30
0.0000000000
10
-6.2448576404
20
-12.2340423931
30
0.0000000000
10
-6.1936419767
20
-11.2893306198
30
0.0000000000
10
-6.0962756996
20
-10.6765810144
30
0.0000000000
10
-6.0360024699
20
-10.3887163227
30
0.0000000000
11
-6.0357067431
21
-14.0807810029
31
0.0000000000
11
-6.1743712682
21
-13.2079828024
31
0.0000000000
11
-6.2272241940
21
-12.2340423936
31
0.0000000000
11
-6.1743711919
21
-11.2601019889
31
0.0000000000
11
-6.0360024699
21
-10.3887163227
31
0.0000000000
0
SPLINE
5
316
100
AcDbEntity
8
0
100
AcDbSpline
62
7
6
CONTINUOUS
70
0
71
3
72
8
73
4
74
2
42
0.0000001000
43
0.0000001000
44
0.0000000001
12
0.0192795710
22
0.0920791501
32
0.0000000000
13
0.0202354465
23
0.0918590255
33
0.0000000000
40
0.0000000000
40
0.0000000000
40
0.0000000000
40
0.0000000000
40
1.0000000000
40
1.0000000000
40
1.0000000000
40
1.0000000000
10
-6.0360024699
20
-10.3887163227
30
0.0000000000
10
-6.0295759462
20
-10.3580232727
30
0.0000000000
10
-6.0229898955
20
-10.3273659227
30
0.0000000000
10
-6.0162447467
20
-10.2967462475
30
0.0000000000
11
-6.0360024699
21
-10.3887163227
31
0.0000000000
11
-6.0162447467
21
-10.2967462475
31
0.0000000000
0
SPLINE
5
317
100
AcDbEntity
8
0
100
AcDbSpline
62
9
6
CONTINUOUS
70
0
71
3
72
10
73
6
74
4
42
0.0000001000
43
0.0000001000
44
0.0000000001
12
0.0971111083
22
-0.0213932803
32
0.0000000000
13
0.0478221077
23
0.0871853532
33
0.0000000000
40
0.0000000000
40
0.0000000000
40
0.0000000000
40
0.0000000000
40
0.4975174258
40
0.8626683956
40
1.0000000000
40
1.0000000000
40
1.0000000000
40
1.0000000000
10
-6.1182223948
20
-10.2741915096
30
0.0000000000
10
-6.1021175719
20
-10.2777393528
30
0.0000000000
10
-6.0725028570
20
-10.2864252114
30
0.0000000000
10
-6.0446778609
20
-10.2849706916
30
0.0000000000
10
-6.0227630521
20
-10.2966852550
30
0.0000000000
10
-6.0205738898
20
-10.2926941536
30
0.0000000000
11
-6.1182223948
21
-10.2741915096
31
0.0000000000
11
-6.0698250595
21
-10.2844516531
31
0.0000000000
11
-6.0341493754
21
-10.2912115570
31
0.0000000000
11
-6.0205738898
21
-10.2926941536
31
0.0000000000
0
SPLINE
5
318
100
AcDbEntity
8
0
100
AcDbSpline
62
9
6
CONTINUOUS
70
0
71
3
72
12
73
8
74
6
42
0.0000001000
43
0.0000001000
44
0.0000000001
12
0.1160717288
22
0.5271210691
32
0.0000000000
13
0.5397492576
23
-0.0000814888
33
0.0000000000
40
0.0000000000
40
0.0000000000
40
0.0000000000
40
0.0000000000
40
0.2007164986
40
0.4007148982
40
0.6002448497
40
0.8005356573
40
1.0000000000
40
1.0000000000
40
1.0000000000
40
1.0000000000
10
-6.0205738898
20
-10.2926941536
30
0.0000000000
10
-6.0128080529
20
-10.2574268551
30
0.0000000000
10
-5.9875525246
20
-10.1887755845
30
0.0000000000
10
-5.9236972704
20
-10.1001185636
30
0.0000000000
10
-5.8384874603
20
-10.0317266181
30
0.0000000000
10
-5.7382647451
20
-9.9886377154
30
0.0000000000
10
-5.6659632319
20
-9.9788529391
30
0.0000000000
10
-5.6300763216
20
-9.9788583572
30
0.0000000000
11
-6.0205738898
21
-10.2926941536
31
0.0000000000
11
-5.9831483526
21
-10.1910273240
31
0.0000000000
11
-5.9200755658
21
-10.1034213437
31
0.0000000000
11
-5.8360884490
21
-10.0360075192
31
0.0000000000
11
-5.7367589892
21
-9.9933373648
31
0.0000000000
11
-5.6300763216
21
-9.9788583572
31
0.0000000000
0
SPLINE
5
319
100
AcDbEntity
8
0
100
AcDbSpline
62
9
6
CONTINUOUS
70
0
71
3
72
12
73
8
74
6
42
0.0000001000
43
0.0000001000
44
0.0000000001
12
0.1449279611
22
0.6592551561
32
0.0000000000
13
0.6749973652
23
-0.0001779554
33
0.0000000000
40
0.0000000000
40
0.0000000000
40
0.0000000000
40
0.0000000000
40
0.2011070769
40
0.4013984020
40
0.6010801553
40
0.8014355390
40
1.0000000000
40
1.0000000000
40
1.0000000000
40
1.0000000000
10
-6.1182223949
20
-10.2741915628
30
0.0000000000
10
-6.1085070487
20
-10.2299979370
30
0.0000000000
10
-6.0768585845
20
-10.1439980003
30
0.0000000000
10
-5.9968891521
20
-10.0329743570
30
0.0000000000
10
-5.8902075730
20
-9.9473995581
30
0.0000000000
10
-5.7649743289
20
-9.8936660438
30
0.0000000000
10
-5.6747531463
20
-9.8814527862
30
0.0000000000
10
-5.6300763170
20
-9.8814645647
30
0.0000000000
11
-6.1182223949
21
-10.2741915628
31
0.0000000000
11
-6.0713334545
21
-10.1468000094
31
0.0000000000
11
-5.9923284833
21
-10.0370903663
31
0.0000000000
11
-5.8871871582
21
-9.9527564652
31
0.0000000000
11
-5.7628936116
21
-9.8994573188
31
0.0000000000
11
-5.6300763170
21
-9.8814645647
31
0.0000000000
0
SPLINE
5
31A
100
AcDbEntity
8
0
100
AcDbSpline
62
9
6
CONTINUOUS
70
0
71
3
72
13
73
9
74
7
42
0.0000001000
43
0.0000001000
44
0.0000000001
12
0.3004932473
22
0.3020805378
32
0.0000000000
13
0.0016772595
23
0.4260821867
33
0.0000000000
40
0.0000000000
40
0.0000000000
40
0.0000000000
40
0.0000000000
40
0.0390053668
40
0.1389509341
40
0.2947877186
40
0.4982821756
40
0.7382137399
40
1.0000000000
40
1.0000000000
40
1.0000000000
40
1.0000000000
10
-10.8733478991
20
-21.2303377890
30
0.0000000000
10
-10.8694409493
20
-21.2264102016
30
0.0000000000
10
-10.8718159277
20
-21.2036874722
30
0.0000000000
10
-10.8655101006
20
-21.1645587281
30
0.0000000000
10
-10.8652657068
20
-21.0979719951
30
0.0000000000
10
-10.8625407534
20
-21.0134398585
30
0.0000000000
10
-10.8614526444
20
-20.9130912257
30
0.0000000000
10
-10.8608889811
20
-20.8418835786
30
0.0000000000
10
-10.8607426199
20
-20.8047027579
30
0.0000000000
11
-10.8733478991
21
-21.2303377890
31
0.0000000000
11
-10.8703529591
21
-21.2139902470
31
0.0000000000
11
-10.8675202825
21
-21.1714992071
31
0.0000000000
11
-10.8650197131
21
-21.1051465163
31
0.0000000000
11
-10.8629869932
21
-21.0184643119
31
0.0000000000
11
-10.8615344970
21
-20.9162432733
31
0.0000000000
11
-10.8607426199
21
-20.8047027579
31
0.0000000000
0
SPLINE
5
31B
100
AcDbEntity
8
0
100
AcDbSpline
62
9
6
CONTINUOUS
70
0
71
3
72
12
73
8
74
6
42
0.0000001000
43
0.0000001000
44
0.0000000001
12
0.0005356709
22
-0.7817393703
32
0.0000000000
13
0.7817393703
23
-0.0005356707
33
0.0000000000
40
0.0000000000
40
0.0000000000
40
0.0000000000
40
0.0000000000
40
0.1999725721
40
0.3999817669
40
0.6000062777
40
0.8000195929
40
1.0000000000
40
1.0000000000
40
1.0000000000
40
1.0000000000
10
-10.8733478991
20
-21.2303377890
30
0.0000000000
10
-10.8733121926
20
-21.2824465999
30
0.0000000000
10
-10.8566693549
20
-21.3873952796
30
0.0000000000
10
-10.7844729022
20
-21.5288593192
30
0.0000000000
10
-10.6720477791
20
-21.6412865702
30
0.0000000000
10
-10.5305819687
20
-21.7134867346
30
0.0000000000
10
-10.4256300892
20
-21.7301307437
30
0.0000000000
10
-10.3735192367
20
-21.7301664516
30
0.0000000000
11
-10.8733478991
21
-21.2303377890
31
0.0000000000
11
-10.8488009617
21
-21.3847250064
31
0.0000000000
11
-10.7777712576
21
-21.5240149845
31
0.0000000000
11
-10.6672040863
21
-21.6345842469
31
0.0000000000
11
-10.5279123507
21
-21.7056175952
31
0.0000000000
11
-10.3735192367
21
-21.7301664516
31
0.0000000000
0
SPLINE
5
31C
100
AcDbEntity
8
0
100
AcDbSpline
62
9
6
CONTINUOUS
70
0
71
3
72
13
73
9
74
7
42
0.0000001000
43
0.0000001000
44
0.0000000001
12
0.3806570254
22
0.7616728641
32
0.0000000000
13
0.0016818411
23
0.8514942714
33
0.0000000000
40
0.0000000000
40
0.0000000000
40
0.0000000000
40
0.0000000000
40
0.0388747995
40
0.1388024965
40
0.2944534630
40
0.4974691005
40
0.7369561643
40
1.0000000000
40
1.0000000000
40
1.0000000000
40
1.0000000000
10
-10.3735192366
20
-21.7301664515
30
0.0000000000
10
-10.3685865814
20
-21.7202964915
30
0.0000000000
10
-10.3732162706
20
-21.6786095022
30
0.0000000000
10
-10.3649605559
20
-21.5970971404
30
0.0000000000
10
-10.3657375934
20
-21.4658950654
30
0.0000000000
10
-10.3626080124
20
-21.2965543757
30
0.0000000000
10
-10.3616623427
20
-21.0961525361
30
0.0000000000
10
-10.3610614234
20
-20.9535564956
30
0.0000000000
10
-10.3609139574
20
-20.8788963892
30
0.0000000000
11
-10.3735192366
21
-21.7301664515
31
0.0000000000
11
-10.3705114598
21
-21.6972016513
31
0.0000000000
11
-10.3676845242
21
-21.6121605973
31
0.0000000000
11
-10.3651894706
21
-21.4796479198
31
0.0000000000
11
-10.3631613150
21
-21.3067928284
31
0.0000000000
11
-10.3617104143
21
-21.1028757293
31
0.0000000000
11
-10.3609139574
21
-20.8788963892
31
0.0000000000
0
SPLINE
5
31D
100
AcDbEntity
8
0
100
AcDbSpline
62
9
6
CONTINUOUS
70
0
71
3
72
10
73
6
74
4
42
0.0000001000
43
0.0000001000
44
0.0000000001
12
0.0454998756
22
11.5801037905
32
0.0000000000
13
0.0057626848
23
11.5801917440
33
0.0000000000
40
0.0000000000
40
0.0000000000
40
0.0000000000
40
0.0000000000
40
0.3320111773
40
0.6655577738
40
1.0000000000
40
1.0000000000
40
1.0000000000
40
1.0000000000
10
-10.8607426199
20
-20.8047027579
30
0.0000000000
10
-10.8557071308
20
-19.5231281268
30
0.0000000000
10
-10.8471060540
20
-16.9540459777
30
0.0000000000
10
-10.8386065271
20
-13.0939901895
30
0.0000000000
10
-10.8358624493
20
-10.5155111153
30
0.0000000000
10
-10.8352200209
20
-9.2245427465
30
0.0000000000
11
-10.8607426199
21
-20.8047027579
31
0.0000000000
11
-10.8478585419
21
-16.9599707749
31
0.0000000000
11
-10.8393455520
21
-13.0974461353
31
0.0000000000
11
-10.8352200209
21
-9.2245427465
31
0.0000000000
0
SPLINE
5
31E
100
AcDbEntity
8
0
100
AcDbSpline
62
9
6
CONTINUOUS
70
0
71
3
72
12
73
8
74
6
42
0.0000001000
43
0.0000001000
44
0.0000000001
12
0.0880310120
22
-0.5047724870
32
0.0000000000
13
0.5123873984
23
-0.0019689311
33
0.0000000000
40
0.0000000000
40
0.0000000000
40
0.0000000000
40
0.0000000000
40
0.0695900773
40
0.2162777783
40
0.4337159057
40
0.7031599901
40
1.0000000000
40
1.0000000000
40
1.0000000000
40
1.0000000000
10
-10.8607426199
20
-20.8047027579
30
0.0000000000
10
-10.8587005916
20
-20.8164118100
30
0.0000000000
10
-10.8177270472
20
-20.8349833715
30
0.0000000000
10
-10.7511255930
20
-20.8510872356
30
0.0000000000
10
-10.6411341042
20
-20.8664941339
30
0.0000000000
10
-10.5086018659
20
-20.8761291753
30
0.0000000000
10
-10.4116129842
20
-20.8787015647
30
0.0000000000
10
-10.3609139574
20
-20.8788963838
30
0.0000000000
11
-10.8607426199
21
-20.8047027579
31
0.0000000000
11
-10.8331366910
21
-20.8272717348
31
0.0000000000
11
-10.7608054670
21
-20.8477031515
31
0.0000000000
11
-10.6505996038
21
-20.8640619017
31
0.0000000000
11
-10.5129569504
21
-20.8747986111
31
0.0000000000
11
-10.3609139574
21
-20.8788963838
31
0.0000000000
0
SPLINE
5
31F
100
AcDbEntity
8
0
100
AcDbSpline
62
9
6
CONTINUOUS
70
0
71
3
72
10
73
6
74
4
42
0.0000001000
43
0.0000001000
44
0.0000000001
12
0.0454998796
22
11.6447977341
32
0.0000000000
13
0.0057626841
23
11.6448851991
33
0.0000000000
40
0.0000000000
40
0.0000000000
40
0.0000000000
40
0.0000000000
40
0.3320148751
40
0.6655565454
40
1.0000000000
40
1.0000000000
40
1.0000000000
40
1.0000000000
10
-10.3609139574
20
-20.8788963892
30
0.0000000000
10
-10.3558784118
20
-19.5901477009
30
0.0000000000
10
-10.3472773676
20
-17.0067178348
30
0.0000000000
10
-10.3387778570
20
-13.1250975164
30
0.0000000000
10
-10.3360337891
20
-10.5322279579
30
0.0000000000
10
-10.3353913584
20
-9.2340427465
30
0.0000000000
11
-10.3609139574
21
-20.8788963892
31
0.0000000000
11
-10.3480297602
21
-17.0126422793
31
0.0000000000
11
-10.3395169126
21
-13.1285966724
31
0.0000000000
11
-10.3353913584
21
-9.2340427465
31
0.0000000000
0
SPLINE
5
320
100
AcDbEntity
8
0
100
AcDbSpline
62
9
6
CONTINUOUS
70
0
71
3
72
12
73
8
74
6
42
0.0000001000
43
0.0000001000
44
0.0000000001
12
0.0005356733
22
0.7817393695
32
0.0000000000
13
0.7817393695
23
0.0005356729
33
0.0000000000
40
0.0000000000
40
0.0000000000
40
0.0000000000
40
0.0000000000
40
0.1999768525
40
0.3999879278
40
0.6000120718
40
0.8000231472
40
1.0000000000
40
1.0000000000
40
1.0000000000
40
1.0000000000
10
-10.8733478991
20
21.7622522961
30
0.0000000000
10
-10.8733121916
20
21.8143622223
30
0.0000000000
10
-10.8566687286
20
21.9193125534
30
0.0000000000
10
-10.7844703826
20
22.0607773980
30
0.0000000000
10
-10.6720443387
20
22.1732034419
30
0.0000000000
10
-10.5305794941
20
22.2454017881
30
0.0000000000
10
-10.4256291628
20
22.2620452512
30
0.0000000000
10
-10.3735192366
20
22.2620809586
30
0.0000000000
11
-10.8733478991
21
21.7622522961
31
0.0000000000
11
-10.8487999129
21
21.9166427347
31
0.0000000000
11
-10.7777683901
21
22.0559334354
31
0.0000000000
11
-10.6672003762
21
22.1665014495
31
0.0000000000
11
-10.5279096754
21
22.2375329724
31
0.0000000000
11
-10.3735192366
21
22.2620809586
31
0.0000000000
0
SPLINE
5
321
100
AcDbEntity
8
0
100
AcDbSpline
62
9
6
CONTINUOUS
70
0
71
3
72
12
73
8
74
6
42
0.0000001000
43
0.0000001000
44
0.0000000001
12
0.0881212121
22
0.5047549185
32
0.0000000000
13
0.5123855964
23
0.0019688459
33
0.0000000000
40
0.0000000000
40
0.0000000000
40
0.0000000000
40
0.0000000000
40
0.0695940028
40
0.2162842741
40
0.4337222074
40
0.7031637934
40
1.0000000000
40
1.0000000000
40
1.0000000000
40
1.0000000000
10
-10.8607426197
20
21.3366172650
30
0.0000000000
10
-10.8586983837
20
21.3483265700
30
0.0000000000
10
-10.8177244751
20
21.3668953264
30
0.0000000000
10
-10.7511211200
20
21.3830000786
30
0.0000000000
10
-10.6411304558
20
21.3984055032
30
0.0000000000
10
-10.5085995672
20
21.4080403454
30
0.0000000000
10
-10.4116121564
20
21.4106125273
30
0.0000000000
10
-10.3609139574
20
21.4108073356
30
0.0000000000
11
-10.8607426197
21
21.3366172650
31
0.0000000000
11
-10.8331334819
21
21.3591852964
31
0.0000000000
11
-10.7608008900
21
21.3796157425
31
0.0000000000
11
-10.6505953990
21
21.3959736541
31
0.0000000000
11
-10.5129544718
21
21.4067097879
31
0.0000000000
11
-10.3609139574
21
21.4108073356
31
0.0000000000
0
SPLINE
5
322
100
AcDbEntity
8
0
100
AcDbSpline
62
9
6
CONTINUOUS
70
0
71
3
72
13
73
9
74
7
42
0.0000001000
43
0.0000001000
44
0.0000000001
12
-0.0016806748
22
0.8514942984
32
0.0000000000
13
-0.3796462489
23
0.7621772042
33
0.0000000000
40
0.0000000000
40
0.0000000000
40
0.0000000000
40
0.0000000000
40
0.2630436416
40
0.5025265329
40
0.7055416102
40
0.8611947634
40
0.9611250357
40
1.0000000000
40
1.0000000000
40
1.0000000000
40
1.0000000000
10
-10.3609139574
20
21.4108108963
30
0.0000000000
10
-10.3610613210
20
21.4854709500
30
0.0000000000
10
-10.3616617591
20
21.6280659925
30
0.0000000000
10
-10.3626098435
20
21.8284654974
30
0.0000000000
10
-10.3657322852
20
21.9978081408
30
0.0000000000
10
-10.3649695830
20
22.1290048230
30
0.0000000000
10
-10.3731997884
20
22.2105311964
30
0.0000000000
10
-10.3685996584
20
22.2522044214
30
0.0000000000
10
-10.3735192366
20
22.2620809586
30
0.0000000000
11
-10.3609139574
21
21.4108108963
31
0.0000000000
11
-10.3617104162
21
21.6347900776
31
0.0000000000
11
-10.3631612653
21
21.8387036299
31
0.0000000000
11
-10.3651885545
21
22.0115582596
31
0.0000000000
11
-10.3676841001
21
22.1440727940
31
0.0000000000
11
-10.3705112210
21
22.2291160383
31
0.0000000000
11
-10.3735192366
21
22.2620809586
31
0.0000000000
0
SPLINE
5
323
100
AcDbEntity
8
0
100
AcDbSpline
62
9
6
CONTINUOUS
70
0
71
3
72
13
73
9
74
7
42
0.0000001000
43
0.0000001000
44
0.0000000001
12
-0.0016757221
22
0.4260821711
32
0.0000000000
13
-0.2997217633
23
0.3028459825
33
0.0000000000
40
0.0000000000
40
0.0000000000
40
0.0000000000
40
0.0000000000
40
0.2616919514
40
0.5014664101
40
0.7048866667
40
0.8609111099
40
0.9609709965
40
1.0000000000
40
1.0000000000
40
1.0000000000
40
1.0000000000
10
-10.8607426199
20
21.3366172650
30
0.0000000000
10
-10.8608887942
20
21.3737846899
30
0.0000000000
10
-10.8614519260
20
21.4449570245
30
0.0000000000
10
-10.8625406189
20
21.5452577952
30
0.0000000000
10
-10.8652599292
20
21.6297880250
30
0.0000000000
10
-10.8655114781
20
21.6963984897
30
0.0000000000
10
-10.8718048029
20
21.7355891596
30
0.0000000000
10
-10.8694486185
20
21.7583123705
30
0.0000000000
10
-10.8733478991
20
21.7622522961
30
0.0000000000
11
-10.8607426199
21
21.3366172650
31
0.0000000000
11
-10.8615341039
21
21.4481175929
31
0.0000000000
11
-10.8629851009
21
21.5502717005
31
0.0000000000
11
-10.8650156056
21
21.6369223280
31
0.0000000000
11
-10.8675172613
21
21.7033549898
31
0.0000000000
11
-10.8703518612
21
21.7458947173
31
0.0000000000
11
-10.8733478991
21
21.7622522961
31
0.0000000000
0
SPLINE
5
324
100
AcDbEntity
8
0
100
AcDbSpline
62
9
6
CONTINUOUS
70
0
71
3
72
12
73
8
74
6
42
0.0000001000
43
0.0000001000
44
0.0000000001
12
0.4046168455
22
0.2938357228
32
0.0000000000
13
0.5000541588
23
0.0002487483
33
0.0000000000
40
0.0000000000
40
0.0000000000
40
0.0000000000
40
0.0000000000
40
0.0555750295
40
0.2003451180
40
0.4207646404
40
0.6959972405
40
1.0000000000
40
1.0000000000
40
1.0000000000
40
1.0000000000
10
-10.8352200209
20
9.7564572535
30
0.0000000000
10
-10.8277244899
20
9.7619005632
30
0.0000000000
10
-10.7906979748
20
9.7558540496
30
0.0000000000
10
-10.7237883796
20
9.7650053742
30
0.0000000000
10
-10.6154365828
20
9.7633367631
30
0.0000000000
10
-10.4827743579
20
9.7659628318
30
0.0000000000
10
-10.3860639731
20
9.7659320461
30
0.0000000000
10
-10.3353913584
20
9.7659572529
30
0.0000000000
11
-10.8352200209
21
9.7564572535
31
0.0000000000
11
-10.8075800982
21
9.7593465658
31
0.0000000000
11
-10.7352344773
21
9.7619623247
31
0.0000000000
11
-10.6250326680
21
9.7640568767
31
0.0000000000
11
-10.4874083137
21
9.7654319145
31
0.0000000000
11
-10.3353913584
21
9.7659572529
31
0.0000000000
0
SPLINE
5
325
100
AcDbEntity
8
0
100
AcDbSpline
62
9
6
CONTINUOUS
70
0
71
3
72
10
73
6
74
4
42
0.0000001000
43
0.0000001000
44
0.0000000001
12
-0.0057627125
22
11.6448851991
32
0.0000000000
13
-0.0454999083
23
11.6447977340
33
0.0000000000
40
0.0000000000
40
0.0000000000
40
0.0000000000
40
0.0000000000
40
0.3344434556
40
0.6679851259
40
1.0000000000
40
1.0000000000
40
1.0000000000
40
1.0000000000
10
-10.3353913584
20
9.7659572535
30
0.0000000000
10
-10.3360337922
20
11.0641424689
30
0.0000000000
10
-10.3387778529
20
13.6570120314
30
0.0000000000
10
-10.3472773717
20
17.5386323497
30
0.0000000000
10
-10.3558784086
20
20.1220622119
30
0.0000000000
10
-10.3609139574
20
21.4108108963
30
0.0000000000
11
-10.3353913584
21
9.7659572535
31
0.0000000000
11
-10.3395169117
21
13.6605111914
31
0.0000000000
11
-10.3480297612
21
17.5445567981
31
0.0000000000
11
-10.3609139574
21
21.4108108963
31
0.0000000000
0
SPLINE
5
326
100
AcDbEntity
8
0
100
AcDbSpline
62
9
6
CONTINUOUS
70
0
71
3
72
10
73
6
74
4
42
0.0000001000
43
0.0000001000
44
0.0000000001
12
-0.0057627129
22
11.5801917440
32
0.0000000000
13
-0.0454999043
23
11.5801037904
33
0.0000000000
40
0.0000000000
40
0.0000000000
40
0.0000000000
40
0.0000000000
40
0.3344397263
40
0.6679863314
40
1.0000000000
40
1.0000000000
40
1.0000000000
40
1.0000000000
10
-10.8352200209
20
9.7564572535
30
0.0000000000
10
-10.8358624476
20
11.0474159728
30
0.0000000000
10
-10.8386064970
20
13.6258854305
30
0.0000000000
10
-10.8471059992
20
17.4859412187
30
0.0000000000
10
-10.8557070898
20
20.0550330175
30
0.0000000000
10
-10.8607426199
20
21.3366172650
30
0.0000000000
11
-10.8352200209
21
9.7564572535
31
0.0000000000
11
-10.8393455038
21
13.6293316936
31
0.0000000000
11
-10.8478584627
21
17.4918564327
31
0.0000000000
11
-10.8607426199
21
21.3366172650
31
0.0000000000
0
SPLINE
5
327
100
AcDbEntity
8
0
100
AcDbSpline
62
9
6
CONTINUOUS
70
0
71
3
72
12
73
8
74
6
42
0.0000001000
43
0.0000001000
44
0.0000000001
12
0.4046164661
22
-0.2938362453
32
0.0000000000
13
0.5000541589
23
-0.0002487483
33
0.0000000000
40
0.0000000000
40
0.0000000000
40
0.0000000000
40
0.0000000000
40
0.0555750126
40
0.2003450939
40
0.4207646183
40
0.6959972274
40
1.0000000000
40
1.0000000000
40
1.0000000000
40
1.0000000000
10
-10.8352200209
20
-9.2245427465
30
0.0000000000
10
-10.8277244992
20
-9.2299860641
30
0.0000000000
10
-10.7906979732
20
-9.2239395321
30
0.0000000000
10
-10.7237883951
20
-9.2330908739
30
0.0000000000
10
-10.6154365908
20
-9.2314222540
30
0.0000000000
10
-10.4827743644
20
-9.2340483263
30
0.0000000000
10
-10.3860639753
20
-9.2340175397
30
0.0000000000
10
-10.3353913584
20
-9.2340427464
30
0.0000000000
11
-10.8352200209
21
-9.2245427465
31
0.0000000000
11
-10.8075801067
21
-9.2274320588
31
0.0000000000
11
-10.7352344894
21
-9.2300478180
31
0.0000000000
11
-10.6250326791
21
-9.2321423701
31
0.0000000000
11
-10.4874083202
21
-9.2335174081
31
0.0000000000
11
-10.3353913584
21
-9.2340427464
31
0.0000000000
0
SPLINE
5
328
100
AcDbEntity
8
0
100
AcDbSpline
62
9
6
CONTINUOUS
70
0
71
3
72
10
73
6
74
4
42
0.0000001000
43
0.0000001000
44
0.0000000001
12
0.0094453642
22
18.9809983461
32
0.0000000000
13
-0.0094453649
23
18.9809983461
33
0.0000000000
40
0.0000000000
40
0.0000000000
40
0.0000000000
40
0.0000000000
40
0.3333309576
40
0.6666688049
40
1.0000000000
40
1.0000000000
40
1.0000000000
40
1.0000000000
10
-10.8352200209
20
-9.2245427465
30
0.0000000000
10
-10.8341705435
20
-7.1155579617
30
0.0000000000
10
-10.8327714437
20
-2.8975444174
30
0.0000000000
10
-10.8327714430
20
3.4294559190
30
0.0000000000
10
-10.8341705426
20
7.6474709661
30
0.0000000000
10
-10.8352200209
20
9.7564572535
30
0.0000000000
11
-10.8352200209
21
-9.2245427465
31
0.0000000000
11
-10.8331212258
21
-2.8975879570
31
0.0000000000
11
-10.8331212250
21
3.4294979559
31
0.0000000000
11
-10.8352200209
21
9.7564572535
31
0.0000000000
0
SPLINE
5
329
100
AcDbEntity
8
0
100
AcDbSpline
62
9
6
CONTINUOUS
70
0
71
3
72
10
73
6
74
4
42
0.0000001000
43
0.0000001000
44
0.0000000001
12
0.0997793245
22
0.0219558517
32
0.0000000000
13
-0.0099496816
23
0.1016807596
33
0.0000000000
40
0.0000000000
40
0.0000000000
40
0.0000000000
40
0.0000000000
40
0.4936000866
40
0.8588335885
40
1.0000000000
40
1.0000000000
40
1.0000000000
40
1.0000000000
10
-6.1167971120
20
-14.2024916052
30
0.0000000000
10
-6.1003800843
20
-14.1988791351
30
0.0000000000
10
-6.0691322190
20
-14.1930615745
30
0.0000000000
10
-6.0443952881
20
-14.1810261147
30
0.0000000000
10
-6.0186788858
20
-14.1783142957
30
0.0000000000
10
-6.0191470728
20
-14.1735296597
30
0.0000000000
11
-6.1167971120
21
-14.2024916052
31
0.0000000000
11
-6.0677658780
21
-14.1906993724
31
0.0000000000
11
-6.0319915730
21
-14.1800891016
31
0.0000000000
11
-6.0191470728
21
-14.1735296597
31
0.0000000000
0
SPLINE
5
32A
100
AcDbEntity
8
0
100
AcDbSpline
62
9
6
CONTINUOUS
70
0
71
3
72
12
73
8
74
6
42
0.0000001000
43
0.0000001000
44
0.0000000001
12
-0.0005356742
22
0.7817393692
32
0.0000000000
13
-0.7817393692
23
0.0005356740
33
0.0000000000
40
0.0000000000
40
0.0000000000
40
0.0000000000
40
0.0000000000
40
0.1999737511
40
0.3999834745
40
0.6000078949
40
0.8000205929
40
1.0000000000
40
1.0000000000
40
1.0000000000
40
1.0000000000
10
10.9188995110
20
21.7622522961
30
0.0000000000
10
10.9188638041
20
21.8143614141
30
0.0000000000
10
10.9022207933
20
21.9193105513
30
0.0000000000
10
10.8300238150
20
22.0607748169
30
0.0000000000
10
10.7175984315
20
22.1732017366
30
0.0000000000
10
10.5761328876
20
22.2454013944
30
0.0000000000
10
10.4711814405
20
22.2620452508
30
0.0000000000
10
10.4190708486
20
22.2620809587
30
0.0000000000
11
10.9188995110
21
21.7622522961
31
0.0000000000
11
10.8943522843
21
21.9166404004
31
0.0000000000
11
10.8233220741
21
22.0559305841
31
0.0000000000
11
10.7127546622
21
22.1664995057
31
0.0000000000
11
10.5734632098
21
22.2375323466
31
0.0000000000
11
10.4190708486
21
22.2620809587
31
0.0000000000
0
SPLINE
5
32B
100
AcDbEntity
8
0
100
AcDbSpline
62
9
6
CONTINUOUS
70
0
71
3
72
13
73
9
74
7
42
0.0000001000
43
0.0000001000
44
0.0000000001
12
-0.3796462550
22
-0.7621772011
32
0.0000000000
13
-0.0016806747
23
-0.8514942984
33
0.0000000000
40
0.0000000000
40
0.0000000000
40
0.0000000000
40
0.0000000000
40
0.0388749643
40
0.1388052366
40
0.2944583898
40
0.4974734671
40
0.7369563584
40
1.0000000000
40
1.0000000000
40
1.0000000000
40
1.0000000000
10
10.4190708485
20
22.2620809586
30
0.0000000000
10
10.4141512703
20
22.2522044214
30
0.0000000000
10
10.4187514004
20
22.2105311964
30
0.0000000000
10
10.4105211949
20
22.1290048230
30
0.0000000000
10
10.4112838972
20
21.9978081408
30
0.0000000000
10
10.4081614554
20
21.8284654974
30
0.0000000000
10
10.4072133710
20
21.6280659925
30
0.0000000000
10
10.4066129329
20
21.4854709500
30
0.0000000000
10
10.4064655693
20
21.4108108963
30
0.0000000000
11
10.4190708485
21
22.2620809586
31
0.0000000000
11
10.4160628329
21
22.2291160383
31
0.0000000000
11
10.4132357120
21
22.1440727940
31
0.0000000000
11
10.4107401664
21
22.0115582596
31
0.0000000000
11
10.4087128773
21
21.8387036299
31
0.0000000000
11
10.4072620282
21
21.6347900776
31
0.0000000000
11
10.4064655693
21
21.4108108963
31
0.0000000000
0
SPLINE
5
32C
100
AcDbEntity
8
0
100
AcDbSpline
62
9
6
CONTINUOUS
70
0
71
3
72
13
73
9
74
7
42
0.0000001000
43
0.0000001000
44
0.0000000001
12
-0.2997217763
22
-0.3028459697
32
0.0000000000
13
-0.0016757221
23
-0.4260821711
33
0.0000000000
40
0.0000000000
40
0.0000000000
40
0.0000000000
40
0.0000000000
40
0.0390290036
40
0.1390888901
40
0.2951133333
40
0.4985335899
40
0.7383080486
40
1.0000000000
40
1.0000000000
40
1.0000000000
40
1.0000000000
10
10.9188995110
20
21.7622522961
30
0.0000000000
10
10.9150002302
20
21.7583123706
30
0.0000000000
10
10.9173564150
20
21.7355891594
30
0.0000000000
10
10.9110630899
20
21.6963984898
30
0.0000000000
10
10.9108115412
20
21.6297880250
30
0.0000000000
10
10.9080922308
20
21.5452577952
30
0.0000000000
10
10.9070035379
20
21.4449570245
30
0.0000000000
10
10.9064404061
20
21.3737846899
30
0.0000000000
10
10.9062942318
20
21.3366172650
30
0.0000000000
11
10.9188995110
21
21.7622522961
31
0.0000000000
11
10.9159034731
21
21.7458947172
31
0.0000000000
11
10.9130688732
21
21.7033549899
31
0.0000000000
11
10.9105672176
21
21.6369223280
31
0.0000000000
11
10.9085367128
21
21.5502717005
31
0.0000000000
11
10.9070857159
21
21.4481175929
31
0.0000000000
11
10.9062942318
21
21.3366172650
31
0.0000000000
0
SPLINE
5
32D
100
AcDbEntity
8
0
100
AcDbSpline
62
9
6
CONTINUOUS
70
0
71
3
72
12
73
8
74
6
42
0.0000001000
43
0.0000001000
44
0.0000000001
12
-0.0880309169
22
0.5047725051
32
0.0000000000
13
-0.5123873999
23
0.0019689286
33
0.0000000000
40
0.0000000000
40
0.0000000000
40
0.0000000000
40
0.0000000000
40
0.0695900725
40
0.2162777706
40
0.4337158983
40
0.7031599856
40
1.0000000000
40
1.0000000000
40
1.0000000000
40
1.0000000000
10
10.9062942318
20
21.3366172650
30
0.0000000000
10
10.9042522059
20
21.3483263167
30
0.0000000000
10
10.8632786617
20
21.3668978807
30
0.0000000000
10
10.7966772098
20
21.3830017437
30
0.0000000000
10
10.6866857201
20
21.3984086432
30
0.0000000000
10
10.5541534804
20
21.4080436849
30
0.0000000000
10
10.4571645971
20
21.4106160741
30
0.0000000000
10
10.4064655693
20
21.4108108931
30
0.0000000000
11
10.9062942318
21
21.3366172650
31
0.0000000000
11
10.8786883064
21
21.3591862424
31
0.0000000000
11
10.8063570840
21
21.3796176598
31
0.0000000000
11
10.6961512203
21
21.3959764107
31
0.0000000000
11
10.5585085651
21
21.4067131207
31
0.0000000000
11
10.4064655693
21
21.4108108931
31
0.0000000000
0
SPLINE
5
32E
100
AcDbEntity
8
0
100
AcDbSpline
62
9
6
CONTINUOUS
70
0
71
3
72
10
73
6
74
4
42
0.0000001000
43
0.0000001000
44
0.0000000001
12
-0.0454999083
22
-11.6447977340
32
0.0000000000
13
-0.0057627125
23
-11.6448851991
33
0.0000000000
40
0.0000000000
40
0.0000000000
40
0.0000000000
40
0.0000000000
40
0.3320148741
40
0.6655565444
40
1.0000000000
40
1.0000000000
40
1.0000000000
40
1.0000000000
10
10.4064655693
20
21.4108108963
30
0.0000000000
10
10.4014300206
20
20.1220622119
30
0.0000000000
10
10.3928289836
20
17.5386323497
30
0.0000000000
10
10.3843294648
20
13.6570120314
30
0.0000000000
10
10.3815854042
20
11.0641424689
30
0.0000000000
10
10.3809429703
20
9.7659572535
30
0.0000000000
11
10.4064655693
21
21.4108108963
31
0.0000000000
11
10.3935813731
21
17.5445567981
31
0.0000000000
11
10.3850685236
21
13.6605111914
31
0.0000000000
11
10.3809429703
21
9.7659572535
31
0.0000000000
0
SPLINE
5
32F
100
AcDbEntity
8
0
100
AcDbSpline
62
9
6
CONTINUOUS
70
0
71
3
72
10
73
6
74
4
42
0.0000001000
43
0.0000001000
44
0.0000000001
12
-0.0454999043
22
-11.5801037904
32
0.0000000000
13
-0.0057627129
23
-11.5801917440
33
0.0000000000
40
0.0000000000
40
0.0000000000
40
0.0000000000
40
0.0000000000
40
0.3320136686
40
0.6655602737
40
1.0000000000
40
1.0000000000
40
1.0000000000
40
1.0000000000
10
10.9062942318
20
21.3366172650
30
0.0000000000
10
10.9012587018
20
20.0550330175
30
0.0000000000
10
10.8926576111
20
17.4859412187
30
0.0000000000
10
10.8841581090
20
13.6258854305
30
0.0000000000
10
10.8814140595
20
11.0474159728
30
0.0000000000
10
10.8807716328
20
9.7564572535
30
0.0000000000
11
10.9062942318
21
21.3366172650
31
0.0000000000
11
10.8934100747
21
17.4918564327
31
0.0000000000
11
10.8848971157
21
13.6293316936
31
0.0000000000
11
10.8807716328
21
9.7564572535
31
0.0000000000
0
SPLINE
5
330
100
AcDbEntity
8
0
100
AcDbSpline
62
9
6
CONTINUOUS
70
0
71
3
72
12
73
8
74
6
42
0.0000001000
43
0.0000001000
44
0.0000000001
12
-0.0005356733
22
-0.7817393695
32
0.0000000000
13
-0.7817393695
23
-0.0005356730
33
0.0000000000
40
0.0000000000
40
0.0000000000
40
0.0000000000
40
0.0000000000
40
0.1999768524
40
0.3999879276
40
0.6000120717
40
0.8000231471
40
1.0000000000
40
1.0000000000
40
1.0000000000
40
1.0000000000
10
10.9188995110
20
-21.2303377890
30
0.0000000000
10
10.9188638036
20
-21.2824477152
30
0.0000000000
10
10.9022203405
20
-21.3873980462
30
0.0000000000
10
10.8300219945
20
-21.5288628908
30
0.0000000000
10
10.7175959507
20
-21.6412889348
30
0.0000000000
10
10.5761311061
20
-21.7134872810
30
0.0000000000
10
10.4711807748
20
-21.7301307441
30
0.0000000000
10
10.4190708485
20
-21.7301664515
30
0.0000000000
11
10.9188995110
21
-21.2303377890
31
0.0000000000
11
10.8943515248
21
-21.3847282275
31
0.0000000000
11
10.8233200021
21
-21.5240189282
31
0.0000000000
11
10.7127519882
21
-21.6345869423
31
0.0000000000
11
10.5734612874
21
-21.7056184652
31
0.0000000000
11
10.4190708485
21
-21.7301664515
31
0.0000000000
0
SPLINE
5
331
100
AcDbEntity
8
0
100
AcDbSpline
62
9
6
CONTINUOUS
70
0
71
3
72
8
73
4
74
2
42
0.0000001000
43
0.0000001000
44
0.0000000001
12
-0.0203568750
22
0.0920069339
32
0.0000000000
13
-0.0193935250
23
0.0922355873
33
0.0000000000
40
0.0000000000
40
0.0000000000
40
0.0000000000
40
0.0000000000
40
1.0000000000
40
1.0000000000
40
1.0000000000
40
1.0000000000
10
-6.0191486683
20
-14.1735300116
30
0.0000000000
10
-6.0259342933
20
-14.1428610337
30
0.0000000000
10
-6.0325595191
20
-14.1121529245
30
0.0000000000
10
-6.0390240275
20
-14.0814077288
30
0.0000000000
11
-6.0191486683
21
-14.1735300116
31
0.0000000000
11
-6.0390240275
21
-14.0814077288
31
0.0000000000
0
SPLINE
5
332
100
AcDbEntity
8
0
100
AcDbSpline
62
9
6
CONTINUOUS
70
0
71
3
72
10
73
6
74
4
42
0.0000001000
43
0.0000001000
44
0.0000000001
12
-0.7649145912
22
3.6379331083
32
0.0000000000
13
0.7610070163
23
3.6387755770
33
0.0000000000
40
0.0000000000
40
0.0000000000
40
0.0000000000
40
0.0000000000
40
0.3251807099
40
0.6762373014
40
1.0000000000
40
1.0000000000
40
1.0000000000
40
1.0000000000
10
-6.0390240275
20
-14.0814077288
30
0.0000000000
10
-6.1219358507
20
-13.6870791719
30
0.0000000000
10
-6.2393777778
20
-12.8543569666
30
0.0000000000
10
-6.2396793273
20
-11.6115225257
30
0.0000000000
10
-6.1231303833
20
-10.7804785222
30
0.0000000000
10
-6.0410018216
20
-10.3877785888
30
0.0000000000
11
-6.0390240275
21
-14.0814077288
31
0.0000000000
11
-6.2077745319
21
-12.8844335043
31
0.0000000000
11
-6.2080906025
21
-11.5796696235
31
0.0000000000
11
-6.0410018216
21
-10.3877785888
31
0.0000000000
0
SPLINE
5
333
100
AcDbEntity
8
0
100
AcDbSpline
62
9
6
CONTINUOUS
70
0
71
3
72
8
73
4
74
2
42
0.0000001000
43
0.0000001000
44
0.0000000001
12
0.0199110772
22
0.0952053527
32
0.0000000000
13
0.0209370835
23
0.0949628916
33
0.0000000000
40
0.0000000000
40
0.0000000000
40
0.0000000000
40
0.0000000000
40
1.0000000000
40
1.0000000000
40
1.0000000000
40
1.0000000000
10
-6.0410018216
20
-10.3877785888
30
0.0000000000
10
-6.0343647958
20
-10.3560434712
30
0.0000000000
10
-6.0275565939
20
-10.3243476407
30
0.0000000000
10
-6.0205775661
20
-10.2926933435
30
0.0000000000
11
-6.0410018216
21
-10.3877785888
31
0.0000000000
11
-6.0205775661
21
-10.2926933435
31
0.0000000000
0
SPLINE
5
334
100
AcDbEntity
8
0
100
AcDbSpline
62
9
6
CONTINUOUS
70
0
71
3
72
13
73
9
74
7
42
0.0000001000
43
0.0000001000
44
0.0000000001
12
0.0016818411
22
-0.8514942714
32
0.0000000000
13
0.3806570283
23
-0.7616728626
33
0.0000000000
40
0.0000000000
40
0.0000000000
40
0.0000000000
40
0.0000000000
40
0.2630438357
40
0.5025308995
40
0.7055465370
40
0.8611975035
40
0.9611252005
40
1.0000000000
40
1.0000000000
40
1.0000000000
40
1.0000000000
10
10.4064655693
20
-20.8788963892
30
0.0000000000
10
10.4066130353
20
-20.9535564956
30
0.0000000000
10
10.4072139546
20
-21.0961525361
30
0.0000000000
10
10.4081596243
20
-21.2965543757
30
0.0000000000
10
10.4112892054
20
-21.4658950654
30
0.0000000000
10
10.4105121678
20
-21.5970971404
30
0.0000000000
10
10.4187678825
20
-21.6786095022
30
0.0000000000
10
10.4141381933
20
-21.7202964916
30
0.0000000000
10
10.4190708485
20
-21.7301664515
30
0.0000000000
11
10.4064655693
21
-20.8788963892
31
0.0000000000
11
10.4072620262
21
-21.1028757293
31
0.0000000000
11
10.4087129269
21
-21.3067928284
31
0.0000000000
11
10.4107410825
21
-21.4796479198
31
0.0000000000
11
10.4132361362
21
-21.6121605973
31
0.0000000000
11
10.4160630717
21
-21.6972016513
31
0.0000000000
11
10.4190708485
21
-21.7301664515
31
0.0000000000
0
SPLINE
5
335
100
AcDbEntity
8
0
100
AcDbSpline
62
9
6
CONTINUOUS
70
0
71
3
72
13
73
9
74
7
42
0.0000001000
43
0.0000001000
44
0.0000000001
12
0.0016772595
22
-0.4260821867
32
0.0000000000
13
0.3004932447
23
-0.3020805404
33
0.0000000000
40
0.0000000000
40
0.0000000000
40
0.0000000000
40
0.0000000000
40
0.2617862601
40
0.5017178244
40
0.7052122814
40
0.8610490658
40
0.9609946333
40
1.0000000000
40
1.0000000000
40
1.0000000000
40
1.0000000000
10
10.9062942318
20
-20.8047027579
30
0.0000000000
10
10.9064405930
20
-20.8418835786
30
0.0000000000
10
10.9070042564
20
-20.9130912257
30
0.0000000000
10
10.9080923653
20
-21.0134398585
30
0.0000000000
10
10.9108173187
20
-21.0979719951
30
0.0000000000
10
10.9110617126
20
-21.1645587281
30
0.0000000000
10
10.9173675396
20
-21.2036874722
30
0.0000000000
10
10.9149925613
20
-21.2264102016
30
0.0000000000
10
10.9188995110
20
-21.2303377890
30
0.0000000000
11
10.9062942318
21
-20.8047027579
31
0.0000000000
11
10.9070861089
21
-20.9162432733
31
0.0000000000
11
10.9085386051
21
-21.0184643119
31
0.0000000000
11
10.9105713250
21
-21.1051465163
31
0.0000000000
11
10.9130718945
21
-21.1714992071
31
0.0000000000
11
10.9159045711
21
-21.2139902471
31
0.0000000000
11
10.9188995110
21
-21.2303377890
31
0.0000000000
0
SPLINE
5
336
100
AcDbEntity
8
0
100
AcDbSpline
62
9
6
CONTINUOUS
70
0
71
3
72
12
73
8
74
6
42
0.0000001000
43
0.0000001000
44
0.0000000001
12
-0.0880987669
22
-0.5047593339
32
0.0000000000
13
-0.5123860865
23
-0.0019688163
33
0.0000000000
40
0.0000000000
40
0.0000000000
40
0.0000000000
40
0.0000000000
40
0.0695930882
40
0.2162827327
40
0.4337207017
40
0.7031628815
40
1.0000000000
40
1.0000000000
40
1.0000000000
40
1.0000000000
10
10.9062942317
20
-20.8047027579
30
0.0000000000
10
10.9042505433
20
-20.8164120115
30
0.0000000000
10
10.8632767456
20
-20.8349815191
30
0.0000000000
10
10.7966738329
20
-20.8510860709
30
0.0000000000
10
10.6866829722
20
-20.8664918875
30
0.0000000000
10
10.5541517457
20
-20.8761267826
30
0.0000000000
10
10.4571639725
20
-20.8786990112
30
0.0000000000
10
10.4064655693
20
-20.8788938171
30
0.0000000000
11
10.9062942317
21
-20.8047027579
31
0.0000000000
11
10.8786858857
21
-20.8272710714
31
0.0000000000
11
10.8063536314
21
-20.8477017952
31
0.0000000000
11
10.6961480484
21
-20.8640599379
31
0.0000000000
11
10.5585066953
21
-20.8747962217
31
0.0000000000
11
10.4064655693
21
-20.8788938171
31
0.0000000000
0
SPLINE
5
337
100
AcDbEntity
8
0
100
AcDbSpline
62
9
6
CONTINUOUS
70
0
71
3
72
10
73
6
74
4
42
0.0000001000
43
0.0000001000
44
0.0000000001
12
0.0057626841
22
-11.6448851991
32
0.0000000000
13
0.0454998796
23
-11.6447977341
33
0.0000000000
40
0.0000000000
40
0.0000000000
40
0.0000000000
40
0.0000000000
40
0.3344434546
40
0.6679851249
40
1.0000000000
40
1.0000000000
40
1.0000000000
40
1.0000000000
10
10.3809429703
20
-9.2340427465
30
0.0000000000
10
10.3815854010
20
-10.5322279579
30
0.0000000000
10
10.3843294689
20
-13.1250975164
30
0.0000000000
10
10.3928289795
20
-17.0067178348
30
0.0000000000
10
10.4014300237
20
-19.5901477009
30
0.0000000000
10
10.4064655693
20
-20.8788963892
30
0.0000000000
11
10.3809429703
21
-9.2340427465
31
0.0000000000
11
10.3850685245
21
-13.1285966724
31
0.0000000000
11
10.3935813722
21
-17.0126422793
31
0.0000000000
11
10.4064655693
21
-20.8788963892
31
0.0000000000
0
SPLINE
5
338
100
AcDbEntity
8
0
100
AcDbSpline
62
9
6
CONTINUOUS
70
0
71
3
72
10
73
6
74
4
42
0.0000001000
43
0.0000001000
44
0.0000000001
12
0.0057626848
22
-11.5801917440
32
0.0000000000
13
0.0454998756
23
-11.5801037905
33
0.0000000000
40
0.0000000000
40
0.0000000000
40
0.0000000000
40
0.0000000000
40
0.3344422262
40
0.6679888227
40
1.0000000000
40
1.0000000000
40
1.0000000000
40
1.0000000000
10
10.8807716328
20
-9.2245427465
30
0.0000000000
10
10.8814140612
20
-10.5155111153
30
0.0000000000
10
10.8841581390
20
-13.0939901895
30
0.0000000000
10
10.8926576659
20
-16.9540459777
30
0.0000000000
10
10.9012587427
20
-19.5231281268
30
0.0000000000
10
10.9062942318
20
-20.8047027579
30
0.0000000000
11
10.8807716328
21
-9.2245427465
31
0.0000000000
11
10.8848971639
21
-13.0974461353
31
0.0000000000
11
10.8934101539
21
-16.9599707749
31
0.0000000000
11
10.9062942318
21
-20.8047027579
31
0.0000000000
0
SPLINE
5
339
100
AcDbEntity
8
0
100
AcDbSpline
62
9
6
CONTINUOUS
70
0
71
3
72
12
73
8
74
6
42
0.0000001000
43
0.0000001000
44
0.0000000001
12
-0.4046166914
22
-0.2938359350
32
0.0000000000
13
-0.5000541588
23
-0.0002487483
33
0.0000000000
40
0.0000000000
40
0.0000000000
40
0.0000000000
40
0.0000000000
40
0.0555750226
40
0.2003451082
40
0.4207646314
40
0.6959972351
40
1.0000000000
40
1.0000000000
40
1.0000000000
40
1.0000000000
10
10.8807716328
20
-9.2245427465
30
0.0000000000
10
10.8732761056
20
-9.2299860594
30
0.0000000000
10
10.8362495861
20
-9.2239395383
30
0.0000000000
10
10.7693399978
20
-9.2330908699
30
0.0000000000
10
10.6609881980
20
-9.2314222552
30
0.0000000000
10
10.5283259725
20
-9.2340483254
30
0.0000000000
10
10.4316155860
20
-9.2340175393
30
0.0000000000
10
10.3809429703
20
-9.2340427460
30
0.0000000000
11
10.8807716328
21
-9.2245427465
31
0.0000000000
11
10.8531317136
21
-9.2274320587
31
0.0000000000
11
10.7807860941
21
-9.2300478178
31
0.0000000000
11
10.6705842845
21
-9.2321423698
31
0.0000000000
11
10.5329599283
21
-9.2335174077
31
0.0000000000
11
10.3809429703
21
-9.2340427460
31
0.0000000000
0
SPLINE
5
33A
100
AcDbEntity
8
0
100
AcDbSpline
62
9
6
CONTINUOUS
70
0
71
3
72
12
73
8
74
6
42
0.0000001000
43
0.0000001000
44
0.0000000001
12
-0.4046164632
22
0.2938362493
32
0.0000000000
13
-0.5000541589
23
0.0002487483
33
0.0000000000
40
0.0000000000
40
0.0000000000
40
0.0000000000
40
0.0000000000
40
0.0555750125
40
0.2003450937
40
0.4207646181
40
0.6959972273
40
1.0000000000
40
1.0000000000
40
1.0000000000
40
1.0000000000
10
10.8807716328
20
9.7564572535
30
0.0000000000
10
10.8732761112
20
9.7619005713
30
0.0000000000
10
10.8362495851
20
9.7558540391
30
0.0000000000
10
10.7693400072
20
9.7650053811
30
0.0000000000
10
10.6609882028
20
9.7633367611
30
0.0000000000
10
10.5283259764
20
9.7659628334
30
0.0000000000
10
10.4316155873
20
9.7659320468
30
0.0000000000
10
10.3809429703
20
9.7659572535
30
0.0000000000
11
10.8807716328
21
9.7564572535
31
0.0000000000
11
10.8531317187
21
9.7593465659
31
0.0000000000
11
10.7807861014
21
9.7619623251
31
0.0000000000
11
10.6705842911
21
9.7640568772
31
0.0000000000
11
10.5329599322
21
9.7654319152
31
0.0000000000
11
10.3809429703
21
9.7659572535
31
0.0000000000
0
SPLINE
5
33B
100
AcDbEntity
8
0
100
AcDbSpline
62
9
6
CONTINUOUS
70
0
71
3
72
10
73
6
74
4
42
0.0000001000
43
0.0000001000
44
0.0000000001
12
-0.0094453649
22
-18.9809983461
32
0.0000000000
13
0.0094453642
23
-18.9809983461
33
0.0000000000
40
0.0000000000
40
0.0000000000
40
0.0000000000
40
0.0000000000
40
0.3333311951
40
0.6666690424
40
1.0000000000
40
1.0000000000
40
1.0000000000
40
1.0000000000
10
10.8807716328
20
9.7564572535
30
0.0000000000
10
10.8797221546
20
7.6474709661
30
0.0000000000
10
10.8783230550
20
3.4294559190
30
0.0000000000
10
10.8783230556
20
-2.8975444174
30
0.0000000000
10
10.8797221554
20
-7.1155579617
30
0.0000000000
10
10.8807716328
20
-9.2245427465
30
0.0000000000
11
10.8807716328
21
9.7564572535
31
0.0000000000
11
10.8786728370
21
3.4294979559
31
0.0000000000
11
10.8786728377
21
-2.8975879570
31
0.0000000000
11
10.8807716328
21
-9.2245427465
31
0.0000000000
0
SPLINE
5
33C
100
AcDbEntity
8
0
100
AcDbSpline
62
9
6
CONTINUOUS
70
0
71
3
72
10
73
6
74
4
42
0.0000001000
43
0.0000001000
44
0.0000000001
12
-0.8535917618
22
3.8626981045
32
0.0000000000
13
0.8507532843
23
3.8633242669
33
0.0000000000
40
0.0000000000
40
0.0000000000
40
0.0000000000
40
0.0000000000
40
0.3333160844
40
0.6673407751
40
1.0000000000
40
1.0000000000
40
1.0000000000
40
1.0000000000
10
-6.1167971120
20
-14.2024916319
30
0.0000000000
10
-6.2116357333
20
-13.7733251627
30
0.0000000000
10
-6.3394770937
20
-12.8989639034
30
0.0000000000
10
-6.3397726048
20
-11.5761399657
30
0.0000000000
10
-6.2125593709
20
-10.7025817148
30
0.0000000000
10
-6.1182223949
20
-10.2741915628
30
0.0000000000
11
-6.1167971120
21
-14.2024916319
31
0.0000000000
11
-6.3074980413
21
-12.8977935226
31
0.0000000000
11
-6.3077898357
21
-11.5764290496
31
0.0000000000
11
-6.1182223949
21
-10.2741915628
31
0.0000000000
0
SPLINE
5
33D
100
AcDbEntity
8
0
100
AcDbSpline
62
9
6
CONTINUOUS
70
0
71
3
72
12
73
8
74
6
42
0.0000001000
43
0.0000001000
44
0.0000000001
12
-0.5397325690
22
-0.0001207529
32
0.0000000000
13
-0.1166084706
23
0.5269855076
33
0.0000000000
40
0.0000000000
40
0.0000000000
40
0.0000000000
40
0.0000000000
40
0.2001701755
40
0.3999135842
40
0.5995040559
40
0.8001028420
40
1.0000000000
40
1.0000000000
40
1.0000000000
40
1.0000000000
10
-5.6283443225
20
-14.4870845083
30
0.0000000000
10
-5.6643571102
20
-14.4870925654
30
0.0000000000
10
-5.7366848702
20
-14.4772601696
30
0.0000000000
10
-5.8369334149
20
-14.4341774896
30
0.0000000000
10
-5.9222013628
20
-14.3658343597
30
0.0000000000
10
-5.9861024615
20
-14.2772367584
30
0.0000000000
10
-6.0113622491
20
-14.2086406736
30
0.0000000000
10
-6.0191321498
20
-14.1735263719
30
0.0000000000
11
-5.6283443225
21
-14.4870845083
31
0.0000000000
11
-5.7353955027
21
-14.4725128481
31
0.0000000000
11
-5.8344522551
21
-14.4299648725
31
0.0000000000
11
-5.9185100421
21
-14.3625922694
31
0.0000000000
11
-5.9818150261
21
-14.2747582945
31
0.0000000000
11
-6.0191321498
21
-14.1735263719
31
0.0000000000
0
SPLINE
5
33E
100
AcDbEntity
8
0
100
AcDbSpline
62
9
6
CONTINUOUS
70
0
71
3
72
12
73
8
74
6
42
0.0000001000
43
0.0000001000
44
0.0000000001
12
-0.6749971566
22
-0.0002694347
32
0.0000000000
13
-0.1455011986
23
0.6591286940
33
0.0000000000
40
0.0000000000
40
0.0000000000
40
0.0000000000
40
0.0000000000
40
0.2003723139
40
0.4002918075
40
0.6000295345
40
0.8008066973
40
1.0000000000
40
1.0000000000
40
1.0000000000
40
1.0000000000
10
-5.6283443209
20
-14.5949409569
30
0.0000000000
10
-5.6734279016
20
-14.5949589526
30
0.0000000000
10
-5.7639693056
20
-14.5825945238
30
0.0000000000
10
-5.8893977654
20
-14.5285335649
30
0.0000000000
10
-5.9959963667
20
-14.4428206258
30
0.0000000000
10
-6.0756508978
20
-14.3319400918
30
0.0000000000
10
-6.1071361573
20
-14.2462563057
30
0.0000000000
10
-6.1167971120
20
-14.2024916319
30
0.0000000000
11
-5.6283443209
21
-14.5949409569
31
0.0000000000
11
-5.7623514559
21
-14.5766419420
31
0.0000000000
11
-5.8862854634
21
-14.5232514752
31
0.0000000000
11
-5.9913579168
21
-14.4387715287
31
0.0000000000
11
-6.0704084194
21
-14.3286907431
31
0.0000000000
11
-6.1167971120
21
-14.2024916319
31
0.0000000000
0
SPLINE
5
33F
100
AcDbEntity
8
0
100
AcDbSpline
62
9
6
CONTINUOUS
70
0
71
3
72
10
73
6
74
4
42
0.0000001000
43
0.0000001000
44
0.0000000001
12
-0.0997815172
22
0.0219560850
32
0.0000000000
13
0.0099541177
23
0.1016825275
33
0.0000000000
40
0.0000000000
40
0.0000000000
40
0.0000000000
40
0.0000000000
40
0.4935986421
40
0.8588337244
40
1.0000000000
40
1.0000000000
40
1.0000000000
40
1.0000000000
10
6.1623487238
20
-14.2024915000
30
0.0000000000
10
6.1459313833
20
-14.1988790021
30
0.0000000000
10
6.1146826922
20
-14.1930613741
30
0.0000000000
10
6.0899456406
20
-14.1810257125
30
0.0000000000
10
6.0642281147
20
-14.1783138961
30
0.0000000000
10
6.0646965099
20
-14.1735291815
30
0.0000000000
11
6.1623487238
21
-14.2024915000
31
0.0000000000
11
6.1133165557
21
-14.1906991563
31
0.0000000000
11
6.0775413017
21
-14.1800887023
31
0.0000000000
11
6.0646965099
21
-14.1735291815
31
0.0000000000
0
SPLINE
5
340
100
AcDbEntity
8
0
100
AcDbSpline
62
9
6
CONTINUOUS
70
0
71
3
72
12
73
8
74
6
42
0.0000001000
43
0.0000001000
44
0.0000000001
12
-0.1165684640
22
-0.5269942890
32
0.0000000000
13
-0.5397325085
23
0.0000822196
33
0.0000000000
40
0.0000000000
40
0.0000000000
40
0.0000000000
40
0.0000000000
40
0.2007792609
40
0.4008865287
40
0.6004705277
40
0.8007085046
40
1.0000000000
40
1.0000000000
40
1.0000000000
40
1.0000000000
10
6.0646965099
20
-14.1735291815
30
0.0000000000
10
6.0568949999
20
-14.2087990228
30
0.0000000000
10
6.0315461169
20
-14.2774498547
30
0.0000000000
10
5.9675425859
20
-14.3660472427
30
0.0000000000
10
5.8822319136
20
-14.4343359148
30
0.0000000000
10
5.7820068502
20
-14.4773185767
30
0.0000000000
10
5.7097506371
20
-14.4870766629
30
0.0000000000
10
5.6738959375
20
-14.4870712010
30
0.0000000000
11
6.0646965099
21
-14.1735291815
31
0.0000000000
11
6.0271437463
21
-14.2751816154
31
0.0000000000
11
5.9639190104
21
-14.3627463512
31
0.0000000000
11
5.8798254507
21
-14.4300686864
31
0.0000000000
11
5.7804872507
21
-14.4726376441
31
0.0000000000
11
5.6738959375
21
-14.4870712010
31
0.0000000000
0
SPLINE
5
341
100
AcDbEntity
8
0
100
AcDbSpline
62
9
6
CONTINUOUS
70
0
71
3
72
12
73
8
74
6
42
0.0000001000
43
0.0000001000
44
0.0000000001
12
-0.1454059016
22
-0.6591496348
32
0.0000000000
13
-0.6749971005
23
0.0001776511
33
0.0000000000
40
0.0000000000
40
0.0000000000
40
0.0000000000
40
0.0000000000
40
0.2011874589
40
0.4015934626
40
0.6013226256
40
0.8016132174
40
1.0000000000
40
1.0000000000
40
1.0000000000
40
1.0000000000
10
6.1623487240
20
-14.2024916319
30
0.0000000000
10
6.1525974427
20
-14.2466958452
30
0.0000000000
10
6.1208507337
20
-14.3327104922
30
0.0000000000
10
6.0407185128
20
-14.4436862038
30
0.0000000000
10
5.9339262123
20
-14.5291544043
30
0.0000000000
10
5.8086966651
20
-14.5827700415
30
0.0000000000
10
5.7185327672
20
-14.5949527047
30
0.0000000000
10
5.6738959329
20
-14.5949409569
30
0.0000000000
11
6.1623487240
21
-14.2024916319
31
0.0000000000
11
6.1153253534
21
-14.3298914054
31
0.0000000000
11
6.0361516021
21
-14.4395747243
31
0.0000000000
11
5.9308936515
21
-14.5238141588
31
0.0000000000
11
5.8065991371
21
-14.5769998407
31
0.0000000000
11
5.6738959329
21
-14.5949409569
31
0.0000000000
0
SPLINE
5
342
100
AcDbEntity
8
0
100
AcDbSpline
62
9
6
CONTINUOUS
70
0
71
3
72
10
73
6
74
4
42
0.0000001000
43
0.0000001000
44
0.0000000001
12
-0.0971090439
22
-0.0213927403
32
0.0000000000
13
-0.0478274362
23
0.0871799983
33
0.0000000000
40
0.0000000000
40
0.0000000000
40
0.0000000000
40
0.0000000000
40
0.4975190083
40
0.8626685216
40
1.0000000000
40
1.0000000000
40
1.0000000000
40
1.0000000000
10
6.1637740068
20
-10.2741915518
30
0.0000000000
10
6.1476694751
20
-10.2777393168
30
0.0000000000
10
6.1180555813
20
-10.2864248569
30
0.0000000000
10
6.0902305983
20
-10.2849706939
30
0.0000000000
10
6.0683169819
20
-10.2966845495
30
0.0000000000
10
6.0661275777
20
-10.2926936968
30
0.0000000000
11
6.1637740068
21
-10.2741915518
31
0.0000000000
11
6.1153775470
21
-10.2844514683
31
0.0000000000
11
6.0797027629
21
-10.2912111618
31
0.0000000000
11
6.0661275777
21
-10.2926936968
31
0.0000000000
0
SPLINE
5
343
100
AcDbEntity
8
0
100
AcDbSpline
62
9
6
CONTINUOUS
70
0
71
3
72
8
73
4
74
2
42
0.0000001000
43
0.0000001000
44
0.0000000001
12
0.0209374705
22
-0.0949627862
32
0.0000000000
13
0.0199113648
23
-0.0952052654
33
0.0000000000
40
0.0000000000
40
0.0000000000
40
0.0000000000
40
0.0000000000
40
1.0000000000
40
1.0000000000
40
1.0000000000
40
1.0000000000
10
6.0661291780
20
-10.2926933435
30
0.0000000000
10
6.0731083348
20
-10.3243476056
30
0.0000000000
10
6.0799166483
20
-10.3560434041
30
0.0000000000
10
6.0865537699
20
-10.3877784926
30
0.0000000000
11
6.0661291780
21
-10.2926933435
31
0.0000000000
11
6.0865537699
21
-10.3877784926
31
0.0000000000
0
SPLINE
5
344
100
AcDbEntity
8
0
100
AcDbSpline
62
9
6
CONTINUOUS
70
0
71
3
72
10
73
6
74
4
42
0.0000001000
43
0.0000001000
44
0.0000000001
12
0.7610181624
22
-3.6387729749
32
0.0000000000
13
-0.7649037070
23
-3.6379356538
33
0.0000000000
40
0.0000000000
40
0.0000000000
40
0.0000000000
40
0.0000000000
40
0.3237363723
40
0.6747938817
40
1.0000000000
40
1.0000000000
40
1.0000000000
40
1.0000000000
10
6.0865537699
20
-10.3877784926
30
0.0000000000
10
6.1686768563
20
-10.7804462134
30
0.0000000000
10
6.2852233321
20
-11.6114582422
30
0.0000000000
10
6.2849371112
20
-12.8542927095
30
0.0000000000
10
6.1674924445
20
-13.6870479944
30
0.0000000000
10
6.0845753227
20
-14.0814076386
30
0.0000000000
11
6.0865537699
21
-10.3877784926
31
0.0000000000
11
6.2536351216
21
-11.5795717580
31
0.0000000000
11
6.2533330341
21
-12.8843390537
31
0.0000000000
11
6.0845753227
21
-14.0814076386
31
0.0000000000
0
SPLINE
5
345
100
AcDbEntity
8
0
100
AcDbSpline
62
9
6
CONTINUOUS
70
0
71
3
72
8
73
4
74
2
42
0.0000001000
43
0.0000001000
44
0.0000000001
12
-0.0193932527
22
-0.0922356693
32
0.0000000000
13
-0.0203565123
23
-0.0920070325
33
0.0000000000
40
0.0000000000
40
0.0000000000
40
0.0000000000
40
0.0000000000
40
1.0000000000
40
1.0000000000
40
1.0000000000
40
1.0000000000
10
6.0845753227
20
-14.0814076386
30
0.0000000000
10
6.0781109051
20
-14.1121528617
30
0.0000000000
10
6.0714857843
20
-14.1428610008
30
0.0000000000
10
6.0647002802
20
-14.1735300116
30
0.0000000000
11
6.0845753227
21
-14.0814076386
31
0.0000000000
11
6.0647002802
21
-14.1735300116
31
0.0000000000
0
SPLINE
5
346
100
AcDbEntity
8
0
100
AcDbSpline
62
9
6
CONTINUOUS
70
0
71
3
72
10
73
6
74
4
42
0.0000001000
43
0.0000001000
44
0.0000000001
12
0.8507849919
22
-3.8633172808
32
0.0000000000
13
-0.8535611735
23
-3.8627048603
33
0.0000000000
40
0.0000000000
40
0.0000000000
40
0.0000000000
40
0.0000000000
40
0.3327109801
40
0.6667364931
40
1.0000000000
40
1.0000000000
40
1.0000000000
40
1.0000000000
10
6.1637740068
20
-10.2741915628
30
0.0000000000
10
6.2581291763
20
-10.7026475891
30
0.0000000000
10
6.3853341327
20
-11.5762786493
30
0.0000000000
10
6.3850186958
20
-12.8991025915
30
0.0000000000
10
6.2571689873
20
-13.7733921092
30
0.0000000000
10
6.1623487240
20
-14.2024916319
30
0.0000000000
11
6.1637740068
21
-10.2741915628
31
0.0000000000
11
6.3533550006
21
-11.5766339713
31
0.0000000000
11
6.3530357303
21
-12.8980016895
31
0.0000000000
11
6.1623487240
21
-14.2024916319
31
0.0000000000
0
SPLINE
5
347
100
AcDbEntity
8
0
100
AcDbSpline
62
9
6
CONTINUOUS
70
0
71
3
72
12
73
8
74
6
42
0.0000001000
43
0.0000001000
44
0.0000000001
12
0.5397492567
22
0.0001208551
32
0.0000000000
13
0.1161097591
23
-0.5271127000
33
0.0000000000
40
0.0000000000
40
0.0000000000
40
0.0000000000
40
0.0000000000
40
0.2003434951
40
0.4001428599
40
0.5996723398
40
0.8001717270
40
1.0000000000
40
1.0000000000
40
1.0000000000
40
1.0000000000
10
5.6756279305
20
-9.9788451610
30
0.0000000000
10
5.7116730147
20
-9.9788370902
30
0.0000000000
10
5.7840467412
20
-9.9886964073
30
0.0000000000
10
5.8842921422
20
-10.0318854658
30
0.0000000000
10
5.9694598095
20
-10.1003324869
30
0.0000000000
10
6.0332118905
20
-10.1889894020
30
0.0000000000
10
6.0583786658
20
-10.2575863103
30
0.0000000000
10
6.0661126700
20
-10.2926969838
30
0.0000000000
11
5.6756279305
21
-9.9788451610
31
0.0000000000
11
5.7827706619
21
-9.9934625665
31
0.0000000000
11
5.8818200642
21
-10.0361125167
31
0.0000000000
11
5.9657683349
21
-10.1035743046
31
0.0000000000
11
6.0289237465
21
-10.1914539499
31
0.0000000000
11
6.0661126700
21
-10.2926969838
31
0.0000000000
0
SPLINE
5
348
100
AcDbEntity
8
0
100
AcDbSpline
62
9
6
CONTINUOUS
70
0
71
3
72
12
73
8
74
6
42
0.0000001000
43
0.0000001000
44
0.0000000001
12
0.6749973438
22
0.0002736631
32
0.0000000000
13
0.1450203657
23
-0.6592348463
33
0.0000000000
40
0.0000000000
40
0.0000000000
40
0.0000000000
40
0.0000000000
40
0.2005514861
40
0.4005380428
40
0.6002205186
40
0.8008920936
40
1.0000000000
40
1.0000000000
40
1.0000000000
40
1.0000000000
10
5.6756279289
20
-9.8814645647
30
0.0000000000
10
5.7207518357
20
-9.8814462702
30
0.0000000000
10
5.8113514351
20
-9.8938421123
30
0.0000000000
10
5.9367820698
20
-9.9480214478
30
0.0000000000
10
6.0432698231
20
-10.0338416740
30
0.0000000000
10
6.1227609102
20
-10.1447690899
30
0.0000000000
10
6.1541491064
20
-10.2304386061
30
0.0000000000
10
6.1637740068
20
-10.2741915628
30
0.0000000000
11
5.6756279289
21
-9.8814645647
31
0.0000000000
11
5.8097499863
21
-9.8998161156
31
0.0000000000
11
5.9336838877
21
-9.9533212342
31
0.0000000000
11
6.0386350468
21
-10.0378924548
31
0.0000000000
11
6.1175198405
21
-10.1480044341
31
0.0000000000
11
6.1637740068
21
-10.2741915628
31
0.0000000000
0
SPLINE
5
349
100
AcDbEntity
8
0
100
AcDbSpline
62
9
6
CONTINUOUS
70
0
71
3
72
15
73
11
74
9
42
0.0000001000
43
0.0000001000
44
0.0000000001
12
-0.1572331791
22
-0.0051331281
32
0.0000000000
13
0.0050642290
23
-0.1572354133
33
0.0000000000
40
0.0000000000
40
0.0000000000
40
0.0000000000
40
0.0000000000
40
0.1857680186
40
0.3646500307
40
0.5301363468
40
0.6763246355
40
0.7982586221
40
0.8924061698
40
0.9577532431
40
1.0000000000
40
1.0000000000
40
1.0000000000
40
1.0000000000
10
-39.4495817079
20
-10.3923273227
30
0.0000000000
10
-39.4593180066
20
-10.3926451797
30
0.0000000000
10
-39.4784198315
20
-10.3936471656
30
0.0000000000
10
-39.5061058132
20
-10.3962449124
30
0.0000000000
10
-39.5315933450
20
-10.3998120118
30
0.0000000000
10
-39.5539109033
20
-10.4042301211
30
0.0000000000
10
-39.5722683171
20
-10.4092165285
30
0.0000000000
10
-39.5859892541
20
-10.4147996586
30
0.0000000000
10
-39.5950928963
20
-10.4202556011
30
0.0000000000
10
-39.5982662834
20
-10.4256728482
30
0.0000000000
10
-39.5981949676
20
-10.4278870770
30
0.0000000000
11
-39.4495817079
21
-10.3923273227
31
0.0000000000
11
-39.4787654317
21
-10.3938697808
31
0.0000000000
11
-39.5067804988
21
-10.3965309030
31
0.0000000000
11
-39.5325532102
21
-10.4002086997
31
0.0000000000
11
-39.5550958070
21
-10.4047622165
31
0.0000000000
11
-39.5735443266
21
-10.4100169364
31
0.0000000000
11
-39.5871917156
21
-10.4157714681
31
0.0000000000
11
-39.5955149271
21
-10.4218052650
31
0.0000000000
11
-39.5981949676
21
-10.4278870770
31
0.0000000000
0
SPLINE
5
34A
100
AcDbEntity
8
0
100
AcDbSpline
62
9
6
CONTINUOUS
70
0
71
3
72
13
73
9
74
7
42
0.0000001000
43
0.0000001000
44
0.0000000001
12
0.1168246253
22
-3.6884384553
32
0.0000000000
13
0.2628648567
23
-3.6809140575
33
0.0000000000
40
0.0000000000
40
0.0000000000
40
0.0000000000
40
0.0000000000
40
0.1648639369
40
0.3316585253
40
0.4994146913
40
0.6673026012
40
0.8344901590
40
1.0000000000
40
1.0000000000
40
1.0000000000
40
1.0000000000
10
-39.4495817085
20
-10.3923273091
30
0.0000000000
10
-39.4431616526
20
-10.5950241373
30
0.0000000000
10
-39.4289147673
20
-11.0027505637
30
0.0000000000
10
-39.4034272869
20
-11.6165539209
30
0.0000000000
10
-39.3736926957
20
-12.2338906422
30
0.0000000000
10
-39.3398264776
20
-12.8514986259
30
0.0000000000
10
-39.3020299662
20
-13.4661098443
30
0.0000000000
10
-39.2742169497
20
-13.8744168725
30
0.0000000000
10
-39.2597147095
20
-14.0774927060
30
0.0000000000
11
-39.4495817085
21
-10.3923273091
31
0.0000000000
11
-39.4283356745
21
-11.0003516487
31
0.0000000000
11
-39.4027989726
21
-11.6153417714
31
0.0000000000
11
-39.3730154380
21
-12.2336934923
31
0.0000000000
11
-39.3390934299
21
-12.8523188977
31
0.0000000000
11
-39.3012232789
21
-13.4681258044
31
0.0000000000
11
-39.2597147095
21
-14.0774927060
31
0.0000000000
0
SPLINE
5
34B
100
AcDbEntity
8
0
100
AcDbSpline
62
9
6
CONTINUOUS
70
0
71
3
72
17
73
13
74
11
42
0.0000001000
43
0.0000001000
44
0.0000000001
12
-0.3974881301
22
-0.0078221976
32
0.0000000000
13
0.0098242193
23
-0.3974436879
33
0.0000000000
40
0.0000000000
40
0.0000000000
40
0.0000000000
40
0.0000000000
40
0.0116902197
40
0.0465311088
40
0.1038867153
40
0.1826869715
40
0.2814716462
40
0.3984047974
40
0.5313113759
40
0.6777300045
40
0.8349084738
40
1.0000000000
40
1.0000000000
40
1.0000000000
40
1.0000000000
10
-39.4581123964
20
-9.9948572462
30
0.0000000000
10
-39.4596613043
20
-9.9948877272
30
0.0000000000
10
-39.4560118777
20
-10.0047377515
30
0.0000000000
10
-39.4592727994
20
-10.0149736201
30
0.0000000000
10
-39.4569331273
20
-10.0396121250
30
0.0000000000
10
-39.4571673531
20
-10.0698867893
30
0.0000000000
10
-39.4560498085
20
-10.1092302158
30
0.0000000000
10
-39.4551658095
20
-10.1553086471
30
0.0000000000
10
-39.4539597682
20
-10.2078446236
30
0.0000000000
10
-39.4526390834
20
-10.2656642510
30
0.0000000000
10
-39.4511629702
20
-10.3277616290
30
0.0000000000
10
-39.4501223357
20
-10.3704558889
30
0.0000000000
10
-39.4495817039
20
-10.3923274172
30
0.0000000000
11
-39.4581123964
21
-9.9948572462
31
0.0000000000
11
-39.4581501176
21
-9.9995047163
31
0.0000000000
11
-39.4579726515
21
-10.0133551006
31
0.0000000000
11
-39.4575812169
21
-10.0361543275
31
0.0000000000
11
-39.4569798906
21
-10.0674767868
31
0.0000000000
11
-39.4561756172
21
-10.1067418886
31
0.0000000000
11
-39.4551785166
21
-10.1532197331
31
0.0000000000
11
-39.4540020298
21
-10.2060456497
31
0.0000000000
11
-39.4526628924
21
-10.2642411795
31
0.0000000000
11
-39.4511817882
21
-10.3267122967
31
0.0000000000
11
-39.4495817039
21
-10.3923274172
31
0.0000000000
0
SPLINE
5
34C
100
AcDbEntity
8
0
100
AcDbSpline
62
9
6
CONTINUOUS
70
0
71
3
72
15
73
11
74
9
42
0.0000001000
43
0.0000001000
44
0.0000000001
12
-0.1536864220
22
-0.0104194629
32
0.0000000000
13
-0.0111600402
23
0.1536344200
33
0.0000000000
40
0.0000000000
40
0.0000000000
40
0.0000000000
40
0.0000000000
40
0.1867382875
40
0.3659943079
40
0.5314246347
40
0.6772971232
40
0.7988172643
40
0.8925961047
40
0.9577368287
40
1.0000000000
40
1.0000000000
40
1.0000000000
40
1.0000000000
10
-39.2597147044
20
-14.0774925869
30
0.0000000000
10
-39.2692810842
20
-14.0781411577
30
0.0000000000
10
-39.2880575548
20
-14.0790491869
30
0.0000000000
10
-39.3153509879
20
-14.0792579557
30
0.0000000000
10
-39.3405329992
20
-14.0783115011
30
0.0000000000
10
-39.3626713310
20
-14.0762283945
30
0.0000000000
10
-39.3809932912
20
-14.0732011541
30
0.0000000000
10
-39.3948624871
20
-14.0691365056
30
0.0000000000
10
-39.4042437747
20
-14.0647218852
30
0.0000000000
10
-39.4078544853
20
-14.0597681566
30
0.0000000000
10
-39.4080117049
20
-14.0576037973
30
0.0000000000
11
-39.2597147044
21
-14.0774925869
31
0.0000000000
11
-39.2884467847
21
-14.0788687962
31
0.0000000000
11
-39.3160586680
21
-14.0790469057
31
0.0000000000
11
-39.3415207381
21
-14.0780202739
31
0.0000000000
11
-39.3638835431
21
-14.0758271828
31
0.0000000000
11
-39.3823131991
21
-14.0725494102
31
0.0000000000
11
-39.3961224849
21
-14.0683091807
31
0.0000000000
11
-39.4047964679
21
-14.0632646075
31
0.0000000000
11
-39.4080117049
21
-14.0576037973
31
0.0000000000
0
SPLINE
5
34D
100
AcDbEntity
8
0
100
AcDbSpline
62
9
6
CONTINUOUS
70
0
71
3
72
17
73
13
74
11
42
0.0000001000
43
0.0000001000
44
0.0000000001
12
0.0193599229
22
-0.3977157767
32
0.0000000000
13
0.3981074968
23
-0.0079414497
33
0.0000000000
40
0.0000000000
40
0.0000000000
40
0.0000000000
40
0.0000000000
40
0.1652192034
40
0.3224868619
40
0.4689476607
40
0.6018497484
40
0.7187404183
40
0.8174604534
40
0.8961924244
40
0.9534921811
40
0.9883030532
40
1.0000000000
40
1.0000000000
40
1.0000000000
40
1.0000000000
10
-39.2597147044
20
-14.0774925869
30
0.0000000000
10
-39.2586484941
20
-14.0993960148
30
0.0000000000
10
-39.2565527317
20
-14.1421472347
30
0.0000000000
10
-39.2534675233
20
-14.2043168950
30
0.0000000000
10
-39.2505414509
20
-14.2621857808
30
0.0000000000
10
-39.2478898380
20
-14.3147475640
30
0.0000000000
10
-39.2453910164
20
-14.3608324271
30
0.0000000000
10
-39.2436207563
20
-14.4001657252
30
0.0000000000
10
-39.2411654620
20
-14.4304291593
30
0.0000000000
10
-39.2416960280
20
-14.4550397037
30
0.0000000000
10
-39.2376861026
20
-14.4652832445
30
0.0000000000
10
-39.2406137093
20
-14.4751089642
30
0.0000000000
10
-39.2390614953
20
-14.4751399278
30
0.0000000000
11
-39.2597147044
21
-14.0774925869
31
0.0000000000
11
-39.2564942636
21
-14.1432018054
31
0.0000000000
11
-39.2533864512
21
-14.2057465297
31
0.0000000000
11
-39.2504513381
21
-14.2639913642
31
0.0000000000
11
-39.2477488771
21
-14.3168421591
31
0.0000000000
11
-39.2453339698
21
-14.3633237791
31
0.0000000000
11
-39.2432564330
21
-14.4025778450
31
0.0000000000
11
-39.2415594190
21
-14.4338819041
31
0.0000000000
11
-39.2402782692
21
-14.4566619074
31
0.0000000000
11
-39.2394399179
21
-14.4704977579
31
0.0000000000
11
-39.2390614953
21
-14.4751399278
31
0.0000000000
0
SPLINE
5
34E
100
AcDbEntity
8
0
100
AcDbSpline
62
9
6
CONTINUOUS
70
0
71
3
72
8
73
4
74
2
42
0.0000001000
43
0.0000001000
44
0.0000000001
12
0.0505409014
22
0.0004617184
32
0.0000000000
13
0.0505409014
23
0.0004617162
33
0.0000000000
40
0.0000000000
40
0.0000000000
40
0.0000000000
40
0.0000000000
40
1.0000000000
40
1.0000000000
40
1.0000000000
40
1.0000000000
10
-39.4495817085
20
-10.3923273091
30
0.0000000000
10
-39.4327347414
20
-10.3921734030
30
0.0000000000
10
-39.4158877742
20
-10.3920194972
30
0.0000000000
10
-39.3990408071
20
-10.3918655918
30
0.0000000000
11
-39.4495817085
21
-10.3923273091
31
0.0000000000
11
-39.3990408071
21
-10.3918655918
31
0.0000000000
0
SPLINE
5
34F
100
AcDbEntity
8
0
100
AcDbSpline
62
9
6
CONTINUOUS
70
0
71
3
72
8
73
4
74
2
42
0.0000001000
43
0.0000001000
44
0.0000000001
12
0.0539317860
22
-0.0004926873
32
0.0000000000
13
0.0539317860
23
-0.0004926849
33
0.0000000000
40
0.0000000000
40
0.0000000000
40
0.0000000000
40
0.0000000000
40
1.0000000000
40
1.0000000000
40
1.0000000000
40
1.0000000000
10
-39.2597147095
20
-14.0774927060
30
0.0000000000
10
-39.2417374475
20
-14.0776569351
30
0.0000000000
10
-39.2237601855
20
-14.0778211638
30
0.0000000000
10
-39.2057829234
20
-14.0779853921
30
0.0000000000
11
-39.2597147095
21
-14.0774927060
31
0.0000000000
11
-39.2057829234
21
-14.0779853921
31
0.0000000000
0
SPLINE
5
350
100
AcDbEntity
8
0
100
AcDbSpline
62
9
6
CONTINUOUS
70
0
71
3
72
10
73
6
74
4
42
0.0000001000
43
0.0000001000
44
0.0000000001
12
-0.3606581435
22
-18.9785887347
32
0.0000000000
13
0.3606581152
23
-18.9785887352
33
0.0000000000
40
0.0000000000
40
0.0000000000
40
0.0000000000
40
0.0000000000
40
0.3333401036
40
0.6666601339
40
1.0000000000
40
1.0000000000
40
1.0000000000
40
1.0000000000
10
-38.9418816656
20
9.7564572535
30
0.0000000000
10
-38.9819556066
20
7.6476823418
30
0.0000000000
10
-39.0353889923
20
3.4297011089
30
0.0000000000
10
-39.0353889677
20
-2.8977896074
30
0.0000000000
10
-38.9819555749
20
-7.1157693371
30
0.0000000000
10
-38.9418816656
20
-9.2245427465
30
0.0000000000
11
-38.9418816656
21
9.7564572535
31
0.0000000000
11
-39.0220314462
21
3.4294979559
31
0.0000000000
11
-39.0220314185
21
-2.8975879570
31
0.0000000000
11
-38.9418816656
21
-9.2245427465
31
0.0000000000
0
SPLINE
5
351
100
AcDbEntity
8
0
100
AcDbSpline
62
9
6
CONTINUOUS
70
0
71
3
72
10
73
6
74
4
42
0.0000001000
43
0.0000001000
44
0.0000000001
12
0.2209438363
22
-11.6262761732
32
0.0000000000
13
1.7254970730
23
-11.4996423286
33
0.0000000000
40
0.0000000000
40
0.0000000000
40
0.0000000000
40
0.0000000000
40
0.3333317353
40
0.6666699418
40
1.0000000000
40
1.0000000000
40
1.0000000000
40
1.0000000000
10
-38.9418816656
20
-9.2245427465
30
0.0000000000
10
-38.9173324682
20
-10.5163450173
30
0.0000000000
10
-38.8122626840
20
-13.0992744272
30
0.0000000000
10
-38.4870780625
20
-16.9628300298
30
0.0000000000
10
-38.1589329463
20
-19.5269772758
30
0.0000000000
10
-37.9672129331
20
-20.8047027579
30
0.0000000000
11
-38.9418816656
21
-9.2245427465
31
0.0000000000
11
-38.7843339890
21
-13.0974461353
31
0.0000000000
11
-38.4592360201
21
-16.9599707749
31
0.0000000000
11
-37.9672129331
21
-20.8047027579
31
0.0000000000
0
SPLINE
5
352
100
AcDbEntity
8
0
100
AcDbSpline
62
9
6
CONTINUOUS
70
0
71
3
72
12
73
8
74
6
42
0.0000001000
43
0.0000001000
44
0.0000000001
12
-0.4816505024
22
-0.0723204930
32
0.0000000000
13
0.0724277813
23
-0.4816343807
33
0.0000000000
40
0.0000000000
40
0.0000000000
40
0.0000000000
40
0.0000000000
40
0.3108013381
40
0.5896482723
40
0.8101319341
40
0.9513718660
40
1.0000000000
40
1.0000000000
40
1.0000000000
40
1.0000000000
10
-37.9672129331
20
-20.8047027579
30
0.0000000000
10
-38.0171121400
20
-20.8121951932
30
0.0000000000
10
-38.1128324271
20
-20.8257217124
30
0.0000000000
10
-38.2387920226
20
-20.8483430078
30
0.0000000000
10
-38.3519519636
20
-20.8568880869
30
0.0000000000
10
-38.3980192844
20
-20.8810327431
30
0.0000000000
10
-38.4497460219
20
-20.8710868234
30
0.0000000000
10
-38.4485720126
20
-20.8788938171
30
0.0000000000
11
-37.9672129331
21
-20.8047027579
31
0.0000000000
11
-38.1168968605
21
-20.8272710714
31
0.0000000000
11
-38.2511636639
21
-20.8477017952
31
0.0000000000
11
-38.3572969493
21
-20.8640599379
31
0.0000000000
11
-38.4252448449
21
-20.8747962217
31
0.0000000000
11
-38.4485720126
21
-20.8788938171
31
0.0000000000
0
SPLINE
5
353
100
AcDbEntity
8
0
100
AcDbSpline
62
9
6
CONTINUOUS
70
0
71
3
72
13
73
9
74
7
42
0.0000001000
43
0.0000001000
44
0.0000000001
12
0.1035051610
22
-0.6885301704
32
0.0000000000
13
0.6960254347
23
-0.0183223430
33
0.0000000000
40
0.0000000000
40
0.0000000000
40
0.0000000000
40
0.0000000000
40
0.1659812648
40
0.3330163255
40
0.5001363479
40
0.6671446545
40
0.8340656536
40
1.0000000000
40
1.0000000000
40
1.0000000000
40
1.0000000000
10
-37.9672129331
20
-20.8047027579
30
0.0000000000
10
-37.9614862939
20
-20.8427971274
30
0.0000000000
10
-37.9410793185
20
-20.9181901560
30
0.0000000000
10
-37.8852121810
20
-21.0210905522
30
0.0000000000
10
-37.8069146719
20
-21.1085438984
30
0.0000000000
10
-37.7105329642
20
-21.1754956361
30
0.0000000000
10
-37.6016219254
20
-21.2183023791
30
0.0000000000
10
-37.5243349173
20
-21.2293243537
30
0.0000000000
10
-37.4858367421
20
-21.2303377890
30
0.0000000000
11
-37.9672129331
21
-20.8047027579
31
0.0000000000
11
-37.9369723663
21
-20.9162432733
31
0.0000000000
11
-37.8815037746
21
-21.0184643119
31
0.0000000000
11
-37.8038773348
21
-21.1051465163
31
0.0000000000
11
-37.7083844383
21
-21.1714992071
31
0.0000000000
11
-37.6002088837
21
-21.2139902471
31
0.0000000000
11
-37.4858367421
21
-21.2303377890
31
0.0000000000
0
SPLINE
5
354
100
AcDbEntity
8
0
100
AcDbSpline
62
9
6
CONTINUOUS
70
0
71
3
72
12
73
8
74
6
42
0.0000001000
43
0.0000001000
44
0.0000000001
12
-0.0130830273
22
-0.4999632459
32
0.0000000000
13
0.4999630112
23
-0.0130919922
33
0.0000000000
40
0.0000000000
40
0.0000000000
40
0.0000000000
40
0.0000000000
40
0.3087727501
40
0.5873022217
40
0.8083788267
40
0.9504486573
40
1.0000000000
40
1.0000000000
40
1.0000000000
40
1.0000000000
10
-37.4858367421
20
-21.2303377890
30
0.0000000000
10
-37.4871833029
20
-21.2817961311
30
0.0000000000
10
-37.4900226076
20
-21.3805854928
30
0.0000000000
10
-37.4892895125
20
-21.5118588474
30
0.0000000000
10
-37.4960913684
20
-21.6277568961
30
0.0000000000
10
-37.4823600652
20
-21.6794835084
30
0.0000000000
10
-37.4940946883
20
-21.7299502096
30
0.0000000000
10
-37.4858367421
20
-21.7301664515
30
0.0000000000
11
-37.4858367421
21
-21.2303377890
31
0.0000000000
11
-37.4892367863
21
-21.3847282275
31
0.0000000000
11
-37.4910242154
21
-21.5240189282
31
0.0000000000
11
-37.4910242148
21
-21.6345869423
31
0.0000000000
11
-37.4892367849
21
-21.7056184652
31
0.0000000000
11
-37.4858367421
21
-21.7301664515
31
0.0000000000
0
SPLINE
5
355
100
AcDbEntity
8
0
100
AcDbSpline
62
9
6
CONTINUOUS
70
0
71
3
72
10
73
6
74
4
42
0.0000001000
43
0.0000001000
44
0.0000000001
12
-1.7254981385
22
-11.4996421687
32
0.0000000000
13
-0.2209449136
23
-11.6262761527
33
0.0000000000
40
0.0000000000
40
0.0000000000
40
0.0000000000
40
0.0000000000
40
0.3333325520
40
0.6666707585
40
1.0000000000
40
1.0000000000
40
1.0000000000
40
1.0000000000
10
-37.9672129331
20
21.3366172650
30
0.0000000000
10
-38.1589344991
20
20.0588822411
30
0.0000000000
10
-38.4870801566
20
17.4947252993
30
0.0000000000
10
-38.8122638350
20
13.6311696173
30
0.0000000000
10
-38.9173325322
20
11.0482498573
30
0.0000000000
10
-38.9418816656
20
9.7564572535
30
0.0000000000
11
-37.9672129331
21
21.3366172650
31
0.0000000000
11
-38.4592390436
21
17.4918564327
31
0.0000000000
11
-38.7843358301
21
13.6293316936
31
0.0000000000
11
-38.9418816656
21
9.7564572535
31
0.0000000000
0
SPLINE
5
356
100
AcDbEntity
8
0
100
AcDbSpline
62
9
6
CONTINUOUS
70
0
71
3
72
12
73
8
74
6
42
0.0000001000
43
0.0000001000
44
0.0000000001
12
-0.4816676000
22
0.0723230104
32
0.0000000000
13
0.0722746829
23
0.4816748539
33
0.0000000000
40
0.0000000000
40
0.0000000000
40
0.0000000000
40
0.0000000000
40
0.3107996591
40
0.5896463584
40
0.8101305819
40
0.9513712895
40
1.0000000000
40
1.0000000000
40
1.0000000000
40
1.0000000000
10
-37.9672129331
20
21.3366172650
30
0.0000000000
10
-38.0171136417
20
21.3441099206
30
0.0000000000
10
-38.1128367095
20
21.3576368249
30
0.0000000000
10
-38.2388017308
20
21.3802590410
30
0.0000000000
10
-38.3519629306
20
21.3888039846
30
0.0000000000
10
-38.3980377055
20
21.4129504527
30
0.0000000000
10
-38.4497606441
20
21.4030031507
30
0.0000000000
10
-38.4485891026
20
21.4108108931
30
0.0000000000
11
-37.9672129331
21
21.3366172650
31
0.0000000000
11
-38.1169013653
21
21.3591862424
31
0.0000000000
11
-38.2511728219
21
21.3796176598
31
0.0000000000
11
-38.3573101457
21
21.3959764107
31
0.0000000000
11
-38.4252608276
21
21.4067131207
31
0.0000000000
11
-38.4485891026
21
21.4108108931
31
0.0000000000
0
SPLINE
5
357
100
AcDbEntity
8
0
100
AcDbSpline
62
9
6
CONTINUOUS
70
0
71
3
72
13
73
9
74
7
42
0.0000001000
43
0.0000001000
44
0.0000000001
12
-0.6960229623
22
-0.0184159841
32
0.0000000000
13
-0.1034123812
23
-0.6885441104
33
0.0000000000
40
0.0000000000
40
0.0000000000
40
0.0000000000
40
0.0000000000
40
0.1659960015
40
0.3330407517
40
0.5001635321
40
0.6671687297
40
0.8340800834
40
1.0000000000
40
1.0000000000
40
1.0000000000
40
1.0000000000
10
-37.4858367421
20
21.7622522961
30
0.0000000000
10
-37.5243490850
20
21.7612333029
30
0.0000000000
10
-37.6016792899
20
21.7502100702
30
0.0000000000
10
-37.7106510778
20
21.7073580575
30
0.0000000000
10
-37.8070331922
20
21.6403535964
30
0.0000000000
10
-37.8852782378
20
21.5528943337
30
0.0000000000
10
-37.9410930458
20
21.4500487101
30
0.0000000000
10
-37.9614935419
20
21.3746983254
30
0.0000000000
10
-37.9672129331
20
21.3366172650
30
0.0000000000
11
-37.4858367421
21
21.7622522961
31
0.0000000000
11
-37.6002508135
21
21.7458947172
31
0.0000000000
11
-37.7084998146
21
21.7033549899
31
0.0000000000
11
-37.8040341906
21
21.6369223280
31
0.0000000000
11
-37.8815760383
21
21.5502717005
31
0.0000000000
11
-37.9369873764
21
21.4481175929
31
0.0000000000
11
-37.9672129331
21
21.3366172650
31
0.0000000000
0
SPLINE
5
358
100
AcDbEntity
8
0
100
AcDbSpline
62
9
6
CONTINUOUS
70
0
71
3
72
12
73
8
74
6
42
0.0000001000
43
0.0000001000
44
0.0000000001
12
-0.0130830486
22
0.4999632445
32
0.0000000000
13
0.4999630104
23
0.0130919922
33
0.0000000000
40
0.0000000000
40
0.0000000000
40
0.0000000000
40
0.0000000000
40
0.3087680831
40
0.5872965221
40
0.8083749419
40
0.9504474066
40
1.0000000000
40
1.0000000000
40
1.0000000000
40
1.0000000000
10
-37.4858367421
20
21.7622522961
30
0.0000000000
10
-37.4871832847
20
21.8137098603
30
0.0000000000
10
-37.4900225633
20
21.9124982488
30
0.0000000000
10
-37.4892895066
20
22.0437710005
30
0.0000000000
10
-37.4960914420
20
22.1596696413
30
0.0000000000
10
-37.4823599144
20
22.2113969525
30
0.0000000000
10
-37.4940948922
20
22.2618647113
30
0.0000000000
10
-37.4858367377
20
22.2620809587
30
0.0000000000
11
-37.4858367421
21
21.7622522961
31
0.0000000000
11
-37.4892367502
21
21.9166404004
31
0.0000000000
11
-37.4910242022
21
22.0559305841
31
0.0000000000
11
-37.4910242401
21
22.1664995057
31
0.0000000000
11
-37.4892368207
21
22.2375323466
31
0.0000000000
11
-37.4858367377
21
22.2620809587
31
0.0000000000
0
ENDSEC
0
SECTION
2
OBJECTS
0
DICTIONARY
5
359
100
AcDbDictionary
3
ACAD_GROUP
350
35A
3
ACAD_MLINESTYLE
350
35B
0
DICTIONARY
5
35A
102
{ACAD_REACTORS
330
359
102
}
100
AcDbDictionary
0
DICTIONARY
5
35B
102
{ACAD_REACTORS
330
359
102
}
100
AcDbDictionary
3
STANDARD
350
35C
0
MLINESTYLE
5
35C
102
{ACAD_REACTORS
330
35B
102
}
100
AcDbMlineStyle
2
STANDARD
70
0
3

62
256
51
90.0
52
90.0
71
2
49
0.5
62
256
6
BYLAYER
49
-0.5
62
256
6
BYLAYER
0
ENDSEC
0
EOF
