0
SECTION
2
HEADER
9
$ACADVER
1
AC1014
9
$HANDSEED
5
       2EA
9
$EXTMAX
10
297.0000000000
20
210.0000000000
9
$EXTMIN
10
0.0000000000
20
0.0000000000
9
$LIMMIN
10
0.0000000000
20
0.0000000000
9
$LIMMAX
10
297.0000000000
20
210.0000000000
9
$VIEWCTR
10
148.5000000000
20
105.0000000000
9
$VIEWSIZE
40
210.0000000000
9
$CLAYER
8
0
9
$LTSCALE
40
16.3350000000
9
$CELTYPE
6
BYLAYER
9
$DIMSCALE
40
1
9
$DIMASZ
40
3.0000000000
9
$DIMEXO
40
1.8562500000
9
$DIMDLI
40
11.2860000000
9
$DIMEXE
40
5.3460000000
9
$DIMCEN
40
2.6730000000
9
$DIMLFAC
40
1.0000000000
9
$DIMTXT
40
3.0000000000
9
$DIMTOL
70
1
9
$DIMLIM
70
0
9
$DIMTFAC
40
1.0000000000
9
$DIMTP
40
0.0100000000
9
$DIMTM
40
0.0100000000
9
$MEASUREMENT
70
1
0
ENDSEC
0
SECTION
2
CLASSES
0
ENDSEC
0
SECTION
2
TABLES
0
TABLE
2
VPORT
5
8
100
AcDbSymbolTable
70
2
0
VPORT
5
1F4
100
AcDbSymbolTableRecord
100
AcDbViewportTableRecord
2
*ACTIVE
70
0
10
0.0
20
0.0
11
1.0
21
1.0
12
148.5000000000
22
105.0000000000
13
0.0
23
0.0
14
1.0
24
1.0
15
0.0
25
0.0
16
0.0
26
0.0
36
1.0
17
0.0
27
0.0
37
0.0
40
210.0000000000
41
1.4142857143
42
50.0
43
0.0
44
0.0
50
0.0
51
0.0
71
0
72
100
73
1
74
1
75
0
76
0
77
0
78
0
0
ENDTAB
0
TABLE
2
LTYPE
5
5
100
AcDbSymbolTable
70
6
0
LTYPE
5
14
100
AcDbSymbolTableRecord
100
AcDbLinetypeTableRecord
2
BYBLOCK
70
0
3

72
65
73
0
40
0.0
0
LTYPE
5
15
100
AcDbSymbolTableRecord
100
AcDbLinetypeTableRecord
2
BYLAYER
70
0
3

72
65
73
0
40
0.0
0
LTYPE
5
16
100
AcDbSymbolTableRecord
100
AcDbLinetypeTableRecord
2
CONTINUOUS
70
64
3
Solid line
72
65
73
0
40
0
0
LTYPE
5
1F5
100
AcDbSymbolTableRecord
100
AcDbLinetypeTableRecord
2
CENTER
70
64
3
____ _ ____ _ ____ _ ____ _ ____ _ ____ _ ____
72
65
73
4
40
0.6
49
0.375
74
0
49
-0.075
74
0
49
0.075
74
0
49
-0.075
74
0
0
LTYPE
5
1F6
100
AcDbSymbolTableRecord
100
AcDbLinetypeTableRecord
2
HIDDEN
70
64
3
- - - - - - - - - - - - - - - - - - - -
72
65
73
2
40
0.2
49
0.1
74
0
49
-0.1
74
0
0
LTYPE
5
1F7
100
AcDbSymbolTableRecord
100
AcDbLinetypeTableRecord
2
PHANTOM
70
64
3
_____ _ _ _____ _ _ _____ _ _ _____
72
65
73
6
40
0.8
49
0.45
74
0
49
-0.05
74
0
49
0.1
74
0
49
-0.05
74
0
49
0.1
74
0
49
-0.05
74
0
0
LTYPE
5
1F8
100
AcDbSymbolTableRecord
100
AcDbLinetypeTableRecord
2
DOT
70
64
3
. . . . . . . . . . . . . . . . . . . .
72
65
73
2
40
0.2
49
0.1
74
0
49
-0.1
74
0
0
LTYPE
5
1F9
100
AcDbSymbolTableRecord
100
AcDbLinetypeTableRecord
2
DASHED
70
64
3
- - - - - - - - - - - - - - - - - - - -
72
65
73
2
40
0.2
49
0.1
74
0
49
-0.1
74
0
0
ENDTAB
0
TABLE
2
LAYER
5
2
100
AcDbSymbolTable
70
36
0
LAYER
5
10
100
AcDbSymbolTableRecord
100
AcDbLayerTableRecord
2
0
70
0
62
7
6
CONTINUOUS
0
LAYER
5
1FA
100
AcDbSymbolTableRecord
100
AcDbLayerTableRecord
2
DEFAULT_1
70
0
62
7
6
CENTER
0
LAYER
5
1FB
100
AcDbSymbolTableRecord
100
AcDbLayerTableRecord
2
DEFAULT_2
70
0
62
8
6
HIDDEN
0
LAYER
5
1FC
100
AcDbSymbolTableRecord
100
AcDbLayerTableRecord
2
DEFAULT_3
70
0
62
7
6
PHANTOM
0
LAYER
5
1FD
100
AcDbSymbolTableRecord
100
AcDbLayerTableRecord
2
ASSI
70
0
62
7
6
CONTINUOUS
0
LAYER
5
1FE
100
AcDbSymbolTableRecord
100
AcDbLayerTableRecord
2
COORDINATE
70
0
62
7
6
CONTINUOUS
0
LAYER
5
1FF
100
AcDbSymbolTableRecord
100
AcDbLayerTableRecord
2
COORD_ORIGINE
70
0
62
7
6
CONTINUOUS
0
LAYER
5
200
100
AcDbSymbolTableRecord
100
AcDbLayerTableRecord
2
COPY_GEOMETRY
70
0
62
7
6
CONTINUOUS
0
LAYER
5
201
100
AcDbSymbolTableRecord
100
AcDbLayerTableRecord
2
CURVE
70
0
62
7
6
CONTINUOUS
0
LAYER
5
202
100
AcDbSymbolTableRecord
100
AcDbLayerTableRecord
2
DRAFT
70
0
62
7
6
CONTINUOUS
0
LAYER
5
203
100
AcDbSymbolTableRecord
100
AcDbLayerTableRecord
2
NOTE
70
0
62
7
6
CONTINUOUS
0
LAYER
5
204
100
AcDbSymbolTableRecord
100
AcDbLayerTableRecord
2
PIANI
70
0
62
7
6
CONTINUOUS
0
LAYER
5
205
100
AcDbSymbolTableRecord
100
AcDbLayerTableRecord
2
PIANI_ORIGINE
70
0
62
7
6
CONTINUOUS
0
LAYER
5
206
100
AcDbSymbolTableRecord
100
AcDbLayerTableRecord
2
PIANI_RIFERIMENTO
70
0
62
7
6
CONTINUOUS
0
LAYER
5
207
100
AcDbSymbolTableRecord
100
AcDbLayerTableRecord
2
PUNTI
70
0
62
7
6
CONTINUOUS
0
LAYER
5
208
100
AcDbSymbolTableRecord
100
AcDbLayerTableRecord
2
RACCORDO
70
0
62
7
6
CONTINUOUS
0
LAYER
5
209
100
AcDbSymbolTableRecord
100
AcDbLayerTableRecord
2
SMUSSO
70
0
62
7
6
CONTINUOUS
0
LAYER
5
20A
100
AcDbSymbolTableRecord
100
AcDbLayerTableRecord
2
SNAPLINE
70
0
62
7
6
CONTINUOUS
0
LAYER
5
20B
100
AcDbSymbolTableRecord
100
AcDbLayerTableRecord
2
SUPERFICI
70
0
62
7
6
CONTINUOUS
0
LAYER
5
20C
100
AcDbSymbolTableRecord
100
AcDbLayerTableRecord
2
TRASH
70
0
62
7
6
CONTINUOUS
0
LAYER
5
20D
100
AcDbSymbolTableRecord
100
AcDbLayerTableRecord
2
XSEC_DATUMS
70
0
62
7
6
CONTINUOUS
0
ENDTAB
0
TABLE
2
STYLE
5
3
100
AcDbSymbolTable
70
1
0
STYLE
5
11
100
AcDbSymbolTableRecord
100
AcDbTextStyleTableRecord
2
STANDARD
70
0
40
0.0
41
0.8000000000
50
0.0
71
0
42
0.2
3
txt
4

0
ENDTAB
0
TABLE
2
VIEW
5
6
100
AcDbSymbolTable
70
0
0
ENDTAB
0
TABLE
2
UCS
5
7
100
AcDbSymbolTable
70
0
0
ENDTAB
0
TABLE
2
APPID
5
9
100
AcDbSymbolTable
70
1
0
APPID
5
20E
100
AcDbSymbolTableRecord
100
AcDbRegAppTableRecord
2
ACAD
70
0
0
ENDTAB
0
TABLE
2
DIMSTYLE
5
A
100
AcDbSymbolTable
70
1
0
DIMSTYLE
105
20F
100
AcDbSymbolTableRecord
100
AcDbDimStyleTableRecord
2
STANDARD
70
0
3

4

5

6

7

40
1.0
41
3.0000000000
42
0.0625
43
0.38
44
0.18
45
0.0
46
0.0
47
0.0100000000
48
0.0100000000
140
3.0000000000
141
0.09
142
0.0
143
25.4
144
1.0000000000
145
0.0
146
1.0000000000
147
0.09
71
1
72
0
73
0
74
0
75
0
76
0
77
1
78
8
170
0
171
2
172
0
173
0
174
0
175
0
176
0
177
0
178
0
270
2
271
2
272
2
273
2
274
2
340
11
275
0
280
0
281
0
282
0
283
1
284
8
285
0
286
0
287
3
288
0
0
DIMSTYLE
105
210
100
AcDbSymbolTableRecord
100
AcDbDimStyleTableRecord
2
DIMSTYLE_1
70
0
3

4

5

6

7

40
1.0
41
3.0000000000
42
0.0625
43
0.38
44
0.18
45
0.0
46
0.0
47
0.0000000000
48
0.0000000000
140
3.0000000000
141
0.09
142
0.0
143
25.4
144
1.0000000000
145
0.0
146
1.0000000000
147
0.09
71
0
72
0
73
0
74
0
75
0
76
0
77
1
78
8
170
0
171
2
172
0
173
0
174
0
175
0
176
0
177
0
178
0
270
2
271
2
272
2
273
2
274
2
340
11
275
0
280
0
281
0
282
0
283
1
284
8
285
0
286
0
287
3
288
0
0
ENDTAB
0
TABLE
2
BLOCK_RECORD
5
1
100
AcDbSymbolTable
70
0
0
BLOCK_RECORD
5
1B
100
AcDbSymbolTableRecord
100
AcDbBlockTableRecord
2
*MODEL_SPACE
0
BLOCK_RECORD
5
1C
100
AcDbSymbolTableRecord
100
AcDbBlockTableRecord
2
*PAPER_SPACE
0
BLOCK_RECORD
5
211
100
AcDbSymbolTableRecord
100
AcDbBlockTableRecord
2
*D0
0
BLOCK_RECORD
5
212
100
AcDbSymbolTableRecord
100
AcDbBlockTableRecord
2
*D1
0
BLOCK_RECORD
5
213
100
AcDbSymbolTableRecord
100
AcDbBlockTableRecord
2
*D2
0
ENDTAB
0
ENDSEC
0
SECTION
2
BLOCKS
0
BLOCK
5
1E
100
AcDbEntity
8
0
100
AcDbBlockBegin
2
*MODEL_SPACE
70
0
10
0.0
20
0.0
30
0.0
3
*MODEL_SPACE
1

0
ENDBLK
5
1F
100
AcDbEntity
8
0
100
AcDbBlockEnd
0
BLOCK
5
20
100
AcDbEntity
8
0
100
AcDbBlockBegin
2
*PAPER_SPACE
70
0
10
0.0
20
0.0
30
0.0
3
*PAPER_SPACE
1

0
ENDBLK
5
21
100
AcDbEntity
8
0
100
AcDbBlockEnd
0
BLOCK
5
214
100
AcDbEntity
8
0
100
AcDbBlockBegin
62
7
6
CONTINUOUS
2
*D0
70
65
10
0.0000000000
20
0.0000000000
3
*D0
1

0
TEXT
5
215
100
AcDbEntity
8
0
100
AcDbText
62
7
6
CONTINUOUS
10
-14.1769566944
20
30.6071640331
7
STANDARD
40
3.0000000000
1
6
41
0.7857142857
72
0
100
AcDbText
0
LINE
5
216
100
AcDbEntity
8
0
100
AcDbLine
62
7
6
CONTINUOUS
10
-10.3727678156
20
21.7940166063
11
-10.3727678156
21
31.3571640331
0
LINE
5
217
100
AcDbEntity
8
0
100
AcDbLine
62
7
6
CONTINUOUS
10
-16.3727678156
20
0.1938452688
11
-16.3727678156
21
31.3571640331
0
LINE
5
218
100
AcDbEntity
8
0
100
AcDbLine
62
7
6
CONTINUOUS
10
-10.3727678156
20
29.8571640331
11
-6.3727678156
21
29.8571640331
0
LINE
5
219
100
AcDbEntity
8
0
100
AcDbLine
62
7
6
CONTINUOUS
10
-6.3727678156
20
29.8571640331
11
-13.3727678156
21
29.8571640331
0
LINE
5
21A
100
AcDbEntity
8
0
100
AcDbLine
62
7
6
CONTINUOUS
10
-16.3727678156
20
29.8571640331
11
-20.3727678156
21
29.8571640331
0
LINE
5
21B
100
AcDbEntity
8
0
100
AcDbLine
62
7
6
CONTINUOUS
10
-20.3727678156
20
29.8571640331
11
-13.3727678156
21
29.8571640331
0
SOLID
5
21C
100
AcDbEntity
8
0
100
AcDbTrace
62
7
6
CONTINUOUS
10
-7.3727678156
20
30.8071640331
11
-10.3727678156
21
29.8571640331
12
-7.3727678156
22
28.9071640331
13
-7.3727678156
23
28.9071640331
0
SOLID
5
21D
100
AcDbEntity
8
0
100
AcDbTrace
62
7
6
CONTINUOUS
10
-19.3727678156
20
28.9071640331
11
-16.3727678156
21
29.8571640331
12
-19.3727678156
22
30.8071640331
13
-19.3727678156
23
30.8071640331
0
ENDBLK
5
21E
100
AcDbEntity
8
0
100
AcDbBlockEnd
0
BLOCK
5
21F
100
AcDbEntity
8
0
100
AcDbBlockBegin
62
7
6
CONTINUOUS
2
*D1
70
65
10
0.0000000000
20
0.0000000000
3
*D1
1

0
TEXT
5
220
100
AcDbEntity
8
0
100
AcDbText
62
7
6
CONTINUOUS
10
18.3098653060
20
30.6071640331
7
STANDARD
40
3.0000000000
1
22
41
0.7857142857
72
0
100
AcDbText
0
LINE
5
221
100
AcDbEntity
8
0
100
AcDbLine
62
7
6
CONTINUOUS
10
8.5426992346
20
21.7940166063
11
8.5426992346
21
31.3571640331
0
LINE
5
222
100
AcDbEntity
8
0
100
AcDbLine
62
7
6
CONTINUOUS
10
30.5426992346
20
21.7940166063
11
30.5426992346
21
31.3571640331
0
LINE
5
223
100
AcDbEntity
8
0
100
AcDbLine
62
7
6
CONTINUOUS
10
8.5426992346
20
29.8571640331
11
19.5426992346
21
29.8571640331
0
LINE
5
224
100
AcDbEntity
8
0
100
AcDbLine
62
7
6
CONTINUOUS
10
30.5426992346
20
29.8571640331
11
19.5426992346
21
29.8571640331
0
SOLID
5
225
100
AcDbEntity
8
0
100
AcDbTrace
62
7
6
CONTINUOUS
10
11.5426992346
20
30.8071640331
11
8.5426992346
21
29.8571640331
12
11.5426992346
22
28.9071640331
13
11.5426992346
23
28.9071640331
0
SOLID
5
226
100
AcDbEntity
8
0
100
AcDbTrace
62
7
6
CONTINUOUS
10
27.5426992346
20
28.9071640331
11
30.5426992346
21
29.8571640331
12
27.5426992346
22
30.8071640331
13
27.5426992346
23
30.8071640331
0
ENDBLK
5
227
100
AcDbEntity
8
0
100
AcDbBlockEnd
0
BLOCK
5
228
100
AcDbEntity
8
0
100
AcDbBlockBegin
62
7
6
CONTINUOUS
2
*D2
70
65
10
0.0000000000
20
0.0000000000
3
*D2
1

0
TEXT
5
229
100
AcDbEntity
8
0
100
AcDbText
62
7
6
CONTINUOUS
10
38.0273722221
20
-4.3898051511
7
STANDARD
40
3.0000000000
1
44,2
50
90.0000000000
41
0.7321428571
72
0
100
AcDbText
0
LINE
5
22A
100
AcDbEntity
8
0
100
AcDbLine
62
7
6
CONTINUOUS
10
30.5428705721
20
21.7938452688
11
40.2773722221
21
21.7938452688
0
LINE
5
22B
100
AcDbEntity
8
0
100
AcDbLine
62
7
6
CONTINUOUS
10
30.5428705721
20
-22.4061547312
11
40.2773722221
21
-22.4061547312
0
LINE
5
22C
100
AcDbEntity
8
0
100
AcDbLine
62
7
6
CONTINUOUS
10
38.7773722221
20
21.7938452688
11
38.7773722221
21
-0.3061547312
0
LINE
5
22D
100
AcDbEntity
8
0
100
AcDbLine
62
7
6
CONTINUOUS
10
38.7773722221
20
-22.4061547312
11
38.7773722221
21
-0.3061547312
0
SOLID
5
22E
100
AcDbEntity
8
0
100
AcDbTrace
62
7
6
CONTINUOUS
10
39.7273722221
20
18.7938452688
11
38.7773722221
21
21.7938452688
12
37.8273722221
22
18.7938452688
13
37.8273722221
23
18.7938452688
0
SOLID
5
22F
100
AcDbEntity
8
0
100
AcDbTrace
62
7
6
CONTINUOUS
10
37.8273722221
20
-19.4061547312
11
38.7773722221
21
-22.4061547312
12
39.7273722221
22
-19.4061547312
13
39.7273722221
23
-19.4061547312
0
ENDBLK
5
230
100
AcDbEntity
8
0
100
AcDbBlockEnd
0
ENDSEC
0
SECTION
2
ENTITIES
0
DIMENSION
5
231
100
AcDbEntity
8
0
100
AcDbDimension
62
7
6
CONTINUOUS
2
*D0
10
-16.3727678156
20
29.8571640331
11
-12.9983852659
21
32.1071640331
70
160
3
DIMSTYLE_1
100
AcDbAlignedDimension
13
-10.3727678156
23
21.7940166063
14
-16.3727678156
24
0.1938452688
50
180.000000
100
AcDbRotatedDimension
0
DIMENSION
5
232
100
AcDbEntity
8
0
100
AcDbDimension
62
7
6
CONTINUOUS
2
*D1
10
30.5426992346
20
29.8571640331
11
20.6670081632
21
32.1071640331
70
160
3
DIMSTYLE_1
100
AcDbAlignedDimension
13
8.5426992346
23
21.7940166063
14
30.5426992346
24
21.7940166063
100
AcDbRotatedDimension
0
DIMENSION
5
233
100
AcDbEntity
8
0
100
AcDbDimension
62
7
6
CONTINUOUS
2
*D2
10
38.7773722221
20
-22.4061547312
11
36.5273722221
21
0.0030519918
70
160
3
DIMSTYLE_1
100
AcDbAlignedDimension
13
30.5428705721
23
21.7938452688
14
30.5428705721
24
-22.4061547312
50
270.000000
100
AcDbRotatedDimension
0
LINE
5
234
100
AcDbEntity
8
0
100
AcDbLine
62
7
6
CONTINUOUS
10
30.0428705721
20
-22.4061547312
11
9.0425278971
21
-22.4061547312
0
LINE
5
235
100
AcDbEntity
8
0
100
AcDbLine
62
9
6
CONTINUOUS
10
9.1464041920
20
-22.3022784363
11
29.9389942771
21
-22.3022784363
0
LINE
5
236
100
AcDbEntity
8
0
100
AcDbLine
62
9
6
CONTINUOUS
10
9.1590094712
20
-21.4510083740
11
29.9263889979
21
-21.4510083740
0
LINE
5
237
100
AcDbEntity
8
0
100
AcDbLine
62
9
6
CONTINUOUS
10
25.3375841116
20
-16.4683946733
11
13.7478143576
21
-16.4683946733
0
LINE
5
238
100
AcDbEntity
8
0
100
AcDbLine
62
7
6
CONTINUOUS
10
25.3375841116
20
-16.3590959922
11
13.7478143576
21
-16.3590959922
0
LINE
5
239
100
AcDbEntity
8
0
100
AcDbLine
62
7
6
CONTINUOUS
10
25.3375841116
20
-16.3561547312
11
24.0426992346
21
-16.3561547312
0
LINE
5
23A
100
AcDbEntity
8
0
100
AcDbLine
62
7
6
CONTINUOUS
10
15.0426992346
20
-16.3561547312
11
13.7478143576
21
-16.3561547312
0
LINE
5
23B
100
AcDbEntity
8
0
100
AcDbLine
62
7
6
CONTINUOUS
10
24.0426992346
20
-16.2561547312
11
25.3375841116
21
-16.2561547312
0
LINE
5
23C
100
AcDbEntity
8
0
100
AcDbLine
62
7
6
CONTINUOUS
10
25.3375841116
20
-16.2494749917
11
13.7478143576
21
-16.2494749917
0
LINE
5
23D
100
AcDbEntity
8
0
100
AcDbLine
62
9
6
CONTINUOUS
10
25.3375841116
20
-16.1584368906
11
13.7478143576
21
-16.1584368907
0
LINE
5
23E
100
AcDbEntity
8
0
100
AcDbLine
62
7
6
CONTINUOUS
10
8.5426992346
20
21.2940166063
11
8.5426992346
21
-21.9063260687
0
LINE
5
23F
100
AcDbEntity
8
0
100
AcDbLine
62
9
6
CONTINUOUS
10
9.1845320702
20
-9.8061547312
11
9.1845320702
21
9.1938452688
0
LINE
5
240
100
AcDbEntity
8
0
100
AcDbLine
62
9
6
CONTINUOUS
10
26.0545584222
20
-15.7262634269
11
26.0478413934
21
-15.7242013217
0
LINE
5
241
100
AcDbEntity
8
0
100
AcDbLine
62
9
6
CONTINUOUS
10
26.1501549970
20
-15.7556112530
11
26.1534701170
21
-15.7566289836
0
LINE
5
242
100
AcDbEntity
8
0
100
AcDbLine
62
9
6
CONTINUOUS
10
12.9352434722
20
-9.8566982095
11
12.9293183528
21
-9.8548792178
0
LINE
5
243
100
AcDbEntity
8
0
100
AcDbLine
62
9
6
CONTINUOUS
10
13.0308400469
20
-9.8860460356
11
13.0400869226
21
-9.8888847952
0
LINE
5
244
100
AcDbEntity
8
0
100
AcDbLine
62
9
6
CONTINUOUS
10
30.0428705721
20
21.7938452688
11
29.9389942771
21
21.6899689738
0
LINE
5
245
100
AcDbEntity
8
0
100
AcDbLine
62
9
6
CONTINUOUS
10
30.5426992346
20
21.2940166063
11
30.4388229396
21
21.1901403113
0
LINE
5
246
100
AcDbEntity
8
0
100
AcDbLine
62
9
6
CONTINUOUS
10
29.9008663990
20
-9.8061547312
11
26.2448716080
21
-9.8061547312
0
LINE
5
247
100
AcDbEntity
8
0
100
AcDbLine
62
9
6
CONTINUOUS
10
25.9022567257
20
-9.8061547312
11
13.1831417434
21
-9.8061547312
0
LINE
5
248
100
AcDbEntity
8
0
100
AcDbLine
62
9
6
CONTINUOUS
10
12.8405268612
20
-9.8061547312
11
9.1845320702
21
-9.8061547312
0
LINE
5
249
100
AcDbEntity
8
0
100
AcDbLine
62
9
6
CONTINUOUS
10
13.7478143576
20
-9.4677306956
11
25.3375841116
21
-9.4677306956
0
LINE
5
24A
100
AcDbEntity
8
0
100
AcDbLine
62
7
6
CONTINUOUS
10
13.7478143576
20
-9.3659021881
11
25.3375841116
21
-9.3659021881
0
LINE
5
24B
100
AcDbEntity
8
0
100
AcDbLine
62
7
6
CONTINUOUS
10
24.5426992346
20
-9.3613231366
11
14.5426992346
21
-9.3613231366
0
LINE
5
24C
100
AcDbEntity
8
0
100
AcDbLine
62
7
6
CONTINUOUS
10
15.0426992346
20
-9.3561547312
11
13.7478143576
21
-9.3561547312
0
LINE
5
24D
100
AcDbEntity
8
0
100
AcDbLine
62
7
6
CONTINUOUS
10
25.3375841116
20
-9.2561547312
11
13.7478143576
21
-9.2561547312
0
LINE
5
24E
100
AcDbEntity
8
0
100
AcDbLine
62
7
6
CONTINUOUS
10
13.7478143576
20
-9.2498483483
11
25.3375841116
21
-9.2498483483
0
LINE
5
24F
100
AcDbEntity
8
0
100
AcDbLine
62
9
6
CONTINUOUS
10
13.7478143576
20
-9.1516212493
11
25.3375841116
21
-9.1516212493
0
LINE
5
250
100
AcDbEntity
8
0
100
AcDbLine
62
9
6
CONTINUOUS
10
29.9389942771
20
-22.3022784363
11
30.0428705721
21
-22.4061547312
0
LINE
5
251
100
AcDbEntity
8
0
100
AcDbLine
62
9
6
CONTINUOUS
10
30.4388229396
20
-21.8024497738
11
30.5426992346
21
-21.9063260687
0
LINE
5
252
100
AcDbEntity
8
0
100
AcDbLine
62
9
6
CONTINUOUS
10
13.7478143576
20
-9.3561547312
11
13.7478143576
21
-9.4677306956
0
LINE
5
253
100
AcDbEntity
8
0
100
AcDbLine
62
9
6
CONTINUOUS
10
13.7478143576
20
-16.2561547312
11
13.7478143576
21
-16.1584368907
0
LINE
5
254
100
AcDbEntity
8
0
100
AcDbLine
62
9
6
CONTINUOUS
10
13.7478143576
20
-16.4683946733
11
13.7478143576
21
-16.3561547312
0
LINE
5
255
100
AcDbEntity
8
0
100
AcDbLine
62
9
6
CONTINUOUS
10
13.7478143576
20
-9.2561547312
11
13.7478143576
21
-9.1516212493
0
LINE
5
256
100
AcDbEntity
8
0
100
AcDbLine
62
9
6
CONTINUOUS
10
25.3375841116
20
-9.3561547312
11
25.3375841116
21
-9.4677306956
0
LINE
5
257
100
AcDbEntity
8
0
100
AcDbLine
62
9
6
CONTINUOUS
10
25.3375841116
20
-16.2561547312
11
25.3375841116
21
-16.1584368906
0
LINE
5
258
100
AcDbEntity
8
0
100
AcDbLine
62
9
6
CONTINUOUS
10
25.3375841116
20
-16.4683946733
11
25.3375841116
21
-16.3561547312
0
LINE
5
259
100
AcDbEntity
8
0
100
AcDbLine
62
9
6
CONTINUOUS
10
25.3375841116
20
-9.2561547312
11
25.3375841116
21
-9.1516212493
0
LINE
5
25A
100
AcDbEntity
8
0
100
AcDbLine
62
9
6
CONTINUOUS
10
29.9008663990
20
9.1938452688
11
29.9008663990
21
-9.8061547312
0
LINE
5
25B
100
AcDbEntity
8
0
100
AcDbLine
62
9
6
CONTINUOUS
10
8.5426992346
20
-21.9063260687
11
8.6465755295
21
-21.8024497738
0
LINE
5
25C
100
AcDbEntity
8
0
100
AcDbLine
62
9
6
CONTINUOUS
10
9.0425278971
20
-22.4061547312
11
9.1464041920
21
-22.3022784363
0
LINE
5
25D
100
AcDbEntity
8
0
100
AcDbLine
62
9
6
CONTINUOUS
10
29.9008663990
20
9.1938452688
11
9.1845320702
21
9.1938452688
0
LINE
5
25E
100
AcDbEntity
8
0
100
AcDbLine
62
9
6
CONTINUOUS
10
8.6465755295
20
21.1901403113
11
8.5426992346
21
21.2940166063
0
LINE
5
25F
100
AcDbEntity
8
0
100
AcDbLine
62
9
6
CONTINUOUS
10
9.1464041920
20
21.6899689738
11
9.0425278971
21
21.7938452688
0
LINE
5
260
100
AcDbEntity
8
0
100
AcDbLine
62
7
6
CONTINUOUS
10
30.5426992346
20
21.2940166063
11
30.5426992346
21
-21.9063260687
0
LINE
5
261
100
AcDbEntity
8
0
100
AcDbLine
62
9
6
CONTINUOUS
10
26.0545584222
20
-9.8860460356
11
26.0453115465
21
-9.8888847952
0
LINE
5
262
100
AcDbEntity
8
0
100
AcDbLine
62
9
6
CONTINUOUS
10
26.1501549970
20
-9.8566982095
11
26.1560801163
21
-9.8548792178
0
LINE
5
263
100
AcDbEntity
8
0
100
AcDbLine
62
9
6
CONTINUOUS
10
12.9352434722
20
-15.7556112530
11
12.9319283521
21
-15.7566289836
0
LINE
5
264
100
AcDbEntity
8
0
100
AcDbLine
62
9
6
CONTINUOUS
10
13.0308400470
20
-15.7262634269
11
13.0375570757
21
-15.7242013217
0
LINE
5
265
100
AcDbEntity
8
0
100
AcDbLine
62
9
6
CONTINUOUS
10
9.1590094712
20
20.8386989115
11
29.9263889979
21
20.8386989115
0
LINE
5
266
100
AcDbEntity
8
0
100
AcDbLine
62
9
6
CONTINUOUS
10
9.1464041920
20
21.6899689738
11
29.9389942771
21
21.6899689738
0
LINE
5
267
100
AcDbEntity
8
0
100
AcDbLine
62
7
6
CONTINUOUS
10
30.0428705721
20
21.7938452688
11
9.0425278971
21
21.7938452688
0
LINE
5
268
100
AcDbEntity
8
0
100
AcDbLine
62
7
6
CONTINUOUS
10
-14.3396434778
20
-22.3022784363
11
-10.3727678156
21
-22.4061547312
0
LINE
5
269
100
AcDbEntity
8
0
100
AcDbLine
62
9
6
CONTINUOUS
10
-14.3396434778
20
-21.8024497738
11
-10.3727678156
21
-21.9063260687
0
LINE
5
26A
100
AcDbEntity
8
0
100
AcDbLine
62
9
6
CONTINUOUS
10
-15.7956884014
20
-9.7966547312
11
-16.2825096246
21
-9.8061547304
0
LINE
5
26B
100
AcDbEntity
8
0
100
AcDbLine
62
7
6
CONTINUOUS
10
-10.3727678156
20
21.7938452688
11
-10.3727678156
21
-22.4061547312
0
LINE
5
26C
100
AcDbEntity
8
0
100
AcDbLine
62
9
6
CONTINUOUS
10
-15.7956884014
20
9.1843452688
11
-16.2825096682
21
9.1938452688
0
LINE
5
26D
100
AcDbEntity
8
0
100
AcDbLine
62
9
6
CONTINUOUS
10
-10.3727678156
20
21.2940166063
11
-14.3396434778
21
21.1901403113
0
LINE
5
26E
100
AcDbEntity
8
0
100
AcDbLine
62
7
6
CONTINUOUS
10
-10.3727678156
20
21.7938452688
11
-14.3396434778
21
21.6899689738
0
ARC
5
26F
100
AcDbEntity
8
0
100
AcDbCircle
62
7
6
CONTINUOUS
10
13.7478143576
20
-10.1061547312
40
0.7500000000
100
AcDbArc
50
90.0000000000
51
162.9336903541
0
ARC
5
270
100
AcDbEntity
8
0
100
AcDbCircle
62
7
6
CONTINUOUS
10
22.5426992346
20
-12.8061547312
40
9.9500000000
100
AcDbArc
50
162.9336903541
51
197.0663096459
0
ARC
5
271
100
AcDbEntity
8
0
100
AcDbCircle
62
7
6
CONTINUOUS
10
13.7478143576
20
-15.5061547312
40
0.7500000000
100
AcDbArc
50
197.0663096459
51
270.0000000000
0
ARC
5
272
100
AcDbEntity
8
0
100
AcDbCircle
62
7
6
CONTINUOUS
10
25.3375841116
20
-15.5061547312
40
0.7500000000
100
AcDbArc
50
270.0000000000
51
342.9336903541
0
ARC
5
273
100
AcDbEntity
8
0
100
AcDbCircle
62
7
6
CONTINUOUS
10
16.5426992346
20
-12.8061547312
40
9.9500000000
100
AcDbArc
50
342.9336903541
51
17.0663096459
0
ARC
5
274
100
AcDbEntity
8
0
100
AcDbCircle
62
7
6
CONTINUOUS
10
25.3375841116
20
-10.1061547312
40
0.7500000000
100
AcDbArc
50
17.0663096459
51
90.0000000000
0
ARC
5
275
100
AcDbEntity
8
0
100
AcDbCircle
62
7
6
CONTINUOUS
10
13.7478143576
20
-10.1061547312
40
0.8500000000
100
AcDbArc
50
90.0000000000
51
162.9336903541
0
ARC
5
276
100
AcDbEntity
8
0
100
AcDbCircle
62
7
6
CONTINUOUS
10
22.5426992346
20
-12.8061547312
40
10.0500000000
100
AcDbArc
50
162.9336903541
51
197.0663096459
0
ARC
5
277
100
AcDbEntity
8
0
100
AcDbCircle
62
7
6
CONTINUOUS
10
13.7478143576
20
-15.5061547312
40
0.8500000000
100
AcDbArc
50
197.0663096459
51
270.0000000000
0
ARC
5
278
100
AcDbEntity
8
0
100
AcDbCircle
62
7
6
CONTINUOUS
10
25.3375841116
20
-15.5061547312
40
0.8500000000
100
AcDbArc
50
270.0000000000
51
342.9336903541
0
ARC
5
279
100
AcDbEntity
8
0
100
AcDbCircle
62
7
6
CONTINUOUS
10
16.5426992346
20
-12.8061547312
40
10.0500000000
100
AcDbArc
50
342.9336903541
51
17.0663096459
0
ARC
5
27A
100
AcDbEntity
8
0
100
AcDbCircle
62
7
6
CONTINUOUS
10
25.3375841116
20
-10.1061547312
40
0.8500000000
100
AcDbArc
50
17.0663096459
51
90.0000000000
0
ARC
5
27B
100
AcDbEntity
8
0
100
AcDbCircle
62
7
6
CONTINUOUS
10
-14.3134665295
20
-21.3026211113
40
1.0000000000
100
AcDbArc
50
188.5334776264
51
268.5000000000
0
ARC
5
27C
100
AcDbEntity
8
0
100
AcDbCircle
62
7
6
CONTINUOUS
10
73.7012438645
20
-8.0961547312
40
90.0000000000
100
AcDbArc
50
181.0886853200
51
188.5334776264
0
ARC
5
27D
100
AcDbEntity
8
0
100
AcDbCircle
62
7
6
CONTINUOUS
10
483.6272321844
20
-0.3061547312
40
500.0000000000
100
AcDbArc
50
178.9113146800
51
181.0886853200
0
ARC
5
27E
100
AcDbEntity
8
0
100
AcDbCircle
62
7
6
CONTINUOUS
10
73.7012438645
20
7.4838452688
40
90.0000000000
100
AcDbArc
50
171.4665223736
51
178.9113146800
0
ARC
5
27F
100
AcDbEntity
8
0
100
AcDbCircle
62
7
6
CONTINUOUS
10
-14.3134665295
20
20.6903116488
40
1.0000000000
100
AcDbArc
50
91.5000000000
51
171.4665223736
0
SPLINE
5
280
100
AcDbEntity
8
0
100
AcDbSpline
62
7
6
CONTINUOUS
70
0
71
3
72
15
73
11
74
9
42
0.0000001000
43
0.0000001000
44
0.0000000001
12
0.7179147295
22
0.0000134509
32
0.0000000000
13
0.4057164895
23
-0.5925566017
33
0.0000000000
40
0.0000000000
40
0.0000000000
40
0.0000000000
40
0.0000000000
40
0.1776876289
40
0.3370622404
40
0.4815069498
40
0.6128003795
40
0.7320509215
40
0.8403629730
40
0.9389858170
40
1.0000000000
40
1.0000000000
40
1.0000000000
40
1.0000000000
10
25.3375841116
20
-9.3659021881
30
0.0000000000
10
25.3801056336
20
-9.3659013914
30
0.0000000000
10
25.4609481355
20
-9.3728886716
30
0.0000000000
10
25.5730113489
20
-9.4014975918
30
0.0000000000
10
25.6693463154
20
-9.4419208012
30
0.0000000000
10
25.7510671890
20
-9.4899251160
30
0.0000000000
10
25.8194461623
20
-9.5421938991
30
0.0000000000
10
25.8759650635
20
-9.5962403420
30
0.0000000000
10
25.9176983300
20
-9.6450519104
30
0.0000000000
10
25.9402198072
20
-9.6759434572
30
0.0000000000
10
25.9484712939
20
-9.6879949095
30
0.0000000000
11
25.3375841116
21
-9.3659021881
31
0.0000000000
11
25.4646744048
21
-9.3768919962
31
0.0000000000
11
25.5755386540
21
-9.4051843159
31
0.0000000000
11
25.6711602556
21
-9.4453089803
31
0.0000000000
11
25.7524340758
21
-9.4930482725
31
0.0000000000
11
25.8204509347
21
-9.5450393641
31
0.0000000000
11
25.8766506067
21
-9.5987797633
31
0.0000000000
11
25.9226619950
21
-9.6525941439
31
0.0000000000
11
25.9484712939
21
-9.6879949095
31
0.0000000000
0
SPLINE
5
281
100
AcDbEntity
8
0
100
AcDbSpline
62
7
6
CONTINUOUS
70
0
71
3
72
9
73
5
74
3
42
0.0000001000
43
0.0000001000
44
0.0000000001
12
0.0457048196
22
-0.0667527529
32
0.0000000000
13
0.0381405341
23
-0.0713162137
33
0.0000000000
40
0.0000000000
40
0.0000000000
40
0.0000000000
40
0.0000000000
40
0.2598672760
40
1.0000000000
40
1.0000000000
40
1.0000000000
40
1.0000000000
10
25.9484712939
20
-9.6879949095
30
0.0000000000
10
25.9524303562
20
-9.6937771949
30
0.0000000000
10
25.9673496169
20
-9.7162447308
30
0.0000000000
10
25.9810308606
20
-9.7395131093
30
0.0000000000
10
25.9904405464
20
-9.7571075971
30
0.0000000000
11
25.9484712939
21
-9.6879949095
31
0.0000000000
11
25.9601008069
21
-9.7055084313
31
0.0000000000
11
25.9904405464
21
-9.7571075971
31
0.0000000000
0
SPLINE
5
282
100
AcDbEntity
8
0
100
AcDbSpline
62
7
6
CONTINUOUS
70
0
71
3
72
17
73
13
74
11
42
0.0000001000
43
0.0000001000
44
0.0000000001
12
1.7387515961
22
-5.6603771457
32
0.0000000000
13
-1.7338289882
23
-5.6618869279
33
0.0000000000
40
0.0000000000
40
0.0000000000
40
0.0000000000
40
0.0000000000
40
0.0648235711
40
0.1455011488
40
0.2388557738
40
0.3419488116
40
0.4518387365
40
0.5655789732
40
0.6802184290
40
0.7928116576
40
0.9004358328
40
1.0000000000
40
1.0000000000
40
1.0000000000
40
1.0000000000
10
26.0453115465
20
-9.8888847952
30
0.0000000000
10
26.0828822424
20
-10.0111934153
30
0.0000000000
10
26.1619237707
20
-10.2873768117
30
0.0000000000
10
26.2719420421
20
-10.7459971800
30
0.0000000000
10
26.3718857025
20
-11.2840685892
30
0.0000000000
10
26.4474315326
20
-11.8843640463
30
0.0000000000
10
26.4872935870
20
-12.5284804108
30
0.0000000000
10
26.4841237779
20
-13.1966624616
30
0.0000000000
10
26.4351951418
20
-13.8684189675
30
0.0000000000
10
26.3426761517
20
-14.5233590621
30
0.0000000000
10
26.2135656478
20
-15.1416244795
30
0.0000000000
10
26.1053838065
20
-15.5362943027
30
0.0000000000
10
26.0478413934
20
-15.7242013217
30
0.0000000000
11
26.0453115465
21
-9.8888847952
31
0.0000000000
11
26.1509249004
21
-10.2579165299
31
0.0000000000
11
26.2623643424
21
-10.7224621546
31
0.0000000000
11
26.3633146341
21
-11.2659575109
31
0.0000000000
11
26.4395374172
21
-11.8716365616
31
0.0000000000
11
26.4797296474
21
-12.5210976718
31
0.0000000000
11
26.4765344493
21
-13.1945929574
31
0.0000000000
11
26.4272210804
21
-13.8716269167
31
0.0000000000
11
26.3339662269
21
-14.5317837404
31
0.0000000000
11
26.2036924345
21
-15.1556135565
31
0.0000000000
11
26.0478413934
21
-15.7242013217
31
0.0000000000
0
SPLINE
5
283
100
AcDbEntity
8
0
100
AcDbSpline
62
7
6
CONTINUOUS
70
0
71
3
72
8
73
4
74
2
42
0.0000001000
43
0.0000001000
44
0.0000000001
12
-0.0035576846
22
-0.0116082220
32
0.0000000000
13
-0.0037505103
23
-0.0115547438
33
0.0000000000
40
0.0000000000
40
0.0000000000
40
0.0000000000
40
0.0000000000
40
1.0000000000
40
1.0000000000
40
1.0000000000
40
1.0000000000
10
26.0478413934
20
-15.7242013217
30
0.0000000000
10
26.0466554985
20
-15.7280707290
30
0.0000000000
10
26.0454373412
20
-15.7319315202
30
0.0000000000
10
26.0441871711
20
-15.7357831015
30
0.0000000000
11
26.0478413934
21
-15.7242013217
31
0.0000000000
11
26.0441871711
21
-15.7357831015
31
0.0000000000
0
SPLINE
5
284
100
AcDbEntity
8
0
100
AcDbSpline
62
7
6
CONTINUOUS
70
0
71
3
72
8
73
4
74
2
42
0.0000001000
43
0.0000001000
44
0.0000000001
12
-0.0156927383
22
-0.0483469062
32
0.0000000000
13
-0.0190005784
23
-0.0472489720
33
0.0000000000
40
0.0000000000
40
0.0000000000
40
0.0000000000
40
0.0000000000
40
1.0000000000
40
1.0000000000
40
1.0000000000
40
1.0000000000
10
26.0441871711
20
-15.7357831015
30
0.0000000000
10
26.0389562583
20
-15.7518987369
30
0.0000000000
10
26.0331648920
20
-15.7678531319
30
0.0000000000
10
26.0268313658
20
-15.7836027892
30
0.0000000000
11
26.0441871711
21
-15.7357831015
31
0.0000000000
11
26.0268313658
21
-15.7836027892
31
0.0000000000
0
SPLINE
5
285
100
AcDbEntity
8
0
100
AcDbSpline
62
7
6
CONTINUOUS
70
0
71
3
72
12
73
8
74
6
42
0.0000001000
43
0.0000001000
44
0.0000000001
12
-0.3293429633
22
-0.8189811975
32
0.0000000000
13
-0.8805425978
23
-0.0001001611
33
0.0000000000
40
0.0000000000
40
0.0000000000
40
0.0000000000
40
0.0000000000
40
0.1427374908
40
0.3571456971
40
0.5723149975
40
0.7863757891
40
1.0000000000
40
1.0000000000
40
1.0000000000
40
1.0000000000
10
26.0268313658
20
-15.7836027892
30
0.0000000000
10
26.0111615031
20
-15.8225692296
30
0.0000000000
10
25.9636499526
20
-15.9169319948
30
0.0000000000
10
25.8569992776
20
-16.0489634994
30
0.0000000000
10
25.7033438220
20
-16.1624678188
30
0.0000000000
10
25.5263976646
20
-16.2334106088
30
0.0000000000
10
25.4002858508
20
-16.2494678594
30
0.0000000000
10
25.3375841116
20
-16.2494749917
30
0.0000000000
11
26.0268313658
21
-15.7836027892
31
0.0000000000
11
25.9701427643
21
-15.8960836146
31
0.0000000000
11
25.8515357156
21
-16.0429717745
31
0.0000000000
11
25.6991399115
21
-16.1555452350
31
0.0000000000
11
25.5241754160
21
-16.2256578036
31
0.0000000000
11
25.3375841116
21
-16.2494749917
31
0.0000000000
0
SPLINE
5
286
100
AcDbEntity
8
0
100
AcDbSpline
62
7
6
CONTINUOUS
70
0
71
3
72
12
73
8
74
6
42
0.0000001000
43
0.0000001000
44
0.0000000001
12
-0.8805428392
22
0.0001281816
32
0.0000000000
13
-0.3293405012
23
0.8189821670
33
0.0000000000
40
0.0000000000
40
0.0000000000
40
0.0000000000
40
0.0000000000
40
0.2136232979
40
0.4276487217
40
0.6428120804
40
0.8572545345
40
1.0000000000
40
1.0000000000
40
1.0000000000
40
1.0000000000
10
13.7478143576
20
-16.2494749917
30
0.0000000000
10
13.6851128692
20
-16.2494658641
30
0.0000000000
10
13.5590116487
20
-16.2334129349
30
0.0000000000
10
13.3820762872
20
-16.1624777720
30
0.0000000000
10
13.2284169511
20
-16.0489823771
30
0.0000000000
10
13.1217560832
20
-15.9169447561
30
0.0000000000
10
13.0742367147
20
-15.8225715016
30
0.0000000000
10
13.0585660937
20
-15.7836028381
30
0.0000000000
11
13.7478143576
21
-16.2494749917
31
0.0000000000
11
13.5612237864
21
-16.2256579949
31
0.0000000000
11
13.3862865997
21
-16.1555608609
31
0.0000000000
11
13.2338897034
21
-16.0429975962
31
0.0000000000
11
13.1152593054
21
-15.8960894622
31
0.0000000000
11
13.0585660937
21
-15.7836028381
31
0.0000000000
0
SPLINE
5
287
100
AcDbEntity
8
0
100
AcDbSpline
62
7
6
CONTINUOUS
70
0
71
3
72
8
73
4
74
2
42
0.0000001000
43
0.0000001000
44
0.0000000001
12
-0.0190003492
22
0.0472488111
32
0.0000000000
13
-0.0156915138
23
0.0483470501
33
0.0000000000
40
0.0000000000
40
0.0000000000
40
0.0000000000
40
0.0000000000
40
1.0000000000
40
1.0000000000
40
1.0000000000
40
1.0000000000
10
13.0585660937
20
-15.7836028381
30
0.0000000000
10
13.0522326439
20
-15.7678532344
30
0.0000000000
10
13.0464414815
20
-15.7518988553
30
0.0000000000
10
13.0412109770
20
-15.7357831719
30
0.0000000000
11
13.0585660937
21
-15.7836028381
31
0.0000000000
11
13.0412109770
21
-15.7357831719
31
0.0000000000
0
SPLINE
5
288
100
AcDbEntity
8
0
100
AcDbSpline
62
7
6
CONTINUOUS
70
0
71
3
72
8
73
4
74
2
42
0.0000001000
43
0.0000001000
44
0.0000000001
12
-0.0037502256
22
0.0115548028
32
0.0000000000
13
-0.0035573260
23
0.0116083042
33
0.0000000000
40
0.0000000000
40
0.0000000000
40
0.0000000000
40
0.0000000000
40
1.0000000000
40
1.0000000000
40
1.0000000000
40
1.0000000000
10
13.0412109770
20
-15.7357831719
30
0.0000000000
10
13.0399609017
20
-15.7319315710
30
0.0000000000
10
13.0387428511
20
-15.7280707564
30
0.0000000000
10
13.0375570757
20
-15.7242013217
30
0.0000000000
11
13.0412109770
21
-15.7357831719
31
0.0000000000
11
13.0375570757
21
-15.7242013217
31
0.0000000000
0
SPLINE
5
289
100
AcDbEntity
8
0
100
AcDbSpline
62
7
6
CONTINUOUS
70
0
71
3
72
17
73
13
74
11
42
0.0000001000
43
0.0000001000
44
0.0000000001
12
-1.7338325374
22
5.6618942902
32
0.0000000000
13
1.7387537040
23
5.6603849496
33
0.0000000000
40
0.0000000000
40
0.0000000000
40
0.0000000000
40
0.0000000000
40
0.0964395763
40
0.2017400239
40
0.3127718918
40
0.4265719851
40
0.5401538732
40
0.6505275554
40
0.7547051027
40
0.8497034381
40
0.9325428880
40
1.0000000000
40
1.0000000000
40
1.0000000000
40
1.0000000000
10
13.0375570757
20
-15.7242013217
30
0.0000000000
10
12.9818203840
20
-15.5421910929
30
0.0000000000
10
12.8761305424
20
-15.1580139292
30
0.0000000000
10
12.7483105033
20
-14.5536410087
30
0.0000000000
10
12.6547048465
20
-13.9082968040
30
0.0000000000
10
12.6031954968
20
-13.2418098271
30
0.0000000000
10
12.5968815842
20
-12.5746658738
30
0.0000000000
10
12.6339249460
20
-11.9275867800
30
0.0000000000
10
12.7077422691
20
-11.3206762808
30
0.0000000000
10
12.8076199461
20
-10.7727622095
30
0.0000000000
10
12.9195647701
20
-10.3015195342
30
0.0000000000
10
13.0009898215
20
-10.0161625357
30
0.0000000000
10
13.0400869226
20
-9.8888847952
30
0.0000000000
11
13.0375570757
21
-15.7242013217
31
0.0000000000
11
12.8860846588
21
-15.1735972657
31
0.0000000000
11
12.7570662737
21
-14.5635630654
31
0.0000000000
11
12.6626909738
21
-13.9129054286
31
0.0000000000
11
12.6107665521
21
-13.2410507165
31
0.0000000000
11
12.6044014965
21
-12.5685147011
31
0.0000000000
11
12.6417546965
21
-11.9160139929
31
0.0000000000
11
12.7162350789
21
-11.3036477071
31
0.0000000000
11
12.8171129939
21
-10.7502417641
31
0.0000000000
11
12.9304837880
21
-10.2729954718
31
0.0000000000
11
13.0400869226
21
-9.8888847952
31
0.0000000000
0
SPLINE
5
28A
100
AcDbEntity
8
0
100
AcDbSpline
62
7
6
CONTINUOUS
70
0
71
3
72
9
73
5
74
3
42
0.0000001000
43
0.0000001000
44
0.0000000001
12
0.0425895761
22
0.0796347546
32
0.0000000000
13
0.0519767516
23
0.0738769131
33
0.0000000000
40
0.0000000000
40
0.0000000000
40
0.0000000000
40
0.0000000000
40
0.5857054939
40
1.0000000000
40
1.0000000000
40
1.0000000000
40
1.0000000000
10
13.0949579228
20
-9.7571075971
30
0.0000000000
10
13.1032729057
20
-9.7415600927
30
0.0000000000
10
13.1184233743
20
-9.7155132243
30
0.0000000000
10
13.1351265929
20
-9.6904497861
30
0.0000000000
10
13.1423044871
20
-9.6802475197
30
0.0000000000
11
13.0949579228
21
-9.7571075971
31
0.0000000000
11
13.1215530034
21
-9.7113858715
31
0.0000000000
11
13.1423044871
21
-9.6802475197
31
0.0000000000
0
SPLINE
5
28B
100
AcDbEntity
8
0
100
AcDbSpline
62
7
6
CONTINUOUS
70
0
71
3
72
16
73
12
74
10
42
0.0000001000
43
0.0000001000
44
0.0000000001
12
0.4078245104
22
0.5796594625
32
0.0000000000
13
0.7085838442
23
-0.0000264284
33
0.0000000000
40
0.0000000000
40
0.0000000000
40
0.0000000000
40
0.0000000000
40
0.0274638353
40
0.1144812072
40
0.2093374153
40
0.3130556374
40
0.4265745634
40
0.5507200412
40
0.6864492008
40
0.8353168356
40
1.0000000000
40
1.0000000000
40
1.0000000000
40
1.0000000000
10
13.1423044871
20
-9.6802475197
30
0.0000000000
10
13.1460379622
20
-9.6749409623
30
0.0000000000
10
13.1618914866
20
-9.6530254699
30
0.0000000000
10
13.1930584537
20
-9.6145667255
30
0.0000000000
10
13.2399892736
20
-9.5659848567
30
0.0000000000
10
13.2960978195
20
-9.5179892573
30
0.0000000000
10
13.3626126467
20
-9.4721297338
30
0.0000000000
10
13.4406179655
20
-9.4305390522
30
0.0000000000
10
13.5310467860
20
-9.3959455745
30
0.0000000000
10
13.6347188118
20
-9.3717652082
30
0.0000000000
10
13.7089170810
20
-9.3659007373
30
0.0000000000
10
13.7478143576
20
-9.3659021881
30
0.0000000000
11
13.1423044871
21
-9.6802475197
31
0.0000000000
11
13.1537129627
21
-9.6644768288
31
0.0000000000
11
13.1925343823
21
-9.6165733584
31
0.0000000000
11
13.2392331908
21
-9.5682320079
31
0.0000000000
11
13.2950815121
21
-9.5204596898
31
0.0000000000
11
13.3613050505
21
-9.4748015816
31
0.0000000000
11
13.4389291316
21
-9.4334158405
31
0.0000000000
11
13.5287559760
21
-9.3990521554
31
0.0000000000
11
13.6314854615
21
-9.3750984409
31
0.0000000000
11
13.7478143576
21
-9.3659021881
31
0.0000000000
0
SPLINE
5
28C
100
AcDbEntity
8
0
100
AcDbSpline
62
9
6
CONTINUOUS
70
0
71
3
72
16
73
12
74
10
42
0.0000001000
43
0.0000001000
44
0.0000000001
12
0.6909310381
22
0.0000275297
32
0.0000000000
13
0.3258050438
23
-0.6092920265
33
0.0000000000
40
0.0000000000
40
0.0000000000
40
0.0000000000
40
0.0000000000
40
0.1593720899
40
0.3026647174
40
0.4325324946
40
0.5505781362
40
0.6577982057
40
0.7551839200
40
0.8438572136
40
0.9250360833
40
1.0000000000
40
1.0000000000
40
1.0000000000
40
1.0000000000
10
25.3375841116
20
-9.4677306956
30
0.0000000000
10
25.3742891528
20
-9.4677292331
30
0.0000000000
10
25.4441527089
20
-9.4737560508
30
0.0000000000
10
25.5410403366
20
-9.4984677022
30
0.0000000000
10
25.6244063931
20
-9.5334280423
30
0.0000000000
10
25.6951244676
20
-9.5749590835
30
0.0000000000
10
25.7542970625
20
-9.6201842213
30
0.0000000000
10
25.8032050270
20
-9.6669511387
30
0.0000000000
10
25.8432624338
20
-9.7138040062
30
0.0000000000
10
25.8758669620
20
-9.7598895155
30
0.0000000000
10
25.8941155183
20
-9.7909297590
30
0.0000000000
10
25.9022567257
20
-9.8061547312
30
0.0000000000
11
25.3375841116
21
-9.4677306956
31
0.0000000000
11
25.4472913501
21
-9.4771997121
31
0.0000000000
11
25.5432281370
21
-9.5016575753
31
0.0000000000
11
25.6259753649
21
-9.5363607659
31
0.0000000000
11
25.6963067467
21
-9.5776615932
31
0.0000000000
11
25.7551661187
21
-9.6226467991
31
0.0000000000
11
25.8037981030
21
-9.6691488987
31
0.0000000000
11
25.8436120408
21
-9.7157161798
31
0.0000000000
11
25.8760063573
21
-9.7615046529
31
0.0000000000
11
25.9022567257
21
-9.8061547312
31
0.0000000000
0
SPLINE
5
28D
100
AcDbEntity
8
0
100
AcDbSpline
62
9
6
CONTINUOUS
70
0
71
3
72
9
73
5
74
3
42
0.0000001000
43
0.0000001000
44
0.0000000001
12
0.0673971723
22
-0.1260207736
32
0.0000000000
13
0.0419568171
23
-0.1366134683
33
0.0000000000
40
0.0000000000
40
0.0000000000
40
0.0000000000
40
0.0000000000
40
0.5004532189
40
1.0000000000
40
1.0000000000
40
1.0000000000
40
1.0000000000
10
25.9904405464
20
-9.7571075971
30
0.0000000000
10
26.0016835903
20
-9.7781300977
30
0.0000000000
10
26.0221307421
20
-9.8212481398
30
0.0000000000
10
26.0383250822
20
-9.8661365224
30
0.0000000000
10
26.0453115465
20
-9.8888847952
30
0.0000000000
11
25.9904405464
21
-9.7571075971
31
0.0000000000
11
26.0210841449
21
-9.8217306115
31
0.0000000000
11
26.0453115465
21
-9.8888847952
31
0.0000000000
0
SPLINE
5
28E
100
AcDbEntity
8
0
100
AcDbSpline
62
9
6
CONTINUOUS
70
0
71
3
72
9
73
5
74
3
42
0.0000001000
43
0.0000001000
44
0.0000000001
12
0.0583008127
22
-0.1091278062
32
0.0000000000
13
0.0362857216
23
-0.1182844422
33
0.0000000000
40
0.0000000000
40
0.0000000000
40
0.0000000000
40
0.0000000000
40
0.5019871425
40
1.0000000000
40
1.0000000000
40
1.0000000000
40
1.0000000000
10
25.9022567257
20
-9.8061547312
30
0.0000000000
10
25.9120121452
20
-9.8244149831
30
0.0000000000
10
25.9296947451
20
-9.8617540674
30
0.0000000000
10
25.9436950265
20
-9.9006225612
30
0.0000000000
10
25.9497186118
20
-9.9202582856
30
0.0000000000
11
25.9022567257
21
-9.8061547312
31
0.0000000000
11
25.9288371094
21
-9.8622878611
31
0.0000000000
11
25.9497186118
21
-9.9202582856
31
0.0000000000
0
SPLINE
5
28F
100
AcDbEntity
8
0
100
AcDbSpline
62
9
6
CONTINUOUS
70
0
71
3
72
10
73
6
74
4
42
0.0000001000
43
0.0000001000
44
0.0000000001
12
0.0010968821
22
-0.1009182008
32
0.0000000000
13
-0.0890023646
23
-0.0475842988
33
0.0000000000
40
0.0000000000
40
0.0000000000
40
0.0000000000
40
0.0000000000
40
0.1373576584
40
0.5033321860
40
1.0000000000
40
1.0000000000
40
1.0000000000
40
1.0000000000
10
25.9904416046
20
-9.7571070313
30
0.0000000000
10
25.9904918263
20
-9.7617276606
30
0.0000000000
10
25.9670761879
20
-9.7657362216
30
0.0000000000
10
25.9451559931
20
-9.7858282164
30
0.0000000000
10
25.9169915957
20
-9.7982768677
30
0.0000000000
10
25.9022567257
20
-9.8061547309
30
0.0000000000
11
25.9904416046
21
-9.7571070313
31
0.0000000000
11
25.9786338851
21
-9.7643701156
31
0.0000000000
11
25.9463550197
21
-9.7823233533
31
0.0000000000
11
25.9022567257
21
-9.8061547309
31
0.0000000000
0
SPLINE
5
290
100
AcDbEntity
8
0
100
AcDbSpline
62
9
6
CONTINUOUS
70
0
71
3
72
17
73
13
74
11
42
0.0000001000
43
0.0000001000
44
0.0000000001
12
1.7192339011
22
-5.6030371011
32
0.0000000000
13
-1.7101622610
23
-5.6058494935
33
0.0000000000
40
0.0000000000
40
0.0000000000
40
0.0000000000
40
0.0000000000
40
0.0648909568
40
0.1456662558
40
0.2391376260
40
0.3423636214
40
0.4523989549
40
0.5662921268
40
0.6810854546
40
0.7938262187
40
0.9015863995
40
1.0000000000
40
1.0000000000
40
1.0000000000
40
1.0000000000
10
25.9497186118
20
-9.9202582856
30
0.0000000000
10
25.9869061894
20
-10.0414537650
30
0.0000000000
10
26.0651490693
20
-10.3151460204
30
0.0000000000
10
26.1740597805
20
-10.7696391913
30
0.0000000000
10
26.2730035705
20
-11.3028951283
30
0.0000000000
10
26.3477961253
20
-11.8978281559
30
0.0000000000
10
26.3872630052
20
-12.5362018582
30
0.0000000000
10
26.3841272674
20
-13.1984351949
30
0.0000000000
10
26.3356881462
20
-13.8642121621
30
0.0000000000
10
26.2440932635
20
-14.5133153905
30
0.0000000000
10
26.1167826684
20
-15.1236272534
30
0.0000000000
10
26.0104867286
20
-15.5124133758
30
0.0000000000
10
25.9543856534
20
-15.6963106534
30
0.0000000000
11
25.9497186118
21
-9.9202582856
31
0.0000000000
11
26.0542550498
21
-10.2859268166
31
0.0000000000
11
26.1645764747
21
-10.7463065552
31
0.0000000000
11
26.2645169136
21
-11.2849367506
31
0.0000000000
11
26.3399800996
21
-11.8852059733
31
0.0000000000
11
26.3797742415
21
-12.5288797580
31
0.0000000000
11
26.3766133617
21
-13.1963852787
31
0.0000000000
11
26.3277924807
21
-13.8674002987
31
0.0000000000
11
26.2354683044
21
-14.5216774273
31
0.0000000000
11
26.1064975258
21
-15.1399371723
31
0.0000000000
11
25.9543856534
21
-15.6963106534
31
0.0000000000
0
SPLINE
5
291
100
AcDbEntity
8
0
100
AcDbSpline
62
9
6
CONTINUOUS
70
0
71
3
72
8
73
4
74
2
42
0.0000001000
43
0.0000001000
44
0.0000000001
12
-0.0021346071
22
-0.0069971642
32
0.0000000000
13
-0.0021397822
23
-0.0069955373
33
0.0000000000
40
0.0000000000
40
0.0000000000
40
0.0000000000
40
0.0000000000
40
1.0000000000
40
1.0000000000
40
1.0000000000
40
1.0000000000
10
25.9543856534
20
-15.6963106534
30
0.0000000000
10
25.9536741177
20
-15.6986430414
30
0.0000000000
10
25.9529617194
20
-15.7009751587
30
0.0000000000
10
25.9522484587
20
-15.7033070045
30
0.0000000000
11
25.9543856534
21
-15.6963106534
31
0.0000000000
11
25.9522484587
21
-15.7033070045
31
0.0000000000
0
SPLINE
5
292
100
AcDbEntity
8
0
100
AcDbSpline
62
9
6
CONTINUOUS
70
0
71
3
72
10
73
6
74
4
42
0.0000001000
43
0.0000001000
44
0.0000000001
12
-0.0125714143
22
-0.0998440306
32
0.0000000000
13
-0.0961994952
23
-0.0295385854
33
0.0000000000
40
0.0000000000
40
0.0000000000
40
0.0000000000
40
0.0000000000
40
0.1373329285
40
0.5031517578
40
1.0000000000
40
1.0000000000
40
1.0000000000
40
1.0000000000
10
26.0453114977
20
-9.8888848102
30
0.0000000000
10
26.0447360080
20
-9.8934554346
30
0.0000000000
10
26.0205754842
20
-9.8930752451
30
0.0000000000
10
25.9957446479
20
-9.9085265864
30
0.0000000000
10
25.9656507952
20
-9.9153662206
30
0.0000000000
10
25.9497186118
20
-9.9202582853
30
0.0000000000
11
26.0453114977
21
-9.8888848102
31
0.0000000000
11
26.0324161733
21
-9.8938554005
31
0.0000000000
11
25.9974385920
21
-9.9053350025
31
0.0000000000
11
25.9497186118
21
-9.9202582853
31
0.0000000000
0
SPLINE
5
293
100
AcDbEntity
8
0
100
AcDbSpline
62
9
6
CONTINUOUS
70
0
71
3
72
12
73
8
74
6
42
0.0000001000
43
0.0000001000
44
0.0000000001
12
-0.2391643099
22
-0.7810971041
32
0.0000000000
13
-0.8168918040
23
-0.0001838181
33
0.0000000000
40
0.0000000000
40
0.0000000000
40
0.0000000000
40
0.0000000000
40
0.1988792992
40
0.3997325452
40
0.6015062118
40
0.8018498217
40
1.0000000000
40
1.0000000000
40
1.0000000000
40
1.0000000000
10
25.9522484587
20
-15.7033070045
30
0.0000000000
10
25.9363935152
20
-15.7550883527
30
0.0000000000
10
25.8911695915
20
-15.8556007756
30
0.0000000000
10
25.7873760050
20
-15.9845160563
30
0.0000000000
10
25.6538761406
20
-16.0832445216
30
0.0000000000
10
25.5005443747
20
-16.1446239616
30
0.0000000000
10
25.3915398638
20
-16.1584247494
30
0.0000000000
10
25.3375841116
20
-16.1584368906
30
0.0000000000
11
25.9522484587
21
-15.7033070045
31
0.0000000000
11
25.8855133219
21
-15.8514306246
31
0.0000000000
11
25.7826404542
21
-15.9792504260
31
0.0000000000
11
25.6501135811
21
-16.0772537581
31
0.0000000000
11
25.4981607728
21
-16.1380372345
31
0.0000000000
11
25.3375841116
21
-16.1584368906
31
0.0000000000
0
SPLINE
5
294
100
AcDbEntity
8
0
100
AcDbSpline
62
9
6
CONTINUOUS
70
0
71
3
72
10
73
6
74
4
42
0.0000001000
43
0.0000001000
44
0.0000000001
12
-0.0386881805
22
-0.0902581175
32
0.0000000000
13
-0.0939545111
23
0.0285631393
33
0.0000000000
40
0.0000000000
40
0.0000000000
40
0.0000000000
40
0.0000000000
40
0.1409831742
40
0.5041063673
40
1.0000000000
40
1.0000000000
40
1.0000000000
40
1.0000000000
10
26.0478120917
20
-15.7241923172
30
0.0000000000
10
26.0459939642
20
-15.7284339425
30
0.0000000000
10
26.0231632461
20
-15.7195578653
30
0.0000000000
10
25.9967442316
20
-15.7176456890
30
0.0000000000
10
25.9677789399
20
-15.7080283949
30
0.0000000000
10
25.9522484586
20
-15.7033069686
30
0.0000000000
11
26.0478120917
21
-15.7241923172
31
0.0000000000
11
26.0339678913
21
-15.7240880545
31
0.0000000000
11
25.9991313349
21
-15.7164745555
31
0.0000000000
11
25.9522484586
21
-15.7033069686
31
0.0000000000
0
SPLINE
5
295
100
AcDbEntity
8
0
100
AcDbSpline
62
9
6
CONTINUOUS
70
0
71
3
72
12
73
8
74
6
42
0.0000001000
43
0.0000001000
44
0.0000000001
12
-0.8168918059
22
0.0002370292
32
0.0000000000
13
-0.2391155879
23
0.7811120370
33
0.0000000000
40
0.0000000000
40
0.0000000000
40
0.0000000000
40
0.0000000000
40
0.1981571228
40
0.3985467627
40
0.6003164449
40
0.8011228121
40
1.0000000000
40
1.0000000000
40
1.0000000000
40
1.0000000000
10
13.7478143576
20
-16.1584368906
30
0.0000000000
10
13.6938567143
20
-16.1584212343
30
0.0000000000
10
13.5848380663
20
-16.1446232906
30
0.0000000000
10
13.4314933504
20
-16.0832339683
30
0.0000000000
10
13.2980051810
20
-15.9844921191
30
0.0000000000
10
13.1942245178
20
-15.8555879315
30
0.0000000000
10
13.1490015557
20
-15.7550887929
30
0.0000000000
10
13.1331500105
20
-15.7033070045
30
0.0000000000
11
13.7478143576
21
-16.1584368906
31
0.0000000000
11
13.5872320867
21
-16.1380363532
31
0.0000000000
11
13.4352461733
21
-16.0772343866
31
0.0000000000
11
13.3027305347
21
-15.9792213321
31
0.0000000000
11
13.1998846693
21
-15.8514289516
31
0.0000000000
11
13.1331500105
21
-15.7033070045
31
0.0000000000
0
SPLINE
5
296
100
AcDbEntity
8
0
100
AcDbSpline
62
9
6
CONTINUOUS
70
0
71
3
72
8
73
4
74
2
42
0.0000001000
43
0.0000001000
44
0.0000000001
12
-0.0021580045
22
0.0070551006
32
0.0000000000
13
-0.0021527405
23
0.0070567537
33
0.0000000000
40
0.0000000000
40
0.0000000000
40
0.0000000000
40
0.0000000000
40
1.0000000000
40
1.0000000000
40
1.0000000000
40
1.0000000000
10
13.1331500105
20
-15.7033070045
30
0.0000000000
10
13.1324306756
20
-15.7009553043
30
0.0000000000
10
13.1317122180
20
-15.6986033282
30
0.0000000000
10
13.1309946378
20
-15.6962510770
30
0.0000000000
11
13.1331500105
21
-15.7033070045
31
0.0000000000
11
13.1309946378
21
-15.6962510770
31
0.0000000000
0
SPLINE
5
297
100
AcDbEntity
8
0
100
AcDbSpline
62
9
6
CONTINUOUS
70
0
71
3
72
17
73
13
74
11
42
0.0000001000
43
0.0000001000
44
0.0000000001
12
-1.7101131403
22
5.6058066397
32
0.0000000000
13
1.7192174462
23
5.6029853477
33
0.0000000000
40
0.0000000000
40
0.0000000000
40
0.0000000000
40
0.0000000000
40
0.0952778596
40
0.2007123239
40
0.3118907354
40
0.4258446705
40
0.5395802314
40
0.6501009896
40
0.7544139272
40
0.8495320268
40
0.9324726463
40
1.0000000000
40
1.0000000000
40
1.0000000000
40
1.0000000000
10
13.1309946378
20
-15.6962510770
30
0.0000000000
10
13.0766826646
20
-15.5182146577
30
0.0000000000
10
12.9728578798
20
-15.1398429396
30
0.0000000000
10
12.8468350796
20
-14.5433137215
30
0.0000000000
10
12.7541652962
20
-13.9037206587
30
0.0000000000
10
12.7031721319
20
-13.2431666799
30
0.0000000000
10
12.6969245337
20
-12.5819631723
30
0.0000000000
10
12.7336015548
20
-11.9406545842
30
0.0000000000
10
12.8066833819
20
-11.3391669672
30
0.0000000000
10
12.9055621471
20
-10.7961577061
30
0.0000000000
10
13.0163798215
20
-10.3291581020
30
0.0000000000
10
13.0969817891
20
-10.0463765434
30
0.0000000000
10
13.1356798574
20
-9.9202582856
30
0.0000000000
11
13.1309946378
21
-15.6962510770
31
0.0000000000
11
12.9832324860
21
-15.1577468235
31
0.0000000000
11
12.8555054519
21
-14.5531596615
31
0.0000000000
11
12.7620729224
21
-13.9082969984
31
0.0000000000
11
12.7106679240
21
-13.2424153013
31
0.0000000000
11
12.7043696480
21
-12.5758619661
31
0.0000000000
11
12.7413537877
21
-11.9291769443
31
0.0000000000
11
12.8150925199
21
-11.3222813782
31
0.0000000000
11
12.9149616519
21
-10.7738303740
31
0.0000000000
11
13.0271952150
21
-10.3008647507
31
0.0000000000
11
13.1356798574
21
-9.9202582856
31
0.0000000000
0
SPLINE
5
298
100
AcDbEntity
8
0
100
AcDbSpline
62
9
6
CONTINUOUS
70
0
71
3
72
10
73
6
74
4
42
0.0000001000
43
0.0000001000
44
0.0000000001
12
0.0387083906
22
-0.0902824664
32
0.0000000000
13
0.0939829133
23
0.0285740311
33
0.0000000000
40
0.0000000000
40
0.0000000000
40
0.0000000000
40
0.0000000000
40
0.1409921000
40
0.5041273118
40
1.0000000000
40
1.0000000000
40
1.0000000000
40
1.0000000000
10
13.0375572720
20
-15.7242012614
30
0.0000000000
10
13.0393764644
20
-15.7284442996
30
0.0000000000
10
13.0622143615
20
-15.7195635376
30
0.0000000000
10
13.0886419930
20
-15.7176508929
30
0.0000000000
10
13.1176154905
20
-15.7080300281
30
0.0000000000
10
13.1331500105
20
-15.7033070009
30
0.0000000000
11
13.0375572720
21
-15.7242012614
31
0.0000000000
11
13.0514066200
21
-15.7240960548
31
0.0000000000
11
13.0862549000
21
-15.7164790653
31
0.0000000000
11
13.1331500105
21
-15.7033070009
31
0.0000000000
0
SPLINE
5
299
100
AcDbEntity
8
0
100
AcDbSpline
62
9
6
CONTINUOUS
70
0
71
3
72
9
73
5
74
3
42
0.0000001000
43
0.0000001000
44
0.0000000001
12
0.0419583639
22
0.1366129932
32
0.0000000000
13
0.0673970672
23
0.1260208298
33
0.0000000000
40
0.0000000000
40
0.0000000000
40
0.0000000000
40
0.0000000000
40
0.4995054991
40
1.0000000000
40
1.0000000000
40
1.0000000000
40
1.0000000000
10
13.0400869226
20
-9.8888847952
30
0.0000000000
10
13.0470730671
20
-9.8661384814
30
0.0000000000
10
13.0632668264
20
-9.8212499280
30
0.0000000000
10
13.0837139689
20
-9.7781318412
30
0.0000000000
10
13.0949579228
20
-9.7571075971
30
0.0000000000
11
13.0400869226
21
-9.8888847952
31
0.0000000000
11
13.0643120543
21
-9.8217360644
31
0.0000000000
11
13.0949579228
21
-9.7571075971
31
0.0000000000
0
SPLINE
5
29A
100
AcDbEntity
8
0
100
AcDbSpline
62
9
6
CONTINUOUS
70
0
71
3
72
9
73
5
74
3
42
0.0000001000
43
0.0000001000
44
0.0000000001
12
0.0362884208
22
0.1182836002
32
0.0000000000
13
0.0583006112
23
0.1091278988
33
0.0000000000
40
0.0000000000
40
0.0000000000
40
0.0000000000
40
0.0000000000
40
0.4980239451
40
1.0000000000
40
1.0000000000
40
1.0000000000
40
1.0000000000
10
13.1356798574
20
-9.9202582856
30
0.0000000000
10
13.1417040248
20
-9.9006222638
30
0.0000000000
10
13.1557039146
20
-9.8617536694
30
0.0000000000
10
13.1733865732
20
-9.8244145953
30
0.0000000000
10
13.1831417434
20
-9.8061547312
30
0.0000000000
11
13.1356798574
21
-9.9202582856
31
0.0000000000
11
13.1565620147
21
-9.8622866460
31
0.0000000000
11
13.1831417434
21
-9.8061547312
31
0.0000000000
0
SPLINE
5
29B
100
AcDbEntity
8
0
100
AcDbSpline
62
9
6
CONTINUOUS
70
0
71
3
72
10
73
6
74
4
42
0.0000001000
43
0.0000001000
44
0.0000000001
12
0.0125723036
22
-0.0998394610
32
0.0000000000
13
0.0961952444
23
-0.0295373617
33
0.0000000000
40
0.0000000000
40
0.0000000000
40
0.0000000000
40
0.0000000000
40
0.1373318313
40
0.5031489087
40
1.0000000000
40
1.0000000000
40
1.0000000000
40
1.0000000000
10
13.0400911998
20
-9.8888861081
30
0.0000000000
10
13.0406667256
20
-9.8934564867
30
0.0000000000
10
13.0648258744
20
-9.8930763931
30
0.0000000000
10
13.0896557600
20
-9.9085270273
30
0.0000000000
10
13.1197482866
20
-9.9153663943
30
0.0000000000
10
13.1356798574
20
-9.9202582844
30
0.0000000000
11
13.0400911998
21
-9.8888861081
31
0.0000000000
11
13.0529858446
21
-9.8938564657
31
0.0000000000
11
13.0879617115
21
-9.9053355377
31
0.0000000000
11
13.1356798574
21
-9.9202582844
31
0.0000000000
0
SPLINE
5
29C
100
AcDbEntity
8
0
100
AcDbSpline
62
9
6
CONTINUOUS
70
0
71
3
72
17
73
13
74
11
42
0.0000001000
43
0.0000001000
44
0.0000000001
12
0.3258494120
22
0.6093689327
32
0.0000000000
13
0.6910197773
23
-0.0000530821
33
0.0000000000
40
0.0000000000
40
0.0000000000
40
0.0000000000
40
0.0000000000
40
0.0662273170
40
0.1374427429
40
0.2146502509
40
0.2988129844
40
0.3908375384
40
0.4915543910
40
0.6016935019
40
0.7221026725
40
0.8541610540
40
1.0000000000
40
1.0000000000
40
1.0000000000
40
1.0000000000
10
13.1831417434
20
-9.8061547312
30
0.0000000000
10
13.1903351209
20
-9.7927024414
30
0.0000000000
10
13.2062668976
20
-9.7653083616
30
0.0000000000
10
13.2342486915
20
-9.7244892410
30
0.0000000000
10
13.2680170593
20
-9.6828172915
30
0.0000000000
10
13.3086242693
20
-9.6407802883
30
0.0000000000
10
13.3571730806
20
-9.5992524313
30
0.0000000000
10
13.4147255890
20
-9.5595767047
30
0.0000000000
10
13.4822175654
20
-9.5235984868
30
0.0000000000
10
13.5604558602
20
-9.4936828057
30
0.0000000000
10
13.6500907986
20
-9.4727908123
30
0.0000000000
10
13.7142218256
20
-9.4677281151
30
0.0000000000
10
13.7478143576
20
-9.4677306956
30
0.0000000000
11
13.1831417434
21
-9.8061547312
31
0.0000000000
11
13.2061496391
21
-9.7665944511
31
0.0000000000
11
13.2339742002
21
-9.7260045179
31
0.0000000000
11
13.2675637867
21
-9.6845537454
31
0.0000000000
11
13.3079704365
21
-9.6427247027
31
0.0000000000
11
13.3562945249
21
-9.6013898425
31
0.0000000000
11
13.4135953785
21
-9.5618879243
31
0.0000000000
11
13.4807579203
21
-9.5260875482
31
0.0000000000
11
13.5584749177
21
-9.4963695391
31
0.0000000000
11
13.6473493467
21
-9.4756619936
31
0.0000000000
11
13.7478143576
21
-9.4677306956
31
0.0000000000
0
SPLINE
5
29D
100
AcDbEntity
8
0
100
AcDbSpline
62
9
6
CONTINUOUS
70
0
71
3
72
10
73
6
74
4
42
0.0000001000
43
0.0000001000
44
0.0000000001
12
-0.0010976507
22
-0.1009169717
32
0.0000000000
13
0.0890012797
23
-0.0475837389
33
0.0000000000
40
0.0000000000
40
0.0000000000
40
0.0000000000
40
0.0000000000
40
0.1373572645
40
0.5033313091
40
1.0000000000
40
1.0000000000
40
1.0000000000
40
1.0000000000
10
13.0949579413
20
-9.7571076070
30
0.0000000000
10
13.0949076846
20
-9.7617281668
30
0.0000000000
10
13.1183230696
20
-9.7657366884
30
0.0000000000
10
13.1402429322
20
-9.7858284358
30
0.0000000000
10
13.1684070271
20
-9.7982769468
30
0.0000000000
10
13.1831417434
20
-9.8061547312
30
0.0000000000
11
13.0949579413
21
-9.7571076070
31
0.0000000000
11
13.1067654801
21
-9.7643705891
31
0.0000000000
11
13.1390439088
21
-9.7823235925
31
0.0000000000
11
13.1831417434
21
-9.8061547312
31
0.0000000000
0
SPLINE
5
29E
100
AcDbEntity
8
0
100
AcDbSpline
62
7
6
CONTINUOUS
70
0
71
3
72
15
73
11
74
9
42
0.0000001000
43
0.0000001000
44
0.0000000001
12
0.7838926164
22
0.0000000000
32
0.0000000000
13
0.0000000000
23
-0.7838926164
33
0.0000000000
40
0.0000000000
40
0.0000000000
40
0.0000000000
40
0.0000000000
40
0.1249999597
40
0.2499995837
40
0.3750001213
40
0.5000004166
40
0.6250005886
40
0.7500008329
40
0.8750001718
40
1.0000000000
40
1.0000000000
40
1.0000000000
40
1.0000000000
10
30.0428705721
20
21.7938452688
30
0.0000000000
10
30.0755327539
20
21.7938452688
30
0.0000000000
10
30.1410379847
20
21.7874053554
30
0.0000000000
10
30.2353822609
20
21.7587888524
30
0.0000000000
10
30.3223689480
20
21.7123091226
30
0.0000000000
10
30.3986025875
20
21.6497482001
30
0.0000000000
10
30.4611633673
20
21.5735145451
30
0.0000000000
10
30.5076429315
20
21.4865279822
30
0.0000000000
10
30.5362593387
20
21.3921838751
30
0.0000000000
10
30.5426992346
20
21.3266787538
30
0.0000000000
10
30.5426992346
20
21.2940166063
30
0.0000000000
11
30.0428705721
21
21.7938452688
31
0.0000000000
11
30.1403857780
21
21.7842459089
31
0.0000000000
11
30.2341557618
21
21.7558117454
31
0.0000000000
11
30.3205768037
21
21.7096288982
31
0.0000000000
11
30.3963238104
21
21.6474693805
31
0.0000000000
11
30.4584831746
21
21.5717223730
31
0.0000000000
11
30.5046658367
21
21.4853014928
31
0.0000000000
11
30.5330998949
21
21.3915317106
31
0.0000000000
11
30.5426992346
21
21.2940166063
31
0.0000000000
0
SPLINE
5
29F
100
AcDbEntity
8
0
100
AcDbSpline
62
7
6
CONTINUOUS
70
0
71
3
72
15
73
11
74
9
42
0.0000001000
43
0.0000001000
44
0.0000000001
12
0.0000000000
22
-0.7838926164
32
0.0000000000
13
-0.7838926164
23
-0.0000000000
33
0.0000000000
40
0.0000000000
40
0.0000000000
40
0.0000000000
40
0.0000000000
40
0.1249999597
40
0.2499995837
40
0.3750001213
40
0.5000004166
40
0.6250005886
40
0.7500008329
40
0.8750001718
40
1.0000000000
40
1.0000000000
40
1.0000000000
40
1.0000000000
10
30.5426992346
20
-21.9063260687
30
0.0000000000
10
30.5426992346
20
-21.9389882505
30
0.0000000000
10
30.5362593212
20
-22.0044934813
30
0.0000000000
10
30.5076428182
20
-22.0988377575
30
0.0000000000
10
30.4611630884
20
-22.1858244446
30
0.0000000000
10
30.3986021659
20
-22.2620580841
30
0.0000000000
10
30.3223685109
20
-22.3246188640
30
0.0000000000
10
30.2353819480
20
-22.3710984281
30
0.0000000000
10
30.1410378409
20
-22.3997148353
30
0.0000000000
10
30.0755327196
20
-22.4061547312
30
0.0000000000
10
30.0428705721
20
-22.4061547312
30
0.0000000000
11
30.5426992346
21
-21.9063260687
31
0.0000000000
11
30.5330998747
21
-22.0038412746
31
0.0000000000
11
30.5046657112
21
-22.0976112584
31
0.0000000000
11
30.4584828640
21
-22.1840323004
31
0.0000000000
11
30.3963233463
21
-22.2597793070
31
0.0000000000
11
30.3205763388
21
-22.3219386712
31
0.0000000000
11
30.2341554586
21
-22.3681213333
31
0.0000000000
11
30.1403856764
21
-22.3965553915
31
0.0000000000
11
30.0428705721
21
-22.4061547312
31
0.0000000000
0
SPLINE
5
2A0
100
AcDbEntity
8
0
100
AcDbSpline
62
7
6
CONTINUOUS
70
0
71
3
72
15
73
11
74
9
42
0.0000001000
43
0.0000001000
44
0.0000000001
12
0.0000000000
22
0.7838926164
32
0.0000000000
13
0.7838926164
23
0.0000000000
33
0.0000000000
40
0.0000000000
40
0.0000000000
40
0.0000000000
40
0.0000000000
40
0.1249999597
40
0.2499995837
40
0.3750001213
40
0.5000004166
40
0.6250005886
40
0.7500008329
40
0.8750001718
40
1.0000000000
40
1.0000000000
40
1.0000000000
40
1.0000000000
10
8.5426992346
20
21.2940166063
30
0.0000000000
10
8.5426992346
20
21.3266787881
30
0.0000000000
10
8.5491391480
20
21.3921840189
30
0.0000000000
10
8.5777556510
20
21.4865282951
30
0.0000000000
10
8.6242353808
20
21.5735149822
30
0.0000000000
10
8.6867963032
20
21.6497486217
30
0.0000000000
10
8.7630299583
20
21.7123094015
30
0.0000000000
10
8.8500165211
20
21.7587889657
30
0.0000000000
10
8.9443606282
20
21.7874053729
30
0.0000000000
10
9.0098657496
20
21.7938452688
30
0.0000000000
10
9.0425278971
20
21.7938452688
30
0.0000000000
11
8.5426992346
21
21.2940166063
31
0.0000000000
11
8.5522985945
21
21.3915318122
31
0.0000000000
11
8.5807327580
21
21.4853017960
31
0.0000000000
11
8.6269156052
21
21.5717228379
31
0.0000000000
11
8.6890751229
21
21.6474698446
31
0.0000000000
11
8.7648221304
21
21.7096292088
31
0.0000000000
11
8.8512430106
21
21.7558118709
31
0.0000000000
11
8.9450127927
21
21.7842459291
31
0.0000000000
11
9.0425278971
21
21.7938452688
31
0.0000000000
0
SPLINE
5
2A1
100
AcDbEntity
8
0
100
AcDbSpline
62
7
6
CONTINUOUS
70
0
71
3
72
15
73
11
74
9
42
0.0000001000
43
0.0000001000
44
0.0000000001
12
-0.7838926164
22
0.0000000000
32
0.0000000000
13
0.0000000000
23
0.7838926164
33
0.0000000000
40
0.0000000000
40
0.0000000000
40
0.0000000000
40
0.0000000000
40
0.1249999597
40
0.2499995837
40
0.3750001213
40
0.5000004166
40
0.6250005886
40
0.7500008329
40
0.8750001718
40
1.0000000000
40
1.0000000000
40
1.0000000000
40
1.0000000000
10
9.0425278971
20
-22.4061547312
30
0.0000000000
10
9.0098657153
20
-22.4061547312
30
0.0000000000
10
8.9443604845
20
-22.3997148178
30
0.0000000000
10
8.8500162083
20
-22.3710983148
30
0.0000000000
10
8.7630295212
20
-22.3246185850
30
0.0000000000
10
8.6867958817
20
-22.2620576626
30
0.0000000000
10
8.6242351018
20
-22.1858240075
30
0.0000000000
10
8.5777555377
20
-22.0988374447
30
0.0000000000
10
8.5491391305
20
-22.0044933376
30
0.0000000000
10
8.5426992346
20
-21.9389882162
30
0.0000000000
10
8.5426992346
20
-21.9063260687
30
0.0000000000
11
9.0425278971
21
-22.4061547312
31
0.0000000000
11
8.9450126912
21
-22.3965553713
31
0.0000000000
11
8.8512427074
21
-22.3681212078
31
0.0000000000
11
8.7648216654
21
-22.3219383606
31
0.0000000000
11
8.6890746588
21
-22.2597788429
31
0.0000000000
11
8.6269152946
21
-22.1840318354
31
0.0000000000
11
8.5807326325
21
-22.0976109552
31
0.0000000000
11
8.5522985743
21
-22.0038411731
31
0.0000000000
11
8.5426992346
21
-21.9063260687
31
0.0000000000
0
SPLINE
5
2A2
100
AcDbEntity
8
0
100
AcDbSpline
62
9
6
CONTINUOUS
70
0
71
3
72
12
73
8
74
6
42
0.0000001000
43
0.0000001000
44
0.0000000001
12
-1.0830158205
22
0.0000257303
32
0.0000000000
13
-0.3186110379
23
1.0350895008
33
0.0000000000
40
0.0000000000
40
0.0000000000
40
0.0000000000
40
0.0000000000
40
0.1896905326
40
0.3996510043
40
0.6148830327
40
0.8184224506
40
1.0000000000
40
1.0000000000
40
1.0000000000
40
1.0000000000
10
13.7478143576
20
-16.3590959922
30
0.0000000000
10
13.6793350750
20
-16.3590943653
30
0.0000000000
10
13.5344891009
20
-16.3415831479
30
0.0000000000
10
13.3255233213
20
-16.2593675212
30
0.0000000000
10
13.1418620346
20
-16.1210913553
30
0.0000000000
10
13.0077039550
20
-15.9478796258
30
0.0000000000
10
12.9512125560
20
-15.8192786553
30
0.0000000000
10
12.9319283522
20
-15.7566289836
30
0.0000000000
11
13.7478143576
21
-16.3590959922
31
0.0000000000
11
13.5438689728
21
-16.3343777935
31
0.0000000000
11
13.3322636903
21
-16.2511332761
31
0.0000000000
11
13.1460402474
21
-16.1109323643
31
0.0000000000
11
13.0110557336
21
-15.9366584656
31
0.0000000000
11
12.9319283522
21
-15.7566289836
31
0.0000000000
0
SPLINE
5
2A3
100
AcDbEntity
8
0
100
AcDbSpline
62
9
6
CONTINUOUS
70
0
71
3
72
12
73
8
74
6
42
0.0000001000
43
0.0000001000
44
0.0000000001
12
-1.2104668939
22
0.0000563821
32
0.0000000000
13
-0.3555829987
23
1.1570612928
33
0.0000000000
40
0.0000000000
40
0.0000000000
40
0.0000000000
40
0.0000000000
40
0.1890328809
40
0.3990325847
40
0.6144173750
40
0.8182817297
40
1.0000000000
40
1.0000000000
40
1.0000000000
40
1.0000000000
10
13.7478143576
20
-16.4683946733
30
0.0000000000
10
13.6715416762
20
-16.4683911207
30
0.0000000000
10
13.5099042474
20
-16.4488816781
30
0.0000000000
10
13.2764980925
20
-16.3570999091
30
0.0000000000
10
13.0710625278
20
-16.2024050061
30
0.0000000000
10
12.9210280700
20
-16.0085508344
30
0.0000000000
10
12.8578740599
20
-15.8646158342
30
0.0000000000
10
12.8363354174
20
-15.7945294419
30
0.0000000000
11
13.7478143576
21
-16.4683946733
31
0.0000000000
11
13.5206532199
21
-16.4409080410
31
0.0000000000
11
13.2840802815
21
-16.3479042227
31
0.0000000000
11
13.0758019082
21
-16.1910825584
31
0.0000000000
11
12.9247544434
21
-15.9959400060
31
0.0000000000
11
12.8363354174
21
-15.7945294419
31
0.0000000000
0
SPLINE
5
2A4
100
AcDbEntity
8
0
100
AcDbSpline
62
9
6
CONTINUOUS
70
0
71
3
72
10
73
6
74
4
42
0.0000001000
43
0.0000001000
44
0.0000000001
12
-0.0987281011
22
0.0301637527
32
0.0000000000
13
0.0196899741
23
0.1013380227
33
0.0000000000
40
0.0000000000
40
0.0000000000
40
0.0000000000
40
0.0000000000
40
0.4922168635
40
0.8575756056
40
1.0000000000
40
1.0000000000
40
1.0000000000
40
1.0000000000
10
26.2490630517
20
-15.7945293426
30
0.0000000000
10
26.2328645063
20
-15.7895803067
30
0.0000000000
10
26.2020054015
20
-15.7809835399
30
0.0000000000
10
26.1779339005
20
-15.7670805724
30
0.0000000000
10
26.1525304984
20
-15.7614384998
30
0.0000000000
10
26.1534652760
20
-15.7566274976
30
0.0000000000
11
26.2490630517
21
-15.7945293426
31
0.0000000000
11
26.2008060100
21
-15.7786161278
31
0.0000000000
11
26.1657440275
21
-15.7647150324
31
0.0000000000
11
26.1534652760
21
-15.7566274976
31
0.0000000000
0
SPLINE
5
2A5
100
AcDbEntity
8
0
100
AcDbSpline
62
9
6
CONTINUOUS
70
0
71
3
72
8
73
4
74
2
42
0.0000001000
43
0.0000001000
44
0.0000000001
12
-0.0306727786
22
-0.0996326841
32
0.0000000000
13
-0.0426731256
23
-0.0953328744
33
0.0000000000
40
0.0000000000
40
0.0000000000
40
0.0000000000
40
0.0000000000
40
1.0000000000
40
1.0000000000
40
1.0000000000
40
1.0000000000
10
26.1534701170
20
-15.7566289836
30
0.0000000000
10
26.1432458575
20
-15.7898398783
30
0.0000000000
10
26.1309664379
20
-15.8224746122
30
0.0000000000
10
26.1167420626
20
-15.8542522370
30
0.0000000000
11
26.1534701170
21
-15.7566289836
31
0.0000000000
11
26.1167420626
21
-15.8542522370
31
0.0000000000
0
SPLINE
5
2A6
100
AcDbEntity
8
0
100
AcDbSpline
62
9
6
CONTINUOUS
70
0
71
3
72
13
73
9
74
7
42
0.0000001000
43
0.0000001000
44
0.0000000001
12
-0.4010225851
22
-0.8958949024
32
0.0000000000
13
-0.9796682284
23
0.0000523903
33
0.0000000000
40
0.0000000000
40
0.0000000000
40
0.0000000000
40
0.0000000000
40
0.0561587522
40
0.2366609140
40
0.4315426201
40
0.6313581910
40
0.8237654574
40
1.0000000000
40
1.0000000000
40
1.0000000000
40
1.0000000000
10
26.1167420626
20
-15.8542522370
30
0.0000000000
10
26.1092350866
20
-15.8710230169
30
0.0000000000
10
26.0753167529
20
-15.9406914273
30
0.0000000000
10
25.9964500895
20
-16.0586612961
30
0.0000000000
10
25.8599023024
20
-16.1899562115
30
0.0000000000
10
25.6938561432
20
-16.2891898904
30
0.0000000000
10
25.5158552721
20
-16.3468446995
30
0.0000000000
10
25.3951345723
20
-16.3590990699
30
0.0000000000
10
25.3375841116
20
-16.3590959922
30
0.0000000000
11
26.1167420626
21
-15.8542522370
31
0.0000000000
11
26.0926121796
21
-15.9038071014
31
0.0000000000
11
25.9943358799
21
-16.0508152906
31
0.0000000000
11
25.8567021549
21
-16.1831299956
31
0.0000000000
11
25.6886757599
21
-16.2835608399
31
0.0000000000
11
25.5093505695
21
-16.3416379350
31
0.0000000000
11
25.3375841116
21
-16.3590959922
31
0.0000000000
0
SPLINE
5
2A7
100
AcDbEntity
8
0
100
AcDbSpline
62
9
6
CONTINUOUS
70
0
71
3
72
13
73
9
74
7
42
0.0000001000
43
0.0000001000
44
0.0000000001
12
-0.3559815089
22
-1.1579973513
32
0.0000000000
13
-1.2114787178
23
0.0001280821
33
0.0000000000
40
0.0000000000
40
0.0000000000
40
0.0000000000
40
0.0000000000
40
0.1468204365
40
0.3100607679
40
0.4862177090
40
0.6668111533
40
0.8407510638
40
1.0000000000
40
1.0000000000
40
1.0000000000
40
1.0000000000
10
26.2490630517
20
-15.7945294419
30
0.0000000000
10
26.2316412649
20
-15.8512020008
30
0.0000000000
10
26.1835568314
20
-15.9677237526
30
0.0000000000
10
26.0737992860
20
-16.1321755183
30
0.0000000000
10
25.9212720480
20
-16.2790817756
30
0.0000000000
10
25.7357431567
20
-16.3901388179
30
0.0000000000
10
25.5368229844
20
-16.4546790600
30
0.0000000000
10
25.4018930106
20
-16.4684014723
30
0.0000000000
10
25.3375841116
20
-16.4683946733
30
0.0000000000
11
26.2490630517
21
-15.7945294419
31
0.0000000000
11
26.1811909950
21
-15.9589407012
31
0.0000000000
11
26.0714083408
21
-16.1234328045
31
0.0000000000
11
25.9176786497
21
-16.2714570425
31
0.0000000000
11
25.7299610614
21
-16.3838360167
31
0.0000000000
11
25.5295190339
21
-16.4488576201
31
0.0000000000
11
25.3375841116
21
-16.4683946733
31
0.0000000000
0
SPLINE
5
2A8
100
AcDbEntity
8
0
100
AcDbSpline
62
7
6
CONTINUOUS
70
0
71
3
72
10
73
6
74
4
42
0.0000001000
43
0.0000001000
44
0.0000000001
12
-0.0000081433
22
-0.1069267255
32
0.0000000000
13
0.0004207924
23
-0.1071132610
33
0.0000000000
40
0.0000000000
40
0.0000000000
40
0.0000000000
40
0.0000000000
40
0.3676235518
40
0.7214348083
40
1.0000000000
40
1.0000000000
40
1.0000000000
40
1.0000000000
10
24.0409539275
20
-9.2544094241
30
0.0000000000
10
24.0409529296
20
-9.2675123517
30
0.0000000000
10
24.0409777123
20
-9.2932200296
30
0.0000000000
10
24.0410480164
20
-9.3288860294
30
0.0000000000
10
24.0411861484
20
-9.3513770908
30
0.0000000000
10
24.0412252211
20
-9.3613230995
30
0.0000000000
11
24.0409539275
21
-9.2544094241
31
0.0000000000
11
24.0409849217
21
-9.2937181946
31
0.0000000000
11
24.0410826295
21
-9.3315499477
31
0.0000000000
11
24.0412252211
21
-9.3613230995
31
0.0000000000
0
SPLINE
5
2A9
100
AcDbEntity
8
0
100
AcDbSpline
62
7
6
CONTINUOUS
70
0
71
3
72
10
73
6
74
4
42
0.0000001000
43
0.0000001000
44
0.0000000001
12
-0.0004201538
22
-0.1071139582
32
0.0000000000
13
0.0000081433
23
-0.1069266655
33
0.0000000000
40
0.0000000000
40
0.0000000000
40
0.0000000000
40
0.0000000000
40
0.2787544424
40
0.6324398899
40
1.0000000000
40
1.0000000000
40
1.0000000000
40
1.0000000000
10
24.0412251710
20
-16.2509863627
30
0.0000000000
10
24.0411861311
20
-16.2609391932
30
0.0000000000
10
24.0410479899
20
-16.2834324876
30
0.0000000000
10
24.0409777010
20
-16.3190984580
30
0.0000000000
10
24.0409529298
20
-16.3447993793
30
0.0000000000
10
24.0409539275
20
-16.3579000383
30
0.0000000000
11
24.0412251710
21
-16.2509863627
31
0.0000000000
11
24.0410825574
21
-16.2807797939
31
0.0000000000
11
24.0409849104
21
-16.3185980735
31
0.0000000000
11
24.0409539275
21
-16.3579000383
31
0.0000000000
0
SPLINE
5
2AA
100
AcDbEntity
8
0
100
AcDbSpline
62
7
6
CONTINUOUS
70
0
71
3
72
10
73
6
74
4
42
0.0000001000
43
0.0000001000
44
0.0000000001
12
0.0000081433
22
0.1069267255
32
0.0000000000
13
-0.0004207924
23
0.1071132610
33
0.0000000000
40
0.0000000000
40
0.0000000000
40
0.0000000000
40
0.0000000000
40
0.3676235518
40
0.7214348083
40
1.0000000000
40
1.0000000000
40
1.0000000000
40
1.0000000000
10
15.0444445417
20
-16.3579000383
30
0.0000000000
10
15.0444455396
20
-16.3447971108
30
0.0000000000
10
15.0444207569
20
-16.3190894329
30
0.0000000000
10
15.0443504528
20
-16.2834234331
30
0.0000000000
10
15.0442123208
20
-16.2609323716
30
0.0000000000
10
15.0441732481
20
-16.2509863629
30
0.0000000000
11
15.0444445417
21
-16.3579000383
31
0.0000000000
11
15.0444135474
21
-16.3185912678
31
0.0000000000
11
15.0443158397
21
-16.2807595148
31
0.0000000000
11
15.0441732481
21
-16.2509863629
31
0.0000000000
0
SPLINE
5
2AB
100
AcDbEntity
8
0
100
AcDbSpline
62
9
6
CONTINUOUS
70
0
71
3
72
10
73
6
74
4
42
0.0000001000
43
0.0000001000
44
0.0000000001
12
-0.0950972426
22
-0.0291670434
32
0.0000000000
13
-0.0671354956
23
0.0733963705
33
0.0000000000
40
0.0000000000
40
0.0000000000
40
0.0000000000
40
0.0000000000
40
0.4977435338
40
0.8630561022
40
1.0000000000
40
1.0000000000
40
1.0000000000
40
1.0000000000
10
26.2516730511
20
-9.8274561754
30
0.0000000000
10
26.2358950385
20
-9.8322954111
30
0.0000000000
10
26.2075157939
20
-9.8433795353
30
0.0000000000
10
26.1784914407
20
-9.8445941990
30
0.0000000000
10
26.1591442038
20
-9.8582297698
30
0.0000000000
10
26.1560796050
20
-9.8548793748
30
0.0000000000
11
26.2516730511
21
-9.8274561754
31
0.0000000000
11
26.2042686157
21
-9.8417423383
31
0.0000000000
11
26.1693399557
21
-9.8517624354
31
0.0000000000
11
26.1560796050
21
-9.8548793748
31
0.0000000000
0
SPLINE
5
2AC
100
AcDbEntity
8
0
100
AcDbSpline
62
9
6
CONTINUOUS
70
0
71
3
72
13
73
9
74
7
42
0.0000001000
43
0.0000001000
44
0.0000000001
12
1.7562164444
22
-5.7240217507
32
0.0000000000
13
-1.7611999798
23
-5.7224903524
33
0.0000000000
40
0.0000000000
40
0.0000000000
40
0.0000000000
40
0.0000000000
40
0.1265096818
40
0.2654669294
40
0.4195744786
40
0.5913677666
40
0.7834245570
40
1.0000000000
40
1.0000000000
40
1.0000000000
40
1.0000000000
10
26.1560801163
20
-9.8548792178
30
0.0000000000
10
26.2301395775
20
-10.0962606079
30
0.0000000000
10
26.3664983833
20
-10.6088339812
30
0.0000000000
10
26.5172907927
20
-11.4334666566
30
0.0000000000
10
26.6040435082
20
-12.3584758879
30
0.0000000000
10
26.6002443966
20
-13.3940462063
30
0.0000000000
10
26.4703840644
20
-14.5475335031
30
0.0000000000
10
26.2806143390
20
-15.3435120225
30
0.0000000000
10
26.1534701170
20
-15.7566289836
30
0.0000000000
11
26.1560801163
21
-9.8548792178
31
0.0000000000
11
26.3508042813
21
-10.5868836665
31
0.0000000000
11
26.5004624851
21
-11.4053026070
31
0.0000000000
11
26.5866088927
21
-12.3239728291
31
0.0000000000
11
26.5828403412
21
-13.3525576502
31
0.0000000000
11
26.4541453183
21
-14.4952504068
31
0.0000000000
11
26.1534701170
21
-15.7566289836
31
0.0000000000
0
SPLINE
5
2AD
100
AcDbEntity
8
0
100
AcDbSpline
62
9
6
CONTINUOUS
70
0
71
3
72
13
73
9
74
7
42
0.0000001000
43
0.0000001000
44
0.0000000001
12
1.7737832065
22
-5.7877520574
32
0.0000000000
13
-1.7786841026
23
-5.7862478002
33
0.0000000000
40
0.0000000000
40
0.0000000000
40
0.0000000000
40
0.0000000000
40
0.1264725598
40
0.2654415105
40
0.4195710756
40
0.5913992464
40
0.7835020778
40
1.0000000000
40
1.0000000000
40
1.0000000000
40
1.0000000000
10
26.2516730511
20
-9.8274561775
30
0.0000000000
10
26.3264513520
20
-10.0714534502
30
0.0000000000
10
26.4641651441
20
-10.5896690329
30
0.0000000000
10
26.6164688840
20
-11.4234220475
30
0.0000000000
10
26.7041040274
20
-12.3587839124
30
0.0000000000
10
26.7002602439
20
-13.4059874435
30
0.0000000000
10
26.5690917188
20
-14.5722231977
30
0.0000000000
10
26.3774235225
20
-15.3769592333
30
0.0000000000
10
26.2490630517
20
-15.7945294419
30
0.0000000000
11
26.2516730511
21
-9.8274561775
31
0.0000000000
11
26.4482927936
21
-10.5673743131
31
0.0000000000
11
26.5994673187
21
-11.3949225443
31
0.0000000000
11
26.6864898376
21
-12.3238725768
31
0.0000000000
11
26.6826788996
21
-13.3640205935
31
0.0000000000
11
26.5526487600
21
-14.5196148078
31
0.0000000000
11
26.2490630517
21
-15.7945294419
31
0.0000000000
0
SPLINE
5
2AE
100
AcDbEntity
8
0
100
AcDbSpline
62
9
6
CONTINUOUS
70
0
71
3
72
10
73
6
74
4
42
0.0000001000
43
0.0000001000
44
0.0000000001
12
-0.0943545719
22
-0.0313686731
32
0.0000000000
13
-0.0693557003
23
0.0712500227
33
0.0000000000
40
0.0000000000
40
0.0000000000
40
0.0000000000
40
0.0000000000
40
0.4977778303
40
0.8630775124
40
1.0000000000
40
1.0000000000
40
1.0000000000
40
1.0000000000
10
26.2448716080
20
-9.8061547312
30
0.0000000000
10
26.2292157366
20
-9.8113596079
30
0.0000000000
10
26.2011329027
20
-9.8230933508
30
0.0000000000
10
26.1721038339
20
-9.8250188950
30
0.0000000000
10
26.1531557554
20
-9.8390784043
30
0.0000000000
10
26.1499903037
20
-9.8358264942
30
0.0000000000
11
26.2448716080
21
-9.8061547312
31
0.0000000000
11
26.1978297185
21
-9.8215441456
31
0.0000000000
11
26.1631627640
21
-9.8323853717
31
0.0000000000
11
26.1499903037
21
-9.8358264942
31
0.0000000000
0
SPLINE
5
2AF
100
AcDbEntity
8
0
100
AcDbSpline
62
9
6
CONTINUOUS
70
0
71
3
72
9
73
5
74
3
42
0.0000001000
43
0.0000001000
44
0.0000000001
12
0.0063120946
22
-0.0189806009
32
0.0000000000
13
0.0058668961
23
-0.0191228993
33
0.0000000000
40
0.0000000000
40
0.0000000000
40
0.0000000000
40
0.0000000000
40
0.5000665263
40
1.0000000000
40
1.0000000000
40
1.0000000000
40
1.0000000000
10
26.1499903020
20
-9.8358264947
30
0.0000000000
10
26.1510424577
20
-9.8389903491
30
0.0000000000
10
26.1531095410
20
-9.8453295633
30
0.0000000000
10
26.1551024304
20
-9.8516924920
30
0.0000000000
10
26.1560801163
20
-9.8548792178
30
0.0000000000
11
26.1499903020
21
-9.8358264947
31
0.0000000000
11
26.1530912627
21
-9.8453363370
31
0.0000000000
11
26.1560801163
21
-9.8548792178
31
0.0000000000
0
SPLINE
5
2B0
100
AcDbEntity
8
0
100
AcDbSpline
62
9
6
CONTINUOUS
70
0
71
3
72
9
73
5
74
3
42
0.0000001000
43
0.0000001000
44
0.0000000001
12
0.0070497346
22
-0.0212209687
32
0.0000000000
13
0.0065524283
23
-0.0213797557
33
0.0000000000
40
0.0000000000
40
0.0000000000
40
0.0000000000
40
0.0000000000
40
0.5000538749
40
1.0000000000
40
1.0000000000
40
1.0000000000
40
1.0000000000
10
26.2448716080
20
-9.8061547312
30
0.0000000000
10
26.2460466903
20
-9.8096919404
30
0.0000000000
10
26.2483553264
20
-9.8167793754
30
0.0000000000
10
26.2505810974
20
-9.8238932688
30
0.0000000000
10
26.2516730511
20
-9.8274561775
30
0.0000000000
11
26.2448716080
21
-9.8061547312
31
0.0000000000
11
26.2483348544
21
-9.8167867551
31
0.0000000000
11
26.2516730511
21
-9.8274561775
31
0.0000000000
0
SPLINE
5
2B1
100
AcDbEntity
8
0
100
AcDbSpline
62
9
6
CONTINUOUS
70
0
71
3
72
12
73
8
74
6
42
0.0000001000
43
0.0000001000
44
0.0000000001
12
0.8376885558
22
0.0000000526
32
0.0000000000
13
0.4673900515
23
-0.6971745832
33
0.0000000000
40
0.0000000000
40
0.0000000000
40
0.0000000000
40
0.0000000000
40
0.1875400204
40
0.3951870543
40
0.6195154571
40
0.8501773826
40
1.0000000000
40
1.0000000000
40
1.0000000000
40
1.0000000000
10
25.3375841116
20
-9.2498483483
30
0.0000000000
10
25.3899508212
20
-9.2498483450
30
0.0000000000
10
25.5005528450
20
-9.2600248484
30
0.0000000000
10
25.6676469730
20
-9.3090755736
30
0.0000000000
10
25.8316061113
20
-9.3980401959
30
0.0000000000
10
25.9596342174
20
-9.5104081976
30
0.0000000000
10
26.0253939982
20
-9.5944646445
30
0.0000000000
10
26.0487358651
20
-9.6292821514
30
0.0000000000
11
25.3375841116
21
-9.2498483483
31
0.0000000000
11
25.4940216456
21
-9.2642618293
31
0.0000000000
11
25.6609235307
21
-9.3132528205
31
0.0000000000
11
25.8260847037
21
-9.4028893757
31
0.0000000000
11
25.9713138131
21
-9.5303396702
31
0.0000000000
11
26.0487358651
21
-9.6292821514
31
0.0000000000
0
SPLINE
5
2B2
100
AcDbEntity
8
0
100
AcDbSpline
62
9
6
CONTINUOUS
70
0
71
3
72
9
73
5
74
3
42
0.0000001000
43
0.0000001000
44
0.0000000001
12
0.1285077969
22
-0.1916865143
32
0.0000000000
13
0.0726847085
23
-0.2185508324
33
0.0000000000
40
0.0000000000
40
0.0000000000
40
0.0000000000
40
0.0000000000
40
0.2628101731
40
1.0000000000
40
1.0000000000
40
1.0000000000
40
1.0000000000
10
26.0487358651
20
-9.6292821514
30
0.0000000000
10
26.0599935839
20
-9.6460745401
30
0.0000000000
10
26.1005705656
20
-9.7114913131
30
0.0000000000
10
26.1321294928
20
-9.7821220113
30
0.0000000000
10
26.1499903020
20
-9.8358264947
30
0.0000000000
11
26.0487358651
21
-9.6292821514
31
0.0000000000
11
26.0806988014
21
-9.6808190486
31
0.0000000000
11
26.1499903020
21
-9.8358264947
31
0.0000000000
0
SPLINE
5
2B3
100
AcDbEntity
8
0
100
AcDbSpline
62
9
6
CONTINUOUS
70
0
71
3
72
13
73
9
74
7
42
0.0000001000
43
0.0000001000
44
0.0000000001
12
1.1928172978
22
0.0000001630
32
0.0000000000
13
0.3764040481
23
-1.1318715027
33
0.0000000000
40
0.0000000000
40
0.0000000000
40
0.0000000000
40
0.0000000000
40
0.1466944450
40
0.3095980085
40
0.4859085301
40
0.6673717880
40
0.8416843435
40
1.0000000000
40
1.0000000000
40
1.0000000000
40
1.0000000000
10
25.3375841116
20
-9.1516212493
30
0.0000000000
10
25.3959106688
20
-9.1516212414
30
0.0000000000
10
25.5192904198
20
-9.1629480334
30
0.0000000000
10
25.7059303383
20
-9.2176596389
30
0.0000000000
10
25.8894061898
20
-9.3171702614
30
0.0000000000
10
26.0497271403
20
-9.4580246395
30
0.0000000000
10
26.1707025546
20
-9.6247348642
30
0.0000000000
10
26.2250080566
20
-9.7464237379
30
0.0000000000
10
26.2448716080
20
-9.8061547312
30
0.0000000000
11
25.3375841116
21
-9.1516212493
31
0.0000000000
11
25.5118291656
21
-9.1676383214
31
0.0000000000
11
25.6982986632
21
-9.2222929671
31
0.0000000000
11
25.8831529717
21
-9.3225805493
31
0.0000000000
11
26.0457742105
21
-9.4654302014
31
0.0000000000
11
26.1678846767
21
-9.6337187068
31
0.0000000000
11
26.2448716080
21
-9.8061547312
31
0.0000000000
0
SPLINE
5
2B4
100
AcDbEntity
8
0
100
AcDbSpline
62
7
6
CONTINUOUS
70
0
71
3
72
10
73
6
74
4
42
0.0000001000
43
0.0000001000
44
0.0000000001
12
0.0004201538
22
0.1071139581
32
0.0000000000
13
-0.0000081433
23
0.1069266655
33
0.0000000000
40
0.0000000000
40
0.0000000000
40
0.0000000000
40
0.0000000000
40
0.2787544424
40
0.6324398899
40
1.0000000000
40
1.0000000000
40
1.0000000000
40
1.0000000000
10
15.0441732982
20
-9.3613230997
30
0.0000000000
10
15.0442123381
20
-9.3513702692
30
0.0000000000
10
15.0443504793
20
-9.3288769748
30
0.0000000000
10
15.0444207681
20
-9.2932110044
30
0.0000000000
10
15.0444455394
20
-9.2675100831
30
0.0000000000
10
15.0444445417
20
-9.2544094241
30
0.0000000000
11
15.0441732982
21
-9.3613230997
31
0.0000000000
11
15.0443159117
21
-9.3315296686
31
0.0000000000
11
15.0444135588
21
-9.2937113890
31
0.0000000000
11
15.0444445417
21
-9.2544094241
31
0.0000000000
0
SPLINE
5
2B5
100
AcDbEntity
8
0
100
AcDbSpline
62
9
6
CONTINUOUS
70
0
71
3
72
10
73
6
74
4
42
0.0000001000
43
0.0000001000
44
0.0000000001
12
0.0943649641
22
-0.0313723650
32
0.0000000000
13
0.0693708218
23
0.0712506900
33
0.0000000000
40
0.0000000000
40
0.0000000000
40
0.0000000000
40
0.0000000000
40
0.4977679380
40
0.8630729600
40
1.0000000000
40
1.0000000000
40
1.0000000000
40
1.0000000000
10
12.8405268615
20
-9.8061546879
30
0.0000000000
10
12.8561841460
20
-9.8113600737
30
0.0000000000
10
12.8842696692
20
-9.8230948613
30
0.0000000000
10
12.9133026273
20
-9.8250212204
30
0.0000000000
10
12.9322523703
20
-9.8390820212
30
0.0000000000
10
12.9354186174
20
-9.8358299725
30
0.0000000000
11
12.8405268615
21
-9.8061546879
31
0.0000000000
11
12.8875730007
21
-9.8215456002
31
0.0000000000
11
12.9222442801
21
-9.8323882710
31
0.0000000000
11
12.9354186174
21
-9.8358299725
31
0.0000000000
0
SPLINE
5
2B6
100
AcDbEntity
8
0
100
AcDbSpline
62
9
6
CONTINUOUS
70
0
71
3
72
8
73
4
74
2
42
0.0000001000
43
0.0000001000
44
0.0000000001
12
0.0626730486
22
0.1884466436
32
0.0000000000
13
0.1047032283
23
0.1694658767
33
0.0000000000
40
0.0000000000
40
0.0000000000
40
0.0000000000
40
0.0000000000
40
1.0000000000
40
1.0000000000
40
1.0000000000
40
1.0000000000
10
12.9354081672
20
-9.8358264947
30
0.0000000000
10
12.9562991834
20
-9.7730109469
30
0.0000000000
10
12.9846101937
20
-9.7124075979
30
0.0000000000
10
13.0195112698
20
-9.6559189723
30
0.0000000000
11
12.9354081672
21
-9.8358264947
31
0.0000000000
11
13.0195112698
21
-9.6559189723
31
0.0000000000
0
SPLINE
5
2B7
100
AcDbEntity
8
0
100
AcDbSpline
62
9
6
CONTINUOUS
70
0
71
3
72
11
73
7
74
5
42
0.0000001000
43
0.0000001000
44
0.0000000001
12
0.4579218945
22
0.7411627758
32
0.0000000000
13
0.8685604622
23
-0.0000503902
33
0.0000000000
40
0.0000000000
40
0.0000000000
40
0.0000000000
40
0.0000000000
40
0.2547125257
40
0.5193849851
40
0.7726619586
40
1.0000000000
40
1.0000000000
40
1.0000000000
40
1.0000000000
10
13.0195112698
20
-9.6559189723
30
0.0000000000
10
13.0583907506
20
-9.5929911581
30
0.0000000000
10
13.1543460114
20
-9.4750870980
30
0.0000000000
10
13.3382192200
20
-9.3428544209
30
0.0000000000
10
13.5423439777
20
-9.2660273358
30
0.0000000000
10
13.6819954128
20
-9.2498445298
30
0.0000000000
10
13.7478143576
20
-9.2498483483
30
0.0000000000
11
13.0195112698
21
-9.6559189723
31
0.0000000000
11
13.1591545873
21
-9.4843267649
31
0.0000000000
11
13.3457882803
21
-9.3501085330
31
0.0000000000
11
13.5516747760
21
-9.2726181988
31
0.0000000000
11
13.7478143576
21
-9.2498483483
31
0.0000000000
0
SPLINE
5
2B8
100
AcDbEntity
8
0
100
AcDbSpline
62
9
6
CONTINUOUS
70
0
71
3
72
12
73
8
74
6
42
0.0000001000
43
0.0000001000
44
0.0000000001
12
0.3761041606
22
1.1309602812
32
0.0000000000
13
1.1918579943
23
-0.0001373157
33
0.0000000000
40
0.0000000000
40
0.0000000000
40
0.0000000000
40
0.0000000000
40
0.1856099632
40
0.3930286256
40
0.6085782130
40
0.8149511747
40
1.0000000000
40
1.0000000000
40
1.0000000000
40
1.0000000000
10
12.8405268612
20
-9.8061547312
30
0.0000000000
10
12.8637964210
20
-9.7361822325
30
0.0000000000
10
12.9305185084
20
-9.5932194094
30
0.0000000000
10
13.0846911014
20
-9.4035497784
30
0.0000000000
10
13.2901255446
20
-9.2556420810
30
0.0000000000
10
13.5182275730
20
-9.1697139204
30
0.0000000000
10
13.6742970503
20
-9.1516127793
30
0.0000000000
10
13.7478143576
20
-9.1516212493
30
0.0000000000
11
12.8405268612
21
-9.8061547312
31
0.0000000000
11
12.9341414018
21
-9.6057178964
31
0.0000000000
11
13.0900662163
21
-9.4138793900
31
0.0000000000
11
13.2985582604
21
-9.2637761257
31
0.0000000000
11
13.5287352419
21
-9.1770671118
31
0.0000000000
11
13.7478143576
21
-9.1516212493
31
0.0000000000
0
SPLINE
5
2B9
100
AcDbEntity
8
0
100
AcDbSpline
62
9
6
CONTINUOUS
70
0
71
3
72
10
73
6
74
4
42
0.0000001000
43
0.0000001000
44
0.0000000001
12
0.0950966959
22
-0.0291668642
32
0.0000000000
13
0.0671315539
23
0.0733991963
33
0.0000000000
40
0.0000000000
40
0.0000000000
40
0.0000000000
40
0.0000000000
40
0.4977442857
40
0.8630566428
40
1.0000000000
40
1.0000000000
40
1.0000000000
40
1.0000000000
10
12.8337254181
20
-9.8274561776
30
0.0000000000
10
12.8495033638
20
-9.8322953909
30
0.0000000000
10
12.8778825769
20
-9.8433795590
30
0.0000000000
10
12.9069064405
20
-9.8445939262
30
0.0000000000
10
12.9262539079
20
-9.8582297169
30
0.0000000000
10
12.9293183147
20
-9.8548792061
30
0.0000000000
11
12.8337254181
21
-9.8274561776
31
0.0000000000
11
12.8811296524
21
-9.8417422747
31
0.0000000000
11
12.9160580915
21
-9.8517623035
31
0.0000000000
11
12.9293183147
21
-9.8548792061
31
0.0000000000
0
SPLINE
5
2BA
100
AcDbEntity
8
0
100
AcDbSpline
62
9
6
CONTINUOUS
70
0
71
3
72
9
73
5
74
3
42
0.0000001000
43
0.0000001000
44
0.0000000001
12
0.0058669131
22
0.0191228941
32
0.0000000000
13
0.0063120952
23
0.0189806007
33
0.0000000000
40
0.0000000000
40
0.0000000000
40
0.0000000000
40
0.0000000000
40
0.4999697366
40
1.0000000000
40
1.0000000000
40
1.0000000000
40
1.0000000000
10
12.9293183528
20
-9.8548792178
30
0.0000000000
10
12.9302961125
20
-9.8516922617
30
0.0000000000
10
12.9322890004
20
-9.8453293326
30
0.0000000000
10
12.9343560876
20
-9.8389901196
30
0.0000000000
10
12.9354081672
20
-9.8358264947
30
0.0000000000
11
12.9293183528
21
-9.8548792178
31
0.0000000000
11
12.9323074274
21
-9.8453356460
31
0.0000000000
11
12.9354081672
21
-9.8358264947
31
0.0000000000
0
SPLINE
5
2BB
100
AcDbEntity
8
0
100
AcDbSpline
62
9
6
CONTINUOUS
70
0
71
3
72
9
73
5
74
3
42
0.0000001000
43
0.0000001000
44
0.0000000001
12
0.0065524659
22
0.0213797447
32
0.0000000000
13
0.0070497363
23
0.0212209687
33
0.0000000000
40
0.0000000000
40
0.0000000000
40
0.0000000000
40
0.0000000000
40
0.4999960625
40
1.0000000000
40
1.0000000000
40
1.0000000000
40
1.0000000000
10
12.8337254181
20
-9.8274561775
30
0.0000000000
10
12.8348174871
20
-9.8238929147
30
0.0000000000
10
12.8370431670
20
-9.8167789924
30
0.0000000000
10
12.8393518959
20
-9.8096915872
30
0.0000000000
10
12.8405268612
20
-9.8061547312
30
0.0000000000
11
12.8337254181
21
-9.8274561775
31
0.0000000000
11
12.8370639114
21
-9.8167856776
31
0.0000000000
11
12.8405268612
21
-9.8061547312
31
0.0000000000
0
SPLINE
5
2BC
100
AcDbEntity
8
0
100
AcDbSpline
62
9
6
CONTINUOUS
70
0
71
3
72
10
73
6
74
4
42
0.0000001000
43
0.0000001000
44
0.0000000001
12
0.0987251834
22
0.0301631677
32
0.0000000000
13
-0.0196859109
23
0.1013357955
33
0.0000000000
40
0.0000000000
40
0.0000000000
40
0.0000000000
40
0.0000000000
40
0.4922186732
40
0.8575756548
40
1.0000000000
40
1.0000000000
40
1.0000000000
40
1.0000000000
10
12.8363354174
20
-15.7945294087
30
0.0000000000
10
12.8525335437
20
-15.7895804506
30
0.0000000000
10
12.8833916277
20
-15.7809838706
30
0.0000000000
10
12.9074627842
20
-15.7670812115
30
0.0000000000
10
12.9328649181
20
-15.7614392701
30
0.0000000000
10
12.9319303338
20
-15.7566283754
30
0.0000000000
11
12.8363354174
21
-15.7945294087
31
0.0000000000
11
12.8845912113
21
-15.7786164679
31
0.0000000000
11
12.9196519787
21
-15.7647157361
31
0.0000000000
11
12.9319303338
21
-15.7566283754
31
0.0000000000
0
SPLINE
5
2BD
100
AcDbEntity
8
0
100
AcDbSpline
62
9
6
CONTINUOUS
70
0
71
3
72
12
73
8
74
6
42
0.0000001000
43
0.0000001000
44
0.0000000001
12
-0.0005356732
22
0.7817393695
32
0.0000000000
13
-0.7817393695
23
0.0005356729
33
0.0000000000
40
0.0000000000
40
0.0000000000
40
0.0000000000
40
0.0000000000
40
0.1999730869
40
0.3999825158
40
0.6000069905
40
0.8000200361
40
1.0000000000
40
1.0000000000
40
1.0000000000
40
1.0000000000
10
30.4388229396
20
21.1901403113
30
0.0000000000
10
30.4387872329
20
21.2422492563
30
0.0000000000
10
30.4221443194
20
21.3471981366
30
0.0000000000
10
30.3499476359
20
21.4886622762
30
0.0000000000
10
30.2375223970
20
21.6010893829
30
0.0000000000
10
30.0960567030
20
21.6732893243
30
0.0000000000
10
29.9911050142
20
21.6899332660
30
0.0000000000
10
29.9389942773
20
21.6899689740
30
0.0000000000
11
30.4388229396
21
21.1901403113
31
0.0000000000
11
30.4142758758
21
21.3445279158
31
0.0000000000
11
30.3432459490
21
21.4838179858
31
0.0000000000
11
30.2326786700
21
21.5943871003
31
0.0000000000
11
30.0933870575
21
21.6654202257
31
0.0000000000
11
29.9389942773
21
21.6899689740
31
0.0000000000
0
SPLINE
5
2BE
100
AcDbEntity
8
0
100
AcDbSpline
62
9
6
CONTINUOUS
70
0
71
3
72
13
73
9
74
7
42
0.0000001000
43
0.0000001000
44
0.0000000001
12
-0.3798731233
22
-0.7620641468
32
0.0000000000
13
-0.0016795368
23
-0.8514942940
33
0.0000000000
40
0.0000000000
40
0.0000000000
40
0.0000000000
40
0.0000000000
40
0.0388753983
40
0.1388063002
40
0.2944587791
40
0.4974724225
40
0.7369546034
40
1.0000000000
40
1.0000000000
40
1.0000000000
40
1.0000000000
10
29.9389942771
20
21.6899689738
30
0.0000000000
10
29.9340717041
20
21.6800937914
30
0.0000000000
10
29.9386786533
20
21.6384169650
30
0.0000000000
10
29.9304425772
20
21.5568933339
30
0.0000000000
10
29.9312080727
20
21.4256956034
30
0.0000000000
10
29.9280846393
20
21.2563543482
30
0.0000000000
10
29.9271369794
20
21.0559547477
30
0.0000000000
10
29.9265362628
20
20.9133594630
30
0.0000000000
10
29.9263889979
20
20.8386989115
30
0.0000000000
11
29.9389942771
21
21.6899689738
31
0.0000000000
11
29.9359863369
21
21.6570036759
31
0.0000000000
11
29.9331591972
21
21.5719598964
31
0.0000000000
11
29.9306635304
21
21.4394459396
31
0.0000000000
11
29.9286363356
21
21.2665925313
31
0.0000000000
11
29.9271854940
21
21.0626795853
31
0.0000000000
11
29.9263889979
21
20.8386989115
31
0.0000000000
0
SPLINE
5
2BF
100
AcDbEntity
8
0
100
AcDbSpline
62
9
6
CONTINUOUS
70
0
71
3
72
13
73
9
74
7
42
0.0000001000
43
0.0000001000
44
0.0000000001
12
-0.2998378445
22
-0.3027311068
32
0.0000000000
13
-0.0016749314
23
-0.4260822111
33
0.0000000000
40
0.0000000000
40
0.0000000000
40
0.0000000000
40
0.0000000000
40
0.0389989225
40
0.1390489895
40
0.2951123331
40
0.4985549490
40
0.7383152120
40
1.0000000000
40
1.0000000000
40
1.0000000000
40
1.0000000000
10
30.4388229396
20
21.1901403113
30
0.0000000000
10
30.4349251553
20
21.1862049157
30
0.0000000000
10
30.4372814171
20
21.1634856301
30
0.0000000000
10
30.4309856673
20
21.1242979846
30
0.0000000000
10
30.4307354889
20
21.0576782814
30
0.0000000000
10
30.4280154985
20
20.9731420848
30
0.0000000000
10
30.4269270110
20
20.8728409442
30
0.0000000000
10
30.4263637618
20
20.8016716912
30
0.0000000000
10
30.4262176604
20
20.7645052802
30
0.0000000000
11
30.4388229396
21
21.1901403113
31
0.0000000000
11
30.4358281772
21
21.1737955278
31
0.0000000000
11
30.4329931451
21
21.1312600187
31
0.0000000000
11
30.4304906645
21
21.0648107955
31
0.0000000000
11
30.4284599993
21
20.9781506347
31
0.0000000000
11
30.4270091237
21
20.8760025657
31
0.0000000000
11
30.4262176604
21
20.7645052802
31
0.0000000000
0
SPLINE
5
2C0
100
AcDbEntity
8
0
100
AcDbSpline
62
9
6
CONTINUOUS
70
0
71
3
72
10
73
6
74
4
42
0.0000001000
43
0.0000001000
44
0.0000000001
12
-0.0454998612
22
-11.5801037905
32
0.0000000000
13
-0.0057626954
23
-11.5801917440
33
0.0000000000
40
0.0000000000
40
0.0000000000
40
0.0000000000
40
0.0000000000
40
0.3320106497
40
0.6655579556
40
1.0000000000
40
1.0000000000
40
1.0000000000
40
1.0000000000
10
30.4262176604
20
20.7645052802
30
0.0000000000
10
30.4211821809
20
19.4829326858
30
0.0000000000
10
30.4125810969
20
16.9138498349
30
0.0000000000
10
30.4040815683
20
13.0537940467
30
0.0000000000
10
30.4013374907
20
10.4753129359
30
0.0000000000
10
30.4006950614
20
9.1843452688
30
0.0000000000
11
30.4262176604
21
20.7645052802
31
0.0000000000
11
30.4133335992
21
16.9197794074
31
0.0000000000
11
30.4048205890
21
13.0572465523
31
0.0000000000
11
30.4006950614
21
9.1843452688
31
0.0000000000
0
SPLINE
5
2C1
100
AcDbEntity
8
0
100
AcDbSpline
62
9
6
CONTINUOUS
70
0
71
3
72
11
73
7
74
5
42
0.0000001000
43
0.0000001000
44
0.0000000001
12
-0.0879336083
22
0.5042136459
32
0.0000000000
13
-0.5118201364
23
0.0019667446
33
0.0000000000
40
0.0000000000
40
0.0000000000
40
0.0000000000
40
0.0000000000
40
0.0980813340
40
0.3164408036
40
0.6318107834
40
1.0000000000
40
1.0000000000
40
1.0000000000
40
1.0000000000
10
30.4262176604
20
20.7645052802
30
0.0000000000
10
30.4233427786
20
20.7809899292
30
0.0000000000
10
30.3579507052
20
20.8010941756
30
0.0000000000
10
30.2630729171
20
20.8206688631
30
0.0000000000
10
30.1043392420
20
20.8348679652
30
0.0000000000
10
29.9892045496
20
20.8384575269
30
0.0000000000
10
29.9263889979
20
20.8386989049
30
0.0000000000
11
30.4262176604
21
20.7645052802
31
0.0000000000
11
30.3845230605
21
20.7924630648
31
0.0000000000
11
30.2753334880
21
20.8163019449
31
0.0000000000
11
30.1147353853
21
20.8325098382
31
0.0000000000
11
29.9263889979
21
20.8386989049
31
0.0000000000
0
SPLINE
5
2C2
100
AcDbEntity
8
0
100
AcDbSpline
62
9
6
CONTINUOUS
70
0
71
3
72
10
73
6
74
4
42
0.0000001000
43
0.0000001000
44
0.0000000001
12
-0.0454998652
22
-11.6447977342
32
0.0000000000
13
-0.0057626947
23
-11.6448851991
33
0.0000000000
40
0.0000000000
40
0.0000000000
40
0.0000000000
40
0.0000000000
40
0.3320148752
40
0.6655565454
40
1.0000000000
40
1.0000000000
40
1.0000000000
40
1.0000000000
10
29.9263889979
20
20.8386989115
30
0.0000000000
10
29.9213534539
20
19.5499502226
30
0.0000000000
10
29.9127524072
20
16.9665203566
30
0.0000000000
10
29.9042528971
20
13.0849000382
30
0.0000000000
10
29.9015088308
20
10.4920304803
30
0.0000000000
10
29.9008663990
20
9.1938452688
30
0.0000000000
11
29.9263889979
21
20.8386989115
31
0.0000000000
11
29.9135048006
21
16.9724447998
31
0.0000000000
11
29.9049919531
21
13.0883991951
31
0.0000000000
11
29.9008663990
21
9.1938452688
31
0.0000000000
0
SPLINE
5
2C3
100
AcDbEntity
8
0
100
AcDbSpline
62
9
6
CONTINUOUS
70
0
71
3
72
11
73
7
74
5
42
0.0000001000
43
0.0000001000
44
0.0000000001
12
-0.4046046285
22
0.2938276453
32
0.0000000000
13
-0.5000395271
23
0.0002487410
33
0.0000000000
40
0.0000000000
40
0.0000000000
40
0.0000000000
40
0.0000000000
40
0.0837678272
40
0.3022330166
40
0.6233969281
40
1.0000000000
40
1.0000000000
40
1.0000000000
40
1.0000000000
10
30.4006950614
20
9.1843452688
30
0.0000000000
10
30.3893974446
20
9.1925497033
30
0.0000000000
10
30.3333783949
20
9.1817889448
30
0.0000000000
10
30.2343823123
20
9.1955661306
30
0.0000000000
10
30.0792644825
20
9.1917821118
30
0.0000000000
10
29.9636385396
20
9.1938140432
30
0.0000000000
10
29.9008663990
20
9.1938452688
30
0.0000000000
11
30.4006950614
21
9.1843452688
31
0.0000000000
11
30.3589610309
21
9.1879244760
31
0.0000000000
11
30.2497624319
21
9.1909765658
31
0.0000000000
11
30.0891811737
21
9.1930520504
31
0.0000000000
11
29.9008663990
21
9.1938452688
31
0.0000000000
0
SPLINE
5
2C4
100
AcDbEntity
8
0
100
AcDbSpline
62
9
6
CONTINUOUS
70
0
71
3
72
10
73
6
74
4
42
0.0000001000
43
0.0000001000
44
0.0000000001
12
-0.0094453638
22
-18.9809983461
32
0.0000000000
13
0.0094453647
23
-18.9809983461
33
0.0000000000
40
0.0000000000
40
0.0000000000
40
0.0000000000
40
0.0000000000
40
0.3333309358
40
0.6666687925
40
1.0000000000
40
1.0000000000
40
1.0000000000
40
1.0000000000
10
30.4006950614
20
9.1843452688
30
0.0000000000
10
30.3996455841
20
7.0753606219
30
0.0000000000
10
30.3982464843
20
2.8573471562
30
0.0000000000
10
30.3982464835
20
-3.4696531803
30
0.0000000000
10
30.3996455832
20
-7.6876683652
30
0.0000000000
10
30.4006950614
20
-9.7966547312
30
0.0000000000
11
30.4006950614
21
9.1843452688
31
0.0000000000
11
30.3985962664
21
2.8573908929
31
0.0000000000
11
30.3985962655
21
-3.4696951979
31
0.0000000000
11
30.4006950614
21
-9.7966547312
31
0.0000000000
0
SPLINE
5
2C5
100
AcDbEntity
8
0
100
AcDbSpline
62
9
6
CONTINUOUS
70
0
71
3
72
11
73
7
74
5
42
0.0000001000
43
0.0000001000
44
0.0000000001
12
-0.4046050954
22
-0.2938270022
32
0.0000000000
13
-0.5000395271
23
-0.0002487410
33
0.0000000000
40
0.0000000000
40
0.0000000000
40
0.0000000000
40
0.0000000000
40
0.0837678513
40
0.3022330464
40
0.6233969476
40
1.0000000000
40
1.0000000000
40
1.0000000000
40
1.0000000000
10
30.4006950614
20
-9.7966547312
30
0.0000000000
10
30.3893974283
20
-9.8048591501
30
0.0000000000
10
30.3333784019
20
-9.7940984276
30
0.0000000000
10
30.2343822910
20
-9.8078755805
30
0.0000000000
10
30.0792644778
20
-9.8040915782
30
0.0000000000
10
29.9636385364
20
-9.8061235048
30
0.0000000000
10
29.9008663990
20
-9.8061547304
30
0.0000000000
11
30.4006950614
21
-9.7966547312
31
0.0000000000
11
30.3589610188
21
-9.8002339382
31
0.0000000000
11
30.2497624169
21
-9.8032860277
31
0.0000000000
11
30.0891811639
21
-9.8053615121
31
0.0000000000
11
29.9008663990
21
-9.8061547304
31
0.0000000000
0
SPLINE
5
2C6
100
AcDbEntity
8
0
100
AcDbSpline
62
9
6
CONTINUOUS
70
0
71
3
72
10
73
6
74
4
42
0.0000001000
43
0.0000001000
44
0.0000000001
12
0.0057627267
22
-11.6448851990
32
0.0000000000
13
0.0454998975
23
-11.6447977341
33
0.0000000000
40
0.0000000000
40
0.0000000000
40
0.0000000000
40
0.0000000000
40
0.3344434558
40
0.6679851259
40
1.0000000000
40
1.0000000000
40
1.0000000000
40
1.0000000000
10
29.9008663990
20
-9.8061547312
30
0.0000000000
10
29.9015088344
20
-11.1043399473
30
0.0000000000
10
29.9042528925
20
-13.6972095096
30
0.0000000000
10
29.9127524119
20
-17.5788298280
30
0.0000000000
10
29.9213534504
20
-20.1622596895
30
0.0000000000
10
29.9263889979
20
-21.4510083740
30
0.0000000000
11
29.9008663990
21
-9.8061547312
31
0.0000000000
11
29.9049919520
21
-13.7007086712
31
0.0000000000
11
29.9135048017
21
-17.5847542755
31
0.0000000000
11
29.9263889979
21
-21.4510083740
31
0.0000000000
0
SPLINE
5
2C7
100
AcDbEntity
8
0
100
AcDbSpline
62
9
6
CONTINUOUS
70
0
71
3
72
10
73
6
74
4
42
0.0000001000
43
0.0000001000
44
0.0000000001
12
0.0057627270
22
-11.5801917440
32
0.0000000000
13
0.0454998935
23
-11.5801037904
33
0.0000000000
40
0.0000000000
40
0.0000000000
40
0.0000000000
40
0.0000000000
40
0.3344391969
40
0.6679865126
40
1.0000000000
40
1.0000000000
40
1.0000000000
40
1.0000000000
10
30.4006950614
20
-9.7966547312
30
0.0000000000
10
30.4013374887
20
-11.0876114068
30
0.0000000000
10
30.4040815341
20
-13.6660815638
30
0.0000000000
10
30.4125810345
20
-17.5261373520
30
0.0000000000
10
30.4211821343
20
-20.0952311945
30
0.0000000000
10
30.4262176604
20
-21.3768147426
30
0.0000000000
11
30.4006950614
21
-9.7966547312
31
0.0000000000
11
30.4048205341
21
-13.6695230401
31
0.0000000000
11
30.4133335091
21
-17.5320560084
31
0.0000000000
11
30.4262176604
21
-21.3768147426
31
0.0000000000
0
SPLINE
5
2C8
100
AcDbEntity
8
0
100
AcDbSpline
62
9
6
CONTINUOUS
70
0
71
3
72
13
73
9
74
7
42
0.0000001000
43
0.0000001000
44
0.0000000001
12
0.0016770280
22
-0.4260821831
32
0.0000000000
13
0.3008908499
23
-0.3016844968
33
0.0000000000
40
0.0000000000
40
0.0000000000
40
0.0000000000
40
0.0000000000
40
0.2616767239
40
0.5016479759
40
0.7052110882
40
0.8610593380
40
0.9609957067
40
1.0000000000
40
1.0000000000
40
1.0000000000
40
1.0000000000
10
30.4262176604
20
-21.3768147426
30
0.0000000000
10
30.4263639402
20
-21.4139800059
30
0.0000000000
10
30.4269276360
20
-21.4851775665
30
0.0000000000
10
30.4280146810
20
-21.5855267930
30
0.0000000000
10
30.4307422105
20
-21.6700736525
30
0.0000000000
10
30.4309814811
20
-21.7366758441
30
0.0000000000
10
30.4372972503
20
-21.7757949376
30
0.0000000000
10
30.4349109280
20
-21.7985274436
30
0.0000000000
10
30.4388229396
20
-21.8024497738
30
0.0000000000
11
30.4262176604
21
-21.3768147426
31
0.0000000000
11
30.4270090500
21
-21.4883085874
31
0.0000000000
11
30.4284614905
21
-21.5905465378
31
0.0000000000
11
30.4304947434
21
-21.6772579898
31
0.0000000000
11
30.4329955809
21
-21.7436155585
31
0.0000000000
11
30.4358280846
21
-21.7861026814
31
0.0000000000
11
30.4388229396
21
-21.8024497738
31
0.0000000000
0
SPLINE
5
2C9
100
AcDbEntity
8
0
100
AcDbSpline
62
9
6
CONTINUOUS
70
0
71
3
72
11
73
7
74
5
42
0.0000001000
43
0.0000001000
44
0.0000000001
12
-0.0880146722
22
-0.5041980240
32
0.0000000000
13
-0.5118186810
23
-0.0019666353
33
0.0000000000
40
0.0000000000
40
0.0000000000
40
0.0000000000
40
0.0000000000
40
0.0980859393
40
0.3164470924
40
0.6318150472
40
1.0000000000
40
1.0000000000
40
1.0000000000
40
1.0000000000
10
30.4262176603
20
-21.3768147426
30
0.0000000000
10
30.4233399930
20
-21.3932996549
30
0.0000000000
10
30.3579491110
20
-21.4134007591
30
0.0000000000
10
30.2630686163
20
-21.4329766325
30
0.0000000000
10
30.1043372574
20
-21.4471742376
30
0.0000000000
10
29.9892036436
20
-21.4507638849
30
0.0000000000
10
29.9263889980
20
-21.4510052467
30
0.0000000000
11
30.4262176603
21
-21.3768147426
31
0.0000000000
11
30.3845197041
21
-21.4047714978
31
0.0000000000
11
30.2753293518
21
-21.4286093554
31
0.0000000000
11
30.1147326757
21
-21.4448164898
31
0.0000000000
11
29.9263889980
21
-21.4510052467
31
0.0000000000
0
SPLINE
5
2CA
100
AcDbEntity
8
0
100
AcDbSpline
62
9
6
CONTINUOUS
70
0
71
3
72
13
73
9
74
7
42
0.0000001000
43
0.0000001000
44
0.0000000001
12
0.0016822847
22
-0.8514942679
32
0.0000000000
13
0.3811154679
23
-0.7614435754
33
0.0000000000
40
0.0000000000
40
0.0000000000
40
0.0000000000
40
0.0000000000
40
0.2630456474
40
0.5025330282
40
0.7055472220
40
0.8611970922
40
0.9611247798
40
1.0000000000
40
1.0000000000
40
1.0000000000
40
1.0000000000
10
29.9263889979
20
-21.4510083740
30
0.0000000000
10
29.9265365038
20
-21.5256689943
30
0.0000000000
10
29.9271375674
20
-21.6682655317
30
0.0000000000
10
29.9280823548
20
-21.8686679880
30
0.0000000000
10
29.9312144969
20
-22.0380068487
30
0.0000000000
10
29.9304314982
20
-22.1692111755
30
0.0000000000
10
29.9386986214
20
-22.2507176089
30
0.0000000000
10
29.9340556279
20
-22.2924113407
30
0.0000000000
10
29.9389942771
20
-22.3022784363
30
0.0000000000
11
29.9263889979
21
-21.4510083740
31
0.0000000000
11
29.9271854364
21
-21.6749892561
31
0.0000000000
11
29.9286363365
21
-21.8789066244
31
0.0000000000
11
29.9306645926
21
-22.0517604849
31
0.0000000000
11
29.9331596280
21
-22.1842722286
31
0.0000000000
11
29.9359865015
21
-22.2693132764
31
0.0000000000
11
29.9389942771
21
-22.3022784363
31
0.0000000000
0
SPLINE
5
2CB
100
AcDbEntity
8
0
100
AcDbSpline
62
9
6
CONTINUOUS
70
0
71
3
72
12
73
8
74
6
42
0.0000001000
43
0.0000001000
44
0.0000000001
12
-0.0005356733
22
-0.7817393695
32
0.0000000000
13
-0.7817393695
23
-0.0005356731
33
0.0000000000
40
0.0000000000
40
0.0000000000
40
0.0000000000
40
0.0000000000
40
0.1999768524
40
0.3999879275
40
0.6000120716
40
0.8000231470
40
1.0000000000
40
1.0000000000
40
1.0000000000
40
1.0000000000
10
30.4388229396
20
-21.8024497738
30
0.0000000000
10
30.4387872322
20
-21.8545596999
30
0.0000000000
10
30.4221437691
20
-21.9595100310
30
0.0000000000
10
30.3499454232
20
-22.1009748755
30
0.0000000000
10
30.2375193794
20
-22.2134009195
30
0.0000000000
10
30.0960545347
20
-22.2855992657
30
0.0000000000
10
29.9911042034
20
-22.3022427288
30
0.0000000000
10
29.9389942771
20
-22.3022784363
30
0.0000000000
11
30.4388229396
21
-21.8024497738
31
0.0000000000
11
30.4142749534
21
-21.9568402123
31
0.0000000000
11
30.3432434308
21
-22.0961309129
31
0.0000000000
11
30.2326754169
21
-22.2066989270
31
0.0000000000
11
30.0933847160
21
-22.2777304500
31
0.0000000000
11
29.9389942771
21
-22.3022784363
31
0.0000000000
0
SPLINE
5
2CC
100
AcDbEntity
8
0
100
AcDbSpline
62
9
6
CONTINUOUS
70
0
71
3
72
13
73
9
74
7
42
0.0000001000
43
0.0000001000
44
0.0000000001
12
-1.7612181455
22
5.7224985454
32
0.0000000000
13
1.7562188810
23
5.7240347833
33
0.0000000000
40
0.0000000000
40
0.0000000000
40
0.0000000000
40
0.0000000000
40
0.2151959434
40
0.4066537793
40
0.5784106635
40
0.7329277837
40
0.8726003512
40
1.0000000000
40
1.0000000000
40
1.0000000000
40
1.0000000000
10
12.9319283521
20
-15.7566289836
30
0.0000000000
10
12.8055926854
20
-15.3461428260
30
0.0000000000
10
12.6164251849
20
-14.5541290341
30
0.0000000000
10
12.4858630856
20
-13.4047869226
30
0.0000000000
10
12.4808320914
20
-12.3696721747
30
0.0000000000
10
12.5667871120
20
-11.4423942565
30
0.0000000000
10
12.7176886769
20
-10.6136778532
30
0.0000000000
10
12.8547377966
20
-10.0979592248
30
0.0000000000
10
12.9293183528
20
-9.8548792178
30
0.0000000000
11
12.9319283521
21
-15.7566289836
31
0.0000000000
11
12.6326515655
21
-14.5034052679
31
0.0000000000
11
12.5032159088
21
-13.3644028059
31
0.0000000000
11
12.4982225940
21
-12.3360389050
31
0.0000000000
11
12.5836031116
21
-11.4148323447
31
0.0000000000
11
12.7334196216
21
-10.5920868071
31
0.0000000000
11
12.9293183528
21
-9.8548792178
31
0.0000000000
0
SPLINE
5
2CD
100
AcDbEntity
8
0
100
AcDbSpline
62
9
6
CONTINUOUS
70
0
71
3
72
12
73
8
74
6
42
0.0000001000
43
0.0000001000
44
0.0000000001
12
0.0005356733
22
0.7817393695
32
0.0000000000
13
0.7817393695
23
0.0005356728
33
0.0000000000
40
0.0000000000
40
0.0000000000
40
0.0000000000
40
0.0000000000
40
0.1999768525
40
0.3999879277
40
0.6000120717
40
0.8000231472
40
1.0000000000
40
1.0000000000
40
1.0000000000
40
1.0000000000
10
8.6465755295
20
21.1901403113
30
0.0000000000
10
8.6466112370
20
21.2422502375
30
0.0000000000
10
8.6632547000
20
21.3472005686
30
0.0000000000
10
8.7354530460
20
21.4886654131
30
0.0000000000
10
8.8478790899
20
21.6010914571
30
0.0000000000
10
8.9893439345
20
21.6732898034
30
0.0000000000
10
9.0942942657
20
21.6899332664
30
0.0000000000
10
9.1464041920
20
21.6899689738
30
0.0000000000
11
8.6465755295
21
21.1901403113
31
0.0000000000
11
8.6711235157
21
21.3445307499
31
0.0000000000
11
8.7421550384
21
21.4838214506
31
0.0000000000
11
8.8527230524
21
21.5943894647
31
0.0000000000
11
8.9920137532
21
21.6654209876
31
0.0000000000
11
9.1464041920
21
21.6899689738
31
0.0000000000
0
SPLINE
5
2CE
100
AcDbEntity
8
0
100
AcDbSpline
62
9
6
CONTINUOUS
70
0
71
3
72
13
73
9
74
7
42
0.0000001000
43
0.0000001000
44
0.0000000001
12
-1.7787165672
22
5.7862514455
32
0.0000000000
13
1.7737841487
23
5.7877653900
33
0.0000000000
40
0.0000000000
40
0.0000000000
40
0.0000000000
40
0.0000000000
40
0.2151475126
40
0.4066455637
40
0.5784306463
40
0.7329650632
40
0.8726462861
40
1.0000000000
40
1.0000000000
40
1.0000000000
40
1.0000000000
10
12.8363354174
20
-15.7945294419
30
0.0000000000
10
12.7087732691
20
-15.3795635734
30
0.0000000000
10
12.5177122117
20
-14.5787869659
30
0.0000000000
10
12.3858464247
20
-13.4167072982
30
0.0000000000
10
12.3807724611
20
-12.3699991863
30
0.0000000000
10
12.4676067404
20
-11.4323737616
30
0.0000000000
10
12.6200198003
20
-10.5945259915
30
0.0000000000
10
12.7584260851
20
-10.0731539834
30
0.0000000000
10
12.8337254181
20
-9.8274561775
30
0.0000000000
11
12.8363354174
21
-15.7945294419
31
0.0000000000
11
12.5341332161
21
-14.5276858078
31
0.0000000000
11
12.4033758226
21
-13.3758556005
31
0.0000000000
11
12.3983408223
21
-12.3359713875
31
0.0000000000
11
12.4845949383
21
-11.4044864051
31
0.0000000000
11
12.6359310502
21
-10.5725830126
31
0.0000000000
11
12.8337254181
21
-9.8274561775
31
0.0000000000
0
SPLINE
5
2CF
100
AcDbEntity
8
0
100
AcDbSpline
62
9
6
CONTINUOUS
70
0
71
3
72
11
73
7
74
5
42
0.0000001000
43
0.0000001000
44
0.0000000001
12
0.0880348962
22
0.5041940686
32
0.0000000000
13
0.5118182626
23
0.0019666785
33
0.0000000000
40
0.0000000000
40
0.0000000000
40
0.0000000000
40
0.0000000000
40
0.0980869955
40
0.3164485651
40
0.6318160534
40
1.0000000000
40
1.0000000000
40
1.0000000000
40
1.0000000000
10
8.6591808090
20
20.7645052802
30
0.0000000000
10
8.6620591685
20
20.7809902406
30
0.0000000000
10
8.7274497901
20
20.8010904578
30
0.0000000000
10
8.8223309049
20
20.8206666181
30
0.0000000000
10
8.9810617064
20
20.8348638177
30
0.0000000000
10
9.0961950486
20
20.8384534990
30
0.0000000000
10
9.1590094712
20
20.8386948655
30
0.0000000000
11
8.6591808090
21
20.7645052802
31
0.0000000000
11
8.7008795917
21
20.7924616997
31
0.0000000000
11
8.8100701359
21
20.8162992491
31
0.0000000000
11
8.9706664606
21
20.8325061740
31
0.0000000000
11
9.1590094712
21
20.8386948655
31
0.0000000000
0
SPLINE
5
2D0
100
AcDbEntity
8
0
100
AcDbSpline
62
9
6
CONTINUOUS
70
0
71
3
72
13
73
9
74
7
42
0.0000001000
43
0.0000001000
44
0.0000000001
12
-0.0016795368
22
0.8514942940
32
0.0000000000
13
-0.3798731193
23
0.7620641488
33
0.0000000000
40
0.0000000000
40
0.0000000000
40
0.0000000000
40
0.0000000000
40
0.2630453966
40
0.5025275775
40
0.7055412209
40
0.8611936998
40
0.9611246017
40
1.0000000000
40
1.0000000000
40
1.0000000000
40
1.0000000000
10
9.1590094712
20
20.8386989115
30
0.0000000000
10
9.1588622064
20
20.9133594630
30
0.0000000000
10
9.1582614897
20
21.0559547477
30
0.0000000000
10
9.1573138299
20
21.2563543482
30
0.0000000000
10
9.1541903965
20
21.4256956034
30
0.0000000000
10
9.1549558919
20
21.5568933339
30
0.0000000000
10
9.1467198160
20
21.6384169650
30
0.0000000000
10
9.1513267650
20
21.6800937914
30
0.0000000000
10
9.1464041920
20
21.6899689738
30
0.0000000000
11
9.1590094712
21
20.8386989115
31
0.0000000000
11
9.1582129752
21
21.0626795853
31
0.0000000000
11
9.1567621335
21
21.2665925313
31
0.0000000000
11
9.1547349388
21
21.4394459396
31
0.0000000000
11
9.1522392720
21
21.5719598964
31
0.0000000000
11
9.1494121323
21
21.6570036759
31
0.0000000000
11
9.1464041920
21
21.6899689738
31
0.0000000000
0
SPLINE
5
2D1
100
AcDbEntity
8
0
100
AcDbSpline
62
9
6
CONTINUOUS
70
0
71
3
72
13
73
9
74
7
42
0.0000001000
43
0.0000001000
44
0.0000000001
12
-0.0016749314
22
0.4260822111
32
0.0000000000
13
-0.2998378333
23
0.3027311179
33
0.0000000000
40
0.0000000000
40
0.0000000000
40
0.0000000000
40
0.0000000000
40
0.2616847880
40
0.5014450510
40
0.7048876669
40
0.8609510104
40
0.9610010776
40
1.0000000000
40
1.0000000000
40
1.0000000000
40
1.0000000000
10
8.6591808087
20
20.7645052802
30
0.0000000000
10
8.6590347074
20
20.8016716912
30
0.0000000000
10
8.6584714581
20
20.8728409443
30
0.0000000000
10
8.6573829707
20
20.9731420848
30
0.0000000000
10
8.6546629803
20
21.0576782815
30
0.0000000000
10
8.6544128017
20
21.1242979845
30
0.0000000000
10
8.6481170522
20
21.1634856303
30
0.0000000000
10
8.6504733137
20
21.1862049155
30
0.0000000000
10
8.6465755295
20
21.1901403113
30
0.0000000000
11
8.6591808087
21
20.7645052802
31
0.0000000000
11
8.6583893454
21
20.8760025657
31
0.0000000000
11
8.6569384699
21
20.9781506347
31
0.0000000000
11
8.6549078047
21
21.0648107955
31
0.0000000000
11
8.6524053240
21
21.1312600187
31
0.0000000000
11
8.6495702920
21
21.1737955278
31
0.0000000000
11
8.6465755295
21
21.1901403113
31
0.0000000000
0
SPLINE
5
2D2
100
AcDbEntity
8
0
100
AcDbSpline
62
9
6
CONTINUOUS
70
0
71
3
72
10
73
6
74
4
42
0.0000001000
43
0.0000001000
44
0.0000000001
12
-0.0057626947
22
11.6448851991
32
0.0000000000
13
-0.0454998652
23
11.6447977342
33
0.0000000000
40
0.0000000000
40
0.0000000000
40
0.0000000000
40
0.0000000000
40
0.3344434546
40
0.6679851248
40
1.0000000000
40
1.0000000000
40
1.0000000000
40
1.0000000000
10
9.1845320702
20
9.1938452688
30
0.0000000000
10
9.1838896384
20
10.4920304803
30
0.0000000000
10
9.1811455720
20
13.0849000382
30
0.0000000000
10
9.1726460620
20
16.9665203566
30
0.0000000000
10
9.1640450152
20
19.5499502226
30
0.0000000000
10
9.1590094712
20
20.8386989115
30
0.0000000000
11
9.1845320702
21
9.1938452688
31
0.0000000000
11
9.1804065161
21
13.0883991951
31
0.0000000000
11
9.1718936686
21
16.9724447998
31
0.0000000000
11
9.1590094712
21
20.8386989115
31
0.0000000000
0
SPLINE
5
2D3
100
AcDbEntity
8
0
100
AcDbSpline
62
9
6
CONTINUOUS
70
0
71
3
72
10
73
6
74
4
42
0.0000001000
43
0.0000001000
44
0.0000000001
12
-0.0057626954
22
11.5801917440
32
0.0000000000
13
-0.0454998612
23
11.5801037905
33
0.0000000000
40
0.0000000000
40
0.0000000000
40
0.0000000000
40
0.0000000000
40
0.3344420444
40
0.6679893503
40
1.0000000000
40
1.0000000000
40
1.0000000000
40
1.0000000000
10
8.6847034077
20
9.1843452688
30
0.0000000000
10
8.6840609785
20
10.4753129359
30
0.0000000000
10
8.6813169009
20
13.0537940467
30
0.0000000000
10
8.6728173723
20
16.9138498349
30
0.0000000000
10
8.6642162882
20
19.4829326858
30
0.0000000000
10
8.6591808087
20
20.7645052802
30
0.0000000000
11
8.6847034077
21
9.1843452688
31
0.0000000000
11
8.6805778801
21
13.0572465523
31
0.0000000000
11
8.6720648699
21
16.9197794074
31
0.0000000000
11
8.6591808087
21
20.7645052802
31
0.0000000000
0
SPLINE
5
2D4
100
AcDbEntity
8
0
100
AcDbSpline
62
9
6
CONTINUOUS
70
0
71
3
72
11
73
7
74
5
42
0.0000001000
43
0.0000001000
44
0.0000000001
12
0.4046049032
22
0.2938272670
32
0.0000000000
13
0.5000395271
23
0.0002487410
33
0.0000000000
40
0.0000000000
40
0.0000000000
40
0.0000000000
40
0.0000000000
40
0.0837678414
40
0.3022330341
40
0.6233969396
40
1.0000000000
40
1.0000000000
40
1.0000000000
40
1.0000000000
10
8.6847034077
20
9.1843452688
30
0.0000000000
10
8.6960010342
20
9.1925496941
30
0.0000000000
10
8.7520200702
20
9.1817889568
30
0.0000000000
10
8.8510161694
20
9.1955661232
30
0.0000000000
10
9.0061339894
20
9.1917821142
30
0.0000000000
10
9.1217599315
20
9.1938140427
30
0.0000000000
10
9.1845320702
20
9.1938452683
30
0.0000000000
11
8.6847034077
21
9.1843452688
31
0.0000000000
11
8.7264374453
21
9.1879244759
31
0.0000000000
11
8.8356360461
21
9.1909765655
31
0.0000000000
11
8.9962173013
21
9.1930520499
31
0.0000000000
11
9.1845320702
21
9.1938452683
31
0.0000000000
0
SPLINE
5
2D5
100
AcDbEntity
8
0
100
AcDbSpline
62
9
6
CONTINUOUS
70
0
71
3
72
11
73
7
74
5
42
0.0000001000
43
0.0000001000
44
0.0000000001
12
0.4046046249
22
-0.2938276502
32
0.0000000000
13
0.5000395271
23
-0.0002487410
33
0.0000000000
40
0.0000000000
40
0.0000000000
40
0.0000000000
40
0.0000000000
40
0.0837678270
40
0.3022330164
40
0.6233969279
40
1.0000000000
40
1.0000000000
40
1.0000000000
40
1.0000000000
10
8.6847034077
20
-9.7966547312
30
0.0000000000
10
8.6960010245
20
-9.8048591658
30
0.0000000000
10
8.7520200744
20
-9.7940984071
30
0.0000000000
10
8.8510161567
20
-9.8078755931
30
0.0000000000
10
9.0061339866
20
-9.8040915742
30
0.0000000000
10
9.1217599295
20
-9.8061235057
30
0.0000000000
10
9.1845320702
20
-9.8061547312
30
0.0000000000
11
8.6847034077
21
-9.7966547312
31
0.0000000000
11
8.7264374381
21
-9.8002339384
31
0.0000000000
11
8.8356360372
21
-9.8032860282
31
0.0000000000
11
8.9962172954
21
-9.8053615128
31
0.0000000000
11
9.1845320702
21
-9.8061547312
31
0.0000000000
0
SPLINE
5
2D6
100
AcDbEntity
8
0
100
AcDbSpline
62
9
6
CONTINUOUS
70
0
71
3
72
10
73
6
74
4
42
0.0000001000
43
0.0000001000
44
0.0000000001
12
0.0094453647
22
18.9809983461
32
0.0000000000
13
-0.0094453638
23
18.9809983461
33
0.0000000000
40
0.0000000000
40
0.0000000000
40
0.0000000000
40
0.0000000000
40
0.3333312075
40
0.6666690642
40
1.0000000000
40
1.0000000000
40
1.0000000000
40
1.0000000000
10
8.6847034077
20
-9.7966547312
30
0.0000000000
10
8.6857528860
20
-7.6876683652
30
0.0000000000
10
8.6871519856
20
-3.4696531803
30
0.0000000000
10
8.6871519849
20
2.8573471562
30
0.0000000000
10
8.6857528850
20
7.0753606219
30
0.0000000000
10
8.6847034077
20
9.1843452688
30
0.0000000000
11
8.6847034077
21
-9.7966547312
31
0.0000000000
11
8.6868022036
21
-3.4696951979
31
0.0000000000
11
8.6868022028
21
2.8573908929
31
0.0000000000
11
8.6847034077
21
9.1843452688
31
0.0000000000
0
SPLINE
5
2D7
100
AcDbEntity
8
0
100
AcDbSpline
62
9
6
CONTINUOUS
70
0
71
3
72
11
73
7
74
5
42
0.0000001000
43
0.0000001000
44
0.0000000001
12
0.0879334898
22
-0.5042136679
32
0.0000000000
13
0.5118201378
23
-0.0019667502
33
0.0000000000
40
0.0000000000
40
0.0000000000
40
0.0000000000
40
0.0000000000
40
0.0980813264
40
0.3164407936
40
0.6318107767
40
1.0000000000
40
1.0000000000
40
1.0000000000
40
1.0000000000
10
8.6591808087
20
-21.3768147426
30
0.0000000000
10
8.6620556865
20
-21.3932993911
30
0.0000000000
10
8.7274477620
20
-21.4134036410
30
0.0000000000
10
8.8223255457
20
-21.4329783261
30
0.0000000000
10
8.9810592244
20
-21.4471774289
30
0.0000000000
10
9.0961939182
20
-21.4507669913
30
0.0000000000
10
9.1590094712
20
-21.4510083700
30
0.0000000000
11
8.6591808087
21
-21.3768147426
31
0.0000000000
11
8.7008754037
21
-21.4047725279
31
0.0000000000
11
8.8100649751
21
-21.4286114084
31
0.0000000000
11
8.9706630800
21
-21.4448193018
31
0.0000000000
11
9.1590094712
21
-21.4510083700
31
0.0000000000
0
SPLINE
5
2D8
100
AcDbEntity
8
0
100
AcDbSpline
62
9
6
CONTINUOUS
70
0
71
3
72
10
73
6
74
4
42
0.0000001000
43
0.0000001000
44
0.0000000001
12
0.0454998975
22
11.6447977341
32
0.0000000000
13
0.0057627267
23
11.6448851990
33
0.0000000000
40
0.0000000000
40
0.0000000000
40
0.0000000000
40
0.0000000000
40
0.3320148741
40
0.6655565442
40
1.0000000000
40
1.0000000000
40
1.0000000000
40
1.0000000000
10
9.1590094712
20
-21.4510083740
30
0.0000000000
10
9.1640450188
20
-20.1622596895
30
0.0000000000
10
9.1726460573
20
-17.5788298280
30
0.0000000000
10
9.1811455767
20
-13.6972095096
30
0.0000000000
10
9.1838896348
20
-11.1043399473
30
0.0000000000
10
9.1845320702
20
-9.8061547312
30
0.0000000000
11
9.1590094712
21
-21.4510083740
31
0.0000000000
11
9.1718936675
21
-17.5847542755
31
0.0000000000
11
9.1804065171
21
-13.7007086712
31
0.0000000000
11
9.1845320702
21
-9.8061547312
31
0.0000000000
0
SPLINE
5
2D9
100
AcDbEntity
8
0
100
AcDbSpline
62
9
6
CONTINUOUS
70
0
71
3
72
10
73
6
74
4
42
0.0000001000
43
0.0000001000
44
0.0000000001
12
0.0454998935
22
11.5801037904
32
0.0000000000
13
0.0057627270
23
11.5801917440
33
0.0000000000
40
0.0000000000
40
0.0000000000
40
0.0000000000
40
0.0000000000
40
0.3320134874
40
0.6655608031
40
1.0000000000
40
1.0000000000
40
1.0000000000
40
1.0000000000
10
8.6591808087
20
-21.3768147426
30
0.0000000000
10
8.6642163348
20
-20.0952311945
30
0.0000000000
10
8.6728174347
20
-17.5261373520
30
0.0000000000
10
8.6813169351
20
-13.6660815638
30
0.0000000000
10
8.6840609804
20
-11.0876114068
30
0.0000000000
10
8.6847034077
20
-9.7966547312
30
0.0000000000
11
8.6591808087
21
-21.3768147426
31
0.0000000000
11
8.6720649601
21
-17.5320560084
31
0.0000000000
11
8.6805779350
21
-13.6695230401
31
0.0000000000
11
8.6847034077
21
-9.7966547312
31
0.0000000000
0
SPLINE
5
2DA
100
AcDbEntity
8
0
100
AcDbSpline
62
9
6
CONTINUOUS
70
0
71
3
72
13
73
9
74
7
42
0.0000001000
43
0.0000001000
44
0.0000000001
12
0.3811154612
22
0.7614435787
32
0.0000000000
13
0.0016822847
23
0.8514942679
33
0.0000000000
40
0.0000000000
40
0.0000000000
40
0.0000000000
40
0.0000000000
40
0.0388752202
40
0.1388029078
40
0.2944527780
40
0.4974669718
40
0.7369543526
40
1.0000000000
40
1.0000000000
40
1.0000000000
40
1.0000000000
10
9.1464041920
20
-22.3022784363
30
0.0000000000
10
9.1513428412
20
-22.2924113407
30
0.0000000000
10
9.1466998479
20
-22.2507176090
30
0.0000000000
10
9.1549669709
20
-22.1692111755
30
0.0000000000
10
9.1541839723
20
-22.0380068488
30
0.0000000000
10
9.1573161144
20
-21.8686679880
30
0.0000000000
10
9.1582609018
20
-21.6682655317
30
0.0000000000
10
9.1588619653
20
-21.5256689943
30
0.0000000000
10
9.1590094712
20
-21.4510083740
30
0.0000000000
11
9.1464041920
21
-22.3022784363
31
0.0000000000
11
9.1494119677
21
-22.2693132764
31
0.0000000000
11
9.1522388412
21
-22.1842722286
31
0.0000000000
11
9.1547338766
21
-22.0517604849
31
0.0000000000
11
9.1567621327
21
-21.8789066244
31
0.0000000000
11
9.1582130327
21
-21.6749892561
31
0.0000000000
11
9.1590094712
21
-21.4510083740
31
0.0000000000
0
SPLINE
5
2DB
100
AcDbEntity
8
0
100
AcDbSpline
62
9
6
CONTINUOUS
70
0
71
3
72
13
73
9
74
7
42
0.0000001000
43
0.0000001000
44
0.0000000001
12
0.3008908482
22
0.3016844985
32
0.0000000000
13
0.0016770280
23
0.4260821831
33
0.0000000000
40
0.0000000000
40
0.0000000000
40
0.0000000000
40
0.0000000000
40
0.0390042934
40
0.1389406620
40
0.2947889118
40
0.4983520241
40
0.7383232760
40
1.0000000000
40
1.0000000000
40
1.0000000000
40
1.0000000000
10
8.6465755295
20
-21.8024497738
30
0.0000000000
10
8.6504875412
20
-21.7985274435
30
0.0000000000
10
8.6481012189
20
-21.7757949376
30
0.0000000000
10
8.6544169881
20
-21.7366758441
30
0.0000000000
10
8.6546562586
20
-21.6700736526
30
0.0000000000
10
8.6573837882
20
-21.5855267930
30
0.0000000000
10
8.6584708332
20
-21.4851775665
30
0.0000000000
10
8.6590345290
20
-21.4139800059
30
0.0000000000
10
8.6591808087
20
-21.3768147426
30
0.0000000000
11
8.6465755295
21
-21.8024497738
31
0.0000000000
11
8.6495703845
21
-21.7861026814
31
0.0000000000
11
8.6524028883
21
-21.7436155585
31
0.0000000000
11
8.6549037258
21
-21.6772579898
31
0.0000000000
11
8.6569369786
21
-21.5905465378
31
0.0000000000
11
8.6583894192
21
-21.4883085874
31
0.0000000000
11
8.6591808087
21
-21.3768147426
31
0.0000000000
0
SPLINE
5
2DC
100
AcDbEntity
8
0
100
AcDbSpline
62
9
6
CONTINUOUS
70
0
71
3
72
12
73
8
74
6
42
0.0000001000
43
0.0000001000
44
0.0000000001
12
0.0005356692
22
-0.7817393709
32
0.0000000000
13
0.7817393709
23
-0.0005356691
33
0.0000000000
40
0.0000000000
40
0.0000000000
40
0.0000000000
40
0.0000000000
40
0.1999719915
40
0.3999809266
40
0.6000054827
40
0.8000191019
40
1.0000000000
40
1.0000000000
40
1.0000000000
40
1.0000000000
10
8.6465755295
20
-21.8024497738
30
0.0000000000
10
8.6466112358
20
-21.8545584334
30
0.0000000000
10
8.6632539883
20
-21.9595068881
30
0.0000000000
10
8.7354501824
20
-22.1009708166
30
0.0000000000
10
8.8478751778
20
-22.2133982308
30
0.0000000000
10
8.9893411194
20
-22.2855986443
30
0.0000000000
10
9.0942932115
20
-22.3022427284
30
0.0000000000
10
9.1464041920
20
-22.3022784363
30
0.0000000000
11
8.6465755295
21
-21.8024497738
31
0.0000000000
11
8.6711223244
21
-21.9568365543
31
0.0000000000
11
8.7421517796
21
-22.0961264317
31
0.0000000000
11
8.8527188330
21
-22.2066958622
31
0.0000000000
11
8.9920107082
21
-22.2777294599
31
0.0000000000
11
9.1464041920
21
-22.3022784363
31
0.0000000000
0
SPLINE
5
2DD
100
AcDbEntity
8
0
100
AcDbSpline
62
9
6
CONTINUOUS
70
0
71
3
72
12
73
8
74
6
42
0.0000001000
43
0.0000001000
44
0.0000000001
12
-0.0130830273
22
-0.4999632460
32
0.0000000000
13
0.4999630113
23
-0.0130919922
33
0.0000000000
40
0.0000000000
40
0.0000000000
40
0.0000000000
40
0.0000000000
40
0.3087727500
40
0.5873022215
40
0.8083788265
40
0.9504486571
40
1.0000000000
40
1.0000000000
40
1.0000000000
40
1.0000000000
10
-14.3396434778
20
-21.8024497738
30
0.0000000000
10
-14.3409900386
20
-21.8539081159
30
0.0000000000
10
-14.3438293433
20
-21.9526974775
30
0.0000000000
10
-14.3430962486
20
-22.0839708321
30
0.0000000000
10
-14.3498981040
20
-22.1998688807
30
0.0000000000
10
-14.3361668022
20
-22.2515954932
30
0.0000000000
10
-14.3479014241
20
-22.3020621943
30
0.0000000000
10
-14.3396434778
20
-22.3022784363
30
0.0000000000
11
-14.3396434778
21
-21.8024497738
31
0.0000000000
11
-14.3430435221
21
-21.9568402123
31
0.0000000000
11
-14.3448309513
21
-22.0961309129
31
0.0000000000
11
-14.3448309510
21
-22.2066989270
31
0.0000000000
11
-14.3430435212
21
-22.2777304500
31
0.0000000000
11
-14.3396434778
21
-22.3022784363
31
0.0000000000
0
SPLINE
5
2DE
100
AcDbEntity
8
0
100
AcDbSpline
62
9
6
CONTINUOUS
70
0
71
3
72
11
73
7
74
5
42
0.0000001000
43
0.0000001000
44
0.0000000001
12
-0.4816459521
22
-0.0723197943
32
0.0000000000
13
0.0724619867
23
-0.4816245803
33
0.0000000000
40
0.0000000000
40
0.0000000000
40
0.0000000000
40
0.0000000000
40
0.3846138268
40
0.7086479510
40
0.9243670010
40
1.0000000000
40
1.0000000000
40
1.0000000000
40
1.0000000000
10
-14.8210196688
20
-21.3768147426
30
0.0000000000
10
-14.8827688998
20
-21.3860864736
30
0.0000000000
10
-14.9922014642
20
-21.4063129370
30
0.0000000000
10
-15.1557127096
20
-21.4182140538
30
0.0000000000
10
-15.2246520625
20
-21.4546105561
30
0.0000000000
10
-15.3042018921
20
-21.4388630096
30
0.0000000000
10
-15.3023750530
20
-21.4510052467
30
0.0000000000
11
-14.8210196688
21
-21.3768147426
31
0.0000000000
11
-15.0062460506
21
-21.4047714978
31
0.0000000000
11
-15.1622546129
21
-21.4286093554
31
0.0000000000
11
-15.2660619609
21
-21.4448164898
31
0.0000000000
11
-15.3023750530
21
-21.4510052467
31
0.0000000000
0
SPLINE
5
2DF
100
AcDbEntity
8
0
100
AcDbSpline
62
9
6
CONTINUOUS
70
0
71
3
72
13
73
9
74
7
42
0.0000001000
43
0.0000001000
44
0.0000000001
12
0.1034911371
22
-0.6885319137
32
0.0000000000
13
0.6960263404
23
-0.0182741653
33
0.0000000000
40
0.0000000000
40
0.0000000000
40
0.0000000000
40
0.0000000000
40
0.1659096589
40
0.3329647004
40
0.5001356032
40
0.6671600670
40
0.8340702717
40
1.0000000000
40
1.0000000000
40
1.0000000000
40
1.0000000000
10
-14.8210196688
20
-21.3768147426
30
0.0000000000
10
-14.8152962757
20
-21.4148927743
30
0.0000000000
10
-14.7948953390
20
-21.4902741823
30
0.0000000000
10
-14.7390373243
20
-21.5931794490
30
0.0000000000
10
-14.6607292043
20
-21.6806515653
30
0.0000000000
10
-14.5643351736
20
-21.7476092573
30
0.0000000000
10
-14.4554239327
20
-21.7904135518
30
0.0000000000
10
-14.3781406317
20
-21.8014390313
30
0.0000000000
10
-14.3396434778
20
-21.8024497738
30
0.0000000000
11
-14.8210196688
21
-21.3768147426
31
0.0000000000
11
-14.7907977219
21
-21.4883085874
31
0.0000000000
11
-14.7353312542
21
-21.5905465378
31
0.0000000000
11
-14.6576844615
21
-21.6772579898
31
0.0000000000
11
-14.5621813289
21
-21.7436155585
31
0.0000000000
11
-14.4540123751
21
-21.7861026814
31
0.0000000000
11
-14.3396434778
21
-21.8024497738
31
0.0000000000
0
SPLINE
5
2E0
100
AcDbEntity
8
0
100
AcDbSpline
62
9
6
CONTINUOUS
70
0
71
3
72
10
73
6
74
4
42
0.0000001000
43
0.0000001000
44
0.0000000001
12
0.2209454532
22
-11.6262761429
32
0.0000000000
13
1.7254977389
23
-11.4996422291
33
0.0000000000
40
0.0000000000
40
0.0000000000
40
0.0000000000
40
0.0000000000
40
0.3333287133
40
0.6666676293
40
1.0000000000
40
1.0000000000
40
1.0000000000
40
1.0000000000
10
-15.7956884014
20
-9.7966547312
30
0.0000000000
10
-15.7711392468
20
-11.0884452868
30
0.0000000000
10
-15.6660707047
20
-13.6713657507
30
0.0000000000
10
-15.3408870914
20
-17.5349214494
30
0.0000000000
10
-15.0127410861
20
-20.0990804073
30
0.0000000000
10
-14.8210196688
20
-21.3768147426
30
0.0000000000
11
-15.7956884014
21
-9.7966547312
31
0.0000000000
11
-15.6381429559
21
-13.6695230401
31
0.0000000000
11
-15.3130455594
21
-17.5320560084
31
0.0000000000
11
-14.8210196688
21
-21.3768147426
31
0.0000000000
0
SPLINE
5
2E1
100
AcDbEntity
8
0
100
AcDbSpline
62
9
6
CONTINUOUS
70
0
71
3
72
10
73
6
74
4
42
0.0000001000
43
0.0000001000
44
0.0000000001
12
-0.3606581010
22
-18.9785887355
32
0.0000000000
13
0.3606581331
23
-18.9785887349
33
0.0000000000
40
0.0000000000
40
0.0000000000
40
0.0000000000
40
0.0000000000
40
0.3333398443
40
0.6666598840
40
1.0000000000
40
1.0000000000
40
1.0000000000
40
1.0000000000
10
-15.7956884014
20
9.1843452688
30
0.0000000000
10
-15.8357623065
20
7.0755719973
30
0.0000000000
10
-15.8891957025
20
2.8575923462
30
0.0000000000
10
-15.8891957306
20
-3.4698983702
30
0.0000000000
10
-15.8357623427
20
-7.6878797409
30
0.0000000000
10
-15.7956884014
20
-9.7966547312
30
0.0000000000
11
-15.7956884014
21
9.1843452688
31
0.0000000000
11
-15.8758381518
21
2.8573908929
31
0.0000000000
11
-15.8758381835
21
-3.4696951979
31
0.0000000000
11
-15.7956884014
21
-9.7966547312
31
0.0000000000
0
SPLINE
5
2E2
100
AcDbEntity
8
0
100
AcDbSpline
62
9
6
CONTINUOUS
70
0
71
3
72
11
73
7
74
5
42
0.0000001000
43
0.0000001000
44
0.0000000001
12
-0.4816667200
22
0.0723228784
32
0.0000000000
13
0.0722746973
23
0.4816739520
33
0.0000000000
40
0.0000000000
40
0.0000000000
40
0.0000000000
40
0.0000000000
40
0.3846116086
40
0.7086459135
40
0.9243660773
40
1.0000000000
40
1.0000000000
40
1.0000000000
40
1.0000000000
10
-14.8210196688
20
20.7645052802
30
0.0000000000
10
-14.8827712062
20
20.7737773531
30
0.0000000000
10
-14.9922096969
20
20.7940048345
30
0.0000000000
10
-15.1557225587
20
20.8059056501
30
0.0000000000
10
-15.2246754451
20
20.8423054148
30
0.0000000000
10
-15.3042179554
20
20.8265552748
30
0.0000000000
10
-15.3023958158
20
20.8386989049
30
0.0000000000
11
-14.8210196688
21
20.7645052802
31
0.0000000000
11
-15.0062529692
21
20.7924630648
31
0.0000000000
11
-15.1622683466
21
20.8163019449
31
0.0000000000
11
-15.2660807092
21
20.8325098382
31
0.0000000000
11
-15.3023958158
21
20.8386989049
31
0.0000000000
0
SPLINE
5
2E3
100
AcDbEntity
8
0
100
AcDbSpline
62
9
6
CONTINUOUS
70
0
71
3
72
10
73
6
74
4
42
0.0000001000
43
0.0000001000
44
0.0000000001
12
-1.7254965393
22
-11.4996424091
32
0.0000000000
13
-0.2209442404
23
-11.6262761659
33
0.0000000000
40
0.0000000000
40
0.0000000000
40
0.0000000000
40
0.0000000000
40
0.3333295300
40
0.6666684460
40
1.0000000000
40
1.0000000000
40
1.0000000000
40
1.0000000000
10
-14.8210196688
20
20.7645052802
30
0.0000000000
10
-15.0127393190
20
19.4867818139
30
0.0000000000
10
-15.3408847056
20
16.9226338998
30
0.0000000000
10
-15.6660693941
20
13.0590782917
30
0.0000000000
10
-15.7711391724
20
10.4761468359
30
0.0000000000
10
-15.7956884014
20
9.1843452688
30
0.0000000000
11
-14.8210196688
21
20.7645052802
31
0.0000000000
11
-15.3130421156
21
16.9197794074
31
0.0000000000
11
-15.6381408586
21
13.0572465523
31
0.0000000000
11
-15.7956884014
21
9.1843452688
31
0.0000000000
0
SPLINE
5
2E4
100
AcDbEntity
8
0
100
AcDbSpline
62
9
6
CONTINUOUS
70
0
71
3
72
13
73
9
74
7
42
0.0000001000
43
0.0000001000
44
0.0000000001
12
-0.6960229744
22
-0.0184018734
32
0.0000000000
13
-0.1033645964
23
-0.6885509204
33
0.0000000000
40
0.0000000000
40
0.0000000000
40
0.0000000000
40
0.0000000000
40
0.1659242366
40
0.3329889191
40
0.5001625155
40
0.6671838710
40
0.8340845125
40
1.0000000000
40
1.0000000000
40
1.0000000000
40
1.0000000000
10
-14.3396434778
20
21.1901403113
30
0.0000000000
10
-14.3781391714
20
21.1891225391
30
0.0000000000
10
-14.4554570554
20
21.1781038963
30
0.0000000000
10
-14.5644325112
20
21.1352615830
30
0.0000000000
10
-14.6608345542
20
21.0682489382
30
0.0000000000
10
-14.7390870545
20
20.9807782000
30
0.0000000000
10
-14.7948995151
20
20.8779320357
30
0.0000000000
10
-14.8153030730
20
20.8025857007
30
0.0000000000
10
-14.8210196688
20
20.7645052802
30
0.0000000000
11
-14.3396434778
21
21.1901403113
31
0.0000000000
11
-14.4540088423
21
21.1737955278
31
0.0000000000
11
-14.5622743474
21
21.1312600187
31
0.0000000000
11
-14.6578402283
21
21.0648107955
31
0.0000000000
11
-14.7353882030
21
20.9781506347
31
0.0000000000
11
-14.7907949042
21
20.8760025657
31
0.0000000000
11
-14.8210196688
21
20.7645052802
31
0.0000000000
0
SPLINE
5
2E5
100
AcDbEntity
8
0
100
AcDbSpline
62
9
6
CONTINUOUS
70
0
71
3
72
12
73
8
74
6
42
0.0000001000
43
0.0000001000
44
0.0000000001
12
-0.0130830248
22
0.4999632436
32
0.0000000000
13
0.4999630089
23
0.0130919921
33
0.0000000000
40
0.0000000000
40
0.0000000000
40
0.0000000000
40
0.0000000000
40
0.3087670842
40
0.5872952967
40
0.8083741031
40
0.9504471364
40
1.0000000000
40
1.0000000000
40
1.0000000000
40
1.0000000000
10
-14.3396434778
20
21.1901403113
30
0.0000000000
10
-14.3409900137
20
21.2415977090
30
0.0000000000
10
-14.3438292828
20
21.3403858882
30
0.0000000000
10
-14.3430962279
20
21.4716585091
30
0.0000000000
10
-14.3498981861
20
21.5875572768
30
0.0000000000
10
-14.3361666008
20
21.6392847359
30
0.0000000000
10
-14.3479016723
20
21.6897527254
30
0.0000000000
10
-14.3396434728
20
21.6899689740
30
0.0000000000
11
-14.3396434778
21
21.1901403113
31
0.0000000000
11
-14.3430434710
21
21.3445279158
31
0.0000000000
11
-14.3448309242
21
21.4838179858
31
0.0000000000
11
-14.3448309703
21
21.5943871003
31
0.0000000000
11
-14.3430435571
21
21.6654202257
31
0.0000000000
11
-14.3396434728
21
21.6899689740
31
0.0000000000
0
ENDSEC
0
SECTION
2
OBJECTS
0
DICTIONARY
5
2E6
100
AcDbDictionary
3
ACAD_GROUP
350
2E7
3
ACAD_MLINESTYLE
350
2E8
0
DICTIONARY
5
2E7
102
{ACAD_REACTORS
330
2E6
102
}
100
AcDbDictionary
0
DICTIONARY
5
2E8
102
{ACAD_REACTORS
330
2E6
102
}
100
AcDbDictionary
3
STANDARD
350
2E9
0
MLINESTYLE
5
2E9
102
{ACAD_REACTORS
330
2E8
102
}
100
AcDbMlineStyle
2
STANDARD
70
0
3

62
256
51
90.0
52
90.0
71
2
49
0.5
62
256
6
BYLAYER
49
-0.5
62
256
6
BYLAYER
0
ENDSEC
0
EOF
