  0
SECTION
  2
HEADER
  9
$ACADVER
  1
AC1015
  9
$DWGCODEPAGE
  3
ANSI_1252
  9
$EXTMAX
 10
297.0
 20
210.0
 30
0.0
  9
$EXTMIN
 10
0.0
 20
0.0
 30
0.0
  9
$LIMMIN
 10
0.0
 20
0.0
  9
$LIMMAX
 10
297.0
 20
210.0
  9
$VIEWCTR
 10
148.5
 20
105.0
  9
$VIEWSIZE
 40
210.0
  9
$CLAYER
  8
0
  9
$LTSCALE
 40
16.335
  9
$CELTYPE
  6
BYLAYER
  9
$DIMSCALE
 40
1.0
  9
$DIMASZ
 40
3.0
  9
$DIMEXO
 40
1.85625
  9
$DIMDLI
 40
11.286
  9
$DIMEXE
 40
5.346
  9
$DIMCEN
 40
2.673
  9
$DIMLFAC
 40
1.0
  9
$DIMBLK
  1
_FILLED
  9
$DIMTXT
 40
3.0
  9
$DIMTOL
 70
1
  9
$DIMLIM
 70
0
  9
$DIMTFAC
 40
1.0
  9
$DIMTP
 40
0.01
  9
$DIMTM
 40
0.01
  9
$PDMODE
 70
3
  9
$PDSIZE
 40
3.0
  9
$HANDSEED
  5
68B
  9
$TILEMODE
 70
1
  9
$MEASUREMENT
 70
1
  9
$INSUNITS
 70
4
  0
ENDSEC
  0
SECTION
  2
CLASSES
  0
CLASS
  1
ACDBDICTIONARYWDFLT
  2
AcDbDictionaryWithDefault
  3
AutoCAD 2000
 90
0
280
0
281
0
  0
CLASS
  1
ACDBPLACEHOLDER
  2
AcDbPlaceHolder
  3
AutoCAD 2000
 90
0
280
0
281
0
  0
CLASS
  1
LAYOUT
  2
AcDbLayout
  3
AutoCAD 2000
 90
0
280
0
281
0
  0
ENDSEC
  0
SECTION
  2
TABLES
  0
TABLE
  2
VPORT
  5
8
100
AcDbSymbolTable
 70
2
  0
VPORT
  5
1F4
100
AcDbSymbolTableRecord
100
AcDbViewportTableRecord
  2
*ACTIVE
 70
0
 10
0.0
 20
0.0
 11
1.0
 21
1.0
 12
148.5
 22
105.0
 13
0.0
 23
0.0
 14
1.0
 24
1.0
 15
0.0
 25
0.0
 16
0.0
 26
0.0
 36
1.0
 17
0.0
 27
0.0
 37
0.0
 40
210.0
 41
1.4142857143
 42
50.0
 43
0.0
 44
0.0
 50
0.0
 51
0.0
 71
0
 72
100
 73
1
 74
1
 75
0
 76
0
 77
0
 78
0
  0
ENDTAB
  0
TABLE
  2
LTYPE
  5
5
100
AcDbSymbolTable
 70
6
  0
LTYPE
  5
14
100
AcDbSymbolTableRecord
100
AcDbLinetypeTableRecord
  2
BYBLOCK
 70
0
  3

 72
65
 73
0
 40
0.0
  0
LTYPE
  5
15
100
AcDbSymbolTableRecord
100
AcDbLinetypeTableRecord
  2
BYLAYER
 70
0
  3

 72
65
 73
0
 40
0.0
  0
LTYPE
  5
16
100
AcDbSymbolTableRecord
100
AcDbLinetypeTableRecord
  2
CONTINUOUS
 70
64
  3
Solid line
 72
65
 73
0
 40
0.0
  0
LTYPE
  5
1F5
100
AcDbSymbolTableRecord
100
AcDbLinetypeTableRecord
  2
CENTER
 70
64
  3
____ _ ____ _ ____ _ ____ _ ____ _ ____ _ ____
 72
65
 73
4
 40
0.6
 49
0.375
 74
0
 49
-0.075
 74
0
 49
0.075
 74
0
 49
-0.075
 74
0
  0
LTYPE
  5
1F6
100
AcDbSymbolTableRecord
100
AcDbLinetypeTableRecord
  2
HIDDEN
 70
64
  3
- - - - - - - - - - - - - - - - - - - -
 72
65
 73
2
 40
0.2
 49
0.1
 74
0
 49
-0.1
 74
0
  0
LTYPE
  5
1F7
100
AcDbSymbolTableRecord
100
AcDbLinetypeTableRecord
  2
PHANTOM
 70
64
  3
_____ _ _ _____ _ _ _____ _ _ _____
 72
65
 73
6
 40
0.8
 49
0.45
 74
0
 49
-0.05
 74
0
 49
0.1
 74
0
 49
-0.05
 74
0
 49
0.1
 74
0
 49
-0.05
 74
0
  0
LTYPE
  5
1F8
100
AcDbSymbolTableRecord
100
AcDbLinetypeTableRecord
  2
DOT
 70
64
  3
. . . . . . . . . . . . . . . . . . . .
 72
65
 73
2
 40
0.2
 49
0.1
 74
0
 49
-0.1
 74
0
  0
LTYPE
  5
1F9
100
AcDbSymbolTableRecord
100
AcDbLinetypeTableRecord
  2
DASHED
 70
64
  3
- - - - - - - - - - - - - - - - - - - -
 72
65
 73
2
 40
0.2
 49
0.1
 74
0
 49
-0.1
 74
0
  0
ENDTAB
  0
TABLE
  2
LAYER
  5
2
100
AcDbSymbolTable
 70
36
  0
LAYER
  5
10
100
AcDbSymbolTableRecord
100
AcDbLayerTableRecord
  2
0
 70
0
 62
7
  6
CONTINUOUS
370
-3
390
F
  0
LAYER
  5
1FA
100
AcDbSymbolTableRecord
100
AcDbLayerTableRecord
  2
DEFAULT_1
 70
0
 62
7
  6
CENTER
370
-3
390
F
  0
LAYER
  5
1FB
100
AcDbSymbolTableRecord
100
AcDbLayerTableRecord
  2
DEFAULT_2
 70
0
 62
7
  6
HIDDEN
370
-3
390
F
  0
LAYER
  5
1FC
100
AcDbSymbolTableRecord
100
AcDbLayerTableRecord
  2
DEFAULT_3
 70
0
 62
7
  6
PHANTOM
370
-3
390
F
  0
LAYER
  5
1FD
100
AcDbSymbolTableRecord
100
AcDbLayerTableRecord
  2
ASSI
 70
0
 62
7
  6
CONTINUOUS
370
-3
390
F
  0
LAYER
  5
1FE
100
AcDbSymbolTableRecord
100
AcDbLayerTableRecord
  2
COORDINATE
 70
0
 62
7
  6
CONTINUOUS
370
-3
390
F
  0
LAYER
  5
1FF
100
AcDbSymbolTableRecord
100
AcDbLayerTableRecord
  2
COORD_ORIGINE
 70
0
 62
7
  6
CONTINUOUS
370
-3
390
F
  0
LAYER
  5
200
100
AcDbSymbolTableRecord
100
AcDbLayerTableRecord
  2
COPY-PUBBLISH
 70
0
 62
7
  6
CONTINUOUS
370
-3
390
F
  0
LAYER
  5
201
100
AcDbSymbolTableRecord
100
AcDbLayerTableRecord
  2
COPY_PUBLISH
 70
0
 62
7
  6
CONTINUOUS
370
-3
390
F
  0
LAYER
  5
202
100
AcDbSymbolTableRecord
100
AcDbLayerTableRecord
  2
COSMETIC
 70
0
 62
7
  6
CONTINUOUS
370
-3
390
F
  0
LAYER
  5
203
100
AcDbSymbolTableRecord
100
AcDbLayerTableRecord
  2
COSMETICI
 70
0
 62
7
  6
CONTINUOUS
370
-3
390
F
  0
LAYER
  5
204
100
AcDbSymbolTableRecord
100
AcDbLayerTableRecord
  2
CURVE
 70
0
 62
7
  6
CONTINUOUS
370
-3
390
F
  0
LAYER
  5
205
100
AcDbSymbolTableRecord
100
AcDbLayerTableRecord
  2
DRAFT
 70
0
 62
7
  6
CONTINUOUS
370
-3
390
F
  0
LAYER
  5
206
100
AcDbSymbolTableRecord
100
AcDbLayerTableRecord
  2
IGES-SCRITTE
 70
0
 62
7
  6
CONTINUOUS
370
-3
390
F
  0
LAYER
  5
207
100
AcDbSymbolTableRecord
100
AcDbLayerTableRecord
  2
IMPORT_IGES
 70
0
 62
7
  6
CONTINUOUS
370
-3
390
F
  0
LAYER
  5
208
100
AcDbSymbolTableRecord
100
AcDbLayerTableRecord
  2
NOTE
 70
0
 62
7
  6
CONTINUOUS
370
-3
390
F
  0
LAYER
  5
209
100
AcDbSymbolTableRecord
100
AcDbLayerTableRecord
  2
PIANI
 70
0
 62
7
  6
CONTINUOUS
370
-3
390
F
  0
LAYER
  5
20A
100
AcDbSymbolTableRecord
100
AcDbLayerTableRecord
  2
PIANI-RIFERIMENTO
 70
0
 62
7
  6
CONTINUOUS
370
-3
390
F
  0
LAYER
  5
20B
100
AcDbSymbolTableRecord
100
AcDbLayerTableRecord
  2
PIANI_ORIGINE
 70
0
 62
7
  6
CONTINUOUS
370
-3
390
F
  0
LAYER
  5
20C
100
AcDbSymbolTableRecord
100
AcDbLayerTableRecord
  2
PUNTI
 70
0
 62
7
  6
CONTINUOUS
370
-3
390
F
  0
LAYER
  5
20D
100
AcDbSymbolTableRecord
100
AcDbLayerTableRecord
  2
RACCORDO
 70
0
 62
7
  6
CONTINUOUS
370
-3
390
F
  0
LAYER
  5
20E
100
AcDbSymbolTableRecord
100
AcDbLayerTableRecord
  2
SIMBOLI
 70
0
 62
7
  6
CONTINUOUS
370
-3
390
F
  0
LAYER
  5
20F
100
AcDbSymbolTableRecord
100
AcDbLayerTableRecord
  2
SMUSSO
 70
0
 62
7
  6
CONTINUOUS
370
-3
390
F
  0
LAYER
  5
210
100
AcDbSymbolTableRecord
100
AcDbLayerTableRecord
  2
SNAPLINE
 70
0
 62
7
  6
CONTINUOUS
370
-3
390
F
  0
LAYER
  5
211
100
AcDbSymbolTableRecord
100
AcDbLayerTableRecord
  2
SUPERFICI
 70
0
 62
7
  6
CONTINUOUS
370
-3
390
F
  0
LAYER
  5
212
100
AcDbSymbolTableRecord
100
AcDbLayerTableRecord
  2
TRASH
 70
0
 62
7
  6
CONTINUOUS
370
-3
390
F
  0
LAYER
  5
213
100
AcDbSymbolTableRecord
100
AcDbLayerTableRecord
  2
XSEC_DATUMS
 70
0
 62
7
  6
CONTINUOUS
370
-3
390
F
  0
ENDTAB
  0
TABLE
  2
STYLE
  5
3
100
AcDbSymbolTable
 70
1
  0
STYLE
  5
11
100
AcDbSymbolTableRecord
100
AcDbTextStyleTableRecord
  2
STANDARD
 70
0
 40
0.0
 41
0.8
 50
0.0
 71
0
 42
0.2
  3
txt
  4

  0
STYLE
  5
214
100
AcDbSymbolTableRecord
100
AcDbTextStyleTableRecord
  2
TEXTSTYLE_1
 70
0
 40
0.0
 41
0.8
 50
0.0
 71
0
 42
0.2
  3
gdt
  4

  0
ENDTAB
  0
TABLE
  2
VIEW
  5
6
100
AcDbSymbolTable
 70
0
  0
ENDTAB
  0
TABLE
  2
UCS
  5
7
100
AcDbSymbolTable
 70
0
  0
ENDTAB
  0
TABLE
  2
APPID
  5
9
100
AcDbSymbolTable
 70
1
  0
APPID
  5
215
100
AcDbSymbolTableRecord
100
AcDbRegAppTableRecord
  2
ACAD
 70
0
  0
ENDTAB
  0
TABLE
  2
BLOCK_RECORD
  5
1
100
AcDbSymbolTable
 70
0
  0
BLOCK_RECORD
  5
216
100
AcDbSymbolTableRecord
100
AcDbBlockTableRecord
  2
*Model_Space
  0
BLOCK_RECORD
  5
217
100
AcDbSymbolTableRecord
100
AcDbBlockTableRecord
  2
*Paper_Space
  0
BLOCK_RECORD
  5
218
100
AcDbSymbolTableRecord
100
AcDbBlockTableRecord
  2
_FILLED
  0
BLOCK_RECORD
  5
219
100
AcDbSymbolTableRecord
100
AcDbBlockTableRecord
  2
*D0
  0
BLOCK_RECORD
  5
21A
100
AcDbSymbolTableRecord
100
AcDbBlockTableRecord
  2
*D1
  0
BLOCK_RECORD
  5
21B
100
AcDbSymbolTableRecord
100
AcDbBlockTableRecord
  2
*D2
  0
ENDTAB
  0
TABLE
  2
DIMSTYLE
  5
A
100
AcDbSymbolTable
 70
1
100
AcDbDimStyleTable
 71
0
  0
DIMSTYLE
105
21C
100
AcDbSymbolTableRecord
100
AcDbDimStyleTableRecord
  2
STANDARD
 70
0
  3

  4

 40
1.0
 41
3.0
 42
0.0625
 43
0.38
 44
0.18
 45
0.0
 46
0.0
 47
0.01
 48
0.01
140
3.0
141
0.09
142
0.0
143
25.4
144
1.0
145
0.0
146
1.0
147
0.09
 71
1.0
 72
0.0
 73
0
 74
0
 75
0
 76
0
 77
1
 78
8
170
0
171
2
172
0
173
0
174
0
175
0
176
0
177
0
178
0
270
2
271
2
272
2
273
2
274
2
275
0
280
0
281
0
282
0
283
1
284
8
285
0
286
0
287
3
288
0
340
11
341
218
342
218
343
218
344
218
  0
DIMSTYLE
105
21D
100
AcDbSymbolTableRecord
100
AcDbDimStyleTableRecord
  2
DIMSTYLE_1
 70
0
  3

  4

 40
1.0
 41
3.0
 42
0.0625
 43
0.38
 44
0.18
 45
0.0
 46
0.0
 47
0.0
 48
0.0
140
3.0
141
0.09
142
0.0
143
25.4
144
1.0
145
0.0
146
1.0
147
0.09
 71
0.0
 72
0.0
 73
0
 74
0
 75
0
 76
0
 77
1
 78
8
170
0
171
2
172
0
173
0
174
0
175
0
176
0
177
0
178
0
270
2
271
2
272
2
273
2
274
2
275
0
280
0
281
0
282
0
283
1
284
8
285
0
286
0
287
3
288
0
340
11
341
218
342
218
343
218
344
218
  0
DIMSTYLE
105
21E
100
AcDbSymbolTableRecord
100
AcDbDimStyleTableRecord
  2
DIMSTYLE_2
 70
0
  3

  4

 40
1.0
 41
3.0
 42
0.0625
 43
0.38
 44
0.18
 45
0.0
 46
0.0
 47
0.0
 48
0.0
140
3.0
141
0.09
142
0.0
143
25.4
144
1.0
145
0.0
146
1.0
147
0.09
 71
0.0
 72
0.0
 73
0
 74
0
 75
0
 76
0
 77
1
 78
8
170
0
171
2
172
0
173
0
174
0
175
0
176
0
177
0
178
0
270
2
271
1
272
1
273
2
274
2
275
0
280
0
281
0
282
0
283
1
284
8
285
0
286
0
287
3
288
0
340
11
341
218
342
218
343
218
344
218
  0
ENDTAB
  0
ENDSEC
  0
SECTION
  2
BLOCKS
  0
BLOCK
  5
20
100
AcDbEntity
  8
0
100
AcDbBlockBegin
  2
*Model_Space
 70
0
 10
0.0
 20
0.0
 30
0.0
  3
*Model_Space
  1

  0
ENDBLK
  5
21
100
AcDbEntity
  8
0
100
AcDbBlockEnd
  0
BLOCK
  5
1C
100
AcDbEntity
  8
0
100
AcDbBlockBegin
  2
*Paper_Space
 70
0
 10
0.0
 20
0.0
 30
0.0
  3
*Paper_Space
  1

  0
ENDBLK
  5
1D
100
AcDbEntity
  8
0
100
AcDbBlockEnd
  0
BLOCK
  5
21F
100
AcDbEntity
  8
0
100
AcDbBlockBegin
  2
_FILLED
 70
64
 10
0.0
 20
0.0
  3
_FILLED
  1

  0
SOLID
  5
220
100
AcDbEntity
  8
0
  6
BYBLOCK
 62
0
100
AcDbTrace
 10
0.0
 20
0.0
 11
-1.0
 21
0.3166666667
 12
-1.0
 22
-0.3166666667
 13
-1.0
 23
-0.3166666667
  0
ENDBLK
  5
221
100
AcDbEntity
  8
0
  6
BYBLOCK
 62
0
100
AcDbBlockEnd
  0
BLOCK
  5
222
100
AcDbEntity
  8
0
100
AcDbBlockBegin
 62
7
  6
CONTINUOUS
  2
*D0
 70
65
 10
0.0
 20
0.0
  3
*D0
  1

  0
LINE
  5
223
100
AcDbEntity
  8
0
100
AcDbLine
 62
7
  6
CONTINUOUS
 10
-65.3995744543
 20
-10.9265865728
 11
-65.3995744543
 21
47.2675898832
  0
LINE
  5
224
100
AcDbEntity
  8
0
100
AcDbLine
 62
7
  6
CONTINUOUS
 10
-123.3995744543
 20
6.4167891002
 11
-123.3995744543
 21
47.2675898832
  0
LINE
  5
225
100
AcDbEntity
  8
0
100
AcDbLine
 62
7
  6
CONTINUOUS
 10
-65.3995744543
 20
45.7675898832
 11
-94.3995744543
 21
45.7675898832
  0
LINE
  5
226
100
AcDbEntity
  8
0
100
AcDbLine
 62
7
  6
CONTINUOUS
 10
-123.3995744543
 20
45.7675898832
 11
-94.3995744543
 21
45.7675898832
  0
INSERT
  5
227
100
AcDbEntity
  8
0
100
AcDbBlockReference
 62
7
  6
CONTINUOUS
  2
_FILLED
 10
-65.3995744543
 20
45.7675898832
 41
3.0
 42
3.0
 43
3.0
  0
INSERT
  5
228
100
AcDbEntity
  8
0
100
AcDbBlockReference
 62
7
  6
CONTINUOUS
  2
_FILLED
 10
-123.3995744543
 20
45.7675898832
 41
3.0
 42
3.0
 43
3.0
 50
180.0
  0
ENDBLK
  5
229
100
AcDbEntity
  8
0
  6
BYBLOCK
 62
0
100
AcDbBlockEnd
  0
BLOCK
  5
22A
100
AcDbEntity
  8
0
100
AcDbBlockBegin
 62
7
  6
CONTINUOUS
  2
*D1
 70
65
 10
0.0
 20
0.0
  3
*D1
  1

  0
LINE
  5
22B
100
AcDbEntity
  8
0
100
AcDbLine
 62
7
  6
CONTINUOUS
 10
-64.8995744543
 20
37.7675898832
 11
-55.8995744543
 21
37.7675898832
  0
LINE
  5
22C
100
AcDbEntity
  8
0
100
AcDbLine
 62
7
  6
CONTINUOUS
 10
-72.9833979018
 20
-37.7675898832
 11
-55.8995744543
 21
-37.7675898832
  0
LINE
  5
22D
100
AcDbEntity
  8
0
100
AcDbLine
 62
7
  6
CONTINUOUS
 10
-57.3995744543
 20
37.7675898832
 11
-57.3995744543
 21
-0.0
  0
LINE
  5
22E
100
AcDbEntity
  8
0
100
AcDbLine
 62
7
  6
CONTINUOUS
 10
-57.3995744543
 20
-37.7675898832
 11
-57.3995744543
 21
-0.0
  0
INSERT
  5
22F
100
AcDbEntity
  8
0
100
AcDbBlockReference
 62
7
  6
CONTINUOUS
  2
_FILLED
 10
-57.3995744543
 20
37.7675898832
 41
3.0
 42
3.0
 43
3.0
 50
90.0
  0
INSERT
  5
230
100
AcDbEntity
  8
0
100
AcDbBlockReference
 62
7
  6
CONTINUOUS
  2
_FILLED
 10
-57.3995744543
 20
-37.7675898832
 41
3.0
 42
3.0
 43
3.0
 50
270.0
  0
ENDBLK
  5
231
100
AcDbEntity
  8
0
  6
BYBLOCK
 62
0
100
AcDbBlockEnd
  0
BLOCK
  5
232
100
AcDbEntity
  8
0
100
AcDbBlockBegin
 62
7
  6
CONTINUOUS
  2
*D2
 70
65
 10
0.0
 20
0.0
  3
*D2
  1

  0
LINE
  5
233
100
AcDbEntity
  8
0
100
AcDbLine
 62
7
  6
CONTINUOUS
 10
-35.8
 20
34.968255938
 11
-35.8
 21
47.2675898832
  0
LINE
  5
234
100
AcDbEntity
  8
0
100
AcDbLine
 62
7
  6
CONTINUOUS
 10
35.8
 20
34.968255938
 11
35.8
 21
47.2675898832
  0
LINE
  5
235
100
AcDbEntity
  8
0
100
AcDbLine
 62
7
  6
CONTINUOUS
 10
-35.8
 20
45.7675898832
 11
0.0
 21
45.7675898832
  0
LINE
  5
236
100
AcDbEntity
  8
0
100
AcDbLine
 62
7
  6
CONTINUOUS
 10
35.8
 20
45.7675898832
 11
0.0
 21
45.7675898832
  0
INSERT
  5
237
100
AcDbEntity
  8
0
100
AcDbBlockReference
 62
7
  6
CONTINUOUS
  2
_FILLED
 10
-35.8
 20
45.7675898832
 41
3.0
 42
3.0
 43
3.0
 50
180.0
  0
INSERT
  5
238
100
AcDbEntity
  8
0
100
AcDbBlockReference
 62
7
  6
CONTINUOUS
  2
_FILLED
 10
35.8
 20
45.7675898832
 41
3.0
 42
3.0
 43
3.0
  0
ENDBLK
  5
239
100
AcDbEntity
  8
0
  6
BYBLOCK
 62
0
100
AcDbBlockEnd
  0
ENDSEC
  0
SECTION
  2
ENTITIES
  0
DIMENSION
  5
23A
100
AcDbEntity
  8
0
100
AcDbDimension
 62
7
  6
CONTINUOUS
  2
*D0
 10
-123.3995744543
 20
45.7675898832
 11
-96.6495744543
 21
46.5175898832
 70
160
 71
2
 42
58.0
  3
DIMSTYLE_1
100
AcDbAlignedDimension
 13
-65.3995744543
 23
-10.9265865728
 14
-123.3995744543
 24
6.4167891002
 50
180.0
100
AcDbRotatedDimension
  0
DIMENSION
  5
23B
100
AcDbEntity
  8
0
100
AcDbDimension
 62
7
  6
CONTINUOUS
  2
*D1
 10
-57.3995744543
 20
-37.7675898832
 11
-58.1495744543
 21
-4.1785714286
 70
160
 71
2
 42
75.5351797665
  3
DIMSTYLE_2
100
AcDbAlignedDimension
 13
-64.8995744543
 23
37.7675898832
 14
-72.9833979018
 24
-37.7675898832
 50
270.0
100
AcDbRotatedDimension
  0
DIMENSION
  5
23C
100
AcDbEntity
  8
0
100
AcDbDimension
 62
7
  6
CONTINUOUS
  2
*D2
 10
35.8
 20
45.7675898832
 11
-4.0714285714
 21
46.5175898832
 70
160
 71
2
 42
71.6
  3
DIMSTYLE_1
100
AcDbAlignedDimension
 13
-35.8
 23
34.968255938
 14
35.8
 24
34.968255938
100
AcDbRotatedDimension
  0
LINE
  5
23D
100
AcDbEntity
  8
RACCORDO
100
AcDbLine
 62
7
  6
CONTINUOUS
 10
-34.0638789652
 20
-27.8273126628
 11
-33.8774103478
 21
-28.0137812802
  0
LINE
  5
23E
100
AcDbEntity
  8
RACCORDO
100
AcDbLine
 62
7
  6
CONTINUOUS
 10
-31.757780698
 20
-29.6159055849
 11
-31.1011061566
 21
-30.2725801262
  0
LINE
  5
23F
100
AcDbEntity
  8
0
100
AcDbLine
 62
7
  6
CONTINUOUS
 10
-33.75
 20
28.0817891002
 11
-33.8051011793
 21
27.916351134
  0
LINE
  5
240
100
AcDbEntity
  8
RACCORDO
100
AcDbLine
 62
7
  6
CONTINUOUS
 10
35.8
 20
-37.7688082292
 11
34.1425864364
 21
-37.7688082292
  0
LINE
  5
241
100
AcDbEntity
  8
RACCORDO
100
AcDbLine
 62
7
  6
CONTINUOUS
 10
-34.1425864364
 20
-37.7688082292
 11
-35.8
 21
-37.7688082292
  0
LINE
  5
242
100
AcDbEntity
  8
RACCORDO
100
AcDbLine
 62
7
  6
CONTINUOUS
 10
-35.8
 20
-22.6346777376
 11
-35.8
 21
-28.0137812802
  0
LINE
  5
243
100
AcDbEntity
  8
ASSI
100
AcDbLine
 62
7
  6
CONTINUOUS
 10
-35.8
 20
-28.0137812802
 11
-35.8
 21
-32.031744062
  0
LINE
  5
244
100
AcDbEntity
  8
RACCORDO
100
AcDbLine
 62
7
  6
CONTINUOUS
 10
-35.8
 20
-32.031744062
 11
-35.8
 21
-37.7675898832
  0
LINE
  5
245
100
AcDbEntity
  8
0
100
AcDbLine
 62
7
  6
CONTINUOUS
 10
-35.8
 20
-22.6346777376
 11
-35.8
 21
34.468255938
  0
LINE
  5
246
100
AcDbEntity
  8
RACCORDO
100
AcDbLine
 62
7
  6
CONTINUOUS
 10
-35.8
 20
34.468255938
 11
-35.8
 21
37.7675898832
  0
LINE
  5
247
100
AcDbEntity
  8
0
100
AcDbLine
 62
253
  6
CONTINUOUS
 10
-35.55
 20
-16.2482108998
 11
-35.55
 21
-16.2476395359
  0
LINE
  5
248
100
AcDbEntity
  8
0
100
AcDbLine
 62
253
  6
CONTINUOUS
 10
-35.55
 20
28.0812177363
 11
-35.55
 21
28.0817891002
  0
LWPOLYLINE
  5
249
100
AcDbEntity
  8
0
100
AcDbPolyline
 62
7
  6
CONTINUOUS
 90
3
 70
0
 43
0.3500000006
 10
-1.7142856507
 20
48.6604468689
 10
-0.8571428254
 20
49.5175893402
 10
-0.8571428254
 20
46.5175884247
  0
LINE
  5
24A
100
AcDbEntity
  8
RACCORDO
100
AcDbLine
 62
7
  6
CONTINUOUS
 10
-32.4113899366
 20
-36.7927355168
 11
32.4113899366
 21
-36.7927355168
  0
LINE
  5
24B
100
AcDbEntity
  8
RACCORDO
100
AcDbLine
 62
253
  6
CONTINUOUS
 10
35.8
 20
-36.6337639781
 11
-35.8
 21
-36.6337639781
  0
LINE
  5
24C
100
AcDbEntity
  8
RACCORDO
100
AcDbLine
 62
253
  6
CONTINUOUS
 10
35.8
 20
-35.1346777376
 11
-35.8
 21
-35.1346777376
  0
LINE
  5
24D
100
AcDbEntity
  8
0
100
AcDbLine
 62
7
  6
CONTINUOUS
 10
-33.8051011793
 20
-16.0827729337
 11
-33.75
 21
-16.2482108998
  0
LINE
  5
24E
100
AcDbEntity
  8
ASSI
100
AcDbLine
 62
7
  6
CONTINUOUS
 10
-33.8674968279
 20
-28.5495427503
 11
-33.8490580945
 21
-31.0675626506
  0
LINE
  5
24F
100
AcDbEntity
  8
DRAFT
100
AcDbLine
 62
7
  6
CONTINUOUS
 10
-33.75
 20
28.4167891002
 11
-33.75
 21
-16.5832108998
  0
LINE
  5
250
100
AcDbEntity
  8
RACCORDO
100
AcDbLine
 62
7
  6
CONTINUOUS
 10
-33.65
 20
28.4167891002
 11
-33.65
 21
9.9667891002
  0
LINE
  5
251
100
AcDbEntity
  8
RACCORDO
100
AcDbLine
 62
7
  6
CONTINUOUS
 10
-33.65
 20
1.8667891002
 11
-33.65
 21
-16.5832108998
  0
LINE
  5
252
100
AcDbEntity
  8
RACCORDO
100
AcDbLine
 62
253
  6
CONTINUOUS
 10
-33.35
 20
28.4167891002
 11
-33.35
 21
9.9667891002
  0
LINE
  5
253
100
AcDbEntity
  8
RACCORDO
100
AcDbLine
 62
253
  6
CONTINUOUS
 10
-33.35
 20
1.8667891002
 11
-33.35
 21
-16.5832108998
  0
LINE
  5
254
100
AcDbEntity
  8
DRAFT
100
AcDbLine
 62
7
  6
CONTINUOUS
 10
-31.757780698
 20
-25.4346446791
 11
-31.757780698
 21
-29.6159055849
  0
LWPOLYLINE
  5
255
100
AcDbEntity
  8
0
100
AcDbPolyline
 62
7
  6
CONTINUOUS
 90
10
 70
0
 43
0.3500000006
 10
2.7857141647
 20
49.5175893402
 10
2.1428571696
 20
48.8747313538
 10
1.7142856507
 20
48.0175888824
 10
1.7142856507
 20
46.9461619263
 10
2.1428571696
 20
46.5175884247
 10
2.7857141647
 20
46.5175884247
 10
3.2142856836
 20
46.9461619263
 10
3.2142856836
 20
47.8033043976
 10
2.7857141647
 20
48.2318733673
 10
1.8571429181
 20
48.2318733673
  0
LINE
  5
256
100
AcDbEntity
  8
RACCORDO
100
AcDbLine
 62
253
  6
CONTINUOUS
 10
35.8
 20
-32.031744062
 11
-35.8
 21
-32.031744062
  0
LINE
  5
257
100
AcDbEntity
  8
ASSI
100
AcDbLine
 62
253
  6
CONTINUOUS
 10
35.8
 20
-31.0675626475
 11
33.8490580945
 21
-31.0675626475
  0
LINE
  5
258
100
AcDbEntity
  8
ASSI
100
AcDbLine
 62
253
  6
CONTINUOUS
 10
-33.8490580945
 20
-31.0675626475
 11
-35.8
 21
-31.0675626475
  0
LINE
  5
259
100
AcDbEntity
  8
ASSI
100
AcDbLine
 62
7
  6
CONTINUOUS
 10
-28.618001
 20
3.6235551002
 11
-28.618001
 21
4.2992901002
  0
LINE
  5
25A
100
AcDbEntity
  8
ASSI
100
AcDbLine
 62
7
  6
CONTINUOUS
 10
-28.618001
 20
7.5342861002
 11
-28.618001
 21
8.2100211002
  0
LINE
  5
25B
100
AcDbEntity
  8
0
100
AcDbLine
 62
253
  6
CONTINUOUS
 10
-35.8
 20
-15.9980964738
 11
-35.7450510444
 21
-15.83311555
  0
LINE
  5
25C
100
AcDbEntity
  8
0
100
AcDbLine
 62
253
  6
CONTINUOUS
 10
-35.55
 20
-16.2476395359
 11
-35.4950891206
 21
-16.0827729337
  0
LINE
  5
25D
100
AcDbEntity
  8
ASSI
100
AcDbLine
 62
253
  6
CONTINUOUS
 10
33.8529750483
 20
-30.5326578215
 11
-33.8529750483
 21
-30.5326578215
  0
LINE
  5
25E
100
AcDbEntity
  8
RACCORDO
100
AcDbLine
 62
7
  6
CONTINUOUS
 10
28.1029336756
 20
-30.3736862829
 11
-28.1029336756
 21
-30.3736862829
  0
LINE
  5
25F
100
AcDbEntity
  8
DRAFT
100
AcDbLine
 62
7
  6
CONTINUOUS
 10
-33.8596881605
 20
-29.6159055849
 11
-31.757780698
 21
-29.6159055849
  0
LINE
  5
260
100
AcDbEntity
  8
DRAFT
100
AcDbLine
 62
7
  6
CONTINUOUS
 10
31.757780698
 20
-29.6159055849
 11
33.8596881605
 21
-29.6159055849
  0
LINE
  5
261
100
AcDbEntity
  8
ASSI
100
AcDbLine
 62
253
  6
CONTINUOUS
 10
-35.8
 20
-28.5495427503
 11
-33.8674968279
 21
-28.5495427503
  0
LINE
  5
262
100
AcDbEntity
  8
ASSI
100
AcDbLine
 62
253
  6
CONTINUOUS
 10
35.8
 20
-28.5495427503
 11
33.8674968279
 21
-28.5495427503
  0
LINE
  5
263
100
AcDbEntity
  8
ASSI
100
AcDbLine
 62
253
  6
CONTINUOUS
 10
-35.8
 20
-28.0137812802
 11
-33.8774103478
 21
-28.0137812802
  0
LINE
  5
264
100
AcDbEntity
  8
ASSI
100
AcDbLine
 62
253
  6
CONTINUOUS
 10
35.8
 20
-28.0137812802
 11
33.8774103478
 21
-28.0137812802
  0
LINE
  5
265
100
AcDbEntity
  8
RACCORDO
100
AcDbLine
 62
253
  6
CONTINUOUS
 10
35.8
 20
-27.8273126628
 11
34.0638789652
 21
-27.8273126628
  0
LINE
  5
266
100
AcDbEntity
  8
RACCORDO
100
AcDbLine
 62
253
  6
CONTINUOUS
 10
-34.0638789652
 20
-27.8273126628
 11
-35.8
 21
-27.8273126628
  0
LINE
  5
267
100
AcDbEntity
  8
DRAFT
100
AcDbLine
 62
7
  6
CONTINUOUS
 10
-25.45
 20
-16.5832108998
 11
-25.45
 21
-16.4832108998
  0
LINE
  5
268
100
AcDbEntity
  8
DRAFT
100
AcDbLine
 62
7
  6
CONTINUOUS
 10
-25.45
 20
28.3167891002
 11
-25.45
 21
28.4167891002
  0
LINE
  5
269
100
AcDbEntity
  8
ASSI
100
AcDbLine
 62
7
  6
CONTINUOUS
 10
-25.031402
 20
5.5792881002
 11
-25.031402
 21
6.2542881002
  0
LINE
  5
26A
100
AcDbEntity
  8
ASSI
100
AcDbLine
 62
7
  6
CONTINUOUS
 10
-24.671402
 20
3.6235550217
 11
-24.671402
 21
4.2992927458
  0
LINE
  5
26B
100
AcDbEntity
  8
ASSI
100
AcDbLine
 62
7
  6
CONTINUOUS
 10
-24.671402
 20
7.5342861002
 11
-24.671402
 21
8.2100211787
  0
LINE
  5
26C
100
AcDbEntity
  8
RACCORDO
100
AcDbLine
 62
7
  6
CONTINUOUS
 10
-34.1419775344
 20
-37.7675898832
 11
-33.9113328211
 21
-36.844659565
  0
LINE
  5
26D
100
AcDbEntity
  8
DRAFT
100
AcDbLine
 62
7
  6
CONTINUOUS
 10
34.0679350415
 20
-25.4346446791
 11
31.757780698
 21
-25.4346446791
  0
LINE
  5
26E
100
AcDbEntity
  8
DRAFT
100
AcDbLine
 62
7
  6
CONTINUOUS
 10
-31.757780698
 20
-25.4346446791
 11
-34.0679350415
 21
-25.4346446791
  0
LINE
  5
26F
100
AcDbEntity
  8
RACCORDO
100
AcDbLine
 62
253
  6
CONTINUOUS
 10
35.8
 20
-25.3403419496
 11
34.0641630791
 21
-25.3403419496
  0
LINE
  5
270
100
AcDbEntity
  8
RACCORDO
100
AcDbLine
 62
253
  6
CONTINUOUS
 10
-34.0641630791
 20
-25.3403419496
 11
-35.8
 21
-25.3403419496
  0
LINE
  5
271
100
AcDbEntity
  8
RACCORDO
100
AcDbLine
 62
7
  6
CONTINUOUS
 10
-31.1563469186
 20
-24.8332108998
 11
31.1563469186
 21
-24.8332108998
  0
LINE
  5
272
100
AcDbEntity
  8
RACCORDO
100
AcDbLine
 62
7
  6
CONTINUOUS
 10
-28.1029336756
 20
-24.6768639812
 11
28.1029336756
 21
-24.6768639812
  0
LINE
  5
273
100
AcDbEntity
  8
RACCORDO
100
AcDbLine
 62
253
  6
CONTINUOUS
 10
35.8
 20
-24.1337639781
 11
-35.8
 21
-24.1337639781
  0
LINE
  5
274
100
AcDbEntity
  8
0
100
AcDbLine
 62
253
  6
CONTINUOUS
 10
-35.7450510444
 20
27.6666937504
 11
-35.8
 21
27.8316746742
  0
LINE
  5
275
100
AcDbEntity
  8
0
100
AcDbLine
 62
253
  6
CONTINUOUS
 10
-35.4950891206
 20
27.916351134
 11
-35.55
 21
28.0812177363
  0
LINE
  5
276
100
AcDbEntity
  8
DRAFT
100
AcDbLine
 62
7
  6
CONTINUOUS
 10
-34.2125239929
 20
37.7675898832
 11
-34.1514359184
 21
37.5231444968
  0
LINE
  5
277
100
AcDbEntity
  8
RACCORDO
100
AcDbLine
 62
253
  6
CONTINUOUS
 10
35.8
 20
-22.6346777376
 11
-35.8
 21
-22.6346777376
  0
LINE
  5
278
100
AcDbEntity
  8
DRAFT
100
AcDbLine
 62
7
  6
CONTINUOUS
 10
-19.55
 20
28.4167891002
 11
-19.55
 21
28.3167891002
  0
LINE
  5
279
100
AcDbEntity
  8
DRAFT
100
AcDbLine
 62
7
  6
CONTINUOUS
 10
-19.55
 20
-16.4832108998
 11
-19.55
 21
-16.5832108998
  0
LWPOLYLINE
  5
27A
100
AcDbEntity
  8
0
100
AcDbPolyline
 62
7
  6
CONTINUOUS
 90
3
 70
0
 43
0.3500000006
 10
0.7142856996
 20
46.8033040924
 10
0.6428571367
 20
46.5890196075
 10
0.500000011
 20
46.3033039398
  0
LINE
  5
27B
100
AcDbEntity
  8
RACCORDO
100
AcDbLine
 62
7
  6
CONTINUOUS
 10
-34.1419775344
 20
-37.7675898832
 11
-34.1425878274
 21
-37.7688014451
  0
LINE
  5
27C
100
AcDbEntity
  8
DRAFT
100
AcDbLine
 62
7
  6
CONTINUOUS
 10
-33.75
 20
-16.5832108998
 11
33.75
 21
-16.5832108998
  0
LINE
  5
27D
100
AcDbEntity
  8
DRAFT
100
AcDbLine
 62
7
  6
CONTINUOUS
 10
-25.45
 20
-16.4832108998
 11
-19.55
 21
-16.4832108998
  0
LINE
  5
27E
100
AcDbEntity
  8
DRAFT
100
AcDbLine
 62
7
  6
CONTINUOUS
 10
-2.95
 20
-16.4832108998
 11
2.95
 21
-16.4832108998
  0
LINE
  5
27F
100
AcDbEntity
  8
0
100
AcDbLine
 62
7
  6
CONTINUOUS
 10
19.55
 20
-16.4832108998
 11
25.45
 21
-16.4832108998
  0
LINE
  5
280
100
AcDbEntity
  8
0
100
AcDbLine
 62
7
  6
CONTINUOUS
 10
-35.55
 20
-16.2482108998
 11
-33.75
 21
-16.2482108998
  0
LINE
  5
281
100
AcDbEntity
  8
0
100
AcDbLine
 62
7
  6
CONTINUOUS
 10
33.75
 20
-16.2482108998
 11
35.55
 21
-16.2482108998
  0
LINE
  5
282
100
AcDbEntity
  8
0
100
AcDbLine
 62
253
  6
CONTINUOUS
 10
35.4950891206
 20
-16.0827729337
 11
33.8051011793
 21
-16.0827729337
  0
LINE
  5
283
100
AcDbEntity
  8
0
100
AcDbLine
 62
253
  6
CONTINUOUS
 10
-33.8051011793
 20
-16.0827729337
 11
-35.4950891206
 21
-16.0827729337
  0
LINE
  5
284
100
AcDbEntity
  8
0
100
AcDbLine
 62
253
  6
CONTINUOUS
 10
35.4744306588
 20
-14.6465185055
 11
33.8298913334
 21
-14.6465185545
  0
LINE
  5
285
100
AcDbEntity
  8
0
100
AcDbLine
 62
253
  6
CONTINUOUS
 10
-33.8298913334
 20
-14.6465185545
 11
-35.4744306588
 21
-14.6465185055
  0
LINE
  5
286
100
AcDbEntity
  8
0
100
AcDbLine
 62
7
  6
CONTINUOUS
 10
-5.1216
 20
25.8939851002
 11
-5.867986
 21
23.2786431002
  0
LINE
  5
287
100
AcDbEntity
  8
0
100
AcDbLine
 62
7
  6
CONTINUOUS
 10
-5.550353
 20
22.0944431002
 11
-4.329028
 21
25.8939851002
  0
LINE
  5
288
100
AcDbEntity
  8
0
100
AcDbLine
 62
7
  6
CONTINUOUS
 10
-0.101245
 20
25.8939851002
 11
-0.894359
 21
23.7844681002
  0
LINE
  5
289
100
AcDbEntity
  8
0
100
AcDbLine
 62
7
  6
CONTINUOUS
 10
-0.843072
 20
22.0944431002
 11
0.09994
 21
24.5651301002
  0
LWPOLYLINE
  5
28A
100
AcDbEntity
  8
0
100
AcDbPolyline
 62
7
  6
CONTINUOUS
 90
4
 70
0
 43
0.3500000006
 10
-4.0714284382
 20
48.8747313538
 10
-4.0714284382
 20
49.5175893402
 10
-2.5714285469
 20
49.5175893402
 10
-3.4285713015
 20
46.5175884247
  0
LINE
  5
28B
100
AcDbEntity
  8
0
100
AcDbLine
 62
7
  6
CONTINUOUS
 10
-4.034701
 20
25.8942131002
 11
-4.034701
 21
22.0944431002
  0
LINE
  5
28C
100
AcDbEntity
  8
0
100
AcDbLine
 62
7
  6
CONTINUOUS
 10
-3.241588
 20
22.0944431002
 11
-3.241588
 21
25.8942131002
  0
LINE
  5
28D
100
AcDbEntity
  8
0
100
AcDbLine
 62
7
  6
CONTINUOUS
 10
-2.055878
 20
22.0944431002
 11
-1.884725
 21
24.5754731002
  0
LINE
  5
28E
100
AcDbEntity
  8
0
100
AcDbLine
 62
7
  6
CONTINUOUS
 10
-2.471553
 20
25.8939851002
 11
-2.81463
 21
22.0944431002
  0
LINE
  5
28F
100
AcDbEntity
  8
0
100
AcDbLine
 62
7
  6
CONTINUOUS
 10
2.328897
 20
23.4399091002
 11
2.723801
 21
24.8499681002
  0
LINE
  5
290
100
AcDbEntity
  8
0
100
AcDbLine
 62
7
  6
CONTINUOUS
 10
1.947812
 20
22.0944431002
 11
2.166662
 21
22.8529671002
  0
LINE
  5
291
100
AcDbEntity
  8
0
100
AcDbLine
 62
7
  6
CONTINUOUS
 10
2.355082
 20
25.8939851002
 11
1.163303
 21
22.0944431002
  0
LINE
  5
292
100
AcDbEntity
  8
RACCORDO
100
AcDbLine
 62
7
  6
CONTINUOUS
 10
-31.1011061566
 20
-24.7779701378
 11
-31.757780698
 21
-25.4346446791
  0
LINE
  5
293
100
AcDbEntity
  8
RACCORDO
100
AcDbLine
 62
7
  6
CONTINUOUS
 10
31.9857406735
 20
37.496182855
 11
31.1011061566
 21
36.6115483382
  0
LINE
  5
294
100
AcDbEntity
  8
DRAFT
100
AcDbLine
 62
7
  6
CONTINUOUS
 10
-2.95
 20
-16.5832108998
 11
-2.95
 21
-16.4832108998
  0
LINE
  5
295
100
AcDbEntity
  8
DRAFT
100
AcDbLine
 62
7
  6
CONTINUOUS
 10
-2.95
 20
28.3167891002
 11
-2.95
 21
28.4167891002
  0
LINE
  5
296
100
AcDbEntity
  8
0
100
AcDbLine
 62
7
  6
CONTINUOUS
 10
1.038763
 20
22.0944431002
 11
0.683463
 21
25.8939851002
  0
LINE
  5
297
100
AcDbEntity
  8
0
100
AcDbLine
 62
7
  6
CONTINUOUS
 10
0.09994
 20
24.5651301002
 11
0.262887
 21
22.0944431002
  0
LINE
  5
298
100
AcDbEntity
  8
DRAFT
100
AcDbLine
 62
7
  6
CONTINUOUS
 10
2.95
 20
28.4167891002
 11
2.95
 21
28.3167891002
  0
LINE
  5
299
100
AcDbEntity
  8
DRAFT
100
AcDbLine
 62
7
  6
CONTINUOUS
 10
2.95
 20
-16.4832108998
 11
2.95
 21
-16.5832108998
  0
LINE
  5
29A
100
AcDbEntity
  8
RACCORDO
100
AcDbLine
 62
253
  6
CONTINUOUS
 10
33.35
 20
1.8667891002
 11
33.65
 21
1.8667891002
  0
LINE
  5
29B
100
AcDbEntity
  8
RACCORDO
100
AcDbLine
 62
253
  6
CONTINUOUS
 10
-33.35
 20
1.8667891002
 11
-33.65
 21
1.8667891002
  0
LINE
  5
29C
100
AcDbEntity
  8
0
100
AcDbLine
 62
7
  6
CONTINUOUS
 10
23.92458
 20
1.9439241002
 11
24.201652
 21
1.9439241002
  0
LINE
  5
29D
100
AcDbEntity
  8
0
100
AcDbLine
 62
7
  6
CONTINUOUS
 10
25.192713
 20
1.9439241002
 11
25.46962
 21
1.9439241002
  0
LINE
  5
29E
100
AcDbEntity
  8
0
100
AcDbLine
 62
7
  6
CONTINUOUS
 10
26.243466
 20
1.9439241002
 11
26.528995
 21
1.9439241002
  0
LINE
  5
29F
100
AcDbEntity
  8
0
100
AcDbLine
 62
7
  6
CONTINUOUS
 10
27.768443
 20
1.9439241002
 11
28.07105
 21
1.9439241002
  0
LINE
  5
2A0
100
AcDbEntity
  8
0
100
AcDbLine
 62
7
  6
CONTINUOUS
 10
28.325241
 20
1.9439241002
 11
29.641625
 21
1.9439241002
  0
LINE
  5
2A1
100
AcDbEntity
  8
0
100
AcDbLine
 62
7
  6
CONTINUOUS
 10
30.081526
 20
1.9439241002
 11
30.358432
 21
1.9439241002
  0
LINE
  5
2A2
100
AcDbEntity
  8
0
100
AcDbLine
 62
7
  6
CONTINUOUS
 10
29.641625
 20
2.1893261002
 11
28.602147
 21
2.1893261002
  0
LINE
  5
2A3
100
AcDbEntity
  8
0
100
AcDbLine
 62
7
  6
CONTINUOUS
 10
26.743225
 20
2.5408491002
 11
27.565654
 21
2.5408491002
  0
LINE
  5
2A4
100
AcDbEntity
  8
0
100
AcDbLine
 62
7
  6
CONTINUOUS
 10
27.465669
 20
2.7862511002
 11
26.828784
 21
2.7862511002
  0
LINE
  5
2A5
100
AcDbEntity
  8
0
100
AcDbLine
 62
7
  6
CONTINUOUS
 10
24.498788
 20
3.7496211002
 11
25.192713
 21
3.7496211002
  0
LINE
  5
2A6
100
AcDbEntity
  8
0
100
AcDbLine
 62
7
  6
CONTINUOUS
 10
25.46962
 20
3.7496211002
 11
26.163545
 21
3.7496211002
  0
LINE
  5
2A7
100
AcDbEntity
  8
RACCORDO
100
AcDbLine
 62
7
  6
CONTINUOUS
 10
-31.9857406735
 20
37.496182855
 11
-31.1011061566
 21
36.6115483382
  0
LINE
  5
2A8
100
AcDbEntity
  8
0
100
AcDbLine
 62
7
  6
CONTINUOUS
 10
-7.453814
 20
25.8939851002
 11
-6.249285
 21
22.0944431002
  0
LINE
  5
2A9
100
AcDbEntity
  8
0
100
AcDbLine
 62
7
  6
CONTINUOUS
 10
-5.867986
 20
23.2786431002
 11
-6.592247
 21
25.8939851002
  0
LINE
  5
2AA
100
AcDbEntity
  8
0
100
AcDbLine
 62
7
  6
CONTINUOUS
 10
4.5210141587
 20
25.8495942785
 11
4.5210141587
 21
22.0944431614
  0
LINE
  5
2AB
100
AcDbEntity
  8
0
100
AcDbLine
 62
7
  6
CONTINUOUS
 10
5.284638007
 20
24.2036473933
 11
5.284638007
 21
25.2466958557
  0
LINE
  5
2AC
100
AcDbEntity
  8
0
100
AcDbLine
 62
7
  6
CONTINUOUS
 10
5.310936459
 20
22.0944431614
 11
5.310936459
 21
23.5813741629
  0
LINE
  5
2AD
100
AcDbEntity
  8
0
100
AcDbLine
 62
7
  6
CONTINUOUS
 10
6.5600701904
 20
23.8680358374
 11
6.5600701904
 21
23.8904878203
  0
LINE
  5
2AE
100
AcDbEntity
  8
ASSI
100
AcDbLine
 62
7
  6
CONTINUOUS
 10
-28.7285676582
 20
4.2970035598
 11
-28.618001
 21
4.2992901002
  0
LINE
  5
2AF
100
AcDbEntity
  8
0
100
AcDbLine
 62
7
  6
CONTINUOUS
 10
31.132279
 20
3.9950231002
 11
30.806789
 21
3.9950231002
  0
LINE
  5
2B0
100
AcDbEntity
  8
0
100
AcDbLine
 62
7
  6
CONTINUOUS
 10
29.630184
 20
3.9950231002
 11
29.307513
 21
3.9950231002
  0
LINE
  5
2B1
100
AcDbEntity
  8
0
100
AcDbLine
 62
7
  6
CONTINUOUS
 10
28.602147
 20
3.9950231002
 11
28.325241
 21
3.9950231002
  0
LINE
  5
2B2
100
AcDbEntity
  8
0
100
AcDbLine
 62
7
  6
CONTINUOUS
 10
27.328542
 20
3.9950231002
 11
27.014494
 21
3.9950231002
  0
LINE
  5
2B3
100
AcDbEntity
  8
0
100
AcDbLine
 62
7
  6
CONTINUOUS
 10
26.163545
 20
3.9950231002
 11
24.498788
 21
3.9950231002
  0
LINE
  5
2B4
100
AcDbEntity
  8
0
100
AcDbLine
 62
7
  6
CONTINUOUS
 10
24.201652
 20
3.9950231002
 11
23.92458
 21
3.9950231002
  0
LINE
  5
2B5
100
AcDbEntity
  8
0
100
AcDbLine
 62
7
  6
CONTINUOUS
 10
26.250596
 20
4.8920681002
 11
26.527669
 21
4.8920681002
  0
LINE
  5
2B6
100
AcDbEntity
  8
0
100
AcDbLine
 62
7
  6
CONTINUOUS
 10
27.00156
 20
4.8920681002
 11
27.270176
 21
4.8920681002
  0
LINE
  5
2B7
100
AcDbEntity
  8
0
100
AcDbLine
 62
7
  6
CONTINUOUS
 10
28.318111
 20
4.8920681002
 11
28.629341
 21
4.8920681002
  0
LINE
  5
2B8
100
AcDbEntity
  8
ASSI
100
AcDbLine
 62
7
  6
CONTINUOUS
 10
-26.345853
 20
5.5792881002
 11
-25.031402
 21
5.5792881002
  0
LINE
  5
2B9
100
AcDbEntity
  8
ASSI
100
AcDbLine
 62
7
  6
CONTINUOUS
 10
-25.031402
 20
6.2542881002
 11
-26.3458557008
 21
6.2542881002
  0
LINE
  5
2BA
100
AcDbEntity
  8
0
100
AcDbLine
 62
7
  6
CONTINUOUS
 10
28.629341
 20
6.9415101002
 11
28.361056
 21
6.9415101002
  0
LINE
  5
2BB
100
AcDbEntity
  8
0
100
AcDbLine
 62
7
  6
CONTINUOUS
 10
27.330035
 20
6.9415101002
 11
27.00156
 21
6.9415101002
  0
LINE
  5
2BC
100
AcDbEntity
  8
0
100
AcDbLine
 62
7
  6
CONTINUOUS
 10
26.527669
 20
6.9415101002
 11
26.250596
 21
6.9415101002
  0
LINE
  5
2BD
100
AcDbEntity
  8
RACCORDO
100
AcDbLine
 62
7
  6
CONTINUOUS
 10
31.757780698
 20
-25.4346446791
 11
31.1011061566
 21
-24.7779701378
  0
LINE
  5
2BE
100
AcDbEntity
  8
0
100
AcDbLine
 62
7
  6
CONTINUOUS
 10
-1.884725
 20
24.5754731002
 11
-0.954306
 21
22.0944431002
  0
LINE
  5
2BF
100
AcDbEntity
  8
0
100
AcDbLine
 62
7
  6
CONTINUOUS
 10
23.50209
 20
7.8402131002
 11
23.77054
 21
7.8402131002
  0
LINE
  5
2C0
100
AcDbEntity
  8
0
100
AcDbLine
 62
7
  6
CONTINUOUS
 10
24.347401
 20
7.8402131002
 11
24.621489
 21
7.8402131002
  0
LINE
  5
2C1
100
AcDbEntity
  8
0
100
AcDbLine
 62
7
  6
CONTINUOUS
 10
25.198351
 20
7.8402131002
 11
25.466801
 21
7.8402131002
  0
LINE
  5
2C2
100
AcDbEntity
  8
0
100
AcDbLine
 62
7
  6
CONTINUOUS
 10
25.712369
 20
7.8402131002
 11
25.997898
 21
7.8402131002
  0
LINE
  5
2C3
100
AcDbEntity
  8
0
100
AcDbLine
 62
7
  6
CONTINUOUS
 10
27.237346
 20
7.8402131002
 11
27.539953
 21
7.8402131002
  0
LINE
  5
2C4
100
AcDbEntity
  8
0
100
AcDbLine
 62
7
  6
CONTINUOUS
 10
27.808403
 20
7.8402131002
 11
28.639291461
 21
7.8402131002
  0
LINE
  5
2C5
100
AcDbEntity
  8
0
100
AcDbLine
 62
7
  6
CONTINUOUS
 10
29.884375
 20
7.8402131002
 11
31.39791
 21
7.8402131002
  0
LINE
  5
2C6
100
AcDbEntity
  8
0
100
AcDbLine
 62
7
  6
CONTINUOUS
 10
28.6021427702
 20
8.0773241002
 11
28.08531
 21
8.0773241002
  0
LINE
  5
2C7
100
AcDbEntity
  8
0
100
AcDbLine
 62
7
  6
CONTINUOUS
 10
31.39791
 20
8.0856151002
 11
30.161447
 21
8.0856151002
  0
LINE
  5
2C8
100
AcDbEntity
  8
0
100
AcDbLine
 62
7
  6
CONTINUOUS
 10
26.212128
 20
8.4371371002
 11
27.034557
 21
8.4371371002
  0
LINE
  5
2C9
100
AcDbEntity
  8
0
100
AcDbLine
 62
7
  6
CONTINUOUS
 10
26.934572
 20
8.6825401002
 11
26.297853
 21
8.6825401002
  0
LINE
  5
2CA
100
AcDbEntity
  8
0
100
AcDbLine
 62
7
  6
CONTINUOUS
 10
30.161447
 20
8.7704201002
 11
31.283665
 21
8.7704201002
  0
LINE
  5
2CB
100
AcDbEntity
  8
0
100
AcDbLine
 62
7
  6
CONTINUOUS
 10
31.283665
 20
9.0158231002
 11
30.161447
 21
9.0158231002
  0
LINE
  5
2CC
100
AcDbEntity
  8
0
100
AcDbLine
 62
7
  6
CONTINUOUS
 10
30.161447
 20
9.6442521002
 11
31.377847
 21
9.6442521002
  0
LINE
  5
2CD
100
AcDbEntity
  8
0
100
AcDbLine
 62
7
  6
CONTINUOUS
 10
28.08531
 20
9.6525421002
 11
28.6021495845
 21
9.6525421002
  0
LINE
  5
2CE
100
AcDbEntity
  8
0
100
AcDbLine
 62
7
  6
CONTINUOUS
 10
31.377847
 20
9.8896541002
 11
29.884375
 21
9.8896541002
  0
LINE
  5
2CF
100
AcDbEntity
  8
0
100
AcDbLine
 62
7
  6
CONTINUOUS
 10
28.6392889761
 20
9.8896541002
 11
27.808403
 21
9.8896541002
  0
LINE
  5
2D0
100
AcDbEntity
  8
0
100
AcDbLine
 62
7
  6
CONTINUOUS
 10
26.797445
 20
9.8896541002
 11
26.483397
 21
9.8896541002
  0
LINE
  5
2D1
100
AcDbEntity
  8
0
100
AcDbLine
 62
7
  6
CONTINUOUS
 10
25.466801
 20
9.8896541002
 11
25.072665
 21
9.8896541002
  0
LINE
  5
2D2
100
AcDbEntity
  8
0
100
AcDbLine
 62
7
  6
CONTINUOUS
 10
23.899045
 20
9.8896541002
 11
23.50209
 21
9.8896541002
  0
LINE
  5
2D3
100
AcDbEntity
  8
RACCORDO
100
AcDbLine
 62
253
  6
CONTINUOUS
 10
33.35
 20
9.9667891002
 11
33.65
 21
9.9667891002
  0
LINE
  5
2D4
100
AcDbEntity
  8
RACCORDO
100
AcDbLine
 62
253
  6
CONTINUOUS
 10
-33.35
 20
9.9667891002
 11
-33.65
 21
9.9667891002
  0
LINE
  5
2D5
100
AcDbEntity
  8
0
100
AcDbLine
 62
7
  6
CONTINUOUS
 10
-0.894359
 20
23.7844681002
 11
-1.679095
 21
25.8939851002
  0
LINE
  5
2D6
100
AcDbEntity
  8
0
100
AcDbLine
 62
7
  6
CONTINUOUS
 10
4.288118
 20
22.0944431002
 11
3.122324
 21
25.8939851002
  0
LINE
  5
2D7
100
AcDbEntity
  8
0
100
AcDbLine
 62
7
  6
CONTINUOUS
 10
3.24675
 20
22.8529671002
 11
3.452209
 21
22.0944431002
  0
LINE
  5
2D8
100
AcDbEntity
  8
0
100
AcDbLine
 62
7
  6
CONTINUOUS
 10
2.723801
 20
24.8499681002
 11
3.088247
 21
23.4399091002
  0
LINE
  5
2D9
100
AcDbEntity
  8
RACCORDO
100
AcDbLine
 62
7
  6
CONTINUOUS
 10
34.1425878274
 20
-37.7688014449
 11
34.1419775344
 21
-37.7675898832
  0
LINE
  5
2DA
100
AcDbEntity
  8
0
100
AcDbLine
 62
7
  6
CONTINUOUS
 10
19.55
 20
-16.5832108998
 11
19.55
 21
-16.4832108998
  0
LINE
  5
2DB
100
AcDbEntity
  8
0
100
AcDbLine
 62
7
  6
CONTINUOUS
 10
19.55
 20
28.3167891002
 11
19.55
 21
28.4167891002
  0
LINE
  5
2DC
100
AcDbEntity
  8
0
100
AcDbLine
 62
7
  6
CONTINUOUS
 10
24.621489
 20
7.8402131002
 11
25.198351
 21
9.5613451002
  0
LINE
  5
2DD
100
AcDbEntity
  8
0
100
AcDbLine
 62
7
  6
CONTINUOUS
 10
25.072665
 20
9.8896541002
 11
24.487271
 21
8.1483041002
  0
LINE
  5
2DE
100
AcDbEntity
  8
0
100
AcDbLine
 62
7
  6
CONTINUOUS
 10
23.50209
 20
9.8896541002
 11
23.50209
 21
7.8402131002
  0
LINE
  5
2DF
100
AcDbEntity
  8
0
100
AcDbLine
 62
7
  6
CONTINUOUS
 10
23.77054
 20
7.8402131002
 11
23.77054
 21
9.5580291002
  0
LINE
  5
2E0
100
AcDbEntity
  8
0
100
AcDbLine
 62
7
  6
CONTINUOUS
 10
23.92458
 20
3.9950231002
 11
23.92458
 21
1.9439241002
  0
LINE
  5
2E1
100
AcDbEntity
  8
0
100
AcDbLine
 62
7
  6
CONTINUOUS
 10
24.201652
 20
1.9439241002
 11
24.201652
 21
3.9950231002
  0
LINE
  5
2E2
100
AcDbEntity
  8
0
100
AcDbLine
 62
7
  6
CONTINUOUS
 10
24.498788
 20
3.9950231002
 11
24.498788
 21
3.7496211002
  0
LINE
  5
2E3
100
AcDbEntity
  8
DRAFT
100
AcDbLine
 62
7
  6
CONTINUOUS
 10
34.2125239929
 20
37.7675898832
 11
34.1514359184
 21
37.5231444968
  0
LINE
  5
2E4
100
AcDbEntity
  8
0
100
AcDbLine
 62
7
  6
CONTINUOUS
 10
25.997898
 20
7.8402131002
 11
26.212128
 21
8.4371371002
  0
LINE
  5
2E5
100
AcDbEntity
  8
0
100
AcDbLine
 62
7
  6
CONTINUOUS
 10
26.528995
 20
1.9439241002
 11
26.743225
 21
2.5408491002
  0
LINE
  5
2E6
100
AcDbEntity
  8
0
100
AcDbLine
 62
7
  6
CONTINUOUS
 10
26.297853
 20
8.6825401002
 11
26.629094
 21
9.5926171002
  0
LINE
  5
2E7
100
AcDbEntity
  8
0
100
AcDbLine
 62
7
  6
CONTINUOUS
 10
26.828784
 20
2.7862511002
 11
27.160192
 21
3.6963261002
  0
LINE
  5
2E8
100
AcDbEntity
  8
0
100
AcDbLine
 62
7
  6
CONTINUOUS
 10
27.014494
 20
3.9950231002
 11
26.243466
 21
1.9439241002
  0
LINE
  5
2E9
100
AcDbEntity
  8
0
100
AcDbLine
 62
7
  6
CONTINUOUS
 10
26.483397
 20
9.8896541002
 11
25.712369
 21
7.8402131002
  0
LINE
  5
2EA
100
AcDbEntity
  8
0
100
AcDbLine
 62
7
  6
CONTINUOUS
 10
30.806789
 20
3.9950231002
 11
30.218487
 21
3.0100981002
  0
LINE
  5
2EB
100
AcDbEntity
  8
0
100
AcDbLine
 62
7
  6
CONTINUOUS
 10
30.358432
 20
2.7696701002
 11
31.132279
 21
3.9950231002
  0
LINE
  5
2EC
100
AcDbEntity
  8
0
100
AcDbLine
 62
7
  6
CONTINUOUS
 10
-6.249285
 20
22.0944431002
 11
-5.550353
 21
22.0944431002
  0
LINE
  5
2ED
100
AcDbEntity
  8
0
100
AcDbLine
 62
7
  6
CONTINUOUS
 10
-4.034701
 20
22.0944431002
 11
-3.241588
 21
22.0944431002
  0
LINE
  5
2EE
100
AcDbEntity
  8
0
100
AcDbLine
 62
7
  6
CONTINUOUS
 10
-2.81463
 20
22.0944431002
 11
-2.055878
 21
22.0944431002
  0
LINE
  5
2EF
100
AcDbEntity
  8
0
100
AcDbLine
 62
7
  6
CONTINUOUS
 10
-0.954306
 20
22.0944431002
 11
-0.843072
 21
22.0944431002
  0
LINE
  5
2F0
100
AcDbEntity
  8
0
100
AcDbLine
 62
7
  6
CONTINUOUS
 10
0.262887
 20
22.0944431002
 11
1.038763
 21
22.0944431002
  0
LINE
  5
2F1
100
AcDbEntity
  8
0
100
AcDbLine
 62
7
  6
CONTINUOUS
 10
1.163303
 20
22.0944431002
 11
1.947812
 21
22.0944431002
  0
LINE
  5
2F2
100
AcDbEntity
  8
0
100
AcDbLine
 62
7
  6
CONTINUOUS
 10
3.452209
 20
22.0944431002
 11
4.288118
 21
22.0944431002
  0
LINE
  5
2F3
100
AcDbEntity
  8
0
100
AcDbLine
 62
7
  6
CONTINUOUS
 10
4.5210141587
 20
22.0944431614
 11
5.310936459
 21
22.0944431614
  0
LINE
  5
2F4
100
AcDbEntity
  8
0
100
AcDbLine
 62
7
  6
CONTINUOUS
 10
6.5254804604
 20
22.0944431614
 11
7.2883635073
 21
22.0944431614
  0
LINE
  5
2F5
100
AcDbEntity
  8
0
100
AcDbLine
 62
7
  6
CONTINUOUS
 10
2.166662
 20
22.8529671002
 11
3.24675
 21
22.8529671002
  0
LINE
  5
2F6
100
AcDbEntity
  8
0
100
AcDbLine
 62
7
  6
CONTINUOUS
 10
3.088247
 20
23.4399091002
 11
2.328897
 21
23.4399091002
  0
LINE
  5
2F7
100
AcDbEntity
  8
0
100
AcDbLine
 62
7
  6
CONTINUOUS
 10
5.310936459
 20
23.5813741629
 11
5.7361849921
 21
23.5813741629
  0
LINE
  5
2F8
100
AcDbEntity
  8
0
100
AcDbLine
 62
7
  6
CONTINUOUS
 10
5.737894534
 20
24.2036473933
 11
5.284638007
 21
24.2036473933
  0
LWPOLYLINE
  5
2F9
100
AcDbEntity
  8
0
100
AcDbPolyline
 62
7
  6
CONTINUOUS
 90
10
 70
0
 43
0.3500000006
 10
0.6428571367
 20
47.0175885773
 10
0.7142856996
 20
46.8747307434
 10
0.7142856996
 20
46.8033040924
 10
0.5714285738
 20
46.6604462585
 10
0.500000011
 20
46.6604462585
 10
0.4285714127
 20
46.7318774414
 10
0.4285714127
 20
46.8033040924
 10
0.500000011
 20
46.9461619263
 10
0.5714285738
 20
47.0175885773
 10
0.6428571367
 20
47.0175885773
  0
LINE
  5
2FA
100
AcDbEntity
  8
RACCORDO
100
AcDbLine
 62
7
  6
CONTINUOUS
 10
34.1419775344
 20
-37.7675898832
 11
33.9113328211
 21
-36.844659565
  0
LINE
  5
2FB
100
AcDbEntity
  8
0
100
AcDbLine
 62
7
  6
CONTINUOUS
 10
25.192713
 20
3.7496211002
 11
25.192713
 21
1.9439241002
  0
LINE
  5
2FC
100
AcDbEntity
  8
0
100
AcDbLine
 62
7
  6
CONTINUOUS
 10
25.198351
 20
9.5613451002
 11
25.198351
 21
7.8402131002
  0
LINE
  5
2FD
100
AcDbEntity
  8
0
100
AcDbLine
 62
7
  6
CONTINUOUS
 10
25.45
 20
28.4167891002
 11
25.45
 21
28.3167891002
  0
LINE
  5
2FE
100
AcDbEntity
  8
0
100
AcDbLine
 62
7
  6
CONTINUOUS
 10
25.45
 20
-16.4832108998
 11
25.45
 21
-16.5832108998
  0
LINE
  5
2FF
100
AcDbEntity
  8
0
100
AcDbLine
 62
7
  6
CONTINUOUS
 10
25.466801
 20
7.8402131002
 11
25.466801
 21
9.8896541002
  0
LINE
  5
300
100
AcDbEntity
  8
0
100
AcDbLine
 62
7
  6
CONTINUOUS
 10
25.46962
 20
1.9439241002
 11
25.46962
 21
3.7496211002
  0
LINE
  5
301
100
AcDbEntity
  8
0
100
AcDbLine
 62
7
  6
CONTINUOUS
 10
26.163545
 20
3.7496211002
 11
26.163545
 21
3.9950231002
  0
LINE
  5
302
100
AcDbEntity
  8
0
100
AcDbLine
 62
7
  6
CONTINUOUS
 10
26.250596
 20
6.9415101002
 11
26.250596
 21
4.8920681002
  0
LINE
  5
303
100
AcDbEntity
  8
0
100
AcDbLine
 62
7
  6
CONTINUOUS
 10
26.527669
 20
4.8920681002
 11
26.527669
 21
6.9415101002
  0
LINE
  5
304
100
AcDbEntity
  8
0
100
AcDbLine
 62
7
  6
CONTINUOUS
 10
27.00156
 20
6.9415101002
 11
27.00156
 21
4.8920681002
  0
LINE
  5
305
100
AcDbEntity
  8
0
100
AcDbLine
 62
7
  6
CONTINUOUS
 10
27.270176
 20
4.8920681002
 11
27.270176
 21
6.5574941002
  0
LINE
  5
306
100
AcDbEntity
  8
0
100
AcDbLine
 62
7
  6
CONTINUOUS
 10
27.808403
 20
9.8896541002
 11
27.808403
 21
7.8402131002
  0
LINE
  5
307
100
AcDbEntity
  8
0
100
AcDbLine
 62
7
  6
CONTINUOUS
 10
28.08531
 20
8.0773241002
 11
28.08531
 21
9.6525421002
  0
LINE
  5
308
100
AcDbEntity
  8
0
100
AcDbLine
 62
253
  6
CONTINUOUS
 10
35.55
 20
28.0812177363
 11
35.4950891206
 21
27.916351134
  0
LINE
  5
309
100
AcDbEntity
  8
0
100
AcDbLine
 62
253
  6
CONTINUOUS
 10
35.8
 20
27.8316746742
 11
35.7450510444
 21
27.6666937504
  0
LINE
  5
30A
100
AcDbEntity
  8
0
100
AcDbLine
 62
7
  6
CONTINUOUS
 10
3.122324
 20
25.8939851002
 11
2.355082
 21
25.8939851002
  0
LINE
  5
30B
100
AcDbEntity
  8
0
100
AcDbLine
 62
7
  6
CONTINUOUS
 10
0.683463
 20
25.8939851002
 11
-0.101245
 21
25.8939851002
  0
LINE
  5
30C
100
AcDbEntity
  8
0
100
AcDbLine
 62
7
  6
CONTINUOUS
 10
-1.679095
 20
25.8939851002
 11
-2.471553
 21
25.8939851002
  0
LINE
  5
30D
100
AcDbEntity
  8
0
100
AcDbLine
 62
7
  6
CONTINUOUS
 10
-4.329028
 20
25.8939851002
 11
-5.1216
 21
25.8939851002
  0
LINE
  5
30E
100
AcDbEntity
  8
0
100
AcDbLine
 62
7
  6
CONTINUOUS
 10
-6.592247
 20
25.8939851002
 11
-7.453814
 21
25.8939851002
  0
LINE
  5
30F
100
AcDbEntity
  8
0
100
AcDbLine
 62
7
  6
CONTINUOUS
 10
-3.241588
 20
25.8942131002
 11
-4.034701
 21
25.8942131002
  0
LINE
  5
310
100
AcDbEntity
  8
0
100
AcDbLine
 62
253
  6
CONTINUOUS
 10
35.4744306588
 20
26.4800967113
 11
33.8298913334
 21
26.4800967549
  0
LINE
  5
311
100
AcDbEntity
  8
0
100
AcDbLine
 62
253
  6
CONTINUOUS
 10
-33.8298913334
 20
26.4800967549
 11
-35.4744306588
 21
26.4800967113
  0
LINE
  5
312
100
AcDbEntity
  8
0
100
AcDbLine
 62
253
  6
CONTINUOUS
 10
35.4950891206
 20
27.916351134
 11
33.8051011793
 21
27.916351134
  0
LINE
  5
313
100
AcDbEntity
  8
0
100
AcDbLine
 62
253
  6
CONTINUOUS
 10
-33.8051011793
 20
27.916351134
 11
-35.4950891206
 21
27.916351134
  0
LINE
  5
314
100
AcDbEntity
  8
0
100
AcDbLine
 62
7
  6
CONTINUOUS
 10
-35.55
 20
28.0817891002
 11
-33.75
 21
28.0817891002
  0
LINE
  5
315
100
AcDbEntity
  8
0
100
AcDbLine
 62
7
  6
CONTINUOUS
 10
33.75
 20
28.0817891002
 11
35.55
 21
28.0817891002
  0
LINE
  5
316
100
AcDbEntity
  8
0
100
AcDbLine
 62
7
  6
CONTINUOUS
 10
29.307513
 20
3.9950231002
 11
30.081526
 21
2.7696701002
  0
LINE
  5
317
100
AcDbEntity
  8
0
100
AcDbLine
 62
7
  6
CONTINUOUS
 10
27.270176
 20
6.5574941002
 11
28.318111
 21
4.8920681002
  0
LINE
  5
318
100
AcDbEntity
  8
0
100
AcDbLine
 62
7
  6
CONTINUOUS
 10
28.361056
 20
5.2773351002
 11
27.330035
 21
6.9415101002
  0
LINE
  5
319
100
AcDbEntity
  8
0
100
AcDbLine
 62
7
  6
CONTINUOUS
 10
30.218487
 20
3.0100981002
 11
29.630184
 21
3.9950231002
  0
LINE
  5
31A
100
AcDbEntity
  8
0
100
AcDbLine
 62
7
  6
CONTINUOUS
 10
28.07105
 20
1.9439241002
 11
27.328542
 21
3.9950231002
  0
LINE
  5
31B
100
AcDbEntity
  8
0
100
AcDbLine
 62
7
  6
CONTINUOUS
 10
27.565654
 20
2.5408491002
 11
27.768443
 21
1.9439241002
  0
LINE
  5
31C
100
AcDbEntity
  8
0
100
AcDbLine
 62
7
  6
CONTINUOUS
 10
24.487271
 20
8.1483041002
 11
23.899045
 21
9.8896541002
  0
LINE
  5
31D
100
AcDbEntity
  8
0
100
AcDbLine
 62
7
  6
CONTINUOUS
 10
23.77054
 20
9.5580291002
 11
24.347401
 21
7.8402131002
  0
LINE
  5
31E
100
AcDbEntity
  8
0
100
AcDbLine
 62
7
  6
CONTINUOUS
 10
27.160192
 20
3.6963261002
 11
27.465669
 21
2.7862511002
  0
LINE
  5
31F
100
AcDbEntity
  8
0
100
AcDbLine
 62
7
  6
CONTINUOUS
 10
28.325241
 20
3.9950231002
 11
28.325241
 21
1.9439241002
  0
LINE
  5
320
100
AcDbEntity
  8
0
100
AcDbLine
 62
7
  6
CONTINUOUS
 10
28.361056
 20
6.9415101002
 11
28.361056
 21
5.2773351002
  0
LINE
  5
321
100
AcDbEntity
  8
0
100
AcDbLine
 62
7
  6
CONTINUOUS
 10
28.602147
 20
2.1893261002
 11
28.602147
 21
3.9950231002
  0
LINE
  5
322
100
AcDbEntity
  8
0
100
AcDbLine
 62
7
  6
CONTINUOUS
 10
28.629341
 20
4.8920681002
 11
28.629341
 21
6.9415101002
  0
LINE
  5
323
100
AcDbEntity
  8
0
100
AcDbLine
 62
7
  6
CONTINUOUS
 10
29.641625
 20
1.9439241002
 11
29.641625
 21
2.1893261002
  0
LINE
  5
324
100
AcDbEntity
  8
0
100
AcDbLine
 62
7
  6
CONTINUOUS
 10
29.884375
 20
9.8896541002
 11
29.884375
 21
7.8402131002
  0
LINE
  5
325
100
AcDbEntity
  8
0
100
AcDbLine
 62
7
  6
CONTINUOUS
 10
30.081526
 20
2.7696701002
 11
30.081526
 21
1.9439241002
  0
LINE
  5
326
100
AcDbEntity
  8
0
100
AcDbLine
 62
7
  6
CONTINUOUS
 10
30.161447
 20
8.0856151002
 11
30.161447
 21
8.7704201002
  0
LINE
  5
327
100
AcDbEntity
  8
0
100
AcDbLine
 62
7
  6
CONTINUOUS
 10
30.161447
 20
9.0158231002
 11
30.161447
 21
9.6442521002
  0
LINE
  5
328
100
AcDbEntity
  8
0
100
AcDbLine
 62
7
  6
CONTINUOUS
 10
30.358432
 20
1.9439241002
 11
30.358432
 21
2.7696701002
  0
LINE
  5
329
100
AcDbEntity
  8
0
100
AcDbLine
 62
7
  6
CONTINUOUS
 10
31.283665
 20
8.7704201002
 11
31.283665
 21
9.0158231002
  0
LINE
  5
32A
100
AcDbEntity
  8
0
100
AcDbLine
 62
7
  6
CONTINUOUS
 10
31.377847
 20
9.6442521002
 11
31.377847
 21
9.8896541002
  0
LINE
  5
32B
100
AcDbEntity
  8
0
100
AcDbLine
 62
7
  6
CONTINUOUS
 10
31.39791
 20
7.8402131002
 11
31.39791
 21
8.0856151002
  0
LINE
  5
32C
100
AcDbEntity
  8
DRAFT
100
AcDbLine
 62
7
  6
CONTINUOUS
 10
-25.45
 20
28.3167891002
 11
-19.55
 21
28.3167891002
  0
LINE
  5
32D
100
AcDbEntity
  8
DRAFT
100
AcDbLine
 62
7
  6
CONTINUOUS
 10
-2.95
 20
28.3167891002
 11
2.95
 21
28.3167891002
  0
LINE
  5
32E
100
AcDbEntity
  8
0
100
AcDbLine
 62
7
  6
CONTINUOUS
 10
19.55
 20
28.3167891002
 11
25.45
 21
28.3167891002
  0
LINE
  5
32F
100
AcDbEntity
  8
DRAFT
100
AcDbLine
 62
7
  6
CONTINUOUS
 10
33.75
 20
28.4167891002
 11
-33.75
 21
28.4167891002
  0
LINE
  5
330
100
AcDbEntity
  8
0
100
AcDbLine
 62
7
  6
CONTINUOUS
 10
27.539953
 20
7.8402131002
 11
26.797445
 21
9.8896541002
  0
LINE
  5
331
100
AcDbEntity
  8
0
100
AcDbLine
 62
7
  6
CONTINUOUS
 10
27.034557
 20
8.4371371002
 11
27.237346
 21
7.8402131002
  0
LINE
  5
332
100
AcDbEntity
  8
0
100
AcDbLine
 62
7
  6
CONTINUOUS
 10
26.629094
 20
9.5926171002
 11
26.934572
 21
8.6825401002
  0
LINE
  5
333
100
AcDbEntity
  8
0
100
AcDbLine
 62
253
  6
CONTINUOUS
 10
35.4950891206
 20
-16.0827729337
 11
35.55
 21
-16.2476395359
  0
LINE
  5
334
100
AcDbEntity
  8
0
100
AcDbLine
 62
253
  6
CONTINUOUS
 10
35.7450510444
 20
-15.83311555
 11
35.8
 21
-15.9980964738
  0
LINE
  5
335
100
AcDbEntity
  8
DRAFT
100
AcDbLine
 62
7
  6
CONTINUOUS
 10
31.757780698
 20
-25.4346446791
 11
31.757780698
 21
-29.6159055849
  0
LINE
  5
336
100
AcDbEntity
  8
RACCORDO
100
AcDbLine
 62
253
  6
CONTINUOUS
 10
33.35
 20
-16.5832108998
 11
33.35
 21
1.8667891002
  0
LINE
  5
337
100
AcDbEntity
  8
RACCORDO
100
AcDbLine
 62
253
  6
CONTINUOUS
 10
33.35
 20
9.9667891002
 11
33.35
 21
28.4167891002
  0
LINE
  5
338
100
AcDbEntity
  8
RACCORDO
100
AcDbLine
 62
7
  6
CONTINUOUS
 10
33.65
 20
-16.5832108998
 11
33.65
 21
1.8667891002
  0
LINE
  5
339
100
AcDbEntity
  8
RACCORDO
100
AcDbLine
 62
7
  6
CONTINUOUS
 10
33.65
 20
9.9667891002
 11
33.65
 21
28.4167891002
  0
LINE
  5
33A
100
AcDbEntity
  8
DRAFT
100
AcDbLine
 62
7
  6
CONTINUOUS
 10
33.75
 20
28.4167891002
 11
33.75
 21
-16.5832108998
  0
LINE
  5
33B
100
AcDbEntity
  8
ASSI
100
AcDbLine
 62
7
  6
CONTINUOUS
 10
33.8674968279
 20
-28.5495427503
 11
33.8490580945
 21
-31.0675626506
  0
LINE
  5
33C
100
AcDbEntity
  8
RACCORDO
100
AcDbLine
 62
253
  6
CONTINUOUS
 10
35.8
 20
34.468255938
 11
-35.8
 21
34.468255938
  0
LINE
  5
33D
100
AcDbEntity
  8
0
100
AcDbLine
 62
253
  6
CONTINUOUS
 10
35.55
 20
28.0817891002
 11
35.55
 21
28.0812177363
  0
LINE
  5
33E
100
AcDbEntity
  8
0
100
AcDbLine
 62
253
  6
CONTINUOUS
 10
35.55
 20
-16.2476395359
 11
35.55
 21
-16.2482108998
  0
LINE
  5
33F
100
AcDbEntity
  8
RACCORDO
100
AcDbLine
 62
7
  6
CONTINUOUS
 10
35.8
 20
37.7675898832
 11
35.8
 21
34.468255938
  0
LINE
  5
340
100
AcDbEntity
  8
0
100
AcDbLine
 62
7
  6
CONTINUOUS
 10
35.8
 20
34.468255938
 11
35.8
 21
-22.6346777376
  0
LINE
  5
341
100
AcDbEntity
  8
RACCORDO
100
AcDbLine
 62
7
  6
CONTINUOUS
 10
35.8
 20
-22.6346777376
 11
35.8
 21
-28.0137812802
  0
LINE
  5
342
100
AcDbEntity
  8
ASSI
100
AcDbLine
 62
7
  6
CONTINUOUS
 10
35.8
 20
-28.0137812802
 11
35.8
 21
-32.031744062
  0
LINE
  5
343
100
AcDbEntity
  8
RACCORDO
100
AcDbLine
 62
7
  6
CONTINUOUS
 10
35.8
 20
-32.031744062
 11
35.8
 21
-37.7675898832
  0
LINE
  5
344
100
AcDbEntity
  8
0
100
AcDbLine
 62
7
  6
CONTINUOUS
 10
33.8051011793
 20
-16.0827729337
 11
33.75
 21
-16.2482108998
  0
LINE
  5
345
100
AcDbEntity
  8
RACCORDO
100
AcDbLine
 62
253
  6
CONTINUOUS
 10
35.8
 20
35.9673421785
 11
-35.8
 21
35.9673421785
  0
LINE
  5
346
100
AcDbEntity
  8
RACCORDO
100
AcDbLine
 62
7
  6
CONTINUOUS
 10
-28.1029336756
 20
36.5104421815
 11
28.1029336756
 21
36.5104421815
  0
LINE
  5
347
100
AcDbEntity
  8
RACCORDO
100
AcDbLine
 62
7
  6
CONTINUOUS
 10
31.1563469186
 20
36.6667891002
 11
-31.1563469186
 21
36.6667891002
  0
LINE
  5
348
100
AcDbEntity
  8
RACCORDO
100
AcDbLine
 62
7
  6
CONTINUOUS
 10
34.1514359184
 20
37.5231444968
 11
32.7852533351
 21
37.5231444968
  0
LINE
  5
349
100
AcDbEntity
  8
RACCORDO
100
AcDbLine
 62
7
  6
CONTINUOUS
 10
-32.7852533351
 20
37.5231444968
 11
-34.1514359184
 21
37.5231444968
  0
LINE
  5
34A
100
AcDbEntity
  8
COPY-PUBBLISH
100
AcDbLine
 62
7
  6
CONTINUOUS
 10
-35.8
 20
37.7675898832
 11
-34.2125239929
 21
37.7675898832
  0
LINE
  5
34B
100
AcDbEntity
  8
COPY-PUBBLISH
100
AcDbLine
 62
7
  6
CONTINUOUS
 10
34.2125239929
 20
37.7675898832
 11
35.8
 21
37.7675898832
  0
LINE
  5
34C
100
AcDbEntity
  8
0
100
AcDbLine
 62
7
  6
CONTINUOUS
 10
33.75
 20
28.0817891002
 11
33.8051011793
 21
27.916351134
  0
LINE
  5
34D
100
AcDbEntity
  8
RACCORDO
100
AcDbLine
 62
7
  6
CONTINUOUS
 10
31.757780698
 20
-29.6159055849
 11
31.1011061566
 21
-30.2725801262
  0
LINE
  5
34E
100
AcDbEntity
  8
RACCORDO
100
AcDbLine
 62
7
  6
CONTINUOUS
 10
34.0638789652
 20
-27.8273126628
 11
33.8774103478
 21
-28.0137812802
  0
LINE
  5
34F
100
AcDbEntity
  8
RACCORDO
100
AcDbLine
 62
7
  6
CONTINUOUS
 10
-105.9519236993
 20
-36.6337639781
 11
-73.4833979018
 21
-37.7675898832
  0
LINE
  5
350
100
AcDbEntity
  8
COPY-PUBBLISH
100
AcDbLine
 62
7
  6
CONTINUOUS
 10
-110.0999584543
 20
24.4060131002
 11
-109.0839914543
 21
25.0478001002
  0
LINE
  5
351
100
AcDbEntity
  8
COPY-PUBBLISH
100
AcDbLine
 62
7
  6
CONTINUOUS
 10
-109.2828394543
 20
25.1615251002
 11
-110.0999584543
 21
24.6736191002
  0
LINE
  5
352
100
AcDbEntity
  8
RACCORDO
100
AcDbLine
 62
7
  6
CONTINUOUS
 10
-75.6472252092
 20
-29.474394431
 11
-73.4594883836
 21
-29.3979969776
  0
LINE
  5
353
100
AcDbEntity
  8
COPY-PUBBLISH
100
AcDbLine
 62
7
  6
CONTINUOUS
 10
-108.3995744543
 20
23.0253531002
 11
-110.0999584543
 21
22.4095151002
  0
LINE
  5
354
100
AcDbEntity
  8
COPY-PUBBLISH
100
AcDbLine
 62
7
  6
CONTINUOUS
 10
-108.8944944543
 20
22.6061081002
 11
-108.3995744543
 21
22.7742491002
  0
LINE
  5
355
100
AcDbEntity
  8
COPY-PUBBLISH
100
AcDbLine
 62
7
  6
CONTINUOUS
 10
-109.8533204543
 20
22.2698541002
 11
-109.0981554543
 21
22.5232001002
  0
LINE
  5
356
100
AcDbEntity
  8
RACCORDO
100
AcDbLine
 62
7
  6
CONTINUOUS
 10
-82.432607532
 20
-27.8273126628
 11
-103.7997946905
 21
-28.0137812802
  0
LINE
  5
357
100
AcDbEntity
  8
0
100
AcDbLine
 62
7
  6
CONTINUOUS
 10
-73.3995744543
 20
-25.5832108998
 11
-73.1995744543
 21
-25.5832108998
  0
LINE
  5
358
100
AcDbEntity
  8
RACCORDO
100
AcDbLine
 62
7
  6
CONTINUOUS
 10
-73.3995744543
 20
-25.5832108998
 11
-75.6995744543
 21
-25.5832108998
  0
LINE
  5
359
100
AcDbEntity
  8
0
100
AcDbLine
 62
7
  6
CONTINUOUS
 10
-118.3995744543
 20
34.468255938
 11
-118.3995744543
 21
-22.6346777376
  0
LINE
  5
35A
100
AcDbEntity
  8
COPY-PUBBLISH
100
AcDbLine
 62
7
  6
CONTINUOUS
 10
-109.7804904543
 20
17.4053381002
 11
-108.3995744543
 21
18.2745081002
  0
LINE
  5
35B
100
AcDbEntity
  8
COPY-PUBBLISH
100
AcDbLine
 62
7
  6
CONTINUOUS
 10
-108.7187634543
 20
18.3100421002
 11
-110.0999584543
 21
17.4550371002
  0
LINE
  5
35C
100
AcDbEntity
  8
RACCORDO
100
AcDbLine
 62
7
  6
CONTINUOUS
 10
-71.5995744543
 20
-24.8332108998
 11
-71.3995744543
 21
-24.8332108998
  0
LINE
  5
35D
100
AcDbEntity
  8
RACCORDO
100
AcDbLine
 62
253
  6
CONTINUOUS
 10
-71.8995744543
 20
-24.5332108998
 11
-71.3995744543
 21
-24.5332108998
  0
LINE
  5
35E
100
AcDbEntity
  8
RACCORDO
100
AcDbLine
 62
7
  6
CONTINUOUS
 10
-116.9519236993
 20
-24.1337639781
 11
-82.400051302
 21
-25.3403419496
  0
LINE
  5
35F
100
AcDbEntity
  8
0
100
AcDbLine
 62
7
  6
CONTINUOUS
 10
-73.3995744543
 20
-23.4046455269
 11
-73.1716548569
 21
-23.4126046547
  0
LINE
  5
360
100
AcDbEntity
  8
COPY-PUBBLISH
100
AcDbLine
 62
7
  6
CONTINUOUS
 10
-115.4986468772
 20
-10.9839805846
 11
-114.7386454543
 21
-11.8858378998
  0
LINE
  5
361
100
AcDbEntity
  8
COPY-PUBBLISH
100
AcDbLine
 62
7
  6
CONTINUOUS
 10
-114.3439084543
 20
-11.8858378998
 11
-115.0686470189
 21
-11.0258244164
  0
LINE
  5
362
100
AcDbEntity
  8
COPY-PUBBLISH
100
AcDbLine
 62
7
  6
CONTINUOUS
 10
-115.8813754543
 20
-11.6115908998
 11
-115.8813754543
 21
-12.5026158998
  0
LINE
  5
363
100
AcDbEntity
  8
COPY-PUBBLISH
100
AcDbLine
 62
7
  6
CONTINUOUS
 10
-115.5581804543
 20
-12.5026158998
 11
-115.5581804543
 21
-12.2282588998
  0
LINE
  5
364
100
AcDbEntity
  8
COPY-PUBBLISH
100
AcDbLine
 62
7
  6
CONTINUOUS
 10
-115.5581804543
 20
-11.8858378998
 11
-115.5581804543
 21
-11.6115908998
  0
LINE
  5
365
100
AcDbEntity
  8
COPY-PUBBLISH
100
AcDbLine
 62
7
  6
CONTINUOUS
 10
-115.3226144543
 20
25.5119011002
 11
-115.3226144543
 21
24.0513969882
  0
LINE
  5
366
100
AcDbEntity
  8
COPY-PUBBLISH
100
AcDbLine
 62
7
  6
CONTINUOUS
 10
-114.5726144543
 20
24.0514001002
 11
-114.5726144543
 21
25.5119011002
  0
LINE
  5
367
100
AcDbEntity
  8
COPY-PUBBLISH
100
AcDbLine
 62
7
  6
CONTINUOUS
 10
-113.2745984543
 20
-11.6010938998
 11
-113.2745984543
 21
-11.8858378998
  0
LINE
  5
368
100
AcDbEntity
  8
COPY-PUBBLISH
100
AcDbLine
 62
7
  6
CONTINUOUS
 10
-113.2745984543
 20
-12.2282588998
 11
-113.2745984543
 21
-12.5131118998
  0
LINE
  5
369
100
AcDbEntity
  8
COPY-PUBBLISH
100
AcDbLine
 62
7
  6
CONTINUOUS
 10
-113.0977185208
 20
-12.8033594237
 11
-113.3613306108
 21
-12.655401812
  0
LINE
  5
36A
100
AcDbEntity
  8
COPY-PUBBLISH
100
AcDbLine
 62
7
  6
CONTINUOUS
 10
-111.9326484543
 20
-10.8951468998
 11
-112.1704314543
 21
-10.7274168998
  0
LINE
  5
36B
100
AcDbEntity
  8
COPY-PUBBLISH
100
AcDbLine
 62
7
  6
CONTINUOUS
 10
-113.1477410534
 20
21.4113342837
 11
-113.1503944543
 21
21.5267911002
  0
LINE
  5
36C
100
AcDbEntity
  8
COPY-PUBBLISH
100
AcDbLine
 62
7
  6
CONTINUOUS
 10
-112.9531714543
 20
-12.5131118998
 11
-112.9531714543
 21
-11.6010938998
  0
LINE
  5
36D
100
AcDbEntity
  8
COPY-PUBBLISH
100
AcDbLine
 62
7
  6
CONTINUOUS
 10
-110.0999584543
 20
25.9193751002
 11
-110.0999584543
 21
25.6492941002
  0
LINE
  5
36E
100
AcDbEntity
  8
COPY-PUBBLISH
100
AcDbLine
 62
7
  6
CONTINUOUS
 10
-110.0999584543
 20
24.6736191002
 11
-110.0999584543
 21
24.4060131002
  0
LINE
  5
36F
100
AcDbEntity
  8
COPY-PUBBLISH
100
AcDbLine
 62
7
  6
CONTINUOUS
 10
-110.0999584543
 20
23.4658161002
 11
-110.0999584543
 21
23.2360271002
  0
LINE
  5
370
100
AcDbEntity
  8
COPY-PUBBLISH
100
AcDbLine
 62
7
  6
CONTINUOUS
 10
-110.0999584543
 20
22.4095151002
 11
-110.0999584543
 21
22.1490461002
  0
LINE
  5
371
100
AcDbEntity
  8
COPY-PUBBLISH
100
AcDbLine
 62
7
  6
CONTINUOUS
 10
-110.0999584543
 20
21.4432601002
 11
-110.0999584543
 21
20.0625591002
  0
LINE
  5
372
100
AcDbEntity
  8
COPY-PUBBLISH
100
AcDbLine
 62
7
  6
CONTINUOUS
 10
-110.0999584543
 20
19.8162541002
 11
-110.0999584543
 21
19.5864781002
  0
LINE
  5
373
100
AcDbEntity
  8
COPY-PUBBLISH
100
AcDbLine
 62
7
  6
CONTINUOUS
 10
-110.0999584543
 20
18.5326391002
 11
-110.0999584543
 21
18.3100421002
  0
LINE
  5
374
100
AcDbEntity
  8
COPY-PUBBLISH
100
AcDbLine
 62
7
  6
CONTINUOUS
 10
-110.0999584543
 20
17.4550371002
 11
-110.0999584543
 21
17.1826311002
  0
LINE
  5
375
100
AcDbEntity
  8
COPY-PUBBLISH
100
AcDbLine
 62
7
  6
CONTINUOUS
 10
-110.0999584543
 20
16.7895561002
 11
-110.0999584543
 21
16.5598491002
  0
LINE
  5
376
100
AcDbEntity
  8
COPY-PUBBLISH
100
AcDbLine
 62
7
  6
CONTINUOUS
 10
-110.0999584543
 20
15.5485431002
 11
-110.0999584543
 21
14.3098961002
  0
LINE
  5
377
100
AcDbEntity
  8
COPY-PUBBLISH
100
AcDbLine
 62
7
  6
CONTINUOUS
 10
-110.0999584543
 20
11.7498171002
 11
-110.0999584543
 21
11.4892661002
  0
LINE
  5
378
100
AcDbEntity
  8
COPY-PUBBLISH
100
AcDbLine
 62
7
  6
CONTINUOUS
 10
-110.0999584543
 20
10.6508721002
 11
-110.0999584543
 21
10.3216751002
  0
LINE
  5
379
100
AcDbEntity
  8
COPY-PUBBLISH
100
AcDbLine
 62
7
  6
CONTINUOUS
 10
-110.0999584543
 20
9.3459871002
 11
-110.0999584543
 21
9.0167891002
  0
LINE
  5
37A
100
AcDbEntity
  8
COPY-PUBBLISH
100
AcDbLine
 62
7
  6
CONTINUOUS
 10
-110.0999591415
 20
13.2878761002
 11
-110.0999584543
 21
12.5881281002
  0
LINE
  5
37B
100
AcDbEntity
  8
COPY-PUBBLISH
100
AcDbLine
 62
7
  6
CONTINUOUS
 10
-109.9034484543
 20
12.8179171002
 11
-109.9034484543
 21
13.2587121002
  0
LINE
  5
37C
100
AcDbEntity
  8
COPY-PUBBLISH
100
AcDbLine
 62
7
  6
CONTINUOUS
 10
-109.8962974543
 20
14.5396711002
 11
-109.8962974543
 21
15.5485431002
  0
LINE
  5
37D
100
AcDbEntity
  8
COPY-PUBBLISH
100
AcDbLine
 62
7
  6
CONTINUOUS
 10
-109.8962974543
 20
20.0625591002
 11
-109.8962974543
 21
20.6380631002
  0
LINE
  5
37E
100
AcDbEntity
  8
COPY-PUBBLISH
100
AcDbLine
 62
7
  6
CONTINUOUS
 10
-109.8962974543
 20
20.8677551002
 11
-109.8962974543
 21
21.4432601002
  0
LINE
  5
37F
100
AcDbEntity
  8
COPY-PUBBLISH
100
AcDbLine
 62
7
  6
CONTINUOUS
 10
-108.3995744543
 20
12.3655311002
 11
-110.0999584543
 21
11.7498171002
  0
LINE
  5
380
100
AcDbEntity
  8
COPY-PUBBLISH
100
AcDbLine
 62
7
  6
CONTINUOUS
 10
-108.8944944543
 20
11.9463411002
 11
-108.3995744543
 21
12.1144681002
  0
LINE
  5
381
100
AcDbEntity
  8
COPY-PUBBLISH
100
AcDbLine
 62
7
  6
CONTINUOUS
 10
-109.8533204543
 20
11.6101841002
 11
-109.0981554543
 21
11.8635151002
  0
LINE
  5
382
100
AcDbEntity
  8
0
100
AcDbLine
 62
7
  6
CONTINUOUS
 10
-121.5563188995
 20
-16.0827729337
 11
-118.3995744543
 21
-16.2482108998
  0
LINE
  5
383
100
AcDbEntity
  8
0
100
AcDbLine
 62
253
  6
CONTINUOUS
 10
-121.547598012
 20
-15.83311555
 11
-118.3995744543
 21
-15.9980964738
  0
LINE
  5
384
100
AcDbEntity
  8
COPY-PUBBLISH
100
AcDbLine
 62
7
  6
CONTINUOUS
 10
-109.3752494543
 20
15.4703931002
 11
-109.3752494543
 21
14.5396711002
  0
LINE
  5
385
100
AcDbEntity
  8
COPY-PUBBLISH
100
AcDbLine
 62
7
  6
CONTINUOUS
 10
-109.1715884543
 20
14.5396711002
 11
-109.1715884543
 21
15.4703931002
  0
LINE
  5
386
100
AcDbEntity
  8
COPY-PUBBLISH
100
AcDbLine
 62
7
  6
CONTINUOUS
 10
-109.0981554543
 20
22.5232001002
 11
-109.0981554543
 21
21.9950701002
  0
LINE
  5
387
100
AcDbEntity
  8
COPY-PUBBLISH
100
AcDbLine
 62
7
  6
CONTINUOUS
 10
-109.0981554543
 20
11.8635151002
 11
-109.0981554543
 21
11.3353851002
  0
LINE
  5
388
100
AcDbEntity
  8
COPY-PUBBLISH
100
AcDbLine
 62
7
  6
CONTINUOUS
 10
-108.8944944543
 20
11.2643171002
 11
-108.8944944543
 21
11.9463411002
  0
LINE
  5
389
100
AcDbEntity
  8
COPY-PUBBLISH
100
AcDbLine
 62
7
  6
CONTINUOUS
 10
-108.8944944543
 20
21.9240151002
 11
-108.8944944543
 21
22.6061081002
  0
LINE
  5
38A
100
AcDbEntity
  8
COPY-PUBBLISH
100
AcDbLine
 62
7
  6
CONTINUOUS
 10
-108.6032354543
 20
24.3279041002
 11
-108.6032354543
 21
23.4658161002
  0
LINE
  5
38B
100
AcDbEntity
  8
COPY-PUBBLISH
100
AcDbLine
 62
7
  6
CONTINUOUS
 10
-108.6032354543
 20
15.5651411002
 11
-108.6032354543
 21
14.5396711002
  0
LINE
  5
38C
100
AcDbEntity
  8
COPY-PUBBLISH
100
AcDbLine
 62
7
  6
CONTINUOUS
 10
-108.5960844543
 20
13.2587121002
 11
-108.5960844543
 21
12.8179171002
  0
LINE
  5
38D
100
AcDbEntity
  8
COPY-PUBBLISH
100
AcDbLine
 62
7
  6
CONTINUOUS
 10
-108.3995744543
 20
9.0167891002
 11
-108.3995744543
 21
9.2393921002
  0
LINE
  5
38E
100
AcDbEntity
  8
COPY-PUBBLISH
100
AcDbLine
 62
7
  6
CONTINUOUS
 10
-108.3995744543
 20
9.7178151002
 11
-108.3995744543
 21
9.9498471002
  0
LINE
  5
38F
100
AcDbEntity
  8
COPY-PUBBLISH
100
AcDbLine
 62
7
  6
CONTINUOUS
 10
-108.3995744543
 20
10.4282691002
 11
-108.3995744543
 21
10.6508721002
  0
LINE
  5
390
100
AcDbEntity
  8
COPY-PUBBLISH
100
AcDbLine
 62
7
  6
CONTINUOUS
 10
-108.3995744543
 20
10.8498721002
 11
-108.3995744543
 21
11.0866741002
  0
LINE
  5
391
100
AcDbEntity
  8
COPY-PUBBLISH
100
AcDbLine
 62
7
  6
CONTINUOUS
 10
-108.3995744543
 20
12.1144681002
 11
-108.3995744543
 21
12.3655311002
  0
LINE
  5
392
100
AcDbEntity
  8
COPY-PUBBLISH
100
AcDbLine
 62
7
  6
CONTINUOUS
 10
-108.3995744543
 20
12.5881281002
 11
-108.3995744543
 21
13.2878761002
  0
LINE
  5
393
100
AcDbEntity
  8
COPY-PUBBLISH
100
AcDbLine
 62
7
  6
CONTINUOUS
 10
-108.3995744543
 20
14.3098961002
 11
-108.3995744543
 21
15.5651411002
  0
LINE
  5
394
100
AcDbEntity
  8
COPY-PUBBLISH
100
AcDbLine
 62
7
  6
CONTINUOUS
 10
-108.3995744543
 20
16.5598491002
 11
-108.3995744543
 21
16.7895561002
  0
LINE
  5
395
100
AcDbEntity
  8
COPY-PUBBLISH
100
AcDbLine
 62
7
  6
CONTINUOUS
 10
-108.3995744543
 20
17.1826311002
 11
-108.3995744543
 21
17.4053381002
  0
LINE
  5
396
100
AcDbEntity
  8
COPY-PUBBLISH
100
AcDbLine
 62
7
  6
CONTINUOUS
 10
-108.3995744543
 20
18.2745081002
 11
-108.3995744543
 21
18.5326391002
  0
LINE
  5
397
100
AcDbEntity
  8
COPY-PUBBLISH
100
AcDbLine
 62
7
  6
CONTINUOUS
 10
-108.3995744543
 20
19.5864781002
 11
-108.3995744543
 21
19.8162541002
  0
LINE
  5
398
100
AcDbEntity
  8
COPY-PUBBLISH
100
AcDbLine
 62
7
  6
CONTINUOUS
 10
-108.3995744543
 20
20.6380631002
 11
-108.3995744543
 21
20.8677551002
  0
LINE
  5
399
100
AcDbEntity
  8
COPY-PUBBLISH
100
AcDbLine
 62
7
  6
CONTINUOUS
 10
-108.3995744543
 20
21.5095701002
 11
-108.3995744543
 21
21.7463581002
  0
LINE
  5
39A
100
AcDbEntity
  8
COPY-PUBBLISH
100
AcDbLine
 62
7
  6
CONTINUOUS
 10
-108.3995744543
 20
22.7742491002
 11
-108.3995744543
 21
23.0253531002
  0
LINE
  5
39B
100
AcDbEntity
  8
COPY-PUBBLISH
100
AcDbLine
 62
7
  6
CONTINUOUS
 10
-108.3995744543
 20
23.2360271002
 11
-108.3995744543
 21
24.3279041002
  0
LINE
  5
39C
100
AcDbEntity
  8
COPY-PUBBLISH
100
AcDbLine
 62
7
  6
CONTINUOUS
 10
-108.3995744543
 20
25.0478001002
 11
-108.3995744543
 21
25.2774511002
  0
LINE
  5
39D
100
AcDbEntity
  8
RACCORDO
100
AcDbLine
 62
7
  6
CONTINUOUS
 10
-107.3995744543
 20
-32.031744062
 11
-107.3995744543
 21
-35.1346777376
  0
LINE
  5
39E
100
AcDbEntity
  8
COPY-PUBBLISH
100
AcDbLine
 62
7
  6
CONTINUOUS
 10
-108.6554514543
 20
9.8338311002
 11
-110.0999584543
 21
9.3459871002
  0
LINE
  5
39F
100
AcDbEntity
  8
COPY-PUBBLISH
100
AcDbLine
 62
7
  6
CONTINUOUS
 10
-109.8253394543
 20
9.2393921002
 11
-108.3995744543
 21
9.7178151002
  0
LINE
  5
3A0
100
AcDbEntity
  8
0
100
AcDbLine
 62
253
  6
CONTINUOUS
 10
-122.7311204953
 20
-14.6362369007
 11
-122.9765339797
 21
-14.6465180637
  0
LINE
  5
3A1
100
AcDbEntity
  8
COPY-PUBBLISH
100
AcDbLine
 62
7
  6
CONTINUOUS
 10
-113.2745984543
 20
-12.5131118998
 11
-112.9531714543
 21
-12.5131118998
  0
LINE
  5
3A2
100
AcDbEntity
  8
COPY-PUBBLISH
100
AcDbLine
 62
7
  6
CONTINUOUS
 10
-115.8813754543
 20
-12.5026158998
 11
-115.5581804543
 21
-12.5026158998
  0
LINE
  5
3A3
100
AcDbEntity
  8
COPY-PUBBLISH
100
AcDbLine
 62
7
  6
CONTINUOUS
 10
-104.3995744543
 20
16.2167891002
 11
-104.3995744543
 21
-4.3832108998
  0
LINE
  5
3A4
100
AcDbEntity
  8
DRAFT
100
AcDbLine
 62
7
  6
CONTINUOUS
 10
-104.2310403981
 20
16.2167891002
 11
-104.2310403981
 21
-4.3832108998
  0
LINE
  5
3A5
100
AcDbEntity
  8
COPY-PUBBLISH
100
AcDbLine
 62
7
  6
CONTINUOUS
 10
-115.5581804543
 20
-12.2282588998
 11
-114.7386454543
 21
-12.2282588998
  0
LINE
  5
3A6
100
AcDbEntity
  8
COPY-PUBBLISH
100
AcDbLine
 62
7
  6
CONTINUOUS
 10
-114.3403144543
 20
-12.2282588998
 11
-113.2745984543
 21
-12.2282588998
  0
LINE
  5
3A7
100
AcDbEntity
  8
COPY-PUBBLISH
100
AcDbLine
 62
7
  6
CONTINUOUS
 10
-113.2745984543
 20
-11.8858378998
 11
-114.3439084543
 21
-11.8858378998
  0
LINE
  5
3A8
100
AcDbEntity
  8
COPY-PUBBLISH
100
AcDbLine
 62
7
  6
CONTINUOUS
 10
-114.7386454543
 20
-11.8858378998
 11
-115.5581804543
 21
-11.8858378998
  0
LINE
  5
3A9
100
AcDbEntity
  8
COPY-PUBBLISH
100
AcDbLine
 62
7
  6
CONTINUOUS
 10
-115.5581804543
 20
-11.6115908998
 11
-115.8813754543
 21
-11.6115908998
  0
LINE
  5
3AA
100
AcDbEntity
  8
COPY-PUBBLISH
100
AcDbLine
 62
7
  6
CONTINUOUS
 10
-112.9531714543
 20
-11.6010938998
 11
-113.2745984543
 21
-11.6010938998
  0
LINE
  5
3AB
100
AcDbEntity
  8
COPY-PUBBLISH
100
AcDbLine
 62
7
  6
CONTINUOUS
 10
-71.0995744543
 20
-11.5832108998
 11
-69.3995744543
 21
-11.5832108998
  0
LINE
  5
3AC
100
AcDbEntity
  8
COPY-PUBBLISH
100
AcDbLine
 62
7
  6
CONTINUOUS
 10
-97.3995744543
 20
-11.3832108998
 11
-86.3995744543
 21
-11.3832108998
  0
LINE
  5
3AD
100
AcDbEntity
  8
COPY-PUBBLISH
100
AcDbLine
 62
7
  6
CONTINUOUS
 10
-67.8995744543
 20
-9.9832108998
 11
-69.0301853485
 21
-9.9832108998
  0
LINE
  5
3AE
100
AcDbEntity
  8
COPY-PUBBLISH
100
AcDbLine
 62
7
  6
CONTINUOUS
 10
-70.3995744543
 20
-9.9832108998
 11
-73.0995744543
 21
-9.9832108998
  0
LINE
  5
3AF
100
AcDbEntity
  8
DRAFT
100
AcDbLine
 62
7
  6
CONTINUOUS
 10
-97.3995744543
 20
-11.2198926816
 11
-86.3995744543
 21
-11.2282912036
  0
LINE
  5
3B0
100
AcDbEntity
  8
COPY-PUBBLISH
100
AcDbLine
 62
7
  6
CONTINUOUS
 10
-114.7386454543
 20
-12.2282588998
 11
-115.5005964543
 21
-13.1324298998
  0
LINE
  5
3B1
100
AcDbEntity
  8
COPY-PUBBLISH
100
AcDbLine
 62
7
  6
CONTINUOUS
 10
-115.0686474543
 20
-13.0925368998
 11
-114.3403144543
 21
-12.2282588998
  0
LINE
  5
3B2
100
AcDbEntity
  8
COPY-PUBBLISH
100
AcDbLine
 62
253
  6
CONTINUOUS
 10
-97.3995744543
 20
23.2167891002
 11
-97.3995744543
 21
23.053470882
  0
LINE
  5
3B3
100
AcDbEntity
  8
COPY-PUBBLISH
100
AcDbLine
 62
253
  6
CONTINUOUS
 10
-97.3995744543
 20
-11.3832108998
 11
-97.3995744543
 21
-11.2198926816
  0
LINE
  5
3B4
100
AcDbEntity
  8
COPY-PUBBLISH
100
AcDbLine
 62
253
  6
CONTINUOUS
 10
-104.3995744543
 20
-4.3832108998
 11
-104.2310403981
 21
-4.3832108998
  0
LINE
  5
3B5
100
AcDbEntity
  8
COPY-PUBBLISH
100
AcDbLine
 62
253
  6
CONTINUOUS
 10
-79.3995744543
 20
-4.3832108998
 11
-79.5492639247
 21
-4.3832108998
  0
LWPOLYLINE
  5
3B6
100
AcDbEntity
  8
0
100
AcDbPolyline
 62
7
  6
CONTINUOUS
 90
4
 70
0
 43
0.3500000006
 10
-60.5067165527
 20
-4.1785715675
 10
-61.1495745392
 20
-4.1785715675
 10
-61.1495745392
 20
-2.6785711098
 10
-58.1495736237
 20
-3.5357147141
  0
LWPOLYLINE
  5
3B7
100
AcDbEntity
  8
0
100
AcDbPolyline
 62
7
  6
CONTINUOUS
 90
4
 70
0
 43
0.3500000006
 10
-94.506717865
 20
46.9461619263
 10
-94.506717865
 20
47.8033043976
 10
-94.0781488953
 20
48.2318733673
 10
-93.435286377
 20
48.2318733673
  0
LINE
  5
3B8
100
AcDbEntity
  8
COPY-PUBBLISH
100
AcDbLine
 62
7
  6
CONTINUOUS
 10
-70.0995744543
 20
-0.0832108998
 11
-68.6995744543
 21
-0.0832108998
  0
LINE
  5
3B9
100
AcDbEntity
  8
COPY-PUBBLISH
100
AcDbLine
 62
7
  6
CONTINUOUS
 10
-113.3613304543
 20
-11.4629598998
 11
-113.0977194543
 21
-11.3150028998
  0
LINE
  5
3BA
100
AcDbEntity
  8
COPY-PUBBLISH
100
AcDbLine
 62
7
  6
CONTINUOUS
 10
-72.0995744543
 20
1.9167891002
 11
-70.6995744543
 21
1.9167891002
  0
LINE
  5
3BB
100
AcDbEntity
  8
RACCORDO
100
AcDbLine
 62
7
  6
CONTINUOUS
 10
-71.5995744543
 20
2.1667891002
 11
-70.6995744543
 21
2.1667891002
  0
LINE
  5
3BC
100
AcDbEntity
  8
RACCORDO
100
AcDbLine
 62
253
  6
CONTINUOUS
 10
-71.8995744543
 20
2.4667891002
 11
-70.3995744543
 21
2.4667891002
  0
LINE
  5
3BD
100
AcDbEntity
  8
COPY-PUBBLISH
100
AcDbLine
 62
7
  6
CONTINUOUS
 10
-108.3995744543
 20
9.9498471002
 11
-109.8253394543
 21
10.4282691002
  0
LINE
  5
3BE
100
AcDbEntity
  8
COPY-PUBBLISH
100
AcDbLine
 62
7
  6
CONTINUOUS
 10
-110.0999584543
 20
10.3216751002
 11
-108.6554514543
 21
9.8338311002
  0
LINE
  5
3BF
100
AcDbEntity
  8
COPY-PUBBLISH
100
AcDbLine
 62
7
  6
CONTINUOUS
 10
-108.3995744543
 20
11.0866741002
 11
-108.8944944543
 21
11.2643171002
  0
LINE
  5
3C0
100
AcDbEntity
  8
COPY-PUBBLISH
100
AcDbLine
 62
7
  6
CONTINUOUS
 10
-109.0981554543
 20
11.3353851002
 11
-109.8533204543
 21
11.6101841002
  0
LINE
  5
3C1
100
AcDbEntity
  8
COPY-PUBBLISH
100
AcDbLine
 62
7
  6
CONTINUOUS
 10
-110.0999584543
 20
11.4892661002
 11
-108.3995744543
 21
10.8498721002
  0
LINE
  5
3C2
100
AcDbEntity
  8
COPY-PUBBLISH
100
AcDbLine
 62
7
  6
CONTINUOUS
 10
-67.8995744543
 20
-9.9832108998
 11
-65.3995744543
 21
-11.4265865728
  0
LINE
  5
3C3
100
AcDbEntity
  8
COPY-PUBBLISH
100
AcDbLine
 62
253
  6
CONTINUOUS
 10
-86.3995744543
 20
23.2167891002
 11
-86.3995744543
 21
23.0618694039
  0
LINE
  5
3C4
100
AcDbEntity
  8
COPY-PUBBLISH
100
AcDbLine
 62
253
  6
CONTINUOUS
 10
-86.3995744543
 20
-11.3832108998
 11
-86.3995744543
 21
-11.2282912036
  0
LINE
  5
3C5
100
AcDbEntity
  8
COPY-PUBBLISH
100
AcDbLine
 62
7
  6
CONTINUOUS
 10
-110.0999584543
 20
9.0167891002
 11
-108.3995744543
 21
9.0167891002
  0
LINE
  5
3C6
100
AcDbEntity
  8
COPY-PUBBLISH
100
AcDbLine
 62
7
  6
CONTINUOUS
 10
-108.3995744543
 20
9.2393921002
 11
-109.8253394543
 21
9.2393921002
  0
LINE
  5
3C7
100
AcDbEntity
  8
RACCORDO
100
AcDbLine
 62
253
  6
CONTINUOUS
 10
-70.3995744543
 20
9.3667891002
 11
-71.8995744543
 21
9.3667891002
  0
LINE
  5
3C8
100
AcDbEntity
  8
RACCORDO
100
AcDbLine
 62
7
  6
CONTINUOUS
 10
-71.5995744543
 20
9.6667891002
 11
-70.6995744543
 21
9.6667891002
  0
LINE
  5
3C9
100
AcDbEntity
  8
COPY-PUBBLISH
100
AcDbLine
 62
7
  6
CONTINUOUS
 10
-70.6995744543
 20
9.9167891002
 11
-72.0995744543
 21
9.9167891002
  0
LINE
  5
3CA
100
AcDbEntity
  8
ASSI
100
AcDbLine
 62
7
  6
CONTINUOUS
 10
-104.9357715519
 20
-28.5495427503
 11
-107.0486411189
 21
-31.0675626475
  0
LINE
  5
3CB
100
AcDbEntity
  8
COPY-PUBBLISH
100
AcDbLine
 62
7
  6
CONTINUOUS
 10
-109.8253394543
 20
10.4282691002
 11
-108.3995744543
 21
10.4282691002
  0
LINE
  5
3CC
100
AcDbEntity
  8
COPY-PUBBLISH
100
AcDbLine
 62
7
  6
CONTINUOUS
 10
-108.3995744543
 20
10.6508721002
 11
-110.0999584543
 21
10.6508721002
  0
LINE
  5
3CD
100
AcDbEntity
  8
COPY-PUBBLISH
100
AcDbLine
 62
7
  6
CONTINUOUS
 10
-68.6995744543
 20
11.9167891002
 11
-70.0995744543
 21
11.9167891002
  0
LINE
  5
3CE
100
AcDbEntity
  8
COPY-PUBBLISH
100
AcDbLine
 62
7
  6
CONTINUOUS
 10
-110.0999584543
 20
12.5881281002
 11
-108.3995744543
 21
12.5881281002
  0
LINE
  5
3CF
100
AcDbEntity
  8
COPY-PUBBLISH
100
AcDbLine
 62
7
  6
CONTINUOUS
 10
-108.5960844543
 20
12.8179171002
 11
-109.9034484543
 21
12.8179171002
  0
LWPOLYLINE
  5
3D0
100
AcDbEntity
  8
0
100
AcDbPolyline
 62
7
  6
CONTINUOUS
 90
3
 70
0
 43
0.3500000006
 10
-58.4352892914
 20
1.0357133102
 10
-58.2210048065
 20
0.9642866592
 10
-57.9352891388
 20
0.8214288254
  0
LINE
  5
3D1
100
AcDbEntity
  8
DRAFT
100
AcDbLine
 62
7
  6
CONTINUOUS
 10
-79.5492639247
 20
-4.3832108998
 11
-79.5492639247
 21
16.2167891002
  0
LINE
  5
3D2
100
AcDbEntity
  8
COPY-PUBBLISH
100
AcDbLine
 62
7
  6
CONTINUOUS
 10
-79.3995744543
 20
-4.3832108998
 11
-79.3995744543
 21
16.2167891002
  0
LWPOLYLINE
  5
3D3
100
AcDbEntity
  8
0
100
AcDbPolyline
 62
7
  6
CONTINUOUS
 90
10
 70
0
 43
0.3500000006
 10
-58.6495737762
 20
0.9642866592
 10
-58.5067159424
 20
1.0357133102
 10
-58.4352892914
 20
1.0357133102
 10
-58.2924314575
 20
0.8928577423
 10
-58.2924314575
 20
0.8214288254
 10
-58.3638581085
 20
0.7499999084
 10
-58.4352892914
 20
0.7499999084
 10
-58.5781471252
 20
0.8214288254
 10
-58.6495737762
 20
0.8928577423
 10
-58.6495737762
 20
0.9642866592
  0
LINE
  5
3D4
100
AcDbEntity
  8
COPY-PUBBLISH
100
AcDbLine
 62
7
  6
CONTINUOUS
 10
-109.2618274543
 20
13.7561051002
 11
-109.2377054543
 21
13.7561051002
  0
LINE
  5
3D5
100
AcDbEntity
  8
COPY-PUBBLISH
100
AcDbLine
 62
7
  6
CONTINUOUS
 10
-109.2374234543
 20
13.9937227177
 11
-109.2621104543
 21
13.9937221002
  0
LINE
  5
3D6
100
AcDbEntity
  8
COPY-PUBBLISH
100
AcDbLine
 62
7
  6
CONTINUOUS
 10
-110.0999584543
 20
14.3098961002
 11
-108.3995744543
 21
14.3098961002
  0
LINE
  5
3D7
100
AcDbEntity
  8
COPY-PUBBLISH
100
AcDbLine
 62
7
  6
CONTINUOUS
 10
-108.6032354543
 20
14.5396711002
 11
-109.1715884543
 21
14.5396711002
  0
LINE
  5
3D8
100
AcDbEntity
  8
COPY-PUBBLISH
100
AcDbLine
 62
7
  6
CONTINUOUS
 10
-109.3752494543
 20
14.5396711002
 11
-109.8962974543
 21
14.5396711002
  0
LINE
  5
3D9
100
AcDbEntity
  8
COPY-PUBBLISH
100
AcDbLine
 62
7
  6
CONTINUOUS
 10
-109.1715884543
 20
15.4703931002
 11
-109.3752494543
 21
15.4703931002
  0
LINE
  5
3DA
100
AcDbEntity
  8
COPY-PUBBLISH
100
AcDbLine
 62
7
  6
CONTINUOUS
 10
-109.8962974543
 20
15.5485431002
 11
-110.0999584543
 21
15.5485431002
  0
LINE
  5
3DB
100
AcDbEntity
  8
COPY-PUBBLISH
100
AcDbLine
 62
7
  6
CONTINUOUS
 10
-108.3995744543
 20
15.5651411002
 11
-108.6032354543
 21
15.5651411002
  0
LINE
  5
3DC
100
AcDbEntity
  8
COPY-PUBBLISH
100
AcDbLine
 62
253
  6
CONTINUOUS
 10
-104.3995744543
 20
16.2167891002
 11
-104.2310403981
 21
16.2167891002
  0
LINE
  5
3DD
100
AcDbEntity
  8
COPY-PUBBLISH
100
AcDbLine
 62
253
  6
CONTINUOUS
 10
-79.3995744543
 20
16.2167891002
 11
-79.5492639247
 21
16.2167891002
  0
LINE
  5
3DE
100
AcDbEntity
  8
COPY-PUBBLISH
100
AcDbLine
 62
7
  6
CONTINUOUS
 10
-108.3995744543
 20
21.7463581002
 11
-108.8944944543
 21
21.9240151002
  0
LINE
  5
3DF
100
AcDbEntity
  8
COPY-PUBBLISH
100
AcDbLine
 62
7
  6
CONTINUOUS
 10
-109.0981554543
 20
21.9950701002
 11
-109.8533204543
 21
22.2698541002
  0
LINE
  5
3E0
100
AcDbEntity
  8
COPY-PUBBLISH
100
AcDbLine
 62
7
  6
CONTINUOUS
 10
-110.0999584543
 20
22.1490461002
 11
-108.3995744543
 21
21.5095701002
  0
LINE
  5
3E1
100
AcDbEntity
  8
COPY-PUBBLISH
100
AcDbLine
 62
7
  6
CONTINUOUS
 10
-110.0999584543
 20
25.6492941002
 11
-109.2828394543
 21
25.1615251002
  0
LINE
  5
3E2
100
AcDbEntity
  8
COPY-PUBBLISH
100
AcDbLine
 62
7
  6
CONTINUOUS
 10
-109.0839914543
 20
25.2774511002
 11
-110.0999584543
 21
25.9193751002
  0
LINE
  5
3E3
100
AcDbEntity
  8
RACCORDO
100
AcDbLine
 62
7
  6
CONTINUOUS
 10
-77.1995744543
 20
-27.0832108998
 11
-77.1995744543
 21
-27.9753081905
  0
LINE
  5
3E4
100
AcDbEntity
  8
COPY-PUBBLISH
100
AcDbLine
 62
7
  6
CONTINUOUS
 10
-110.0999584543
 20
16.5598491002
 11
-108.3995744543
 21
16.5598491002
  0
LINE
  5
3E5
100
AcDbEntity
  8
COPY-PUBBLISH
100
AcDbLine
 62
7
  6
CONTINUOUS
 10
-108.3995744543
 20
16.7895561002
 11
-110.0999584543
 21
16.7895561002
  0
LINE
  5
3E6
100
AcDbEntity
  8
COPY-PUBBLISH
100
AcDbLine
 62
7
  6
CONTINUOUS
 10
-110.0999584543
 20
17.1826311002
 11
-108.3995744543
 21
17.1826311002
  0
LINE
  5
3E7
100
AcDbEntity
  8
COPY-PUBBLISH
100
AcDbLine
 62
7
  6
CONTINUOUS
 10
-108.3995744543
 20
17.4053381002
 11
-109.7804904543
 21
17.4053381002
  0
LINE
  5
3E8
100
AcDbEntity
  8
COPY-PUBBLISH
100
AcDbLine
 62
7
  6
CONTINUOUS
 10
-110.0999584543
 20
18.3100421002
 11
-108.7187634543
 21
18.3100421002
  0
LINE
  5
3E9
100
AcDbEntity
  8
COPY-PUBBLISH
100
AcDbLine
 62
7
  6
CONTINUOUS
 10
-108.3995744543
 20
18.5326391002
 11
-110.0999584543
 21
18.5326391002
  0
LINE
  5
3EA
100
AcDbEntity
  8
COPY-PUBBLISH
100
AcDbLine
 62
7
  6
CONTINUOUS
 10
-73.3995744543
 20
-10.2832108998
 11
-73.3995744543
 21
-25.5832108998
  0
LINE
  5
3EB
100
AcDbEntity
  8
COPY-PUBBLISH
100
AcDbLine
 62
7
  6
CONTINUOUS
 10
-72.3995744543
 20
9.6167891002
 11
-72.3995744543
 21
2.2167891002
  0
LINE
  5
3EC
100
AcDbEntity
  8
0
100
AcDbLine
 62
7
  6
CONTINUOUS
 10
-72.3995744543
 20
-24.2121173163
 11
-72.3995744543
 21
-24.7832108998
  0
LINE
  5
3ED
100
AcDbEntity
  8
RACCORDO
100
AcDbLine
 62
7
  6
CONTINUOUS
 10
-71.8995744543
 20
-24.5332108998
 11
-71.8995744543
 21
-9.9832108998
  0
LINE
  5
3EE
100
AcDbEntity
  8
RACCORDO
100
AcDbLine
 62
7
  6
CONTINUOUS
 10
-71.8995744543
 20
1.9167891002
 11
-71.8995744543
 21
9.9167891002
  0
LINE
  5
3EF
100
AcDbEntity
  8
COPY-PUBBLISH
100
AcDbLine
 62
7
  6
CONTINUOUS
 10
-110.0999584543
 20
19.5864781002
 11
-108.3995744543
 21
19.5864781002
  0
LINE
  5
3F0
100
AcDbEntity
  8
COPY-PUBBLISH
100
AcDbLine
 62
7
  6
CONTINUOUS
 10
-108.3995744543
 20
19.8162541002
 11
-110.0999584543
 21
19.8162541002
  0
LINE
  5
3F1
100
AcDbEntity
  8
COPY-PUBBLISH
100
AcDbLine
 62
7
  6
CONTINUOUS
 10
-110.0999584543
 20
20.0625591002
 11
-109.8962974543
 21
20.0625591002
  0
LINE
  5
3F2
100
AcDbEntity
  8
COPY-PUBBLISH
100
AcDbLine
 62
7
  6
CONTINUOUS
 10
-109.8962974543
 20
20.6380631002
 11
-108.3995744543
 21
20.6380631002
  0
LINE
  5
3F3
100
AcDbEntity
  8
COPY-PUBBLISH
100
AcDbLine
 62
7
  6
CONTINUOUS
 10
-108.3995744543
 20
20.8677551002
 11
-109.8962974543
 21
20.8677551002
  0
LINE
  5
3F4
100
AcDbEntity
  8
COPY-PUBBLISH
100
AcDbLine
 62
7
  6
CONTINUOUS
 10
-109.8962974543
 20
21.4432601002
 11
-110.0999584543
 21
21.4432601002
  0
LINE
  5
3F5
100
AcDbEntity
  8
COPY-PUBBLISH
100
AcDbLine
 62
7
  6
CONTINUOUS
 10
-112.3995774935
 20
21.5267911002
 11
-113.1503944543
 21
21.5267911002
  0
LINE
  5
3F6
100
AcDbEntity
  8
COPY-PUBBLISH
100
AcDbLine
 62
7
  6
CONTINUOUS
 10
-116.7448344543
 20
21.5267911002
 11
-117.495651415
 21
21.5267911002
  0
LINE
  5
3F7
100
AcDbEntity
  8
COPY-PUBBLISH
100
AcDbLine
 62
7
  6
CONTINUOUS
 10
-69.0301853485
 20
21.8167891002
 11
-65.3995744543
 21
21.8167891002
  0
LINE
  5
3F8
100
AcDbEntity
  8
RACCORDO
100
AcDbLine
 62
253
  6
CONTINUOUS
 10
-71.5995744543
 20
-24.8332108998
 11
-71.5995744543
 21
-9.9832108998
  0
LINE
  5
3F9
100
AcDbEntity
  8
RACCORDO
100
AcDbLine
 62
253
  6
CONTINUOUS
 10
-71.5995744543
 20
1.9167891002
 11
-71.5995744543
 21
9.9167891002
  0
LINE
  5
3FA
100
AcDbEntity
  8
COPY-PUBBLISH
100
AcDbLine
 62
7
  6
CONTINUOUS
 10
-71.3995744543
 20
-27.2695024008
 11
-71.3995744543
 21
-11.8832108998
  0
LINE
  5
3FB
100
AcDbEntity
  8
RACCORDO
100
AcDbLine
 62
253
  6
CONTINUOUS
 10
-70.6995744543
 20
9.9167891002
 11
-70.6995744543
 21
1.9167891002
  0
LINE
  5
3FC
100
AcDbEntity
  8
RACCORDO
100
AcDbLine
 62
253
  6
CONTINUOUS
 10
-70.6995744543
 20
-9.9832108998
 11
-70.6995744543
 21
-11.5832108998
  0
LINE
  5
3FD
100
AcDbEntity
  8
RACCORDO
100
AcDbLine
 62
7
  6
CONTINUOUS
 10
-70.3995744543
 20
-9.9832108998
 11
-70.3995744543
 21
-11.5832108998
  0
LINE
  5
3FE
100
AcDbEntity
  8
COPY-PUBBLISH
100
AcDbLine
 62
7
  6
CONTINUOUS
 10
-70.3995744543
 20
-9.9832108998
 11
-70.3995744543
 21
-0.3832108998
  0
LINE
  5
3FF
100
AcDbEntity
  8
COPY-PUBBLISH
100
AcDbLine
 62
7
  6
CONTINUOUS
 10
-70.3995744543
 20
2.2167891002
 11
-70.3995744543
 21
9.6167891002
  0
LINE
  5
400
100
AcDbEntity
  8
COPY-PUBBLISH
100
AcDbLine
 62
7
  6
CONTINUOUS
 10
-70.3995744543
 20
12.2167891002
 11
-70.3995744543
 21
23.4167891002
  0
LINE
  5
401
100
AcDbEntity
  8
DRAFT
100
AcDbLine
 62
7
  6
CONTINUOUS
 10
-86.3995744543
 20
23.0618694039
 11
-97.3995744543
 21
23.053470882
  0
LINE
  5
402
100
AcDbEntity
  8
COPY-PUBBLISH
100
AcDbLine
 62
7
  6
CONTINUOUS
 10
-86.3995744543
 20
23.2167891002
 11
-97.3995744543
 21
23.2167891002
  0
LINE
  5
403
100
AcDbEntity
  8
COPY-PUBBLISH
100
AcDbLine
 62
7
  6
CONTINUOUS
 10
-110.0999584543
 20
23.2360271002
 11
-108.3995744543
 21
23.2360271002
  0
LINE
  5
404
100
AcDbEntity
  8
COPY-PUBBLISH
100
AcDbLine
 62
7
  6
CONTINUOUS
 10
-69.3995744543
 20
23.4167891002
 11
-70.3995744543
 21
23.4167891002
  0
LINE
  5
405
100
AcDbEntity
  8
COPY-PUBBLISH
100
AcDbLine
 62
7
  6
CONTINUOUS
 10
-108.6032354543
 20
23.4658161002
 11
-110.0999584543
 21
23.4658161002
  0
LINE
  5
406
100
AcDbEntity
  8
COPY-PUBBLISH
100
AcDbLine
 62
7
  6
CONTINUOUS
 10
-108.3995744543
 20
24.3279041002
 11
-108.6032354543
 21
24.3279041002
  0
LINE
  5
407
100
AcDbEntity
  8
COPY-PUBBLISH
100
AcDbLine
 62
7
  6
CONTINUOUS
 10
-109.0839914543
 20
25.0478001002
 11
-108.3995744543
 21
25.0478001002
  0
LINE
  5
408
100
AcDbEntity
  8
COPY-PUBBLISH
100
AcDbLine
 62
7
  6
CONTINUOUS
 10
-108.3995744543
 20
25.2774511002
 11
-109.0839914543
 21
25.2774511002
  0
LINE
  5
409
100
AcDbEntity
  8
COPY-PUBBLISH
100
AcDbLine
 62
7
  6
CONTINUOUS
 10
-114.5726144543
 20
25.5119011002
 11
-115.3226144543
 21
25.5119011002
  0
LINE
  5
40A
100
AcDbEntity
  8
0
100
AcDbLine
 62
253
  6
CONTINUOUS
 10
-122.7311204953
 20
26.4698151011
 11
-122.9765458756
 21
26.4800967547
  0
LINE
  5
40B
100
AcDbEntity
  8
COPY-PUBBLISH
100
AcDbLine
 62
7
  6
CONTINUOUS
 10
-68.3995744543
 20
0.2167891002
 11
-68.3995744543
 21
11.6167891002
  0
LINE
  5
40C
100
AcDbEntity
  8
COPY-PUBBLISH
100
AcDbLine
 62
7
  6
CONTINUOUS
 10
-69.3995744543
 20
-11.5832108998
 11
-69.0301853485
 21
-9.9832108998
  0
LINE
  5
40D
100
AcDbEntity
  8
COPY-PUBBLISH
100
AcDbLine
 62
7
  6
CONTINUOUS
 10
-112.3995773365
 20
25.9119011002
 11
-113.1503975027
 21
25.9119011002
  0
LINE
  5
40E
100
AcDbEntity
  8
COPY-PUBBLISH
100
AcDbLine
 62
7
  6
CONTINUOUS
 10
-116.7448344543
 20
25.9119011002
 11
-117.495651572
 21
25.9119011002
  0
LINE
  5
40F
100
AcDbEntity
  8
RACCORDO
100
AcDbLine
 62
7
  6
CONTINUOUS
 10
-65.3995744543
 20
-29.7547837751
 11
-65.3995744543
 21
-11.4265865728
  0
LINE
  5
410
100
AcDbEntity
  8
COPY-PUBBLISH
100
AcDbLine
 62
7
  6
CONTINUOUS
 10
-65.3995744543
 20
21.8167891002
 11
-65.3995744543
 21
37.7675898832
  0
LINE
  5
411
100
AcDbEntity
  8
0
100
AcDbLine
 62
253
  6
CONTINUOUS
 10
-118.3995744543
 20
27.8316746742
 11
-121.547598012
 21
27.6666937504
  0
LINE
  5
412
100
AcDbEntity
  8
0
100
AcDbLine
 62
7
  6
CONTINUOUS
 10
-118.3995744543
 20
28.0817891002
 11
-121.5563188995
 21
27.916351134
  0
LINE
  5
413
100
AcDbEntity
  8
COPY-PUBBLISH
100
AcDbLine
 62
7
  6
CONTINUOUS
 10
-69.0301853485
 20
21.8167891002
 11
-69.3995744543
 21
23.4167891002
  0
LWPOLYLINE
  5
414
100
AcDbEntity
  8
0
100
AcDbPolyline
 62
7
  6
CONTINUOUS
 90
8
 70
0
 43
0.3500000006
 10
-58.1495736237
 20
-1.8214286385
 10
-58.1495736237
 20
-0.9642850342
 10
-58.5781471252
 20
-0.5357137985
 10
-59.4352895966
 20
-0.5357137985
 10
-59.8638585663
 20
-0.9642850342
 10
-59.8638585663
 20
-1.8214286385
 10
-61.1495745392
 20
-1.8214286385
 10
-61.1495745392
 20
-0.5357137985
  0
LWPOLYLINE
  5
415
100
AcDbEntity
  8
0
100
AcDbPolyline
 62
7
  6
CONTINUOUS
 90
8
 70
0
 43
0.3500000006
 10
-58.1495736237
 20
2.0357136154
 10
-58.1495736237
 20
2.8928560867
 10
-58.5781471252
 20
3.3214295883
 10
-59.4352895966
 20
3.3214295883
 10
-59.8638585663
 20
2.8928560867
 10
-59.8638585663
 20
2.0357136154
 10
-61.1495745392
 20
2.0357136154
 10
-61.1495745392
 20
3.3214295883
  0
LINE
  5
416
100
AcDbEntity
  8
RACCORDO
100
AcDbLine
 62
7
  6
CONTINUOUS
 10
-72.1150738146
 20
-28.8134288859
 11
-71.9853608919
 21
-28.6837159632
  0
LINE
  5
417
100
AcDbEntity
  8
RACCORDO
100
AcDbLine
 62
7
  6
CONTINUOUS
 10
-65.3995744543
 20
37.7675898832
 11
-116.9519236993
 21
35.9673421785
  0
LWPOLYLINE
  5
418
100
AcDbEntity
  8
0
100
AcDbPolyline
 62
7
  6
CONTINUOUS
 90
13
 70
0
 43
0.3500000006
 10
-94.0781488953
 20
48.2318733673
 10
-94.363864563
 20
48.446162384
 10
-94.363864563
 20
49.0890203705
 10
-94.0781488953
 20
49.5175893402
 10
-93.435286377
 20
49.5175893402
 10
-93.1495707092
 20
49.0890203705
 10
-93.1495707092
 20
48.446162384
 10
-93.435286377
 20
48.2318733673
 10
-93.0067174072
 20
47.8033043976
 10
-93.0067174072
 20
46.9461619263
 10
-93.435286377
 20
46.5175884247
 10
-94.0781488953
 20
46.5175884247
 10
-94.506717865
 20
46.9461619263
  0
LINE
  5
419
100
AcDbEntity
  8
RACCORDO
100
AcDbLine
 62
7
  6
CONTINUOUS
 10
-71.999385346
 20
-37.1830217916
 11
-65.9853608919
 21
-31.1689973374
  0
LWPOLYLINE
  5
41A
100
AcDbEntity
  8
0
100
AcDbPolyline
 62
7
  6
CONTINUOUS
 90
8
 70
0
 43
0.3500000006
 10
-96.6495717773
 20
46.5175884247
 10
-95.7924338379
 20
46.5175884247
 10
-95.3638558044
 20
46.9461619263
 10
-95.3638558044
 20
47.8033043976
 10
-95.7924338379
 20
48.2318733673
 10
-96.6495717773
 20
48.2318733673
 10
-96.6495717773
 20
49.5175893402
 10
-95.3638558044
 20
49.5175893402
  0
LINE
  5
41B
100
AcDbEntity
  8
RACCORDO
100
AcDbLine
 62
7
  6
CONTINUOUS
 10
73.4494477048
 20
-37.1830217916
 11
67.4354232507
 21
-31.1689973374
  0
LINE
  5
41C
100
AcDbEntity
  8
RACCORDO
100
AcDbLine
 62
7
  6
CONTINUOUS
 10
107.4019860581
 20
-36.6337639781
 11
74.9334602606
 21
-37.7675898832
  0
LINE
  5
41D
100
AcDbEntity
  8
RACCORDO
100
AcDbLine
 62
7
  6
CONTINUOUS
 10
73.4354232507
 20
-28.6837159632
 11
73.5651361734
 21
-28.8134288859
  0
LINE
  5
41E
100
AcDbEntity
  8
RACCORDO
100
AcDbLine
 62
7
  6
CONTINUOUS
 10
66.849636813
 20
-29.7547837751
 11
66.849636813
 21
-11.4265865728
  0
LINE
  5
41F
100
AcDbEntity
  8
COPY-PUBBLISH
100
AcDbLine
 62
7
  6
CONTINUOUS
 10
66.849636813
 20
21.8167891002
 11
66.849636813
 21
37.7675898832
  0
LINE
  5
420
100
AcDbEntity
  8
COPY-PUBBLISH
100
AcDbLine
 62
7
  6
CONTINUOUS
 10
70.4802477072
 20
21.8167891002
 11
70.849636813
 21
23.4167891002
  0
LINE
  5
421
100
AcDbEntity
  8
RACCORDO
100
AcDbLine
 62
7
  6
CONTINUOUS
 10
74.9095507424
 20
-29.3979969776
 11
77.097287568
 21
-29.474394431
  0
LINE
  5
422
100
AcDbEntity
  8
COPY-PUBBLISH
100
AcDbLine
 62
7
  6
CONTINUOUS
 10
69.849636813
 20
0.2167891002
 11
69.849636813
 21
11.6167891002
  0
LINE
  5
423
100
AcDbEntity
  8
RACCORDO
100
AcDbLine
 62
7
  6
CONTINUOUS
 10
77.149636813
 20
-25.5832108998
 11
74.849636813
 21
-25.5832108998
  0
LINE
  5
424
100
AcDbEntity
  8
0
100
AcDbLine
 62
7
  6
CONTINUOUS
 10
74.849636813
 20
-25.5832108998
 11
74.649636813
 21
-25.5832108998
  0
LINE
  5
425
100
AcDbEntity
  8
RACCORDO
100
AcDbLine
 62
7
  6
CONTINUOUS
 10
83.8826698908
 20
-27.8273126628
 11
105.2498570492
 21
-28.0137812802
  0
LINE
  5
426
100
AcDbEntity
  8
COPY-PUBBLISH
100
AcDbLine
 62
7
  6
CONTINUOUS
 10
70.4802477072
 20
-9.9832108998
 11
70.849636813
 21
-11.5832108998
  0
LINE
  5
427
100
AcDbEntity
  8
COPY-PUBBLISH
100
AcDbLine
 62
7
  6
CONTINUOUS
 10
71.849636813
 20
23.4167891002
 11
71.849636813
 21
12.2167891002
  0
LINE
  5
428
100
AcDbEntity
  8
COPY-PUBBLISH
100
AcDbLine
 62
7
  6
CONTINUOUS
 10
71.849636813
 20
9.6167891002
 11
71.849636813
 21
2.2167891002
  0
LINE
  5
429
100
AcDbEntity
  8
RACCORDO
100
AcDbLine
 62
7
  6
CONTINUOUS
 10
71.849636813
 20
-11.5832108998
 11
71.849636813
 21
-9.9832108998
  0
LINE
  5
42A
100
AcDbEntity
  8
COPY-PUBBLISH
100
AcDbLine
 62
7
  6
CONTINUOUS
 10
71.849636813
 20
-9.9832108998
 11
71.849636813
 21
-0.3832108998
  0
LINE
  5
42B
100
AcDbEntity
  8
RACCORDO
100
AcDbLine
 62
253
  6
CONTINUOUS
 10
72.149636813
 20
-11.5832108998
 11
72.149636813
 21
-9.9832108998
  0
LINE
  5
42C
100
AcDbEntity
  8
RACCORDO
100
AcDbLine
 62
253
  6
CONTINUOUS
 10
72.149636813
 20
1.9167891002
 11
72.149636813
 21
9.9167891002
  0
LINE
  5
42D
100
AcDbEntity
  8
COPY-PUBBLISH
100
AcDbLine
 62
7
  6
CONTINUOUS
 10
72.849636813
 20
-11.8832108998
 11
72.849636813
 21
-27.2695024008
  0
LINE
  5
42E
100
AcDbEntity
  8
RACCORDO
100
AcDbLine
 62
253
  6
CONTINUOUS
 10
73.049636813
 20
9.9167891002
 11
73.049636813
 21
1.9167891002
  0
LINE
  5
42F
100
AcDbEntity
  8
RACCORDO
100
AcDbLine
 62
253
  6
CONTINUOUS
 10
73.049636813
 20
-9.9832108998
 11
73.049636813
 21
-24.8332108998
  0
LINE
  5
430
100
AcDbEntity
  8
RACCORDO
100
AcDbLine
 62
7
  6
CONTINUOUS
 10
73.349636813
 20
9.9167891002
 11
73.349636813
 21
1.9167891002
  0
LINE
  5
431
100
AcDbEntity
  8
RACCORDO
100
AcDbLine
 62
7
  6
CONTINUOUS
 10
73.349636813
 20
-9.9832108998
 11
73.349636813
 21
-24.5332108998
  0
LINE
  5
432
100
AcDbEntity
  8
0
100
AcDbLine
 62
7
  6
CONTINUOUS
 10
73.849636813
 20
-24.7832108998
 11
73.849636813
 21
-24.2121173163
  0
LINE
  5
433
100
AcDbEntity
  8
COPY-PUBBLISH
100
AcDbLine
 62
7
  6
CONTINUOUS
 10
73.849636813
 20
2.2167891002
 11
73.849636813
 21
9.6167891002
  0
LINE
  5
434
100
AcDbEntity
  8
RACCORDO
100
AcDbLine
 62
7
  6
CONTINUOUS
 10
118.4019860581
 20
-24.1337639781
 11
83.8501136608
 21
-25.3403419496
  0
LINE
  5
435
100
AcDbEntity
  8
0
100
AcDbLine
 62
7
  6
CONTINUOUS
 10
74.849636813
 20
-23.4046455269
 11
74.6217172157
 21
-23.4126046547
  0
LINE
  5
436
100
AcDbEntity
  8
RACCORDO
100
AcDbLine
 62
7
  6
CONTINUOUS
 10
73.049636813
 20
-24.8332108998
 11
72.849636813
 21
-24.8332108998
  0
LINE
  5
437
100
AcDbEntity
  8
RACCORDO
100
AcDbLine
 62
253
  6
CONTINUOUS
 10
73.349636813
 20
-24.5332108998
 11
72.849636813
 21
-24.5332108998
  0
LINE
  5
438
100
AcDbEntity
  8
COPY-PUBBLISH
100
AcDbLine
 62
7
  6
CONTINUOUS
 10
74.849636813
 20
-25.5832108998
 11
74.849636813
 21
-10.2832108998
  0
LINE
  5
439
100
AcDbEntity
  8
RACCORDO
100
AcDbLine
 62
7
  6
CONTINUOUS
 10
78.649636813
 20
-27.9753081905
 11
78.649636813
 21
-27.0832108998
  0
LINE
  5
43A
100
AcDbEntity
  8
COPY-PUBBLISH
100
AcDbLine
 62
7
  6
CONTINUOUS
 10
117.650932813
 20
25.9210881002
 11
113.851390813
 21
24.7165591002
  0
LINE
  5
43B
100
AcDbEntity
  8
0
100
AcDbLine
 62
7
  6
CONTINUOUS
 10
113.851390813
 20
24.7165591002
 11
117.650932813
 21
25.9210881002
  0
LINE
  5
43C
100
AcDbEntity
  8
COPY-PUBBLISH
100
AcDbLine
 62
7
  6
CONTINUOUS
 10
115.15176452
 20
-13.4061278367
 11
115.2964453539
 21
-13.3707108998
  0
LINE
  5
43D
100
AcDbEntity
  8
COPY-PUBBLISH
100
AcDbLine
 62
7
  6
CONTINUOUS
 10
114.3921899905
 20
-13.4415439629
 11
114.536870875
 21
-13.4061278367
  0
LINE
  5
43E
100
AcDbEntity
  8
COPY-PUBBLISH
100
AcDbLine
 62
7
  6
CONTINUOUS
 10
115.15176452
 20
-11.8832108998
 11
115.2964453539
 21
-11.8477943683
  0
LINE
  5
43F
100
AcDbEntity
  8
0
100
AcDbLine
 62
7
  6
CONTINUOUS
 10
119.849636813
 20
-16.2482108998
 11
123.0063812582
 21
-16.0827729337
  0
LINE
  5
440
100
AcDbEntity
  8
0
100
AcDbLine
 62
253
  6
CONTINUOUS
 10
119.849636813
 20
-15.9980964738
 11
122.9976603708
 21
-15.83311555
  0
LINE
  5
441
100
AcDbEntity
  8
COPY-PUBBLISH
100
AcDbLine
 62
7
  6
CONTINUOUS
 10
80.849636813
 20
16.2167891002
 11
80.849636813
 21
-4.3832108998
  0
LINE
  5
442
100
AcDbEntity
  8
DRAFT
100
AcDbLine
 62
7
  6
CONTINUOUS
 10
80.9993262835
 20
16.2167891002
 11
80.9993262835
 21
-4.3832108998
  0
LINE
  5
443
100
AcDbEntity
  8
COPY-PUBBLISH
100
AcDbLine
 62
7
  6
CONTINUOUS
 10
114.8262325426
 20
-10.3248774314
 11
115.0794240018
 21
-10.2894608998
  0
LINE
  5
444
100
AcDbEntity
  8
COPY-PUBBLISH
100
AcDbLine
 62
7
  6
CONTINUOUS
 10
114.2475091567
 20
-13.4415439629
 11
114.3921899905
 21
-13.4415439629
  0
LINE
  5
445
100
AcDbEntity
  8
COPY-PUBBLISH
100
AcDbLine
 62
7
  6
CONTINUOUS
 10
115.0794240018
 20
-13.4061278367
 11
115.15176452
 21
-13.4061278367
  0
LINE
  5
446
100
AcDbEntity
  8
COPY-PUBBLISH
100
AcDbLine
 62
7
  6
CONTINUOUS
 10
114.3921899905
 20
-13.2644608998
 11
114.2475091567
 21
-13.2644608998
  0
LINE
  5
447
100
AcDbEntity
  8
COPY-PUBBLISH
100
AcDbLine
 62
7
  6
CONTINUOUS
 10
115.15176452
 20
-13.2290439629
 11
115.0794240018
 21
-13.2290439629
  0
LINE
  5
448
100
AcDbEntity
  8
COPY-PUBBLISH
100
AcDbLine
 62
7
  6
CONTINUOUS
 10
114.7900623342
 20
-12.7332108998
 11
114.6453815004
 21
-12.7332108998
  0
LINE
  5
449
100
AcDbEntity
  8
0
100
AcDbLine
 62
253
  6
CONTINUOUS
 10
124.1811828541
 20
-14.6362369007
 11
124.4266082324
 21
-14.6465185543
  0
LINE
  5
44A
100
AcDbEntity
  8
COPY-PUBBLISH
100
AcDbLine
 62
7
  6
CONTINUOUS
 10
116.332420813
 20
20.3519991002
 11
113.851390813
 21
19.4215811002
  0
LINE
  5
44B
100
AcDbEntity
  8
0
100
AcDbLine
 62
7
  6
CONTINUOUS
 10
113.851390813
 20
19.4215811002
 11
116.332420813
 21
20.3519991002
  0
LINE
  5
44C
100
AcDbEntity
  8
0
100
AcDbLine
 62
7
  6
CONTINUOUS
 10
117.650932813
 20
20.1463701002
 11
115.541415813
 21
19.3616331002
  0
LINE
  5
44D
100
AcDbEntity
  8
COPY-PUBBLISH
100
AcDbLine
 62
7
  6
CONTINUOUS
 10
115.541415813
 20
19.3616331002
 11
117.650932813
 21
20.1463701002
  0
LINE
  5
44E
100
AcDbEntity
  8
DRAFT
100
AcDbLine
 62
7
  6
CONTINUOUS
 10
87.849636813
 20
-11.2282912036
 11
98.849636813
 21
-11.2198926816
  0
LINE
  5
44F
100
AcDbEntity
  8
COPY-PUBBLISH
100
AcDbLine
 62
7
  6
CONTINUOUS
 10
113.849636813
 20
-11.8832108998
 11
114.0304878806
 21
-11.8832108998
  0
LINE
  5
450
100
AcDbEntity
  8
COPY-PUBBLISH
100
AcDbLine
 62
7
  6
CONTINUOUS
 10
115.0794240018
 20
-11.8832108998
 11
115.15176452
 21
-11.8832108998
  0
LINE
  5
451
100
AcDbEntity
  8
COPY-PUBBLISH
100
AcDbLine
 62
7
  6
CONTINUOUS
 10
115.15176452
 20
-11.6707108998
 11
115.0794240018
 21
-11.6707108998
  0
LINE
  5
452
100
AcDbEntity
  8
COPY-PUBBLISH
100
AcDbLine
 62
7
  6
CONTINUOUS
 10
70.849636813
 20
-11.5832108998
 11
72.549636813
 21
-11.5832108998
  0
LINE
  5
453
100
AcDbEntity
  8
COPY-PUBBLISH
100
AcDbLine
 62
7
  6
CONTINUOUS
 10
87.849636813
 20
-11.3832108998
 11
98.849636813
 21
-11.3832108998
  0
LINE
  5
454
100
AcDbEntity
  8
COPY-PUBBLISH
100
AcDbLine
 62
7
  6
CONTINUOUS
 10
114.0304878806
 20
-10.6082108998
 11
113.849636813
 21
-10.6082108998
  0
LINE
  5
455
100
AcDbEntity
  8
COPY-PUBBLISH
100
AcDbLine
 62
7
  6
CONTINUOUS
 10
114.5730410834
 20
-10.3248774314
 11
114.8262325426
 21
-10.3248774314
  0
LINE
  5
456
100
AcDbEntity
  8
COPY-PUBBLISH
100
AcDbLine
 62
7
  6
CONTINUOUS
 10
114.6453815004
 20
-10.1477943683
 11
114.5730410834
 21
-10.1477943683
  0
LINE
  5
457
100
AcDbEntity
  8
COPY-PUBBLISH
100
AcDbLine
 62
7
  6
CONTINUOUS
 10
115.0432537933
 20
-10.1123774314
 11
114.9709133764
 21
-10.1123774314
  0
LINE
  5
458
100
AcDbEntity
  8
COPY-PUBBLISH
100
AcDbLine
 62
7
  6
CONTINUOUS
 10
74.549636813
 20
-9.9832108998
 11
71.849636813
 21
-9.9832108998
  0
LINE
  5
459
100
AcDbEntity
  8
COPY-PUBBLISH
100
AcDbLine
 62
7
  6
CONTINUOUS
 10
69.349636813
 20
-9.9832108998
 11
70.4802477072
 21
-9.9832108998
  0
LINE
  5
45A
100
AcDbEntity
  8
COPY-PUBBLISH
100
AcDbLine
 62
7
  6
CONTINUOUS
 10
114.9709133764
 20
-9.2269608998
 11
115.0432537933
 21
-9.2269608998
  0
LINE
  5
45B
100
AcDbEntity
  8
ASSI
100
AcDbLine
 62
7
  6
CONTINUOUS
 10
106.3858339107
 20
-28.5495427503
 11
108.4987034777
 21
-31.0675626475
  0
LINE
  5
45C
100
AcDbEntity
  8
COPY-PUBBLISH
100
AcDbLine
 62
253
  6
CONTINUOUS
 10
87.849636813
 20
23.2167891002
 11
87.849636813
 21
23.0618694039
  0
LINE
  5
45D
100
AcDbEntity
  8
COPY-PUBBLISH
100
AcDbLine
 62
253
  6
CONTINUOUS
 10
87.849636813
 20
-11.3832108998
 11
87.849636813
 21
-11.2282912036
  0
LINE
  5
45E
100
AcDbEntity
  8
0
100
AcDbLine
 62
7
  6
CONTINUOUS
 10
117.650932813
 20
15.3449511002
 11
113.851390813
 21
14.1791571002
  0
LINE
  5
45F
100
AcDbEntity
  8
COPY-PUBBLISH
100
AcDbLine
 62
7
  6
CONTINUOUS
 10
113.851390813
 20
14.1791571002
 11
117.650932813
 21
15.3449511002
  0
LINE
  5
460
100
AcDbEntity
  8
COPY-PUBBLISH
100
AcDbLine
 62
7
  6
CONTINUOUS
 10
115.0794240018
 20
-9.0498774314
 11
114.934743168
 21
-9.0498774314
  0
LINE
  5
461
100
AcDbEntity
  8
COPY-PUBBLISH
100
AcDbLine
 62
7
  6
CONTINUOUS
 10
113.849636813
 20
-8.7665443683
 11
115.549636813
 21
-8.7665443683
  0
LINE
  5
462
100
AcDbEntity
  8
COPY-PUBBLISH
100
AcDbLine
 62
7
  6
CONTINUOUS
 10
115.2602751454
 20
-8.5540443683
 11
113.849636813
 21
-8.5540443683
  0
LINE
  5
463
100
AcDbEntity
  8
COPY-PUBBLISH
100
AcDbLine
 62
7
  6
CONTINUOUS
 10
115.2964453539
 20
-8.3415441656
 11
115.0070835849
 21
-8.3415441656
  0
LINE
  5
464
100
AcDbEntity
  8
COPY-PUBBLISH
100
AcDbLine
 62
7
  6
CONTINUOUS
 10
114.3198495736
 20
-8.0582108998
 11
114.4645304074
 21
-8.0582108998
  0
LINE
  5
465
100
AcDbEntity
  8
COPY-PUBBLISH
100
AcDbLine
 62
7
  6
CONTINUOUS
 10
115.3687857708
 20
-7.987377634
 11
115.549636813
 21
-7.987377634
  0
LINE
  5
466
100
AcDbEntity
  8
COPY-PUBBLISH
100
AcDbLine
 62
7
  6
CONTINUOUS
 10
114.428360199
 20
-7.881127634
 11
114.3560197821
 21
-7.881127634
  0
LINE
  5
467
100
AcDbEntity
  8
COPY-PUBBLISH
100
AcDbLine
 62
7
  6
CONTINUOUS
 10
114.7900623342
 20
-6.9602941656
 11
115.3687857708
 21
-6.9602941656
  0
LINE
  5
468
100
AcDbEntity
  8
COPY-PUBBLISH
100
AcDbLine
 62
7
  6
CONTINUOUS
 10
115.549636813
 20
-6.7832108998
 11
114.6092112919
 21
-6.7832108998
  0
LINE
  5
469
100
AcDbEntity
  8
COPY-PUBBLISH
100
AcDbLine
 62
7
  6
CONTINUOUS
 10
114.3198495736
 20
-10.2894608998
 11
114.5730410834
 21
-10.3248774314
  0
LINE
  5
46A
100
AcDbEntity
  8
COPY-PUBBLISH
100
AcDbLine
 62
7
  6
CONTINUOUS
 10
114.5730410834
 20
-10.1477943683
 11
114.3560197821
 21
-10.1123774314
  0
LINE
  5
46B
100
AcDbEntity
  8
COPY-PUBBLISH
100
AcDbLine
 62
7
  6
CONTINUOUS
 10
114.934743168
 20
-13.3707108998
 11
115.0794240018
 21
-13.4061278367
  0
LINE
  5
46C
100
AcDbEntity
  8
COPY-PUBBLISH
100
AcDbLine
 62
7
  6
CONTINUOUS
 10
115.2964453539
 20
-12.2373778367
 11
115.15176452
 21
-12.2019608998
  0
LINE
  5
46D
100
AcDbEntity
  8
COPY-PUBBLISH
100
AcDbLine
 62
7
  6
CONTINUOUS
 10
114.934743168
 20
-11.8477943683
 11
115.0794240018
 21
-11.8832108998
  0
LINE
  5
46E
100
AcDbEntity
  8
COPY-PUBBLISH
100
AcDbLine
 62
7
  6
CONTINUOUS
 10
114.138998506
 20
-13.4061278367
 11
114.2475091567
 21
-13.4415439629
  0
LINE
  5
46F
100
AcDbEntity
  8
COPY-PUBBLISH
100
AcDbLine
 62
7
  6
CONTINUOUS
 10
69.349636813
 20
-9.9832108998
 11
66.849636813
 21
-11.4265865728
  0
LINE
  5
470
100
AcDbEntity
  8
COPY-PUBBLISH
100
AcDbLine
 62
253
  6
CONTINUOUS
 10
105.849636813
 20
-4.3832108998
 11
105.6811027569
 21
-4.3832108998
  0
LINE
  5
471
100
AcDbEntity
  8
COPY-PUBBLISH
100
AcDbLine
 62
253
  6
CONTINUOUS
 10
80.849636813
 20
-4.3832108998
 11
80.9993262835
 21
-4.3832108998
  0
LINE
  5
472
100
AcDbEntity
  8
COPY-PUBBLISH
100
AcDbLine
 62
7
  6
CONTINUOUS
 10
115.2964453539
 20
-10.6790443683
 11
115.15176452
 21
-10.6436274314
  0
LINE
  5
473
100
AcDbEntity
  8
COPY-PUBBLISH
100
AcDbLine
 62
7
  6
CONTINUOUS
 10
114.3560197821
 20
-10.1123774314
 11
114.2475091567
 21
-10.0769608998
  0
LINE
  5
474
100
AcDbEntity
  8
COPY-PUBBLISH
100
AcDbLine
 62
7
  6
CONTINUOUS
 10
114.9709133764
 20
-10.1123774314
 11
114.8624027511
 21
-10.0769608998
  0
LINE
  5
475
100
AcDbEntity
  8
COPY-PUBBLISH
100
AcDbLine
 62
7
  6
CONTINUOUS
 10
115.0432537933
 20
-9.2269608998
 11
115.15176452
 21
-9.2623774314
  0
LINE
  5
476
100
AcDbEntity
  8
COPY-PUBBLISH
100
AcDbLine
 62
7
  6
CONTINUOUS
 10
114.138998506
 20
-10.2186274314
 11
114.3198495736
 21
-10.2894608998
  0
LINE
  5
477
100
AcDbEntity
  8
COPY-PUBBLISH
100
AcDbLine
 62
7
  6
CONTINUOUS
 10
114.2475091567
 20
-13.2644608998
 11
114.1751687398
 21
-13.2290439629
  0
LINE
  5
478
100
AcDbEntity
  8
COPY-PUBBLISH
100
AcDbLine
 62
7
  6
CONTINUOUS
 10
115.0794240018
 20
-13.2290439629
 11
114.934743168
 21
-13.1582108998
  0
LINE
  5
479
100
AcDbEntity
  8
COPY-PUBBLISH
100
AcDbLine
 62
7
  6
CONTINUOUS
 10
71.549636813
 20
-0.0832108998
 11
70.149636813
 21
-0.0832108998
  0
LINE
  5
47A
100
AcDbEntity
  8
COPY-PUBBLISH
100
AcDbLine
 62
7
  6
CONTINUOUS
 10
114.3560197821
 20
-7.881127634
 11
114.2475091567
 21
-7.8457108998
  0
LINE
  5
47B
100
AcDbEntity
  8
COPY-PUBBLISH
100
AcDbLine
 62
7
  6
CONTINUOUS
 10
113.849636813
 20
-5.9332108998
 11
115.549636813
 21
-6.4998775327
  0
LINE
  5
47C
100
AcDbEntity
  8
COPY-PUBBLISH
100
AcDbLine
 62
7
  6
CONTINUOUS
 10
115.549636813
 20
-6.2873775327
 11
114.0666580891
 21
-5.7915442163
  0
LINE
  5
47D
100
AcDbEntity
  8
COPY-PUBBLISH
100
AcDbLine
 62
7
  6
CONTINUOUS
 10
115.2602751454
 20
-9.1207108998
 11
115.0794240018
 21
-9.0498774314
  0
LINE
  5
47E
100
AcDbEntity
  8
COPY-PUBBLISH
100
AcDbLine
 62
7
  6
CONTINUOUS
 10
114.138998506
 20
-7.987377634
 11
114.3198495736
 21
-8.0582108998
  0
LINE
  5
47F
100
AcDbEntity
  8
COPY-PUBBLISH
100
AcDbLine
 62
7
  6
CONTINUOUS
 10
115.0794240018
 20
-11.6707108998
 11
114.934743168
 21
-11.5998774314
  0
LINE
  5
480
100
AcDbEntity
  8
COPY-PUBBLISH
100
AcDbLine
 62
7
  6
CONTINUOUS
 10
114.0304878806
 20
-13.3352939629
 11
114.138998506
 21
-13.4061278367
  0
LINE
  5
481
100
AcDbEntity
  8
COPY-PUBBLISH
100
AcDbLine
 62
7
  6
CONTINUOUS
 10
114.8262325426
 20
-13.2998778367
 11
114.934743168
 21
-13.3707108998
  0
LINE
  5
482
100
AcDbEntity
  8
COPY-PUBBLISH
100
AcDbLine
 62
7
  6
CONTINUOUS
 10
115.15176452
 20
-12.3790439629
 11
115.2602751454
 21
-12.4498778367
  0
LINE
  5
483
100
AcDbEntity
  8
COPY-PUBBLISH
100
AcDbLine
 62
253
  6
CONTINUOUS
 10
98.849636813
 20
23.2167891002
 11
98.849636813
 21
23.053470882
  0
LINE
  5
484
100
AcDbEntity
  8
COPY-PUBBLISH
100
AcDbLine
 62
253
  6
CONTINUOUS
 10
98.849636813
 20
-11.3832108998
 11
98.849636813
 21
-11.2198926816
  0
LINE
  5
485
100
AcDbEntity
  8
COPY-PUBBLISH
100
AcDbLine
 62
7
  6
CONTINUOUS
 10
72.149636813
 20
1.9167891002
 11
73.549636813
 21
1.9167891002
  0
LINE
  5
486
100
AcDbEntity
  8
RACCORDO
100
AcDbLine
 62
7
  6
CONTINUOUS
 10
73.049636813
 20
2.1667891002
 11
72.149636813
 21
2.1667891002
  0
LINE
  5
487
100
AcDbEntity
  8
RACCORDO
100
AcDbLine
 62
253
  6
CONTINUOUS
 10
71.849636813
 20
2.4667891002
 11
73.349636813
 21
2.4667891002
  0
LINE
  5
488
100
AcDbEntity
  8
COPY-PUBBLISH
100
AcDbLine
 62
7
  6
CONTINUOUS
 10
114.8262325426
 20
-11.7769608998
 11
114.934743168
 21
-11.8477943683
  0
LINE
  5
489
100
AcDbEntity
  8
COPY-PUBBLISH
100
AcDbLine
 62
7
  6
CONTINUOUS
 10
115.15176452
 20
-10.8207108998
 11
115.2602751454
 21
-10.8915443683
  0
LINE
  5
48A
100
AcDbEntity
  8
COPY-PUBBLISH
100
AcDbLine
 62
7
  6
CONTINUOUS
 10
114.2475091567
 20
-10.0769608998
 11
114.138998506
 21
-10.0061274314
  0
LINE
  5
48B
100
AcDbEntity
  8
COPY-PUBBLISH
100
AcDbLine
 62
7
  6
CONTINUOUS
 10
114.8624027511
 20
-10.0769608998
 11
114.7538921257
 21
-10.0061274314
  0
LINE
  5
48C
100
AcDbEntity
  8
COPY-PUBBLISH
100
AcDbLine
 62
7
  6
CONTINUOUS
 10
115.15176452
 20
-9.2623774314
 11
115.2602751454
 21
-9.3332108998
  0
LINE
  5
48D
100
AcDbEntity
  8
COPY-PUBBLISH
100
AcDbLine
 62
7
  6
CONTINUOUS
 10
114.2475091567
 20
-7.8457108998
 11
114.138998506
 21
-7.774877634
  0
LINE
  5
48E
100
AcDbEntity
  8
COPY-PUBBLISH
100
AcDbLine
 62
7
  6
CONTINUOUS
 10
113.9943176595
 20
-10.1123774314
 11
114.138998506
 21
-10.2186274314
  0
LINE
  5
48F
100
AcDbEntity
  8
COPY-PUBBLISH
100
AcDbLine
 62
7
  6
CONTINUOUS
 10
114.1751687398
 20
-13.2290439629
 11
114.1028282975
 21
-13.1582108998
  0
LINE
  5
490
100
AcDbEntity
  8
0
100
AcDbLine
 62
7
  6
CONTINUOUS
 10
114.5858896016
 20
11.3714298752
 11
114.6449369422
 21
11.387027844
  0
LINE
  5
491
100
AcDbEntity
  8
0
100
AcDbLine
 62
7
  6
CONTINUOUS
 10
114.0805819879
 20
11.2395868532
 11
114.4010704688
 21
11.3230201859
  0
LINE
  5
492
100
AcDbEntity
  8
COPY-PUBBLISH
100
AcDbLine
 62
7
  6
CONTINUOUS
 10
115.4049559792
 20
-9.2269608998
 11
115.2602751454
 21
-9.1207108998
  0
LINE
  5
493
100
AcDbEntity
  8
COPY-PUBBLISH
100
AcDbLine
 62
7
  6
CONTINUOUS
 10
113.9943176595
 20
-7.881127634
 11
114.138998506
 21
-7.987377634
  0
LINE
  5
494
100
AcDbEntity
  8
COPY-PUBBLISH
100
AcDbLine
 62
7
  6
CONTINUOUS
 10
115.0070835849
 20
-8.3415441656
 11
115.2602751454
 21
-8.5540443683
  0
LINE
  5
495
100
AcDbEntity
  8
COPY-PUBBLISH
100
AcDbLine
 62
7
  6
CONTINUOUS
 10
115.549636813
 20
-8.5540443683
 11
115.2964453539
 21
-8.3415441656
  0
LINE
  5
496
100
AcDbEntity
  8
COPY-PUBBLISH
100
AcDbLine
 62
7
  6
CONTINUOUS
 10
114.934743168
 20
-13.1582108998
 11
114.8624027511
 21
-13.0873778367
  0
LINE
  5
497
100
AcDbEntity
  8
COPY-PUBBLISH
100
AcDbLine
 62
7
  6
CONTINUOUS
 10
115.4411261877
 20
-12.3790439629
 11
115.2964453539
 21
-12.2373778367
  0
LINE
  5
498
100
AcDbEntity
  8
COPY-PUBBLISH
100
AcDbLine
 62
7
  6
CONTINUOUS
 10
115.4411261877
 20
-10.8207108998
 11
115.2964453539
 21
-10.6790443683
  0
LINE
  5
499
100
AcDbEntity
  8
COPY-PUBBLISH
100
AcDbLine
 62
7
  6
CONTINUOUS
 10
114.934743168
 20
-11.5998774314
 11
114.0304878806
 21
-10.6082108998
  0
LINE
  5
49A
100
AcDbEntity
  8
COPY-PUBBLISH
100
AcDbLine
 62
7
  6
CONTINUOUS
 10
114.0304878806
 20
-10.8915443683
 11
114.8262325426
 21
-11.7769608998
  0
LINE
  5
49B
100
AcDbEntity
  8
DRAFT
100
AcDbLine
 62
7
  6
CONTINUOUS
 10
105.6811027569
 20
-4.3832108998
 11
105.6811027569
 21
16.2167891002
  0
LINE
  5
49C
100
AcDbEntity
  8
COPY-PUBBLISH
100
AcDbLine
 62
7
  6
CONTINUOUS
 10
114.609914813
 20
15.2205241002
 11
113.851390813
 21
15.0150661002
  0
LINE
  5
49D
100
AcDbEntity
  8
0
100
AcDbLine
 62
7
  6
CONTINUOUS
 10
113.851390813
 20
15.0150661002
 11
114.609914813
 21
15.2205241002
  0
LINE
  5
49E
100
AcDbEntity
  8
RACCORDO
100
AcDbLine
 62
253
  6
CONTINUOUS
 10
71.849636813
 20
9.3667891002
 11
73.349636813
 21
9.3667891002
  0
LINE
  5
49F
100
AcDbEntity
  8
RACCORDO
100
AcDbLine
 62
7
  6
CONTINUOUS
 10
73.049636813
 20
9.6667891002
 11
72.149636813
 21
9.6667891002
  0
LINE
  5
4A0
100
AcDbEntity
  8
COPY-PUBBLISH
100
AcDbLine
 62
7
  6
CONTINUOUS
 10
73.549636813
 20
9.9167891002
 11
72.149636813
 21
9.9167891002
  0
LINE
  5
4A1
100
AcDbEntity
  8
COPY-PUBBLISH
100
AcDbLine
 62
7
  6
CONTINUOUS
 10
114.7177219173
 20
-13.1582108998
 11
114.8262325426
 21
-13.2998778367
  0
LINE
  5
4A2
100
AcDbEntity
  8
COPY-PUBBLISH
100
AcDbLine
 62
7
  6
CONTINUOUS
 10
113.9581474511
 20
-13.2290439629
 11
114.0304878806
 21
-13.3352939629
  0
LINE
  5
4A3
100
AcDbEntity
  8
COPY-PUBBLISH
100
AcDbLine
 62
7
  6
CONTINUOUS
 10
115.2602751454
 20
-12.4498778367
 11
115.3326155623
 21
-12.5561278367
  0
LINE
  5
4A4
100
AcDbEntity
  8
COPY-PUBBLISH
100
AcDbLine
 62
7
  6
CONTINUOUS
 10
114.138998506
 20
-10.0061274314
 11
114.0666580891
 21
-9.8998774314
  0
LINE
  5
4A5
100
AcDbEntity
  8
COPY-PUBBLISH
100
AcDbLine
 62
7
  6
CONTINUOUS
 10
114.5007006665
 20
-9.9352943683
 11
114.6453815004
 21
-10.1477943683
  0
LINE
  5
4A6
100
AcDbEntity
  8
COPY-PUBBLISH
100
AcDbLine
 62
7
  6
CONTINUOUS
 10
115.2602751454
 20
-10.8915443683
 11
115.3326155623
 21
-10.9977943683
  0
LINE
  5
4A7
100
AcDbEntity
  8
COPY-PUBBLISH
100
AcDbLine
 62
7
  6
CONTINUOUS
 10
105.849636813
 20
-4.3832108998
 11
105.849636813
 21
16.2167891002
  0
LINE
  5
4A8
100
AcDbEntity
  8
RACCORDO
100
AcDbLine
 62
7
  6
CONTINUOUS
 10
108.849636813
 20
-32.031744062
 11
108.849636813
 21
-35.1346777376
  0
LINE
  5
4A9
100
AcDbEntity
  8
COPY-PUBBLISH
100
AcDbLine
 62
7
  6
CONTINUOUS
 10
114.0666580891
 20
-5.7915442163
 11
115.549636813
 21
-5.2957108998
  0
LINE
  5
4AA
100
AcDbEntity
  8
COPY-PUBBLISH
100
AcDbLine
 62
7
  6
CONTINUOUS
 10
115.549636813
 20
-5.0832108998
 11
113.849636813
 21
-5.6498775834
  0
LINE
  5
4AB
100
AcDbEntity
  8
COPY-PUBBLISH
100
AcDbLine
 62
7
  6
CONTINUOUS
 10
116.606915813
 20
15.7434731002
 11
115.196857813
 21
15.3790281002
  0
LINE
  5
4AC
100
AcDbEntity
  8
0
100
AcDbLine
 62
7
  6
CONTINUOUS
 10
115.196857813
 20
15.3790281002
 11
116.606915813
 21
15.7434731002
  0
LINE
  5
4AD
100
AcDbEntity
  8
COPY-PUBBLISH
100
AcDbLine
 62
7
  6
CONTINUOUS
 10
115.6249836635
 20
11.9072046019
 11
115.6474356463
 21
11.9072046019
  0
LINE
  5
4AE
100
AcDbEntity
  8
0
100
AcDbLine
 62
7
  6
CONTINUOUS
 10
115.6249836635
 20
11.9072046019
 11
115.6474356463
 21
11.9072046019
  0
LINE
  5
4AF
100
AcDbEntity
  8
COPY-PUBBLISH
100
AcDbLine
 62
7
  6
CONTINUOUS
 10
70.149636813
 20
11.9167891002
 11
71.549636813
 21
11.9167891002
  0
LINE
  5
4B0
100
AcDbEntity
  8
COPY-PUBBLISH
100
AcDbLine
 62
7
  6
CONTINUOUS
 10
114.6092112919
 20
-7.031127634
 11
114.7177219173
 21
-7.1727941656
  0
LINE
  5
4B1
100
AcDbEntity
  8
COPY-PUBBLISH
100
AcDbLine
 62
7
  6
CONTINUOUS
 10
114.7538921257
 20
-10.0061274314
 11
114.6815517088
 21
-9.8998774314
  0
LINE
  5
4B2
100
AcDbEntity
  8
COPY-PUBBLISH
100
AcDbLine
 62
7
  6
CONTINUOUS
 10
114.138998506
 20
-7.774877634
 11
114.0666580891
 21
-7.668627634
  0
LINE
  5
4B3
100
AcDbEntity
  8
COPY-PUBBLISH
100
AcDbLine
 62
7
  6
CONTINUOUS
 10
115.2602751454
 20
-9.3332108998
 11
115.3326155623
 21
-9.4394608998
  0
LINE
  5
4B4
100
AcDbEntity
  8
COPY-PUBBLISH
100
AcDbLine
 62
7
  6
CONTINUOUS
 10
113.8858070247
 20
-9.9352943683
 11
113.9943176595
 21
-10.1123774314
  0
LINE
  5
4B5
100
AcDbEntity
  8
COPY-PUBBLISH
100
AcDbLine
 62
7
  6
CONTINUOUS
 10
113.8858070247
 20
-7.7040441656
 11
113.9943176595
 21
-7.881127634
  0
LINE
  5
4B6
100
AcDbEntity
  8
COPY-PUBBLISH
100
AcDbLine
 62
7
  6
CONTINUOUS
 10
115.5134666046
 20
-9.4040443683
 11
115.4049559792
 21
-9.2269608998
  0
LINE
  5
4B7
100
AcDbEntity
  8
COPY-PUBBLISH
100
AcDbLine
 62
7
  6
CONTINUOUS
 10
114.8985729595
 20
-7.137377634
 11
114.7900623342
 21
-6.9602941656
  0
LINE
  5
4B8
100
AcDbEntity
  8
COPY-PUBBLISH
100
AcDbLine
 62
7
  6
CONTINUOUS
 10
113.8858070247
 20
-13.0873778367
 11
113.9581474511
 21
-13.2290439629
  0
LINE
  5
4B9
100
AcDbEntity
  8
COPY-PUBBLISH
100
AcDbLine
 62
7
  6
CONTINUOUS
 10
114.1028282975
 20
-13.1582108998
 11
114.0666580891
 21
-13.0873778367
  0
LINE
  5
4BA
100
AcDbEntity
  8
COPY-PUBBLISH
100
AcDbLine
 62
7
  6
CONTINUOUS
 10
115.5134666046
 20
-12.5207108998
 11
115.4411261877
 21
-12.3790439629
  0
LINE
  5
4BB
100
AcDbEntity
  8
COPY-PUBBLISH
100
AcDbLine
 62
7
  6
CONTINUOUS
 10
115.5134666046
 20
-10.9623774314
 11
115.4411261877
 21
-10.8207108998
  0
LINE
  5
4BC
100
AcDbEntity
  8
COPY-PUBBLISH
100
AcDbLine
 62
7
  6
CONTINUOUS
 10
114.2836793651
 20
-6.7832108998
 11
114.138998506
 21
-6.8540441656
  0
LINE
  5
4BD
100
AcDbEntity
  8
COPY-PUBBLISH
100
AcDbLine
 62
7
  6
CONTINUOUS
 10
114.138998506
 20
-7.0665441656
 11
114.2836793651
 21
-6.9957108998
  0
LINE
  5
4BE
100
AcDbEntity
  8
COPY-PUBBLISH
100
AcDbLine
 62
7
  6
CONTINUOUS
 10
114.4645304074
 20
-8.0582108998
 11
114.6453815004
 21
-7.987377634
  0
LINE
  5
4BF
100
AcDbEntity
  8
COPY-PUBBLISH
100
AcDbLine
 62
7
  6
CONTINUOUS
 10
114.934743168
 20
-9.0498774314
 11
114.7538921257
 21
-9.1207108998
  0
LINE
  5
4C0
100
AcDbEntity
  8
COPY-PUBBLISH
100
AcDbLine
 62
7
  6
CONTINUOUS
 10
114.536870875
 20
-7.8457108998
 11
114.428360199
 21
-7.881127634
  0
LINE
  5
4C1
100
AcDbEntity
  8
COPY-PUBBLISH
100
AcDbLine
 62
7
  6
CONTINUOUS
 10
114.2475091567
 20
-9.1207108998
 11
114.138998506
 21
-9.1561274314
  0
LINE
  5
4C2
100
AcDbEntity
  8
COPY-PUBBLISH
100
AcDbLine
 62
7
  6
CONTINUOUS
 10
114.8624027511
 20
-9.2623774314
 11
114.9709133764
 21
-9.2269608998
  0
LINE
  5
4C3
100
AcDbEntity
  8
COPY-PUBBLISH
100
AcDbLine
 62
7
  6
CONTINUOUS
 10
115.15176452
 20
-10.0769608998
 11
115.0432537933
 21
-10.1123774314
  0
LINE
  5
4C4
100
AcDbEntity
  8
0
100
AcDbLine
 62
7
  6
CONTINUOUS
 10
117.650932813
 20
17.7838121002
 11
113.851390813
 21
17.4285121002
  0
LINE
  5
4C5
100
AcDbEntity
  8
COPY-PUBBLISH
100
AcDbLine
 62
7
  6
CONTINUOUS
 10
113.851390813
 20
17.4285121002
 11
117.650932813
 21
17.7838121002
  0
LINE
  5
4C6
100
AcDbEntity
  8
COPY-PUBBLISH
100
AcDbLine
 62
7
  6
CONTINUOUS
 10
113.8513909874
 20
13.1563383333
 11
115.338321989
 21
13.1563383333
  0
LINE
  5
4C7
100
AcDbEntity
  8
0
100
AcDbLine
 62
7
  6
CONTINUOUS
 10
113.8513909874
 20
13.1563383333
 11
115.338321989
 21
13.1563383333
  0
LINE
  5
4C8
100
AcDbEntity
  8
COPY-PUBBLISH
100
AcDbLine
 62
7
  6
CONTINUOUS
 10
115.9605952194
 20
13.1826367853
 11
117.0036436817
 21
13.1826367853
  0
LINE
  5
4C9
100
AcDbEntity
  8
0
100
AcDbLine
 62
7
  6
CONTINUOUS
 10
115.9605952194
 20
13.1826367853
 11
117.0036436817
 21
13.1826367853
  0
LINE
  5
4CA
100
AcDbEntity
  8
COPY-PUBBLISH
100
AcDbLine
 62
7
  6
CONTINUOUS
 10
117.6065421046
 20
13.9462606336
 11
113.8513909874
 21
13.9462606336
  0
LINE
  5
4CB
100
AcDbEntity
  8
0
100
AcDbLine
 62
7
  6
CONTINUOUS
 10
117.6065421046
 20
13.9462606336
 11
113.8513909874
 21
13.9462606336
  0
LINE
  5
4CC
100
AcDbEntity
  8
COPY-PUBBLISH
100
AcDbLine
 62
253
  6
CONTINUOUS
 10
105.849636813
 20
16.2167891002
 11
105.6811027569
 21
16.2167891002
  0
LINE
  5
4CD
100
AcDbEntity
  8
COPY-PUBBLISH
100
AcDbLine
 62
253
  6
CONTINUOUS
 10
80.849636813
 20
16.2167891002
 11
80.9993262835
 21
16.2167891002
  0
LINE
  5
4CE
100
AcDbEntity
  8
COPY-PUBBLISH
100
AcDbLine
 62
7
  6
CONTINUOUS
 10
114.8624027511
 20
-13.0873778367
 11
114.7900623342
 21
-12.8748778367
  0
LINE
  5
4CF
100
AcDbEntity
  8
COPY-PUBBLISH
100
AcDbLine
 62
7
  6
CONTINUOUS
 10
114.0666580891
 20
-9.8998774314
 11
114.0304878806
 21
-9.7936274314
  0
LINE
  5
4D0
100
AcDbEntity
  8
COPY-PUBBLISH
100
AcDbLine
 62
7
  6
CONTINUOUS
 10
114.6815517088
 20
-9.8998774314
 11
114.6453815004
 21
-9.7936274314
  0
LINE
  5
4D1
100
AcDbEntity
  8
COPY-PUBBLISH
100
AcDbLine
 62
7
  6
CONTINUOUS
 10
115.3326155623
 20
-9.4394608998
 11
115.3687857708
 21
-9.5457108998
  0
LINE
  5
4D2
100
AcDbEntity
  8
COPY-PUBBLISH
100
AcDbLine
 62
7
  6
CONTINUOUS
 10
113.849636813
 20
-12.9457108998
 11
113.8858070247
 21
-13.0873778367
  0
LINE
  5
4D3
100
AcDbEntity
  8
COPY-PUBBLISH
100
AcDbLine
 62
7
  6
CONTINUOUS
 10
114.0666580891
 20
-7.668627634
 11
114.0304878806
 21
-7.5269608998
  0
LINE
  5
4D4
100
AcDbEntity
  8
COPY-PUBBLISH
100
AcDbLine
 62
7
  6
CONTINUOUS
 10
114.0666580891
 20
-13.0873778367
 11
114.0304878806
 21
-12.9102939629
  0
LINE
  5
4D5
100
AcDbEntity
  8
COPY-PUBBLISH
100
AcDbLine
 62
7
  6
CONTINUOUS
 10
113.849636813
 20
-9.7582108998
 11
113.8858070247
 21
-9.9352943683
  0
LINE
  5
4D6
100
AcDbEntity
  8
COPY-PUBBLISH
100
AcDbLine
 62
7
  6
CONTINUOUS
 10
113.849636813
 20
-7.5269608998
 11
113.8858070247
 21
-7.7040441656
  0
LINE
  5
4D7
100
AcDbEntity
  8
COPY-PUBBLISH
100
AcDbLine
 62
7
  6
CONTINUOUS
 10
114.4645304074
 20
-9.7582108998
 11
114.5007006665
 21
-9.9352943683
  0
LINE
  5
4D8
100
AcDbEntity
  8
COPY-PUBBLISH
100
AcDbLine
 62
7
  6
CONTINUOUS
 10
113.849636813
 20
-5.6498775834
 11
113.849636813
 21
-5.9332108998
  0
LINE
  5
4D9
100
AcDbEntity
  8
COPY-PUBBLISH
100
AcDbLine
 62
7
  6
CONTINUOUS
 10
113.849636813
 20
-7.3144608998
 11
113.849636813
 21
-7.5269608998
  0
LINE
  5
4DA
100
AcDbEntity
  8
COPY-PUBBLISH
100
AcDbLine
 62
7
  6
CONTINUOUS
 10
113.849636813
 20
-8.5540443683
 11
113.849636813
 21
-8.7665443683
  0
LINE
  5
4DB
100
AcDbEntity
  8
COPY-PUBBLISH
100
AcDbLine
 62
7
  6
CONTINUOUS
 10
113.849636813
 20
-9.6165443683
 11
113.849636813
 21
-9.7582108998
  0
LINE
  5
4DC
100
AcDbEntity
  8
COPY-PUBBLISH
100
AcDbLine
 62
7
  6
CONTINUOUS
 10
113.849636813
 20
-10.6082108998
 11
113.849636813
 21
-11.8832108998
  0
LINE
  5
4DD
100
AcDbEntity
  8
COPY-PUBBLISH
100
AcDbLine
 62
7
  6
CONTINUOUS
 10
113.849636813
 20
-12.6623778367
 11
113.849636813
 21
-12.9457108998
  0
LINE
  5
4DE
100
AcDbEntity
  8
COPY-PUBBLISH
100
AcDbLine
 62
7
  6
CONTINUOUS
 10
113.851390813
 20
24.7165591002
 11
113.851390813
 21
24.0176271002
  0
LINE
  5
4DF
100
AcDbEntity
  8
COPY-PUBBLISH
100
AcDbLine
 62
7
  6
CONTINUOUS
 10
113.851390813
 20
22.5019761002
 11
113.851390813
 21
21.7088631002
  0
LINE
  5
4E0
100
AcDbEntity
  8
0
100
AcDbLine
 62
7
  6
CONTINUOUS
 10
113.851390813
 20
22.5019761002
 11
113.851390813
 21
21.7088631002
  0
LINE
  5
4E1
100
AcDbEntity
  8
COPY-PUBBLISH
100
AcDbLine
 62
7
  6
CONTINUOUS
 10
113.851390813
 20
21.2819051002
 11
113.851390813
 21
20.5231531002
  0
LINE
  5
4E2
100
AcDbEntity
  8
COPY-PUBBLISH
100
AcDbLine
 62
7
  6
CONTINUOUS
 10
113.851390813
 20
19.4215811002
 11
113.851390813
 21
19.3103471002
  0
LINE
  5
4E3
100
AcDbEntity
  8
COPY-PUBBLISH
100
AcDbLine
 62
7
  6
CONTINUOUS
 10
113.851390813
 20
18.2043871002
 11
113.851390813
 21
17.4285121002
  0
LINE
  5
4E4
100
AcDbEntity
  8
COPY-PUBBLISH
100
AcDbLine
 62
7
  6
CONTINUOUS
 10
113.851390813
 20
17.3039721002
 11
113.851390813
 21
16.5194631002
  0
LINE
  5
4E5
100
AcDbEntity
  8
COPY-PUBBLISH
100
AcDbLine
 62
7
  6
CONTINUOUS
 10
113.851390813
 20
15.0150661002
 11
113.851390813
 21
14.1791571002
  0
LINE
  5
4E6
100
AcDbEntity
  8
COPY-PUBBLISH
100
AcDbLine
 62
7
  6
CONTINUOUS
 10
113.8513909874
 20
13.9462606336
 11
113.8513909874
 21
13.1563383333
  0
LINE
  5
4E7
100
AcDbEntity
  8
0
100
AcDbLine
 62
7
  6
CONTINUOUS
 10
113.8513909874
 20
13.9462606336
 11
113.8513909874
 21
13.1563383333
  0
LINE
  5
4E8
100
AcDbEntity
  8
COPY-PUBBLISH
100
AcDbLine
 62
7
  6
CONTINUOUS
 10
113.8513909874
 20
11.9417943318
 11
113.8513909874
 21
11.1789112849
  0
LINE
  5
4E9
100
AcDbEntity
  8
0
100
AcDbLine
 62
7
  6
CONTINUOUS
 10
113.8513909874
 20
11.9417943318
 11
113.8513909874
 21
11.1789112849
  0
LINE
  5
4EA
100
AcDbEntity
  8
0
100
AcDbLine
 62
7
  6
CONTINUOUS
 10
113.851390813
 20
14.1791571002
 11
113.851390813
 21
15.0150661002
  0
LINE
  5
4EB
100
AcDbEntity
  8
0
100
AcDbLine
 62
7
  6
CONTINUOUS
 10
113.851390813
 20
16.5194631002
 11
113.851390813
 21
17.3039721002
  0
LINE
  5
4EC
100
AcDbEntity
  8
0
100
AcDbLine
 62
7
  6
CONTINUOUS
 10
113.851390813
 20
17.4285121002
 11
113.851390813
 21
18.2043871002
  0
LINE
  5
4ED
100
AcDbEntity
  8
0
100
AcDbLine
 62
7
  6
CONTINUOUS
 10
113.851390813
 20
19.3103471002
 11
113.851390813
 21
19.4215811002
  0
LINE
  5
4EE
100
AcDbEntity
  8
0
100
AcDbLine
 62
7
  6
CONTINUOUS
 10
113.851390813
 20
20.5231531002
 11
113.851390813
 21
21.2819051002
  0
LINE
  5
4EF
100
AcDbEntity
  8
0
100
AcDbLine
 62
7
  6
CONTINUOUS
 10
113.851390813
 20
24.0176271002
 11
113.851390813
 21
24.7165591002
  0
LINE
  5
4F0
100
AcDbEntity
  8
COPY-PUBBLISH
100
AcDbLine
 62
7
  6
CONTINUOUS
 10
114.0304878806
 20
-12.9102939629
 11
114.0304878806
 21
-12.6977939629
  0
LINE
  5
4F1
100
AcDbEntity
  8
COPY-PUBBLISH
100
AcDbLine
 62
7
  6
CONTINUOUS
 10
114.0304878806
 20
-11.8832108998
 11
114.0304878806
 21
-10.8915443683
  0
LINE
  5
4F2
100
AcDbEntity
  8
COPY-PUBBLISH
100
AcDbLine
 62
7
  6
CONTINUOUS
 10
114.0304878806
 20
-9.7936274314
 11
114.0304878806
 21
-9.5811274314
  0
LINE
  5
4F3
100
AcDbEntity
  8
COPY-PUBBLISH
100
AcDbLine
 62
7
  6
CONTINUOUS
 10
114.0304878806
 20
-7.5269608998
 11
114.0304878806
 21
-7.3144608998
  0
LINE
  5
4F4
100
AcDbEntity
  8
COPY-PUBBLISH
100
AcDbLine
 62
7
  6
CONTINUOUS
 10
114.2475091567
 20
-12.3436278367
 11
114.2475091567
 21
-12.1665439629
  0
LINE
  5
4F5
100
AcDbEntity
  8
COPY-PUBBLISH
100
AcDbLine
 62
7
  6
CONTINUOUS
 10
114.2475091567
 20
-9.2977943683
 11
114.2475091567
 21
-9.1207108998
  0
LINE
  5
4F6
100
AcDbEntity
  8
COPY-PUBBLISH
100
AcDbLine
 62
7
  6
CONTINUOUS
 10
114.2836793651
 20
-6.9957108998
 11
114.2836793651
 21
-6.7832108998
  0
LINE
  5
4F7
100
AcDbEntity
  8
COPY-PUBBLISH
100
AcDbLine
 62
7
  6
CONTINUOUS
 10
114.4645304074
 20
-9.5811274314
 11
114.4645304074
 21
-9.7582108998
  0
LINE
  5
4F8
100
AcDbEntity
  8
COPY-PUBBLISH
100
AcDbLine
 62
7
  6
CONTINUOUS
 10
114.6092112919
 20
-6.7832108998
 11
114.6092112919
 21
-7.031127634
  0
LINE
  5
4F9
100
AcDbEntity
  8
COPY-PUBBLISH
100
AcDbLine
 62
7
  6
CONTINUOUS
 10
114.609914813
 20
16.3006131002
 11
114.609914813
 21
15.2205241002
  0
LINE
  5
4FA
100
AcDbEntity
  8
0
100
AcDbLine
 62
7
  6
CONTINUOUS
 10
114.609914813
 20
15.2205241002
 11
114.609914813
 21
16.3006131002
  0
LINE
  5
4FB
100
AcDbEntity
  8
COPY-PUBBLISH
100
AcDbLine
 62
7
  6
CONTINUOUS
 10
114.6453815004
 20
-12.7332108998
 11
114.6453815004
 21
-12.8748778367
  0
LINE
  5
4FC
100
AcDbEntity
  8
COPY-PUBBLISH
100
AcDbLine
 62
7
  6
CONTINUOUS
 10
114.6453815004
 20
-9.7936274314
 11
114.6453815004
 21
-9.5457108998
  0
LINE
  5
4FD
100
AcDbEntity
  8
COPY-PUBBLISH
100
AcDbLine
 62
7
  6
CONTINUOUS
 10
114.7538921257
 20
-7.3144608998
 11
114.7538921257
 21
-7.5269608998
  0
LINE
  5
4FE
100
AcDbEntity
  8
COPY-PUBBLISH
100
AcDbLine
 62
7
  6
CONTINUOUS
 10
114.7900623342
 20
-12.8748778367
 11
114.7900623342
 21
-12.7332108998
  0
LINE
  5
4FF
100
AcDbEntity
  8
COPY-PUBBLISH
100
AcDbLine
 62
7
  6
CONTINUOUS
 10
114.934743168
 20
-7.5269608998
 11
114.934743168
 21
-7.3144608998
  0
LINE
  5
500
100
AcDbEntity
  8
COPY-PUBBLISH
100
AcDbLine
 62
7
  6
CONTINUOUS
 10
115.15176452
 20
-10.6436274314
 11
115.15176452
 21
-10.8207108998
  0
LINE
  5
501
100
AcDbEntity
  8
COPY-PUBBLISH
100
AcDbLine
 62
7
  6
CONTINUOUS
 10
115.15176452
 20
-12.2019608998
 11
115.15176452
 21
-12.3790439629
  0
LINE
  5
502
100
AcDbEntity
  8
0
100
AcDbLine
 62
7
  6
CONTINUOUS
 10
115.196857813
 20
16.1383781002
 11
115.196857813
 21
15.3790281002
  0
LINE
  5
503
100
AcDbEntity
  8
COPY-PUBBLISH
100
AcDbLine
 62
7
  6
CONTINUOUS
 10
115.196857813
 20
15.3790281002
 11
115.196857813
 21
16.1383781002
  0
LINE
  5
504
100
AcDbEntity
  8
COPY-PUBBLISH
100
AcDbLine
 62
7
  6
CONTINUOUS
 10
113.8858070247
 20
-7.137377634
 11
113.849636813
 21
-7.3144608998
  0
LINE
  5
505
100
AcDbEntity
  8
COPY-PUBBLISH
100
AcDbLine
 62
7
  6
CONTINUOUS
 10
114.0304878806
 20
-7.3144608998
 11
114.0666580891
 21
-7.1727941656
  0
LINE
  5
506
100
AcDbEntity
  8
COPY-PUBBLISH
100
AcDbLine
 62
7
  6
CONTINUOUS
 10
113.9943176595
 20
-6.9602941656
 11
113.8858070247
 21
-7.137377634
  0
LINE
  5
507
100
AcDbEntity
  8
COPY-PUBBLISH
100
AcDbLine
 62
7
  6
CONTINUOUS
 10
114.0666580891
 20
-7.1727941656
 11
114.138998506
 21
-7.0665441656
  0
LINE
  5
508
100
AcDbEntity
  8
COPY-PUBBLISH
100
AcDbLine
 62
7
  6
CONTINUOUS
 10
114.138998506
 20
-6.8540441656
 11
113.9943176595
 21
-6.9602941656
  0
LINE
  5
509
100
AcDbEntity
  8
COPY-PUBBLISH
100
AcDbLine
 62
7
  6
CONTINUOUS
 10
114.6453815004
 20
-7.987377634
 11
114.7900623342
 21
-7.881127634
  0
LINE
  5
50A
100
AcDbEntity
  8
COPY-PUBBLISH
100
AcDbLine
 62
7
  6
CONTINUOUS
 10
114.138998506
 20
-9.1561274314
 11
113.9943176595
 21
-9.2623774314
  0
LINE
  5
50B
100
AcDbEntity
  8
COPY-PUBBLISH
100
AcDbLine
 62
7
  6
CONTINUOUS
 10
114.7538921257
 20
-9.1207108998
 11
114.6092112919
 21
-9.2269608998
  0
LINE
  5
50C
100
AcDbEntity
  8
COPY-PUBBLISH
100
AcDbLine
 62
7
  6
CONTINUOUS
 10
114.6453815004
 20
-7.774877634
 11
114.536870875
 21
-7.8457108998
  0
LINE
  5
50D
100
AcDbEntity
  8
COPY-PUBBLISH
100
AcDbLine
 62
7
  6
CONTINUOUS
 10
114.138998506
 20
-9.3686274314
 11
114.2475091567
 21
-9.2977943683
  0
LINE
  5
50E
100
AcDbEntity
  8
COPY-PUBBLISH
100
AcDbLine
 62
7
  6
CONTINUOUS
 10
114.7538921257
 20
-9.3332108998
 11
114.8624027511
 21
-9.2623774314
  0
LINE
  5
50F
100
AcDbEntity
  8
COPY-PUBBLISH
100
AcDbLine
 62
7
  6
CONTINUOUS
 10
115.2602751454
 20
-10.0061274314
 11
115.15176452
 21
-10.0769608998
  0
LINE
  5
510
100
AcDbEntity
  8
COPY-PUBBLISH
100
AcDbLine
 62
7
  6
CONTINUOUS
 10
114.1751687398
 20
-12.3790439629
 11
114.2475091567
 21
-12.3436278367
  0
LINE
  5
511
100
AcDbEntity
  8
COPY-PUBBLISH
100
AcDbLine
 62
7
  6
CONTINUOUS
 10
115.0794240018
 20
-10.2894608998
 11
115.2602751454
 21
-10.2186274314
  0
LINE
  5
512
100
AcDbEntity
  8
COPY-PUBBLISH
100
AcDbLine
 62
7
  6
CONTINUOUS
 10
114.2475091567
 20
-12.1665439629
 11
114.138998506
 21
-12.2019608998
  0
LINE
  5
513
100
AcDbEntity
  8
0
100
AcDbLine
 62
7
  6
CONTINUOUS
 10
117.650932813
 20
25.0595221002
 11
115.035590813
 21
24.3352601002
  0
LINE
  5
514
100
AcDbEntity
  8
COPY-PUBBLISH
100
AcDbLine
 62
7
  6
CONTINUOUS
 10
115.035590813
 20
24.3352601002
 11
117.650932813
 21
25.0595221002
  0
LINE
  5
515
100
AcDbEntity
  8
COPY-PUBBLISH
100
AcDbLine
 62
7
  6
CONTINUOUS
 10
116.322077813
 20
18.3673351002
 11
113.851390813
 21
18.2043871002
  0
LINE
  5
516
100
AcDbEntity
  8
0
100
AcDbLine
 62
7
  6
CONTINUOUS
 10
113.851390813
 20
18.2043871002
 11
116.322077813
 21
18.3673351002
  0
LINE
  5
517
100
AcDbEntity
  8
COPY-PUBBLISH
100
AcDbLine
 62
7
  6
CONTINUOUS
 10
114.7177219173
 20
-7.1727941656
 11
114.7538921257
 21
-7.3144608998
  0
LINE
  5
518
100
AcDbEntity
  8
COPY-PUBBLISH
100
AcDbLine
 62
7
  6
CONTINUOUS
 10
115.3326155623
 20
-12.5561278367
 11
115.3687857708
 21
-12.7332108998
  0
LINE
  5
519
100
AcDbEntity
  8
COPY-PUBBLISH
100
AcDbLine
 62
7
  6
CONTINUOUS
 10
115.3326155623
 20
-10.9977943683
 11
115.3687857708
 21
-11.1748774314
  0
LINE
  5
51A
100
AcDbEntity
  8
COPY-PUBBLISH
100
AcDbLine
 62
7
  6
CONTINUOUS
 10
114.934743168
 20
-7.3144608998
 11
114.8985729595
 21
-7.137377634
  0
LINE
  5
51B
100
AcDbEntity
  8
COPY-PUBBLISH
100
AcDbLine
 62
7
  6
CONTINUOUS
 10
115.549636813
 20
-9.5811274314
 11
115.5134666046
 21
-9.4040443683
  0
LINE
  5
51C
100
AcDbEntity
  8
COPY-PUBBLISH
100
AcDbLine
 62
7
  6
CONTINUOUS
 10
115.549636813
 20
-12.7686278367
 11
115.5134666046
 21
-12.5207108998
  0
LINE
  5
51D
100
AcDbEntity
  8
COPY-PUBBLISH
100
AcDbLine
 62
7
  6
CONTINUOUS
 10
115.549636813
 20
-11.2102943683
 11
115.5134666046
 21
-10.9623774314
  0
LINE
  5
51E
100
AcDbEntity
  8
COPY-PUBBLISH
100
AcDbLine
 62
7
  6
CONTINUOUS
 10
115.338321989
 20
13.1563383333
 11
115.338321989
 21
12.7310898001
  0
LINE
  5
51F
100
AcDbEntity
  8
0
100
AcDbLine
 62
7
  6
CONTINUOUS
 10
115.338321989
 20
13.1563383333
 11
115.338321989
 21
12.7310898001
  0
LINE
  5
520
100
AcDbEntity
  8
COPY-PUBBLISH
100
AcDbLine
 62
7
  6
CONTINUOUS
 10
115.3687857708
 20
-6.9602941656
 11
115.3687857708
 21
-7.987377634
  0
LINE
  5
521
100
AcDbEntity
  8
COPY-PUBBLISH
100
AcDbLine
 62
7
  6
CONTINUOUS
 10
115.3687857708
 20
-9.5457108998
 11
115.3687857708
 21
-9.7936274314
  0
LINE
  5
522
100
AcDbEntity
  8
COPY-PUBBLISH
100
AcDbLine
 62
7
  6
CONTINUOUS
 10
115.3687857708
 20
-11.1748774314
 11
115.3687857708
 21
-11.3165443683
  0
LINE
  5
523
100
AcDbEntity
  8
COPY-PUBBLISH
100
AcDbLine
 62
7
  6
CONTINUOUS
 10
115.3687857708
 20
-12.7332108998
 11
115.3687857708
 21
-12.8748778367
  0
LINE
  5
524
100
AcDbEntity
  8
COPY-PUBBLISH
100
AcDbLine
 62
7
  6
CONTINUOUS
 10
115.549636813
 20
-12.8394608998
 11
115.549636813
 21
-12.7686278367
  0
LINE
  5
525
100
AcDbEntity
  8
COPY-PUBBLISH
100
AcDbLine
 62
7
  6
CONTINUOUS
 10
115.549636813
 20
-11.3519608998
 11
115.549636813
 21
-11.2102943683
  0
LINE
  5
526
100
AcDbEntity
  8
COPY-PUBBLISH
100
AcDbLine
 62
7
  6
CONTINUOUS
 10
115.549636813
 20
-9.7582108998
 11
115.549636813
 21
-9.5811274314
  0
LINE
  5
527
100
AcDbEntity
  8
COPY-PUBBLISH
100
AcDbLine
 62
7
  6
CONTINUOUS
 10
115.549636813
 20
-8.7665443683
 11
115.549636813
 21
-8.5540443683
  0
LINE
  5
528
100
AcDbEntity
  8
COPY-PUBBLISH
100
AcDbLine
 62
7
  6
CONTINUOUS
 10
115.549636813
 20
-7.987377634
 11
115.549636813
 21
-6.7832108998
  0
LINE
  5
529
100
AcDbEntity
  8
COPY-PUBBLISH
100
AcDbLine
 62
7
  6
CONTINUOUS
 10
115.549636813
 20
-6.4998775327
 11
115.549636813
 21
-6.2873775327
  0
LINE
  5
52A
100
AcDbEntity
  8
COPY-PUBBLISH
100
AcDbLine
 62
7
  6
CONTINUOUS
 10
115.549636813
 20
-5.2957108998
 11
115.549636813
 21
-5.0832108998
  0
LINE
  5
52B
100
AcDbEntity
  8
COPY-PUBBLISH
100
AcDbLine
 62
7
  6
CONTINUOUS
 10
115.9605952194
 20
12.7293802583
 11
115.9605952194
 21
13.1826367853
  0
LINE
  5
52C
100
AcDbEntity
  8
0
100
AcDbLine
 62
7
  6
CONTINUOUS
 10
115.9605952194
 20
12.7293802583
 11
115.9605952194
 21
13.1826367853
  0
LINE
  5
52D
100
AcDbEntity
  8
0
100
AcDbLine
 62
7
  6
CONTINUOUS
 10
117.650932813
 20
25.9210881002
 11
117.650932813
 21
25.0595221002
  0
LINE
  5
52E
100
AcDbEntity
  8
0
100
AcDbLine
 62
7
  6
CONTINUOUS
 10
117.650932813
 20
23.5888741002
 11
117.650932813
 21
22.7963021002
  0
LINE
  5
52F
100
AcDbEntity
  8
0
100
AcDbLine
 62
7
  6
CONTINUOUS
 10
117.650932813
 20
20.9388281002
 11
117.650932813
 21
20.1463701002
  0
LINE
  5
530
100
AcDbEntity
  8
0
100
AcDbLine
 62
7
  6
CONTINUOUS
 10
117.650932813
 20
18.5685201002
 11
117.650932813
 21
17.7838121002
  0
LINE
  5
531
100
AcDbEntity
  8
0
100
AcDbLine
 62
7
  6
CONTINUOUS
 10
117.650932813
 20
16.1121931002
 11
117.650932813
 21
15.3449511002
  0
LINE
  5
532
100
AcDbEntity
  8
COPY-PUBBLISH
100
AcDbLine
 62
7
  6
CONTINUOUS
 10
117.650932813
 20
15.3449511002
 11
117.650932813
 21
16.1121931002
  0
LINE
  5
533
100
AcDbEntity
  8
COPY-PUBBLISH
100
AcDbLine
 62
7
  6
CONTINUOUS
 10
117.650932813
 20
17.7838121002
 11
117.650932813
 21
18.5685201002
  0
LINE
  5
534
100
AcDbEntity
  8
COPY-PUBBLISH
100
AcDbLine
 62
7
  6
CONTINUOUS
 10
117.650932813
 20
20.1463701002
 11
117.650932813
 21
20.9388281002
  0
LINE
  5
535
100
AcDbEntity
  8
COPY-PUBBLISH
100
AcDbLine
 62
7
  6
CONTINUOUS
 10
117.650932813
 20
22.7963021002
 11
117.650932813
 21
23.5888741002
  0
LINE
  5
536
100
AcDbEntity
  8
COPY-PUBBLISH
100
AcDbLine
 62
7
  6
CONTINUOUS
 10
117.650932813
 20
25.0595221002
 11
117.650932813
 21
25.9210881002
  0
LINE
  5
537
100
AcDbEntity
  8
COPY-PUBBLISH
100
AcDbLine
 62
7
  6
CONTINUOUS
 10
117.651160813
 20
21.7088631002
 11
117.651160813
 21
22.5019761002
  0
LINE
  5
538
100
AcDbEntity
  8
0
100
AcDbLine
 62
7
  6
CONTINUOUS
 10
117.651160813
 20
21.7088631002
 11
117.651160813
 21
22.5019761002
  0
LINE
  5
539
100
AcDbEntity
  8
COPY-PUBBLISH
100
AcDbLine
 62
7
  6
CONTINUOUS
 10
115.5134666046
 20
-13.0873778367
 11
115.549636813
 21
-12.8394608998
  0
LINE
  5
53A
100
AcDbEntity
  8
COPY-PUBBLISH
100
AcDbLine
 62
7
  6
CONTINUOUS
 10
114.6453815004
 20
-12.8748778367
 11
114.6092112919
 21
-13.0873778367
  0
LINE
  5
53B
100
AcDbEntity
  8
COPY-PUBBLISH
100
AcDbLine
 62
7
  6
CONTINUOUS
 10
115.5134666046
 20
-11.5644608998
 11
115.549636813
 21
-11.3519608998
  0
LINE
  5
53C
100
AcDbEntity
  8
COPY-PUBBLISH
100
AcDbLine
 62
7
  6
CONTINUOUS
 10
113.8858070247
 20
-9.4394608998
 11
113.849636813
 21
-9.6165443683
  0
LINE
  5
53D
100
AcDbEntity
  8
COPY-PUBBLISH
100
AcDbLine
 62
7
  6
CONTINUOUS
 10
114.5007006665
 20
-9.4040443683
 11
114.4645304074
 21
-9.5811274314
  0
LINE
  5
53E
100
AcDbEntity
  8
COPY-PUBBLISH
100
AcDbLine
 62
7
  6
CONTINUOUS
 10
114.8985729595
 20
-7.7040441656
 11
114.934743168
 21
-7.5269608998
  0
LINE
  5
53F
100
AcDbEntity
  8
COPY-PUBBLISH
100
AcDbLine
 62
7
  6
CONTINUOUS
 10
114.0304878806
 20
-12.6977939629
 11
114.0666580891
 21
-12.5207108998
  0
LINE
  5
540
100
AcDbEntity
  8
COPY-PUBBLISH
100
AcDbLine
 62
7
  6
CONTINUOUS
 10
115.5134666046
 20
-9.9352943683
 11
115.549636813
 21
-9.7582108998
  0
LINE
  5
541
100
AcDbEntity
  8
COPY-PUBBLISH
100
AcDbLine
 62
7
  6
CONTINUOUS
 10
115.3687857708
 20
-11.3165443683
 11
115.3326155623
 21
-11.4936274314
  0
LINE
  5
542
100
AcDbEntity
  8
COPY-PUBBLISH
100
AcDbLine
 62
7
  6
CONTINUOUS
 10
115.3687857708
 20
-12.8748778367
 11
115.3326155623
 21
-13.0519608998
  0
LINE
  5
543
100
AcDbEntity
  8
COPY-PUBBLISH
100
AcDbLine
 62
7
  6
CONTINUOUS
 10
114.7538921257
 20
-7.5269608998
 11
114.7177219173
 21
-7.668627634
  0
LINE
  5
544
100
AcDbEntity
  8
COPY-PUBBLISH
100
AcDbLine
 62
7
  6
CONTINUOUS
 10
113.8858070247
 20
-12.5207108998
 11
113.849636813
 21
-12.6623778367
  0
LINE
  5
545
100
AcDbEntity
  8
COPY-PUBBLISH
100
AcDbLine
 62
7
  6
CONTINUOUS
 10
114.0304878806
 20
-9.5811274314
 11
114.0666580891
 21
-9.4748774314
  0
LINE
  5
546
100
AcDbEntity
  8
COPY-PUBBLISH
100
AcDbLine
 62
7
  6
CONTINUOUS
 10
114.6453815004
 20
-9.5457108998
 11
114.6815517088
 21
-9.4394608998
  0
LINE
  5
547
100
AcDbEntity
  8
COPY-PUBBLISH
100
AcDbLine
 62
7
  6
CONTINUOUS
 10
115.3687857708
 20
-9.7936274314
 11
115.3326155623
 21
-9.8998774314
  0
LINE
  5
548
100
AcDbEntity
  8
COPY-PUBBLISH
100
AcDbLine
 62
7
  6
CONTINUOUS
 10
114.6453815004
 20
-13.3352939629
 11
114.7177219173
 21
-13.1582108998
  0
LINE
  5
549
100
AcDbEntity
  8
COPY-PUBBLISH
100
AcDbLine
 62
7
  6
CONTINUOUS
 10
113.9581474511
 20
-12.3790439629
 11
113.8858070247
 21
-12.5207108998
  0
LINE
  5
54A
100
AcDbEntity
  8
COPY-PUBBLISH
100
AcDbLine
 62
7
  6
CONTINUOUS
 10
114.0666580891
 20
-12.5207108998
 11
114.1028282975
 21
-12.4498778367
  0
LINE
  5
54B
100
AcDbEntity
  8
COPY-PUBBLISH
100
AcDbLine
 62
7
  6
CONTINUOUS
 10
114.7900623342
 20
-7.881127634
 11
114.8985729595
 21
-7.7040441656
  0
LINE
  5
54C
100
AcDbEntity
  8
COPY-PUBBLISH
100
AcDbLine
 62
7
  6
CONTINUOUS
 10
113.9943176595
 20
-9.2623774314
 11
113.8858070247
 21
-9.4394608998
  0
LINE
  5
54D
100
AcDbEntity
  8
COPY-PUBBLISH
100
AcDbLine
 62
7
  6
CONTINUOUS
 10
114.6092112919
 20
-9.2269608998
 11
114.5007006665
 21
-9.4040443683
  0
LINE
  5
54E
100
AcDbEntity
  8
COPY-PUBBLISH
100
AcDbLine
 62
7
  6
CONTINUOUS
 10
115.4049559792
 20
-10.1123774314
 11
115.5134666046
 21
-9.9352943683
  0
LINE
  5
54F
100
AcDbEntity
  8
COPY-PUBBLISH
100
AcDbLine
 62
7
  6
CONTINUOUS
 10
114.7177219173
 20
-7.668627634
 11
114.6453815004
 21
-7.774877634
  0
LINE
  5
550
100
AcDbEntity
  8
COPY-PUBBLISH
100
AcDbLine
 62
7
  6
CONTINUOUS
 10
114.0666580891
 20
-9.4748774314
 11
114.138998506
 21
-9.3686274314
  0
LINE
  5
551
100
AcDbEntity
  8
COPY-PUBBLISH
100
AcDbLine
 62
7
  6
CONTINUOUS
 10
114.6815517088
 20
-9.4394608998
 11
114.7538921257
 21
-9.3332108998
  0
LINE
  5
552
100
AcDbEntity
  8
COPY-PUBBLISH
100
AcDbLine
 62
7
  6
CONTINUOUS
 10
115.3326155623
 20
-9.8998774314
 11
115.2602751454
 21
-10.0061274314
  0
LINE
  5
553
100
AcDbEntity
  8
COPY-PUBBLISH
100
AcDbLine
 62
7
  6
CONTINUOUS
 10
114.0304878806
 20
-12.2727939629
 11
113.9581474511
 21
-12.3790439629
  0
LINE
  5
554
100
AcDbEntity
  8
COPY-PUBBLISH
100
AcDbLine
 62
7
  6
CONTINUOUS
 10
115.3326155623
 20
-11.4936274314
 11
115.2602751454
 21
-11.5998774314
  0
LINE
  5
555
100
AcDbEntity
  8
COPY-PUBBLISH
100
AcDbLine
 62
7
  6
CONTINUOUS
 10
114.1028282975
 20
-12.4498778367
 11
114.1751687398
 21
-12.3790439629
  0
LINE
  5
556
100
AcDbEntity
  8
COPY-PUBBLISH
100
AcDbLine
 62
7
  6
CONTINUOUS
 10
115.2964453539
 20
-11.8477943683
 11
115.4411261877
 21
-11.7061274314
  0
LINE
  5
557
100
AcDbEntity
  8
COPY-PUBBLISH
100
AcDbLine
 62
7
  6
CONTINUOUS
 10
115.2602751454
 20
-10.2186274314
 11
115.4049559792
 21
-10.1123774314
  0
LINE
  5
558
100
AcDbEntity
  8
COPY-PUBBLISH
100
AcDbLine
 62
7
  6
CONTINUOUS
 10
114.138998506
 20
-12.2019608998
 11
114.0304878806
 21
-12.2727939629
  0
LINE
  5
559
100
AcDbEntity
  8
COPY-PUBBLISH
100
AcDbLine
 62
7
  6
CONTINUOUS
 10
115.2602751454
 20
-11.5998774314
 11
115.15176452
 21
-11.6707108998
  0
LINE
  5
55A
100
AcDbEntity
  8
COPY-PUBBLISH
100
AcDbLine
 62
7
  6
CONTINUOUS
 10
114.536870875
 20
-13.4061278367
 11
114.6453815004
 21
-13.3352939629
  0
LINE
  5
55B
100
AcDbEntity
  8
COPY-PUBBLISH
100
AcDbLine
 62
7
  6
CONTINUOUS
 10
115.2602751454
 20
-13.1582108998
 11
115.15176452
 21
-13.2290439629
  0
LINE
  5
55C
100
AcDbEntity
  8
COPY-PUBBLISH
100
AcDbLine
 62
7
  6
CONTINUOUS
 10
114.536870875
 20
-13.1936278367
 11
114.3921899905
 21
-13.2644608998
  0
LINE
  5
55D
100
AcDbEntity
  8
COPY-PUBBLISH
100
AcDbLine
 62
7
  6
CONTINUOUS
 10
113.851390813
 20
21.7088631002
 11
117.651160813
 21
21.7088631002
  0
LINE
  5
55E
100
AcDbEntity
  8
0
100
AcDbLine
 62
7
  6
CONTINUOUS
 10
113.851390813
 20
21.7088631002
 11
117.651160813
 21
21.7088631002
  0
LINE
  5
55F
100
AcDbEntity
  8
COPY-PUBBLISH
100
AcDbLine
 62
7
  6
CONTINUOUS
 10
70.4802477072
 20
21.8167891002
 11
66.849636813
 21
21.8167891002
  0
LINE
  5
560
100
AcDbEntity
  8
COPY-PUBBLISH
100
AcDbLine
 62
7
  6
CONTINUOUS
 10
117.651160813
 20
22.5019761002
 11
113.851390813
 21
22.5019761002
  0
LINE
  5
561
100
AcDbEntity
  8
0
100
AcDbLine
 62
7
  6
CONTINUOUS
 10
117.651160813
 20
22.5019761002
 11
113.851390813
 21
22.5019761002
  0
LINE
  5
562
100
AcDbEntity
  8
0
100
AcDbLine
 62
7
  6
CONTINUOUS
 10
116.332420813
 20
20.3519991002
 11
113.851390813
 21
20.5231531002
  0
LINE
  5
563
100
AcDbEntity
  8
COPY-PUBBLISH
100
AcDbLine
 62
7
  6
CONTINUOUS
 10
113.851390813
 20
20.5231531002
 11
116.332420813
 21
20.3519991002
  0
LINE
  5
564
100
AcDbEntity
  8
0
100
AcDbLine
 62
7
  6
CONTINUOUS
 10
116.606915813
 20
15.7434731002
 11
115.196857813
 21
16.1383781002
  0
LINE
  5
565
100
AcDbEntity
  8
COPY-PUBBLISH
100
AcDbLine
 62
7
  6
CONTINUOUS
 10
115.196857813
 20
16.1383781002
 11
116.606915813
 21
15.7434731002
  0
LINE
  5
566
100
AcDbEntity
  8
0
100
AcDbLine
 62
7
  6
CONTINUOUS
 10
114.609914813
 20
16.3006131002
 11
113.851390813
 21
16.5194631002
  0
LINE
  5
567
100
AcDbEntity
  8
COPY-PUBBLISH
100
AcDbLine
 62
7
  6
CONTINUOUS
 10
113.851390813
 20
16.5194631002
 11
114.609914813
 21
16.3006131002
  0
LINE
  5
568
100
AcDbEntity
  8
COPY-PUBBLISH
100
AcDbLine
 62
7
  6
CONTINUOUS
 10
117.650932813
 20
16.1121931002
 11
113.851390813
 21
17.3039721002
  0
LINE
  5
569
100
AcDbEntity
  8
0
100
AcDbLine
 62
7
  6
CONTINUOUS
 10
113.851390813
 20
17.3039721002
 11
117.650932813
 21
16.1121931002
  0
LINE
  5
56A
100
AcDbEntity
  8
0
100
AcDbLine
 62
7
  6
CONTINUOUS
 10
119.849636813
 20
-22.6346777376
 11
119.849636813
 21
34.468255938
  0
LINE
  5
56B
100
AcDbEntity
  8
COPY-PUBBLISH
100
AcDbLine
 62
7
  6
CONTINUOUS
 10
115.4411261877
 20
-11.7061274314
 11
115.5134666046
 21
-11.5644608998
  0
LINE
  5
56C
100
AcDbEntity
  8
COPY-PUBBLISH
100
AcDbLine
 62
7
  6
CONTINUOUS
 10
115.4411261877
 20
-13.2290439629
 11
115.5134666046
 21
-13.0873778367
  0
LINE
  5
56D
100
AcDbEntity
  8
COPY-PUBBLISH
100
AcDbLine
 62
7
  6
CONTINUOUS
 10
114.6092112919
 20
-13.0873778367
 11
114.536870875
 21
-13.1936278367
  0
LINE
  5
56E
100
AcDbEntity
  8
COPY-PUBBLISH
100
AcDbLine
 62
7
  6
CONTINUOUS
 10
115.3326155623
 20
-13.0519608998
 11
115.2602751454
 21
-13.1582108998
  0
LINE
  5
56F
100
AcDbEntity
  8
COPY-PUBBLISH
100
AcDbLine
 62
7
  6
CONTINUOUS
 10
115.2964453539
 20
-13.3707108998
 11
115.4411261877
 21
-13.2290439629
  0
LINE
  5
570
100
AcDbEntity
  8
0
100
AcDbLine
 62
253
  6
CONTINUOUS
 10
124.1811828541
 20
26.4698151011
 11
124.4265998517
 21
26.4800964086
  0
LINE
  5
571
100
AcDbEntity
  8
COPY-PUBBLISH
100
AcDbLine
 62
7
  6
CONTINUOUS
 10
98.849636813
 20
23.2167891002
 11
87.849636813
 21
23.2167891002
  0
LINE
  5
572
100
AcDbEntity
  8
COPY-PUBBLISH
100
AcDbLine
 62
7
  6
CONTINUOUS
 10
70.849636813
 20
23.4167891002
 11
71.849636813
 21
23.4167891002
  0
LINE
  5
573
100
AcDbEntity
  8
DRAFT
100
AcDbLine
 62
7
  6
CONTINUOUS
 10
98.849636813
 20
23.053470882
 11
87.849636813
 21
23.0618694039
  0
LINE
  5
574
100
AcDbEntity
  8
COPY-PUBBLISH
100
AcDbLine
 62
7
  6
CONTINUOUS
 10
117.650932813
 20
20.9388281002
 11
113.851390813
 21
21.2819051002
  0
LINE
  5
575
100
AcDbEntity
  8
0
100
AcDbLine
 62
7
  6
CONTINUOUS
 10
113.851390813
 20
21.2819051002
 11
117.650932813
 21
20.9388281002
  0
LINE
  5
576
100
AcDbEntity
  8
COPY-PUBBLISH
100
AcDbLine
 62
7
  6
CONTINUOUS
 10
117.650932813
 20
18.5685201002
 11
115.541415813
 21
19.3616331002
  0
LINE
  5
577
100
AcDbEntity
  8
0
100
AcDbLine
 62
7
  6
CONTINUOUS
 10
115.541415813
 20
19.3616331002
 11
117.650932813
 21
18.5685201002
  0
LINE
  5
578
100
AcDbEntity
  8
0
100
AcDbLine
 62
7
  6
CONTINUOUS
 10
116.322077813
 20
18.3673351002
 11
113.851390813
 21
19.3103471002
  0
LINE
  5
579
100
AcDbEntity
  8
COPY-PUBBLISH
100
AcDbLine
 62
7
  6
CONTINUOUS
 10
113.851390813
 20
19.3103471002
 11
116.322077813
 21
18.3673351002
  0
LINE
  5
57A
100
AcDbEntity
  8
COPY-PUBBLISH
100
AcDbLine
 62
7
  6
CONTINUOUS
 10
117.650932813
 20
23.5888741002
 11
115.035590813
 21
24.3352601002
  0
LINE
  5
57B
100
AcDbEntity
  8
0
100
AcDbLine
 62
7
  6
CONTINUOUS
 10
115.035590813
 20
24.3352601002
 11
117.650932813
 21
23.5888741002
  0
LINE
  5
57C
100
AcDbEntity
  8
0
100
AcDbLine
 62
7
  6
CONTINUOUS
 10
117.650932813
 20
22.7963021002
 11
113.851390813
 21
24.0176271002
  0
LINE
  5
57D
100
AcDbEntity
  8
COPY-PUBBLISH
100
AcDbLine
 62
7
  6
CONTINUOUS
 10
113.851390813
 20
24.0176271002
 11
117.650932813
 21
22.7963021002
  0
LINE
  5
57E
100
AcDbEntity
  8
0
100
AcDbLine
 62
253
  6
CONTINUOUS
 10
122.9976603708
 20
27.6666937504
 11
119.849636813
 21
27.8316746742
  0
LINE
  5
57F
100
AcDbEntity
  8
0
100
AcDbLine
 62
7
  6
CONTINUOUS
 10
123.0063812582
 20
27.916351134
 11
119.849636813
 21
28.0817891002
  0
LINE
  5
580
100
AcDbEntity
  8
RACCORDO
100
AcDbLine
 62
7
  6
CONTINUOUS
 10
66.849636813
 20
37.7675898832
 11
118.4019860581
 21
35.9673421785
  0
ARC
  5
581
100
AcDbEntity
  8
ASSI
100
AcDbCircle
 62
7
  6
CONTINUOUS
 10
-24.761402
 20
5.9167881002
 40
2.2949984646
100
AcDbArc
 50
87.7525288774
 51
272.2474711226
  0
ARC
  5
582
100
AcDbEntity
  8
ASSI
100
AcDbCircle
 62
7
  6
CONTINUOUS
 10
-28.708001
 20
5.9167881002
 40
2.2949983861
100
AcDbArc
 50
87.7525288006
 51
272.2474711994
  0
ARC
  5
583
100
AcDbEntity
  8
ASSI
100
AcDbCircle
 62
7
  6
CONTINUOUS
 10
-28.708001
 20
5.9167881002
 40
1.6199999321
100
AcDbArc
 50
86.8152613297
 51
269.2725455975
  0
ARC
  5
584
100
AcDbEntity
  8
ASSI
100
AcDbCircle
 62
7
  6
CONTINUOUS
 10
-24.761402
 20
5.9167881002
 40
1.6199999321
100
AcDbArc
 50
86.8152613297
 51
167.9753003079
  0
ARC
  5
585
100
AcDbEntity
  8
ASSI
100
AcDbCircle
 62
7
  6
CONTINUOUS
 10
-24.761402
 20
5.9167881002
 40
1.6199972906
100
AcDbArc
 50
192.0247195925
 51
273.1847438687
  0
ARC
  5
586
100
AcDbEntity
  8
RACCORDO
100
AcDbCircle
 62
253
  6
CONTINUOUS
 10
-33.95
 20
1.8667891002
 40
0.5999971519
100
AcDbArc
 50
0.0
 51
70.5135184302
  0
ARC
  5
587
100
AcDbEntity
  8
RACCORDO
100
AcDbCircle
 62
253
  6
CONTINUOUS
 10
-33.95
 20
9.9667891002
 40
0.5999971522
100
AcDbArc
 50
289.4864815402
 51
360.0
  0
ARC
  5
588
100
AcDbEntity
  8
RACCORDO
100
AcDbCircle
 62
253
  6
CONTINUOUS
 10
33.95
 20
9.9667891002
 40
0.5999971519
100
AcDbArc
 50
180.0
 51
250.5135184302
  0
ARC
  5
589
100
AcDbEntity
  8
RACCORDO
100
AcDbCircle
 62
253
  6
CONTINUOUS
 10
33.95
 20
1.8667891002
 40
0.5999971522
100
AcDbArc
 50
109.4864815402
 51
180.0
  0
ARC
  5
58A
100
AcDbEntity
  8
RACCORDO
100
AcDbCircle
 62
7
  6
CONTINUOUS
 10
33.95
 20
9.9667891002
 40
0.3
100
AcDbArc
 50
180.0
 51
228.1642221061
  0
ARC
  5
58B
100
AcDbEntity
  8
RACCORDO
100
AcDbCircle
 62
7
  6
CONTINUOUS
 10
33.95
 20
1.8667891002
 40
0.3
100
AcDbArc
 50
131.8357778648
 51
180.0
  0
ARC
  5
58C
100
AcDbEntity
  8
RACCORDO
100
AcDbCircle
 62
7
  6
CONTINUOUS
 10
-33.95
 20
1.8667891002
 40
0.3
100
AcDbArc
 50
0.0
 51
48.1642221061
  0
ARC
  5
58D
100
AcDbEntity
  8
RACCORDO
100
AcDbCircle
 62
7
  6
CONTINUOUS
 10
-33.95
 20
9.9667891002
 40
0.3
100
AcDbArc
 50
311.8357778648
 51
360.0
  0
ARC
  5
58E
100
AcDbEntity
  8
0
100
AcDbCircle
 62
253
  6
CONTINUOUS
 10
-35.4949676922
 20
-15.832668125
 40
0.2500959911
100
AcDbArc
 50
180.1025079778
 51
269.9721823257
  0
ARC
  5
58F
100
AcDbEntity
  8
0
100
AcDbCircle
 62
7
  6
CONTINUOUS
 10
35.5499166498
 20
27.831227248
 40
0.2500959906
100
AcDbArc
 50
0.1025082427
 51
89.9721827764
  0
ARC
  5
590
100
AcDbEntity
  8
0
100
AcDbCircle
 62
253
  6
CONTINUOUS
 10
35.4949676939
 20
27.6662463243
 40
0.2500959907
100
AcDbArc
 50
0.1025082212
 51
89.9721827129
  0
ARC
  5
591
100
AcDbEntity
  8
0
100
AcDbCircle
 62
253
  6
CONTINUOUS
 10
35.4949676943
 20
-15.8326681239
 40
0.2500959906
100
AcDbArc
 50
270.0278172077
 51
359.8974917732
  0
ARC
  5
592
100
AcDbEntity
  8
0
100
AcDbCircle
 62
7
  6
CONTINUOUS
 10
-35.5499166484
 20
-15.9976490491
 40
0.2500959906
100
AcDbArc
 50
180.1025079068
 51
269.9721824576
  0
ARC
  5
593
100
AcDbEntity
  8
0
100
AcDbCircle
 62
253
  6
CONTINUOUS
 10
-35.4949676928
 20
27.6662463256
 40
0.2500959906
100
AcDbArc
 50
90.0278175431
 51
179.8974920925
  0
ARC
  5
594
100
AcDbEntity
  8
0
100
AcDbCircle
 62
7
  6
CONTINUOUS
 10
35.5501692498
 20
-15.9976706378
 40
0.249843971
100
AcDbArc
 50
269.9611882382
 51
359.9547800983
  0
ARC
  5
595
100
AcDbEntity
  8
0
100
AcDbCircle
 62
7
  6
CONTINUOUS
 10
-35.5501692483
 20
27.8312488397
 40
0.249843971
100
AcDbArc
 50
89.9611885731
 51
179.9547804482
  0
ARC
  5
596
100
AcDbEntity
  8
COPY-PUBBLISH
100
AcDbCircle
 62
7
  6
CONTINUOUS
 10
-86.3995744543
 20
-4.3832108998
 40
7.0
100
AcDbArc
 50
270.0
 51
360.0
  0
ARC
  5
597
100
AcDbEntity
  8
COPY-PUBBLISH
100
AcDbCircle
 62
7
  6
CONTINUOUS
 10
-97.3995744543
 20
-4.3832108998
 40
7.0
100
AcDbArc
 50
180.0
 51
270.0
  0
ARC
  5
598
100
AcDbEntity
  8
COPY-PUBBLISH
100
AcDbCircle
 62
7
  6
CONTINUOUS
 10
-114.4236044543
 20
-12.0591808998
 40
2.0240299518
100
AcDbArc
 50
22.0885566458
 51
3.4299178772
  0
ARC
  5
599
100
AcDbEntity
  8
RACCORDO
100
AcDbCircle
 62
7
  6
CONTINUOUS
 10
-67.3995744543
 20
-29.7547837751
 40
2.0
100
AcDbArc
 50
315.0
 51
360.0
  0
ARC
  5
59A
100
AcDbEntity
  8
RACCORDO
100
AcDbCircle
 62
7
  6
CONTINUOUS
 10
-73.4135989084
 20
-35.7688082292
 40
2.0
100
AcDbArc
 50
268.0
 51
315.0
  0
ARC
  5
59B
100
AcDbEntity
  8
RACCORDO
100
AcDbCircle
 62
7
  6
CONTINUOUS
 10
-73.529287377
 20
-27.3992153236
 40
2.0
100
AcDbArc
 50
272.0
 51
315.0
  0
ARC
  5
59C
100
AcDbEntity
  8
RACCORDO
100
AcDbCircle
 62
7
  6
CONTINUOUS
 10
-73.3995744543
 20
-27.2695024008
 40
2.0
100
AcDbArc
 50
315.0
 51
360.0
  0
ARC
  5
59D
100
AcDbEntity
  8
COPY-PUBBLISH
100
AcDbCircle
 62
7
  6
CONTINUOUS
 10
-110.6080474543
 20
-12.1203988998
 40
1.8043863978
100
AcDbArc
 50
137.231266101
 51
174.2010765521
  0
ARC
  5
59E
100
AcDbEntity
  8
COPY-PUBBLISH
100
AcDbCircle
 62
7
  6
CONTINUOUS
 10
-110.9003174543
 20
-11.9783948998
 40
1.7827326018
100
AcDbArc
 50
135.4348873351
 51
157.5658581852
  0
CIRCLE
  5
59F
100
AcDbEntity
  8
COPY-PUBBLISH
100
AcDbCircle
 62
7
  6
CONTINUOUS
 10
-114.4236044543
 20
-12.0591808998
 40
1.700044
  0
ARC
  5
5A0
100
AcDbEntity
  8
COPY-PUBBLISH
100
AcDbCircle
 62
7
  6
CONTINUOUS
 10
-114.4236044543
 20
-12.0591808998
 40
1.5204522959
100
AcDbArc
 50
224.9002633258
 51
330.6958580291
  0
ARC
  5
5A1
100
AcDbEntity
  8
COPY-PUBBLISH
100
AcDbCircle
 62
7
  6
CONTINUOUS
 10
-114.4236044543
 20
-12.0591808998
 40
1.5204512254
100
AcDbArc
 50
29.3041419708
 51
134.9957927719
  0
ARC
  5
5A2
100
AcDbEntity
  8
0
100
AcDbCircle
 62
7
  6
CONTINUOUS
 10
-121.4778149651
 20
-14.5848286315
 40
1.5
100
AcDbArc
 50
182.3570443783
 51
267.0
  0
ARC
  5
5A3
100
AcDbEntity
  8
RACCORDO
100
AcDbCircle
 62
7
  6
CONTINUOUS
 10
-75.6995744543
 20
-27.9753081905
 40
1.5
100
AcDbArc
 50
180.0
 51
272.0
  0
ARC
  5
5A4
100
AcDbEntity
  8
RACCORDO
100
AcDbCircle
 62
7
  6
CONTINUOUS
 10
-75.6995744543
 20
-27.0832108998
 40
1.5
100
AcDbArc
 50
90.0
 51
180.0
  0
ARC
  5
5A5
100
AcDbEntity
  8
RACCORDO
100
AcDbCircle
 62
7
  6
CONTINUOUS
 10
-105.8995744543
 20
-35.1346777376
 40
1.5
100
AcDbArc
 50
180.0
 51
268.0
  0
ARC
  5
5A6
100
AcDbEntity
  8
ASSI
100
AcDbCircle
 62
7
  6
CONTINUOUS
 10
-105.8995744543
 20
-32.031744062
 40
1.5
100
AcDbArc
 50
140.0
 51
180.0
  0
ARC
  5
5A7
100
AcDbEntity
  8
RACCORDO
100
AcDbCircle
 62
7
  6
CONTINUOUS
 10
-116.8995744543
 20
-22.6346777376
 40
1.5
100
AcDbArc
 50
180.0
 51
268.0
  0
ARC
  5
5A8
100
AcDbEntity
  8
ASSI
100
AcDbCircle
 62
7
  6
CONTINUOUS
 10
-103.7867048872
 20
-29.5137241648
 40
1.5
100
AcDbArc
 50
90.5
 51
140.0
  0
ARC
  5
5A9
100
AcDbEntity
  8
0
100
AcDbCircle
 62
253
  6
CONTINUOUS
 10
-121.4821775036
 20
-14.5848280747
 40
1.2500005855
100
AcDbArc
 50
182.3570706917
 51
266.9999755607
  0
ARC
  5
5AA
100
AcDbEntity
  8
RACCORDO
100
AcDbCircle
 62
7
  6
CONTINUOUS
 10
-82.443462364
 20
-26.5834721165
 40
1.2438879098
100
AcDbArc
 50
270.5
 51
88.0
  0
ARC
  5
5AB
100
AcDbEntity
  8
COPY-PUBBLISH
100
AcDbCircle
 62
7
  6
CONTINUOUS
 10
-114.4236044543
 20
-12.0591808998
 40
1.2181566122
100
AcDbArc
 50
29.3041277351
 51
121.973265948
  0
ARC
  5
5AC
100
AcDbEntity
  8
COPY-PUBBLISH
100
AcDbCircle
 62
7
  6
CONTINUOUS
 10
-114.4236044543
 20
-12.0591808998
 40
1.2181564327
100
AcDbArc
 50
238.0267046423
 51
330.695872265
  0
ARC
  5
5AD
100
AcDbEntity
  8
0
100
AcDbCircle
 62
7
  6
CONTINUOUS
 10
-73.1995744543
 20
-24.7832108998
 40
0.8
100
AcDbArc
 50
270.0
 51
360.0
  0
ARC
  5
5AE
100
AcDbEntity
  8
0
100
AcDbCircle
 62
7
  6
CONTINUOUS
 10
-73.1995744543
 20
-24.2121173163
 40
0.8
100
AcDbArc
 50
0.0
 51
88.0
  0
ARC
  5
5AF
100
AcDbEntity
  8
RACCORDO
100
AcDbCircle
 62
7
  6
CONTINUOUS
 10
-71.5995744543
 20
-24.5332108998
 40
0.3
100
AcDbArc
 50
180.0
 51
270.0
  0
ARC
  5
5B0
100
AcDbEntity
  8
COPY-PUBBLISH
100
AcDbCircle
 62
7
  6
CONTINUOUS
 10
-71.0995744543
 20
-11.8832108998
 40
0.3
100
AcDbArc
 50
90.0
 51
180.0
  0
ARC
  5
5B1
100
AcDbEntity
  8
COPY-PUBBLISH
100
AcDbCircle
 62
7
  6
CONTINUOUS
 10
-73.0995744543
 20
-10.2832108998
 40
0.3
100
AcDbArc
 50
90.0
 51
180.0
  0
ARC
  5
5B2
100
AcDbEntity
  8
COPY-PUBBLISH
100
AcDbCircle
 62
7
  6
CONTINUOUS
 10
-97.3995744543
 20
16.2167891002
 40
7.0
100
AcDbArc
 50
90.0
 51
180.0
  0
ARC
  5
5B3
100
AcDbEntity
  8
COPY-PUBBLISH
100
AcDbCircle
 62
7
  6
CONTINUOUS
 10
-86.3995744543
 20
16.2167891002
 40
7.0
100
AcDbArc
 50
0.0
 51
90.0
  0
ARC
  5
5B4
100
AcDbEntity
  8
COPY-PUBBLISH
100
AcDbCircle
 62
7
  6
CONTINUOUS
 10
-114.9476144543
 20
25.8119011002
 40
2.5499986575
100
AcDbArc
 50
177.752529198
 51
2.247470802
  0
ARC
  5
5B5
100
AcDbEntity
  8
COPY-PUBBLISH
100
AcDbCircle
 62
7
  6
CONTINUOUS
 10
-114.9476144543
 20
21.4267911002
 40
2.5499985007
100
AcDbArc
 50
177.7525290597
 51
2.2474709403
  0
ARC
  5
5B6
100
AcDbEntity
  8
COPY-PUBBLISH
100
AcDbCircle
 62
7
  6
CONTINUOUS
 10
-114.9476144543
 20
25.8119011002
 40
1.7999999246
100
AcDbArc
 50
176.8152613297
 51
257.9753003079
  0
ARC
  5
5B7
100
AcDbEntity
  8
COPY-PUBBLISH
100
AcDbCircle
 62
7
  6
CONTINUOUS
 10
-114.9476144543
 20
21.4267911002
 40
1.7999999246
100
AcDbArc
 50
176.8152613297
 51
359.5079717399
  0
ARC
  5
5B8
100
AcDbEntity
  8
COPY-PUBBLISH
100
AcDbCircle
 62
7
  6
CONTINUOUS
 10
-114.9476144543
 20
25.8119011002
 40
1.7999968808
100
AcDbArc
 50
282.0247203293
 51
3.1847440612
  0
ARC
  5
5B9
100
AcDbEntity
  8
0
100
AcDbCircle
 62
7
  6
CONTINUOUS
 10
-121.4778149651
 20
26.4184068319
 40
1.5
100
AcDbArc
 50
93.0
 51
177.6429554129
  0
ARC
  5
5BA
100
AcDbEntity
  8
RACCORDO
100
AcDbCircle
 62
7
  6
CONTINUOUS
 10
-116.8995744543
 20
34.468255938
 40
1.5
100
AcDbArc
 50
92.0
 51
180.0
  0
ARC
  5
5BB
100
AcDbEntity
  8
0
100
AcDbCircle
 62
253
  6
CONTINUOUS
 10
-121.4821775024
 20
26.4184062739
 40
1.2500005868
100
AcDbArc
 50
93.0000244941
 51
177.6429292536
  0
ARC
  5
5BC
100
AcDbEntity
  8
COPY-PUBBLISH
100
AcDbCircle
 62
7
  6
CONTINUOUS
 10
-109.2374234543
 20
12.8368961002
 40
1.1568266175
100
AcDbArc
 50
70.5483239112
 51
90.0
  0
ARC
  5
5BD
100
AcDbEntity
  8
COPY-PUBBLISH
100
AcDbCircle
 62
7
  6
CONTINUOUS
 10
-109.2621104543
 20
12.8368961002
 40
1.156826
100
AcDbArc
 50
90.0
 51
109.4516760887
  0
ARC
  5
5BE
100
AcDbEntity
  8
COPY-PUBBLISH
100
AcDbCircle
 62
7
  6
CONTINUOUS
 10
-109.2618274543
 20
12.7245781002
 40
1.031527
100
AcDbArc
 50
90.0
 51
107.9561541104
  0
ARC
  5
5BF
100
AcDbEntity
  8
COPY-PUBBLISH
100
AcDbCircle
 62
7
  6
CONTINUOUS
 10
-109.2377054543
 20
12.7245781002
 40
1.0315267213
100
AcDbArc
 50
72.0438458896
 51
90.0
  0
ARC
  5
5C0
100
AcDbEntity
  8
COPY-PUBBLISH
100
AcDbCircle
 62
7
  6
CONTINUOUS
 10
-109.4158494543
 20
13.2722081002
 40
0.6954054621
100
AcDbArc
 50
109.4516760887
 51
142.3100155865
  0
ARC
  5
5C1
100
AcDbEntity
  8
COPY-PUBBLISH
100
AcDbCircle
 62
7
  6
CONTINUOUS
 10
-109.0836844543
 20
13.2722081002
 40
0.6954053955
100
AcDbArc
 50
37.6887883629
 51
70.5483239112
  0
ARC
  5
5C2
100
AcDbEntity
  8
COPY-PUBBLISH
100
AcDbCircle
 62
7
  6
CONTINUOUS
 10
-109.0930454543
 20
13.2878761002
 40
0.693471
100
AcDbArc
 50
0.0
 51
36.1913616191
  0
ARC
  5
5C3
100
AcDbEntity
  8
COPY-PUBBLISH
100
AcDbCircle
 62
7
  6
CONTINUOUS
 10
-109.4064884543
 20
13.2878761002
 40
0.6934706872
100
AcDbArc
 50
143.8074392595
 51
180.0
  0
ARC
  5
5C4
100
AcDbEntity
  8
COPY-PUBBLISH
100
AcDbCircle
 62
7
  6
CONTINUOUS
 10
-109.0849814543
 20
13.2587121002
 40
0.488897
100
AcDbArc
 50
0.0
 51
35.7972686276
  0
ARC
  5
5C5
100
AcDbEntity
  8
COPY-PUBBLISH
100
AcDbCircle
 62
7
  6
CONTINUOUS
 10
-109.4145524543
 20
13.2587121002
 40
0.4888963883
100
AcDbArc
 50
144.2008018533
 51
180.0
  0
ARC
  5
5C6
100
AcDbEntity
  8
COPY-PUBBLISH
100
AcDbCircle
 62
7
  6
CONTINUOUS
 10
-109.4309084543
 20
13.2463141002
 40
0.4832812087
100
AcDbArc
 50
107.9561541104
 51
141.8737358433
  0
ARC
  5
5C7
100
AcDbEntity
  8
COPY-PUBBLISH
100
AcDbCircle
 62
7
  6
CONTINUOUS
 10
-109.0686244543
 20
13.2463141002
 40
0.4832803647
100
AcDbArc
 50
38.1243840753
 51
72.0438458896
  0
ARC
  5
5C8
100
AcDbEntity
  8
RACCORDO
100
AcDbCircle
 62
7
  6
CONTINUOUS
 10
-70.6995744543
 20
9.3667891002
 40
0.3
100
AcDbArc
 50
0.0
 51
90.0
  0
ARC
  5
5C9
100
AcDbEntity
  8
RACCORDO
100
AcDbCircle
 62
7
  6
CONTINUOUS
 10
-70.6995744543
 20
2.4667891002
 40
0.3
100
AcDbArc
 50
270.0
 51
360.0
  0
ARC
  5
5CA
100
AcDbEntity
  8
RACCORDO
100
AcDbCircle
 62
7
  6
CONTINUOUS
 10
-71.5995744543
 20
2.4667891002
 40
0.3
100
AcDbArc
 50
180.0
 51
270.0
  0
ARC
  5
5CB
100
AcDbEntity
  8
RACCORDO
100
AcDbCircle
 62
7
  6
CONTINUOUS
 10
-71.5995744543
 20
9.3667891002
 40
0.3
100
AcDbArc
 50
90.0
 51
180.0
  0
ARC
  5
5CC
100
AcDbEntity
  8
COPY-PUBBLISH
100
AcDbCircle
 62
7
  6
CONTINUOUS
 10
-68.6995744543
 20
0.2167891002
 40
0.3
100
AcDbArc
 50
270.0
 51
360.0
  0
ARC
  5
5CD
100
AcDbEntity
  8
COPY-PUBBLISH
100
AcDbCircle
 62
7
  6
CONTINUOUS
 10
-68.6995744543
 20
11.6167891002
 40
0.3
100
AcDbArc
 50
0.0
 51
90.0
  0
ARC
  5
5CE
100
AcDbEntity
  8
COPY-PUBBLISH
100
AcDbCircle
 62
7
  6
CONTINUOUS
 10
-70.6995744543
 20
2.2167891002
 40
0.3
100
AcDbArc
 50
270.0
 51
360.0
  0
ARC
  5
5CF
100
AcDbEntity
  8
COPY-PUBBLISH
100
AcDbCircle
 62
7
  6
CONTINUOUS
 10
-70.6995744543
 20
9.6167891002
 40
0.3
100
AcDbArc
 50
0.0
 51
90.0
  0
ARC
  5
5D0
100
AcDbEntity
  8
COPY-PUBBLISH
100
AcDbCircle
 62
7
  6
CONTINUOUS
 10
-72.0995744543
 20
9.6167891002
 40
0.3
100
AcDbArc
 50
90.0
 51
180.0
  0
ARC
  5
5D1
100
AcDbEntity
  8
COPY-PUBBLISH
100
AcDbCircle
 62
7
  6
CONTINUOUS
 10
-72.0995744543
 20
2.2167891002
 40
0.3
100
AcDbArc
 50
180.0
 51
270.0
  0
ARC
  5
5D2
100
AcDbEntity
  8
COPY-PUBBLISH
100
AcDbCircle
 62
7
  6
CONTINUOUS
 10
-70.0995744543
 20
12.2167891002
 40
0.3
100
AcDbArc
 50
180.0
 51
270.0
  0
ARC
  5
5D3
100
AcDbEntity
  8
COPY-PUBBLISH
100
AcDbCircle
 62
7
  6
CONTINUOUS
 10
-70.0995744543
 20
-0.3832108998
 40
0.3
100
AcDbArc
 50
90.0
 51
180.0
  0
ARC
  5
5D4
100
AcDbEntity
  8
0
100
AcDbCircle
 62
7
  6
CONTINUOUS
 10
376.6004255457
 20
5.9167891002
 40
500.0
100
AcDbArc
 50
177.6429537527
 51
182.3570462467
  0
ARC
  5
5D5
100
AcDbEntity
  8
0
100
AcDbCircle
 62
253
  6
CONTINUOUS
 10
376.5950976944
 20
5.9167891002
 40
499.7490360665
100
AcDbArc
 50
177.6429491987
 51
182.3570508013
  0
ARC
  5
5D6
100
AcDbEntity
  8
0
100
AcDbCircle
 62
7
  6
CONTINUOUS
 10
-375.150363187
 20
5.9167891002
 40
500.0
100
AcDbArc
 50
357.6429537533
 51
2.3570462473
  0
ARC
  5
5D7
100
AcDbEntity
  8
0
100
AcDbCircle
 62
253
  6
CONTINUOUS
 10
-375.1450353356
 20
5.9167891002
 40
499.7490360665
100
AcDbArc
 50
357.6429491987
 51
2.3570508013
  0
ARC
  5
5D8
100
AcDbEntity
  8
RACCORDO
100
AcDbCircle
 62
7
  6
CONTINUOUS
 10
74.8636612672
 20
-35.7688082292
 40
2.0
100
AcDbArc
 50
225.0
 51
272.0
  0
ARC
  5
5D9
100
AcDbEntity
  8
RACCORDO
100
AcDbCircle
 62
7
  6
CONTINUOUS
 10
68.849636813
 20
-29.7547837751
 40
2.0
100
AcDbArc
 50
180.0
 51
225.0
  0
ARC
  5
5DA
100
AcDbEntity
  8
RACCORDO
100
AcDbCircle
 62
7
  6
CONTINUOUS
 10
74.9793497358
 20
-27.3992153236
 40
2.0
100
AcDbArc
 50
225.0
 51
268.0
  0
ARC
  5
5DB
100
AcDbEntity
  8
RACCORDO
100
AcDbCircle
 62
7
  6
CONTINUOUS
 10
74.849636813
 20
-27.2695024008
 40
2.0
100
AcDbArc
 50
180.0
 51
225.0
  0
ARC
  5
5DC
100
AcDbEntity
  8
RACCORDO
100
AcDbCircle
 62
7
  6
CONTINUOUS
 10
77.149636813
 20
-27.0832108998
 40
1.5
100
AcDbArc
 50
0.0
 51
90.0
  0
ARC
  5
5DD
100
AcDbEntity
  8
RACCORDO
100
AcDbCircle
 62
7
  6
CONTINUOUS
 10
77.149636813
 20
-27.9753081905
 40
1.5
100
AcDbArc
 50
268.0
 51
360.0
  0
ARC
  5
5DE
100
AcDbEntity
  8
RACCORDO
100
AcDbCircle
 62
7
  6
CONTINUOUS
 10
83.8935247228
 20
-26.5834721165
 40
1.2438879098
100
AcDbArc
 50
92.0
 51
269.5
  0
ARC
  5
5DF
100
AcDbEntity
  8
0
100
AcDbCircle
 62
7
  6
CONTINUOUS
 10
74.649636813
 20
-24.2121173163
 40
0.8
100
AcDbArc
 50
92.0
 51
180.0
  0
ARC
  5
5E0
100
AcDbEntity
  8
0
100
AcDbCircle
 62
7
  6
CONTINUOUS
 10
74.649636813
 20
-24.7832108998
 40
0.8
100
AcDbArc
 50
180.0
 51
270.0
  0
ARC
  5
5E1
100
AcDbEntity
  8
RACCORDO
100
AcDbCircle
 62
7
  6
CONTINUOUS
 10
73.049636813
 20
-24.5332108998
 40
0.3
100
AcDbArc
 50
270.0
 51
360.0
  0
ARC
  5
5E2
100
AcDbEntity
  8
COPY-PUBBLISH
100
AcDbCircle
 62
7
  6
CONTINUOUS
 10
72.549636813
 20
-11.8832108998
 40
0.3
100
AcDbArc
 50
0.0
 51
90.0
  0
ARC
  5
5E3
100
AcDbEntity
  8
COPY-PUBBLISH
100
AcDbCircle
 62
7
  6
CONTINUOUS
 10
74.549636813
 20
-10.2832108998
 40
0.3
100
AcDbArc
 50
0.0
 51
90.0
  0
ARC
  5
5E4
100
AcDbEntity
  8
COPY-PUBBLISH
100
AcDbCircle
 62
7
  6
CONTINUOUS
 10
87.849636813
 20
-4.3832108998
 40
7.0
100
AcDbArc
 50
180.0
 51
270.0
  0
ARC
  5
5E5
100
AcDbEntity
  8
COPY-PUBBLISH
100
AcDbCircle
 62
7
  6
CONTINUOUS
 10
87.849636813
 20
16.2167891002
 40
7.0
100
AcDbArc
 50
90.0
 51
180.0
  0
ARC
  5
5E6
100
AcDbEntity
  8
RACCORDO
100
AcDbCircle
 62
7
  6
CONTINUOUS
 10
72.149636813
 20
2.4667891002
 40
0.3
100
AcDbArc
 50
180.0
 51
270.0
  0
ARC
  5
5E7
100
AcDbEntity
  8
RACCORDO
100
AcDbCircle
 62
7
  6
CONTINUOUS
 10
72.149636813
 20
9.3667891002
 40
0.3
100
AcDbArc
 50
90.0
 51
180.0
  0
ARC
  5
5E8
100
AcDbEntity
  8
RACCORDO
100
AcDbCircle
 62
7
  6
CONTINUOUS
 10
73.049636813
 20
9.3667891002
 40
0.3
100
AcDbArc
 50
0.0
 51
90.0
  0
ARC
  5
5E9
100
AcDbEntity
  8
RACCORDO
100
AcDbCircle
 62
7
  6
CONTINUOUS
 10
73.049636813
 20
2.4667891002
 40
0.3
100
AcDbArc
 50
270.0
 51
360.0
  0
ARC
  5
5EA
100
AcDbEntity
  8
COPY-PUBBLISH
100
AcDbCircle
 62
7
  6
CONTINUOUS
 10
70.149636813
 20
0.2167891002
 40
0.3
100
AcDbArc
 50
180.0
 51
270.0
  0
ARC
  5
5EB
100
AcDbEntity
  8
COPY-PUBBLISH
100
AcDbCircle
 62
7
  6
CONTINUOUS
 10
70.149636813
 20
11.6167891002
 40
0.3
100
AcDbArc
 50
90.0
 51
180.0
  0
ARC
  5
5EC
100
AcDbEntity
  8
COPY-PUBBLISH
100
AcDbCircle
 62
7
  6
CONTINUOUS
 10
72.149636813
 20
2.2167891002
 40
0.3
100
AcDbArc
 50
180.0
 51
270.0
  0
ARC
  5
5ED
100
AcDbEntity
  8
COPY-PUBBLISH
100
AcDbCircle
 62
7
  6
CONTINUOUS
 10
72.149636813
 20
9.6167891002
 40
0.3
100
AcDbArc
 50
90.0
 51
180.0
  0
ARC
  5
5EE
100
AcDbEntity
  8
COPY-PUBBLISH
100
AcDbCircle
 62
7
  6
CONTINUOUS
 10
73.549636813
 20
9.6167891002
 40
0.3
100
AcDbArc
 50
0.0
 51
90.0
  0
ARC
  5
5EF
100
AcDbEntity
  8
COPY-PUBBLISH
100
AcDbCircle
 62
7
  6
CONTINUOUS
 10
73.549636813
 20
2.2167891002
 40
0.3
100
AcDbArc
 50
270.0
 51
360.0
  0
ARC
  5
5F0
100
AcDbEntity
  8
COPY-PUBBLISH
100
AcDbCircle
 62
7
  6
CONTINUOUS
 10
71.549636813
 20
-0.3832108998
 40
0.3
100
AcDbArc
 50
0.0
 51
90.0
  0
ARC
  5
5F1
100
AcDbEntity
  8
COPY-PUBBLISH
100
AcDbCircle
 62
7
  6
CONTINUOUS
 10
71.549636813
 20
12.2167891002
 40
0.3
100
AcDbArc
 50
270.0
 51
360.0
  0
ARC
  5
5F2
100
AcDbEntity
  8
0
100
AcDbCircle
 62
7
  6
CONTINUOUS
 10
122.9278773239
 20
-14.5848286315
 40
1.5
100
AcDbArc
 50
273.0
 51
357.6429556217
  0
ARC
  5
5F3
100
AcDbEntity
  8
RACCORDO
100
AcDbCircle
 62
7
  6
CONTINUOUS
 10
107.349636813
 20
-35.1346777376
 40
1.5
100
AcDbArc
 50
272.0
 51
360.0
  0
ARC
  5
5F4
100
AcDbEntity
  8
ASSI
100
AcDbCircle
 62
7
  6
CONTINUOUS
 10
107.349636813
 20
-32.031744062
 40
1.5
100
AcDbArc
 50
0.0
 51
40.0
  0
ARC
  5
5F5
100
AcDbEntity
  8
RACCORDO
100
AcDbCircle
 62
7
  6
CONTINUOUS
 10
118.349636813
 20
-22.6346777376
 40
1.5
100
AcDbArc
 50
272.0
 51
360.0
  0
ARC
  5
5F6
100
AcDbEntity
  8
ASSI
100
AcDbCircle
 62
7
  6
CONTINUOUS
 10
105.236767246
 20
-29.5137241648
 40
1.5
100
AcDbArc
 50
40.0
 51
89.5
  0
ARC
  5
5F7
100
AcDbEntity
  8
0
100
AcDbCircle
 62
253
  6
CONTINUOUS
 10
122.9322398625
 20
-14.5848280749
 40
1.2500005854
100
AcDbArc
 50
273.0000244325
 51
357.6429293152
  0
ARC
  5
5F8
100
AcDbEntity
  8
COPY-PUBBLISH
100
AcDbCircle
 62
7
  6
CONTINUOUS
 10
98.849636813
 20
-4.3832108998
 40
7.0
100
AcDbArc
 50
270.0
 51
360.0
  0
ARC
  5
5F9
100
AcDbEntity
  8
COPY-PUBBLISH
100
AcDbCircle
 62
7
  6
CONTINUOUS
 10
98.849636813
 20
16.2167891002
 40
7.0
100
AcDbArc
 50
0.0
 51
90.0
  0
ARC
  5
5FA
100
AcDbEntity
  8
0
100
AcDbCircle
 62
7
  6
CONTINUOUS
 10
114.8324091332
 20
12.5288979066
 40
1.0442345419
100
AcDbArc
 50
298.3286663043
 51
300.2893511927
  0
ARC
  5
5FB
100
AcDbEntity
  8
0
100
AcDbCircle
 62
7
  6
CONTINUOUS
 10
114.8652986374
 20
12.4722036024
 40
0.9786912505
100
AcDbArc
 50
300.3007676739
 51
301.2514176968
  0
ARC
  5
5FC
100
AcDbEntity
  8
0
100
AcDbCircle
 62
7
  6
CONTINUOUS
 10
114.8971084527
 20
12.4201587887
 40
0.9176954556
100
AcDbArc
 50
301.2393290282
 51
303.3670724927
  0
ARC
  5
5FD
100
AcDbEntity
  8
0
100
AcDbCircle
 62
7
  6
CONTINUOUS
 10
114.9274296341
 20
12.3737649777
 40
0.8622723565
100
AcDbArc
 50
303.3799283895
 51
304.3199180141
  0
ARC
  5
5FE
100
AcDbEntity
  8
0
100
AcDbCircle
 62
7
  6
CONTINUOUS
 10
114.9569952259
 20
12.3308104361
 40
0.8101266539
100
AcDbArc
 50
304.3057763522
 51
306.6619022416
  0
ARC
  5
5FF
100
AcDbEntity
  8
0
100
AcDbCircle
 62
7
  6
CONTINUOUS
 10
114.9857850577
 20
12.291812455
 40
0.7616533812
100
AcDbArc
 50
306.6762670778
 51
307.6953704663
  0
ARC
  5
600
100
AcDbEntity
  8
0
100
AcDbCircle
 62
7
  6
CONTINUOUS
 10
115.0150109507
 20
12.254367206
 40
0.7141534503
100
AcDbArc
 50
307.676976371
 51
310.4841680466
  0
ARC
  5
601
100
AcDbEntity
  8
0
100
AcDbCircle
 62
7
  6
CONTINUOUS
 10
115.0405758587
 20
12.2240465905
 40
0.6744943688
100
AcDbArc
 50
310.5046398752
 51
311.2271971849
  0
ARC
  5
602
100
AcDbEntity
  8
0
100
AcDbCircle
 62
7
  6
CONTINUOUS
 10
115.2091162005
 20
12.0750392939
 40
0.4485363422
100
AcDbArc
 50
328.5256703343
 51
332.8552618824
  0
ARC
  5
603
100
AcDbEntity
  8
0
100
AcDbCircle
 62
7
  6
CONTINUOUS
 10
115.2192405713
 20
12.0697104197
 40
0.4370958741
100
AcDbArc
 50
332.8713579979
 51
333.7038679458
  0
ARC
  5
604
100
AcDbEntity
  8
0
100
AcDbCircle
 62
7
  6
CONTINUOUS
 10
115.2268676389
 20
12.0660337715
 40
0.4286292969
100
AcDbArc
 50
333.6928136432
 51
338.2503747979
  0
ARC
  5
605
100
AcDbEntity
  8
0
100
AcDbCircle
 62
7
  6
CONTINUOUS
 10
113.5104433559
 20
12.5840699513
 40
3.5441121274
100
AcDbArc
 50
8.5596958436
 51
9.7233160764
  0
ARC
  5
606
100
AcDbEntity
  8
0
100
AcDbCircle
 62
7
  6
CONTINUOUS
 10
114.9941013823
 20
12.7953966041
 40
2.0454027511
100
AcDbArc
 50
359.3040012045
 51
0.9894177679
  0
ARC
  5
607
100
AcDbEntity
  8
0
100
AcDbCircle
 62
7
  6
CONTINUOUS
 10
114.9959871818
 20
12.7953764686
 40
2.0435168461
100
AcDbArc
 50
358.6880408836
 51
359.3039234509
  0
ARC
  5
608
100
AcDbEntity
  8
0
100
AcDbCircle
 62
7
  6
CONTINUOUS
 10
114.9989241918
 20
12.7953039635
 40
2.040578946
100
AcDbArc
 50
357.5869670829
 51
358.6881880222
  0
ARC
  5
609
100
AcDbEntity
  8
0
100
AcDbCircle
 62
7
  6
CONTINUOUS
 10
115.0037152291
 20
12.795103494
 40
2.0357837166
100
AcDbArc
 50
356.7076071295
 51
357.5869269801
  0
ARC
  5
60A
100
AcDbEntity
  8
0
100
AcDbCircle
 62
7
  6
CONTINUOUS
 10
115.0096010313
 20
12.7947618869
 40
2.0298880103
100
AcDbArc
 50
355.7307225844
 51
356.7076921733
  0
ARC
  5
60B
100
AcDbEntity
  8
0
100
AcDbCircle
 62
7
  6
CONTINUOUS
 10
115.0163251551
 20
12.7942627848
 40
2.0231453894
100
AcDbArc
 50
354.9553714555
 51
355.7306417703
  0
ARC
  5
60C
100
AcDbEntity
  8
0
100
AcDbCircle
 62
7
  6
CONTINUOUS
 10
115.0271437205
 20
12.7932799458
 40
2.0122823072
100
AcDbArc
 50
353.3802178854
 51
354.9561612269
  0
ARC
  5
60D
100
AcDbEntity
  8
0
100
AcDbCircle
 62
7
  6
CONTINUOUS
 10
114.698199678
 20
12.7973654403
 40
1.3444640811
100
AcDbArc
 50
292.9662466998
 51
295.2536764011
  0
ARC
  5
60E
100
AcDbEntity
  8
0
100
AcDbCircle
 62
7
  6
CONTINUOUS
 10
114.7347225795
 20
12.7187570712
 40
1.2577869423
100
AcDbArc
 50
295.2766399761
 51
295.5387216484
  0
ARC
  5
60F
100
AcDbEntity
  8
0
100
AcDbCircle
 62
7
  6
CONTINUOUS
 10
114.7655316342
 20
12.6551188847
 40
1.1870842057
100
AcDbArc
 50
295.5211976396
 51
297.6336072101
  0
ARC
  5
610
100
AcDbEntity
  8
0
100
AcDbCircle
 62
7
  6
CONTINUOUS
 10
114.8013942155
 20
12.5859248839
 40
1.1091494646
100
AcDbArc
 50
297.6502135936
 51
298.3410453193
  0
ARC
  5
611
100
AcDbEntity
  8
0
100
AcDbCircle
 62
7
  6
CONTINUOUS
 10
116.9826493479
 20
12.1998843091
 40
0.6208127942
100
AcDbArc
 50
336.8902715993
 51
340.1397817934
  0
ARC
  5
612
100
AcDbEntity
  8
0
100
AcDbCircle
 62
7
  6
CONTINUOUS
 10
115.8597263541
 20
11.9611637416
 40
0.2214577294
100
AcDbArc
 50
207.8821544747
 51
211.337450574
  0
ARC
  5
613
100
AcDbEntity
  8
0
100
AcDbCircle
 62
7
  6
CONTINUOUS
 10
117.1088649302
 20
12.7549546638
 40
1.1485544737
100
AcDbArc
 50
181.2758877759
 51
182.5319413552
  0
ARC
  5
614
100
AcDbEntity
  8
0
100
AcDbCircle
 62
7
  6
CONTINUOUS
 10
117.0741482435
 20
12.7534601078
 40
1.113805656
100
AcDbArc
 50
182.5340277628
 51
183.3666785445
  0
ARC
  5
615
100
AcDbEntity
  8
0
100
AcDbCircle
 62
7
  6
CONTINUOUS
 10
117.0508528685
 20
12.7521091919
 40
1.0904711518
100
AcDbArc
 50
183.3677007837
 51
183.9067356173
  0
ARC
  5
616
100
AcDbEntity
  8
0
100
AcDbCircle
 62
7
  6
CONTINUOUS
 10
116.5354257743
 20
13.1186105299
 40
1.0054419471
100
AcDbArc
 50
269.7298627591
 51
270.8899641213
  0
ARC
  5
617
100
AcDbEntity
  8
0
100
AcDbCircle
 62
7
  6
CONTINUOUS
 10
116.6817253436
 20
12.6901261809
 40
0.7154295044
100
AcDbArc
 50
195.6854232387
 51
197.1483112528
  0
ARC
  5
618
100
AcDbEntity
  8
0
100
AcDbCircle
 62
7
  6
CONTINUOUS
 10
116.4908633887
 20
12.6820897262
 40
0.5653788376
100
AcDbArc
 50
254.168260456
 51
255.1352629207
  0
ARC
  5
619
100
AcDbEntity
  8
0
100
AcDbCircle
 62
7
  6
CONTINUOUS
 10
116.4687945
 20
12.626260333
 40
0.5609890134
100
AcDbArc
 50
344.0143787174
 51
353.3508467481
  0
ARC
  5
61A
100
AcDbEntity
  8
0
100
AcDbCircle
 62
7
  6
CONTINUOUS
 10
116.4870166148
 20
12.6685414496
 40
0.5512950367
100
AcDbArc
 50
253.0592100677
 51
254.1687494487
  0
ARC
  5
61B
100
AcDbEntity
  8
0
100
AcDbCircle
 62
7
  6
CONTINUOUS
 10
116.4619162057
 20
12.6021881733
 40
0.4800575624
100
AcDbArc
 50
231.7344781123
 51
232.6590171409
  0
ARC
  5
61C
100
AcDbEntity
  8
0
100
AcDbCircle
 62
7
  6
CONTINUOUS
 10
116.4595042456
 20
12.5991588876
 40
0.4761853786
100
AcDbArc
 50
229.3361794221
 51
231.7366068156
  0
ARC
  5
61D
100
AcDbEntity
  8
0
100
AcDbCircle
 62
7
  6
CONTINUOUS
 10
116.4565750105
 20
12.5957221558
 40
0.4716697131
100
AcDbArc
 50
228.3537752829
 51
229.3340557817
  0
ARC
  5
61E
100
AcDbEntity
  8
0
100
AcDbCircle
 62
7
  6
CONTINUOUS
 10
116.453786842
 20
12.5926031026
 40
0.467486143
100
AcDbArc
 50
226.5291831386
 51
228.3550978112
  0
ARC
  5
61F
100
AcDbEntity
  8
0
100
AcDbCircle
 62
7
  6
CONTINUOUS
 10
116.450681776
 20
12.5893126128
 40
0.4629619139
100
AcDbArc
 50
225.532287681
 51
226.5278980176
  0
ARC
  5
620
100
AcDbEntity
  8
0
100
AcDbCircle
 62
7
  6
CONTINUOUS
 10
116.4462242732
 20
12.5848169301
 40
0.4566310792
100
AcDbArc
 50
222.8483922781
 51
225.5362800158
  0
ARC
  5
621
100
AcDbEntity
  8
0
100
AcDbCircle
 62
7
  6
CONTINUOUS
 10
95.9210974877
 20
82.2531052708
 40
73.2979288352
100
AcDbArc
 50
284.6030785014
 51
284.7524222547
  0
ARC
  5
622
100
AcDbEntity
  8
0
100
AcDbCircle
 62
7
  6
CONTINUOUS
 10
101.7163415031
 20
53.996487382
 40
43.7704995806
100
AcDbArc
 50
286.0957064081
 51
286.4237290204
  0
ARC
  5
623
100
AcDbEntity
  8
0
100
AcDbCircle
 62
7
  6
CONTINUOUS
 10
105.8616269111
 20
44.586651141
 40
34.341833413
100
AcDbArc
 50
284.8186970995
 51
285.2243472552
  0
ARC
  5
624
100
AcDbEntity
  8
0
100
AcDbCircle
 62
7
  6
CONTINUOUS
 10
122.9278773239
 20
26.4184068319
 40
1.5
100
AcDbArc
 50
2.3570445871
 51
87.0
  0
ARC
  5
625
100
AcDbEntity
  8
RACCORDO
100
AcDbCircle
 62
7
  6
CONTINUOUS
 10
118.349636813
 20
34.468255938
 40
1.5
100
AcDbArc
 50
0.0
 51
88.0
  0
ARC
  5
626
100
AcDbEntity
  8
0
100
AcDbCircle
 62
253
  6
CONTINUOUS
 10
122.9322398613
 20
26.418406274
 40
1.2500005867
100
AcDbArc
 50
2.3570707396
 51
86.9999755127
  0
SPLINE
  5
627
100
AcDbEntity
  8
0
100
AcDbSpline
 62
7
  6
CONTINUOUS
 70
0
 71
3
 72
8
 73
4
 74
2
 42
0.0000001
 43
0.0000001
 44
0.0000000001
 12
-0.2298018524
 22
0.8435258728
 32
0.0
 13
-0.8120871601
 23
0.3238197551
 33
0.0
 40
0.0
 40
0.0
 40
0.0
 40
0.0
 40
1.0
 40
1.0
 40
1.0
 40
1.0
 10
7.0172301712
 20
23.1228180563
 30
0.0
 10
6.9406295538
 20
23.4039933472
 30
0.0
 10
6.8307659104
 20
23.7600959191
 30
0.0
 10
6.5600701904
 20
23.8680358374
 30
0.0
 11
7.0172301712
 21
23.1228180563
 31
0.0
 11
6.5600701904
 21
23.8680358374
 31
0.0
  0
SPLINE
  5
628
100
AcDbEntity
  8
0
100
AcDbSpline
 62
7
  6
CONTINUOUS
 70
0
 71
3
 72
13
 73
9
 74
7
 42
0.0000001
 43
0.0000001
 44
0.0000000001
 12
2.3378611664
 22
0.3016595053
 32
0.0
 13
-2.2173670215
 23
0.7999229852
 33
0.0
 40
0.0
 40
0.0
 40
0.0
 40
0.0
 40
0.1681286212
 40
0.3210213193
 40
0.5165149301
 40
0.6775881912
 40
0.8108866346
 40
1.0
 40
1.0
 40
1.0
 40
1.0
 10
6.5600701904
 20
23.8904878203
 30
0.0
 10
6.6910906485
 20
23.9073936858
 30
0.0
 10
6.8754403562
 20
24.1329706805
 30
0.0
 10
7.0764268754
 20
24.4750762653
 30
0.0
 10
7.1192475148
 20
24.8903537647
 30
0.0
 10
7.0356625345
 20
25.2721909657
 30
0.0
 10
6.829635336
 20
25.5967588956
 30
0.0
 10
6.6180750189
 20
25.7591656235
 30
0.0
 10
6.4782971056
 20
25.8095909994
 30
0.0
 11
6.5600701904
 21
23.8904878203
 31
0.0
 11
6.8678874452
 21
24.1401236677
 31
0.0
 11
7.0393803131
 21
24.4571127926
 31
0.0
 11
7.0948433708
 21
24.9145888606
 31
0.0
 11
7.0084046615
 21
25.284307557
 31
0.0
 11
6.8407413453
 21
25.5500540555
 31
0.0
 11
6.4782971056
 21
25.8095909994
 31
0.0
  0
SPLINE
  5
629
100
AcDbEntity
  8
0
100
AcDbSpline
 62
7
  6
CONTINUOUS
 70
0
 71
3
 72
9
 73
5
 74
3
 42
0.0000001
 43
0.0000001
 44
0.0000000001
 12
-1.8490833515
 22
0.6680315285
 32
0.0
 13
-1.9451189551
 23
-0.2861601197
 33
0.0
 40
0.0
 40
0.0
 40
0.0
 40
0.0
 40
0.108204615
 40
1.0
 40
1.0
 40
1.0
 40
1.0
 10
6.4782971056
 20
25.8095909994
 30
0.0
 10
6.4116039883
 20
25.8336856975
 30
0.0
 10
5.7793541574
 20
26.0139831796
 30
0.0
 10
5.0992301945
 20
25.9346597032
 30
0.0
 10
4.5210141587
 20
25.8495942785
 30
0.0
 11
6.4782971056
 21
25.8095909994
 31
0.0
 11
6.2742187675
 21
25.8696640326
 31
0.0
 11
4.5210141587
 21
25.8495942785
 31
0.0
  0
SPLINE
  5
62A
100
AcDbEntity
  8
0
100
AcDbSpline
 62
7
  6
CONTINUOUS
 70
0
 71
3
 72
9
 73
5
 74
3
 42
0.0000001
 43
0.0000001
 44
0.0000000001
 12
0.5693427171
 22
0.0
 32
0.0
 13
0.2000440944
 23
-0.5330417336
 33
0.0
 40
0.0
 40
0.0
 40
0.0
 40
0.0
 40
0.1435863572
 40
1.0
 40
1.0
 40
1.0
 40
1.0
 10
5.7361849921
 20
23.5813741629
 30
0.0
 10
5.763434941
 20
23.5813741629
 30
0.0
 10
5.9537656504
 20
23.5679192082
 30
0.0
 10
6.121564575
 20
23.3987569565
 30
0.0
 10
6.1786714055
 20
23.2465888856
 30
0.0
 11
5.7361849921
 21
23.5813741629
 31
0.0
 11
5.8176281887
 21
23.5743000432
 31
0.0
 11
6.1786714055
 21
23.2465888856
 31
0.0
  0
SPLINE
  5
62B
100
AcDbEntity
  8
0
100
AcDbSpline
 62
7
  6
CONTINUOUS
 70
0
 71
3
 72
9
 73
5
 74
3
 42
0.0000001
 43
0.0000001
 44
0.0000000001
 12
0.4231569679
 22
-1.1263576533
 32
0.0
 13
0.3324634843
 23
-1.1563785774
 33
0.0
 40
0.0
 40
0.0
 40
0.0
 40
0.0
 40
0.8657275665
 40
1.0
 40
1.0
 40
1.0
 40
1.0
 10
6.1786714055
 20
23.2465888856
 30
0.0
 10
6.3007842895
 20
22.9215492622
 30
0.0
 10
6.3978960756
 20
22.5310372493
 30
0.0
 10
6.5106002334
 20
22.1461997499
 30
0.0
 10
6.5254804604
 20
22.0944431614
 30
0.0
 11
6.1786714055
 21
23.2465888856
 31
0.0
 11
6.4806152265
 21
22.2496481913
 31
0.0
 11
6.5254804604
 21
22.0944431614
 31
0.0
  0
SPLINE
  5
62C
100
AcDbEntity
  8
0
100
AcDbSpline
 62
7
  6
CONTINUOUS
 70
0
 71
3
 72
9
 73
5
 74
3
 42
0.0000001
 43
0.0000001
 44
0.0000000001
 12
-0.2787501557
 22
1.0263367552
 32
0.0
 13
-0.2795600015
 23
1.0261164602
 33
0.0
 40
0.0
 40
0.0
 40
0.0
 40
0.0
 40
0.1980141723
 40
1.0
 40
1.0
 40
1.0
 40
1.0
 10
7.2883635073
 20
22.0944431614
 30
0.0
 10
7.2699646802
 20
22.1621862357
 30
0.0
 10
7.1799106656
 20
22.5050674656
 30
0.0
 10
7.0919645576
 20
22.8485077701
 30
0.0
 10
7.0172301712
 20
23.1228180563
 30
0.0
 11
7.2883635073
 21
22.0944431614
 31
0.0
 11
7.2343833881
 21
22.2979988427
 31
0.0
 11
7.0172301712
 21
23.1228180563
 31
0.0
  0
SPLINE
  5
62D
100
AcDbEntity
  8
0
100
AcDbSpline
 62
7
  6
CONTINUOUS
 70
0
 71
3
 72
9
 73
5
 74
3
 42
0.0000001
 43
0.0000001
 44
0.0000000001
 12
0.0146048291
 22
-0.9465029213
 32
0.0
 13
-0.9463795554
 23
-0.0211380768
 33
0.0
 40
0.0
 40
0.0
 40
0.0
 40
0.0
 40
0.5206208722
 40
1.0
 40
1.0
 40
1.0
 40
1.0
 10
6.3539849214
 20
24.7940946531
 30
0.0
 10
6.3565194477
 20
24.6298382609
 30
0.0
 10
6.2404802795
 20
24.2710217882
 30
0.0
 10
5.8891194026
 20
24.2070251109
 30
0.0
 10
5.737894534
 20
24.2036473933
 30
0.0
 11
6.3539849214
 21
24.7940946531
 31
0.0
 11
6.1719115921
 21
24.3361333245
 31
0.0
 11
5.737894534
 21
24.2036473933
 31
0.0
  0
SPLINE
  5
62E
100
AcDbEntity
  8
0
100
AcDbSpline
 62
7
  6
CONTINUOUS
 70
0
 71
3
 72
11
 73
7
 74
5
 42
0.0000001
 43
0.0000001
 44
0.0000000001
 12
1.3049532435
 22
0.2226699674
 32
0.0
 13
0.0207025745
 23
-1.3236526302
 33
0.0
 40
0.0
 40
0.0
 40
0.0
 40
0.0
 40
0.2429387748
 40
0.4710498328
 40
0.7362395484
 40
1.0
 40
1.0
 40
1.0
 40
1.0
 10
5.284638007
 20
25.2466958557
 30
0.0
 10
5.3903125877
 20
25.2647275787
 30
0.0
 10
5.5976971039
 20
25.2876700438
 30
0.0
 10
5.9221539762
 20
25.2870637469
 30
0.0
 10
6.2569163959
 20
25.1570230755
 30
0.0
 10
6.3521647479
 20
24.9104703916
 30
0.0
 10
6.3539849214
 20
24.7940946531
 30
0.0
 11
5.284638007
 21
25.2466958557
 31
0.0
 11
5.6042795929
 21
25.2821866566
 31
0.0
 11
5.9059709894
 21
25.2690623614
 31
0.0
 11
6.222699231
 21
25.1176432544
 31
0.0
 11
6.3539849214
 21
24.7940946531
 31
0.0
  0
SPLINE
  5
62F
100
AcDbEntity
  8
0
100
AcDbSpline
 62
7
  6
CONTINUOUS
 70
0
 71
3
 72
13
 73
9
 74
7
 42
0.0000001
 43
0.0000001
 44
0.0000000001
 12
1.5054573555
 22
0.0000031715
 32
0.0
 13
-0.0
 23
1.5054569964
 33
0.0
 40
0.0
 40
0.0
 40
0.0
 40
0.0
 40
0.2440839901
 40
0.3951668412
 40
0.5865944643
 40
0.7510175421
 40
0.8853894443
 40
1.0
 40
1.0
 40
1.0
 40
1.0
 10
28.639291461
 20
7.8402128671
 30
0.0
 10
28.7617774737
 20
7.8402131251
 30
0.0
 10
28.9642838515
 20
7.8773445769
 30
0.0
 10
29.2162182827
 20
8.037853608
 30
0.0
 10
29.3735157058
 20
8.2454615374
 30
0.0
 10
29.4608307965
 20
8.4772335687
 30
0.0
 10
29.4996711635
 20
8.6821554969
 30
0.0
 10
29.5008132253
 20
8.8074197058
 30
0.0
 10
29.5008132253
 20
8.8649334602
 30
0.0
 11
28.639291461
 21
7.8402128671
 31
0.0
 11
28.9994339129
 21
7.9131703203
 31
0.0
 11
29.1909472276
 21
8.0358714917
 31
0.0
 11
29.3682835827
 21
8.263034471
 31
0.0
 11
29.4585684311
 21
8.4935136983
 31
0.0
 11
29.4950471577
 21
8.6924885707
 31
0.0
 11
29.5008132253
 21
8.8649334602
 31
0.0
  0
SPLINE
  5
630
100
AcDbEntity
  8
0
100
AcDbSpline
 62
7
  6
CONTINUOUS
 70
0
 71
3
 72
13
 73
9
 74
7
 42
0.0000001
 43
0.0000001
 44
0.0000000001
 12
0.0
 22
1.5054594812
 32
0.0
 13
-1.5054594087
 23
-0.0000006408
 33
0.0
 40
0.0
 40
0.0
 40
0.0
 40
0.0
 40
0.1146103666
 40
0.248982047
 40
0.4134048534
 40
0.6048321605
 40
0.7559147622
 40
1.0
 40
1.0
 40
1.0
 40
1.0
 10
29.5008132253
 20
8.8649334602
 30
0.0
 10
29.5008132253
 20
8.9224472145
 30
0.0
 10
29.4996711635
 20
9.0477114234
 30
0.0
 10
29.4608307965
 20
9.2526333517
 30
0.0
 10
29.3735157058
 20
9.4844053829
 30
0.0
 10
29.2162182827
 20
9.6920133123
 30
0.0
 10
28.9642831426
 20
9.8525227951
 30
0.0
 10
28.761775782
 20
9.8896541054
 30
0.0
 10
28.6392889761
 20
9.8896540532
 30
0.0
 11
29.5008132253
 21
8.8649334602
 31
0.0
 11
29.4950471577
 21
9.0373783496
 31
0.0
 11
29.4585684311
 21
9.236353222
 31
0.0
 11
29.3682835827
 21
9.4668324493
 31
0.0
 11
29.1909472276
 21
9.6939954286
 31
0.0
 11
28.9994339129
 21
9.8166966
 31
0.0
 11
28.6392889761
 21
9.8896540532
 31
0.0
  0
SPLINE
  5
631
100
AcDbEntity
  8
0
100
AcDbSpline
 62
7
  6
CONTINUOUS
 70
0
 71
3
 72
13
 73
9
 74
7
 42
0.0000001
 43
0.0000001
 44
0.0000000001
 12
1.1298428566
 22
-0.0000030037
 32
0.0
 13
0.0
 23
-1.1298426942
 33
0.0
 40
0.0
 40
0.0
 40
0.0
 40
0.0
 40
0.1573087829
 40
0.3022011162
 40
0.4829354166
 40
0.6858836259
 40
0.8294043976
 40
1.0
 40
1.0
 40
1.0
 40
1.0
 10
28.6021495845
 20
9.6525423302
 30
0.0
 10
28.6613943194
 20
9.6525421727
 30
0.0
 10
28.7758787918
 20
9.6401328929
 30
0.0
 10
28.946972943
 20
9.5693681245
 30
0.0
 10
29.0906920472
 20
9.4238665719
 30
0.0
 10
29.1750553093
 20
9.2399760246
 30
0.0
 10
29.2083876296
 20
9.0474791116
 30
0.0
 10
29.2165995104
 20
8.9291821918
 30
0.0
 10
29.2165995104
 20
8.8649334602
 30
0.0
 11
28.6021495845
 21
9.6525423302
 31
0.0
 11
28.7785718045
 21
9.630986719
 31
0.0
 11
28.9289636456
 21
9.5663198855
 31
0.0
 11
29.0751272706
 21
9.4237212269
 31
0.0
 11
29.1732053015
 21
9.2164557348
 31
0.0
 11
29.2041293129
 21
9.0572758368
 31
0.0
 11
29.2165995104
 21
8.8649334602
 31
0.0
  0
SPLINE
  5
632
100
AcDbEntity
  8
0
100
AcDbSpline
 62
7
  6
CONTINUOUS
 70
0
 71
3
 72
13
 73
9
 74
7
 42
0.0000001
 43
0.0000001
 44
0.0000000001
 12
0.0
 22
-1.1298495084
 32
0.0
 13
-1.1298491599
 23
0.0000064421
 33
0.0
 40
0.0
 40
0.0
 40
0.0
 40
0.0
 40
0.1705945735
 40
0.3141144796
 40
0.5170614649
 40
0.6977946753
 40
0.8426861348
 40
1.0
 40
1.0
 40
1.0
 40
1.0
 10
29.2165995104
 20
8.8649334602
 30
0.0
 10
29.2165995104
 20
8.8006847285
 30
0.0
 10
29.2083876296
 20
8.6823878087
 30
0.0
 10
29.1750553093
 20
8.4898908957
 30
0.0
 10
29.0906920472
 20
8.3060003484
 30
0.0
 10
28.946972943
 20
8.1604987958
 30
0.0
 10
28.7758766551
 20
8.0897331436
 30
0.0
 10
28.6613897497
 20
8.0773242523
 30
0.0
 10
28.6021427702
 20
8.0773245901
 30
0.0
 11
29.2165995104
 21
8.8649334602
 31
0.0
 11
29.2041293129
 21
8.6725910835
 31
0.0
 11
29.1732053015
 21
8.5134111855
 31
0.0
 11
29.0751272706
 21
8.3061456934
 31
0.0
 11
28.9289636456
 21
8.1635470348
 31
0.0
 11
28.7785718045
 21
8.0988802013
 31
0.0
 11
28.6021427702
 21
8.0773245901
 31
0.0
  0
SPLINE
  5
633
100
AcDbEntity
  8
0
100
AcDbSpline
 62
253
  6
CONTINUOUS
 70
0
 71
3
 72
18
 73
14
 74
12
 42
0.0000001
 43
0.0000001
 44
0.0000000001
 12
-0.0008629699
 22
1.197360962
 32
0.0
 13
-0.3777957798
 23
1.1361973274
 33
0.0
 40
0.0
 40
0.0
 40
0.0
 40
0.0
 40
0.1908069728
 40
0.3736662689
 40
0.5423616883
 40
0.6911568109
 40
0.8149984191
 40
0.8662077207
 40
0.9096849434
 40
0.9450530774
 40
0.9720262518
 40
0.9903735252
 40
1.0
 40
1.0
 40
1.0
 40
1.0
 10
-35.7243925826
 20
26.4698151011
 30
0.0
 10
-35.7244474695
 20
26.5459700412
 30
0.0
 10
-35.7247906343
 20
26.695107821
 30
0.0
 10
-35.7260128925
 20
26.9115723197
 30
0.0
 10
-35.7278868764
 20
27.1112642474
 30
0.0
 10
-35.73034839
 20
27.2873915218
 30
0.0
 10
-35.7329177299
 20
27.4166229723
 30
0.0
 10
-35.73531418
 20
27.5038064909
 30
0.0
 10
-35.7370542458
 20
27.5556919707
 30
0.0
 10
-35.7389130324
 20
27.5978682
 30
0.0
 10
-35.7406352517
 20
27.630071727
 30
0.0
 10
-35.7426659744
 20
27.6518278917
 30
0.0
 10
-35.7438387639
 20
27.6630478921
 30
0.0
 10
-35.7450510444
 20
27.6666937504
 30
0.0
 11
-35.7243925826
 21
26.4698151011
 31
0.0
 11
-35.7249280266
 21
26.6982793535
 31
0.0
 11
-35.7261866984
 21
26.9172243751
 31
0.0
 11
-35.7281256309
 21
27.1192044309
 31
0.0
 11
-35.7306789208
 21
27.2973476514
 31
0.0
 11
-35.7337596682
 21
27.4455987907
 31
0.0
 11
-35.7354658066
 21
27.5068910837
 31
0.0
 11
-35.7372631053
 21
27.5589179912
 31
0.0
 11
-35.7391363084
 21
27.6012249761
 31
0.0
 11
-35.7410700205
 21
27.6334636695
 31
0.0
 11
-35.7430480442
 21
27.6553427525
 31
0.0
 11
-35.7450510444
 21
27.6666937504
 31
0.0
  0
SPLINE
  5
634
100
AcDbEntity
  8
0
100
AcDbSpline
 62
253
  6
CONTINUOUS
 70
0
 71
3
 72
9
 73
5
 74
3
 42
0.0000001
 43
0.0000001
 44
0.0000000001
 12
0.0295336428
 22
41.1266065993
 32
0.0
 13
-0.029533648
 23
41.1266065993
 33
0.0
 40
0.0
 40
0.0
 40
0.0
 40
0.0
 40
0.2499463299
 40
1.0
 40
1.0
 40
1.0
 40
1.0
 10
-35.4744306588
 20
-14.6465185055
 30
0.0
 10
-35.4719700503
 20
-11.2200370452
 30
0.0
 10
-35.4645908422
 20
2.48883348
 30
0.0
 10
-35.4670467184
 20
16.1977093052
 30
0.0
 10
-35.4744306588
 20
26.4800967113
 30
0.0
 11
-35.4744306588
 21
-14.6465185055
 31
0.0
 11
-35.4688956672
 21
-4.3670729643
 31
0.0
 11
-35.4744306588
 21
26.4800967113
 31
0.0
  0
SPLINE
  5
635
100
AcDbEntity
  8
0
100
AcDbSpline
 62
253
  6
CONTINUOUS
 70
0
 71
3
 72
9
 73
5
 74
3
 42
0.0000001
 43
0.0000001
 44
0.0000000001
 12
0.0295336428
 22
41.1060433799
 32
0.0
 13
-0.029533648
 23
41.1060433799
 33
0.0
 40
0.0
 40
0.0
 40
0.0
 40
0.0
 40
0.2499463299
 40
1.0
 40
1.0
 40
1.0
 40
1.0
 10
-35.7243925826
 20
-14.6362369007
 30
0.0
 10
-35.7219319741
 20
-11.2114686739
 30
0.0
 10
-35.714552766
 20
2.4905474457
 30
0.0
 10
-35.7170086423
 20
16.1925688679
 30
0.0
 10
-35.7243925826
 20
26.4698151011
 30
0.0
 11
-35.7243925826
 21
-14.6362369007
 31
0.0
 11
-35.718857591
 21
-4.3619310594
 31
0.0
 11
-35.7243925826
 21
26.4698151011
 31
0.0
  0
SPLINE
  5
636
100
AcDbEntity
  8
0
100
AcDbSpline
 62
253
  6
CONTINUOUS
 70
0
 71
3
 72
18
 73
14
 74
12
 42
0.0000001
 43
0.0000001
 44
0.0000000001
 12
0.377525262
 22
1.1362872297
 32
0.0
 13
0.0008620967
 23
1.1973609517
 33
0.0
 40
0.0
 40
0.0
 40
0.0
 40
0.0
 40
0.0096276078
 40
0.0279731808
 40
0.05494528
 40
0.0903133171
 40
0.1337910088
 40
0.1850008953
 40
0.3088430524
 40
0.4576384758
 40
0.6263343207
 40
0.809193156
 40
1.0
 40
1.0
 40
1.0
 40
1.0
 10
-35.7450510444
 20
-15.83311555
 30
0.0
 10
-35.7438394894
 20
-15.8294689741
 30
0.0
 10
-35.742665555
 20
-15.8182496631
 30
0.0
 10
-35.7406354327
 20
-15.7964938385
 30
0.0
 10
-35.7389128955
 20
-15.7642916122
 30
0.0
 10
-35.7370542567
 20
-15.7221156027
 30
0.0
 10
-35.7353141592
 20
-15.6702297625
 30
0.0
 10
-35.7329177495
 20
-15.5830455946
 30
0.0
 10
-35.7303483891
 20
-15.4538135788
 30
0.0
 10
-35.7278868883
 20
-15.2776857944
 30
0.0
 10
-35.7260129425
 20
-15.077993763
 30
0.0
 10
-35.7247906616
 20
-14.8615293318
 30
0.0
 10
-35.7244474139
 20
-14.7123917888
 30
0.0
 10
-35.7243925826
 20
-14.6362369007
 30
0.0
 11
-35.7450510444
 21
-15.83311555
 31
0.0
 11
-35.7430480454
 21
-15.8217631745
 31
0.0
 11
-35.7410700177
 21
-15.7998861363
 31
0.0
 11
-35.7391362989
 21
-15.7676487334
 31
0.0
 11
-35.7372630924
 21
-15.7253418651
 31
0.0
 11
-35.7354657972
 21
-15.6733143961
 31
0.0
 11
-35.7337596645
 21
-15.6120214027
 31
0.0
 11
-35.7306789235
 21
-15.4637696074
 31
0.0
 11
-35.7281256451
 21
-15.2856260282
 31
0.0
 11
-35.7261867348
 21
-15.0836454646
 31
0.0
 11
-35.7249280383
 21
-14.8647009967
 31
0.0
 11
-35.7243925826
 21
-14.6362369007
 31
0.0
  0
SPLINE
  5
637
100
AcDbEntity
  8
0
100
AcDbSpline
 62
253
  6
CONTINUOUS
 70
0
 71
3
 72
18
 73
14
 74
12
 42
0.0000001
 43
0.0000001
 44
0.0000000001
 12
-0.0978261769
 22
0.2307576452
 32
0.0
 13
-0.2506372267
 23
0.0001797722
 33
0.0
 40
0.0
 40
0.0
 40
0.0
 40
0.0
 40
0.0075280278
 40
0.0237345387
 40
0.0489150294
 40
0.0829816313
 40
0.1256229384
 40
0.1764350002
 40
0.3007513965
 40
0.4512052679
 40
0.6222500483
 40
0.8076953702
 40
1.0
 40
1.0
 40
1.0
 40
1.0
 10
35.7243925826
 20
26.4698151011
 30
0.0
 10
35.7241471032
 20
26.470394151
 30
0.0
 10
35.7219437023
 20
26.4710882916
 30
0.0
 10
35.7182193095
 20
26.4720120098
 30
0.0
 10
35.7118399729
 20
26.4729028885
 30
0.0
 10
35.7034333383
 20
26.4738180993
 30
0.0
 10
35.6927935978
 20
26.474695744
 30
0.0
 10
35.6746491848
 20
26.4759030233
 30
0.0
 10
35.6474706775
 20
26.4771936336
 30
0.0
 10
35.6102468937
 20
26.4784251312
 30
0.0
 10
35.5679023927
 20
26.4793519404
 30
0.0
 10
35.5220564175
 20
26.4799376621
 30
0.0
 10
35.4904968919
 20
26.4800852311
 30
0.0
 10
35.4744306588
 20
26.4800967547
 30
0.0
 11
35.7243925826
 21
26.4698151011
 31
0.0
 11
35.7227892343
 21
26.4708097394
 31
0.0
 11
35.7188492398
 21
26.4717976307
 31
0.0
 11
35.7126130752
 21
26.472767743
 31
0.0
 11
35.7041267882
 21
26.4737093046
 31
0.0
 11
35.6934776011
 21
26.4746134655
 31
0.0
 11
35.6807711908
 21
26.4754722366
 31
0.0
 11
35.6496514529
 21
26.4770224369
 31
0.0
 11
35.611963834
 21
26.4783024813
 31
0.0
 11
35.5691043989
 21
26.4792631643
 31
0.0
 11
35.522628831
 21
26.4798687411
 31
0.0
 11
35.4744306588
 21
26.4800967547
 31
0.0
  0
SPLINE
  5
638
100
AcDbEntity
  8
0
100
AcDbSpline
 62
253
  6
CONTINUOUS
 70
0
 71
3
 72
18
 73
14
 74
12
 42
0.0000001
 43
0.0000001
 44
0.0000000001
 12
-0.0980239825
 22
-0.2306734399
 32
0.0
 13
-0.2506369979
 23
-0.0001797625
 33
0.0
 40
0.0
 40
0.0
 40
0.0
 40
0.0
 40
0.0075311519
 40
0.0237408229
 40
0.0489240538
 40
0.0829928902
 40
0.1256358958
 40
0.1764491078
 40
0.3007661427
 40
0.4512185568
 40
0.6222600564
 40
0.8077007266
 40
1.0
 40
1.0
 40
1.0
 40
1.0
 10
35.7243925824
 20
-14.6362369007
 30
0.0
 10
35.7241465046
 20
-14.6368159796
 30
0.0
 10
35.7219429691
 20
-14.6375098754
 30
0.0
 10
35.7182174339
 20
-14.6384337638
 30
0.0
 10
35.711837623
 20
-14.6393245365
 30
0.0
 10
35.7034303411
 20
-14.6402397508
 30
0.0
 10
35.6927902163
 20
-14.6411173462
 30
0.0
 10
35.6746455077
 20
-14.6423245684
 30
0.0
 10
35.647467005
 20
-14.6436151093
 30
0.0
 10
35.6102435915
 20
-14.6448465414
 30
0.0
 10
35.5678999142
 20
-14.645773296
 30
0.0
 10
35.5220550903
 20
-14.6463589816
 30
0.0
 10
35.4904964297
 20
-14.6465065409
 30
0.0
 10
35.4744306588
 20
-14.6465180637
 30
0.0
 11
35.7243925824
 21
-14.6362369007
 31
0.0
 11
35.7227882955
 21
-14.637231508
 31
0.0
 11
35.7188474795
 21
-14.6382193645
 31
0.0
 11
35.7126106199
 21
-14.6391894394
 31
0.0
 11
35.7041237728
 21
-14.6401309615
 31
0.0
 11
35.6934741648
 21
-14.6410350816
 31
0.0
 11
35.6807674745
 21
-14.6418938115
 31
0.0
 11
35.6496476008
 21
-14.6434439311
 31
0.0
 11
35.6119603793
 21
-14.6447239027
 31
0.0
 11
35.5691018046
 21
-14.6456845272
 31
0.0
 11
35.5226274445
 21
-14.6462900653
 31
0.0
 11
35.4744306588
 21
-14.6465180637
 31
0.0
  0
SPLINE
  5
639
100
AcDbEntity
  8
0
100
AcDbSpline
 62
253
  6
CONTINUOUS
 70
0
 71
3
 72
18
 73
14
 74
12
 42
0.0000001
 43
0.0000001
 44
0.0000000001
 12
0.0978262147
 22
-0.2307576291
 32
0.0
 13
0.2506372266
 23
-0.0001797721
 33
0.0
 40
0.0
 40
0.0
 40
0.0
 40
0.0
 40
0.0075280284
 40
0.0237345399
 40
0.0489150311
 40
0.0829816333
 40
0.1256229408
 40
0.1764350027
 40
0.3007513991
 40
0.4512052702
 40
0.6222500501
 40
0.8076953711
 40
1.0
 40
1.0
 40
1.0
 40
1.0
 10
-35.7243925826
 20
-14.6362369007
 30
0.0
 10
-35.7241471031
 20
-14.6368159507
 30
0.0
 10
-35.7219437022
 20
-14.6375100912
 30
0.0
 10
-35.7182193092
 20
-14.6384338094
 30
0.0
 10
-35.7118399725
 20
-14.6393246882
 30
0.0
 10
-35.7034333377
 20
-14.6402398989
 30
0.0
 10
-35.6927935972
 20
-14.6411175436
 30
0.0
 10
-35.6746491841
 20
-14.6423248229
 30
0.0
 10
-35.6474706769
 20
-14.6436154332
 30
0.0
 10
-35.6102468931
 20
-14.6448469308
 30
0.0
 10
-35.5679023923
 20
-14.64577374
 30
0.0
 10
-35.5220564172
 20
-14.6463594616
 30
0.0
 10
-35.4904968918
 20
-14.6465070306
 30
0.0
 10
-35.4744306588
 20
-14.6465185543
 30
0.0
 11
-35.7243925826
 21
-14.6362369007
 31
0.0
 11
-35.7227892342
 21
-14.6372315391
 31
0.0
 11
-35.7188492394
 21
-14.6382194303
 31
0.0
 11
-35.7126130747
 21
-14.6391895426
 31
0.0
 11
-35.7041267876
 21
-14.6401311042
 31
0.0
 11
-35.6934776004
 21
-14.6410352651
 31
0.0
 11
-35.6807711901
 21
-14.6418940362
 31
0.0
 11
-35.6496514523
 21
-14.6434442365
 31
0.0
 11
-35.6119638334
 21
-14.6447242809
 31
0.0
 11
-35.5691043985
 21
-14.6456849639
 31
0.0
 11
-35.5226288307
 21
-14.6462905406
 31
0.0
 11
-35.4744306588
 21
-14.6465185543
 31
0.0
  0
SPLINE
  5
63A
100
AcDbEntity
  8
0
100
AcDbSpline
 62
253
  6
CONTINUOUS
 70
0
 71
3
 72
18
 73
14
 74
12
 42
0.0000001
 43
0.0000001
 44
0.0000000001
 12
0.0979674762
 22
0.230697516
 32
0.0
 13
0.2506370643
 23
0.0001797632
 33
0.0
 40
0.0
 40
0.0
 40
0.0
 40
0.0
 40
0.0075302595
 40
0.0237390227
 40
0.0489214619
 40
0.082989648
 40
0.1256321549
 40
0.1764450246
 40
0.3007618547
 40
0.4512146771
 40
0.6222571255
 40
0.8076991549
 40
1.0
 40
1.0
 40
1.0
 40
1.0
 10
-35.7243925825
 20
26.4698151011
 30
0.0
 10
-35.7241466757
 20
26.4703941718
 30
0.0
 10
-35.7219431798
 20
26.4710881384
 30
0.0
 10
-35.7182179718
 20
26.4720119785
 30
0.0
 10
-35.7118382988
 20
26.4729027822
 30
0.0
 10
-35.7034312047
 20
26.473817996
 30
0.0
 10
-35.6927911929
 20
26.4746956061
 30
0.0
 10
-35.6746465729
 20
26.4759028453
 30
0.0
 10
-35.6474680725
 20
26.4771934067
 30
0.0
 10
-35.6102445547
 20
26.478424858
 30
0.0
 10
-35.5679006391
 20
26.479351628
 30
0.0
 10
-35.5220554791
 20
26.4799373238
 30
0.0
 10
-35.4904965653
 20
26.4800848857
 30
0.0
 10
-35.4744306588
 20
26.4800964086
 30
0.0
 11
-35.7243925825
 21
26.4698151011
 31
0.0
 11
-35.7227885641
 21
26.4708097179
 31
0.0
 11
-35.7188479842
 21
26.471797585
 31
0.0
 11
-35.7126113255
 21
26.4727676712
 31
0.0
 11
-35.7041246415
 21
26.4737092052
 31
0.0
 11
-35.6934751571
 21
26.4746133374
 31
0.0
 11
-35.6807685502
 21
26.4754720796
 31
0.0
 11
-35.6496487208
 21
26.477022223
 31
0.0
 11
-35.6119613877
 21
26.4783022159
 31
0.0
 11
-35.5691025641
 21
26.4792628571
 31
0.0
 11
-35.5226278512
 21
26.4798684062
 31
0.0
 11
-35.4744306588
 21
26.4800964086
 31
0.0
  0
SPLINE
  5
63B
100
AcDbEntity
  8
0
100
AcDbSpline
 62
253
  6
CONTINUOUS
 70
0
 71
3
 72
18
 73
14
 74
12
 42
0.0000001
 43
0.0000001
 44
0.0000000001
 12
-0.3839539196
 22
-1.3843998021
 32
0.0
 13
-0.0008635566
 23
-1.4366567714
 33
0.0
 40
0.0
 40
0.0
 40
0.0
 40
0.0
 40
0.009582718
 40
0.0279116085
 40
0.0548730511
 40
0.0902344419
 40
0.133711012
 40
0.1849233291
 40
0.3087741373
 40
0.4575831681
 40
0.6262945661
 40
0.809172833
 40
1.0
 40
1.0
 40
1.0
 40
1.0
 10
35.4950891206
 20
27.916351134
 30
0.0
 10
35.4938626799
 20
27.9119290297
 30
0.0
 10
35.4927127978
 20
27.8985109064
 30
0.0
 10
35.4906673976
 20
27.8723824605
 30
0.0
 10
35.4889530813
 20
27.8337582099
 30
0.0
 10
35.487091209
 20
27.7831416595
 30
0.0
 10
35.4853523576
 20
27.7208804618
 30
0.0
 10
35.4829554141
 20
27.6162546708
 30
0.0
 10
35.480386383
 20
27.4611752796
 30
0.0
 10
35.4779248097
 20
27.2498234498
 30
0.0
 10
35.4760509037
 20
27.0101962639
 30
0.0
 10
35.4748286785
 20
26.7504432223
 30
0.0
 10
35.4744855888
 20
26.5714810919
 30
0.0
 10
35.4744306587
 20
26.4800967113
 30
0.0
 11
35.4950891206
 21
27.916351134
 31
0.0
 11
35.49308602
 21
27.9027305593
 31
0.0
 11
35.4911080031
 21
27.8764726267
 31
0.0
 11
35.4891742909
 21
27.8377865785
 31
0.0
 11
35.4873010727
 21
27.7870189349
 31
0.0
 11
35.4855037509
 21
27.7245838793
 31
0.0
 11
35.4837975933
 21
27.651029129
 31
0.0
 11
35.4807168504
 21
27.473124667
 31
0.0
 11
35.4781635918
 21
27.2593523739
 31
0.0
 11
35.4762247056
 21
27.0169797128
 31
0.0
 11
35.4749660841
 21
26.7542493796
 31
0.0
 11
35.4744306587
 21
26.4800967113
 31
0.0
  0
SPLINE
  5
63C
100
AcDbEntity
  8
0
100
AcDbSpline
 62
253
  6
CONTINUOUS
 70
0
 71
3
 72
18
 73
14
 74
12
 42
0.0000001
 43
0.0000001
 44
0.0000000001
 12
-0.000863557
 22
1.4366567714
 32
0.0
 13
-0.3839539952
 23
1.3843997811
 33
0.0
 40
0.0
 40
0.0
 40
0.0
 40
0.0
 40
0.190827167
 40
0.3737054339
 40
0.5424168319
 40
0.6912258627
 40
0.8150766709
 40
0.866288988
 40
0.9097655581
 40
0.9451269488
 40
0.9720883915
 40
0.9904172823
 40
1.0
 40
1.0
 40
1.0
 40
1.0
 10
-35.4744306587
 20
26.4800967113
 30
0.0
 10
-35.4744855888
 20
26.5714810919
 30
0.0
 10
-35.4748286784
 20
26.7504432223
 30
0.0
 10
-35.4760509037
 20
27.0101962639
 30
0.0
 10
-35.4779248097
 20
27.2498234498
 30
0.0
 10
-35.480386383
 20
27.4611752796
 30
0.0
 10
-35.4829554142
 20
27.6162546708
 30
0.0
 10
-35.4853523576
 20
27.7208804618
 30
0.0
 10
-35.487091209
 20
27.7831416595
 30
0.0
 10
-35.4889530813
 20
27.8337582098
 30
0.0
 10
-35.4906673975
 20
27.8723824607
 30
0.0
 10
-35.4927127979
 20
27.8985109065
 30
0.0
 10
-35.4938626797
 20
27.91192903
 30
0.0
 10
-35.4950891206
 20
27.916351134
 30
0.0
 11
-35.4744306587
 21
26.4800967113
 31
0.0
 11
-35.4749660841
 21
26.7542493796
 31
0.0
 11
-35.4762247056
 21
27.0169797128
 31
0.0
 11
-35.4781635918
 21
27.2593523739
 31
0.0
 11
-35.4807168504
 21
27.473124667
 31
0.0
 11
-35.4837975933
 21
27.651029129
 31
0.0
 11
-35.4855037509
 21
27.7245838794
 31
0.0
 11
-35.4873010727
 21
27.7870189349
 31
0.0
 11
-35.4891742909
 21
27.8377865784
 31
0.0
 11
-35.4911080031
 21
27.8764726267
 31
0.0
 11
-35.49308602
 21
27.9027305597
 31
0.0
 11
-35.4950891206
 21
27.916351134
 31
0.0
  0
SPLINE
  5
63D
100
AcDbEntity
  8
0
100
AcDbSpline
 62
253
  6
CONTINUOUS
 70
0
 71
3
 72
18
 73
14
 74
12
 42
0.0000001
 43
0.0000001
 44
0.0000000001
 12
0.0008625881
 22
-1.4366567705
 32
0.0
 13
0.3838044379
 23
-1.3844412496
 33
0.0
 40
0.0
 40
0.0
 40
0.0
 40
0.0
 40
0.1908272506
 40
0.3737055919
 40
0.5424169751
 40
0.6912259863
 40
0.8150767716
 40
0.8662890325
 40
0.9097656285
 40
0.9451271583
 40
0.9720884202
 40
0.9904167063
 40
1.0
 40
1.0
 40
1.0
 40
1.0
 10
35.4744306587
 20
-14.6465185055
 30
0.0
 10
35.4744855272
 20
-14.737902926
 30
0.0
 10
35.4748287096
 20
-14.916865132
 30
0.0
 10
35.476050972
 20
-15.1766182416
 30
0.0
 10
35.4779248028
 20
-15.4162454467
 30
0.0
 10
35.4803863553
 20
-15.6275972501
 30
0.0
 10
35.4829553749
 20
-15.7826765915
 30
0.0
 10
35.4853523229
 20
-15.887302361
 30
0.0
 10
35.4870912124
 20
-15.9495636004
 30
0.0
 10
35.4889529976
 20
-16.000180171
 30
0.0
 10
35.4906674704
 20
-16.0388040444
 30
0.0
 10
35.4927125897
 20
-16.0649325299
 30
0.0
 10
35.4938630837
 20
-16.0783504313
 30
0.0
 10
35.4950891206
 20
-16.0827729337
 30
0.0
 11
35.4744306587
 21
-14.6465185055
 31
0.0
 11
35.4749660998
 21
-14.9206712935
 31
0.0
 11
35.4762247543
 21
-15.1834017333
 31
0.0
 11
35.4781635913
 21
-15.4257743733
 31
0.0
 11
35.4807168226
 21
-15.6395466383
 31
0.0
 11
35.4837975569
 21
-15.8174510674
 31
0.0
 11
35.4855037226
 21
-15.8910057366
 31
0.0
 11
35.4873010504
 21
-15.9534408293
 31
0.0
 11
35.4891742654
 21
-16.0042086727
 31
0.0
 11
35.4911079904
 21
-16.0428944603
 31
0.0
 11
35.4930860455
 21
-16.0691515191
 31
0.0
 11
35.4950891206
 21
-16.0827729337
 31
0.0
  0
SPLINE
  5
63E
100
AcDbEntity
  8
0
100
AcDbSpline
 62
253
  6
CONTINUOUS
 70
0
 71
3
 72
18
 73
14
 74
12
 42
0.0000001
 43
0.0000001
 44
0.0000000001
 12
0.3838043881
 22
1.3844412635
 32
0.0
 13
0.0008625875
 23
1.4366567705
 33
0.0
 40
0.0
 40
0.0
 40
0.0
 40
0.0
 40
0.0095832939
 40
0.0279115798
 40
0.0548728417
 40
0.0902343715
 40
0.1337109675
 40
0.1849232284
 40
0.3087740137
 40
0.4575830249
 40
0.6262944081
 40
0.8091727494
 40
1.0
 40
1.0
 40
1.0
 40
1.0
 10
-35.4950891206
 20
-16.0827729337
 30
0.0
 10
-35.4938630839
 20
-16.0783504312
 30
0.0
 10
-35.4927125896
 20
-16.0649325298
 30
0.0
 10
-35.4906674704
 20
-16.0388040443
 30
0.0
 10
-35.4889529976
 20
-16.000180171
 30
0.0
 10
-35.4870912124
 20
-15.9495636004
 30
0.0
 10
-35.4853523229
 20
-15.8873023609
 30
0.0
 10
-35.4829553749
 20
-15.7826765914
 30
0.0
 10
-35.4803863553
 20
-15.6275972501
 30
0.0
 10
-35.4779248028
 20
-15.4162454467
 30
0.0
 10
-35.4760509719
 20
-15.1766182416
 30
0.0
 10
-35.4748287097
 20
-14.916865132
 30
0.0
 10
-35.4744855271
 20
-14.737902926
 30
0.0
 10
-35.4744306587
 20
-14.6465185055
 30
0.0
 11
-35.4950891206
 21
-16.0827729337
 31
0.0
 11
-35.4930860456
 21
-16.0691515189
 31
0.0
 11
-35.4911079903
 21
-16.0428944603
 31
0.0
 11
-35.4891742654
 21
-16.0042086728
 31
0.0
 11
-35.4873010504
 21
-15.9534408293
 31
0.0
 11
-35.4855037226
 21
-15.8910057366
 31
0.0
 11
-35.4837975569
 21
-15.8174510674
 31
0.0
 11
-35.4807168226
 21
-15.6395466383
 31
0.0
 11
-35.4781635913
 21
-15.4257743733
 31
0.0
 11
-35.4762247543
 21
-15.1834017333
 31
0.0
 11
-35.4749660998
 21
-14.9206712935
 31
0.0
 11
-35.4744306587
 21
-14.6465185055
 31
0.0
  0
SPLINE
  5
63F
100
AcDbEntity
  8
0
100
AcDbSpline
 62
253
  6
CONTINUOUS
 70
0
 71
3
 72
18
 73
14
 74
12
 42
0.0000001
 43
0.0000001
 44
0.0000000001
 12
0.0008620971
 22
-1.1973609517
 32
0.0
 13
0.3775253154
 23
-1.136287212
 33
0.0
 40
0.0
 40
0.0
 40
0.0
 40
0.0
 40
0.1908068441
 40
0.3736656791
 40
0.5423615242
 40
0.6911569475
 40
0.8149991046
 40
0.8662089914
 40
0.9096866831
 40
0.9450547198
 40
0.9720268186
 40
0.9903723922
 40
1.0
 40
1.0
 40
1.0
 40
1.0
 10
35.7243925826
 20
-14.6362369007
 30
0.0
 10
35.724447414
 20
-14.7123917888
 30
0.0
 10
35.7247906615
 20
-14.8615293317
 30
0.0
 10
35.7260129425
 20
-15.0779937629
 30
0.0
 10
35.7278868883
 20
-15.2776857943
 30
0.0
 10
35.7303483891
 20
-15.4538135787
 30
0.0
 10
35.7329177495
 20
-15.5830455946
 30
0.0
 10
35.7353141592
 20
-15.6702297626
 30
0.0
 10
35.7370542567
 20
-15.7221156027
 30
0.0
 10
35.7389128956
 20
-15.7642916119
 30
0.0
 10
35.7406354327
 20
-15.7964938382
 30
0.0
 10
35.7426655551
 20
-15.8182496628
 30
0.0
 10
35.7438394892
 20
-15.8294689741
 30
0.0
 10
35.7450510444
 20
-15.83311555
 30
0.0
 11
35.7243925826
 21
-14.6362369007
 31
0.0
 11
35.7249280383
 21
-14.8647009968
 31
0.0
 11
35.7261867348
 21
-15.0836454642
 31
0.0
 11
35.7281256451
 21
-15.2856260283
 31
0.0
 11
35.7306789235
 21
-15.4637696073
 31
0.0
 11
35.7337596645
 21
-15.6120214027
 31
0.0
 11
35.7354657971
 21
-15.6733143963
 31
0.0
 11
35.7372630924
 21
-15.7253418654
 31
0.0
 11
35.7391362989
 21
-15.7676487331
 31
0.0
 11
35.7410700177
 21
-15.7998861357
 31
0.0
 11
35.7430480454
 21
-15.8217631745
 31
0.0
 11
35.7450510444
 21
-15.83311555
 31
0.0
  0
SPLINE
  5
640
100
AcDbEntity
  8
0
100
AcDbSpline
 62
253
  6
CONTINUOUS
 70
0
 71
3
 72
9
 73
5
 74
3
 42
0.0000001
 43
0.0000001
 44
0.0000000001
 12
-0.029533648
 22
-41.1266065993
 32
0.0
 13
0.0295336428
 23
-41.1266065993
 33
0.0
 40
0.0
 40
0.0
 40
0.0
 40
0.0
 40
0.2499463299
 40
1.0
 40
1.0
 40
1.0
 40
1.0
 10
35.4744306588
 20
26.4800967113
 30
0.0
 10
35.4719700498
 20
23.0536152511
 30
0.0
 10
35.4645908427
 20
9.3447447259
 30
0.0
 10
35.4670467197
 20
-4.3641310993
 30
0.0
 10
35.4744306588
 20
-14.6465185055
 30
0.0
 11
35.4744306588
 21
26.4800967113
 31
0.0
 11
35.4688956672
 21
16.2006511704
 31
0.0
 11
35.4744306588
 21
-14.6465185055
 31
0.0
  0
SPLINE
  5
641
100
AcDbEntity
  8
0
100
AcDbSpline
 62
253
  6
CONTINUOUS
 70
0
 71
3
 72
9
 73
5
 74
3
 42
0.0000001
 43
0.0000001
 44
0.0000000001
 12
-0.029533648
 22
-41.1060433799
 32
0.0
 13
0.0295336428
 23
-41.1060433799
 33
0.0
 40
0.0
 40
0.0
 40
0.0
 40
0.0
 40
0.2499463299
 40
1.0
 40
1.0
 40
1.0
 40
1.0
 10
35.7243925826
 20
26.4698151011
 30
0.0
 10
35.7219319736
 20
23.0450468742
 30
0.0
 10
35.7145527665
 20
9.3430307546
 30
0.0
 10
35.7170086436
 20
-4.3589906676
 30
0.0
 10
35.7243925826
 20
-14.6362369007
 30
0.0
 11
35.7243925826
 21
26.4698151011
 31
0.0
 11
35.718857591
 21
16.1955092596
 31
0.0
 11
35.7243925826
 21
-14.6362369007
 31
0.0
  0
SPLINE
  5
642
100
AcDbEntity
  8
0
100
AcDbSpline
 62
253
  6
CONTINUOUS
 70
0
 71
3
 72
18
 73
14
 74
12
 42
0.0000001
 43
0.0000001
 44
0.0000000001
 12
-0.3777956437
 22
-1.1361973727
 32
0.0
 13
-0.0008629697
 23
-1.197360962
 33
0.0
 40
0.0
 40
0.0
 40
0.0
 40
0.0
 40
0.009626475
 40
0.0279737474
 40
0.0549469222
 40
0.090315057
 40
0.1337922795
 40
0.1850015807
 40
0.3088431891
 40
0.4576383117
 40
0.626333731
 40
0.8091930273
 40
1.0
 40
1.0
 40
1.0
 40
1.0
 10
35.7450510444
 20
27.6666937504
 30
0.0
 10
35.7438387643
 20
27.6630478918
 30
0.0
 10
35.7426659741
 20
27.6518278921
 30
0.0
 10
35.7406352518
 20
27.6300717273
 30
0.0
 10
35.7389130323
 20
27.5978682004
 30
0.0
 10
35.7370542459
 20
27.5556919706
 30
0.0
 10
35.73531418
 20
27.5038064907
 30
0.0
 10
35.7329177299
 20
27.4166229723
 30
0.0
 10
35.73034839
 20
27.2873915219
 30
0.0
 10
35.7278868764
 20
27.1112642475
 30
0.0
 10
35.7260128925
 20
26.9115723198
 30
0.0
 10
35.7247906343
 20
26.695107821
 30
0.0
 10
35.7244474695
 20
26.5459700412
 30
0.0
 10
35.7243925826
 20
26.4698151011
 30
0.0
 11
35.7450510444
 21
27.6666937504
 31
0.0
 11
35.7430480442
 21
27.6553427523
 31
0.0
 11
35.7410700205
 21
27.6334636705
 31
0.0
 11
35.7391363084
 21
27.6012249766
 31
0.0
 11
35.7372631053
 21
27.5589179908
 31
0.0
 11
35.7354658066
 21
27.5068910834
 31
0.0
 11
35.7337596682
 21
27.4455987909
 31
0.0
 11
35.7306789208
 21
27.2973476514
 31
0.0
 11
35.7281256309
 21
27.1192044309
 31
0.0
 11
35.7261866984
 21
26.9172243753
 31
0.0
 11
35.7249280266
 21
26.6982793534
 31
0.0
 11
35.7243925826
 21
26.4698151011
 31
0.0
  0
SPLINE
  5
643
100
AcDbEntity
  8
0
100
AcDbSpline
 62
253
  6
CONTINUOUS
 70
0
 71
3
 72
18
 73
14
 74
12
 42
0.0000001
 43
0.0000001
 44
0.0000000001
 12
-0.0130758065
 22
0.2495772882
 32
0.0
 13
0.24957708
 23
0.0130797806
 33
0.0
 40
0.0
 40
0.0
 40
0.0
 40
0.0
 40
0.1948593103
 40
0.3825730267
 40
0.5553326007
 40
0.706736699
 40
0.8310650103
 40
0.8814826456
 40
0.9234438211
 40
0.9565253666
 40
0.9803868523
 40
0.9948777602
 40
1.0
 40
1.0
 40
1.0
 40
1.0
 10
-121.547598012
 20
27.6666937504
 30
0.0
 10
-121.5484473262
 20
27.6829045698
 30
0.0
 10
-121.5500609628
 20
27.7147348108
 30
0.0
 10
-121.5522423361
 20
27.7609453814
 30
0.0
 10
-121.5540879088
 20
27.8035511866
 30
0.0
 10
-121.5555193788
 20
27.840877442
 30
0.0
 10
-121.5564029121
 20
27.8680552484
 30
0.0
 10
-121.5568168881
 20
27.8860698866
 30
0.0
 10
-121.5570229126
 20
27.8965929007
 30
0.0
 10
-121.5569780968
 20
27.9046413857
 30
0.0
 10
-121.5571110213
 20
27.9110307095
 30
0.0
 10
-121.5565672365
 20
27.9138662919
 30
0.0
 10
-121.5567450297
 20
27.9163288015
 30
0.0
 10
-121.5563188984
 20
27.9163511341
 30
0.0
 11
-121.547598012
 21
27.6666937504
 31
0.0
 11
-121.550062339
 21
27.7153305173
 31
0.0
 11
-121.5522695472
 21
27.7621918998
 31
0.0
 11
-121.5541268111
 21
27.8053279364
 31
0.0
 11
-121.5555656629
 21
27.8431394193
 31
0.0
 11
-121.5565324859
 21
27.8741964542
 31
0.0
 11
-121.5568256639
 21
27.8867933975
 31
0.0
 11
-121.5569883326
 21
27.8972790554
 31
0.0
 11
-121.5570183904
 21
27.905546727
 31
0.0
 11
-121.5569151409
 21
27.9115092857
 31
0.0
 11
-121.5566810227
 21
27.9151232721
 31
0.0
 11
-121.5563188984
 21
27.9163511341
 31
0.0
  0
SPLINE
  5
644
100
AcDbEntity
  8
0
100
AcDbSpline
 62
253
  6
CONTINUOUS
 70
0
 71
3
 72
18
 73
14
 74
12
 42
0.0000001
 43
0.0000001
 44
0.0000000001
 12
-0.0130758075
 22
-0.2495772883
 32
0.0
 13
0.2495770801
 23
-0.0130797805
 33
0.0
 40
0.0
 40
0.0
 40
0.0
 40
0.0
 40
0.194859331
 40
0.3825730895
 40
0.5553326703
 40
0.7067367545
 40
0.8310650509
 40
0.8814826762
 40
0.9234438399
 40
0.9565253787
 40
0.9803868592
 40
0.994877762
 40
1.0
 40
1.0
 40
1.0
 40
1.0
 10
-121.547598012
 20
-15.83311555
 30
0.0
 10
-121.5484473264
 20
-15.8493263711
 30
0.0
 10
-121.5500609633
 20
-15.8811566174
 30
0.0
 10
-121.5522423372
 20
-15.9273671938
 30
0.0
 10
-121.5540879103
 20
-15.969973002
 30
0.0
 10
-121.5555193805
 20
-16.0072992555
 30
0.0
 10
-121.5564029138
 20
-16.0344770587
 30
0.0
 10
-121.5568168901
 20
-16.0524916939
 30
0.0
 10
-121.5570229145
 20
-16.0630147055
 30
0.0
 10
-121.5569780989
 20
-16.0710631887
 30
0.0
 10
-121.5571110228
 20
-16.0774525108
 30
0.0
 10
-121.5565672387
 20
-16.0802880927
 30
0.0
 10
-121.5567450305
 20
-16.0827506011
 30
0.0
 10
-121.5563188995
 20
-16.0827729337
 30
0.0
 11
-121.547598012
 21
-15.83311555
 31
0.0
 11
-121.5500623394
 21
-15.8817523221
 31
0.0
 11
-121.5522695484
 21
-15.9286137151
 31
0.0
 11
-121.5541268127
 21
-15.9717497534
 31
0.0
 11
-121.5555656646
 21
-16.0095612329
 31
0.0
 11
-121.5565324877
 21
-16.0406182641
 31
0.0
 11
-121.5568256658
 21
-16.0532152049
 31
0.0
 11
-121.5569883345
 21
-16.0637008599
 31
0.0
 11
-121.5570183923
 21
-16.0719685297
 31
0.0
 11
-121.5569151427
 21
-16.0779310872
 31
0.0
 11
-121.5566810242
 21
-16.0815450723
 31
0.0
 11
-121.5563188995
 21
-16.0827729337
 31
0.0
  0
LINE
  5
645
100
AcDbEntity
  8
0
100
AcDbLine
 62
7
  6
CONTINUOUS
 10
-118.3995744543
 20
-15.9978678133
 11
-118.4126584433
 21
-16.247525197
  0
SPLINE
  5
646
100
AcDbEntity
  8
0
100
AcDbSpline
 62
7
  6
CONTINUOUS
 70
0
 71
3
 72
18
 73
14
 74
12
 42
0.0000001
 43
0.0000001
 44
0.0000000001
 12
-0.0130758075
 22
0.2495772883
 32
0.0
 13
0.2495770801
 23
0.0130797805
 33
0.0
 40
0.0
 40
0.0
 40
0.0
 40
0.0
 40
0.194859331
 40
0.3825730895
 40
0.5553326703
 40
0.7067367545
 40
0.8310650509
 40
0.8814826762
 40
0.9234438399
 40
0.9565253787
 40
0.9803868592
 40
0.994877762
 40
1.0
 40
1.0
 40
1.0
 40
1.0
 10
-118.3995744543
 20
27.8316746742
 30
0.0
 10
-118.4004237686
 20
27.8478854953
 30
0.0
 10
-118.4020374055
 20
27.8797157416
 30
0.0
 10
-118.4042187794
 20
27.925926318
 30
0.0
 10
-118.4060643525
 20
27.9685321261
 30
0.0
 10
-118.4074958227
 20
28.0058583797
 30
0.0
 10
-118.4083793561
 20
28.0330361828
 30
0.0
 10
-118.4087933323
 20
28.051050818
 30
0.0
 10
-118.4089993567
 20
28.0615738296
 30
0.0
 10
-118.4089545411
 20
28.0696223128
 30
0.0
 10
-118.4090874651
 20
28.0760116349
 30
0.0
 10
-118.4085436809
 20
28.0788472169
 30
0.0
 10
-118.4087214728
 20
28.0813097253
 30
0.0
 10
-118.4082953417
 20
28.0813320578
 30
0.0
 11
-118.3995744543
 21
27.8316746742
 31
0.0
 11
-118.4020387816
 21
27.8803114463
 31
0.0
 11
-118.4042459906
 21
27.9271728393
 31
0.0
 11
-118.4061032549
 21
27.9703088776
 31
0.0
 11
-118.4075421068
 21
28.008120357
 31
0.0
 11
-118.4085089299
 21
28.0391773882
 31
0.0
 11
-118.408802108
 21
28.0517743291
 31
0.0
 11
-118.4089647767
 21
28.062259984
 31
0.0
 11
-118.4089948345
 21
28.0705276539
 31
0.0
 11
-118.4088915849
 21
28.0764902113
 31
0.0
 11
-118.4086574664
 21
28.0801041964
 31
0.0
 11
-118.4082953417
 21
28.0813320578
 31
0.0
  0
SPLINE
  5
647
100
AcDbEntity
  8
COPY-PUBBLISH
100
AcDbSpline
 62
7
  6
CONTINUOUS
 70
0
 71
3
 72
11
 73
7
 74
5
 42
0.0000001
 43
0.0000001
 44
0.0000000001
 12
0.6706724538
 22
1.8563933223
 32
0.0
 13
-0.2872913949
 23
1.9528085829
 33
0.0
 40
0.0
 40
0.0
 40
0.0
 40
0.0
 40
0.2496153648
 40
0.4998894881
 40
0.7499638034
 40
1.0
 40
1.0
 40
1.0
 40
1.0
 10
117.5665388255
 20
11.9889776866
 30
0.0
 10
117.6223422086
 20
12.1434391188
 30
0.0
 10
117.684571268
 20
12.4700878505
 30
0.0
 10
117.7034547737
 20
12.9636022466
 30
0.0
 10
117.6731036147
 20
13.4571198902
 30
0.0
 10
117.6304865205
 20
13.7835030233
 30
0.0
 10
117.6065421046
 20
13.9462606336
 30
0.0
 11
117.5665388255
 21
11.9889776866
 31
0.0
 11
117.6721113923
 21
12.4702318787
 31
0.0
 11
117.6952441939
 21
12.963688072
 31
0.0
 11
117.6675039971
 21
13.4565116974
 31
0.0
 11
117.6065421046
 21
13.9462606336
 31
0.0
  0
SPLINE
  5
648
100
AcDbEntity
  8
COPY-PUBBLISH
100
AcDbSpline
 62
7
  6
CONTINUOUS
 70
0
 71
3
 72
8
 73
4
 74
2
 42
0.0000001
 43
0.0000001
 44
0.0000000001
 12
0.0064403097
 22
-0.0499124002
 32
0.0
 13
0.022514539
 23
-0.0449085571
 33
0.0
 40
0.0
 40
0.0
 40
0.0
 40
0.0
 40
1.0
 40
1.0
 40
1.0
 40
1.0
 10
115.6474356463
 20
11.9072046019
 30
0.0
 10
115.6495824162
 20
11.8905671351
 30
0.0
 10
115.6549930239
 20
11.874887796
 30
0.0
 10
115.6624978703
 20
11.859918277
 30
0.0
 11
115.6474356463
 21
11.9072046019
 31
0.0
 11
115.6624978703
 21
11.859918277
 31
0.0
  0
SPLINE
  5
649
100
AcDbEntity
  8
COPY-PUBBLISH
100
AcDbSpline
 62
7
  6
CONTINUOUS
 70
0
 71
3
 72
8
 73
4
 74
2
 42
0.0000001
 43
0.0000001
 44
0.0000000001
 12
0.0079427991
 22
-0.0158430803
 32
0.0
 13
0.0093526013
 23
-0.0153457328
 33
0.0
 40
0.0
 40
0.0
 40
0.0
 40
0.0
 40
1.0
 40
1.0
 40
1.0
 40
1.0
 10
115.6624978703
 20
11.859918277
 30
0.0
 10
115.66514547
 20
11.8546372502
 30
0.0
 10
115.6680537134
 20
11.8494445659
 30
0.0
 10
115.6711712471
 20
11.8443293216
 30
0.0
 11
115.6624978703
 21
11.859918277
 31
0.0
 11
115.6711712471
 21
11.8443293216
 31
0.0
  0
SPLINE
  5
64A
100
AcDbEntity
  8
COPY-PUBBLISH
100
AcDbSpline
 62
7
  6
CONTINUOUS
 70
0
 71
3
 72
19
 73
15
 74
13
 42
0.0000001
 43
0.0000001
 44
0.0000000001
 12
1.2116912431
 22
-1.9881410067
 32
0.0
 13
0.780563041
 23
2.1637017281
 33
0.0
 40
0.0
 40
0.0
 40
0.0
 40
0.0
 40
0.0348842468
 40
0.0996975225
 40
0.1634178124
 40
0.2279383597
 40
0.2923227937
 40
0.3567238641
 40
0.4852322034
 40
0.6137611509
 40
0.7424056996
 40
0.8710744151
 40
0.9356218709
 40
1.0
 40
1.0
 40
1.0
 40
1.0
 10
115.6711712471
 20
11.8443293216
 30
0.0
 10
115.6852608926
 20
11.8212110544
 30
0.0
 10
115.7377459221
 20
11.7596607678
 30
0.0
 10
115.8175409533
 20
11.6664741489
 30
0.0
 10
115.9306310611
 20
11.5685280972
 30
0.0
 10
116.0570209688
 20
11.4915184374
 30
0.0
 10
116.1930690273
 20
11.4314510746
 30
0.0
 10
116.3836081385
 20
11.3780527886
 30
0.0
 10
116.6318280527
 20
11.3593846645
 30
0.0
 10
116.9272769846
 20
11.4029036906
 30
0.0
 10
117.200432219
 20
11.5273776305
 30
0.0
 10
117.3879770042
 20
11.6937455876
 30
0.0
 10
117.5044382919
 20
11.8537746059
 30
0.0
 10
117.5497884294
 20
11.9425459969
 30
0.0
 10
117.5665388255
 20
11.9889776866
 30
0.0
 11
115.6711712471
 21
11.8443293216
 31
0.0
 11
115.721524293
 21
11.7787133903
 31
0.0
 11
115.8212613703
 21
11.6679061148
 31
0.0
 11
115.9323896203
 21
11.5723396078
 31
0.0
 11
116.0586491753
 21
11.4943399254
 31
0.0
 11
116.1942403725
 21
11.4347780184
 31
0.0
 11
116.3368142638
 21
11.3945708678
 31
0.0
 11
116.6314155254
 21
11.3703668819
 31
0.0
 11
116.9234564881
 21
11.4163651286
 31
0.0
 11
117.1923591046
 21
11.5398659017
 31
0.0
 11
117.4141512593
 21
11.7358306929
 31
0.0
 11
117.501271701
 21
11.8560547741
 31
0.0
 11
117.5665388255
 21
11.9889776866
 31
0.0
  0
SPLINE
  5
64B
100
AcDbEntity
  8
COPY-PUBBLISH
100
AcDbSpline
 62
7
  6
CONTINUOUS
 70
0
 71
3
 72
11
 73
7
 74
5
 42
0.0000001
 43
0.0000001
 44
0.0000000001
 12
0.8715759181
 22
0.2374531687
 32
0.0
 13
0.334588972
 23
0.8390946007
 33
0.0
 40
0.0
 40
0.0
 40
0.0
 40
0.0
 40
0.2451368122
 40
0.5033754508
 40
0.7579998268
 40
1.0
 40
1.0
 40
1.0
 40
1.0
 10
114.8796683072
 20
11.4500180381
 30
0.0
 10
114.9508867546
 20
11.4694208757
 30
0.0
 10
115.0976721594
 20
11.5076379352
 30
0.0
 10
115.310577138
 20
11.592349836
 30
0.0
 10
115.504088784
 20
11.7155150389
 30
0.0
 10
115.5979934671
 20
11.839517589
 30
0.0
 10
115.6249836635
 20
11.9072046019
 30
0.0
 11
114.8796683072
 21
11.4500180381
 31
0.0
 11
115.0925713198
 21
11.5109212099
 31
0.0
 11
115.3084034553
 21
11.599437927
 31
0.0
 11
115.4985433834
 21
11.7288709894
 31
0.0
 11
115.6249836635
 21
11.9072046019
 31
0.0
  0
SPLINE
  5
64C
100
AcDbEntity
  8
COPY-PUBBLISH
100
AcDbSpline
 62
7
  6
CONTINUOUS
 70
0
 71
3
 72
9
 73
5
 74
3
 42
0.0000001
 43
0.0000001
 44
0.0000000001
 12
1.0262397458
 22
0.2787238083
 32
0.0
 13
1.0260203832
 23
0.2795302006
 33
0.0
 40
0.0
 40
0.0
 40
0.0
 40
0.0
 40
0.5000513805
 40
1.0
 40
1.0
 40
1.0
 40
1.0
 10
113.8513909874
 20
11.1789112849
 30
0.0
 10
114.0224485213
 20
11.2253700266
 30
0.0
 10
114.3658770332
 20
11.3132163599
 30
0.0
 10
114.7086824826
 20
11.4034344581
 30
0.0
 10
114.8796683074
 20
11.4500180374
 30
0.0
 11
113.8513909874
 21
11.1789112849
 31
0.0
 11
114.3657565266
 21
11.3138184502
 31
0.0
 11
114.8796683074
 21
11.4500180374
 31
0.0
  0
SPLINE
  5
64D
100
AcDbEntity
  8
COPY-PUBBLISH
100
AcDbSpline
 62
7
  6
CONTINUOUS
 70
0
 71
3
 72
9
 73
5
 74
3
 42
0.0000001
 43
0.0000001
 44
0.0000000001
 12
-1.1266128214
 22
-0.4233545597
 32
0.0
 13
-1.156672646
 23
-0.3325480303
 33
0.0
 40
0.0
 40
0.0
 40
0.0
 40
0.0
 40
0.500076343
 40
1.0
 40
1.0
 40
1.0
 40
1.0
 10
115.0037808413
 20
12.2886951139
 30
0.0
 10
114.8159833681
 20
12.2181252473
 30
0.0
 10
114.4284168281
 20
12.1116255139
 30
0.0
 10
114.0441403272
 20
11.9972105409
 30
0.0
 10
113.8513909874
 20
11.9417943318
 30
0.0
 11
115.0037808413
 21
12.2886951139
 31
0.0
 11
114.4291804131
 21
12.1096298387
 31
0.0
 11
113.8513909874
 21
11.9417943318
 31
0.0
  0
SPLINE
  5
64E
100
AcDbEntity
  8
COPY-PUBBLISH
100
AcDbSpline
 62
7
  6
CONTINUOUS
 70
0
 71
3
 72
11
 73
7
 74
5
 42
0.0000001
 43
0.0000001
 44
0.0000000001
 12
0.0
 22
-0.5902104738
 32
0.0
 13
-0.5524959255
 23
-0.2076149542
 33
0.0
 40
0.0
 40
0.0
 40
0.0
 40
0.0
 40
0.2478749361
 40
0.4962538615
 40
0.7489803575
 40
1.0
 40
1.0
 40
1.0
 40
1.0
 10
115.338321989
 20
12.7310898001
 30
0.0
 10
115.338321989
 20
12.6823236723
 30
0.0
 10
115.3240497145
 20
12.5836197009
 30
0.0
 10
115.2510312455
 20
12.451913147
 30
0.0
 10
115.138818986
 20
12.3523159576
 30
0.0
 10
115.0500099673
 20
12.3060668819
 30
0.0
 10
115.0037808573
 20
12.2886950713
 30
0.0
 11
115.338321989
 21
12.7310898001
 31
0.0
 11
115.3155545796
 21
12.5865738422
 31
0.0
 11
115.245089818
 21
12.4580240129
 31
0.0
 11
115.1351278369
 21
12.3572390303
 31
0.0
 11
115.0037808573
 21
12.2886950713
 31
0.0
  0
SPLINE
  5
64F
100
AcDbEntity
  8
COPY-PUBBLISH
100
AcDbSpline
 62
7
  6
CONTINUOUS
 70
0
 71
3
 72
9
 73
5
 74
3
 42
0.0000001
 43
0.0000001
 44
0.0000000001
 12
0.1048660697
 22
-0.6145656706
 32
0.0
 13
-0.0718767241
 23
-0.6192913938
 33
0.0
 40
0.0
 40
0.0
 40
0.0
 40
0.0
 40
0.4997802102
 40
1.0
 40
1.0
 40
1.0
 40
1.0
 10
117.0036436817
 20
13.1826367853
 30
0.0
 10
117.0211136772
 20
13.0802541986
 30
0.0
 10
117.0465185404
 20
12.8733044679
 30
0.0
 10
117.0379972186
 20
12.6645843189
 30
0.0
 10
117.0260124987
 20
12.5613237153
 30
0.0
 11
117.0036436817
 21
13.1826367853
 31
0.0
 11
117.0380332817
 21
12.8729532233
 31
0.0
 11
117.0260124987
 21
12.5613237153
 31
0.0
  0
SPLINE
  5
650
100
AcDbEntity
  8
COPY-PUBBLISH
100
AcDbSpline
 62
7
  6
CONTINUOUS
 70
0
 71
3
 72
11
 73
7
 74
5
 42
0.0000001
 43
0.0000001
 44
0.0000000001
 12
-0.9662487166
 22
-0.0147704201
 32
0.0
 13
-0.0215785429
 23
0.9660998026
 33
0.0
 40
0.0
 40
0.0
 40
0.0
 40
0.0
 40
0.2490274728
 40
0.4972967301
 40
0.7462051884
 40
1.0
 40
1.0
 40
1.0
 40
1.0
 10
116.5508842037
 20
12.11328744
 30
0.0
 10
116.4706767117
 20
12.1120613599
 30
0.0
 10
116.3076149809
 20
12.1271007963
 30
0.0
 10
116.0931792239
 20
12.2604068494
 30
0.0
 10
115.9814270195
 20
12.485200489
 30
0.0
 10
115.9624207268
 20
12.6476498858
 30
0.0
 10
115.9605952194
 20
12.7293802583
 30
0.0
 11
116.5508842037
 21
12.11328744
 31
0.0
 11
116.312420338
 21
12.1456301025
 31
0.0
 11
116.1105406896
 21
12.2752553792
 31
0.0
 11
115.995834521
 21
12.4866728872
 31
0.0
 11
115.9605952194
 21
12.7293802583
 31
0.0
  0
SPLINE
  5
651
100
AcDbEntity
  8
COPY-PUBBLISH
100
AcDbSpline
 62
7
  6
CONTINUOUS
 70
0
 71
3
 72
9
 73
5
 74
3
 42
0.0000001
 43
0.0000001
 44
0.0000000001
 12
-0.0807484982
 22
-0.6957307891
 32
0.0
 13
-0.7002939521
 23
-0.0107049414
 33
0.0
 40
0.0
 40
0.0
 40
0.0
 40
0.0
 40
0.4999639062
 40
1.0
 40
1.0
 40
1.0
 40
1.0
 10
117.0260124989
 20
12.5613237153
 30
0.0
 10
117.0125553874
 20
12.4453769543
 30
0.0
 10
116.9104741386
 20
12.2102402862
 30
0.0
 10
116.6676082881
 20
12.1150717091
 30
0.0
 10
116.550884204
 20
12.1132874234
 30
0.0
 11
117.0260124989
 21
12.5613237153
 31
0.0
 11
116.8752904384
 21
12.2452442311
 31
0.0
 11
116.550884204
 21
12.1132874234
 31
0.0
  0
SPLINE
  5
652
100
AcDbEntity
  8
0
100
AcDbSpline
 62
7
  6
CONTINUOUS
 70
0
 71
3
 72
18
 73
14
 74
12
 42
0.0000001
 43
0.0000001
 44
0.0000000001
 12
0.0130758075
 22
-0.2495772883
 32
0.0
 13
-0.2495770801
 23
-0.0130797805
 33
0.0
 40
0.0
 40
0.0
 40
0.0
 40
0.0
 40
0.194859331
 40
0.3825730895
 40
0.5553326703
 40
0.7067367545
 40
0.8310650509
 40
0.8814826762
 40
0.9234438399
 40
0.9565253787
 40
0.9803868592
 40
0.994877762
 40
1.0
 40
1.0
 40
1.0
 40
1.0
 10
119.849636813
 20
-15.9980964738
 30
0.0
 10
119.8504861274
 20
-16.0143072949
 30
0.0
 10
119.8520997643
 20
-16.0461375412
 30
0.0
 10
119.8542811382
 20
-16.0923481176
 30
0.0
 10
119.8561267113
 20
-16.1349539257
 30
0.0
 10
119.8575581815
 20
-16.1722801793
 30
0.0
 10
119.8584417148
 20
-16.1994579825
 30
0.0
 10
119.8588556911
 20
-16.2174726177
 30
0.0
 10
119.8590617155
 20
-16.2279956293
 30
0.0
 10
119.8590168999
 20
-16.2360441125
 30
0.0
 10
119.8591498238
 20
-16.2424334345
 30
0.0
 10
119.8586060397
 20
-16.2452690165
 30
0.0
 10
119.8587838316
 20
-16.2477315249
 30
0.0
 10
119.8583577005
 20
-16.2477538575
 30
0.0
 11
119.849636813
 21
-15.9980964738
 31
0.0
 11
119.8521011404
 21
-16.0467332459
 31
0.0
 11
119.8543083494
 21
-16.0935946389
 31
0.0
 11
119.8561656137
 21
-16.1367306772
 31
0.0
 11
119.8576044656
 21
-16.1745421567
 31
0.0
 11
119.8585712887
 21
-16.2055991879
 31
0.0
 11
119.8588644668
 21
-16.2181961287
 31
0.0
 11
119.8590271355
 21
-16.2286817836
 31
0.0
 11
119.8590571933
 21
-16.2369494535
 31
0.0
 11
119.8589539437
 21
-16.242912011
 31
0.0
 11
119.8587198252
 21
-16.2465259961
 31
0.0
 11
119.8583577005
 21
-16.2477538575
 31
0.0
  0
SPLINE
  5
653
100
AcDbEntity
  8
0
100
AcDbSpline
 62
253
  6
CONTINUOUS
 70
0
 71
3
 72
18
 73
14
 74
12
 42
0.0000001
 43
0.0000001
 44
0.0000000001
 12
0.0130758132
 22
-0.2495772883
 32
0.0
 13
-0.2495770804
 23
-0.0130797806
 33
0.0
 40
0.0
 40
0.0
 40
0.0
 40
0.0
 40
0.1948593161
 40
0.3825730446
 40
0.5553326204
 40
0.7067367143
 40
0.8310650211
 40
0.8814826533
 40
0.9234438253
 40
0.9565253689
 40
0.9803868532
 40
0.9948777598
 40
1.0
 40
1.0
 40
1.0
 40
1.0
 10
122.9976603708
 20
-15.83311555
 30
0.0
 10
122.9985096855
 20
-15.8493263699
 30
0.0
 10
123.0001233228
 20
-15.8811566124
 30
0.0
 10
123.0023046971
 20
-15.9273671847
 30
0.0
 10
123.0041502704
 20
-15.9699729908
 30
0.0
 10
123.0055817407
 20
-16.0072992456
 30
0.0
 10
123.0064652739
 20
-16.0344770511
 30
0.0
 10
123.0068792497
 20
-16.0524916884
 30
0.0
 10
123.0070852738
 20
-16.0630147017
 30
0.0
 10
123.0070404579
 20
-16.0710631863
 30
0.0
 10
123.0071733813
 20
-16.0774525094
 30
0.0
 10
123.0066295971
 20
-16.0802880921
 30
0.0
 10
123.0068073884
 20
-16.0827506011
 30
0.0
 10
123.0063812572
 20
-16.0827729337
 30
0.0
 11
122.9976603708
 21
-15.83311555
 31
0.0
 11
123.000124699
 21
-15.8817523184
 31
0.0
 11
123.0023319082
 21
-15.9286137039
 31
0.0
 11
123.0041891728
 21
-15.971749741
 31
0.0
 11
123.0056280248
 21
-16.0095612229
 31
0.0
 11
123.0065948476
 21
-16.0406182567
 31
0.0
 11
123.0068880254
 21
-16.0532151993
 31
0.0
 11
123.0070506938
 21
-16.0637008564
 31
0.0
 11
123.0070807512
 21
-16.0719685274
 31
0.0
 11
123.0069775012
 21
-16.0779310858
 31
0.0
 11
123.0067433823
 21
-16.0815450719
 31
0.0
 11
123.0063812572
 21
-16.0827729337
 31
0.0
  0
SPLINE
  5
654
100
AcDbEntity
  8
0
100
AcDbSpline
 62
253
  6
CONTINUOUS
 70
0
 71
3
 72
18
 73
14
 74
12
 42
0.0000001
 43
0.0000001
 44
0.0000000001
 12
0.0130758075
 22
0.2495772883
 32
0.0
 13
-0.2495770802
 23
0.0130797805
 33
0.0
 40
0.0
 40
0.0
 40
0.0
 40
0.0
 40
0.194859331
 40
0.3825730895
 40
0.5553326703
 40
0.7067367545
 40
0.8310650509
 40
0.8814826762
 40
0.9234438399
 40
0.9565253787
 40
0.9803868592
 40
0.994877762
 40
1.0
 40
1.0
 40
1.0
 40
1.0
 10
122.9976603708
 20
27.6666937504
 30
0.0
 10
122.9985096852
 20
27.6829045715
 30
0.0
 10
123.000123322
 20
27.7147348178
 30
0.0
 10
123.0023046959
 20
27.7609453942
 30
0.0
 10
123.004150269
 20
27.8035512023
 30
0.0
 10
123.0055817393
 20
27.8408774559
 30
0.0
 10
123.0064652726
 20
27.8680552591
 30
0.0
 10
123.0068792488
 20
27.8860698942
 30
0.0
 10
123.0070852732
 20
27.8965929059
 30
0.0
 10
123.0070404576
 20
27.9046413891
 30
0.0
 10
123.0071733816
 20
27.9110307111
 30
0.0
 10
123.0066295975
 20
27.9138662931
 30
0.0
 10
123.0068073893
 20
27.9163288015
 30
0.0
 10
123.0063812582
 20
27.916351134
 30
0.0
 11
122.9976603708
 21
27.6666937504
 31
0.0
 11
123.0001246982
 21
27.7153305225
 31
0.0
 11
123.0023319072
 21
27.7621919155
 31
0.0
 11
123.0041891715
 21
27.8053279538
 31
0.0
 11
123.0056280234
 21
27.8431394332
 31
0.0
 11
123.0065948465
 21
27.8741964644
 31
0.0
 11
123.0068880246
 21
27.8867934053
 31
0.0
 11
123.0070506933
 21
27.8972790602
 31
0.0
 11
123.007080751
 21
27.9055467301
 31
0.0
 11
123.0069775014
 21
27.9115092875
 31
0.0
 11
123.0067433829
 21
27.9151232726
 31
0.0
 11
123.0063812582
 21
27.916351134
 31
0.0
  0
LINE
  5
655
100
AcDbEntity
  8
0
100
AcDbLine
 62
7
  6
CONTINUOUS
 10
119.849636813
 20
27.8314460137
 11
119.8627208021
 21
28.0811033974
  0
SPLINE
  5
656
100
AcDbEntity
  8
0
100
AcDbSpline
 62
7
  6
CONTINUOUS
 70
0
 71
3
 72
8
 73
4
 74
2
 42
0.0000001
 43
0.0000001
 44
0.0000000001
 12
-0.1858712458
 22
0.0008959064
 32
0.0
 13
-0.1801900187
 23
0.0478326661
 33
0.0
 40
0.0
 40
0.0
 40
0.0
 40
0.0
 40
1.0
 40
1.0
 40
1.0
 40
1.0
 10
116.5306853499
 20
12.1131797579
 30
0.0
 10
116.468728268
 20
12.1134783934
 30
0.0
 10
116.4058855809
 20
12.1196875502
 30
0.0
 10
116.3458222413
 20
12.1356317722
 30
0.0
 11
116.5306853499
 21
12.1131797579
 31
0.0
 11
116.3458222413
 21
12.1356317722
 31
0.0
  0
SPLINE
  5
657
100
AcDbEntity
  8
0
100
AcDbSpline
 62
7
  6
CONTINUOUS
 70
0
 71
3
 72
9
 73
5
 74
3
 42
0.0000001
 43
0.0000001
 44
0.0000000001
 12
-0.1674689973
 22
0.0510189926
 32
0.0
 13
-0.1398808818
 23
0.1067200811
 33
0.0
 40
0.0
 40
0.0
 40
0.0
 40
0.0
 40
0.3206931914
 40
1.0
 40
1.0
 40
1.0
 40
1.0
 10
116.3263784515
 20
12.1411690973
 30
0.0
 10
116.3084763957
 20
12.1466229118
 30
0.0
 10
116.2535526804
 20
12.166502371
 30
0.0
 10
116.2024078292
 20
12.1963580681
 30
0.0
 10
116.1707338174
 20
12.220523294
 30
0.0
 11
116.3263784515
 21
12.1411690973
 31
0.0
 11
116.2736377066
 21
12.1603993237
 31
0.0
 11
116.1707338174
 21
12.220523294
 31
0.0
  0
SPLINE
  5
658
100
AcDbEntity
  8
0
100
AcDbSpline
 62
7
  6
CONTINUOUS
 70
0
 71
3
 72
9
 73
5
 74
3
 42
0.0000001
 43
0.0000001
 44
0.0000000001
 12
-0.1599765151
 22
0.1724951984
 32
0.0
 13
-0.0706830567
 23
0.2289931875
 33
0.0
 40
0.0
 40
0.0
 40
0.0
 40
0.0
 40
0.1190003272
 40
1.0
 40
1.0
 40
1.0
 40
1.0
 10
116.1114425748
 20
12.2742800452
 30
0.0
 10
116.1050968223
 20
12.2811223735
 30
0.0
 10
116.0536159469
 20
12.3402049775
 30
0.0
 10
116.0188576916
 20
12.4119369148
 30
0.0
 10
115.9981004416
 20
12.4791845559
 30
0.0
 11
116.1114425748
 21
12.2742800452
 31
0.0
 11
116.0930811506
 21
12.2953632001
 31
0.0
 11
115.9981004416
 21
12.4791845559
 31
0.0
  0
SPLINE
  5
659
100
AcDbEntity
  8
0
100
AcDbSpline
 62
7
  6
CONTINUOUS
 70
0
 71
3
 72
8
 73
4
 74
2
 42
0.0000001
 43
0.0000001
 44
0.0000000001
 12
-0.0496784862
 22
0.1768450632
 32
0.0
 13
-0.0124038672
 23
0.181596181
 33
0.0
 40
0.0
 40
0.0
 40
0.0
 40
0.0
 40
1.0
 40
1.0
 40
1.0
 40
1.0
 10
115.9929380337
 20
12.4967058678
 30
0.0
 10
115.9763785383
 20
12.5556542222
 30
0.0
 10
115.9670502929
 20
12.6172805223
 30
0.0
 10
115.9629156705
 20
12.6778125826
 30
0.0
 11
115.9929380337
 21
12.4967058678
 31
0.0
 11
115.9629156705
 21
12.6778125826
 31
0.0
  0
SPLINE
  5
65A
100
AcDbEntity
  8
0
100
AcDbSpline
 62
7
  6
CONTINUOUS
 70
0
 71
3
 72
9
 73
5
 74
3
 42
0.0000001
 43
0.0000001
 44
0.0000000001
 12
-0.1388296892
 22
-0.4849385631
 32
0.0
 13
-0.4898406421
 23
-0.1299934172
 33
0.0
 40
0.0
 40
0.0
 40
0.0
 40
0.0
 40
0.5264503431
 40
1.0
 40
1.0
 40
1.0
 40
1.0
 10
117.0080905387
 20
12.4717661394
 30
0.0
 10
116.9837282262
 20
12.3866674484
 30
0.0
 10
116.8985409329
 20
12.2332614148
 30
0.0
 10
116.7431988903
 20
12.1499597774
 30
0.0
 10
116.6658776009
 20
12.1294403313
 30
0.0
 11
117.0080905387
 21
12.4717661394
 31
0.0
 11
116.8745910804
 21
12.2445755612
 31
0.0
 11
116.6658776009
 21
12.1294403313
 31
0.0
  0
SPLINE
  5
65B
100
AcDbEntity
  8
0
100
AcDbSpline
 62
7
  6
CONTINUOUS
 70
0
 71
3
 72
8
 73
4
 74
2
 42
0.0000001
 43
0.0000001
 44
0.0000000001
 12
-0.1135373537
 22
-0.0301304288
 32
0.0
 13
-0.1147289146
 23
-0.0017944163
 33
0.0
 40
0.0
 40
0.0
 40
0.0
 40
0.0
 40
1.0
 40
1.0
 40
1.0
 40
1.0
 10
116.6658776009
 20
12.1294403313
 30
0.0
 10
116.6280318164
 20
12.1193968551
 30
0.0
 10
116.5892854507
 20
12.1138880097
 30
0.0
 10
116.5510424791
 20
12.1132898709
 30
0.0
 11
116.6658776009
 21
12.1294403313
 31
0.0
 11
116.5510424791
 21
12.1132898709
 31
0.0
  0
SPLINE
  5
65C
100
AcDbEntity
  8
0
100
AcDbSpline
 62
7
  6
CONTINUOUS
 70
0
 71
3
 72
9
 73
5
 74
3
 42
0.0000001
 43
0.0000001
 44
0.0000000001
 12
0.0417294594
 22
-0.2785611051
 32
0.0
 13
0.0048780296
 23
-0.2824515134
 33
0.0
 40
0.0
 40
0.0
 40
0.0
 40
0.0
 40
0.342555707
 40
1.0
 40
1.0
 40
1.0
 40
1.0
 10
117.0150787721
 20
13.1115748046
 30
0.0
 10
117.0198436603
 20
13.0797672392
 30
0.0
 10
117.0322305528
 20
12.9866768344
 30
0.0
 10
117.0381301071
 20
12.8926181737
 30
0.0
 10
117.039199118
 20
12.8307194618
 30
0.0
 11
117.0150787721
 21
13.1115748046
 31
0.0
 11
117.0275688088
 21
13.0158763209
 31
0.0
 11
117.039199118
 21
12.8307194618
 31
0.0
  0
SPLINE
  5
65D
100
AcDbEntity
  8
0
100
AcDbSpline
 62
7
  6
CONTINUOUS
 70
0
 71
3
 72
8
 73
4
 74
2
 42
0.0000001
 43
0.0000001
 44
0.0000000001
 12
0.169674142
 22
0.0462243464
 32
0.0
 13
0.1698554317
 23
0.0514231483
 33
0.0
 40
0.0
 40
0.0
 40
0.0
 40
0.0
 40
1.0
 40
1.0
 40
1.0
 40
1.0
 10
114.8797658823
 20
11.450044621
 30
0.0
 10
114.9363239296
 20
11.4654527365
 30
0.0
 10
114.9919514224
 20
11.4799384397
 30
0.0
 10
115.0485698997
 20
11.4970794892
 30
0.0
 11
114.8797658823
 21
11.450044621
 31
0.0
 11
115.0485698997
 21
11.4970794892
 31
0.0
  0
SPLINE
  5
65E
100
AcDbEntity
  8
0
100
AcDbSpline
 62
7
  6
CONTINUOUS
 70
0
 71
3
 72
9
 73
5
 74
3
 42
0.0000001
 43
0.0000001
 44
0.0000000001
 12
0.1717198075
 22
0.0519875817
 32
0.0
 13
0.1740840761
 23
0.0738529191
 33
0.0
 40
0.0
 40
0.0
 40
0.0
 40
0.0
 40
0.2183679642
 40
1.0
 40
1.0
 40
1.0
 40
1.0
 10
115.0485698997
 20
11.4970794892
 30
0.0
 10
115.0610692679
 20
11.5008636299
 30
0.0
 10
115.1185303796
 20
11.5187854653
 30
0.0
 10
115.1774379214
 20
11.5402285356
 30
0.0
 10
115.222794485
 20
11.5594704715
 30
0.0
 11
115.0485698997
 21
11.4970794892
 31
0.0
 11
115.0862335723
 21
11.5088586479
 31
0.0
 11
115.222794485
 21
11.5594704715
 31
0.0
  0
SPLINE
  5
65F
100
AcDbEntity
  8
0
100
AcDbSpline
 62
7
  6
CONTINUOUS
 70
0
 71
3
 72
8
 73
4
 74
2
 42
0.0000001
 43
0.0000001
 44
0.0000000001
 12
0.1258349471
 22
0.1102709506
 32
0.0
 13
0.0847033795
 23
0.1384586081
 33
0.0
 40
0.0
 40
0.0
 40
0.0
 40
0.0
 40
1.0
 40
1.0
 40
1.0
 40
1.0
 10
115.4850990404
 20
11.7167579208
 30
0.0
 10
115.5270440228
 20
11.7535149043
 30
0.0
 10
115.5634268033
 20
11.7946981984
 30
0.0
 10
115.5916612631
 20
11.8408510677
 30
0.0
 11
115.4850990404
 21
11.7167579208
 31
0.0
 11
115.5916612631
 21
11.8408510677
 31
0.0
  0
SPLINE
  5
660
100
AcDbEntity
  8
0
100
AcDbSpline
 62
7
  6
CONTINUOUS
 70
0
 71
3
 72
9
 73
5
 74
3
 42
0.0000001
 43
0.0000001
 44
0.0000000001
 12
0.2287978006
 22
0.0621408346
 32
0.0
 13
0.2294035505
 23
0.0598814034
 33
0.0
 40
0.0
 40
0.0
 40
0.0
 40
0.0
 40
0.88824815
 40
1.0
 40
1.0
 40
1.0
 40
1.0
 10
113.8513909874
 20
11.1789112849
 30
0.0
 10
113.9191340618
 20
11.1973101121
 30
0.0
 10
113.995571421
 20
11.2173855506
 30
0.0
 10
114.0720365642
 20
11.237356234
 30
0.0
 10
114.0805819879
 20
11.2395868532
 30
0.0
 11
113.8513909874
 21
11.1789112849
 31
0.0
 11
114.0549466687
 21
11.2328914042
 31
0.0
 11
114.0805819879
 21
11.2395868532
 31
0.0
  0
SPLINE
  5
661
100
AcDbEntity
  8
0
100
AcDbSpline
 62
7
  6
CONTINUOUS
 70
0
 71
3
 72
8
 73
4
 74
2
 42
0.0000001
 43
0.0000001
 44
0.0000000001
 12
-0.400152375
 22
-0.1503317044
 32
0.0
 13
-0.4110147918
 23
-0.1185791408
 33
0.0
 40
0.0
 40
0.0
 40
0.0
 40
0.0
 40
1.0
 40
1.0
 40
1.0
 40
1.0
 10
115.0035367116
 20
12.2886033868
 30
0.0
 10
114.8701525866
 20
12.2384928186
 30
0.0
 10
114.733849688
 20
12.1968387752
 30
0.0
 10
114.5968447574
 20
12.1573123949
 30
0.0
 11
115.0035367116
 21
12.2886033868
 31
0.0
 11
114.5968447574
 21
12.1573123949
 31
0.0
  0
SPLINE
  5
662
100
AcDbEntity
  8
0
100
AcDbSpline
 62
7
  6
CONTINUOUS
 70
0
 71
3
 72
9
 73
5
 74
3
 42
0.0000001
 43
0.0000001
 44
0.0000000001
 12
-0.5049617635
 22
-0.1456831561
 32
0.0
 13
-0.5038057423
 23
-0.1479738211
 33
0.0
 40
0.0
 40
0.0
 40
0.0
 40
0.0
 40
0.4659505696
 40
1.0
 40
1.0
 40
1.0
 40
1.0
 10
114.5968447574
 20
12.1573123949
 30
0.0
 10
114.5184156836
 20
12.1346853451
 30
0.0
 10
114.3496013552
 20
12.0876206831
 30
0.0
 10
114.1816427791
 20
12.0382989947
 30
0.0
 10
114.0919570559
 20
12.0119572164
 30
0.0
 11
114.5968447574
 21
12.1573123949
 31
0.0
 11
114.361283211
 21
12.0903357101
 31
0.0
 11
114.0919570559
 21
12.0119572164
 31
0.0
  0
SPLINE
  5
663
100
AcDbEntity
  8
0
100
AcDbSpline
 62
7
  6
CONTINUOUS
 70
0
 71
3
 72
9
 73
5
 74
3
 42
0.0000001
 43
0.0000001
 44
0.0000000001
 12
0.0
 22
-0.5825628499
 32
0.0
 13
-0.545418958
 23
-0.2046891165
 33
0.0
 40
0.0
 40
0.0
 40
0.0
 40
0.0
 40
0.3559141631
 40
1.0
 40
1.0
 40
1.0
 40
1.0
 10
115.338321989
 20
12.7310898001
 30
0.0
 10
115.338321989
 20
12.6619756771
 30
0.0
 10
115.2964711949
 20
12.4631528792
 30
0.0
 10
115.120635587
 20
12.3325491737
 30
0.0
 10
115.0035367116
 20
12.2886033868
 30
0.0
 11
115.338321989
 21
12.7310898001
 31
0.0
 11
115.2915588965
 21
12.5290896238
 31
0.0
 11
115.0035367116
 21
12.2886033868
 31
0.0
  0
SPLINE
  5
664
100
AcDbEntity
  8
0
100
AcDbSpline
 62
7
  6
CONTINUOUS
 70
0
 71
3
 72
8
 73
4
 74
2
 42
0.0000001
 43
0.0000001
 44
0.0000000001
 12
0.0711754205
 22
0.1970105892
 32
0.0
 13
0.047319936
 23
0.2043727864
 33
0.0
 40
0.0
 40
0.0
 40
0.0
 40
0.0
 40
1.0
 40
1.0
 40
1.0
 40
1.0
 10
117.5665388255
 20
11.9889776866
 30
0.0
 10
117.5902639656
 20
12.054647883
 30
0.0
 10
117.6095725284
 20
12.1218054113
 30
0.0
 10
117.6253458405
 20
12.1899296735
 30
0.0
 11
117.5665388255
 21
11.9889776866
 31
0.0
 11
117.6253458405
 21
12.1899296735
 31
0.0
  0
SPLINE
  5
665
100
AcDbEntity
  8
0
100
AcDbSpline
 62
7
  6
CONTINUOUS
 70
0
 71
3
 72
9
 73
5
 74
3
 42
0.0000001
 43
0.0000001
 44
0.0000000001
 12
0.3978438504
 22
1.7182706287
 32
0.0
 13
-0.256336642
 23
1.742399541
 33
0.0
 40
0.0
 40
0.0
 40
0.0
 40
0.0
 40
0.2119766235
 40
1.0
 40
1.0
 40
1.0
 40
1.0
 10
117.6253458405
 20
12.1899296735
 30
0.0
 10
117.6534570391
 20
12.3113407422
 30
0.0
 10
117.7330997988
 20
12.8985830646
 30
0.0
 10
117.6738751933
 20
13.488576777
 30
0.0
 10
117.6065421046
 20
13.9462606336
 30
0.0
 11
117.6253458405
 21
12.1899296735
 31
0.0
 11
117.6809819671
 21
12.5604276627
 31
0.0
 11
117.6065421046
 21
13.9462606336
 31
0.0
  0
SPLINE
  5
666
100
AcDbEntity
  8
0
100
AcDbSpline
 62
7
  6
CONTINUOUS
 70
0
 71
3
 72
8
 73
4
 74
2
 42
0.0000001
 43
0.0000001
 44
0.0000000001
 12
0.0041263785
 22
-0.0319794332
 32
0.0
 13
0.0114468797
 23
-0.0297655186
 33
0.0
 40
0.0
 40
0.0
 40
0.0
 40
0.0
 40
1.0
 40
1.0
 40
1.0
 40
1.0
 10
115.6474356463
 20
11.9072046019
 30
0.0
 10
115.6488111058
 20
11.8965447908
 30
0.0
 10
115.6515759011
 20
11.8862923573
 30
0.0
 10
115.6553915276
 20
11.8763705177
 30
0.0
 11
115.6474356463
 21
11.9072046019
 31
0.0
 11
115.6553915276
 21
11.8763705177
 31
0.0
  0
SPLINE
  5
667
100
AcDbEntity
  8
0
100
AcDbSpline
 62
7
  6
CONTINUOUS
 70
0
 71
3
 72
8
 73
4
 74
2
 42
0.0000001
 43
0.0000001
 44
0.0000000001
 12
0.0073695128
 22
-0.0191630711
 32
0.0
 13
0.0097118204
 23
-0.0184023914
 33
0.0
 40
0.0
 40
0.0
 40
0.0
 40
0.0
 40
1.0
 40
1.0
 40
1.0
 40
1.0
 10
115.6553915276
 20
11.8763705177
 30
0.0
 10
115.6578480319
 20
11.8699828274
 30
0.0
 10
115.6607400844
 20
11.8637321615
 30
0.0
 10
115.6639773579
 20
11.857598031
 30
0.0
 11
115.6553915276
 21
11.8763705177
 31
0.0
 11
115.6639773579
 21
11.857598031
 31
0.0
  0
SPLINE
  5
668
100
AcDbEntity
  8
0
100
AcDbSpline
 62
7
  6
CONTINUOUS
 70
0
 71
3
 72
19
 73
15
 74
13
 42
0.0000001
 43
0.0000001
 44
0.0000000001
 12
1.1930889721
 22
-1.9639241101
 32
0.0
 13
0.8893589401
 23
2.0864408524
 33
0.0
 40
0.0
 40
0.0
 40
0.0
 40
0.0
 40
0.0292213007
 40
0.1469623471
 40
0.2219549584
 40
0.3065119867
 40
0.4017990625
 40
0.4543762371
 40
0.5108596577
 40
0.5993720817
 40
0.678936423
 40
0.8175204953
 40
0.9320483111
 40
1.0
 40
1.0
 40
1.0
 40
1.0
 10
115.6705750839
 20
11.8459885581
 30
0.0
 10
115.6821962878
 20
11.8268590858
 30
0.0
 10
115.7553744508
 20
11.7359515129
 30
0.0
 10
115.8656121919
 20
11.6134667303
 30
0.0
 10
116.0427617581
 20
11.4971116919
 30
0.0
 10
116.2195466194
 20
11.4191013758
 30
0.0
 10
116.3922261441
 20
11.3801561785
 30
0.0
 10
116.5463774643
 20
11.3681160158
 30
0.0
 10
116.6958764778
 20
11.3707655994
 30
0.0
 10
116.8647329082
 20
11.3951618059
 30
0.0
 10
117.0858216018
 20
11.4678201839
 30
0.0
 10
117.3025588558
 20
11.6043492404
 30
0.0
 10
117.4642146572
 20
11.7882070014
 30
0.0
 10
117.5335004569
 20
11.9089603933
 30
0.0
 10
117.5536449375
 20
11.9562194531
 30
0.0
 11
115.6705750839
 21
11.8459885581
 31
0.0
 11
115.7112897053
 21
11.7910955473
 31
0.0
 11
115.8970714938
 21
11.5993873471
 31
0.0
 11
116.0385851637
 21
11.5051255917
 31
0.0
 11
116.2140606186
 21
11.4278944792
 31
0.0
 11
116.4246578093
 21
11.3796708191
 31
0.0
 11
116.5434895402
 21
11.3701795369
 31
0.0
 11
116.6715366866
 21
11.3724314214
 31
0.0
 11
116.870016943
 21
11.4021140094
 31
0.0
 11
117.041255383
 21
11.4588701308
 31
0.0
 11
117.3070018815
 21
11.6265334469
 31
0.0
 11
117.4787663173
 21
11.8212823166
 31
0.0
 11
117.5536449375
 21
11.9562194531
 31
0.0
  0
ELLIPSE
  5
669
100
AcDbEntity
  8
RACCORDO
100
AcDbEllipse
 62
7
  6
CONTINUOUS
 10
32.7852533351
 20
37.4952078812
 30
0.0
 11
0.8
 21
0.0
 31
0.0
 40
0.0349207695
 41
1.5707963268
 42
3.1066860685
  0
ELLIPSE
  5
66A
100
AcDbEntity
  8
RACCORDO
100
AcDbEllipse
 62
7
  6
CONTINUOUS
 10
-32.7852533351
 20
37.4952078812
 30
0.0
 11
0.8
 21
0.0
 31
0.0
 40
0.0349207695
 41
0.034906585
 42
1.5707963268
  0
ELLIPSE
  5
66B
100
AcDbEntity
  8
RACCORDO
100
AcDbEllipse
 62
7
  6
CONTINUOUS
 10
-34.0637842365
 20
-26.5834721165
 30
0.0
 11
0.0
 21
1.2438879098
 31
0.0
 40
0.0087268678
 41
0.034906585
 42
3.1328660073
  0
ELLIPSE
  5
66C
100
AcDbEntity
  8
RACCORDO
100
AcDbEllipse
 62
7
  6
CONTINUOUS
 10
34.0637842365
 20
-26.5834721165
 30
0.0
 11
0.0
 21
1.2438879098
 31
0.0
 40
0.0087268678
 41
-3.1328660073
 42
-0.034906585
  0
ELLIPSE
  5
66D
100
AcDbEntity
  8
RACCORDO
100
AcDbEllipse
 62
7
  6
CONTINUOUS
 10
-28.1029336756
 20
-24.7816262897
 30
0.0
 11
3.0
 21
-0.0
 31
0.0
 40
0.0349207695
 41
1.5707963268
 42
3.1066860685
  0
ELLIPSE
  5
66E
100
AcDbEntity
  8
RACCORDO
100
AcDbEllipse
 62
7
  6
CONTINUOUS
 10
28.1029336756
 20
-24.7816262897
 30
0.0
 11
3.0
 21
0.0
 31
0.0
 40
0.0349207695
 41
0.034906585
 42
1.5707963268
  0
ELLIPSE
  5
66F
100
AcDbEntity
  8
RACCORDO
100
AcDbEllipse
 62
7
  6
CONTINUOUS
 10
-28.1029336756
 20
-30.2689239744
 30
0.0
 11
3.0
 21
0.0
 31
0.0
 40
0.0349207695
 41
-3.1066860685
 42
-1.5707963268
  0
ELLIPSE
  5
670
100
AcDbEntity
  8
RACCORDO
100
AcDbEllipse
 62
7
  6
CONTINUOUS
 10
28.1029336756
 20
-30.2689239744
 30
0.0
 11
3.0
 21
0.0
 31
0.0
 40
0.0349207695
 41
-1.5707963268
 42
-0.034906585
  0
ELLIPSE
  5
671
100
AcDbEntity
  8
RACCORDO
100
AcDbEllipse
 62
7
  6
CONTINUOUS
 10
28.1029336756
 20
36.61520449
 30
0.0
 11
3.0
 21
-0.0
 31
0.0
 40
0.0349207695
 41
-1.5707963268
 42
-0.034906585
  0
ELLIPSE
  5
672
100
AcDbEntity
  8
RACCORDO
100
AcDbEllipse
 62
7
  6
CONTINUOUS
 10
-28.1029336756
 20
36.61520449
 30
0.0
 11
3.0
 21
0.0
 31
0.0
 40
0.0349207695
 41
-3.1066860685
 42
-1.5707963268
  0
ELLIPSE
  5
673
100
AcDbEntity
  8
RACCORDO
100
AcDbEllipse
 62
7
  6
CONTINUOUS
 10
32.4113899366
 20
-36.845116671
 30
0.0
 11
1.5
 21
0.0
 31
0.0
 40
0.0349207695
 41
0.0087266463
 42
1.5707963268
  0
ELLIPSE
  5
674
100
AcDbEntity
  8
RACCORDO
100
AcDbEllipse
 62
7
  6
CONTINUOUS
 10
-32.4113899366
 20
-36.845116671
 30
0.0
 11
1.5
 21
-0.0
 31
0.0
 40
0.0349207695
 41
1.5707963268
 42
3.1328660073
  0
ELLIPSE
  5
675
100
AcDbEntity
  8
ASSI
100
AcDbEllipse
 62
7
  6
CONTINUOUS
 10
-33.8775245808
 20
-29.5137241648
 30
0.0
 11
-0.0
 21
1.5
 31
0.0
 40
0.0087268678
 41
-0.872664626
 42
-0.0087266463
  0
ELLIPSE
  5
676
100
AcDbEntity
  8
ASSI
100
AcDbEllipse
 62
7
  6
CONTINUOUS
 10
33.8775245808
 20
-29.5137241648
 30
0.0
 11
0.0
 21
1.5
 31
0.0
 40
0.0087268678
 41
0.0087266463
 42
0.872664626
  0
ELLIPSE
  5
677
100
AcDbEntity
  8
0
100
AcDbEllipse
 62
7
  6
CONTINUOUS
 10
35.55
 20
-15.9978678133
 30
0.0
 11
0.0
 21
0.2503430865
 31
0.0
 40
0.9986295348
 41
-3.1415926536
 42
-1.5707963268
  0
ELLIPSE
  5
678
100
AcDbEntity
  8
0
100
AcDbEllipse
 62
7
  6
CONTINUOUS
 10
-35.55
 20
27.8314460137
 30
0.0
 11
0.0
 21
0.2503430865
 31
0.0
 40
0.9986295348
 41
0.0
 42
1.5707963268
  0
ELLIPSE
  5
679
100
AcDbEntity
  8
0
100
AcDbEllipse
 62
7
  6
CONTINUOUS
 10
-33.803730888
 20
-14.5848286315
 30
0.0
 11
-0.0
 21
1.5
 31
0.0
 40
0.0174550649
 41
-4.6712507627
 42
-3.1939525311
  0
ELLIPSE
  5
67A
100
AcDbEntity
  8
0
100
AcDbEllipse
 62
7
  6
CONTINUOUS
 10
35.55
 20
27.8314460137
 30
0.0
 11
0.0
 21
0.2503430865
 31
0.0
 40
0.9986295348
 41
-1.5707963268
 42
0.0
  0
ELLIPSE
  5
67B
100
AcDbEntity
  8
0
100
AcDbEllipse
 62
7
  6
CONTINUOUS
 10
-35.55
 20
-15.9978678133
 30
0.0
 11
0.0
 21
0.2503430865
 31
0.0
 40
0.9986295348
 41
1.5707963268
 42
3.1415926536
  0
ELLIPSE
  5
67C
100
AcDbEntity
  8
0
100
AcDbEllipse
 62
7
  6
CONTINUOUS
 10
-25.1097428605
 20
5.9167891002
 30
0.0
 11
0.0
 21
500.0
 31
0.0
 40
0.0174550649
 41
1.5296581091
 42
1.6119345445
  0
ELLIPSE
  5
67D
100
AcDbEntity
  8
0
100
AcDbEllipse
 62
7
  6
CONTINUOUS
 10
-33.803730888
 20
26.4184068319
 30
0.0
 11
0.0
 21
1.5
 31
0.0
 40
0.0174550649
 41
0.0523598776
 42
1.5296581091
  0
ELLIPSE
  5
67E
100
AcDbEntity
  8
0
100
AcDbEllipse
 62
7
  6
CONTINUOUS
 10
33.803730888
 20
26.4184068319
 30
0.0
 11
-0.0
 21
1.5
 31
0.0
 40
0.0174550649
 41
-1.5296581091
 42
-0.0523598776
  0
ELLIPSE
  5
67F
100
AcDbEntity
  8
0
100
AcDbEllipse
 62
7
  6
CONTINUOUS
 10
25.1097428605
 20
5.9167891002
 30
0.0
 11
0.0
 21
500.0
 31
0.0
 40
0.0174550649
 41
-1.6119345445
 42
-1.5296581091
  0
ELLIPSE
  5
680
100
AcDbEntity
  8
0
100
AcDbEllipse
 62
7
  6
CONTINUOUS
 10
33.803730888
 20
-14.5848286315
 30
0.0
 11
-0.0
 21
1.5
 31
0.0
 40
0.0174550649
 41
-3.089232776
 42
-1.6119345445
  0
ELLIPSE
  5
681
100
AcDbEntity
  8
DRAFT
100
AcDbEllipse
 62
7
  6
CONTINUOUS
 10
-97.394354631
 20
-4.3832108998
 30
0.0
 11
6.8366857671
 21
0.0000000022
 31
0.0
 40
0.9999997085
 41
3.1415926533
 42
4.711625478
  0
ELLIPSE
  5
682
100
AcDbEntity
  8
DRAFT
100
AcDbEllipse
 62
7
  6
CONTINUOUS
 10
-86.3943482187
 20
-4.3832108998
 30
0.0
 11
6.845084294
 21
0.0000000009
 31
0.0
 40
0.9999997085
 41
-1.571559829
 42
-0.0000000001
  0
ELLIPSE
  5
683
100
AcDbEntity
  8
DRAFT
100
AcDbEllipse
 62
7
  6
CONTINUOUS
 10
-86.3943482187
 20
16.2167891002
 30
0.0
 11
6.845084294
 21
-0.000000012
 31
0.0
 40
0.9999997085
 41
0.0000000017
 42
1.5715598306
  0
ELLIPSE
  5
684
100
AcDbEntity
  8
DRAFT
100
AcDbEllipse
 62
7
  6
CONTINUOUS
 10
-97.394354631
 20
16.2167891002
 30
0.0
 11
6.8366857671
 21
-0.0000000014
 31
0.0
 40
0.9999997085
 41
1.5715598291
 42
3.1415926538
  0
ELLIPSE
  5
685
100
AcDbEntity
  8
DRAFT
100
AcDbEllipse
 62
7
  6
CONTINUOUS
 10
87.8444105775
 20
16.2167891002
 30
0.0
 11
6.845084294
 21
0.0000000017
 31
0.0
 40
0.9999997085
 41
1.5700328245
 42
3.1415926533
  0
ELLIPSE
  5
686
100
AcDbEntity
  8
DRAFT
100
AcDbEllipse
 62
7
  6
CONTINUOUS
 10
87.8444105775
 20
-4.3832108998
 30
0.0
 11
6.845084294
 21
-0.0000000085
 31
0.0
 40
0.9999997085
 41
-3.1415926523
 42
-1.5700328235
  0
ELLIPSE
  5
687
100
AcDbEntity
  8
DRAFT
100
AcDbEllipse
 62
7
  6
CONTINUOUS
 10
98.8444169898
 20
-4.3832108998
 30
0.0
 11
6.8366857671
 21
-0.0000000123
 31
0.0
 40
0.9999997085
 41
-1.5700328229
 42
0.0000000018
  0
ELLIPSE
  5
688
100
AcDbEntity
  8
DRAFT
100
AcDbEllipse
 62
7
  6
CONTINUOUS
 10
98.8444169898
 20
16.2167891002
 30
0.0
 11
6.8366857671
 21
-0.000000002
 31
0.0
 40
0.9999997085
 41
0.0000000003
 42
1.570032825
  0
ENDSEC
  0
SECTION
  2
OBJECTS
  0
DICTIONARY
  5
C
100
AcDbDictionary
280
0
281
1
  3
ACAD_GROUP
350
D
  3
ACAD_MLINESTYLE
350
17
  3
ACAD_LAYOUT
350
1A
  3
ACAD_PLOTSETTINGS
350
19
  3
ACAD_PLOTSTYLENAME
350
E
  0
DICTIONARY
  5
D
102
{ACAD_REACTORS
330
C
102
}
100
AcDbDictionary
280
0
281
1
  0
ACDBDICTIONARYWDFLT
  5
E
102
{ACAD_REACTORS
330
C
102
}
100
AcDbDictionary
281
1
  3
Normal
350
F
100
AcDbDictionaryWithDefault
340
F
  0
DICTIONARY
  5
17
102
{ACAD_REACTORS
330
C
102
}
100
AcDbDictionary
280
0
281
1
  3
Standard
350
18
  0
DICTIONARY
  5
19
102
{ACAD_REACTORS
330
C
102
}
100
AcDbDictionary
281
1
  0
DICTIONARY
  5
1A
102
{ACAD_REACTORS
330
C
102
}
100
AcDbDictionary
281
1
  3
Model
350
689
  3
Layout1
350
68A
  0
ACDBPLACEHOLDER
  5
F
102
{ACAD_REACTORS
330
E
102
}
  0
MLINESTYLE
  5
18
102
{ACAD_REACTORS
330
17
102
}
100
AcDbMlineStyle
  2
STANDARD
 70
0
  3

 62
256
 51
90.0
 52
90.0
 71
2
 49
0.5
 62
256
  6
BYLAYER
 49
-0.5
 62
256
  6
BYLAYER
  0
LAYOUT
  5
689
102
{ACAD_REACTORS
330
1A
102
}
100
AcDbPlotSettings
  1

  2
none_device
  4
ISO_A4_(297.00_x_210.00_MM)
  6

 40
0.0
 41
0.0
 42
0.0
 43
0.0
 44
297.0
 45
210.0
 46
0.0
 47
0.0
 48
0.0
 49
0.0
140
0.0
141
0.0
142
1.0
143
1.0
 70
1024
 72
1
 73
0
 74
0
  7

 75
0
147
1.0
148
0.0
149
0.0
100
AcDbLayout
  1
Model
 70
0
 71
0
 10
0.0
 20
0.0
 11
297.0
 21
210.0
 12
0.0
 22
0.0
 32
0.0
 14
0.0
 24
0.0
 34
0.0
 15
0.0
 25
0.0
 35
0.0
146
0.0
 13
0.0
 23
0.0
 33
0.0
 16
1.0
 26
0.0
 36
0.0
 17
0.0
 27
1.0
 37
0.0
 76
0
330
216
345
0
346
0
  0
LAYOUT
  5
68A
102
{ACAD_REACTORS
330
1A
102
}
100
AcDbPlotSettings
  1

  2
none_device
  4
ISO_A4_(297.00_x_210.00_MM)
  6

 40
0.0
 41
0.0
 42
0.0
 43
0.0
 44
297.0
 45
210.0
 46
0.0
 47
0.0
 48
0.0
 49
0.0
140
0.0
141
0.0
142
1.0
143
1.0
 70
0
 72
1
 73
0
 74
0
  7

 75
0
147
1.0
148
0.0
149
0.0
100
AcDbLayout
  1
Layout1
 70
0
 71
1
 10
0.0
 20
0.0
 11
297.0
 21
210.0
 12
0.0
 22
0.0
 32
0.0
 14
0.0
 24
0.0
 34
0.0
 15
0.0
 25
0.0
 35
0.0
146
0.0
 13
0.0
 23
0.0
 33
0.0
 16
1.0
 26
0.0
 36
0.0
 17
0.0
 27
1.0
 37
0.0
 76
0
330
217
345
0
346
0
  0
ENDSEC
  0
EOF
