999
DXF file: zdi_di1453102t.dxf
999
Pro/ENGINEER 2004090 by Parametric Technology Corporation
0
SECTION
2
HEADER
9
$ACADVER
1
AC1014
9
$HANDSEED
5
       396
9
$EXTMAX
10
297.0000000000
20
210.0000000000
9
$EXTMIN
10
0.0000000000
20
0.0000000000
9
$LIMMIN
10
0.0000000000
20
0.0000000000
9
$LIMMAX
10
297.0000000000
20
210.0000000000
9
$VIEWCTR
10
148.5000000000
20
105.0000000000
9
$VIEWSIZE
40
210.0000000000
9
$CLAYER
8
0
9
$LTSCALE
40
16.3350000000
9
$CELTYPE
6
BYLAYER
9
$DIMSCALE
40
1
9
$DIMASZ
40
3.0000000000
9
$DIMEXO
40
1.8562500000
9
$DIMDLI
40
11.2860000000
9
$DIMEXE
40
5.3460000000
9
$DIMCEN
40
2.6730000000
9
$DIMLFAC
40
1.0000000000
9
$DIMTXT
40
3.0000000000
9
$DIMTOL
70
1
9
$DIMLIM
70
0
9
$DIMTFAC
40
1.0000000000
9
$DIMTP
40
0.0100000000
9
$DIMTM
40
0.0100000000
9
$MEASUREMENT
70
1
0
ENDSEC
0
SECTION
2
CLASSES
0
ENDSEC
0
SECTION
2
TABLES
0
TABLE
2
VPORT
5
8
100
AcDbSymbolTable
70
2
0
VPORT
5
1F4
100
AcDbSymbolTableRecord
100
AcDbViewportTableRecord
2
*ACTIVE
70
0
10
0.0
20
0.0
11
1.0
21
1.0
12
148.5000000000
22
105.0000000000
13
0.0
23
0.0
14
1.0
24
1.0
15
0.0
25
0.0
16
0.0
26
0.0
36
1.0
17
0.0
27
0.0
37
0.0
40
210.0000000000
41
1.4142857143
42
50.0
43
0.0
44
0.0
50
0.0
51
0.0
71
0
72
100
73
1
74
1
75
0
76
0
77
0
78
0
0
ENDTAB
0
TABLE
2
LTYPE
5
5
100
AcDbSymbolTable
70
6
0
LTYPE
5
14
100
AcDbSymbolTableRecord
100
AcDbLinetypeTableRecord
2
BYBLOCK
70
0
3

72
65
73
0
40
0.0
0
LTYPE
5
15
100
AcDbSymbolTableRecord
100
AcDbLinetypeTableRecord
2
BYLAYER
70
0
3

72
65
73
0
40
0.0
0
LTYPE
5
16
100
AcDbSymbolTableRecord
100
AcDbLinetypeTableRecord
2
CONTINUOUS
70
64
3
Solid line
72
65
73
0
40
0
0
LTYPE
5
1F5
100
AcDbSymbolTableRecord
100
AcDbLinetypeTableRecord
2
CENTER
70
64
3
____ _ ____ _ ____ _ ____ _ ____ _ ____ _ ____
72
65
73
4
40
0.6
49
0.375
74
0
49
-0.075
74
0
49
0.075
74
0
49
-0.075
74
0
0
LTYPE
5
1F6
100
AcDbSymbolTableRecord
100
AcDbLinetypeTableRecord
2
HIDDEN
70
64
3
- - - - - - - - - - - - - - - - - - - -
72
65
73
2
40
0.2
49
0.1
74
0
49
-0.1
74
0
0
LTYPE
5
1F7
100
AcDbSymbolTableRecord
100
AcDbLinetypeTableRecord
2
PHANTOM
70
64
3
_____ _ _ _____ _ _ _____ _ _ _____
72
65
73
6
40
0.8
49
0.45
74
0
49
-0.05
74
0
49
0.1
74
0
49
-0.05
74
0
49
0.1
74
0
49
-0.05
74
0
0
LTYPE
5
1F8
100
AcDbSymbolTableRecord
100
AcDbLinetypeTableRecord
2
DOT
70
64
3
. . . . . . . . . . . . . . . . . . . .
72
65
73
2
40
0.2
49
0.1
74
0
49
-0.1
74
0
0
LTYPE
5
1F9
100
AcDbSymbolTableRecord
100
AcDbLinetypeTableRecord
2
DASHED
70
64
3
- - - - - - - - - - - - - - - - - - - -
72
65
73
2
40
0.2
49
0.1
74
0
49
-0.1
74
0
0
ENDTAB
0
TABLE
2
LAYER
5
2
100
AcDbSymbolTable
70
36
0
LAYER
5
10
100
AcDbSymbolTableRecord
100
AcDbLayerTableRecord
2
0
70
0
62
7
6
CONTINUOUS
0
LAYER
5
1FA
100
AcDbSymbolTableRecord
100
AcDbLayerTableRecord
2
DEFAULT_1
70
0
62
7
6
CENTER
0
LAYER
5
1FB
100
AcDbSymbolTableRecord
100
AcDbLayerTableRecord
2
DEFAULT_2
70
0
62
8
6
HIDDEN
0
LAYER
5
1FC
100
AcDbSymbolTableRecord
100
AcDbLayerTableRecord
2
DEFAULT_3
70
0
62
7
6
PHANTOM
0
LAYER
5
1FD
100
AcDbSymbolTableRecord
100
AcDbLayerTableRecord
2
ASSI
70
0
62
7
6
CONTINUOUS
0
LAYER
5
1FE
100
AcDbSymbolTableRecord
100
AcDbLayerTableRecord
2
COORDINATE
70
0
62
7
6
CONTINUOUS
0
LAYER
5
1FF
100
AcDbSymbolTableRecord
100
AcDbLayerTableRecord
2
COORD_ORIGINE
70
0
62
7
6
CONTINUOUS
0
LAYER
5
200
100
AcDbSymbolTableRecord
100
AcDbLayerTableRecord
2
CURVE
70
0
62
7
6
CONTINUOUS
0
LAYER
5
201
100
AcDbSymbolTableRecord
100
AcDbLayerTableRecord
2
CURVE_LED_TASTO
70
0
62
7
6
CONTINUOUS
0
LAYER
5
202
100
AcDbSymbolTableRecord
100
AcDbLayerTableRecord
2
DRAFT
70
0
62
7
6
CONTINUOUS
0
LAYER
5
203
100
AcDbSymbolTableRecord
100
AcDbLayerTableRecord
2
IGES_SCRITTE
70
0
62
7
6
CONTINUOUS
0
LAYER
5
204
100
AcDbSymbolTableRecord
100
AcDbLayerTableRecord
2
PIANI
70
0
62
7
6
CONTINUOUS
0
LAYER
5
205
100
AcDbSymbolTableRecord
100
AcDbLayerTableRecord
2
PIANI_ORIGINE
70
0
62
7
6
CONTINUOUS
0
LAYER
5
206
100
AcDbSymbolTableRecord
100
AcDbLayerTableRecord
2
PIANI_RIFERIMENTO
70
0
62
7
6
CONTINUOUS
0
LAYER
5
207
100
AcDbSymbolTableRecord
100
AcDbLayerTableRecord
2
PUNTI
70
0
62
7
6
CONTINUOUS
0
LAYER
5
208
100
AcDbSymbolTableRecord
100
AcDbLayerTableRecord
2
RACCORDO
70
0
62
7
6
CONTINUOUS
0
LAYER
5
209
100
AcDbSymbolTableRecord
100
AcDbLayerTableRecord
2
SMUSSO
70
0
62
7
6
CONTINUOUS
0
LAYER
5
20A
100
AcDbSymbolTableRecord
100
AcDbLayerTableRecord
2
SNAPLINE
70
0
62
7
6
CONTINUOUS
0
LAYER
5
20B
100
AcDbSymbolTableRecord
100
AcDbLayerTableRecord
2
SUPERFICI
70
0
62
7
6
CONTINUOUS
0
LAYER
5
20C
100
AcDbSymbolTableRecord
100
AcDbLayerTableRecord
2
TRASH
70
0
62
7
6
CONTINUOUS
0
ENDTAB
0
TABLE
2
STYLE
5
3
100
AcDbSymbolTable
70
1
0
STYLE
5
11
100
AcDbSymbolTableRecord
100
AcDbTextStyleTableRecord
2
STANDARD
70
0
40
0.0
41
0.8000000000
50
0.0
71
0
42
0.2
3
txt
4

0
ENDTAB
0
TABLE
2
VIEW
5
6
100
AcDbSymbolTable
70
0
0
ENDTAB
0
TABLE
2
UCS
5
7
100
AcDbSymbolTable
70
0
0
ENDTAB
0
TABLE
2
APPID
5
9
100
AcDbSymbolTable
70
1
0
APPID
5
20D
100
AcDbSymbolTableRecord
100
AcDbRegAppTableRecord
2
ACAD
70
0
0
ENDTAB
0
TABLE
2
DIMSTYLE
5
A
100
AcDbSymbolTable
70
1
0
DIMSTYLE
105
20E
100
AcDbSymbolTableRecord
100
AcDbDimStyleTableRecord
2
STANDARD
70
0
3

4

5

6

7

40
1.0
41
3.0000000000
42
0.0625
43
0.38
44
0.18
45
0.0
46
0.0
47
0.0100000000
48
0.0100000000
140
3.0000000000
141
0.09
142
0.0
143
25.4
144
1.0000000000
145
0.0
146
1.0000000000
147
0.09
71
1
72
0
73
0
74
0
75
0
76
0
77
1
78
8
170
0
171
2
172
0
173
0
174
0
175
0
176
0
177
0
178
0
270
2
271
2
272
2
273
2
274
2
340
11
275
0
280
0
281
0
282
0
283
1
284
8
285
0
286
0
287
3
288
0
0
DIMSTYLE
105
20F
100
AcDbSymbolTableRecord
100
AcDbDimStyleTableRecord
2
DIMSTYLE_1
70
0
3

4

5

6

7

40
1.0
41
3.0000000000
42
0.0625
43
0.38
44
0.18
45
0.0
46
0.0
47
0.0000000000
48
0.0000000000
140
3.0000000000
141
0.09
142
0.0
143
25.4
144
1.0000000000
145
0.0
146
1.0000000000
147
0.09
71
0
72
0
73
0
74
0
75
0
76
0
77
1
78
8
170
0
171
2
172
0
173
0
174
0
175
0
176
0
177
0
178
0
270
2
271
2
272
2
273
2
274
2
340
11
275
0
280
0
281
0
282
0
283
1
284
8
285
0
286
0
287
3
288
0
0
ENDTAB
0
TABLE
2
BLOCK_RECORD
5
1
100
AcDbSymbolTable
70
0
0
BLOCK_RECORD
5
1B
100
AcDbSymbolTableRecord
100
AcDbBlockTableRecord
2
*MODEL_SPACE
0
BLOCK_RECORD
5
1C
100
AcDbSymbolTableRecord
100
AcDbBlockTableRecord
2
*PAPER_SPACE
0
BLOCK_RECORD
5
210
100
AcDbSymbolTableRecord
100
AcDbBlockTableRecord
2
*D0
0
BLOCK_RECORD
5
211
100
AcDbSymbolTableRecord
100
AcDbBlockTableRecord
2
*D1
0
BLOCK_RECORD
5
212
100
AcDbSymbolTableRecord
100
AcDbBlockTableRecord
2
*D2
0
ENDTAB
0
ENDSEC
0
SECTION
2
BLOCKS
0
BLOCK
5
1E
100
AcDbEntity
8
0
100
AcDbBlockBegin
2
*MODEL_SPACE
70
0
10
0.0
20
0.0
30
0.0
3
*MODEL_SPACE
1

0
ENDBLK
5
1F
100
AcDbEntity
8
0
100
AcDbBlockEnd
0
BLOCK
5
20
100
AcDbEntity
8
0
100
AcDbBlockBegin
2
*PAPER_SPACE
70
0
10
0.0
20
0.0
30
0.0
3
*PAPER_SPACE
1

0
ENDBLK
5
21
100
AcDbEntity
8
0
100
AcDbBlockEnd
0
BLOCK
5
213
100
AcDbEntity
8
0
100
AcDbBlockBegin
62
7
6
CONTINUOUS
2
*D0
70
65
10
0.0000000000
20
0.0000000000
3
*D0
1

0
TEXT
5
214
100
AcDbEntity
8
0
100
AcDbText
62
7
6
CONTINUOUS
10
-27.0768705903
20
30.6000000000
7
STANDARD
40
3.0000000000
1
11,6
41
0.6250000000
72
0
100
AcDbText
0
LINE
5
215
100
AcDbEntity
8
0
100
AcDbLine
62
7
6
CONTINUOUS
10
-17.7786702928
20
1.7500000000
11
-17.7786702928
21
31.3500000000
0
LINE
5
216
100
AcDbEntity
8
0
100
AcDbLine
62
7
6
CONTINUOUS
10
-29.3786702928
20
0.5000000000
11
-29.3786702928
21
31.3500000000
0
LINE
5
217
100
AcDbEntity
8
0
100
AcDbLine
62
7
6
CONTINUOUS
10
-17.7786702928
20
29.8500000000
11
-23.5786702928
21
29.8500000000
0
LINE
5
218
100
AcDbEntity
8
0
100
AcDbLine
62
7
6
CONTINUOUS
10
-29.3786702928
20
29.8500000000
11
-23.5786702928
21
29.8500000000
0
SOLID
5
219
100
AcDbEntity
8
0
100
AcDbTrace
62
7
6
CONTINUOUS
10
-20.7786702928
20
28.9000000000
11
-17.7786702928
21
29.8500000000
12
-20.7786702928
22
30.8000000000
13
-20.7786702928
23
30.8000000000
0
SOLID
5
21A
100
AcDbEntity
8
0
100
AcDbTrace
62
7
6
CONTINUOUS
10
-26.3786702928
20
30.8000000000
11
-29.3786702928
21
29.8500000000
12
-26.3786702928
22
28.9000000000
13
-26.3786702928
23
28.9000000000
0
ENDBLK
5
21B
100
AcDbEntity
8
0
100
AcDbBlockEnd
0
BLOCK
5
21C
100
AcDbEntity
8
0
100
AcDbBlockBegin
62
7
6
CONTINUOUS
2
*D1
70
65
10
0.0000000000
20
0.0000000000
3
*D1
1

0
TEXT
5
21D
100
AcDbEntity
8
0
100
AcDbText
62
7
6
CONTINUOUS
10
-4.3672377117
20
30.6000000000
7
STANDARD
40
3.0000000000
1
22,2
41
0.7321428571
72
0
100
AcDbText
0
LINE
5
21E
100
AcDbEntity
8
0
100
AcDbLine
62
7
6
CONTINUOUS
10
-11.1000000000
20
21.5501218439
11
-11.1000000000
21
31.3500000000
0
LINE
5
21F
100
AcDbEntity
8
0
100
AcDbLine
62
7
6
CONTINUOUS
10
11.1000000000
20
21.5501218439
11
11.1000000000
21
31.3500000000
0
LINE
5
220
100
AcDbEntity
8
0
100
AcDbLine
62
7
6
CONTINUOUS
10
-11.1000000000
20
29.8500000000
11
0.0000000000
21
29.8500000000
0
LINE
5
221
100
AcDbEntity
8
0
100
AcDbLine
62
7
6
CONTINUOUS
10
11.1000000000
20
29.8500000000
11
0.0000000000
21
29.8500000000
0
SOLID
5
222
100
AcDbEntity
8
0
100
AcDbTrace
62
7
6
CONTINUOUS
10
-8.1000000000
20
30.8000000000
11
-11.1000000000
21
29.8500000000
12
-8.1000000000
22
28.9000000000
13
-8.1000000000
23
28.9000000000
0
SOLID
5
223
100
AcDbEntity
8
0
100
AcDbTrace
62
7
6
CONTINUOUS
10
8.1000000000
20
28.9000000000
11
11.1000000000
21
29.8500000000
12
8.1000000000
22
30.8000000000
13
8.1000000000
23
30.8000000000
0
ENDBLK
5
224
100
AcDbEntity
8
0
100
AcDbBlockEnd
0
BLOCK
5
225
100
AcDbEntity
8
0
100
AcDbBlockBegin
62
7
6
CONTINUOUS
2
*D2
70
65
10
0.0000000000
20
0.0000000000
3
*D2
1

0
TEXT
5
226
100
AcDbEntity
8
0
100
AcDbText
62
7
6
CONTINUOUS
10
18.3500000000
20
-3.8615125254
7
STANDARD
40
3.0000000000
1
43,7
50
90.0000000000
41
0.7142857143
72
0
100
AcDbText
0
LINE
5
227
100
AcDbEntity
8
0
100
AcDbLine
62
7
6
CONTINUOUS
10
10.8001218439
20
21.8500000000
11
20.6000000000
21
21.8500000000
0
LINE
5
228
100
AcDbEntity
8
0
100
AcDbLine
62
7
6
CONTINUOUS
10
10.8001218439
20
-21.8500000000
11
20.6000000000
21
-21.8500000000
0
LINE
5
229
100
AcDbEntity
8
0
100
AcDbLine
62
7
6
CONTINUOUS
10
19.1000000000
20
21.8500000000
11
19.1000000000
21
-0.0000000000
0
LINE
5
22A
100
AcDbEntity
8
0
100
AcDbLine
62
7
6
CONTINUOUS
10
19.1000000000
20
-21.8500000000
11
19.1000000000
21
-0.0000000000
0
SOLID
5
22B
100
AcDbEntity
8
0
100
AcDbTrace
62
7
6
CONTINUOUS
10
20.0500000000
20
18.8500000000
11
19.1000000000
21
21.8500000000
12
18.1500000000
22
18.8500000000
13
18.1500000000
23
18.8500000000
0
SOLID
5
22C
100
AcDbEntity
8
0
100
AcDbTrace
62
7
6
CONTINUOUS
10
18.1500000000
20
-18.8500000000
11
19.1000000000
21
-21.8500000000
12
20.0500000000
22
-18.8500000000
13
20.0500000000
23
-18.8500000000
0
ENDBLK
5
22D
100
AcDbEntity
8
0
100
AcDbBlockEnd
0
ENDSEC
0
SECTION
2
ENTITIES
0
DIMENSION
5
22E
100
AcDbEntity
8
0
100
AcDbDimension
62
7
6
CONTINUOUS
2
*D0
10
-29.3786702928
20
29.8500000000
11
-23.3268705903
21
32.1000000000
70
160
3
DIMSTYLE_1
100
AcDbAlignedDimension
13
-17.7786702928
23
1.7500000000
14
-29.3786702928
24
0.5000000000
50
180.000000
100
AcDbRotatedDimension
0
DIMENSION
5
22F
100
AcDbEntity
8
0
100
AcDbDimension
62
7
6
CONTINUOUS
2
*D1
10
11.1000000000
20
29.8500000000
11
0.0256194312
21
32.1000000000
70
160
3
DIMSTYLE_1
100
AcDbAlignedDimension
13
-11.1000000000
23
21.5501218439
14
11.1000000000
24
21.5501218439
100
AcDbRotatedDimension
0
DIMENSION
5
230
100
AcDbEntity
8
0
100
AcDbDimension
62
7
6
CONTINUOUS
2
*D2
10
19.1000000000
20
-21.8500000000
11
16.8500000000
21
0.4242017603
70
160
3
DIMSTYLE_1
100
AcDbAlignedDimension
13
10.8001218439
23
21.8500000000
14
10.8001218439
24
-21.8500000000
50
270.000000
100
AcDbRotatedDimension
0
LINE
5
231
100
AcDbEntity
8
0
100
AcDbLine
62
7
6
CONTINUOUS
10
-10.3001218439
20
-21.8500000000
11
10.3001218439
21
-21.8500000000
0
LINE
5
232
100
AcDbEntity
8
0
100
AcDbLine
62
9
6
CONTINUOUS
10
10.2235481273
20
-21.7734262834
11
-10.2235481273
21
-21.7734262834
0
LINE
5
233
100
AcDbEntity
8
0
100
AcDbLine
62
9
6
CONTINUOUS
10
10.2115710390
20
-20.3755324027
11
-10.2115710390
21
-20.3755324027
0
LINE
5
234
100
AcDbEntity
8
0
100
AcDbLine
62
7
6
CONTINUOUS
10
-8.9554974844
20
15.4775230384
11
-8.9629245582
21
15.4700959646
0
LINE
5
235
100
AcDbEntity
8
0
100
AcDbLine
62
7
6
CONTINUOUS
10
-8.6689866067
20
-17.0256554556
11
8.6689866067
21
-17.0256554556
0
LINE
5
236
100
AcDbEntity
8
0
100
AcDbLine
62
7
6
CONTINUOUS
10
8.6550313543
20
-16.9698131806
11
-8.6550313543
21
-16.9698131806
0
LINE
5
237
100
AcDbEntity
8
0
100
AcDbLine
62
7
6
CONTINUOUS
10
8.5999999998
20
-16.9538054550
11
-8.5999999992
21
-16.9538054550
0
LINE
5
238
100
AcDbEntity
8
0
100
AcDbLine
62
9
6
CONTINUOUS
10
8.6000000000
20
-16.7177363169
11
-8.6000000000
21
-16.7177363169
0
LINE
5
239
100
AcDbEntity
8
0
100
AcDbLine
62
7
6
CONTINUOUS
10
-8.9554974844
20
-15.4775230384
11
-8.9629245582
21
-15.4700959646
0
LINE
5
23A
100
AcDbEntity
8
0
100
AcDbLine
62
7
6
CONTINUOUS
10
8.9629395890
20
-15.4290202976
11
8.9000000000
21
-15.4305426768
0
LINE
5
23B
100
AcDbEntity
8
0
100
AcDbLine
62
7
6
CONTINUOUS
10
-8.9554974844
20
-15.4775230384
11
-8.9000000000
21
-15.4775230384
0
LINE
5
23C
100
AcDbEntity
8
0
100
AcDbLine
62
7
6
CONTINUOUS
10
8.9554974844
20
-15.4775230384
11
8.9000000000
21
-15.4775230384
0
LINE
5
23D
100
AcDbEntity
8
0
100
AcDbLine
62
7
6
CONTINUOUS
10
-8.9000000000
20
-15.4305426768
11
-8.9629395890
21
-15.4290202976
0
LINE
5
23E
100
AcDbEntity
8
0
100
AcDbLine
62
9
6
CONTINUOUS
10
-8.9581086388
20
8.3418799381
11
-8.9721172747
21
8.3278713022
0
LINE
5
23F
100
AcDbEntity
8
0
100
AcDbLine
62
9
6
CONTINUOUS
10
-8.6582298773
20
8.0417815458
11
-8.6722001056
21
8.0278113175
0
LINE
5
240
100
AcDbEntity
8
0
100
AcDbLine
62
9
6
CONTINUOUS
10
-8.9721172747
20
-8.3278713022
11
-8.9581086388
21
-8.3418799381
0
LINE
5
241
100
AcDbEntity
8
0
100
AcDbLine
62
9
6
CONTINUOUS
10
-8.6722001056
20
-8.0278113175
11
-8.6582298773
21
-8.0417815458
0
LINE
5
242
100
AcDbEntity
8
0
100
AcDbLine
62
7
6
CONTINUOUS
10
-11.1000000000
20
-21.0501218439
11
-11.1000000000
21
-0.3500000000
0
LINE
5
243
100
AcDbEntity
8
0
100
AcDbLine
62
7
6
CONTINUOUS
10
-11.1000000000
20
0.3500000000
11
-11.1000000000
21
21.0501218439
0
LINE
5
244
100
AcDbEntity
8
0
100
AcDbLine
62
7
6
CONTINUOUS
10
-10.6999390688
20
0.1500000000
11
-10.6999390688
21
-0.1500000000
0
LINE
5
245
100
AcDbEntity
8
0
100
AcDbLine
62
9
6
CONTINUOUS
10
-10.5994505925
20
0.1500000000
11
-10.5994505925
21
-0.1500000000
0
LINE
5
246
100
AcDbEntity
8
0
100
AcDbLine
62
9
6
CONTINUOUS
10
-10.1995150734
20
0.3502334887
11
-10.1995150734
21
-0.3502334887
0
LINE
5
247
100
AcDbEntity
8
0
100
AcDbLine
62
7
6
CONTINUOUS
10
8.9650601454
20
-9.6340612337
11
8.9000000000
21
-9.6356349048
0
LINE
5
248
100
AcDbEntity
8
0
100
AcDbLine
62
7
6
CONTINUOUS
10
-8.9516283143
20
-9.6151145382
11
-8.9000000000
21
-9.6151145382
0
LINE
5
249
100
AcDbEntity
8
0
100
AcDbLine
62
7
6
CONTINUOUS
10
8.9000000000
20
-9.6151145382
11
8.9516283143
21
-9.6151145382
0
LINE
5
24A
100
AcDbEntity
8
0
100
AcDbLine
62
7
6
CONTINUOUS
10
-8.9000000000
20
-9.6356349048
11
-8.9650601454
21
-9.6340612337
0
LINE
5
24B
100
AcDbEntity
8
0
100
AcDbLine
62
7
6
CONTINUOUS
10
-8.9629245582
20
-15.4700959646
11
-8.9650769272
21
-9.5882005479
0
LINE
5
24C
100
AcDbEntity
8
0
100
AcDbLine
62
7
6
CONTINUOUS
10
-8.9550610611
20
-16.6701605147
11
-8.9554974844
21
-15.4775230384
0
LINE
5
24D
100
AcDbEntity
8
0
100
AcDbLine
62
7
6
CONTINUOUS
10
-8.9576656022
20
-9.5525900125
11
-8.9581086388
21
-8.3418799381
0
LINE
5
24E
100
AcDbEntity
8
0
100
AcDbLine
62
7
6
CONTINUOUS
10
-8.9000000000
20
-16.6538781829
11
-8.9000000000
21
-8.4266417895
0
LINE
5
24F
100
AcDbEntity
8
0
100
AcDbLine
62
7
6
CONTINUOUS
10
-8.9000000000
20
8.4266417895
11
-8.9000000000
21
16.6538781829
0
LINE
5
250
100
AcDbEntity
8
0
100
AcDbLine
62
9
6
CONTINUOUS
10
-8.6500000000
20
-16.6677674040
11
-8.6500000000
21
-8.4681337328
0
LINE
5
251
100
AcDbEntity
8
0
100
AcDbLine
62
9
6
CONTINUOUS
10
-8.6500000000
20
8.4681337328
11
-8.6500000000
21
16.6677674040
0
LINE
5
252
100
AcDbEntity
8
0
100
AcDbLine
62
9
6
CONTINUOUS
10
-8.5999999989
20
-16.9538054550
11
-8.6000000000
21
-16.7177363169
0
LINE
5
253
100
AcDbEntity
8
0
100
AcDbLine
62
9
6
CONTINUOUS
10
-8.6000000000
20
8.1266856880
11
-8.6000000000
21
8.4181071131
0
LINE
5
254
100
AcDbEntity
8
0
100
AcDbLine
62
9
6
CONTINUOUS
10
-8.5999999997
20
16.9538054550
11
-8.6000000000
21
16.7177363169
0
LINE
5
255
100
AcDbEntity
8
0
100
AcDbLine
62
9
6
CONTINUOUS
10
-8.6000000000
20
-8.4181071131
11
-8.5999999992
21
-8.1266856880
0
LINE
5
256
100
AcDbEntity
8
0
100
AcDbLine
62
7
6
CONTINUOUS
10
-8.9629245582
20
15.4700959646
11
-8.9650769272
21
9.5882005479
0
LINE
5
257
100
AcDbEntity
8
0
100
AcDbLine
62
7
6
CONTINUOUS
10
-8.9581086388
20
8.3418799381
11
-8.9576656022
21
9.5525900125
0
LINE
5
258
100
AcDbEntity
8
0
100
AcDbLine
62
7
6
CONTINUOUS
10
-8.9554974844
20
15.4775230384
11
-8.9550610611
21
16.6701605147
0
LINE
5
259
100
AcDbEntity
8
0
100
AcDbLine
62
9
6
CONTINUOUS
10
10.3001218439
20
21.8500000000
11
10.2235481273
21
21.7734262834
0
LINE
5
25A
100
AcDbEntity
8
0
100
AcDbLine
62
7
6
CONTINUOUS
10
-8.9650669596
20
-9.6154395914
11
-8.9516283143
21
-9.6151145382
0
LINE
5
25B
100
AcDbEntity
8
0
100
AcDbLine
62
7
6
CONTINUOUS
10
-8.9576656022
20
-9.5525900125
11
-8.9000000000
21
-9.5525900125
0
LINE
5
25C
100
AcDbEntity
8
0
100
AcDbLine
62
7
6
CONTINUOUS
10
8.9576656022
20
-9.5525900125
11
8.9000000000
21
-9.5525900125
0
LINE
5
25D
100
AcDbEntity
8
0
100
AcDbLine
62
9
6
CONTINUOUS
10
-8.6000000000
20
-8.4181071131
11
8.6000000000
21
-8.4181071131
0
LINE
5
25E
100
AcDbEntity
8
0
100
AcDbLine
62
9
6
CONTINUOUS
10
-8.6000000000
20
-8.1613121015
11
8.6000000000
21
-8.1613121015
0
LINE
5
25F
100
AcDbEntity
8
0
100
AcDbLine
62
9
6
CONTINUOUS
10
8.6000000000
20
-8.1269051806
11
-8.6000000000
21
-8.1269051806
0
LINE
5
260
100
AcDbEntity
8
0
100
AcDbLine
62
7
6
CONTINUOUS
10
8.6000000000
20
-8.1266856880
11
-8.5999999994
21
-8.1266856880
0
LINE
5
261
100
AcDbEntity
8
0
100
AcDbLine
62
7
6
CONTINUOUS
10
7.9000000000
20
-8.1164314938
11
-7.9000000000
21
-8.1164314938
0
LINE
5
262
100
AcDbEntity
8
0
100
AcDbLine
62
7
6
CONTINUOUS
10
7.9000000000
20
-8.1038630695
11
-7.9000000000
21
-8.1038630695
0
LINE
5
263
100
AcDbEntity
8
0
100
AcDbLine
62
7
6
CONTINUOUS
10
4.1000000000
20
-8.0500000000
11
-4.1000000000
21
-8.0500000000
0
LINE
5
264
100
AcDbEntity
8
0
100
AcDbLine
62
7
6
CONTINUOUS
10
8.6582298773
20
-8.0417815458
11
4.1000000000
21
-8.0417815458
0
LINE
5
265
100
AcDbEntity
8
0
100
AcDbLine
62
7
6
CONTINUOUS
10
-4.1000000000
20
-8.0417815458
11
-8.6582298773
21
-8.0417815458
0
LINE
5
266
100
AcDbEntity
8
0
100
AcDbLine
62
7
6
CONTINUOUS
10
-8.6722001056
20
-8.0278113175
11
8.6722001056
21
-8.0278113175
0
LINE
5
267
100
AcDbEntity
8
0
100
AcDbLine
62
7
6
CONTINUOUS
10
8.9516283143
20
-9.6151145382
11
8.9650669596
21
-9.6154395914
0
LINE
5
268
100
AcDbEntity
8
0
100
AcDbLine
62
9
6
CONTINUOUS
10
10.2235481273
20
-21.7734262834
11
10.3001218439
21
-21.8500000000
0
LINE
5
269
100
AcDbEntity
8
0
100
AcDbLine
62
9
6
CONTINUOUS
10
-7.9000000000
20
8.1164314938
11
-7.9000000000
21
8.1038630695
0
LINE
5
26A
100
AcDbEntity
8
0
100
AcDbLine
62
9
6
CONTINUOUS
10
-7.9000000000
20
-8.1164314938
11
-7.9000000000
21
-8.1038630695
0
LINE
5
26B
100
AcDbEntity
8
0
100
AcDbLine
62
7
6
CONTINUOUS
10
-8.9576656022
20
-9.5525900125
11
-8.9650769272
21
-9.5882005479
0
LINE
5
26C
100
AcDbEntity
8
0
100
AcDbLine
62
9
6
CONTINUOUS
10
11.1000000000
20
21.0501218439
11
11.0234262834
21
20.9735481273
0
LINE
5
26D
100
AcDbEntity
8
0
100
AcDbLine
62
9
6
CONTINUOUS
10
11.0234262834
20
-20.9735481273
11
11.1000000000
21
-21.0501218439
0
LINE
5
26E
100
AcDbEntity
8
0
100
AcDbLine
62
7
6
CONTINUOUS
10
-8.9650769272
20
9.5882005479
11
-8.9576656022
21
9.5525900125
0
LINE
5
26F
100
AcDbEntity
8
0
100
AcDbLine
62
7
6
CONTINUOUS
10
-4.1000000000
20
-8.1038630695
11
-4.1000000000
21
-8.0417815458
0
LINE
5
270
100
AcDbEntity
8
0
100
AcDbLine
62
7
6
CONTINUOUS
10
-4.1000000000
20
8.0417815458
11
-4.1000000000
21
8.1038630695
0
LINE
5
271
100
AcDbEntity
8
0
100
AcDbLine
62
9
6
CONTINUOUS
10
-8.9550610611
20
-16.6701605147
11
-8.9690539238
21
-16.7261532883
0
LINE
5
272
100
AcDbEntity
8
0
100
AcDbLine
62
9
6
CONTINUOUS
10
-8.6550313543
20
-16.9698131806
11
-8.6689866067
21
-17.0256554556
0
LINE
5
273
100
AcDbEntity
8
0
100
AcDbLine
62
9
6
CONTINUOUS
10
-8.9690539238
20
16.7261532883
11
-8.9550610611
21
16.6701605147
0
LINE
5
274
100
AcDbEntity
8
0
100
AcDbLine
62
9
6
CONTINUOUS
10
-8.6689866067
20
17.0256554556
11
-8.6550313543
21
16.9698131806
0
LINE
5
275
100
AcDbEntity
8
0
100
AcDbLine
62
9
6
CONTINUOUS
10
-1.5612494996
20
0.3502334888
11
-1.5612494996
21
0.1500000000
0
LINE
5
276
100
AcDbEntity
8
0
100
AcDbLine
62
9
6
CONTINUOUS
10
-1.5612494996
20
-0.3502334888
11
-1.5612494996
21
-0.1500000000
0
LINE
5
277
100
AcDbEntity
8
0
100
AcDbLine
62
9
6
CONTINUOUS
10
1.5612494996
20
0.3502334890
11
1.3660933121
21
0.3062500000
0
LINE
5
278
100
AcDbEntity
8
0
100
AcDbLine
62
9
6
CONTINUOUS
10
-1.5612494996
20
-0.3502334890
11
-1.3660933121
21
-0.3062500000
0
LINE
5
279
100
AcDbEntity
8
0
100
AcDbLine
62
9
6
CONTINUOUS
10
10.1995150734
20
-0.3502334887
11
1.5612494996
21
-0.3502334888
0
LINE
5
27A
100
AcDbEntity
8
0
100
AcDbLine
62
9
6
CONTINUOUS
10
-1.5612494996
20
-0.3502334888
11
-10.1995150734
21
-0.3502334887
0
LINE
5
27B
100
AcDbEntity
8
0
100
AcDbLine
62
9
6
CONTINUOUS
10
11.1000000000
20
-0.3500000000
11
10.9993932438
21
-0.3500000000
0
LINE
5
27C
100
AcDbEntity
8
0
100
AcDbLine
62
9
6
CONTINUOUS
10
-10.9993932438
20
-0.3500000000
11
-11.1000000000
21
-0.3500000000
0
LINE
5
27D
100
AcDbEntity
8
0
100
AcDbLine
62
7
6
CONTINUOUS
10
10.8999695344
20
-0.1500000000
11
1.5612494996
21
-0.1500000000
0
LINE
5
27E
100
AcDbEntity
8
0
100
AcDbLine
62
7
6
CONTINUOUS
10
-1.5612494996
20
-0.1500000000
11
-10.8999695344
21
-0.1500000000
0
LINE
5
27F
100
AcDbEntity
8
0
100
AcDbLine
62
7
6
CONTINUOUS
10
-10.8999695344
20
0.1500000000
11
-1.5612494996
21
0.1500000000
0
LINE
5
280
100
AcDbEntity
8
0
100
AcDbLine
62
7
6
CONTINUOUS
10
1.5612494996
20
0.1500000000
11
10.8999695344
21
0.1500000000
0
LINE
5
281
100
AcDbEntity
8
0
100
AcDbLine
62
9
6
CONTINUOUS
10
-1.5612494996
20
0.3502334890
11
-1.3660933121
21
0.3062500000
0
LINE
5
282
100
AcDbEntity
8
0
100
AcDbLine
62
9
6
CONTINUOUS
10
1.5612494996
20
-0.3502334890
11
1.3660933121
21
-0.3062500000
0
LINE
5
283
100
AcDbEntity
8
0
100
AcDbLine
62
9
6
CONTINUOUS
10
1.5612494996
20
0.3502334888
11
1.5612494996
21
0.1500000000
0
LINE
5
284
100
AcDbEntity
8
0
100
AcDbLine
62
9
6
CONTINUOUS
10
1.5612494996
20
-0.3502334888
11
1.5612494996
21
-0.1500000000
0
LINE
5
285
100
AcDbEntity
8
0
100
AcDbLine
62
9
6
CONTINUOUS
10
-11.1000000000
20
0.3500000000
11
-10.9993932438
21
0.3500000000
0
LINE
5
286
100
AcDbEntity
8
0
100
AcDbLine
62
9
6
CONTINUOUS
10
10.9993932438
20
0.3500000000
11
11.1000000000
21
0.3500000000
0
LINE
5
287
100
AcDbEntity
8
0
100
AcDbLine
62
9
6
CONTINUOUS
10
-10.1995150734
20
0.3502334887
11
-1.5612494996
21
0.3502334888
0
LINE
5
288
100
AcDbEntity
8
0
100
AcDbLine
62
9
6
CONTINUOUS
10
1.5612494996
20
0.3502334888
11
10.1995150734
21
0.3502334887
0
LINE
5
289
100
AcDbEntity
8
0
100
AcDbLine
62
7
6
CONTINUOUS
10
4.1000000000
20
-8.1038630695
11
4.1000000000
21
-8.0417815458
0
LINE
5
28A
100
AcDbEntity
8
0
100
AcDbLine
62
7
6
CONTINUOUS
10
4.1000000000
20
8.0417815458
11
4.1000000000
21
8.1038630695
0
LINE
5
28B
100
AcDbEntity
8
0
100
AcDbLine
62
9
6
CONTINUOUS
10
8.6550313543
20
16.9698131806
11
8.6689866067
21
17.0256554556
0
LINE
5
28C
100
AcDbEntity
8
0
100
AcDbLine
62
9
6
CONTINUOUS
10
8.9550610611
20
16.6701605147
11
8.9690539238
21
16.7261532883
0
LINE
5
28D
100
AcDbEntity
8
0
100
AcDbLine
62
9
6
CONTINUOUS
10
8.6689866067
20
-17.0256554556
11
8.6550313543
21
-16.9698131806
0
LINE
5
28E
100
AcDbEntity
8
0
100
AcDbLine
62
9
6
CONTINUOUS
10
8.9690539238
20
-16.7261532883
11
8.9550610611
21
-16.6701605147
0
LINE
5
28F
100
AcDbEntity
8
0
100
AcDbLine
62
9
6
CONTINUOUS
10
7.9000000000
20
8.1164314938
11
7.9000000000
21
8.1038630695
0
LINE
5
290
100
AcDbEntity
8
0
100
AcDbLine
62
9
6
CONTINUOUS
10
7.9000000000
20
-8.1164314938
11
7.9000000000
21
-8.1038630695
0
LINE
5
291
100
AcDbEntity
8
0
100
AcDbLine
62
7
6
CONTINUOUS
10
8.9650769272
20
9.5882005479
11
8.9576656022
21
9.5525900125
0
LINE
5
292
100
AcDbEntity
8
0
100
AcDbLine
62
9
6
CONTINUOUS
10
-11.1000000000
20
-21.0501218439
11
-11.0234262834
21
-20.9735481273
0
LINE
5
293
100
AcDbEntity
8
0
100
AcDbLine
62
9
6
CONTINUOUS
10
-10.3001218439
20
-21.8500000000
11
-10.2235481273
21
-21.7734262834
0
LINE
5
294
100
AcDbEntity
8
0
100
AcDbLine
62
7
6
CONTINUOUS
10
-8.6722001056
20
8.0278113175
11
8.6722001056
21
8.0278113175
0
LINE
5
295
100
AcDbEntity
8
0
100
AcDbLine
62
7
6
CONTINUOUS
10
8.6582298773
20
8.0417815458
11
4.1000000000
21
8.0417815458
0
LINE
5
296
100
AcDbEntity
8
0
100
AcDbLine
62
7
6
CONTINUOUS
10
-4.1000000000
20
8.0417815458
11
-8.6582298773
21
8.0417815458
0
LINE
5
297
100
AcDbEntity
8
0
100
AcDbLine
62
7
6
CONTINUOUS
10
4.1000000000
20
8.0500000000
11
-4.1000000000
21
8.0500000000
0
LINE
5
298
100
AcDbEntity
8
0
100
AcDbLine
62
7
6
CONTINUOUS
10
-7.9000000000
20
8.1038630695
11
7.9000000000
21
8.1038630695
0
LINE
5
299
100
AcDbEntity
8
0
100
AcDbLine
62
7
6
CONTINUOUS
10
-7.9000000000
20
8.1164314938
11
7.9000000000
21
8.1164314938
0
LINE
5
29A
100
AcDbEntity
8
0
100
AcDbLine
62
7
6
CONTINUOUS
10
-8.6000000000
20
8.1266856880
11
8.5999999994
21
8.1266856880
0
LINE
5
29B
100
AcDbEntity
8
0
100
AcDbLine
62
9
6
CONTINUOUS
10
-8.6000000000
20
8.1269051806
11
8.6000000000
21
8.1269051806
0
LINE
5
29C
100
AcDbEntity
8
0
100
AcDbLine
62
9
6
CONTINUOUS
10
8.6000000000
20
8.1613121015
11
-8.6000000000
21
8.1613121015
0
LINE
5
29D
100
AcDbEntity
8
0
100
AcDbLine
62
9
6
CONTINUOUS
10
-11.0234262834
20
20.9735481273
11
-11.1000000000
21
21.0501218439
0
LINE
5
29E
100
AcDbEntity
8
0
100
AcDbLine
62
9
6
CONTINUOUS
10
-10.2235481273
20
21.7734262834
11
-10.3001218439
21
21.8500000000
0
LINE
5
29F
100
AcDbEntity
8
0
100
AcDbLine
62
7
6
CONTINUOUS
10
8.9576656022
20
-9.5525900125
11
8.9650769272
21
-9.5882005479
0
LINE
5
2A0
100
AcDbEntity
8
0
100
AcDbLine
62
7
6
CONTINUOUS
10
8.9581086388
20
8.3418799381
11
8.9576656022
21
9.5525900125
0
LINE
5
2A1
100
AcDbEntity
8
0
100
AcDbLine
62
7
6
CONTINUOUS
10
8.9554974844
20
15.4775230384
11
8.9550610611
21
16.6701605147
0
LINE
5
2A2
100
AcDbEntity
8
0
100
AcDbLine
62
7
6
CONTINUOUS
10
8.9629245582
20
15.4700959646
11
8.9650769272
21
9.5882005479
0
LINE
5
2A3
100
AcDbEntity
8
0
100
AcDbLine
62
9
6
CONTINUOUS
10
8.5999999997
20
-16.9538054550
11
8.6000000000
21
-16.7177363169
0
LINE
5
2A4
100
AcDbEntity
8
0
100
AcDbLine
62
9
6
CONTINUOUS
10
8.6000000000
20
-8.4181071131
11
8.6000000000
21
-8.1266856880
0
LINE
5
2A5
100
AcDbEntity
8
0
100
AcDbLine
62
9
6
CONTINUOUS
10
8.5999999992
20
8.1266856880
11
8.6000000000
21
8.4181071131
0
LINE
5
2A6
100
AcDbEntity
8
0
100
AcDbLine
62
9
6
CONTINUOUS
10
8.5999999989
20
16.9538054550
11
8.6000000000
21
16.7177363169
0
LINE
5
2A7
100
AcDbEntity
8
0
100
AcDbLine
62
9
6
CONTINUOUS
10
8.6500000000
20
16.6677674040
11
8.6500000000
21
8.4681337328
0
LINE
5
2A8
100
AcDbEntity
8
0
100
AcDbLine
62
9
6
CONTINUOUS
10
8.6500000000
20
-8.4681337328
11
8.6500000000
21
-16.6677674040
0
LINE
5
2A9
100
AcDbEntity
8
0
100
AcDbLine
62
7
6
CONTINUOUS
10
8.9000000000
20
16.6538781829
11
8.9000000000
21
8.4266417895
0
LINE
5
2AA
100
AcDbEntity
8
0
100
AcDbLine
62
7
6
CONTINUOUS
10
8.9000000000
20
-8.4266417895
11
8.9000000000
21
-16.6538781829
0
LINE
5
2AB
100
AcDbEntity
8
0
100
AcDbLine
62
7
6
CONTINUOUS
10
8.9550610611
20
-16.6701605147
11
8.9554974844
21
-15.4775230384
0
LINE
5
2AC
100
AcDbEntity
8
0
100
AcDbLine
62
7
6
CONTINUOUS
10
8.9576656022
20
-9.5525900125
11
8.9581086388
21
-8.3418799381
0
LINE
5
2AD
100
AcDbEntity
8
0
100
AcDbLine
62
7
6
CONTINUOUS
10
8.9629245582
20
-15.4700959646
11
8.9650769272
21
-9.5882005479
0
LINE
5
2AE
100
AcDbEntity
8
0
100
AcDbLine
62
7
6
CONTINUOUS
10
8.9650669596
20
9.6154395914
11
8.9516283143
21
9.6151145382
0
LINE
5
2AF
100
AcDbEntity
8
0
100
AcDbLine
62
7
6
CONTINUOUS
10
-8.9650601454
20
9.6340612337
11
-8.9000000000
21
9.6356349048
0
LINE
5
2B0
100
AcDbEntity
8
0
100
AcDbLine
62
9
6
CONTINUOUS
10
8.6000000000
20
8.4181071131
11
-8.6000000000
21
8.4181071131
0
LINE
5
2B1
100
AcDbEntity
8
0
100
AcDbLine
62
7
6
CONTINUOUS
10
8.9000000000
20
9.5525900125
11
8.9576656022
21
9.5525900125
0
LINE
5
2B2
100
AcDbEntity
8
0
100
AcDbLine
62
7
6
CONTINUOUS
10
-8.9000000000
20
9.5525900125
11
-8.9576656022
21
9.5525900125
0
LINE
5
2B3
100
AcDbEntity
8
0
100
AcDbLine
62
7
6
CONTINUOUS
10
8.9516283143
20
9.6151145382
11
8.9000000000
21
9.6151145382
0
LINE
5
2B4
100
AcDbEntity
8
0
100
AcDbLine
62
7
6
CONTINUOUS
10
-8.9000000000
20
9.6151145382
11
-8.9516283143
21
9.6151145382
0
LINE
5
2B5
100
AcDbEntity
8
0
100
AcDbLine
62
7
6
CONTINUOUS
10
-8.9516283143
20
9.6151145382
11
-8.9650669596
21
9.6154395914
0
LINE
5
2B6
100
AcDbEntity
8
0
100
AcDbLine
62
7
6
CONTINUOUS
10
8.9000000000
20
9.6356349048
11
8.9650601454
21
9.6340612337
0
LINE
5
2B7
100
AcDbEntity
8
0
100
AcDbLine
62
9
6
CONTINUOUS
10
10.1995150734
20
-0.3502334887
11
10.1995150734
21
0.3502334887
0
LINE
5
2B8
100
AcDbEntity
8
0
100
AcDbLine
62
9
6
CONTINUOUS
10
10.5994505925
20
0.1500000000
11
10.5994505925
21
-0.1500000000
0
LINE
5
2B9
100
AcDbEntity
8
0
100
AcDbLine
62
7
6
CONTINUOUS
10
10.6999390688
20
0.1500000000
11
10.6999390688
21
-0.1500000000
0
LINE
5
2BA
100
AcDbEntity
8
0
100
AcDbLine
62
7
6
CONTINUOUS
10
11.1000000000
20
-21.0501218439
11
11.1000000000
21
-0.3500000000
0
LINE
5
2BB
100
AcDbEntity
8
0
100
AcDbLine
62
7
6
CONTINUOUS
10
11.1000000000
20
0.3500000000
11
11.1000000000
21
21.0501218439
0
LINE
5
2BC
100
AcDbEntity
8
0
100
AcDbLine
62
9
6
CONTINUOUS
10
8.6582298773
20
-8.0417815458
11
8.6722001056
21
-8.0278113175
0
LINE
5
2BD
100
AcDbEntity
8
0
100
AcDbLine
62
9
6
CONTINUOUS
10
8.9581086388
20
-8.3418799381
11
8.9721172747
21
-8.3278713022
0
LINE
5
2BE
100
AcDbEntity
8
0
100
AcDbLine
62
9
6
CONTINUOUS
10
8.6722001056
20
8.0278113175
11
8.6582298773
21
8.0417815458
0
LINE
5
2BF
100
AcDbEntity
8
0
100
AcDbLine
62
9
6
CONTINUOUS
10
8.9721172747
20
8.3278713022
11
8.9581086388
21
8.3418799381
0
LINE
5
2C0
100
AcDbEntity
8
0
100
AcDbLine
62
7
6
CONTINUOUS
10
-8.9629395890
20
15.4290202976
11
-8.9000000000
21
15.4305426768
0
LINE
5
2C1
100
AcDbEntity
8
0
100
AcDbLine
62
7
6
CONTINUOUS
10
-8.9554974844
20
15.4775230384
11
-8.9000000000
21
15.4775230384
0
LINE
5
2C2
100
AcDbEntity
8
0
100
AcDbLine
62
7
6
CONTINUOUS
10
8.9554974844
20
15.4775230384
11
8.9000000000
21
15.4775230384
0
LINE
5
2C3
100
AcDbEntity
8
0
100
AcDbLine
62
7
6
CONTINUOUS
10
8.9000000000
20
15.4305426768
11
8.9629395890
21
15.4290202976
0
LINE
5
2C4
100
AcDbEntity
8
0
100
AcDbLine
62
7
6
CONTINUOUS
10
8.9554974844
20
-15.4775230384
11
8.9629245582
21
-15.4700959646
0
LINE
5
2C5
100
AcDbEntity
8
0
100
AcDbLine
62
9
6
CONTINUOUS
10
-8.6000000000
20
16.7177363169
11
8.6000000000
21
16.7177363169
0
LINE
5
2C6
100
AcDbEntity
8
0
100
AcDbLine
62
7
6
CONTINUOUS
10
-8.5999999998
20
16.9538054550
11
8.5999999992
21
16.9538054550
0
LINE
5
2C7
100
AcDbEntity
8
0
100
AcDbLine
62
7
6
CONTINUOUS
10
8.6550313543
20
16.9698131806
11
-8.6550313543
21
16.9698131806
0
LINE
5
2C8
100
AcDbEntity
8
0
100
AcDbLine
62
7
6
CONTINUOUS
10
-8.6689866067
20
17.0256554556
11
8.6689866067
21
17.0256554556
0
LINE
5
2C9
100
AcDbEntity
8
0
100
AcDbLine
62
7
6
CONTINUOUS
10
8.9629245582
20
15.4700959646
11
8.9554974844
21
15.4775230384
0
LINE
5
2CA
100
AcDbEntity
8
0
100
AcDbLine
62
9
6
CONTINUOUS
10
10.2115710390
20
20.3755324027
11
-10.2115710390
21
20.3755324027
0
LINE
5
2CB
100
AcDbEntity
8
0
100
AcDbLine
62
9
6
CONTINUOUS
10
10.2235481273
20
21.7734262834
11
-10.2235481273
21
21.7734262834
0
LINE
5
2CC
100
AcDbEntity
8
0
100
AcDbLine
62
7
6
CONTINUOUS
10
-10.3001218439
20
21.8500000000
11
10.3001218439
21
21.8500000000
0
LINE
5
2CD
100
AcDbEntity
8
0
100
AcDbLine
62
7
6
CONTINUOUS
10
-27.1655755787
20
-21.7734262834
11
-22.7786702928
21
-21.8500000000
0
LINE
5
2CE
100
AcDbEntity
8
0
100
AcDbLine
62
9
6
CONTINUOUS
10
-27.1655755787
20
-20.9735481273
11
-22.7786702928
21
-21.0501218439
0
LINE
5
2CF
100
AcDbEntity
8
0
100
AcDbLine
62
9
6
CONTINUOUS
10
-27.8517425079
20
-20.3211976496
11
-28.6359332624
21
-20.3755324012
0
LINE
5
2D0
100
AcDbEntity
8
0
100
AcDbLine
62
9
6
CONTINUOUS
10
-28.8651960278
20
-16.6668284049
11
-28.8820713332
21
-16.6677674040
0
LINE
5
2D1
100
AcDbEntity
8
0
100
AcDbLine
62
9
6
CONTINUOUS
10
-29.2087650972
20
-8.4676500588
11
-29.2258947818
21
-8.4681337328
0
LINE
5
2D2
100
AcDbEntity
8
0
100
AcDbLine
62
9
6
CONTINUOUS
10
-29.3109735522
20
-0.2683006297
11
-29.3109735448
21
0.2683005407
0
LINE
5
2D3
100
AcDbEntity
8
0
100
AcDbLine
62
9
6
CONTINUOUS
10
-29.2116505136
20
-0.1681609914
11
-29.2116505124
21
0.1681609338
0
LINE
5
2D4
100
AcDbEntity
8
0
100
AcDbLine
62
7
6
CONTINUOUS
10
-28.9286702928
20
0.1500000000
11
-28.9286702928
21
-0.1500000000
0
LINE
5
2D5
100
AcDbEntity
8
0
100
AcDbLine
62
9
6
CONTINUOUS
10
-28.5356512459
20
0.1500000000
11
-28.5356512459
21
-0.1500000000
0
LINE
5
2D6
100
AcDbEntity
8
0
100
AcDbLine
62
7
6
CONTINUOUS
10
-22.7786702928
20
-1.2500000000
11
-17.7786702928
21
-1.2500000000
0
LINE
5
2D7
100
AcDbEntity
8
0
100
AcDbLine
62
9
6
CONTINUOUS
10
-22.7786702928
20
-0.3500000000
11
-28.5424274968
21
-0.3500000000
0
LINE
5
2D8
100
AcDbEntity
8
0
100
AcDbLine
62
7
6
CONTINUOUS
10
-22.7786702928
20
-0.1500000000
11
-29.1284659856
21
-0.1500000000
0
LINE
5
2D9
100
AcDbEntity
8
0
100
AcDbLine
62
7
6
CONTINUOUS
10
-29.1284659856
20
0.1500000000
11
-22.7786702928
21
0.1500000000
0
LINE
5
2DA
100
AcDbEntity
8
0
100
AcDbLine
62
7
6
CONTINUOUS
10
-22.7786702928
20
-21.8500000000
11
-22.7786702928
21
21.8500000000
0
LINE
5
2DB
100
AcDbEntity
8
0
100
AcDbLine
62
9
6
CONTINUOUS
10
-28.5424274968
20
0.3500000000
11
-22.7786702928
21
0.3500000000
0
LINE
5
2DC
100
AcDbEntity
8
0
100
AcDbLine
62
7
6
CONTINUOUS
10
-22.7786702928
20
1.2500000000
11
-17.7786702928
21
1.2500000000
0
LINE
5
2DD
100
AcDbEntity
8
0
100
AcDbLine
62
7
6
CONTINUOUS
10
-17.7786702928
20
1.2500000000
11
-17.7786702928
21
-1.2500000000
0
LINE
5
2DE
100
AcDbEntity
8
0
100
AcDbLine
62
9
6
CONTINUOUS
10
-29.2087650970
20
8.4676500682
11
-29.2258947818
21
8.4681337328
0
LINE
5
2DF
100
AcDbEntity
8
0
100
AcDbLine
62
9
6
CONTINUOUS
10
-28.8651960273
20
16.6668284143
11
-28.8820713332
21
16.6677674040
0
LINE
5
2E0
100
AcDbEntity
8
0
100
AcDbLine
62
9
6
CONTINUOUS
10
-22.7786702928
20
21.0501218439
11
-27.1655755787
21
20.9735481273
0
LINE
5
2E1
100
AcDbEntity
8
0
100
AcDbLine
62
7
6
CONTINUOUS
10
-22.7786702928
20
21.8500000000
11
-27.1655755787
21
21.7734262834
0
LINE
5
2E2
100
AcDbEntity
8
0
100
AcDbLine
62
9
6
CONTINUOUS
10
-27.8517425079
20
20.3211976496
11
-28.6359332840
21
20.3755324027
0
CIRCLE
5
2E3
100
AcDbEntity
8
0
100
AcDbCircle
62
7
6
CONTINUOUS
10
0.0000000000
20
-0.0000000000
40
1.2500000000
0
CIRCLE
5
2E4
100
AcDbEntity
8
0
100
AcDbCircle
62
9
6
CONTINUOUS
10
0.0000000000
20
-0.0000000000
40
1.1616160628
0
ARC
5
2E5
100
AcDbEntity
8
0
100
AcDbCircle
62
7
6
CONTINUOUS
10
-1.5612494996
20
-0.3500000000
40
0.2000000000
100
AcDbArc
50
12.6356250930
51
90.0000000000
0
ARC
5
2E6
100
AcDbEntity
8
0
100
AcDbCircle
62
7
6
CONTINUOUS
10
1.5612494996
20
-0.3500000000
40
0.2000000000
100
AcDbArc
50
90.0000000000
51
167.3643749070
0
ARC
5
2E7
100
AcDbEntity
8
0
100
AcDbCircle
62
7
6
CONTINUOUS
10
1.5612494996
20
0.3500000000
40
0.2000000000
100
AcDbArc
50
192.6356250930
51
270.0000000000
0
ARC
5
2E8
100
AcDbEntity
8
0
100
AcDbCircle
62
7
6
CONTINUOUS
10
-1.5612494996
20
0.3500000000
40
0.2000000000
100
AcDbArc
50
270.0000000000
51
347.3643749070
0
ARC
5
2E9
100
AcDbEntity
8
0
100
AcDbCircle
62
7
6
CONTINUOUS
10
0.0000000000
20
-0.0000000000
40
1.4000000000
100
AcDbArc
50
192.6356250930
51
347.3643749070
0
ARC
5
2EA
100
AcDbEntity
8
0
100
AcDbCircle
62
7
6
CONTINUOUS
10
0.0000000000
20
-0.0000000000
40
1.4000000000
100
AcDbArc
50
12.6356250930
51
167.3643749070
0
ARC
5
2EB
100
AcDbEntity
8
0
100
AcDbCircle
62
7
6
CONTINUOUS
10
-28.6296752878
20
-16.7038035405
40
0.2500000000
100
AcDbArc
50
183.1948124294
51
204.2841337882
0
ARC
5
2EC
100
AcDbEntity
8
0
100
AcDbCircle
62
7
6
CONTINUOUS
10
270.6545857460
20
-0.0007021005
40
300.0000000000
100
AcDbArc
50
181.6078169456
51
183.1943729546
0
ARC
5
2ED
100
AcDbEntity
8
0
100
AcDbCircle
62
7
6
CONTINUOUS
10
-28.9774015309
20
-8.4110945257
40
0.2500000000
100
AcDbArc
50
160.4769512045
51
181.6073774708
0
ARC
5
2EE
100
AcDbEntity
8
0
100
AcDbCircle
62
7
6
CONTINUOUS
10
-28.6296752878
20
16.7038035405
40
0.2500000000
100
AcDbArc
50
155.7154504653
51
176.8051875706
0
ARC
5
2EF
100
AcDbEntity
8
0
100
AcDbCircle
62
7
6
CONTINUOUS
10
270.6545857460
20
0.0007021005
40
300.0000000000
100
AcDbArc
50
176.8056270454
51
178.3921830544
0
ARC
5
2F0
100
AcDbEntity
8
0
100
AcDbCircle
62
7
6
CONTINUOUS
10
-28.9774015309
20
8.4110945257
40
0.2500000000
100
AcDbArc
50
178.3926225292
51
199.5230487955
0
ARC
5
2F1
100
AcDbEntity
8
0
100
AcDbCircle
62
7
6
CONTINUOUS
10
-19.3786702928
20
-0.0000000000
40
10.0000000000
100
AcDbArc
50
174.1715868745
51
185.8284131255
0
ARC
5
2F2
100
AcDbEntity
8
0
100
AcDbCircle
62
7
6
CONTINUOUS
10
-27.1393969691
20
20.2736547407
40
1.5000000000
100
AcDbArc
50
91.0000000000
51
176.1055619190
0
ARC
5
2F3
100
AcDbEntity
8
0
100
AcDbCircle
62
7
6
CONTINUOUS
10
270.6713297072
20
-0.0000000000
40
300.0000000000
100
AcDbArc
50
176.1055619190
51
179.9331103157
0
ARC
5
2F4
100
AcDbEntity
8
0
100
AcDbCircle
62
7
6
CONTINUOUS
10
270.6713297072
20
-0.0000000000
40
300.0000000000
100
AcDbArc
50
180.0668896843
51
183.8944380810
0
ARC
5
2F5
100
AcDbEntity
8
0
100
AcDbCircle
62
7
6
CONTINUOUS
10
-27.1393969691
20
-20.2736547407
40
1.5000000000
100
AcDbArc
50
183.8944380810
51
269.0000000000
0
ARC
5
2F6
100
AcDbEntity
8
0
100
AcDbCircle
62
7
6
CONTINUOUS
10
-29.1284659899
20
-0.3500000000
40
0.2000000000
100
AcDbArc
50
89.9999987759
51
180.0668895888
0
ARC
5
2F7
100
AcDbEntity
8
0
100
AcDbCircle
62
7
6
CONTINUOUS
10
-29.1284659527
20
0.3500000000
40
0.2000000000
100
AcDbArc
50
179.9331104242
51
269.9999905700
0
SPLINE
5
2F8
100
AcDbEntity
8
0
100
AcDbSpline
62
7
6
CONTINUOUS
70
0
71
3
72
9
73
5
74
3
42
0.0000001000
43
0.0000001000
44
0.0000000001
12
0.2080153463
22
0.0449129848
32
0.0000000000
13
0.2126364213
23
0.0000000000
33
0.0000000000
40
0.0000000000
40
0.0000000000
40
0.0000000000
40
0.0000000000
40
0.3289600234
40
1.0000000000
40
1.0000000000
40
1.0000000000
40
1.0000000000
10
-8.1112216863
20
-8.1264050493
30
0.0000000000
10
-8.0884121086
20
-8.1214801905
30
0.0000000000
10
-8.0185453091
20
-8.1089325423
30
0.0000000000
10
-7.9475625131
20
-8.1038630695
30
0.0000000000
10
-7.9000000000
20
-8.1038630695
30
0.0000000000
11
-8.1112216863
21
-8.1264050493
31
0.0000000000
11
-8.0423245734
21
-8.1140340897
31
0.0000000000
11
-7.9000000000
21
-8.1038630695
31
0.0000000000
0
SPLINE
5
2F9
100
AcDbEntity
8
0
100
AcDbSpline
62
7
6
CONTINUOUS
70
0
71
3
72
9
73
5
74
3
42
0.0000001000
43
0.0000001000
44
0.0000000001
12
0.2126364213
22
0.0000000000
32
0.0000000000
13
0.2080153463
23
-0.0449129848
33
0.0000000000
40
0.0000000000
40
0.0000000000
40
0.0000000000
40
0.0000000000
40
0.6710399766
40
1.0000000000
40
1.0000000000
40
1.0000000000
40
1.0000000000
10
7.9000000000
20
-8.1038630695
30
0.0000000000
10
7.9475625131
20
-8.1038630695
30
0.0000000000
10
8.0185453091
20
-8.1089325423
30
0.0000000000
10
8.0884121086
20
-8.1214801905
30
0.0000000000
10
8.1112216863
20
-8.1264050493
30
0.0000000000
11
7.9000000000
21
-8.1038630695
31
0.0000000000
11
8.0423245734
21
-8.1140340897
31
0.0000000000
11
8.1112216863
21
-8.1264050493
31
0.0000000000
0
SPLINE
5
2FA
100
AcDbEntity
8
0
100
AcDbSpline
62
7
6
CONTINUOUS
70
0
71
3
72
8
73
4
74
2
42
0.0000001000
43
0.0000001000
44
0.0000000001
12
-0.1431886236
22
0.0000000000
32
0.0000000000
13
-0.1418751824
23
-0.0204501172
33
0.0000000000
40
0.0000000000
40
0.0000000000
40
0.0000000000
40
0.0000000000
40
1.0000000000
40
1.0000000000
40
1.0000000000
40
1.0000000000
10
-7.9000000000
20
-8.1164314938
30
0.0000000000
10
-7.9477295412
20
-8.1164314938
30
0.0000000000
10
-7.9955293526
20
-8.1198572482
30
0.0000000000
10
-8.0428210801
20
-8.1266739539
30
0.0000000000
11
-7.9000000000
21
-8.1164314938
31
0.0000000000
11
-8.0428210801
21
-8.1266739539
31
0.0000000000
0
SPLINE
5
2FB
100
AcDbEntity
8
0
100
AcDbSpline
62
7
6
CONTINUOUS
70
0
71
3
72
8
73
4
74
2
42
0.0000001000
43
0.0000001000
44
0.0000000001
12
-0.1418751824
22
0.0204501172
32
0.0000000000
13
-0.1431886236
23
0.0000000000
33
0.0000000000
40
0.0000000000
40
0.0000000000
40
0.0000000000
40
0.0000000000
40
1.0000000000
40
1.0000000000
40
1.0000000000
40
1.0000000000
10
8.0428210801
20
-8.1266739539
30
0.0000000000
10
7.9955293526
20
-8.1198572482
30
0.0000000000
10
7.9477295412
20
-8.1164314938
30
0.0000000000
10
7.9000000000
20
-8.1164314938
30
0.0000000000
11
8.0428210801
21
-8.1266739539
31
0.0000000000
11
7.9000000000
21
-8.1164314938
31
0.0000000000
0
SPLINE
5
2FC
100
AcDbEntity
8
0
100
AcDbSpline
62
7
6
CONTINUOUS
70
0
71
3
72
9
73
5
74
3
42
0.0000001000
43
0.0000001000
44
0.0000000001
12
-0.2080153463
22
-0.0449129848
32
0.0000000000
13
-0.2126364213
23
0.0000000000
33
0.0000000000
40
0.0000000000
40
0.0000000000
40
0.0000000000
40
0.0000000000
40
0.3289600234
40
1.0000000000
40
1.0000000000
40
1.0000000000
40
1.0000000000
10
8.1112216863
20
8.1264050493
30
0.0000000000
10
8.0884121086
20
8.1214801905
30
0.0000000000
10
8.0185453091
20
8.1089325423
30
0.0000000000
10
7.9475625131
20
8.1038630695
30
0.0000000000
10
7.9000000000
20
8.1038630695
30
0.0000000000
11
8.1112216863
21
8.1264050493
31
0.0000000000
11
8.0423245734
21
8.1140340897
31
0.0000000000
11
7.9000000000
21
8.1038630695
31
0.0000000000
0
SPLINE
5
2FD
100
AcDbEntity
8
0
100
AcDbSpline
62
7
6
CONTINUOUS
70
0
71
3
72
9
73
5
74
3
42
0.0000001000
43
0.0000001000
44
0.0000000001
12
-0.2126364213
22
0.0000000000
32
0.0000000000
13
-0.2080153463
23
0.0449129848
33
0.0000000000
40
0.0000000000
40
0.0000000000
40
0.0000000000
40
0.0000000000
40
0.6710399766
40
1.0000000000
40
1.0000000000
40
1.0000000000
40
1.0000000000
10
-7.9000000000
20
8.1038630695
30
0.0000000000
10
-7.9475625131
20
8.1038630695
30
0.0000000000
10
-8.0185453091
20
8.1089325423
30
0.0000000000
10
-8.0884121086
20
8.1214801905
30
0.0000000000
10
-8.1112216863
20
8.1264050493
30
0.0000000000
11
-7.9000000000
21
8.1038630695
31
0.0000000000
11
-8.0423245734
21
8.1140340897
31
0.0000000000
11
-8.1112216863
21
8.1264050493
31
0.0000000000
0
SPLINE
5
2FE
100
AcDbEntity
8
0
100
AcDbSpline
62
7
6
CONTINUOUS
70
0
71
3
72
8
73
4
74
2
42
0.0000001000
43
0.0000001000
44
0.0000000001
12
0.1418751824
22
-0.0204501172
32
0.0000000000
13
0.1431886236
23
0.0000000000
33
0.0000000000
40
0.0000000000
40
0.0000000000
40
0.0000000000
40
0.0000000000
40
1.0000000000
40
1.0000000000
40
1.0000000000
40
1.0000000000
10
-8.0428210801
20
8.1266739539
30
0.0000000000
10
-7.9955293526
20
8.1198572482
30
0.0000000000
10
-7.9477295412
20
8.1164314938
30
0.0000000000
10
-7.9000000000
20
8.1164314938
30
0.0000000000
11
-8.0428210801
21
8.1266739539
31
0.0000000000
11
-7.9000000000
21
8.1164314938
31
0.0000000000
0
SPLINE
5
2FF
100
AcDbEntity
8
0
100
AcDbSpline
62
7
6
CONTINUOUS
70
0
71
3
72
8
73
4
74
2
42
0.0000001000
43
0.0000001000
44
0.0000000001
12
0.1431886236
22
0.0000000000
32
0.0000000000
13
0.1418751824
23
0.0204501172
33
0.0000000000
40
0.0000000000
40
0.0000000000
40
0.0000000000
40
0.0000000000
40
1.0000000000
40
1.0000000000
40
1.0000000000
40
1.0000000000
10
7.9000000000
20
8.1164314938
30
0.0000000000
10
7.9477295412
20
8.1164314938
30
0.0000000000
10
7.9955293526
20
8.1198572482
30
0.0000000000
10
8.0428210801
20
8.1266739539
30
0.0000000000
11
7.9000000000
21
8.1164314938
31
0.0000000000
11
8.0428210801
21
8.1266739539
31
0.0000000000
0
SPLINE
5
300
100
AcDbEntity
8
0
100
AcDbSpline
62
7
6
CONTINUOUS
70
0
71
3
72
13
73
9
74
7
42
0.0000001000
43
0.0000001000
44
0.0000000001
12
0.0000000000
22
0.4698599193
32
0.0000000000
13
0.4698599196
23
-0.0000000047
33
0.0000000000
40
0.0000000000
40
0.0000000000
40
0.0000000000
40
0.0000000000
40
0.1666343462
40
0.3332842529
40
0.4999476129
40
0.6666310486
40
0.8333171286
40
1.0000000000
40
1.0000000000
40
1.0000000000
40
1.0000000000
10
-8.9000000000
20
-8.4266417895
30
0.0000000000
10
-8.9000000000
20
-8.4005435227
30
0.0000000000
10
-8.8931083716
20
-8.3480882324
30
0.0000000000
10
-8.8627972266
20
-8.2749596585
30
0.0000000000
10
-8.8145789605
20
-8.2121085622
30
0.0000000000
10
-8.7517198758
20
-8.1638912526
30
0.0000000000
10
-8.6785744358
20
-8.1335779568
30
0.0000000000
10
-8.6261058638
20
-8.1266856878
30
0.0000000000
10
-8.5999999970
20
-8.1266856880
30
0.0000000000
11
-8.9000000000
21
-8.4266417895
31
0.0000000000
11
-8.8897802683
21
-8.3490168395
31
0.0000000000
11
-8.8598144189
21
-8.2766755058
31
0.0000000000
11
-8.8121416972
21
-8.2145504523
31
0.0000000000
11
-8.7500062452
21
-8.1668757874
31
0.0000000000
11
-8.6776477376
21
-8.1369069856
31
0.0000000000
11
-8.5999999970
21
-8.1266856880
31
0.0000000000
0
SPLINE
5
301
100
AcDbEntity
8
0
100
AcDbSpline
62
7
6
CONTINUOUS
70
0
71
3
72
13
73
9
74
7
42
0.0000001000
43
0.0000001000
44
0.0000000001
12
0.0000000000
22
0.4698599185
32
0.0000000000
13
-0.4698599185
23
-0.0000000034
33
0.0000000000
40
0.0000000000
40
0.0000000000
40
0.0000000000
40
0.0000000000
40
0.1666343448
40
0.3332842500
40
0.4999476086
40
0.6666310429
40
0.8333171215
40
1.0000000000
40
1.0000000000
40
1.0000000000
40
1.0000000000
10
8.9000000000
20
-8.4266417895
30
0.0000000000
10
8.9000000000
20
-8.4005435230
30
0.0000000000
10
8.8931083717
20
-8.3480882332
30
0.0000000000
10
8.8627972273
20
-8.2749596600
30
0.0000000000
10
8.8145789622
20
-8.2121085639
30
0.0000000000
10
8.7517198786
20
-8.1638912543
30
0.0000000000
10
8.6785744385
20
-8.1335779574
30
0.0000000000
10
8.6261058657
20
-8.1266856878
30
0.0000000000
10
8.5999999978
20
-8.1266856880
30
0.0000000000
11
8.9000000000
21
-8.4266417895
31
0.0000000000
11
8.8897802685
21
-8.3490168403
31
0.0000000000
11
8.8598144197
21
-8.2766755072
31
0.0000000000
11
8.8121416990
21
-8.2145504541
31
0.0000000000
11
8.7500062480
21
-8.1668757890
31
0.0000000000
11
8.6776477415
21
-8.1369069866
31
0.0000000000
11
8.5999999978
21
-8.1266856880
31
0.0000000000
0
SPLINE
5
302
100
AcDbEntity
8
0
100
AcDbSpline
62
7
6
CONTINUOUS
70
0
71
3
72
8
73
4
74
2
42
0.0000001000
43
0.0000001000
44
0.0000000001
12
-0.0096788585
22
0.0531833548
32
0.0000000000
13
-0.0000073714
23
0.0538511454
33
0.0000000000
40
0.0000000000
40
0.0000000000
40
0.0000000000
40
0.0000000000
40
1.0000000000
40
1.0000000000
40
1.0000000000
40
1.0000000000
10
-8.8951389101
20
-16.7075675113
30
0.0000000000
10
-8.8983651963
20
-16.6898397264
30
0.0000000000
10
-8.8999975429
20
-16.6718285647
30
0.0000000000
10
-8.9000000000
20
-16.6538781829
30
0.0000000000
11
-8.8951389101
21
-16.7075675113
31
0.0000000000
11
-8.9000000000
21
-16.6538781829
31
0.0000000000
0
SPLINE
5
303
100
AcDbEntity
8
0
100
AcDbSpline
62
7
6
CONTINUOUS
70
0
71
3
72
13
73
9
74
7
42
0.0000001000
43
0.0000001000
44
0.0000000001
12
0.0748231924
22
-0.4104456100
32
0.0000000000
13
0.4173618235
23
-0.0001001934
33
0.0000000000
40
0.0000000000
40
0.0000000000
40
0.0000000000
40
0.0000000000
40
0.1538086656
40
0.3443087328
40
0.5350059818
40
0.7254195303
40
0.9150544161
40
1.0000000000
40
1.0000000000
40
1.0000000000
40
1.0000000000
10
-8.8951338291
20
-16.7076491236
30
0.0000000000
10
-8.8912976773
20
-16.7286924875
30
0.0000000000
10
-8.8776743982
20
-16.7748438469
30
0.0000000000
10
-8.8399455800
20
-16.8397197985
30
0.0000000000
10
-8.7829008052
20
-16.8960442861
30
0.0000000000
10
-8.7131929506
20
-16.9354233664
30
0.0000000000
10
-8.6500437615
20
-16.9515371148
30
0.0000000000
10
-8.6118176784
20
-16.9537968595
30
0.0000000000
10
-8.5999999972
20
-16.9537996965
30
0.0000000000
11
-8.8951338291
21
-16.7076491236
31
0.0000000000
11
-8.8769993970
21
-16.7690477087
31
0.0000000000
11
-8.8371723733
21
-16.8375323851
31
0.0000000000
11
-8.7807409923
21
-16.8932534910
31
0.0000000000
11
-8.7117935386
21
-16.9322007841
31
0.0000000000
11
-8.6353796934
21
-16.9517042901
31
0.0000000000
11
-8.5999999972
21
-16.9537996965
31
0.0000000000
0
SPLINE
5
304
100
AcDbEntity
8
0
100
AcDbSpline
62
7
6
CONTINUOUS
70
0
71
3
72
13
73
9
74
7
42
0.0000001000
43
0.0000001000
44
0.0000000001
12
-0.0747012119
22
-0.4106936923
32
0.0000000000
13
-0.4158433567
23
-0.0000647773
33
0.0000000000
40
0.0000000000
40
0.0000000000
40
0.0000000000
40
0.0000000000
40
0.0587338988
40
0.2469112329
40
0.4351069765
40
0.6233511185
40
0.8116595952
40
1.0000000000
40
1.0000000000
40
1.0000000000
40
1.0000000000
10
8.8951441247
20
-16.7075388506
30
0.0000000000
10
8.8936816269
20
-16.7155793979
30
0.0000000000
10
8.8861550336
20
-16.7491361319
30
0.0000000000
10
8.8627847634
20
-16.8054556343
30
0.0000000000
10
8.8145643822
20
-16.8682473044
30
0.0000000000
10
8.7517105044
20
-16.9164150821
30
0.0000000000
10
8.6785716722
20
-16.9467018222
30
0.0000000000
10
8.6261067021
20
-16.9535818957
30
0.0000000000
10
8.6000000000
20
-16.9535859624
30
0.0000000000
11
8.8951441247
21
-16.7075388506
31
0.0000000000
11
8.8897763237
21
-16.7314536207
31
0.0000000000
11
8.8598040290
21
-16.8037383581
31
0.0000000000
11
8.8121324748
21
-16.8658031855
31
0.0000000000
11
8.7500069677
21
-16.9134287228
31
0.0000000000
11
8.6776512584
21
-16.9433721855
31
0.0000000000
11
8.6000000000
21
-16.9535859624
31
0.0000000000
0
SPLINE
5
305
100
AcDbEntity
8
0
100
AcDbSpline
62
7
6
CONTINUOUS
70
0
71
3
72
13
73
9
74
7
42
0.0000001000
43
0.0000001000
44
0.0000000001
12
0.4173253574
22
0.0000971492
32
0.0000000000
13
0.0747835901
23
0.4104476173
33
0.0000000000
40
0.0000000000
40
0.0000000000
40
0.0000000000
40
0.0000000000
40
0.0937021642
40
0.2834535152
40
0.4739220890
40
0.6646063287
40
0.8550273987
40
1.0000000000
40
1.0000000000
40
1.0000000000
40
1.0000000000
10
8.5999999979
20
-16.9537992613
30
0.0000000000
10
8.6130347609
20
-16.9537962269
30
0.0000000000
10
8.6525008253
20
-16.9512257844
30
0.0000000000
10
8.7166613212
20
-16.9340077319
30
0.0000000000
10
8.7858997516
20
-16.8937536214
30
0.0000000000
10
8.8422369195
20
-16.8367209664
30
0.0000000000
10
8.8785446475
20
-16.7724682184
30
0.0000000000
10
8.8915233144
20
-16.7274546578
30
0.0000000000
10
8.8951371716
20
-16.7076201049
30
0.0000000000
11
8.5999999979
21
-16.9537992613
31
0.0000000000
11
8.6390083294
21
-16.9512523144
31
0.0000000000
11
8.7152286769
21
-16.9307972051
31
0.0000000000
11
8.7837117090
21
-16.8909826719
31
0.0000000000
11
8.8394436393
21
-16.8345619907
31
0.0000000000
11
8.8784034497
21
-16.7656118188
31
0.0000000000
11
8.8951371716
21
-16.7076201049
31
0.0000000000
0
SPLINE
5
306
100
AcDbEntity
8
0
100
AcDbSpline
62
7
6
CONTINUOUS
70
0
71
3
72
8
73
4
74
2
42
0.0000001000
43
0.0000001000
44
0.0000000001
12
0.0000071437
22
0.0521982304
32
0.0000000000
13
0.0090937401
23
0.0516010946
33
0.0000000000
40
0.0000000000
40
0.0000000000
40
0.0000000000
40
0.0000000000
40
1.0000000000
40
1.0000000000
40
1.0000000000
40
1.0000000000
10
-8.9000000000
20
-8.4610775398
30
0.0000000000
10
-8.8999976188
20
-8.4436781297
30
0.0000000000
10
-8.8984644710
20
-8.4262216430
30
0.0000000000
10
-8.8954332243
20
-8.4090212781
30
0.0000000000
11
-8.9000000000
21
-8.4610775398
31
0.0000000000
11
-8.8954332243
21
-8.4090212781
31
0.0000000000
0
SPLINE
5
307
100
AcDbEntity
8
0
100
AcDbSpline
62
7
6
CONTINUOUS
70
0
71
3
72
13
73
9
74
7
42
0.0000001000
43
0.0000001000
44
0.0000000001
12
0.0727371181
22
0.4127361095
32
0.0000000000
13
0.4175123533
23
0.0000652502
33
0.0000000000
40
0.0000000000
40
0.0000000000
40
0.0000000000
40
0.0000000000
40
0.0624237810
40
0.2498795464
40
0.4373457790
40
0.6248508619
40
0.8124118666
40
1.0000000000
40
1.0000000000
40
1.0000000000
40
1.0000000000
10
-8.8954332243
20
-8.4090212781
30
0.0000000000
10
-8.8939197157
20
-8.4004330953
30
0.0000000000
10
-8.8863661849
20
-8.3663105875
30
0.0000000000
10
-8.8627855793
20
-8.3094725662
30
0.0000000000
10
-8.8145658087
20
-8.2466686818
30
0.0000000000
10
-8.7517120378
20
-8.1984909881
30
0.0000000000
10
-8.6785726678
20
-8.1681977749
30
0.0000000000
10
-8.6261067877
20
-8.1613161815
30
0.0000000000
10
-8.6000000000
20
-8.1613121015
30
0.0000000000
11
-8.8954332243
21
-8.4090212781
31
0.0000000000
11
-8.8897763237
21
-8.3834872714
31
0.0000000000
11
-8.8598040290
21
-8.3111886737
31
0.0000000000
11
-8.8121324748
21
-8.2491118449
31
0.0000000000
11
-8.7500069677
21
-8.2014770831
31
0.0000000000
11
-8.6776512584
21
-8.1715278481
31
0.0000000000
11
-8.6000000000
21
-8.1613121015
31
0.0000000000
0
SPLINE
5
308
100
AcDbEntity
8
0
100
AcDbSpline
62
7
6
CONTINUOUS
70
0
71
3
72
13
73
9
74
7
42
0.0000001000
43
0.0000001000
44
0.0000000001
12
-0.4158143364
22
0.0000647726
32
0.0000000000
13
-0.0747357946
23
0.4106579586
33
0.0000000000
40
0.0000000000
40
0.0000000000
40
0.0000000000
40
0.0000000000
40
0.1883535494
40
0.3766751685
40
0.5649324483
40
0.7531413264
40
0.9413317937
40
1.0000000000
40
1.0000000000
40
1.0000000000
40
1.0000000000
10
-8.6000000000
20
-16.9535859624
30
0.0000000000
10
-8.6261067021
20
-16.9535818957
30
0.0000000000
10
-8.6785716722
20
-16.9467018222
30
0.0000000000
10
-8.7517105044
20
-16.9164150821
30
0.0000000000
10
-8.8145643822
20
-16.8682473044
30
0.0000000000
10
-8.8627847634
20
-16.8054556343
30
0.0000000000
10
-8.8861512853
20
-16.7491451649
30
0.0000000000
10
-8.8936773718
20
-16.7155983666
30
0.0000000000
10
-8.8951389101
20
-16.7075675113
30
0.0000000000
11
-8.6000000000
21
-16.9535859624
31
0.0000000000
11
-8.6776512584
21
-16.9433721855
31
0.0000000000
11
-8.7500069677
21
-16.9134287228
31
0.0000000000
11
-8.8121324748
21
-16.8658031855
31
0.0000000000
11
-8.8598040290
21
-16.8037383581
31
0.0000000000
11
-8.8897763237
21
-16.7314536207
31
0.0000000000
11
-8.8951389101
21
-16.7075675113
31
0.0000000000
0
SPLINE
5
309
100
AcDbEntity
8
0
100
AcDbSpline
62
7
6
CONTINUOUS
70
0
71
3
72
8
73
4
74
2
42
0.0000001000
43
0.0000001000
44
0.0000000001
12
-0.0000073674
22
-0.0538221250
32
0.0000000000
13
-0.0096684915
23
-0.0531556097
33
0.0000000000
40
0.0000000000
40
0.0000000000
40
0.0000000000
40
0.0000000000
40
1.0000000000
40
1.0000000000
40
1.0000000000
40
1.0000000000
10
8.9000000000
20
-16.6538781829
30
0.0000000000
10
8.8999975442
20
-16.6718188913
30
0.0000000000
10
8.8983669552
20
-16.6898203140
30
0.0000000000
10
8.8951441247
20
-16.7075388506
30
0.0000000000
11
8.9000000000
21
-16.6538781829
31
0.0000000000
11
8.8951441247
21
-16.7075388506
31
0.0000000000
0
SPLINE
5
30A
100
AcDbEntity
8
0
100
AcDbSpline
62
7
6
CONTINUOUS
70
0
71
3
72
13
73
9
74
7
42
0.0000001000
43
0.0000001000
44
0.0000000001
12
0.4435863707
22
-0.0000693250
32
0.0000000000
13
0.0389154989
23
-0.4430428626
33
0.0000000000
40
0.0000000000
40
0.0000000000
40
0.0000000000
40
0.0000000000
40
0.1765616985
40
0.3530978629
40
0.5295813926
40
0.7060283556
40
0.8824654667
40
1.0000000000
40
1.0000000000
40
1.0000000000
40
1.0000000000
10
8.6000000000
20
-8.1613121015
30
0.0000000000
10
8.6261067877
20
-8.1613161815
30
0.0000000000
10
8.6785726678
20
-8.1681977749
30
0.0000000000
10
8.7517120378
20
-8.1984909881
30
0.0000000000
10
8.8145658087
20
-8.2466686818
30
0.0000000000
10
8.8627855793
20
-8.3094725662
30
0.0000000000
10
8.8897333827
20
-8.3744267855
30
0.0000000000
10
8.8973255976
20
-8.4175920879
30
0.0000000000
10
8.8988502359
20
-8.4349496999
30
0.0000000000
11
8.6000000000
21
-8.1613121015
31
0.0000000000
11
8.6776512584
21
-8.1715278481
31
0.0000000000
11
8.7500069677
21
-8.2014770831
31
0.0000000000
11
8.8121324748
21
-8.2491118449
31
0.0000000000
11
8.8598040290
21
-8.3111886737
31
0.0000000000
11
8.8897763237
21
-8.3834872714
31
0.0000000000
11
8.8988502359
21
-8.4349496999
31
0.0000000000
0
SPLINE
5
30B
100
AcDbEntity
8
0
100
AcDbSpline
62
7
6
CONTINUOUS
70
0
71
3
72
8
73
4
74
2
42
0.0000001000
43
0.0000001000
44
0.0000000001
12
0.0022918576
22
-0.0260922039
32
0.0000000000
13
0.0000035753
23
-0.0261242129
33
0.0000000000
40
0.0000000000
40
0.0000000000
40
0.0000000000
40
0.0000000000
40
1.0000000000
40
1.0000000000
40
1.0000000000
40
1.0000000000
10
8.8988502359
20
-8.4349496999
30
0.0000000000
10
8.8996141885
20
-8.4436471012
30
0.0000000000
10
8.8999988082
20
-8.4523694688
30
0.0000000000
10
8.9000000000
20
-8.4610775398
30
0.0000000000
11
8.8988502359
21
-8.4349496999
31
0.0000000000
11
8.9000000000
21
-8.4610775398
31
0.0000000000
0
SPLINE
5
30C
100
AcDbEntity
8
0
100
AcDbSpline
62
9
6
CONTINUOUS
70
0
71
3
72
12
73
8
74
6
42
0.0000001000
43
0.0000001000
44
0.0000000001
12
-0.0000000000
22
-0.2502772113
32
0.0000000000
13
-0.2502772113
23
-0.0000000001
33
0.0000000000
40
0.0000000000
40
0.0000000000
40
0.0000000000
40
0.0000000000
40
0.0496594887
40
0.1917592029
40
0.4128339105
40
0.6913221938
40
1.0000000000
40
1.0000000000
40
1.0000000000
40
1.0000000000
10
8.9000000000
20
-8.4610775398
30
0.0000000000
10
8.9000000000
20
-8.4652204192
30
0.0000000000
10
8.8746410228
20
-8.4603538336
30
0.0000000000
10
8.8488881121
20
-8.4677953147
30
0.0000000000
10
8.7908525742
20
-8.4661277480
30
0.0000000000
10
8.7251937709
20
-8.4682336793
30
0.0000000000
10
8.6757516735
20
-8.4681337328
30
0.0000000000
10
8.6500000000
20
-8.4681337328
30
0.0000000000
11
8.9000000000
21
-8.4610775398
31
0.0000000000
11
8.8877641290
21
-8.4632580245
31
0.0000000000
11
8.8522542485
21
-8.4652250667
31
0.0000000000
11
8.7969463130
21
-8.4667861202
31
0.0000000000
11
8.7272542486
21
-8.4677883782
31
0.0000000000
11
8.6500000000
21
-8.4681337328
31
0.0000000000
0
SPLINE
5
30D
100
AcDbEntity
8
0
100
AcDbSpline
62
9
6
CONTINUOUS
70
0
71
3
72
13
73
9
74
7
42
0.0000001000
43
0.0000001000
44
0.0000000001
12
-0.0000217215
22
-0.0782912742
32
0.0000000000
13
-0.0782912730
23
-0.0000255932
33
0.0000000000
40
0.0000000000
40
0.0000000000
40
0.0000000000
40
0.0000000000
40
0.1656790571
40
0.3326799170
40
0.4998469796
40
0.6670889919
40
0.8342028582
40
1.0000000000
40
1.0000000000
40
1.0000000000
40
1.0000000000
10
8.6500000000
20
-16.6677674040
30
0.0000000000
10
8.6499988004
20
-16.6720911455
30
0.0000000000
10
8.6488606291
20
-16.6808152693
30
0.0000000000
10
8.6438208795
20
-16.6930034304
30
0.0000000000
10
8.6357661787
20
-16.7035087029
30
0.0000000000
10
8.6252544844
20
-16.7115599100
30
0.0000000000
10
8.6130569160
20
-16.7165976770
30
0.0000000000
10
8.6043268231
20
-16.7177349024
30
0.0000000000
10
8.6000000000
20
-16.7177363169
30
0.0000000000
11
8.6500000000
21
-16.6677674040
31
0.0000000000
11
8.6483155195
21
-16.6806287882
31
0.0000000000
11
8.6433233443
21
-16.6927129201
31
0.0000000000
11
8.6353582958
21
-16.7030978366
31
0.0000000000
11
8.6249650254
21
-16.7110616328
31
0.0000000000
11
8.6128708011
21
-16.7160525475
31
0.0000000000
11
8.6000000000
21
-16.7177363169
31
0.0000000000
0
SPLINE
5
30E
100
AcDbEntity
8
0
100
AcDbSpline
62
9
6
CONTINUOUS
70
0
71
3
72
12
73
8
74
6
42
0.0000001000
43
0.0000001000
44
0.0000000001
12
-0.0000000000
22
-0.2510575805
32
0.0000000000
13
-0.2510575805
23
-0.0000000325
33
0.0000000000
40
0.0000000000
40
0.0000000000
40
0.0000000000
40
0.0000000000
40
0.0516501505
40
0.1939325192
40
0.4145738164
40
0.6922776604
40
1.0000000000
40
1.0000000000
40
1.0000000000
40
1.0000000000
10
8.9000000000
20
-16.6538781829
30
0.0000000000
10
8.9000000000
20
-16.6582005702
30
0.0000000000
10
8.8754288759
20
-16.6576818189
30
0.0000000000
10
8.8485751711
20
-16.6639863836
30
0.0000000000
10
8.7910273936
20
-16.6650850115
30
0.0000000000
10
8.7251485287
20
-16.6675210115
30
0.0000000000
10
8.6757520087
20
-16.6677674007
30
0.0000000000
10
8.6500000000
20
-16.6677674040
30
0.0000000000
11
8.9000000000
21
-16.6538781829
31
0.0000000000
11
8.8877637615
21
-16.6581702400
31
0.0000000000
11
8.8522531560
21
-16.6620421314
31
0.0000000000
11
8.7969447741
21
-16.6651148476
31
0.0000000000
11
8.7272530354
21
-16.6670876306
31
0.0000000000
11
8.6500000000
21
-16.6677674040
31
0.0000000000
0
SPLINE
5
30F
100
AcDbEntity
8
0
100
AcDbSpline
62
9
6
CONTINUOUS
70
0
71
3
72
13
73
9
74
7
42
0.0000001000
43
0.0000001000
44
0.0000000001
12
0.0000000020
22
0.4696880380
32
0.0000000000
13
-0.4696880380
23
-0.0000000021
33
0.0000000000
40
0.0000000000
40
0.0000000000
40
0.0000000000
40
0.0000000000
40
0.1666077747
40
0.3332265462
40
0.4998580875
40
0.6665277329
40
0.8332507001
40
1.0000000000
40
1.0000000000
40
1.0000000000
40
1.0000000000
10
8.9000000000
20
-8.4266417895
30
0.0000000000
10
8.9000000001
20
-8.4005572299
30
0.0000000000
10
8.8931052832
20
-8.3481297674
30
0.0000000000
10
8.8627855029
20
-8.2750503208
30
0.0000000000
10
8.8145647678
20
-8.2122527278
30
0.0000000000
10
8.7517110914
20
-8.1640794508
30
0.0000000000
10
8.6785720537
20
-8.1337919599
30
0.0000000000
10
8.6261067172
20
-8.1269051805
30
0.0000000000
10
8.6000000000
20
-8.1269051806
30
0.0000000000
11
8.9000000000
21
-8.4266417895
31
0.0000000000
11
8.8897762977
21
-8.3490588394
31
0.0000000000
11
8.8598039045
21
-8.2767670535
31
0.0000000000
11
8.8121322046
21
-8.2146961709
31
0.0000000000
11
8.7500067630
21
-8.1670661731
31
0.0000000000
11
8.6776511766
21
-8.1371199205
31
0.0000000000
11
8.6000000000
21
-8.1269051806
31
0.0000000000
0
SPLINE
5
310
100
AcDbEntity
8
0
100
AcDbSpline
62
9
6
CONTINUOUS
70
0
71
3
72
13
73
9
74
7
42
0.0000001000
43
0.0000001000
44
0.0000000001
12
-0.0782912730
22
0.0000255931
32
0.0000000000
13
-0.0000217216
23
0.0782912742
33
0.0000000000
40
0.0000000000
40
0.0000000000
40
0.0000000000
40
0.0000000000
40
0.1657971418
40
0.3329110081
40
0.5001530204
40
0.6673200830
40
0.8343209429
40
1.0000000000
40
1.0000000000
40
1.0000000000
40
1.0000000000
10
-8.6000000000
20
-16.7177363169
30
0.0000000000
10
-8.6043268231
20
-16.7177349024
30
0.0000000000
10
-8.6130569160
20
-16.7165976770
30
0.0000000000
10
-8.6252544844
20
-16.7115599100
30
0.0000000000
10
-8.6357661787
20
-16.7035087029
30
0.0000000000
10
-8.6438208795
20
-16.6930034304
30
0.0000000000
10
-8.6488606292
20
-16.6808152693
30
0.0000000000
10
-8.6499988004
20
-16.6720911455
30
0.0000000000
10
-8.6500000000
20
-16.6677674040
30
0.0000000000
11
-8.6000000000
21
-16.7177363169
31
0.0000000000
11
-8.6128708011
21
-16.7160525475
31
0.0000000000
11
-8.6249650254
21
-16.7110616328
31
0.0000000000
11
-8.6353582958
21
-16.7030978366
31
0.0000000000
11
-8.6433233443
21
-16.6927129201
31
0.0000000000
11
-8.6483155195
21
-16.6806287882
31
0.0000000000
11
-8.6500000000
21
-16.6677674040
31
0.0000000000
0
SPLINE
5
311
100
AcDbEntity
8
0
100
AcDbSpline
62
9
6
CONTINUOUS
70
0
71
3
72
12
73
8
74
6
42
0.0000001000
43
0.0000001000
44
0.0000000001
12
-0.0000000000
22
-0.2510575890
32
0.0000000000
13
0.2510575890
23
0.0000000001
33
0.0000000000
40
0.0000000000
40
0.0000000000
40
0.0000000000
40
0.0000000000
40
0.0516486978
40
0.1939281837
40
0.4145677024
40
0.6922728380
40
1.0000000000
40
1.0000000000
40
1.0000000000
40
1.0000000000
10
-8.9000000000
20
-16.6538781829
30
0.0000000000
10
-8.9000000000
20
-16.6582004488
30
0.0000000000
10
-8.8754294893
20
-16.6576818622
30
0.0000000000
10
-8.8485761398
20
-16.6639862883
30
0.0000000000
10
-8.7910286690
20
-16.6650849871
30
0.0000000000
10
-8.7251494556
20
-16.6675210095
30
0.0000000000
10
-8.6757524131
20
-16.6677674040
30
0.0000000000
10
-8.6500000000
20
-16.6677674040
30
0.0000000000
11
-8.9000000000
21
-16.6538781829
31
0.0000000000
11
-8.8877641291
21
-16.6581701872
31
0.0000000000
11
-8.8522542485
21
-16.6620420615
31
0.0000000000
11
-8.7969463130
21
-16.6651147985
31
0.0000000000
11
-8.7272542486
21
-16.6670876171
31
0.0000000000
11
-8.6500000000
21
-16.6677674040
31
0.0000000000
0
SPLINE
5
312
100
AcDbEntity
8
0
100
AcDbSpline
62
9
6
CONTINUOUS
70
0
71
3
72
13
73
9
74
7
42
0.0000001000
43
0.0000001000
44
0.0000000001
12
0.0000217091
22
0.0783364257
32
0.0000000000
13
0.0783364245
23
0.0000256380
33
0.0000000000
40
0.0000000000
40
0.0000000000
40
0.0000000000
40
0.0000000000
40
0.1657707182
40
0.3328397431
40
0.5000321122
40
0.6672494118
40
0.8342951798
40
1.0000000000
40
1.0000000000
40
1.0000000000
40
1.0000000000
10
-8.6500000000
20
-8.4681337328
30
0.0000000000
10
-8.6499988004
20
-8.4638051043
30
0.0000000000
10
-8.6488608281
20
-8.4550718413
30
0.0000000000
10
-8.6438217158
20
-8.4428701692
30
0.0000000000
10
-8.6357676070
20
-8.4323526636
30
0.0000000000
10
-8.6252560150
20
-8.4242915412
30
0.0000000000
10
-8.6130579119
20
-8.4192472830
30
0.0000000000
10
-8.6043269077
20
-8.4181085292
30
0.0000000000
10
-8.6000000000
20
-8.4181071131
30
0.0000000000
11
-8.6500000000
21
-8.4681337328
31
0.0000000000
11
-8.6483155195
21
-8.4552575625
31
0.0000000000
11
-8.6433233443
21
-8.4431594957
31
0.0000000000
11
-8.6353582958
21
-8.4327625712
31
0.0000000000
11
-8.6249650254
21
-8.4247895460
31
0.0000000000
11
-8.6128708011
21
-8.4197928384
31
0.0000000000
11
-8.6000000000
21
-8.4181071131
31
0.0000000000
0
SPLINE
5
313
100
AcDbEntity
8
0
100
AcDbSpline
62
9
6
CONTINUOUS
70
0
71
3
72
12
73
8
74
6
42
0.0000001000
43
0.0000001000
44
0.0000000001
12
-0.0000000000
22
-0.2502772117
32
0.0000000000
13
0.2502772117
23
0.0000000325
33
0.0000000000
40
0.0000000000
40
0.0000000000
40
0.0000000000
40
0.0000000000
40
0.0496609638
40
0.1917635730
40
0.4128400621
40
0.6913270422
40
1.0000000000
40
1.0000000000
40
1.0000000000
40
1.0000000000
10
-8.9000000000
20
-8.4610775398
30
0.0000000000
10
-8.9000000000
20
-8.4652205423
30
0.0000000000
10
-8.8746404216
20
-8.4603537859
30
0.0000000000
10
-8.8488871330
20
-8.4677953878
30
0.0000000000
10
-8.7908513068
20
-8.4661277907
30
0.0000000000
10
-8.7251928409
20
-8.4682336860
30
0.0000000000
10
-8.6757512691
20
-8.4681337361
30
0.0000000000
10
-8.6500000000
20
-8.4681337328
30
0.0000000000
11
-8.9000000000
21
-8.4610775398
31
0.0000000000
11
-8.8877637615
21
-8.4632580665
31
0.0000000000
11
-8.8522531560
21
-8.4652251228
31
0.0000000000
11
-8.7969447741
21
-8.4667861648
31
0.0000000000
11
-8.7272530354
21
-8.4677883977
31
0.0000000000
11
-8.6500000000
21
-8.4681337328
31
0.0000000000
0
SPLINE
5
314
100
AcDbEntity
8
0
100
AcDbSpline
62
9
6
CONTINUOUS
70
0
71
3
72
13
73
9
74
7
42
0.0000001000
43
0.0000001000
44
0.0000000001
12
0.0783364245
22
-0.0000256379
32
0.0000000000
13
0.0000217092
23
-0.0783364257
33
0.0000000000
40
0.0000000000
40
0.0000000000
40
0.0000000000
40
0.0000000000
40
0.1657048201
40
0.3327505882
40
0.4999678878
40
0.6671602568
40
0.8342292818
40
1.0000000000
40
1.0000000000
40
1.0000000000
40
1.0000000000
10
8.6000000000
20
-8.4181071131
30
0.0000000000
10
8.6043269077
20
-8.4181085292
30
0.0000000000
10
8.6130579119
20
-8.4192472830
30
0.0000000000
10
8.6252560150
20
-8.4242915412
30
0.0000000000
10
8.6357676070
20
-8.4323526636
30
0.0000000000
10
8.6438217158
20
-8.4428701692
30
0.0000000000
10
8.6488608281
20
-8.4550718413
30
0.0000000000
10
8.6499988004
20
-8.4638051043
30
0.0000000000
10
8.6500000000
20
-8.4681337328
30
0.0000000000
11
8.6000000000
21
-8.4181071131
31
0.0000000000
11
8.6128708011
21
-8.4197928384
31
0.0000000000
11
8.6249650254
21
-8.4247895460
31
0.0000000000
11
8.6353582958
21
-8.4327625712
31
0.0000000000
11
8.6433233443
21
-8.4431594957
31
0.0000000000
11
8.6483155195
21
-8.4552575625
31
0.0000000000
11
8.6500000000
21
-8.4681337328
31
0.0000000000
0
SPLINE
5
315
100
AcDbEntity
8
0
100
AcDbSpline
62
9
6
CONTINUOUS
70
0
71
3
72
13
73
9
74
7
42
0.0000001000
43
0.0000001000
44
0.0000000001
12
-0.4696880380
22
0.0000000021
32
0.0000000000
13
0.0000000020
23
-0.4696880380
33
0.0000000000
40
0.0000000000
40
0.0000000000
40
0.0000000000
40
0.0000000000
40
0.1667492999
40
0.3334722671
40
0.5001419125
40
0.6667734538
40
0.8333922253
40
1.0000000000
40
1.0000000000
40
1.0000000000
40
1.0000000000
10
-8.6000000000
20
-8.1269051806
30
0.0000000000
10
-8.6261067172
20
-8.1269051805
30
0.0000000000
10
-8.6785720537
20
-8.1337919599
30
0.0000000000
10
-8.7517110914
20
-8.1640794508
30
0.0000000000
10
-8.8145647678
20
-8.2122527278
30
0.0000000000
10
-8.8627855029
20
-8.2750503208
30
0.0000000000
10
-8.8931052832
20
-8.3481297674
30
0.0000000000
10
-8.9000000001
20
-8.4005572299
30
0.0000000000
10
-8.9000000000
20
-8.4266417895
30
0.0000000000
11
-8.6000000000
21
-8.1269051806
31
0.0000000000
11
-8.6776511766
21
-8.1371199205
31
0.0000000000
11
-8.7500067630
21
-8.1670661731
31
0.0000000000
11
-8.8121322046
21
-8.2146961709
31
0.0000000000
11
-8.8598039045
21
-8.2767670535
31
0.0000000000
11
-8.8897762977
21
-8.3490588394
31
0.0000000000
11
-8.9000000000
21
-8.4266417895
31
0.0000000000
0
SPLINE
5
316
100
AcDbEntity
8
0
100
AcDbSpline
62
7
6
CONTINUOUS
70
0
71
3
72
13
73
9
74
7
42
0.0000001000
43
0.0000001000
44
0.0000000001
12
0.0000000000
22
-0.4698599193
32
0.0000000000
13
-0.4698599196
23
0.0000000047
33
0.0000000000
40
0.0000000000
40
0.0000000000
40
0.0000000000
40
0.0000000000
40
0.1666343462
40
0.3332842529
40
0.4999476129
40
0.6666310486
40
0.8333171286
40
1.0000000000
40
1.0000000000
40
1.0000000000
40
1.0000000000
10
8.9000000000
20
8.4266417895
30
0.0000000000
10
8.9000000000
20
8.4005435227
30
0.0000000000
10
8.8931083716
20
8.3480882324
30
0.0000000000
10
8.8627972266
20
8.2749596585
30
0.0000000000
10
8.8145789605
20
8.2121085622
30
0.0000000000
10
8.7517198758
20
8.1638912526
30
0.0000000000
10
8.6785744358
20
8.1335779568
30
0.0000000000
10
8.6261058638
20
8.1266856878
30
0.0000000000
10
8.5999999970
20
8.1266856880
30
0.0000000000
11
8.9000000000
21
8.4266417895
31
0.0000000000
11
8.8897802683
21
8.3490168395
31
0.0000000000
11
8.8598144189
21
8.2766755058
31
0.0000000000
11
8.8121416972
21
8.2145504523
31
0.0000000000
11
8.7500062452
21
8.1668757874
31
0.0000000000
11
8.6776477376
21
8.1369069856
31
0.0000000000
11
8.5999999970
21
8.1266856880
31
0.0000000000
0
SPLINE
5
317
100
AcDbEntity
8
0
100
AcDbSpline
62
7
6
CONTINUOUS
70
0
71
3
72
13
73
9
74
7
42
0.0000001000
43
0.0000001000
44
0.0000000001
12
-0.0000000000
22
-0.4698599185
32
0.0000000000
13
0.4698599185
23
0.0000000034
33
0.0000000000
40
0.0000000000
40
0.0000000000
40
0.0000000000
40
0.0000000000
40
0.1666343448
40
0.3332842500
40
0.4999476086
40
0.6666310429
40
0.8333171215
40
1.0000000000
40
1.0000000000
40
1.0000000000
40
1.0000000000
10
-8.9000000000
20
8.4266417895
30
0.0000000000
10
-8.9000000000
20
8.4005435230
30
0.0000000000
10
-8.8931083717
20
8.3480882332
30
0.0000000000
10
-8.8627972273
20
8.2749596600
30
0.0000000000
10
-8.8145789622
20
8.2121085639
30
0.0000000000
10
-8.7517198786
20
8.1638912543
30
0.0000000000
10
-8.6785744385
20
8.1335779574
30
0.0000000000
10
-8.6261058657
20
8.1266856878
30
0.0000000000
10
-8.5999999978
20
8.1266856880
30
0.0000000000
11
-8.9000000000
21
8.4266417895
31
0.0000000000
11
-8.8897802685
21
8.3490168403
31
0.0000000000
11
-8.8598144197
21
8.2766755072
31
0.0000000000
11
-8.8121416990
21
8.2145504541
31
0.0000000000
11
-8.7500062480
21
8.1668757890
31
0.0000000000
11
-8.6776477415
21
8.1369069866
31
0.0000000000
11
-8.5999999978
21
8.1266856880
31
0.0000000000
0
SPLINE
5
318
100
AcDbEntity
8
0
100
AcDbSpline
62
7
6
CONTINUOUS
70
0
71
3
72
8
73
4
74
2
42
0.0000001000
43
0.0000001000
44
0.0000000001
12
0.0096788585
22
-0.0531833548
32
0.0000000000
13
0.0000073714
23
-0.0538511454
33
0.0000000000
40
0.0000000000
40
0.0000000000
40
0.0000000000
40
0.0000000000
40
1.0000000000
40
1.0000000000
40
1.0000000000
40
1.0000000000
10
8.8951389101
20
16.7075675113
30
0.0000000000
10
8.8983651963
20
16.6898397264
30
0.0000000000
10
8.8999975429
20
16.6718285647
30
0.0000000000
10
8.9000000000
20
16.6538781829
30
0.0000000000
11
8.8951389101
21
16.7075675113
31
0.0000000000
11
8.9000000000
21
16.6538781829
31
0.0000000000
0
SPLINE
5
319
100
AcDbEntity
8
0
100
AcDbSpline
62
7
6
CONTINUOUS
70
0
71
3
72
13
73
9
74
7
42
0.0000001000
43
0.0000001000
44
0.0000000001
12
-0.0748231924
22
0.4104456100
32
0.0000000000
13
-0.4173618235
23
0.0001001934
33
0.0000000000
40
0.0000000000
40
0.0000000000
40
0.0000000000
40
0.0000000000
40
0.1538086656
40
0.3443087328
40
0.5350059818
40
0.7254195303
40
0.9150544161
40
1.0000000000
40
1.0000000000
40
1.0000000000
40
1.0000000000
10
8.8951338291
20
16.7076491236
30
0.0000000000
10
8.8912976773
20
16.7286924875
30
0.0000000000
10
8.8776743982
20
16.7748438469
30
0.0000000000
10
8.8399455800
20
16.8397197985
30
0.0000000000
10
8.7829008052
20
16.8960442861
30
0.0000000000
10
8.7131929506
20
16.9354233664
30
0.0000000000
10
8.6500437615
20
16.9515371148
30
0.0000000000
10
8.6118176784
20
16.9537968595
30
0.0000000000
10
8.5999999972
20
16.9537996965
30
0.0000000000
11
8.8951338291
21
16.7076491236
31
0.0000000000
11
8.8769993970
21
16.7690477087
31
0.0000000000
11
8.8371723733
21
16.8375323851
31
0.0000000000
11
8.7807409923
21
16.8932534910
31
0.0000000000
11
8.7117935386
21
16.9322007841
31
0.0000000000
11
8.6353796934
21
16.9517042901
31
0.0000000000
11
8.5999999972
21
16.9537996965
31
0.0000000000
0
SPLINE
5
31A
100
AcDbEntity
8
0
100
AcDbSpline
62
7
6
CONTINUOUS
70
0
71
3
72
13
73
9
74
7
42
0.0000001000
43
0.0000001000
44
0.0000000001
12
0.0747012119
22
0.4106936923
32
0.0000000000
13
0.4158433567
23
0.0000647773
33
0.0000000000
40
0.0000000000
40
0.0000000000
40
0.0000000000
40
0.0000000000
40
0.0587338988
40
0.2469112329
40
0.4351069765
40
0.6233511185
40
0.8116595952
40
1.0000000000
40
1.0000000000
40
1.0000000000
40
1.0000000000
10
-8.8951441247
20
16.7075388506
30
0.0000000000
10
-8.8936816269
20
16.7155793979
30
0.0000000000
10
-8.8861550336
20
16.7491361319
30
0.0000000000
10
-8.8627847634
20
16.8054556343
30
0.0000000000
10
-8.8145643822
20
16.8682473044
30
0.0000000000
10
-8.7517105044
20
16.9164150821
30
0.0000000000
10
-8.6785716722
20
16.9467018222
30
0.0000000000
10
-8.6261067021
20
16.9535818957
30
0.0000000000
10
-8.6000000000
20
16.9535859624
30
0.0000000000
11
-8.8951441247
21
16.7075388506
31
0.0000000000
11
-8.8897763237
21
16.7314536207
31
0.0000000000
11
-8.8598040290
21
16.8037383581
31
0.0000000000
11
-8.8121324748
21
16.8658031855
31
0.0000000000
11
-8.7500069677
21
16.9134287228
31
0.0000000000
11
-8.6776512584
21
16.9433721855
31
0.0000000000
11
-8.6000000000
21
16.9535859624
31
0.0000000000
0
SPLINE
5
31B
100
AcDbEntity
8
0
100
AcDbSpline
62
7
6
CONTINUOUS
70
0
71
3
72
13
73
9
74
7
42
0.0000001000
43
0.0000001000
44
0.0000000001
12
-0.4173253574
22
-0.0000971492
32
0.0000000000
13
-0.0747835901
23
-0.4104476173
33
0.0000000000
40
0.0000000000
40
0.0000000000
40
0.0000000000
40
0.0000000000
40
0.0937021642
40
0.2834535152
40
0.4739220890
40
0.6646063287
40
0.8550273987
40
1.0000000000
40
1.0000000000
40
1.0000000000
40
1.0000000000
10
-8.5999999979
20
16.9537992613
30
0.0000000000
10
-8.6130347609
20
16.9537962269
30
0.0000000000
10
-8.6525008253
20
16.9512257844
30
0.0000000000
10
-8.7166613212
20
16.9340077319
30
0.0000000000
10
-8.7858997516
20
16.8937536214
30
0.0000000000
10
-8.8422369195
20
16.8367209664
30
0.0000000000
10
-8.8785446475
20
16.7724682184
30
0.0000000000
10
-8.8915233144
20
16.7274546578
30
0.0000000000
10
-8.8951371716
20
16.7076201049
30
0.0000000000
11
-8.5999999979
21
16.9537992613
31
0.0000000000
11
-8.6390083294
21
16.9512523144
31
0.0000000000
11
-8.7152286769
21
16.9307972051
31
0.0000000000
11
-8.7837117090
21
16.8909826719
31
0.0000000000
11
-8.8394436393
21
16.8345619907
31
0.0000000000
11
-8.8784034497
21
16.7656118188
31
0.0000000000
11
-8.8951371716
21
16.7076201049
31
0.0000000000
0
SPLINE
5
31C
100
AcDbEntity
8
0
100
AcDbSpline
62
7
6
CONTINUOUS
70
0
71
3
72
8
73
4
74
2
42
0.0000001000
43
0.0000001000
44
0.0000000001
12
-0.0000071437
22
-0.0521982304
32
0.0000000000
13
-0.0090937401
23
-0.0516010946
33
0.0000000000
40
0.0000000000
40
0.0000000000
40
0.0000000000
40
0.0000000000
40
1.0000000000
40
1.0000000000
40
1.0000000000
40
1.0000000000
10
8.9000000000
20
8.4610775398
30
0.0000000000
10
8.8999976188
20
8.4436781297
30
0.0000000000
10
8.8984644710
20
8.4262216430
30
0.0000000000
10
8.8954332243
20
8.4090212781
30
0.0000000000
11
8.9000000000
21
8.4610775398
31
0.0000000000
11
8.8954332243
21
8.4090212781
31
0.0000000000
0
SPLINE
5
31D
100
AcDbEntity
8
0
100
AcDbSpline
62
7
6
CONTINUOUS
70
0
71
3
72
13
73
9
74
7
42
0.0000001000
43
0.0000001000
44
0.0000000001
12
-0.0727371181
22
-0.4127361095
32
0.0000000000
13
-0.4175123533
23
-0.0000652502
33
0.0000000000
40
0.0000000000
40
0.0000000000
40
0.0000000000
40
0.0000000000
40
0.0624237810
40
0.2498795464
40
0.4373457790
40
0.6248508619
40
0.8124118666
40
1.0000000000
40
1.0000000000
40
1.0000000000
40
1.0000000000
10
8.8954332243
20
8.4090212781
30
0.0000000000
10
8.8939197157
20
8.4004330953
30
0.0000000000
10
8.8863661849
20
8.3663105875
30
0.0000000000
10
8.8627855793
20
8.3094725662
30
0.0000000000
10
8.8145658087
20
8.2466686818
30
0.0000000000
10
8.7517120378
20
8.1984909881
30
0.0000000000
10
8.6785726678
20
8.1681977749
30
0.0000000000
10
8.6261067877
20
8.1613161815
30
0.0000000000
10
8.6000000000
20
8.1613121015
30
0.0000000000
11
8.8954332243
21
8.4090212781
31
0.0000000000
11
8.8897763237
21
8.3834872714
31
0.0000000000
11
8.8598040290
21
8.3111886737
31
0.0000000000
11
8.8121324748
21
8.2491118449
31
0.0000000000
11
8.7500069677
21
8.2014770831
31
0.0000000000
11
8.6776512584
21
8.1715278481
31
0.0000000000
11
8.6000000000
21
8.1613121015
31
0.0000000000
0
SPLINE
5
31E
100
AcDbEntity
8
0
100
AcDbSpline
62
7
6
CONTINUOUS
70
0
71
3
72
13
73
9
74
7
42
0.0000001000
43
0.0000001000
44
0.0000000001
12
0.4158143364
22
-0.0000647726
32
0.0000000000
13
0.0747357946
23
-0.4106579586
33
0.0000000000
40
0.0000000000
40
0.0000000000
40
0.0000000000
40
0.0000000000
40
0.1883535494
40
0.3766751685
40
0.5649324483
40
0.7531413264
40
0.9413317937
40
1.0000000000
40
1.0000000000
40
1.0000000000
40
1.0000000000
10
8.6000000000
20
16.9535859624
30
0.0000000000
10
8.6261067021
20
16.9535818957
30
0.0000000000
10
8.6785716722
20
16.9467018222
30
0.0000000000
10
8.7517105044
20
16.9164150821
30
0.0000000000
10
8.8145643822
20
16.8682473044
30
0.0000000000
10
8.8627847634
20
16.8054556343
30
0.0000000000
10
8.8861512853
20
16.7491451649
30
0.0000000000
10
8.8936773718
20
16.7155983666
30
0.0000000000
10
8.8951389101
20
16.7075675113
30
0.0000000000
11
8.6000000000
21
16.9535859624
31
0.0000000000
11
8.6776512584
21
16.9433721855
31
0.0000000000
11
8.7500069677
21
16.9134287228
31
0.0000000000
11
8.8121324748
21
16.8658031855
31
0.0000000000
11
8.8598040290
21
16.8037383581
31
0.0000000000
11
8.8897763237
21
16.7314536207
31
0.0000000000
11
8.8951389101
21
16.7075675113
31
0.0000000000
0
SPLINE
5
31F
100
AcDbEntity
8
0
100
AcDbSpline
62
7
6
CONTINUOUS
70
0
71
3
72
8
73
4
74
2
42
0.0000001000
43
0.0000001000
44
0.0000000001
12
0.0000073674
22
0.0538221250
32
0.0000000000
13
0.0096684915
23
0.0531556097
33
0.0000000000
40
0.0000000000
40
0.0000000000
40
0.0000000000
40
0.0000000000
40
1.0000000000
40
1.0000000000
40
1.0000000000
40
1.0000000000
10
-8.9000000000
20
16.6538781829
30
0.0000000000
10
-8.8999975442
20
16.6718188913
30
0.0000000000
10
-8.8983669552
20
16.6898203140
30
0.0000000000
10
-8.8951441247
20
16.7075388506
30
0.0000000000
11
-8.9000000000
21
16.6538781829
31
0.0000000000
11
-8.8951441247
21
16.7075388506
31
0.0000000000
0
SPLINE
5
320
100
AcDbEntity
8
0
100
AcDbSpline
62
7
6
CONTINUOUS
70
0
71
3
72
13
73
9
74
7
42
0.0000001000
43
0.0000001000
44
0.0000000001
12
-0.4435863707
22
0.0000693250
32
0.0000000000
13
-0.0389154989
23
0.4430428626
33
0.0000000000
40
0.0000000000
40
0.0000000000
40
0.0000000000
40
0.0000000000
40
0.1765616985
40
0.3530978629
40
0.5295813926
40
0.7060283556
40
0.8824654667
40
1.0000000000
40
1.0000000000
40
1.0000000000
40
1.0000000000
10
-8.6000000000
20
8.1613121015
30
0.0000000000
10
-8.6261067877
20
8.1613161815
30
0.0000000000
10
-8.6785726678
20
8.1681977749
30
0.0000000000
10
-8.7517120378
20
8.1984909881
30
0.0000000000
10
-8.8145658087
20
8.2466686818
30
0.0000000000
10
-8.8627855793
20
8.3094725662
30
0.0000000000
10
-8.8897333827
20
8.3744267855
30
0.0000000000
10
-8.8973255976
20
8.4175920879
30
0.0000000000
10
-8.8988502359
20
8.4349496999
30
0.0000000000
11
-8.6000000000
21
8.1613121015
31
0.0000000000
11
-8.6776512584
21
8.1715278481
31
0.0000000000
11
-8.7500069677
21
8.2014770831
31
0.0000000000
11
-8.8121324748
21
8.2491118449
31
0.0000000000
11
-8.8598040290
21
8.3111886737
31
0.0000000000
11
-8.8897763237
21
8.3834872714
31
0.0000000000
11
-8.8988502359
21
8.4349496999
31
0.0000000000
0
SPLINE
5
321
100
AcDbEntity
8
0
100
AcDbSpline
62
7
6
CONTINUOUS
70
0
71
3
72
8
73
4
74
2
42
0.0000001000
43
0.0000001000
44
0.0000000001
12
-0.0022918576
22
0.0260922039
32
0.0000000000
13
-0.0000035753
23
0.0261242129
33
0.0000000000
40
0.0000000000
40
0.0000000000
40
0.0000000000
40
0.0000000000
40
1.0000000000
40
1.0000000000
40
1.0000000000
40
1.0000000000
10
-8.8988502359
20
8.4349496999
30
0.0000000000
10
-8.8996141885
20
8.4436471012
30
0.0000000000
10
-8.8999988082
20
8.4523694688
30
0.0000000000
10
-8.9000000000
20
8.4610775398
30
0.0000000000
11
-8.8988502359
21
8.4349496999
31
0.0000000000
11
-8.9000000000
21
8.4610775398
31
0.0000000000
0
SPLINE
5
322
100
AcDbEntity
8
0
100
AcDbSpline
62
9
6
CONTINUOUS
70
0
71
3
72
12
73
8
74
6
42
0.0000001000
43
0.0000001000
44
0.0000000001
12
0.0000000000
22
0.2502772113
32
0.0000000000
13
0.2502772113
23
0.0000000001
33
0.0000000000
40
0.0000000000
40
0.0000000000
40
0.0000000000
40
0.0000000000
40
0.0496594887
40
0.1917592029
40
0.4128339105
40
0.6913221938
40
1.0000000000
40
1.0000000000
40
1.0000000000
40
1.0000000000
10
-8.9000000000
20
8.4610775398
30
0.0000000000
10
-8.9000000000
20
8.4652204192
30
0.0000000000
10
-8.8746410228
20
8.4603538336
30
0.0000000000
10
-8.8488881121
20
8.4677953147
30
0.0000000000
10
-8.7908525742
20
8.4661277480
30
0.0000000000
10
-8.7251937709
20
8.4682336793
30
0.0000000000
10
-8.6757516735
20
8.4681337328
30
0.0000000000
10
-8.6500000000
20
8.4681337328
30
0.0000000000
11
-8.9000000000
21
8.4610775398
31
0.0000000000
11
-8.8877641290
21
8.4632580245
31
0.0000000000
11
-8.8522542485
21
8.4652250667
31
0.0000000000
11
-8.7969463130
21
8.4667861202
31
0.0000000000
11
-8.7272542486
21
8.4677883782
31
0.0000000000
11
-8.6500000000
21
8.4681337328
31
0.0000000000
0
SPLINE
5
323
100
AcDbEntity
8
0
100
AcDbSpline
62
9
6
CONTINUOUS
70
0
71
3
72
13
73
9
74
7
42
0.0000001000
43
0.0000001000
44
0.0000000001
12
0.0000217215
22
0.0782912742
32
0.0000000000
13
0.0782912730
23
0.0000255932
33
0.0000000000
40
0.0000000000
40
0.0000000000
40
0.0000000000
40
0.0000000000
40
0.1656790571
40
0.3326799170
40
0.4998469796
40
0.6670889919
40
0.8342028582
40
1.0000000000
40
1.0000000000
40
1.0000000000
40
1.0000000000
10
-8.6500000000
20
16.6677674040
30
0.0000000000
10
-8.6499988004
20
16.6720911455
30
0.0000000000
10
-8.6488606291
20
16.6808152693
30
0.0000000000
10
-8.6438208795
20
16.6930034304
30
0.0000000000
10
-8.6357661787
20
16.7035087029
30
0.0000000000
10
-8.6252544844
20
16.7115599100
30
0.0000000000
10
-8.6130569160
20
16.7165976770
30
0.0000000000
10
-8.6043268231
20
16.7177349024
30
0.0000000000
10
-8.6000000000
20
16.7177363169
30
0.0000000000
11
-8.6500000000
21
16.6677674040
31
0.0000000000
11
-8.6483155195
21
16.6806287882
31
0.0000000000
11
-8.6433233443
21
16.6927129201
31
0.0000000000
11
-8.6353582958
21
16.7030978366
31
0.0000000000
11
-8.6249650254
21
16.7110616328
31
0.0000000000
11
-8.6128708011
21
16.7160525475
31
0.0000000000
11
-8.6000000000
21
16.7177363169
31
0.0000000000
0
SPLINE
5
324
100
AcDbEntity
8
0
100
AcDbSpline
62
9
6
CONTINUOUS
70
0
71
3
72
12
73
8
74
6
42
0.0000001000
43
0.0000001000
44
0.0000000001
12
0.0000000000
22
0.2510575805
32
0.0000000000
13
0.2510575805
23
0.0000000325
33
0.0000000000
40
0.0000000000
40
0.0000000000
40
0.0000000000
40
0.0000000000
40
0.0516501505
40
0.1939325192
40
0.4145738164
40
0.6922776604
40
1.0000000000
40
1.0000000000
40
1.0000000000
40
1.0000000000
10
-8.9000000000
20
16.6538781829
30
0.0000000000
10
-8.9000000000
20
16.6582005702
30
0.0000000000
10
-8.8754288759
20
16.6576818189
30
0.0000000000
10
-8.8485751711
20
16.6639863836
30
0.0000000000
10
-8.7910273936
20
16.6650850115
30
0.0000000000
10
-8.7251485287
20
16.6675210115
30
0.0000000000
10
-8.6757520087
20
16.6677674007
30
0.0000000000
10
-8.6500000000
20
16.6677674040
30
0.0000000000
11
-8.9000000000
21
16.6538781829
31
0.0000000000
11
-8.8877637615
21
16.6581702400
31
0.0000000000
11
-8.8522531560
21
16.6620421314
31
0.0000000000
11
-8.7969447741
21
16.6651148476
31
0.0000000000
11
-8.7272530354
21
16.6670876306
31
0.0000000000
11
-8.6500000000
21
16.6677674040
31
0.0000000000
0
SPLINE
5
325
100
AcDbEntity
8
0
100
AcDbSpline
62
9
6
CONTINUOUS
70
0
71
3
72
13
73
9
74
7
42
0.0000001000
43
0.0000001000
44
0.0000000001
12
-0.0000000020
22
-0.4696880380
32
0.0000000000
13
0.4696880380
23
0.0000000021
33
0.0000000000
40
0.0000000000
40
0.0000000000
40
0.0000000000
40
0.0000000000
40
0.1666077747
40
0.3332265462
40
0.4998580875
40
0.6665277329
40
0.8332507001
40
1.0000000000
40
1.0000000000
40
1.0000000000
40
1.0000000000
10
-8.9000000000
20
8.4266417895
30
0.0000000000
10
-8.9000000001
20
8.4005572299
30
0.0000000000
10
-8.8931052832
20
8.3481297674
30
0.0000000000
10
-8.8627855029
20
8.2750503208
30
0.0000000000
10
-8.8145647678
20
8.2122527278
30
0.0000000000
10
-8.7517110914
20
8.1640794508
30
0.0000000000
10
-8.6785720537
20
8.1337919599
30
0.0000000000
10
-8.6261067172
20
8.1269051805
30
0.0000000000
10
-8.6000000000
20
8.1269051806
30
0.0000000000
11
-8.9000000000
21
8.4266417895
31
0.0000000000
11
-8.8897762977
21
8.3490588394
31
0.0000000000
11
-8.8598039045
21
8.2767670535
31
0.0000000000
11
-8.8121322046
21
8.2146961709
31
0.0000000000
11
-8.7500067630
21
8.1670661731
31
0.0000000000
11
-8.6776511766
21
8.1371199205
31
0.0000000000
11
-8.6000000000
21
8.1269051806
31
0.0000000000
0
SPLINE
5
326
100
AcDbEntity
8
0
100
AcDbSpline
62
9
6
CONTINUOUS
70
0
71
3
72
13
73
9
74
7
42
0.0000001000
43
0.0000001000
44
0.0000000001
12
0.0782912730
22
-0.0000255931
32
0.0000000000
13
0.0000217216
23
-0.0782912742
33
0.0000000000
40
0.0000000000
40
0.0000000000
40
0.0000000000
40
0.0000000000
40
0.1657971418
40
0.3329110081
40
0.5001530204
40
0.6673200830
40
0.8343209429
40
1.0000000000
40
1.0000000000
40
1.0000000000
40
1.0000000000
10
8.6000000000
20
16.7177363169
30
0.0000000000
10
8.6043268231
20
16.7177349024
30
0.0000000000
10
8.6130569160
20
16.7165976770
30
0.0000000000
10
8.6252544844
20
16.7115599100
30
0.0000000000
10
8.6357661787
20
16.7035087029
30
0.0000000000
10
8.6438208795
20
16.6930034304
30
0.0000000000
10
8.6488606292
20
16.6808152693
30
0.0000000000
10
8.6499988004
20
16.6720911455
30
0.0000000000
10
8.6500000000
20
16.6677674040
30
0.0000000000
11
8.6000000000
21
16.7177363169
31
0.0000000000
11
8.6128708011
21
16.7160525475
31
0.0000000000
11
8.6249650254
21
16.7110616328
31
0.0000000000
11
8.6353582958
21
16.7030978366
31
0.0000000000
11
8.6433233443
21
16.6927129201
31
0.0000000000
11
8.6483155195
21
16.6806287882
31
0.0000000000
11
8.6500000000
21
16.6677674040
31
0.0000000000
0
SPLINE
5
327
100
AcDbEntity
8
0
100
AcDbSpline
62
9
6
CONTINUOUS
70
0
71
3
72
12
73
8
74
6
42
0.0000001000
43
0.0000001000
44
0.0000000001
12
0.0000000000
22
0.2510575890
32
0.0000000000
13
-0.2510575890
23
-0.0000000001
33
0.0000000000
40
0.0000000000
40
0.0000000000
40
0.0000000000
40
0.0000000000
40
0.0516486978
40
0.1939281837
40
0.4145677024
40
0.6922728380
40
1.0000000000
40
1.0000000000
40
1.0000000000
40
1.0000000000
10
8.9000000000
20
16.6538781829
30
0.0000000000
10
8.9000000000
20
16.6582004488
30
0.0000000000
10
8.8754294893
20
16.6576818622
30
0.0000000000
10
8.8485761398
20
16.6639862883
30
0.0000000000
10
8.7910286690
20
16.6650849871
30
0.0000000000
10
8.7251494556
20
16.6675210095
30
0.0000000000
10
8.6757524131
20
16.6677674040
30
0.0000000000
10
8.6500000000
20
16.6677674040
30
0.0000000000
11
8.9000000000
21
16.6538781829
31
0.0000000000
11
8.8877641291
21
16.6581701872
31
0.0000000000
11
8.8522542485
21
16.6620420615
31
0.0000000000
11
8.7969463130
21
16.6651147985
31
0.0000000000
11
8.7272542486
21
16.6670876171
31
0.0000000000
11
8.6500000000
21
16.6677674040
31
0.0000000000
0
SPLINE
5
328
100
AcDbEntity
8
0
100
AcDbSpline
62
9
6
CONTINUOUS
70
0
71
3
72
13
73
9
74
7
42
0.0000001000
43
0.0000001000
44
0.0000000001
12
-0.0000217091
22
-0.0783364257
32
0.0000000000
13
-0.0783364245
23
-0.0000256380
33
0.0000000000
40
0.0000000000
40
0.0000000000
40
0.0000000000
40
0.0000000000
40
0.1657707182
40
0.3328397431
40
0.5000321122
40
0.6672494118
40
0.8342951798
40
1.0000000000
40
1.0000000000
40
1.0000000000
40
1.0000000000
10
8.6500000000
20
8.4681337328
30
0.0000000000
10
8.6499988004
20
8.4638051043
30
0.0000000000
10
8.6488608281
20
8.4550718413
30
0.0000000000
10
8.6438217158
20
8.4428701692
30
0.0000000000
10
8.6357676070
20
8.4323526636
30
0.0000000000
10
8.6252560150
20
8.4242915412
30
0.0000000000
10
8.6130579119
20
8.4192472830
30
0.0000000000
10
8.6043269077
20
8.4181085292
30
0.0000000000
10
8.6000000000
20
8.4181071131
30
0.0000000000
11
8.6500000000
21
8.4681337328
31
0.0000000000
11
8.6483155195
21
8.4552575625
31
0.0000000000
11
8.6433233443
21
8.4431594957
31
0.0000000000
11
8.6353582958
21
8.4327625712
31
0.0000000000
11
8.6249650254
21
8.4247895460
31
0.0000000000
11
8.6128708011
21
8.4197928384
31
0.0000000000
11
8.6000000000
21
8.4181071131
31
0.0000000000
0
SPLINE
5
329
100
AcDbEntity
8
0
100
AcDbSpline
62
9
6
CONTINUOUS
70
0
71
3
72
12
73
8
74
6
42
0.0000001000
43
0.0000001000
44
0.0000000001
12
0.0000000000
22
0.2502772117
32
0.0000000000
13
-0.2502772117
23
-0.0000000325
33
0.0000000000
40
0.0000000000
40
0.0000000000
40
0.0000000000
40
0.0000000000
40
0.0496609638
40
0.1917635730
40
0.4128400621
40
0.6913270422
40
1.0000000000
40
1.0000000000
40
1.0000000000
40
1.0000000000
10
8.9000000000
20
8.4610775398
30
0.0000000000
10
8.9000000000
20
8.4652205423
30
0.0000000000
10
8.8746404216
20
8.4603537859
30
0.0000000000
10
8.8488871330
20
8.4677953878
30
0.0000000000
10
8.7908513068
20
8.4661277907
30
0.0000000000
10
8.7251928409
20
8.4682336860
30
0.0000000000
10
8.6757512691
20
8.4681337361
30
0.0000000000
10
8.6500000000
20
8.4681337328
30
0.0000000000
11
8.9000000000
21
8.4610775398
31
0.0000000000
11
8.8877637615
21
8.4632580665
31
0.0000000000
11
8.8522531560
21
8.4652251228
31
0.0000000000
11
8.7969447741
21
8.4667861648
31
0.0000000000
11
8.7272530354
21
8.4677883977
31
0.0000000000
11
8.6500000000
21
8.4681337328
31
0.0000000000
0
SPLINE
5
32A
100
AcDbEntity
8
0
100
AcDbSpline
62
9
6
CONTINUOUS
70
0
71
3
72
13
73
9
74
7
42
0.0000001000
43
0.0000001000
44
0.0000000001
12
-0.0783364245
22
0.0000256379
32
0.0000000000
13
-0.0000217092
23
0.0783364257
33
0.0000000000
40
0.0000000000
40
0.0000000000
40
0.0000000000
40
0.0000000000
40
0.1657048201
40
0.3327505882
40
0.4999678878
40
0.6671602568
40
0.8342292818
40
1.0000000000
40
1.0000000000
40
1.0000000000
40
1.0000000000
10
-8.6000000000
20
8.4181071131
30
0.0000000000
10
-8.6043269077
20
8.4181085292
30
0.0000000000
10
-8.6130579119
20
8.4192472830
30
0.0000000000
10
-8.6252560150
20
8.4242915412
30
0.0000000000
10
-8.6357676070
20
8.4323526636
30
0.0000000000
10
-8.6438217158
20
8.4428701692
30
0.0000000000
10
-8.6488608281
20
8.4550718413
30
0.0000000000
10
-8.6499988004
20
8.4638051043
30
0.0000000000
10
-8.6500000000
20
8.4681337328
30
0.0000000000
11
-8.6000000000
21
8.4181071131
31
0.0000000000
11
-8.6128708011
21
8.4197928384
31
0.0000000000
11
-8.6249650254
21
8.4247895460
31
0.0000000000
11
-8.6353582958
21
8.4327625712
31
0.0000000000
11
-8.6433233443
21
8.4431594957
31
0.0000000000
11
-8.6483155195
21
8.4552575625
31
0.0000000000
11
-8.6500000000
21
8.4681337328
31
0.0000000000
0
SPLINE
5
32B
100
AcDbEntity
8
0
100
AcDbSpline
62
9
6
CONTINUOUS
70
0
71
3
72
13
73
9
74
7
42
0.0000001000
43
0.0000001000
44
0.0000000001
12
0.4696880380
22
-0.0000000021
32
0.0000000000
13
-0.0000000020
23
0.4696880380
33
0.0000000000
40
0.0000000000
40
0.0000000000
40
0.0000000000
40
0.0000000000
40
0.1667492999
40
0.3334722671
40
0.5001419125
40
0.6667734538
40
0.8333922253
40
1.0000000000
40
1.0000000000
40
1.0000000000
40
1.0000000000
10
8.6000000000
20
8.1269051806
30
0.0000000000
10
8.6261067172
20
8.1269051805
30
0.0000000000
10
8.6785720537
20
8.1337919599
30
0.0000000000
10
8.7517110914
20
8.1640794508
30
0.0000000000
10
8.8145647678
20
8.2122527278
30
0.0000000000
10
8.8627855029
20
8.2750503208
30
0.0000000000
10
8.8931052832
20
8.3481297674
30
0.0000000000
10
8.9000000001
20
8.4005572299
30
0.0000000000
10
8.9000000000
20
8.4266417895
30
0.0000000000
11
8.6000000000
21
8.1269051806
31
0.0000000000
11
8.6776511766
21
8.1371199205
31
0.0000000000
11
8.7500067630
21
8.1670661731
31
0.0000000000
11
8.8121322046
21
8.2146961709
31
0.0000000000
11
8.8598039045
21
8.2767670535
31
0.0000000000
11
8.8897762977
21
8.3490588394
31
0.0000000000
11
8.9000000000
21
8.4266417895
31
0.0000000000
0
SPLINE
5
32C
100
AcDbEntity
8
0
100
AcDbSpline
62
9
6
CONTINUOUS
70
0
71
3
72
26
73
22
74
20
42
0.0000001000
43
0.0000001000
44
0.0000000001
12
-0.7997659699
22
-0.0134018755
32
0.0000000000
13
-0.7998782513
23
-0.0000039891
33
0.0000000000
40
0.0000000000
40
0.0000000000
40
0.0000000000
40
0.0000000000
40
0.0047657808
40
0.0161795723
40
0.0341655882
40
0.0586034072
40
0.0893297143
40
0.1261396914
40
0.1687870886
40
0.2169870962
40
0.2704175509
40
0.3287219462
40
0.3915102894
40
0.4583636192
40
0.5288351496
40
0.6024542995
40
0.6787284423
40
0.7571489887
40
0.8371922853
40
0.9183211337
40
1.0000000000
40
1.0000000000
40
1.0000000000
40
1.0000000000
10
10.9993932081
20
-0.3500000000
30
0.0000000000
10
10.9981227050
20
-0.3500212901
30
0.0000000000
10
10.9938085274
20
-0.3500141358
30
0.0000000000
10
10.9846993573
20
-0.3500484512
30
0.0000000000
10
10.9703447192
20
-0.3500566907
30
0.0000000000
10
10.9508410474
20
-0.3500783007
30
0.0000000000
10
10.9263183373
20
-0.3500941922
30
0.0000000000
10
10.8969405061
20
-0.3501116010
30
0.0000000000
10
10.8629037196
20
-0.3501276483
30
0.0000000000
10
10.8244354828
20
-0.3501431295
30
0.0000000000
10
10.7817926803
20
-0.3501576201
30
0.0000000000
10
10.7352602467
20
-0.3501711108
30
0.0000000000
10
10.6851489241
20
-0.3501834755
30
0.0000000000
10
10.6317935255
20
-0.3501946368
30
0.0000000000
10
10.5755503511
20
-0.3502045150
30
0.0000000000
10
10.5167953419
20
-0.3502130431
30
0.0000000000
10
10.4559209175
20
-0.3502201629
30
0.0000000000
10
10.3933336479
20
-0.3502258263
30
0.0000000000
10
10.3294519870
20
-0.3502299953
30
0.0000000000
10
10.2647015730
20
-0.3502326400
30
0.0000000000
10
10.2212927896
20
-0.3502333797
30
0.0000000000
10
10.1995150734
20
-0.3502334883
30
0.0000000000
11
10.9993932081
21
-0.3500000000
31
0.0000000000
11
10.9955812116
21
-0.3500191061
31
0.0000000000
11
10.9864515877
21
-0.3500380778
31
0.0000000000
11
10.9720649769
21
-0.3500567890
31
0.0000000000
11
10.9525177056
21
-0.3500751153
31
0.0000000000
11
10.9279404072
21
-0.3500929344
31
0.0000000000
11
10.8984969122
21
-0.3501101280
31
0.0000000000
11
10.8643841907
21
-0.3501265818
31
0.0000000000
11
10.8258300560
21
-0.3501421866
31
0.0000000000
11
10.7830921998
21
-0.3501568386
31
0.0000000000
11
10.7364557841
21
-0.3501704410
31
0.0000000000
11
10.6862327554
21
-0.3501829036
31
0.0000000000
11
10.6327582321
21
-0.3501941438
31
0.0000000000
11
10.5763895885
21
-0.3502040874
31
0.0000000000
11
10.5175032322
21
-0.3502126686
31
0.0000000000
11
10.4564932046
21
-0.3502198306
31
0.0000000000
11
10.3937663154
21
-0.3502255261
31
0.0000000000
11
10.3297414234
21
-0.3502297177
31
0.0000000000
11
10.2648482221
21
-0.3502323774
31
0.0000000000
11
10.1995150734
21
-0.3502334883
31
0.0000000000
0
SPLINE
5
32D
100
AcDbEntity
8
0
100
AcDbSpline
62
9
6
CONTINUOUS
70
0
71
3
72
45
73
41
74
39
42
0.0000001000
43
0.0000001000
44
0.0000000001
12
-0.9446380137
22
-4.2166284796
32
0.0000000000
13
-0.9446379949
23
4.2166284838
33
0.0000000000
40
0.0000000000
40
0.0000000000
40
0.0000000000
40
0.0000000000
40
0.0263361000
40
0.0526706590
40
0.0790034287
40
0.1053340861
40
0.1316623926
40
0.1579881975
40
0.1843112788
40
0.2106316435
40
0.2369491466
40
0.2632639103
40
0.2895759243
40
0.3158853819
40
0.3421924383
40
0.3684973294
40
0.3948003659
40
0.4211018217
40
0.4474021132
40
0.4737015618
40
0.5000006213
40
0.5262996627
40
0.5525991146
40
0.5788993788
40
0.6052008177
40
0.6315038218
40
0.6578086731
40
0.6841156926
40
0.7104250885
40
0.7367370580
40
0.7630517424
40
0.7893691876
40
0.8156894611
40
0.8420124656
40
0.8683381720
40
0.8946663790
40
0.9209969325
40
0.9473295802
40
0.9736640285
40
1.0000000000
40
1.0000000000
40
1.0000000000
40
1.0000000000
10
1.5612490537
20
-0.3502334888
30
0.0000000000
10
1.5529563600
20
-0.3872500052
30
0.0000000000
10
1.5337338509
20
-0.4607183064
30
0.0000000000
10
1.4971554124
20
-0.5685704910
30
0.0000000000
10
1.4530136089
20
-0.6735520736
30
0.0000000000
10
1.4015339823
20
-0.7751250688
30
0.0000000000
10
1.3429774532
20
-0.8727783646
30
0.0000000000
10
1.2776412012
20
-0.9660183643
30
0.0000000000
10
1.2058564012
20
-1.0543748401
30
0.0000000000
10
1.1279868577
20
-1.1374021477
30
0.0000000000
10
1.0444267673
20
-1.2146820490
30
0.0000000000
10
0.9555990438
20
-1.2858253461
30
0.0000000000
10
0.8619527644
20
-1.3504741598
30
0.0000000000
10
0.7639612042
20
-1.4083034065
30
0.0000000000
10
0.6621191696
20
-1.4590225566
30
0.0000000000
10
0.5569406363
20
-1.5023769480
30
0.0000000000
10
0.4489561452
20
-1.5381490153
30
0.0000000000
10
0.3387100408
20
-1.5661593662
30
0.0000000000
10
0.2267579629
20
-1.5862675623
30
0.0000000000
10
0.1136638256
20
-1.5983728457
30
0.0000000000
10
-0.0000026895
20
-1.6024145604
30
0.0000000000
10
-0.1136691954
20
-1.5983724622
30
0.0000000000
10
-0.2267632318
20
-1.5862668061
30
0.0000000000
10
-0.3387151847
20
-1.5661582489
30
0.0000000000
10
-0.4489610907
20
-1.5381475657
30
0.0000000000
10
-0.5569453456
20
-1.5023751940
30
0.0000000000
10
-0.6621235989
20
-1.4590205371
30
0.0000000000
10
-0.7639653031
20
-1.4083011714
30
0.0000000000
10
-0.8619565198
20
-1.3504717499
30
0.0000000000
10
-0.9556024035
20
-1.2858228341
30
0.0000000000
10
-1.0444297409
20
-1.2146794750
30
0.0000000000
10
-1.1279894070
20
-1.1373996003
30
0.0000000000
10
-1.2058585480
20
-1.0543723626
30
0.0000000000
10
-1.2776429349
20
-0.9660160469
30
0.0000000000
10
-1.3429788006
20
-0.8727762612
30
0.0000000000
10
-1.4015349686
20
-0.7751232565
30
0.0000000000
10
-1.4530142567
20
-0.6735506187
30
0.0000000000
10
-1.4971558170
20
-0.5685694560
30
0.0000000000
10
-1.5337339027
20
-0.4607177122
30
0.0000000000
10
-1.5529566273
20
-0.3872498247
30
0.0000000000
10
-1.5612492804
20
-0.3502334888
30
0.0000000000
11
1.5612490537
21
-0.3502334888
31
0.0000000000
11
1.5324422363
21
-0.4603293042
31
0.0000000000
11
1.4958934695
21
-0.5680956877
31
0.0000000000
11
1.4517887249
21
-0.6729880978
31
0.0000000000
11
1.4003520495
21
-0.7744762128
31
0.0000000000
11
1.3418445444
21
-0.8720473624
31
0.0000000000
11
1.2765629280
21
-0.9652090959
31
0.0000000000
11
1.2048383911
21
-1.0534910940
31
0.0000000000
11
1.1270340905
21
-1.1364485589
31
0.0000000000
11
1.0435443188
21
-1.2136631656
31
0.0000000000
11
0.9547912243
21
-1.2847464517
31
0.0000000000
11
0.8612238897
21
-1.3493405478
31
0.0000000000
11
0.7633149175
21
-1.4071208608
31
0.0000000000
11
0.6615588447
21
-1.4577970294
31
0.0000000000
11
0.5564692129
21
-1.5011146297
31
0.0000000000
11
0.4485759653
21
-1.5368563503
31
0.0000000000
11
0.3384232318
21
-1.5648428840
31
0.0000000000
11
0.2265658490
21
-1.5849340037
31
0.0000000000
11
0.1135675710
21
-1.5970289858
31
0.0000000000
11
-0.0000027132
21
-1.6010672651
31
0.0000000000
11
-0.1135729060
21
-1.5970286055
31
0.0000000000
11
-0.2265711570
21
-1.5849332431
31
0.0000000000
11
-0.3384283573
21
-1.5648417729
31
0.0000000000
11
-0.4485809288
21
-1.5368548981
31
0.0000000000
11
-0.5564739293
21
-1.5011128771
31
0.0000000000
11
-0.6615632682
21
-1.4577950170
31
0.0000000000
11
-0.7633190465
21
-1.4071186152
31
0.0000000000
11
-0.8612276243
21
-1.3493381577
31
0.0000000000
11
-0.9547946249
21
-1.2847439172
31
0.0000000000
11
-1.0435472712
21
-1.2136606192
31
0.0000000000
11
-1.1270366771
21
-1.1364459852
31
0.0000000000
11
-1.2048405289
21
-1.0534886399
31
0.0000000000
11
-1.2765646861
21
-0.9652067608
31
0.0000000000
11
-1.3418459004
21
-0.8720452654
31
0.0000000000
11
-1.4003530454
21
-0.7744744008
31
0.0000000000
11
-1.4517894008
21
-0.6729866271
31
0.0000000000
11
-1.4958938522
21
-0.5680946658
31
0.0000000000
11
-1.5324424079
21
-0.4603287161
31
0.0000000000
11
-1.5612492804
21
-0.3502334888
31
0.0000000000
0
SPLINE
5
32E
100
AcDbEntity
8
0
100
AcDbSpline
62
9
6
CONTINUOUS
70
0
71
3
72
26
73
22
74
20
42
0.0000001000
43
0.0000001000
44
0.0000000001
12
-0.7998782513
22
0.0000039891
32
0.0000000000
13
-0.7997659699
23
0.0134018756
33
0.0000000000
40
0.0000000000
40
0.0000000000
40
0.0000000000
40
0.0000000000
40
0.0816788662
40
0.1628077147
40
0.2428510113
40
0.3212715576
40
0.3975457005
40
0.4711648504
40
0.5416363808
40
0.6084897106
40
0.6712780538
40
0.7295824491
40
0.7830129038
40
0.8312129114
40
0.8738603086
40
0.9106702857
40
0.9413965928
40
0.9658344118
40
0.9838204277
40
0.9952342192
40
1.0000000000
40
1.0000000000
40
1.0000000000
40
1.0000000000
10
-10.1995150734
20
-0.3502334883
30
0.0000000000
10
-10.2212927896
20
-0.3502333797
30
0.0000000000
10
-10.2647015730
20
-0.3502326400
30
0.0000000000
10
-10.3294519870
20
-0.3502299953
30
0.0000000000
10
-10.3933336479
20
-0.3502258263
30
0.0000000000
10
-10.4559209175
20
-0.3502201629
30
0.0000000000
10
-10.5167953419
20
-0.3502130431
30
0.0000000000
10
-10.5755503511
20
-0.3502045150
30
0.0000000000
10
-10.6317935255
20
-0.3501946368
30
0.0000000000
10
-10.6851489241
20
-0.3501834755
30
0.0000000000
10
-10.7352602467
20
-0.3501711108
30
0.0000000000
10
-10.7817926803
20
-0.3501576201
30
0.0000000000
10
-10.8244354828
20
-0.3501431295
30
0.0000000000
10
-10.8629037196
20
-0.3501276483
30
0.0000000000
10
-10.8969405061
20
-0.3501116010
30
0.0000000000
10
-10.9263183373
20
-0.3500941922
30
0.0000000000
10
-10.9508410474
20
-0.3500783007
30
0.0000000000
10
-10.9703447192
20
-0.3500566907
30
0.0000000000
10
-10.9846993573
20
-0.3500484512
30
0.0000000000
10
-10.9938085274
20
-0.3500141358
30
0.0000000000
10
-10.9981227050
20
-0.3500212901
30
0.0000000000
10
-10.9993932081
20
-0.3500000000
30
0.0000000000
11
-10.1995150734
21
-0.3502334883
31
0.0000000000
11
-10.2648482221
21
-0.3502323774
31
0.0000000000
11
-10.3297414234
21
-0.3502297177
31
0.0000000000
11
-10.3937663154
21
-0.3502255261
31
0.0000000000
11
-10.4564932046
21
-0.3502198306
31
0.0000000000
11
-10.5175032322
21
-0.3502126686
31
0.0000000000
11
-10.5763895885
21
-0.3502040874
31
0.0000000000
11
-10.6327582321
21
-0.3501941438
31
0.0000000000
11
-10.6862327554
21
-0.3501829036
31
0.0000000000
11
-10.7364557841
21
-0.3501704410
31
0.0000000000
11
-10.7830921998
21
-0.3501568386
31
0.0000000000
11
-10.8258300560
21
-0.3501421866
31
0.0000000000
11
-10.8643841907
21
-0.3501265818
31
0.0000000000
11
-10.8984969122
21
-0.3501101280
31
0.0000000000
11
-10.9279404072
21
-0.3500929344
31
0.0000000000
11
-10.9525177056
21
-0.3500751153
31
0.0000000000
11
-10.9720649769
21
-0.3500567890
31
0.0000000000
11
-10.9864515877
21
-0.3500380778
31
0.0000000000
11
-10.9955812116
21
-0.3500191061
31
0.0000000000
11
-10.9993932081
21
-0.3500000000
31
0.0000000000
0
SPLINE
5
32F
100
AcDbEntity
8
0
100
AcDbSpline
62
9
6
CONTINUOUS
70
0
71
3
72
26
73
22
74
20
42
0.0000001000
43
0.0000001000
44
0.0000000001
12
0.7997659699
22
0.0134018751
32
0.0000000000
13
0.7998782513
23
0.0000039886
33
0.0000000000
40
0.0000000000
40
0.0000000000
40
0.0000000000
40
0.0000000000
40
0.0047657808
40
0.0161795723
40
0.0341655882
40
0.0586034072
40
0.0893297143
40
0.1261396914
40
0.1687870886
40
0.2169870962
40
0.2704175509
40
0.3287219462
40
0.3915102894
40
0.4583636192
40
0.5288351496
40
0.6024542995
40
0.6787284423
40
0.7571489887
40
0.8371922853
40
0.9183211337
40
1.0000000000
40
1.0000000000
40
1.0000000000
40
1.0000000000
10
-10.9993932081
20
0.3500000000
30
0.0000000000
10
-10.9981227050
20
0.3500212901
30
0.0000000000
10
-10.9938085274
20
0.3500141358
30
0.0000000000
10
-10.9846993573
20
0.3500484512
30
0.0000000000
10
-10.9703447192
20
0.3500566907
30
0.0000000000
10
-10.9508410474
20
0.3500783007
30
0.0000000000
10
-10.9263183373
20
0.3500941922
30
0.0000000000
10
-10.8969405061
20
0.3501116010
30
0.0000000000
10
-10.8629037196
20
0.3501276483
30
0.0000000000
10
-10.8244354828
20
0.3501431295
30
0.0000000000
10
-10.7817926803
20
0.3501576201
30
0.0000000000
10
-10.7352602467
20
0.3501711108
30
0.0000000000
10
-10.6851489241
20
0.3501834755
30
0.0000000000
10
-10.6317935255
20
0.3501946368
30
0.0000000000
10
-10.5755503511
20
0.3502045149
30
0.0000000000
10
-10.5167953419
20
0.3502130431
30
0.0000000000
10
-10.4559209175
20
0.3502201629
30
0.0000000000
10
-10.3933336479
20
0.3502258263
30
0.0000000000
10
-10.3294519870
20
0.3502299953
30
0.0000000000
10
-10.2647015730
20
0.3502326400
30
0.0000000000
10
-10.2212927896
20
0.3502333797
30
0.0000000000
10
-10.1995150734
20
0.3502334883
30
0.0000000000
11
-10.9993932081
21
0.3500000000
31
0.0000000000
11
-10.9955812116
21
0.3500191061
31
0.0000000000
11
-10.9864515877
21
0.3500380778
31
0.0000000000
11
-10.9720649769
21
0.3500567890
31
0.0000000000
11
-10.9525177056
21
0.3500751153
31
0.0000000000
11
-10.9279404072
21
0.3500929344
31
0.0000000000
11
-10.8984969122
21
0.3501101280
31
0.0000000000
11
-10.8643841907
21
0.3501265818
31
0.0000000000
11
-10.8258300560
21
0.3501421865
31
0.0000000000
11
-10.7830921998
21
0.3501568386
31
0.0000000000
11
-10.7364557841
21
0.3501704410
31
0.0000000000
11
-10.6862327554
21
0.3501829036
31
0.0000000000
11
-10.6327582321
21
0.3501941438
31
0.0000000000
11
-10.5763895885
21
0.3502040874
31
0.0000000000
11
-10.5175032322
21
0.3502126686
31
0.0000000000
11
-10.4564932046
21
0.3502198306
31
0.0000000000
11
-10.3937663154
21
0.3502255261
31
0.0000000000
11
-10.3297414234
21
0.3502297176
31
0.0000000000
11
-10.2648482221
21
0.3502323774
31
0.0000000000
11
-10.1995150734
21
0.3502334883
31
0.0000000000
0
SPLINE
5
330
100
AcDbEntity
8
0
100
AcDbSpline
62
9
6
CONTINUOUS
70
0
71
3
72
45
73
41
74
39
42
0.0000001000
43
0.0000001000
44
0.0000000001
12
0.9446380137
22
4.2166284796
32
0.0000000000
13
0.9446379949
23
-4.2166284838
33
0.0000000000
40
0.0000000000
40
0.0000000000
40
0.0000000000
40
0.0000000000
40
0.0263361000
40
0.0526706590
40
0.0790034287
40
0.1053340861
40
0.1316623926
40
0.1579881975
40
0.1843112788
40
0.2106316435
40
0.2369491466
40
0.2632639103
40
0.2895759243
40
0.3158853819
40
0.3421924383
40
0.3684973294
40
0.3948003659
40
0.4211018217
40
0.4474021132
40
0.4737015618
40
0.5000006213
40
0.5262996627
40
0.5525991146
40
0.5788993788
40
0.6052008177
40
0.6315038218
40
0.6578086731
40
0.6841156926
40
0.7104250885
40
0.7367370580
40
0.7630517424
40
0.7893691876
40
0.8156894611
40
0.8420124656
40
0.8683381720
40
0.8946663790
40
0.9209969325
40
0.9473295802
40
0.9736640285
40
1.0000000000
40
1.0000000000
40
1.0000000000
40
1.0000000000
10
-1.5612490537
20
0.3502334888
30
0.0000000000
10
-1.5529563600
20
0.3872500052
30
0.0000000000
10
-1.5337338509
20
0.4607183064
30
0.0000000000
10
-1.4971554124
20
0.5685704910
30
0.0000000000
10
-1.4530136089
20
0.6735520736
30
0.0000000000
10
-1.4015339823
20
0.7751250688
30
0.0000000000
10
-1.3429774532
20
0.8727783646
30
0.0000000000
10
-1.2776412012
20
0.9660183643
30
0.0000000000
10
-1.2058564012
20
1.0543748401
30
0.0000000000
10
-1.1279868577
20
1.1374021477
30
0.0000000000
10
-1.0444267673
20
1.2146820490
30
0.0000000000
10
-0.9555990438
20
1.2858253461
30
0.0000000000
10
-0.8619527644
20
1.3504741598
30
0.0000000000
10
-0.7639612042
20
1.4083034065
30
0.0000000000
10
-0.6621191696
20
1.4590225566
30
0.0000000000
10
-0.5569406363
20
1.5023769480
30
0.0000000000
10
-0.4489561452
20
1.5381490153
30
0.0000000000
10
-0.3387100408
20
1.5661593662
30
0.0000000000
10
-0.2267579629
20
1.5862675623
30
0.0000000000
10
-0.1136638256
20
1.5983728457
30
0.0000000000
10
0.0000026895
20
1.6024145604
30
0.0000000000
10
0.1136691954
20
1.5983724622
30
0.0000000000
10
0.2267632318
20
1.5862668061
30
0.0000000000
10
0.3387151847
20
1.5661582489
30
0.0000000000
10
0.4489610907
20
1.5381475657
30
0.0000000000
10
0.5569453456
20
1.5023751940
30
0.0000000000
10
0.6621235989
20
1.4590205371
30
0.0000000000
10
0.7639653031
20
1.4083011714
30
0.0000000000
10
0.8619565198
20
1.3504717499
30
0.0000000000
10
0.9556024035
20
1.2858228341
30
0.0000000000
10
1.0444297409
20
1.2146794750
30
0.0000000000
10
1.1279894070
20
1.1373996003
30
0.0000000000
10
1.2058585480
20
1.0543723626
30
0.0000000000
10
1.2776429349
20
0.9660160469
30
0.0000000000
10
1.3429788006
20
0.8727762612
30
0.0000000000
10
1.4015349686
20
0.7751232565
30
0.0000000000
10
1.4530142567
20
0.6735506187
30
0.0000000000
10
1.4971558170
20
0.5685694560
30
0.0000000000
10
1.5337339027
20
0.4607177122
30
0.0000000000
10
1.5529566273
20
0.3872498247
30
0.0000000000
10
1.5612492804
20
0.3502334888
30
0.0000000000
11
-1.5612490537
21
0.3502334888
31
0.0000000000
11
-1.5324422363
21
0.4603293042
31
0.0000000000
11
-1.4958934695
21
0.5680956877
31
0.0000000000
11
-1.4517887249
21
0.6729880978
31
0.0000000000
11
-1.4003520495
21
0.7744762128
31
0.0000000000
11
-1.3418445444
21
0.8720473624
31
0.0000000000
11
-1.2765629280
21
0.9652090959
31
0.0000000000
11
-1.2048383911
21
1.0534910940
31
0.0000000000
11
-1.1270340905
21
1.1364485589
31
0.0000000000
11
-1.0435443188
21
1.2136631656
31
0.0000000000
11
-0.9547912243
21
1.2847464517
31
0.0000000000
11
-0.8612238897
21
1.3493405478
31
0.0000000000
11
-0.7633149175
21
1.4071208608
31
0.0000000000
11
-0.6615588447
21
1.4577970294
31
0.0000000000
11
-0.5564692129
21
1.5011146297
31
0.0000000000
11
-0.4485759653
21
1.5368563503
31
0.0000000000
11
-0.3384232318
21
1.5648428839
31
0.0000000000
11
-0.2265658490
21
1.5849340037
31
0.0000000000
11
-0.1135675710
21
1.5970289858
31
0.0000000000
11
0.0000027132
21
1.6010672651
31
0.0000000000
11
0.1135729060
21
1.5970286055
31
0.0000000000
11
0.2265711570
21
1.5849332431
31
0.0000000000
11
0.3384283573
21
1.5648417729
31
0.0000000000
11
0.4485809288
21
1.5368548981
31
0.0000000000
11
0.5564739293
21
1.5011128771
31
0.0000000000
11
0.6615632682
21
1.4577950170
31
0.0000000000
11
0.7633190465
21
1.4071186152
31
0.0000000000
11
0.8612276243
21
1.3493381577
31
0.0000000000
11
0.9547946249
21
1.2847439172
31
0.0000000000
11
1.0435472712
21
1.2136606192
31
0.0000000000
11
1.1270366771
21
1.1364459852
31
0.0000000000
11
1.2048405289
21
1.0534886399
31
0.0000000000
11
1.2765646861
21
0.9652067608
31
0.0000000000
11
1.3418459004
21
0.8720452654
31
0.0000000000
11
1.4003530454
21
0.7744744008
31
0.0000000000
11
1.4517894008
21
0.6729866271
31
0.0000000000
11
1.4958938522
21
0.5680946658
31
0.0000000000
11
1.5324424079
21
0.4603287161
31
0.0000000000
11
1.5612492804
21
0.3502334888
31
0.0000000000
0
SPLINE
5
331
100
AcDbEntity
8
0
100
AcDbSpline
62
9
6
CONTINUOUS
70
0
71
3
72
26
73
22
74
20
42
0.0000001000
43
0.0000001000
44
0.0000000001
12
0.7998782513
22
-0.0000039886
32
0.0000000000
13
0.7997659699
23
-0.0134018752
33
0.0000000000
40
0.0000000000
40
0.0000000000
40
0.0000000000
40
0.0000000000
40
0.0816788662
40
0.1628077147
40
0.2428510113
40
0.3212715576
40
0.3975457005
40
0.4711648504
40
0.5416363808
40
0.6084897106
40
0.6712780538
40
0.7295824491
40
0.7830129038
40
0.8312129114
40
0.8738603086
40
0.9106702857
40
0.9413965928
40
0.9658344118
40
0.9838204277
40
0.9952342192
40
1.0000000000
40
1.0000000000
40
1.0000000000
40
1.0000000000
10
10.1995150734
20
0.3502334883
30
0.0000000000
10
10.2212927896
20
0.3502333797
30
0.0000000000
10
10.2647015730
20
0.3502326400
30
0.0000000000
10
10.3294519870
20
0.3502299953
30
0.0000000000
10
10.3933336479
20
0.3502258263
30
0.0000000000
10
10.4559209175
20
0.3502201629
30
0.0000000000
10
10.5167953419
20
0.3502130431
30
0.0000000000
10
10.5755503511
20
0.3502045149
30
0.0000000000
10
10.6317935255
20
0.3501946368
30
0.0000000000
10
10.6851489241
20
0.3501834755
30
0.0000000000
10
10.7352602467
20
0.3501711108
30
0.0000000000
10
10.7817926803
20
0.3501576201
30
0.0000000000
10
10.8244354828
20
0.3501431295
30
0.0000000000
10
10.8629037196
20
0.3501276483
30
0.0000000000
10
10.8969405061
20
0.3501116010
30
0.0000000000
10
10.9263183373
20
0.3500941922
30
0.0000000000
10
10.9508410474
20
0.3500783007
30
0.0000000000
10
10.9703447192
20
0.3500566907
30
0.0000000000
10
10.9846993573
20
0.3500484512
30
0.0000000000
10
10.9938085274
20
0.3500141358
30
0.0000000000
10
10.9981227050
20
0.3500212901
30
0.0000000000
10
10.9993932081
20
0.3500000000
30
0.0000000000
11
10.1995150734
21
0.3502334883
31
0.0000000000
11
10.2648482220
21
0.3502323774
31
0.0000000000
11
10.3297414234
21
0.3502297176
31
0.0000000000
11
10.3937663154
21
0.3502255261
31
0.0000000000
11
10.4564932046
21
0.3502198306
31
0.0000000000
11
10.5175032322
21
0.3502126686
31
0.0000000000
11
10.5763895885
21
0.3502040874
31
0.0000000000
11
10.6327582321
21
0.3501941438
31
0.0000000000
11
10.6862327554
21
0.3501829036
31
0.0000000000
11
10.7364557841
21
0.3501704410
31
0.0000000000
11
10.7830921998
21
0.3501568386
31
0.0000000000
11
10.8258300560
21
0.3501421865
31
0.0000000000
11
10.8643841907
21
0.3501265818
31
0.0000000000
11
10.8984969122
21
0.3501101280
31
0.0000000000
11
10.9279404072
21
0.3500929344
31
0.0000000000
11
10.9525177056
21
0.3500751153
31
0.0000000000
11
10.9720649769
21
0.3500567890
31
0.0000000000
11
10.9864515877
21
0.3500380778
31
0.0000000000
11
10.9955812116
21
0.3500191061
31
0.0000000000
11
10.9993932081
21
0.3500000000
31
0.0000000000
0
SPLINE
5
332
100
AcDbEntity
8
0
100
AcDbSpline
62
9
6
CONTINUOUS
70
0
71
3
72
25
73
21
74
19
42
0.0000001000
43
0.0000001000
44
0.0000000001
12
-0.0003825380
22
1.2559255494
32
0.0000000000
13
-1.2559255494
23
0.0003825380
33
0.0000000000
40
0.0000000000
40
0.0000000000
40
0.0000000000
40
0.0000000000
40
0.0555509011
40
0.1111032543
40
0.1666569928
40
0.2222120080
40
0.2777681525
40
0.3333252446
40
0.3888830737
40
0.4444414071
40
0.4999999964
40
0.5555585859
40
0.6111169195
40
0.6666747491
40
0.7222318418
40
0.7777879871
40
0.8333430033
40
0.8888967430
40
0.9444490974
40
1.0000000000
40
1.0000000000
40
1.0000000000
40
1.0000000000
10
11.0234262834
20
20.9735481273
30
0.0000000000
10
11.0234192000
20
20.9968040593
30
0.0000000000
10
11.0213739711
20
21.0433414411
30
0.0000000000
10
11.0122365985
20
21.1125951032
30
0.0000000000
10
10.9970991691
20
21.1807964124
30
0.0000000000
10
10.9760768511
20
21.2474195568
30
0.0000000000
10
10.9493295790
20
21.3119595624
30
0.0000000000
10
10.9170608396
20
21.3739249379
30
0.0000000000
10
10.8795161232
20
21.4328444134
30
0.0000000000
10
10.8369810561
20
21.4882697214
30
0.0000000000
10
10.7897792278
20
21.5397792215
30
0.0000000000
10
10.7382697281
20
21.5869810505
30
0.0000000000
10
10.6828444204
20
21.6295161184
30
0.0000000000
10
10.6239249447
20
21.6670608357
30
0.0000000000
10
10.5619595688
20
21.6993295760
30
0.0000000000
10
10.4974195625
20
21.7260768491
30
0.0000000000
10
10.4307964171
20
21.7470991679
30
0.0000000000
10
10.3625951065
20
21.7622365980
30
0.0000000000
10
10.2933414428
20
21.7713739710
30
0.0000000000
10
10.2468040599
20
21.7734192000
30
0.0000000000
10
10.2235481273
20
21.7734262834
30
0.0000000000
11
11.0234262834
21
20.9735481273
31
0.0000000000
11
11.0203624553
21
21.0432486206
31
0.0000000000
11
11.0112367393
21
21.1124188569
31
0.0000000000
11
10.9961185606
21
21.1805326128
31
0.0000000000
11
10.9751229331
21
21.2470717024
31
0.0000000000
11
10.9484095841
21
21.3115299193
31
0.0000000000
11
10.9161817397
21
21.3734168876
31
0.0000000000
11
10.8786845780
21
21.4322617928
31
0.0000000000
11
10.8362033645
21
21.4876169630
31
0.0000000000
11
10.7890612815
21
21.5390612751
31
0.0000000000
11
10.7376169697
21
21.5862033588
31
0.0000000000
11
10.6822617997
21
21.6286845731
31
0.0000000000
11
10.6234168945
21
21.6661817357
31
0.0000000000
11
10.5615299257
21
21.6984095811
31
0.0000000000
11
10.4970717081
21
21.7251229310
31
0.0000000000
11
10.4305326175
21
21.7461185594
31
0.0000000000
11
10.3624188603
21
21.7612367387
31
0.0000000000
11
10.2932486224
21
21.7703624552
31
0.0000000000
11
10.2235481273
21
21.7734262834
31
0.0000000000
0
SPLINE
5
333
100
AcDbEntity
8
0
100
AcDbSpline
62
9
6
CONTINUOUS
70
0
71
3
72
28
73
24
74
22
42
0.0000001000
43
0.0000001000
44
0.0000000001
12
-0.5910541300
22
-1.2669803033
32
0.0000000000
13
-0.0007751169
23
-1.3980641876
33
0.0000000000
40
0.0000000000
40
0.0000000000
40
0.0000000000
40
0.0000000000
40
0.0040531425
40
0.0134239590
40
0.0280854129
40
0.0479680948
40
0.0729740315
40
0.1029789728
40
0.1378331548
40
0.1773625083
40
0.2213694381
40
0.2696340694
40
0.3219149864
40
0.3779508653
40
0.4374613796
40
0.5001491055
40
0.5657005217
40
0.6337878888
40
0.7040705197
40
0.7761972566
40
0.8498074732
40
0.9245325642
40
1.0000000000
40
1.0000000000
40
1.0000000000
40
1.0000000000
10
10.2235481273
20
21.7734262834
30
0.0000000000
10
10.2227495851
20
21.7717145328
30
0.0000000000
10
10.2227312025
20
21.7652219505
30
0.0000000000
10
10.2214708732
20
21.7523711872
30
0.0000000000
10
10.2209363489
20
21.7318078568
30
0.0000000000
10
10.2200205750
20
21.7041153774
30
0.0000000000
10
10.2192658329
20
21.6692042982
30
0.0000000000
10
10.2184709251
20
21.6273387799
30
0.0000000000
10
10.2177184689
20
21.5786952189
30
0.0000000000
10
10.2169871773
20
21.5235281962
30
0.0000000000
10
10.2162900922
20
21.4621098560
30
0.0000000000
10
10.2156283821
20
21.3947485912
30
0.0000000000
10
10.2150065160
20
21.3217808973
30
0.0000000000
10
10.2144275449
20
21.2435719026
30
0.0000000000
10
10.2138945865
20
21.1605126730
30
0.0000000000
10
10.2134103876
20
21.0730186326
30
0.0000000000
10
10.2129774521
20
20.9815272799
30
0.0000000000
10
10.2125980034
20
20.8864962727
30
0.0000000000
10
10.2122739770
20
20.7884008032
30
0.0000000000
10
10.2120070375
20
20.6877313867
30
0.0000000000
10
10.2117985214
20
20.5849915463
30
0.0000000000
10
10.2116495247
20
20.4806947640
30
0.0000000000
10
10.2115905377
20
20.4107018425
30
0.0000000000
10
10.2115710390
20
20.3755324027
30
0.0000000000
11
10.2235481273
21
21.7734262834
31
0.0000000000
11
10.2226852433
21
21.7678258131
31
0.0000000000
11
10.2218277845
21
21.7547528985
31
0.0000000000
11
10.2209799481
21
21.7342727835
31
0.0000000000
11
10.2201460431
21
21.7064880250
31
0.0000000000
11
10.2193302139
21
21.6715376354
31
0.0000000000
11
10.2185365470
21
21.6295963038
31
0.0000000000
11
10.2177690113
21
21.5808739579
31
0.0000000000
11
10.2170314458
21
21.5256142980
31
0.0000000000
11
10.2163275393
21
21.4640938028
31
0.0000000000
11
10.2156608102
21
21.3966200338
31
0.0000000000
11
10.2150345941
21
21.3235306274
31
0.0000000000
11
10.2144520212
21
21.2451910261
31
0.0000000000
11
10.2139160059
21
21.1619932211
31
0.0000000000
11
10.2134292270
21
21.0743530948
31
0.0000000000
11
10.2129941188
21
20.9827090263
31
0.0000000000
11
10.2126128569
21
20.8875192655
31
0.0000000000
11
10.2122873473
21
20.7892601604
31
0.0000000000
11
10.2120192192
21
20.6884226935
31
0.0000000000
11
10.2118098062
21
20.5855110831
31
0.0000000000
11
10.2116601688
21
20.4810407006
31
0.0000000000
11
10.2115710390
21
20.3755324027
31
0.0000000000
0
SPLINE
5
334
100
AcDbEntity
8
0
100
AcDbSpline
62
9
6
CONTINUOUS
70
0
71
3
72
28
73
24
74
22
42
0.0000001000
43
0.0000001000
44
0.0000000001
12
-0.4614703308
22
-0.4616048229
32
0.0000000000
13
-0.0007756460
23
-0.6527122468
33
0.0000000000
40
0.0000000000
40
0.0000000000
40
0.0000000000
40
0.0000000000
40
0.0042155890
40
0.0136534542
40
0.0283529467
40
0.0482587206
40
0.0732780271
40
0.1032891817
40
0.1381438870
40
0.1776690194
40
0.2216676500
40
0.2699204100
40
0.3221862924
40
0.3782043212
40
0.4376944720
40
0.5003595809
40
0.5658863869
40
0.6339474026
40
0.7042021863
40
0.7762998203
40
0.8498799210
40
0.9245741143
40
1.0000000000
40
1.0000000000
40
1.0000000000
40
1.0000000000
10
11.0234262834
20
20.9735481273
30
0.0000000000
10
11.0227778270
20
20.9728994819
30
0.0000000000
10
11.0224567558
20
20.9696526489
30
0.0000000000
10
11.0214412144
20
20.9637987078
30
0.0000000000
10
11.0207752051
20
20.9541086304
30
0.0000000000
10
11.0199144496
20
20.9412193624
30
0.0000000000
10
11.0191386879
20
20.9249123880
30
0.0000000000
10
11.0183510811
20
20.9053791938
30
0.0000000000
10
11.0175961144
20
20.8826766418
30
0.0000000000
10
11.0168655958
20
20.8569320355
30
0.0000000000
10
11.0161682379
20
20.8282694575
30
0.0000000000
10
11.0155065888
20
20.7968336996
30
0.0000000000
10
11.0148846856
20
20.7627814913
30
0.0000000000
10
11.0143057101
20
20.7262833058
30
0.0000000000
10
11.0137727405
20
20.6875216188
30
0.0000000000
10
11.0132885347
20
20.6466903119
30
0.0000000000
10
11.0128555941
20
20.6039935602
30
0.0000000000
10
11.0124761409
20
20.5596449467
30
0.0000000000
10
11.0121521157
20
20.5138662370
30
0.0000000000
10
11.0118851709
20
20.4668863480
30
0.0000000000
10
11.0116766667
20
20.4189402683
30
0.0000000000
10
11.0115276666
20
20.3702698339
30
0.0000000000
10
11.0114686964
20
20.3376081161
30
0.0000000000
10
11.0114491951
20
20.3211976496
30
0.0000000000
11
11.0234262834
21
20.9735481273
31
0.0000000000
11
11.0225635492
21
20.9709353090
31
0.0000000000
11
11.0217060486
21
20.9648350684
31
0.0000000000
11
11.0208582134
21
20.9552780563
31
0.0000000000
11
11.0200242905
21
20.9423120945
31
0.0000000000
11
11.0192084502
21
20.9260020670
31
0.0000000000
11
11.0184147699
21
20.9064294905
31
0.0000000000
11
11.0176472218
21
20.8836923330
31
0.0000000000
11
11.0169096441
21
20.8579043226
31
0.0000000000
11
11.0162057261
21
20.8291944854
31
0.0000000000
11
11.0155389863
21
20.7977063538
31
0.0000000000
11
11.0149127603
21
20.7635974964
31
0.0000000000
11
11.0143301788
21
20.7270384587
31
0.0000000000
11
11.0137941560
21
20.6882121811
31
0.0000000000
11
11.0133073711
21
20.6473127650
31
0.0000000000
11
11.0128722586
21
20.6045447993
31
0.0000000000
11
11.0124909937
21
20.5601221456
31
0.0000000000
11
11.0121654838
21
20.5142671108
31
0.0000000000
11
11.0118973547
21
20.4672088328
31
0.0000000000
11
11.0116879474
21
20.4191826225
31
0.0000000000
11
11.0115383093
21
20.3704290031
31
0.0000000000
11
11.0114491951
21
20.3211976496
31
0.0000000000
0
SPLINE
5
335
100
AcDbEntity
8
0
100
AcDbSpline
62
9
6
CONTINUOUS
70
0
71
3
72
25
73
21
74
19
42
0.0000001000
43
0.0000001000
44
0.0000000001
12
-0.2000154144
22
0.7803079050
32
0.0000000000
13
-0.8055344094
23
0.0009527726
33
0.0000000000
40
0.0000000000
40
0.0000000000
40
0.0000000000
40
0.0000000000
40
0.0077912118
40
0.0215936197
40
0.0421903447
40
0.0696660356
40
0.1039114029
40
0.1447195327
40
0.1918146647
40
0.2448643258
40
0.3034862371
40
0.3672533602
40
0.4356982739
40
0.5083173545
40
0.5845749592
40
0.6639076977
40
0.7457288209
40
0.8294327281
40
0.9143995806
40
1.0000000000
40
1.0000000000
40
1.0000000000
40
1.0000000000
10
11.0114491951
20
20.3211976496
30
0.0000000000
10
11.0109297409
20
20.3232241643
30
0.0000000000
10
11.0059047676
20
20.3272604085
30
0.0000000000
10
10.9956102487
20
20.3313160910
30
0.0000000000
10
10.9794414411
20
20.3357857000
30
0.0000000000
10
10.9578032740
20
20.3400666356
30
0.0000000000
10
10.9305783358
20
20.3443234057
30
0.0000000000
10
10.8980396259
20
20.3484141348
30
0.0000000000
10
10.8603908297
20
20.3523306175
30
0.0000000000
10
10.8179197474
20
20.3560265413
30
0.0000000000
10
10.7709373471
20
20.3594743668
30
0.0000000000
10
10.7197935232
20
20.3626449281
30
0.0000000000
10
10.6648680555
20
20.3655134125
30
0.0000000000
10
10.6065695157
20
20.3680572831
30
0.0000000000
10
10.5453315619
20
20.3702568783
30
0.0000000000
10
10.4816098377
20
20.3720952768
30
0.0000000000
10
10.4158785067
20
20.3735584138
30
0.0000000000
10
10.3486267097
20
20.3746351306
30
0.0000000000
10
10.2803549589
20
20.3753172368
30
0.0000000000
10
10.2345557334
20
20.3755052168
30
0.0000000000
10
10.2115710390
20
20.3755324027
30
0.0000000000
11
11.0114491951
21
20.3211976496
31
0.0000000000
11
11.0072718583
21
20.3258815805
31
0.0000000000
11
10.9971721925
21
20.3305306493
31
0.0000000000
11
10.9812253686
21
20.3351102534
31
0.0000000000
11
10.9595500774
21
20.3395863073
31
0.0000000000
11
10.9323076461
21
20.3439254960
31
0.0000000000
11
10.8997008376
21
20.3480955235
31
0.0000000000
11
10.8619723414
21
20.3520653526
31
0.0000000000
11
10.8194029674
21
20.3558054361
31
0.0000000000
11
10.7723095555
21
20.3592879370
31
0.0000000000
11
10.7210426177
21
20.3624869353
31
0.0000000000
11
10.6659837292
21
20.3653786213
31
0.0000000000
11
10.6075426882
21
20.3679414723
31
0.0000000000
11
10.5461544662
21
20.3701564132
31
0.0000000000
11
10.4822759702
21
20.3720069586
31
0.0000000000
11
10.4163826418
21
20.3734793348
31
0.0000000000
11
10.3489649193
21
20.3745625832
31
0.0000000000
11
10.2805245867
21
20.3752486413
31
0.0000000000
11
10.2115710390
21
20.3755324027
31
0.0000000000
0
SPLINE
5
336
100
AcDbEntity
8
0
100
AcDbSpline
62
9
6
CONTINUOUS
70
0
71
3
72
25
73
21
74
19
42
0.0000001000
43
0.0000001000
44
0.0000000001
12
-0.2000156316
22
-0.7803078485
32
0.0000000000
13
-0.8055344086
23
-0.0009527724
33
0.0000000000
40
0.0000000000
40
0.0000000000
40
0.0000000000
40
0.0000000000
40
0.0077912128
40
0.0215936220
40
0.0421903481
40
0.0696660399
40
0.1039114080
40
0.1447195384
40
0.1918146708
40
0.2448643321
40
0.3034862433
40
0.3672533662
40
0.4356982796
40
0.5083173596
40
0.5845749637
40
0.6639077015
40
0.7457288238
40
0.8294327301
40
0.9143995816
40
1.0000000000
40
1.0000000000
40
1.0000000000
40
1.0000000000
10
11.0114491951
20
-20.3211976496
30
0.0000000000
10
11.0109297403
20
-20.3232241644
30
0.0000000000
10
11.0059047661
20
-20.3272604081
30
0.0000000000
10
10.9956102463
20
-20.3313160909
30
0.0000000000
10
10.9794414378
20
-20.3357856997
30
0.0000000000
10
10.9578032699
20
-20.3400666352
30
0.0000000000
10
10.9305783310
20
-20.3443234052
30
0.0000000000
10
10.8980396207
20
-20.3484141342
30
0.0000000000
10
10.8603908242
20
-20.3523306168
30
0.0000000000
10
10.8179197418
20
-20.3560265405
30
0.0000000000
10
10.7709373416
20
-20.3594743659
30
0.0000000000
10
10.7197935179
20
-20.3626449271
30
0.0000000000
10
10.6648680505
20
-20.3655134114
30
0.0000000000
10
10.6065695112
20
-20.3680572819
30
0.0000000000
10
10.5453315580
20
-20.3702568770
30
0.0000000000
10
10.4816098344
20
-20.3720952755
30
0.0000000000
10
10.4158785042
20
-20.3735584125
30
0.0000000000
10
10.3486267080
20
-20.3746351292
30
0.0000000000
10
10.2803549580
20
-20.3753172353
30
0.0000000000
10
10.2345557331
20
-20.3755052153
30
0.0000000000
10
10.2115710390
20
-20.3755324012
30
0.0000000000
11
11.0114491951
21
-20.3211976496
31
0.0000000000
11
11.0072718570
21
-20.3258815804
31
0.0000000000
11
10.9971721901
21
-20.3305306491
31
0.0000000000
11
10.9812253652
21
-20.3351102531
31
0.0000000000
11
10.9595500732
21
-20.3395863069
31
0.0000000000
11
10.9323076413
21
-20.3439254956
31
0.0000000000
11
10.8997008323
21
-20.3480955229
31
0.0000000000
11
10.8619723359
21
-20.3520653519
31
0.0000000000
11
10.8194029618
21
-20.3558054353
31
0.0000000000
11
10.7723095500
21
-20.3592879361
31
0.0000000000
11
10.7210426124
21
-20.3624869344
31
0.0000000000
11
10.6659837242
21
-20.3653786202
31
0.0000000000
11
10.6075426837
21
-20.3679414711
31
0.0000000000
11
10.5461544623
21
-20.3701564120
31
0.0000000000
11
10.4822759669
21
-20.3720069572
31
0.0000000000
11
10.4163826393
21
-20.3734793334
31
0.0000000000
11
10.3489649176
21
-20.3745625818
31
0.0000000000
11
10.2805245858
21
-20.3752486398
31
0.0000000000
11
10.2115710390
21
-20.3755324012
31
0.0000000000
0
SPLINE
5
337
100
AcDbEntity
8
0
100
AcDbSpline
62
9
6
CONTINUOUS
70
0
71
3
72
28
73
24
74
22
42
0.0000001000
43
0.0000001000
44
0.0000000001
12
0.0007751838
22
-1.3980641882
32
0.0000000000
13
0.5910385239
23
-1.2669875842
33
0.0000000000
40
0.0000000000
40
0.0000000000
40
0.0000000000
40
0.0000000000
40
0.0754674171
40
0.1501925090
40
0.2238027285
40
0.2959294630
40
0.3662120962
40
0.4342994649
40
0.4998508810
40
0.5625386064
40
0.6220491218
40
0.6780850016
40
0.7303659194
40
0.7786305512
40
0.8226374816
40
0.8621668367
40
0.8970210200
40
0.9270259617
40
0.9520318990
40
0.9719145828
40
0.9865760375
40
0.9959468552
40
1.0000000000
40
1.0000000000
40
1.0000000000
40
1.0000000000
10
10.2115710390
20
-20.3755324027
30
0.0000000000
10
10.2115905393
20
-20.4107018337
30
0.0000000000
10
10.2116495227
20
-20.4806947470
30
0.0000000000
10
10.2117985216
20
-20.5849915224
30
0.0000000000
10
10.2120070359
20
-20.6877313635
30
0.0000000000
10
10.2122739758
20
-20.7884007814
30
0.0000000000
10
10.2125980015
20
-20.8864962517
30
0.0000000000
10
10.2129774499
20
-20.9815272606
30
0.0000000000
10
10.2134103850
20
-21.0730186139
30
0.0000000000
10
10.2138945835
20
-21.1605126545
30
0.0000000000
10
10.2144275414
20
-21.2435718848
30
0.0000000000
10
10.2150065122
20
-21.3217808809
30
0.0000000000
10
10.2156283779
20
-21.3947485759
30
0.0000000000
10
10.2162900878
20
-21.4621098416
30
0.0000000000
10
10.2169871730
20
-21.5235281831
30
0.0000000000
10
10.2177184644
20
-21.5786952075
30
0.0000000000
10
10.2184709212
20
-21.6273387700
30
0.0000000000
10
10.2192658273
20
-21.6692042898
30
0.0000000000
10
10.2200205742
20
-21.7041153688
30
0.0000000000
10
10.2209363364
20
-21.7318078537
30
0.0000000000
10
10.2214708872
20
-21.7523711764
30
0.0000000000
10
10.2227311695
20
-21.7652219600
30
0.0000000000
10
10.2227496057
20
-21.7717145220
30
0.0000000000
10
10.2235481273
20
-21.7734262834
30
0.0000000000
11
10.2115710390
21
-20.3755324027
31
0.0000000000
11
10.2116601680
21
-20.4810406744
31
0.0000000000
11
10.2118098057
21
-20.5855110583
31
0.0000000000
11
10.2120192180
21
-20.6884226729
31
0.0000000000
11
10.2122873459
21
-20.7892601364
31
0.0000000000
11
10.2126128551
21
-20.8875192448
31
0.0000000000
11
10.2129941166
21
-20.9827090079
31
0.0000000000
11
10.2134292244
21
-21.0743530763
31
0.0000000000
11
10.2139160028
21
-21.1619932019
31
0.0000000000
11
10.2144520177
21
-21.2451910083
31
0.0000000000
11
10.2150345902
21
-21.3235306112
31
0.0000000000
11
10.2156608060
21
-21.3966200186
31
0.0000000000
11
10.2163275349
21
-21.4640937884
31
0.0000000000
11
10.2170314414
21
-21.5256142844
31
0.0000000000
11
10.2177690069
21
-21.5808739466
31
0.0000000000
11
10.2185365427
21
-21.6295962943
31
0.0000000000
11
10.2193302096
21
-21.6715376266
31
0.0000000000
11
10.2201460390
21
-21.7064880168
31
0.0000000000
11
10.2209799438
21
-21.7342727781
31
0.0000000000
11
10.2218277813
21
-21.7547528941
31
0.0000000000
11
10.2226852385
21
-21.7678258106
31
0.0000000000
11
10.2235481273
21
-21.7734262834
31
0.0000000000
0
SPLINE
5
338
100
AcDbEntity
8
0
100
AcDbSpline
62
9
6
CONTINUOUS
70
0
71
3
72
28
73
24
74
22
42
0.0000001000
43
0.0000001000
44
0.0000000001
12
0.0007756531
22
-0.6527122453
32
0.0000000000
13
0.4614786015
23
-0.4615965524
33
0.0000000000
40
0.0000000000
40
0.0000000000
40
0.0000000000
40
0.0000000000
40
0.0754223315
40
0.1501165116
40
0.2236966219
40
0.2957942783
40
0.3660491092
40
0.4341101913
40
0.4996370827
40
0.5623022969
40
0.6217925769
40
0.6778107753
40
0.7300768684
40
0.7783298738
40
0.8223287732
40
0.8618541795
40
0.8967091598
40
0.9267205884
40
0.9517401679
40
0.9716462114
40
0.9863459729
40
0.9957840884
40
1.0000000000
40
1.0000000000
40
1.0000000000
40
1.0000000000
10
11.0114491951
20
-20.3211976496
30
0.0000000000
10
11.0114686956
20
-20.3376073427
30
0.0000000000
10
11.0115276631
20
-20.3702682843
30
0.0000000000
10
11.0116766582
20
-20.4189379445
30
0.0000000000
10
11.0118851593
20
-20.4668840283
30
0.0000000000
10
11.0121521011
20
-20.5138639344
30
0.0000000000
10
11.0124761232
20
-20.5596426736
30
0.0000000000
10
11.0128555734
20
-20.6039913303
30
0.0000000000
10
11.0132885109
20
-20.6466881380
30
0.0000000000
10
11.0137727136
20
-20.6875195144
30
0.0000000000
10
11.0143056803
20
-20.7262812893
30
0.0000000000
10
11.0148846532
20
-20.7627795856
30
0.0000000000
10
11.0155065541
20
-20.7968319300
30
0.0000000000
10
11.0161682014
20
-20.8282678456
30
0.0000000000
10
11.0168655579
20
-20.8569305951
30
0.0000000000
10
11.0175960757
20
-20.8826753793
30
0.0000000000
10
11.0183510413
20
-20.9053781106
30
0.0000000000
10
11.0191386489
20
-20.9249114830
30
0.0000000000
10
11.0199144070
20
-20.9412186376
30
0.0000000000
10
11.0207751724
20
-20.9541080761
30
0.0000000000
10
11.0214411602
20
-20.9637983413
30
0.0000000000
10
11.0224567548
20
-20.9696524316
30
0.0000000000
10
11.0227777657
20
-20.9728994439
30
0.0000000000
10
11.0234262834
20
-20.9735481273
30
0.0000000000
11
11.0114491951
21
-20.3211976496
31
0.0000000000
11
11.0115383036
21
-20.3704266831
31
0.0000000000
11
11.0116879388
21
-20.4191802938
31
0.0000000000
11
11.0118973431
21
-20.4672065103
31
0.0000000000
11
11.0121654691
21
-20.5142648028
31
0.0000000000
11
11.0124909759
21
-20.5601198683
31
0.0000000000
11
11.0128722377
21
-20.6045425653
31
0.0000000000
11
11.0133073471
21
-20.6473105867
31
0.0000000000
11
11.0137941290
21
-20.6882100715
31
0.0000000000
11
11.0143301487
21
-20.7270364333
31
0.0000000000
11
11.0149127276
21
-20.7635955817
31
0.0000000000
11
11.0155389512
21
-20.7977045767
31
0.0000000000
11
11.0162056893
21
-20.8291928684
31
0.0000000000
11
11.0169096060
21
-20.8579028810
31
0.0000000000
11
11.0176471826
21
-20.8836910703
31
0.0000000000
11
11.0184147299
21
-20.9064284074
31
0.0000000000
11
11.0192084096
21
-20.9260011628
31
0.0000000000
11
11.0200242495
21
-20.9423113688
31
0.0000000000
11
11.0208581723
21
-20.9552775069
31
0.0000000000
11
11.0217060076
21
-20.9648346952
31
0.0000000000
11
11.0225635085
21
-20.9709351008
31
0.0000000000
11
11.0234262834
21
-20.9735481273
31
0.0000000000
0
SPLINE
5
339
100
AcDbEntity
8
0
100
AcDbSpline
62
9
6
CONTINUOUS
70
0
71
3
72
25
73
21
74
19
42
0.0000001000
43
0.0000001000
44
0.0000000001
12
-0.0003825380
22
-1.2559255494
32
0.0000000000
13
-1.2559255494
23
-0.0003825380
33
0.0000000000
40
0.0000000000
40
0.0000000000
40
0.0000000000
40
0.0000000000
40
0.0555509020
40
0.1111032559
40
0.1666569950
40
0.2222120107
40
0.2777681556
40
0.3333252480
40
0.3888830773
40
0.4444414107
40
0.5000000000
40
0.5555585893
40
0.6111169227
40
0.6666747520
40
0.7222318444
40
0.7777879893
40
0.8333430050
40
0.8888967441
40
0.9444490980
40
1.0000000000
40
1.0000000000
40
1.0000000000
40
1.0000000000
10
11.0234262834
20
-20.9735481273
30
0.0000000000
10
11.0234192000
20
-20.9968040596
30
0.0000000000
10
11.0213739710
20
-21.0433414421
30
0.0000000000
10
11.0122365982
20
-21.1125951051
30
0.0000000000
10
10.9970991684
20
-21.1807964151
30
0.0000000000
10
10.9760768500
20
-21.2474195599
30
0.0000000000
10
10.9493295774
20
-21.3119595659
30
0.0000000000
10
10.9170608375
20
-21.3739249415
30
0.0000000000
10
10.8795161207
20
-21.4328444170
30
0.0000000000
10
10.8369810533
20
-21.4882697248
30
0.0000000000
10
10.7897792246
20
-21.5397792246
30
0.0000000000
10
10.7382697248
20
-21.5869810533
30
0.0000000000
10
10.6828444171
20
-21.6295161207
30
0.0000000000
10
10.6239249415
20
-21.6670608375
30
0.0000000000
10
10.5619595659
20
-21.6993295774
30
0.0000000000
10
10.4974195599
20
-21.7260768500
30
0.0000000000
10
10.4307964151
20
-21.7470991684
30
0.0000000000
10
10.3625951051
20
-21.7622365982
30
0.0000000000
10
10.2933414421
20
-21.7713739710
30
0.0000000000
10
10.2468040596
20
-21.7734192000
30
0.0000000000
10
10.2235481273
20
-21.7734262834
30
0.0000000000
11
11.0234262834
21
-20.9735481273
31
0.0000000000
11
11.0203624552
21
-21.0432486217
31
0.0000000000
11
11.0112367390
21
-21.1124188588
31
0.0000000000
11
10.9961185599
21
-21.1805326154
31
0.0000000000
11
10.9751229319
21
-21.2470717055
31
0.0000000000
11
10.9484095825
21
-21.3115299228
31
0.0000000000
11
10.9161817376
21
-21.3734168913
31
0.0000000000
11
10.8786845754
21
-21.4322617964
31
0.0000000000
11
10.8362033615
21
-21.4876169664
31
0.0000000000
11
10.7890612783
21
-21.5390612783
31
0.0000000000
11
10.7376169664
21
-21.5862033615
31
0.0000000000
11
10.6822617964
21
-21.6286845754
31
0.0000000000
11
10.6234168913
21
-21.6661817376
31
0.0000000000
11
10.5615299228
21
-21.6984095825
31
0.0000000000
11
10.4970717055
21
-21.7251229319
31
0.0000000000
11
10.4305326154
21
-21.7461185599
31
0.0000000000
11
10.3624188588
21
-21.7612367390
31
0.0000000000
11
10.2932486217
21
-21.7703624552
31
0.0000000000
11
10.2235481273
21
-21.7734262834
31
0.0000000000
0
SPLINE
5
33A
100
AcDbEntity
8
0
100
AcDbSpline
62
9
6
CONTINUOUS
70
0
71
3
72
25
73
21
74
19
42
0.0000001000
43
0.0000001000
44
0.0000000001
12
0.0003825380
22
-1.2559255494
32
0.0000000000
13
1.2559255494
23
-0.0003825380
33
0.0000000000
40
0.0000000000
40
0.0000000000
40
0.0000000000
40
0.0000000000
40
0.0555509015
40
0.1111032549
40
0.1666569937
40
0.2222120092
40
0.2777681538
40
0.3333252460
40
0.3888830752
40
0.4444414086
40
0.4999999980
40
0.5555585874
40
0.6111169209
40
0.6666747504
40
0.7222318429
40
0.7777879881
40
0.8333430041
40
0.8888967435
40
0.9444490977
40
1.0000000000
40
1.0000000000
40
1.0000000000
40
1.0000000000
10
-11.0234262834
20
-20.9735481273
30
0.0000000000
10
-11.0234192000
20
-20.9968040594
30
0.0000000000
10
-11.0213739711
20
-21.0433414415
30
0.0000000000
10
-11.0122365984
20
-21.1125951040
30
0.0000000000
10
-10.9970991688
20
-21.1807964136
30
0.0000000000
10
-10.9760768507
20
-21.2474195581
30
0.0000000000
10
-10.9493295783
20
-21.3119595639
30
0.0000000000
10
-10.9170608387
20
-21.3739249394
30
0.0000000000
10
-10.8795161221
20
-21.4328444150
30
0.0000000000
10
-10.8369810549
20
-21.4882697228
30
0.0000000000
10
-10.7897792264
20
-21.5397792228
30
0.0000000000
10
-10.7382697267
20
-21.5869810517
30
0.0000000000
10
-10.6828444189
20
-21.6295161194
30
0.0000000000
10
-10.6239249433
20
-21.6670608364
30
0.0000000000
10
-10.5619595675
20
-21.6993295766
30
0.0000000000
10
-10.4974195614
20
-21.7260768495
30
0.0000000000
10
-10.4307964162
20
-21.7470991681
30
0.0000000000
10
-10.3625951059
20
-21.7622365981
30
0.0000000000
10
-10.2933414425
20
-21.7713739710
30
0.0000000000
10
-10.2468040598
20
-21.7734192000
30
0.0000000000
10
-10.2235481273
20
-21.7734262834
30
0.0000000000
11
-11.0234262834
21
-20.9735481273
31
0.0000000000
11
-11.0203624553
21
-21.0432486211
31
0.0000000000
11
-11.0112367392
21
-21.1124188577
31
0.0000000000
11
-10.9961185603
21
-21.1805326139
31
0.0000000000
11
-10.9751229326
21
-21.2470717037
31
0.0000000000
11
-10.9484095834
21
-21.3115299208
31
0.0000000000
11
-10.9161817388
21
-21.3734168892
31
0.0000000000
11
-10.8786845769
21
-21.4322617943
31
0.0000000000
11
-10.8362033632
21
-21.4876169644
31
0.0000000000
11
-10.7890612801
21
-21.5390612765
31
0.0000000000
11
-10.7376169683
21
-21.5862033600
31
0.0000000000
11
-10.6822617983
21
-21.6286845741
31
0.0000000000
11
-10.6234168931
21
-21.6661817365
31
0.0000000000
11
-10.5615299244
21
-21.6984095817
31
0.0000000000
11
-10.4970717070
21
-21.7251229314
31
0.0000000000
11
-10.4305326166
21
-21.7461185596
31
0.0000000000
11
-10.3624188596
21
-21.7612367388
31
0.0000000000
11
-10.2932486221
21
-21.7703624552
31
0.0000000000
11
-10.2235481273
21
-21.7734262834
31
0.0000000000
0
SPLINE
5
33B
100
AcDbEntity
8
0
100
AcDbSpline
62
9
6
CONTINUOUS
70
0
71
3
72
28
73
24
74
22
42
0.0000001000
43
0.0000001000
44
0.0000000001
12
0.5910385244
22
1.2669875840
32
0.0000000000
13
0.0007751838
23
1.3980641882
33
0.0000000000
40
0.0000000000
40
0.0000000000
40
0.0000000000
40
0.0000000000
40
0.0040531448
40
0.0134239625
40
0.0280854172
40
0.0479681010
40
0.0729740383
40
0.1029789800
40
0.1378331633
40
0.1773625184
40
0.2213694488
40
0.2696340806
40
0.3219149984
40
0.3779508782
40
0.4374613936
40
0.5001491190
40
0.5657005351
40
0.6337879038
40
0.7040705370
40
0.7761972715
40
0.8498074910
40
0.9245325829
40
1.0000000000
40
1.0000000000
40
1.0000000000
40
1.0000000000
10
-10.2235481273
20
-21.7734262834
30
0.0000000000
10
-10.2227496057
20
-21.7717145220
30
0.0000000000
10
-10.2227311695
20
-21.7652219600
30
0.0000000000
10
-10.2214708872
20
-21.7523711764
30
0.0000000000
10
-10.2209363364
20
-21.7318078537
30
0.0000000000
10
-10.2200205742
20
-21.7041153688
30
0.0000000000
10
-10.2192658273
20
-21.6692042898
30
0.0000000000
10
-10.2184709212
20
-21.6273387700
30
0.0000000000
10
-10.2177184644
20
-21.5786952075
30
0.0000000000
10
-10.2169871730
20
-21.5235281831
30
0.0000000000
10
-10.2162900878
20
-21.4621098416
30
0.0000000000
10
-10.2156283779
20
-21.3947485759
30
0.0000000000
10
-10.2150065122
20
-21.3217808809
30
0.0000000000
10
-10.2144275414
20
-21.2435718848
30
0.0000000000
10
-10.2138945835
20
-21.1605126545
30
0.0000000000
10
-10.2134103850
20
-21.0730186139
30
0.0000000000
10
-10.2129774499
20
-20.9815272606
30
0.0000000000
10
-10.2125980015
20
-20.8864962517
30
0.0000000000
10
-10.2122739758
20
-20.7884007814
30
0.0000000000
10
-10.2120070359
20
-20.6877313635
30
0.0000000000
10
-10.2117985216
20
-20.5849915224
30
0.0000000000
10
-10.2116495227
20
-20.4806947470
30
0.0000000000
10
-10.2115905393
20
-20.4107018337
30
0.0000000000
10
-10.2115710390
20
-20.3755324027
30
0.0000000000
11
-10.2235481273
21
-21.7734262834
31
0.0000000000
11
-10.2226852385
21
-21.7678258106
31
0.0000000000
11
-10.2218277813
21
-21.7547528941
31
0.0000000000
11
-10.2209799438
21
-21.7342727781
31
0.0000000000
11
-10.2201460390
21
-21.7064880168
31
0.0000000000
11
-10.2193302096
21
-21.6715376266
31
0.0000000000
11
-10.2185365427
21
-21.6295962943
31
0.0000000000
11
-10.2177690069
21
-21.5808739466
31
0.0000000000
11
-10.2170314414
21
-21.5256142844
31
0.0000000000
11
-10.2163275349
21
-21.4640937884
31
0.0000000000
11
-10.2156608060
21
-21.3966200186
31
0.0000000000
11
-10.2150345902
21
-21.3235306112
31
0.0000000000
11
-10.2144520177
21
-21.2451910083
31
0.0000000000
11
-10.2139160028
21
-21.1619932019
31
0.0000000000
11
-10.2134292244
21
-21.0743530763
31
0.0000000000
11
-10.2129941166
21
-20.9827090079
31
0.0000000000
11
-10.2126128551
21
-20.8875192448
31
0.0000000000
11
-10.2122873459
21
-20.7892601364
31
0.0000000000
11
-10.2120192180
21
-20.6884226729
31
0.0000000000
11
-10.2118098057
21
-20.5855110583
31
0.0000000000
11
-10.2116601680
21
-20.4810406744
31
0.0000000000
11
-10.2115710390
21
-20.3755324027
31
0.0000000000
0
SPLINE
5
33C
100
AcDbEntity
8
0
100
AcDbSpline
62
9
6
CONTINUOUS
70
0
71
3
72
28
73
24
74
22
42
0.0000001000
43
0.0000001000
44
0.0000000001
12
0.4614786011
22
0.4615965528
32
0.0000000000
13
0.0007756531
23
0.6527122453
33
0.0000000000
40
0.0000000000
40
0.0000000000
40
0.0000000000
40
0.0000000000
40
0.0042159116
40
0.0136540271
40
0.0283537886
40
0.0482598321
40
0.0732794116
40
0.1032908402
40
0.1381458205
40
0.1776712268
40
0.2216701262
40
0.2699231316
40
0.3221892247
40
0.3782074231
40
0.4376977031
40
0.5003629173
40
0.5658898087
40
0.6339508908
40
0.7042057217
40
0.7763033781
40
0.8498834884
40
0.9245776685
40
1.0000000000
40
1.0000000000
40
1.0000000000
40
1.0000000000
10
-11.0234262834
20
-20.9735481273
30
0.0000000000
10
-11.0227777657
20
-20.9728994438
30
0.0000000000
10
-11.0224567548
20
-20.9696524316
30
0.0000000000
10
-11.0214411602
20
-20.9637983413
30
0.0000000000
10
-11.0207751724
20
-20.9541080761
30
0.0000000000
10
-11.0199144070
20
-20.9412186376
30
0.0000000000
10
-11.0191386489
20
-20.9249114830
30
0.0000000000
10
-11.0183510413
20
-20.9053781106
30
0.0000000000
10
-11.0175960757
20
-20.8826753793
30
0.0000000000
10
-11.0168655579
20
-20.8569305951
30
0.0000000000
10
-11.0161682014
20
-20.8282678456
30
0.0000000000
10
-11.0155065541
20
-20.7968319300
30
0.0000000000
10
-11.0148846532
20
-20.7627795856
30
0.0000000000
10
-11.0143056803
20
-20.7262812893
30
0.0000000000
10
-11.0137727136
20
-20.6875195144
30
0.0000000000
10
-11.0132885109
20
-20.6466881380
30
0.0000000000
10
-11.0128555734
20
-20.6039913303
30
0.0000000000
10
-11.0124761232
20
-20.5596426736
30
0.0000000000
10
-11.0121521011
20
-20.5138639344
30
0.0000000000
10
-11.0118851593
20
-20.4668840283
30
0.0000000000
10
-11.0116766582
20
-20.4189379445
30
0.0000000000
10
-11.0115276631
20
-20.3702682843
30
0.0000000000
10
-11.0114686956
20
-20.3376073427
30
0.0000000000
10
-11.0114491951
20
-20.3211976496
30
0.0000000000
11
-11.0234262834
21
-20.9735481273
31
0.0000000000
11
-11.0225635085
21
-20.9709351008
31
0.0000000000
11
-11.0217060076
21
-20.9648346952
31
0.0000000000
11
-11.0208581723
21
-20.9552775069
31
0.0000000000
11
-11.0200242495
21
-20.9423113688
31
0.0000000000
11
-11.0192084096
21
-20.9260011628
31
0.0000000000
11
-11.0184147299
21
-20.9064284074
31
0.0000000000
11
-11.0176471826
21
-20.8836910703
31
0.0000000000
11
-11.0169096060
21
-20.8579028810
31
0.0000000000
11
-11.0162056893
21
-20.8291928684
31
0.0000000000
11
-11.0155389512
21
-20.7977045767
31
0.0000000000
11
-11.0149127276
21
-20.7635955817
31
0.0000000000
11
-11.0143301487
21
-20.7270364333
31
0.0000000000
11
-11.0137941290
21
-20.6882100715
31
0.0000000000
11
-11.0133073471
21
-20.6473105867
31
0.0000000000
11
-11.0128722377
21
-20.6045425653
31
0.0000000000
11
-11.0124909759
21
-20.5601198683
31
0.0000000000
11
-11.0121654691
21
-20.5142648028
31
0.0000000000
11
-11.0118973431
21
-20.4672065103
31
0.0000000000
11
-11.0116879388
21
-20.4191802938
31
0.0000000000
11
-11.0115383036
21
-20.3704266831
31
0.0000000000
11
-11.0114491951
21
-20.3211976496
31
0.0000000000
0
SPLINE
5
33D
100
AcDbEntity
8
0
100
AcDbSpline
62
9
6
CONTINUOUS
70
0
71
3
72
25
73
21
74
19
42
0.0000001000
43
0.0000001000
44
0.0000000001
12
0.2000154147
22
-0.7803079049
32
0.0000000000
13
0.8055344094
23
-0.0009527726
33
0.0000000000
40
0.0000000000
40
0.0000000000
40
0.0000000000
40
0.0000000000
40
0.0077912118
40
0.0215936197
40
0.0421903447
40
0.0696660356
40
0.1039114029
40
0.1447195327
40
0.1918146647
40
0.2448643259
40
0.3034862371
40
0.3672533602
40
0.4356982739
40
0.5083173545
40
0.5845749592
40
0.6639076977
40
0.7457288209
40
0.8294327281
40
0.9143995806
40
1.0000000000
40
1.0000000000
40
1.0000000000
40
1.0000000000
10
-11.0114491951
20
-20.3211976496
30
0.0000000000
10
-11.0109297409
20
-20.3232241643
30
0.0000000000
10
-11.0059047676
20
-20.3272604085
30
0.0000000000
10
-10.9956102487
20
-20.3313160910
30
0.0000000000
10
-10.9794414411
20
-20.3357857000
30
0.0000000000
10
-10.9578032740
20
-20.3400666356
30
0.0000000000
10
-10.9305783358
20
-20.3443234057
30
0.0000000000
10
-10.8980396259
20
-20.3484141348
30
0.0000000000
10
-10.8603908297
20
-20.3523306175
30
0.0000000000
10
-10.8179197474
20
-20.3560265413
30
0.0000000000
10
-10.7709373471
20
-20.3594743668
30
0.0000000000
10
-10.7197935232
20
-20.3626449281
30
0.0000000000
10
-10.6648680555
20
-20.3655134125
30
0.0000000000
10
-10.6065695157
20
-20.3680572831
30
0.0000000000
10
-10.5453315619
20
-20.3702568782
30
0.0000000000
10
-10.4816098377
20
-20.3720952768
30
0.0000000000
10
-10.4158785067
20
-20.3735584138
30
0.0000000000
10
-10.3486267097
20
-20.3746351306
30
0.0000000000
10
-10.2803549589
20
-20.3753172368
30
0.0000000000
10
-10.2345557334
20
-20.3755052168
30
0.0000000000
10
-10.2115710390
20
-20.3755324027
30
0.0000000000
11
-11.0114491951
21
-20.3211976496
31
0.0000000000
11
-11.0072718583
21
-20.3258815805
31
0.0000000000
11
-10.9971721925
21
-20.3305306493
31
0.0000000000
11
-10.9812253686
21
-20.3351102534
31
0.0000000000
11
-10.9595500774
21
-20.3395863073
31
0.0000000000
11
-10.9323076461
21
-20.3439254960
31
0.0000000000
11
-10.8997008376
21
-20.3480955235
31
0.0000000000
11
-10.8619723414
21
-20.3520653525
31
0.0000000000
11
-10.8194029674
21
-20.3558054361
31
0.0000000000
11
-10.7723095555
21
-20.3592879370
31
0.0000000000
11
-10.7210426177
21
-20.3624869353
31
0.0000000000
11
-10.6659837292
21
-20.3653786213
31
0.0000000000
11
-10.6075426882
21
-20.3679414723
31
0.0000000000
11
-10.5461544662
21
-20.3701564132
31
0.0000000000
11
-10.4822759702
21
-20.3720069586
31
0.0000000000
11
-10.4163826418
21
-20.3734793348
31
0.0000000000
11
-10.3489649193
21
-20.3745625832
31
0.0000000000
11
-10.2805245867
21
-20.3752486413
31
0.0000000000
11
-10.2115710390
21
-20.3755324027
31
0.0000000000
0
SPLINE
5
33E
100
AcDbEntity
8
0
100
AcDbSpline
62
9
6
CONTINUOUS
70
0
71
3
72
25
73
21
74
19
42
0.0000001000
43
0.0000001000
44
0.0000000001
12
0.2000155516
22
0.7803078693
32
0.0000000000
13
0.8055344089
23
0.0009527725
33
0.0000000000
40
0.0000000000
40
0.0000000000
40
0.0000000000
40
0.0000000000
40
0.0077912125
40
0.0215936212
40
0.0421903468
40
0.0696660384
40
0.1039114061
40
0.1447195364
40
0.1918146686
40
0.2448643298
40
0.3034862411
40
0.3672533640
40
0.4356982775
40
0.5083173578
40
0.5845749620
40
0.6639077001
40
0.7457288228
40
0.8294327294
40
0.9143995812
40
1.0000000000
40
1.0000000000
40
1.0000000000
40
1.0000000000
10
-11.0114491951
20
20.3211976496
30
0.0000000000
10
-11.0109297405
20
20.3232241644
30
0.0000000000
10
-11.0059047667
20
20.3272604083
30
0.0000000000
10
-10.9956102472
20
20.3313160910
30
0.0000000000
10
-10.9794414390
20
20.3357856998
30
0.0000000000
10
-10.9578032714
20
20.3400666353
30
0.0000000000
10
-10.9305783328
20
20.3443234054
30
0.0000000000
10
-10.8980396226
20
20.3484141345
30
0.0000000000
10
-10.8603908262
20
20.3523306171
30
0.0000000000
10
-10.8179197439
20
20.3560265409
30
0.0000000000
10
-10.7709373436
20
20.3594743663
30
0.0000000000
10
-10.7197935198
20
20.3626449276
30
0.0000000000
10
-10.6648680524
20
20.3655134119
30
0.0000000000
10
-10.6065695129
20
20.3680572824
30
0.0000000000
10
-10.5453315594
20
20.3702568776
30
0.0000000000
10
-10.4816098356
20
20.3720952761
30
0.0000000000
10
-10.4158785051
20
20.3735584131
30
0.0000000000
10
-10.3486267086
20
20.3746351298
30
0.0000000000
10
-10.2803549583
20
20.3753172359
30
0.0000000000
10
-10.2345557332
20
20.3755052159
30
0.0000000000
10
-10.2115710390
20
20.3755324018
30
0.0000000000
11
-11.0114491951
21
20.3211976496
31
0.0000000000
11
-11.0072718575
21
20.3258815804
31
0.0000000000
11
-10.9971721910
21
20.3305306492
31
0.0000000000
11
-10.9812253665
21
20.3351102533
31
0.0000000000
11
-10.9595500748
21
20.3395863071
31
0.0000000000
11
-10.9323076430
21
20.3439254958
31
0.0000000000
11
-10.8997008343
21
20.3480955232
31
0.0000000000
11
-10.8619723379
21
20.3520653522
31
0.0000000000
11
-10.8194029639
21
20.3558054356
31
0.0000000000
11
-10.7723095520
21
20.3592879365
31
0.0000000000
11
-10.7210426143
21
20.3624869348
31
0.0000000000
11
-10.6659837260
21
20.3653786207
31
0.0000000000
11
-10.6075426854
21
20.3679414716
31
0.0000000000
11
-10.5461544637
21
20.3701564125
31
0.0000000000
11
-10.4822759681
21
20.3720069578
31
0.0000000000
11
-10.4163826402
21
20.3734793340
31
0.0000000000
11
-10.3489649182
21
20.3745625824
31
0.0000000000
11
-10.2805245861
21
20.3752486404
31
0.0000000000
11
-10.2115710390
21
20.3755324018
31
0.0000000000
0
SPLINE
5
33F
100
AcDbEntity
8
0
100
AcDbSpline
62
9
6
CONTINUOUS
70
0
71
3
72
28
73
24
74
22
42
0.0000001000
43
0.0000001000
44
0.0000000001
12
-0.0007751169
22
1.3980641876
32
0.0000000000
13
-0.5910541296
23
1.2669803035
33
0.0000000000
40
0.0000000000
40
0.0000000000
40
0.0000000000
40
0.0000000000
40
0.0754674358
40
0.1501925268
40
0.2238027434
40
0.2959294803
40
0.3662121112
40
0.4342994783
40
0.4998508945
40
0.5625386204
40
0.6220491347
40
0.6780850136
40
0.7303659306
40
0.7786305619
40
0.8226374917
40
0.8621668452
40
0.8970210272
40
0.9270259685
40
0.9520319052
40
0.9719145871
40
0.9865760410
40
0.9959468575
40
1.0000000000
40
1.0000000000
40
1.0000000000
40
1.0000000000
10
-10.2115710390
20
20.3755324027
30
0.0000000000
10
-10.2115905377
20
20.4107018425
30
0.0000000000
10
-10.2116495247
20
20.4806947640
30
0.0000000000
10
-10.2117985214
20
20.5849915463
30
0.0000000000
10
-10.2120070375
20
20.6877313867
30
0.0000000000
10
-10.2122739770
20
20.7884008032
30
0.0000000000
10
-10.2125980034
20
20.8864962727
30
0.0000000000
10
-10.2129774521
20
20.9815272799
30
0.0000000000
10
-10.2134103876
20
21.0730186326
30
0.0000000000
10
-10.2138945865
20
21.1605126730
30
0.0000000000
10
-10.2144275449
20
21.2435719026
30
0.0000000000
10
-10.2150065160
20
21.3217808973
30
0.0000000000
10
-10.2156283821
20
21.3947485912
30
0.0000000000
10
-10.2162900922
20
21.4621098560
30
0.0000000000
10
-10.2169871773
20
21.5235281962
30
0.0000000000
10
-10.2177184689
20
21.5786952189
30
0.0000000000
10
-10.2184709251
20
21.6273387799
30
0.0000000000
10
-10.2192658329
20
21.6692042982
30
0.0000000000
10
-10.2200205750
20
21.7041153774
30
0.0000000000
10
-10.2209363489
20
21.7318078568
30
0.0000000000
10
-10.2214708732
20
21.7523711872
30
0.0000000000
10
-10.2227312025
20
21.7652219505
30
0.0000000000
10
-10.2227495851
20
21.7717145328
30
0.0000000000
10
-10.2235481273
20
21.7734262834
30
0.0000000000
11
-10.2115710390
21
20.3755324027
31
0.0000000000
11
-10.2116601688
21
20.4810407006
31
0.0000000000
11
-10.2118098062
21
20.5855110831
31
0.0000000000
11
-10.2120192192
21
20.6884226935
31
0.0000000000
11
-10.2122873473
21
20.7892601604
31
0.0000000000
11
-10.2126128569
21
20.8875192655
31
0.0000000000
11
-10.2129941188
21
20.9827090263
31
0.0000000000
11
-10.2134292270
21
21.0743530948
31
0.0000000000
11
-10.2139160059
21
21.1619932211
31
0.0000000000
11
-10.2144520212
21
21.2451910261
31
0.0000000000
11
-10.2150345941
21
21.3235306274
31
0.0000000000
11
-10.2156608102
21
21.3966200338
31
0.0000000000
11
-10.2163275393
21
21.4640938028
31
0.0000000000
11
-10.2170314458
21
21.5256142980
31
0.0000000000
11
-10.2177690113
21
21.5808739579
31
0.0000000000
11
-10.2185365470
21
21.6295963038
31
0.0000000000
11
-10.2193302139
21
21.6715376354
31
0.0000000000
11
-10.2201460431
21
21.7064880250
31
0.0000000000
11
-10.2209799481
21
21.7342727835
31
0.0000000000
11
-10.2218277845
21
21.7547528985
31
0.0000000000
11
-10.2226852433
21
21.7678258131
31
0.0000000000
11
-10.2235481273
21
21.7734262834
31
0.0000000000
0
SPLINE
5
340
100
AcDbEntity
8
0
100
AcDbSpline
62
9
6
CONTINUOUS
70
0
71
3
72
28
73
24
74
22
42
0.0000001000
43
0.0000001000
44
0.0000000001
12
-0.0007756460
22
0.6527122468
32
0.0000000000
13
-0.4614703312
23
0.4616048226
33
0.0000000000
40
0.0000000000
40
0.0000000000
40
0.0000000000
40
0.0000000000
40
0.0754258857
40
0.1501200790
40
0.2237001797
40
0.2957978137
40
0.3660525974
40
0.4341136131
40
0.4996404191
40
0.5623055280
40
0.6217956789
40
0.6778137076
40
0.7300795900
40
0.7783323500
40
0.8223309806
40
0.8618561130
40
0.8967108183
40
0.9267219729
40
0.9517412794
40
0.9716470533
40
0.9863465458
40
0.9957844110
40
1.0000000000
40
1.0000000000
40
1.0000000000
40
1.0000000000
10
-11.0114491951
20
20.3211976496
30
0.0000000000
10
-11.0114686964
20
20.3376081161
30
0.0000000000
10
-11.0115276666
20
20.3702698339
30
0.0000000000
10
-11.0116766667
20
20.4189402683
30
0.0000000000
10
-11.0118851709
20
20.4668863480
30
0.0000000000
10
-11.0121521157
20
20.5138662370
30
0.0000000000
10
-11.0124761409
20
20.5596449467
30
0.0000000000
10
-11.0128555941
20
20.6039935602
30
0.0000000000
10
-11.0132885347
20
20.6466903119
30
0.0000000000
10
-11.0137727405
20
20.6875216188
30
0.0000000000
10
-11.0143057101
20
20.7262833058
30
0.0000000000
10
-11.0148846856
20
20.7627814913
30
0.0000000000
10
-11.0155065888
20
20.7968336996
30
0.0000000000
10
-11.0161682379
20
20.8282694575
30
0.0000000000
10
-11.0168655958
20
20.8569320355
30
0.0000000000
10
-11.0175961144
20
20.8826766418
30
0.0000000000
10
-11.0183510811
20
20.9053791938
30
0.0000000000
10
-11.0191386879
20
20.9249123880
30
0.0000000000
10
-11.0199144496
20
20.9412193624
30
0.0000000000
10
-11.0207752051
20
20.9541086304
30
0.0000000000
10
-11.0214412144
20
20.9637987078
30
0.0000000000
10
-11.0224567558
20
20.9696526489
30
0.0000000000
10
-11.0227778270
20
20.9728994819
30
0.0000000000
10
-11.0234262834
20
20.9735481273
30
0.0000000000
11
-11.0114491951
21
20.3211976496
31
0.0000000000
11
-11.0115383093
21
20.3704290031
31
0.0000000000
11
-11.0116879474
21
20.4191826225
31
0.0000000000
11
-11.0118973547
21
20.4672088328
31
0.0000000000
11
-11.0121654838
21
20.5142671108
31
0.0000000000
11
-11.0124909937
21
20.5601221456
31
0.0000000000
11
-11.0128722586
21
20.6045447993
31
0.0000000000
11
-11.0133073711
21
20.6473127650
31
0.0000000000
11
-11.0137941560
21
20.6882121811
31
0.0000000000
11
-11.0143301788
21
20.7270384587
31
0.0000000000
11
-11.0149127603
21
20.7635974964
31
0.0000000000
11
-11.0155389863
21
20.7977063538
31
0.0000000000
11
-11.0162057261
21
20.8291944854
31
0.0000000000
11
-11.0169096441
21
20.8579043226
31
0.0000000000
11
-11.0176472218
21
20.8836923330
31
0.0000000000
11
-11.0184147699
21
20.9064294905
31
0.0000000000
11
-11.0192084502
21
20.9260020670
31
0.0000000000
11
-11.0200242905
21
20.9423120945
31
0.0000000000
11
-11.0208582134
21
20.9552780563
31
0.0000000000
11
-11.0217060486
21
20.9648350684
31
0.0000000000
11
-11.0225635492
21
20.9709353090
31
0.0000000000
11
-11.0234262834
21
20.9735481273
31
0.0000000000
0
SPLINE
5
341
100
AcDbEntity
8
0
100
AcDbSpline
62
9
6
CONTINUOUS
70
0
71
3
72
25
73
21
74
19
42
0.0000001000
43
0.0000001000
44
0.0000000001
12
0.0003825380
22
1.2559255494
32
0.0000000000
13
1.2559255494
23
0.0003825380
33
0.0000000000
40
0.0000000000
40
0.0000000000
40
0.0000000000
40
0.0000000000
40
0.0555509020
40
0.1111032559
40
0.1666569950
40
0.2222120107
40
0.2777681556
40
0.3333252480
40
0.3888830773
40
0.4444414107
40
0.5000000000
40
0.5555585893
40
0.6111169227
40
0.6666747520
40
0.7222318444
40
0.7777879893
40
0.8333430050
40
0.8888967441
40
0.9444490980
40
1.0000000000
40
1.0000000000
40
1.0000000000
40
1.0000000000
10
-11.0234262834
20
20.9735481273
30
0.0000000000
10
-11.0234192000
20
20.9968040596
30
0.0000000000
10
-11.0213739710
20
21.0433414421
30
0.0000000000
10
-11.0122365982
20
21.1125951051
30
0.0000000000
10
-10.9970991684
20
21.1807964151
30
0.0000000000
10
-10.9760768500
20
21.2474195599
30
0.0000000000
10
-10.9493295774
20
21.3119595659
30
0.0000000000
10
-10.9170608375
20
21.3739249415
30
0.0000000000
10
-10.8795161207
20
21.4328444171
30
0.0000000000
10
-10.8369810533
20
21.4882697248
30
0.0000000000
10
-10.7897792246
20
21.5397792246
30
0.0000000000
10
-10.7382697248
20
21.5869810533
30
0.0000000000
10
-10.6828444170
20
21.6295161207
30
0.0000000000
10
-10.6239249415
20
21.6670608375
30
0.0000000000
10
-10.5619595659
20
21.6993295774
30
0.0000000000
10
-10.4974195599
20
21.7260768500
30
0.0000000000
10
-10.4307964151
20
21.7470991684
30
0.0000000000
10
-10.3625951051
20
21.7622365982
30
0.0000000000
10
-10.2933414421
20
21.7713739710
30
0.0000000000
10
-10.2468040596
20
21.7734192000
30
0.0000000000
10
-10.2235481273
20
21.7734262834
30
0.0000000000
11
-11.0234262834
21
20.9735481273
31
0.0000000000
11
-11.0203624552
21
21.0432486217
31
0.0000000000
11
-11.0112367390
21
21.1124188588
31
0.0000000000
11
-10.9961185599
21
21.1805326154
31
0.0000000000
11
-10.9751229319
21
21.2470717055
31
0.0000000000
11
-10.9484095825
21
21.3115299228
31
0.0000000000
11
-10.9161817376
21
21.3734168913
31
0.0000000000
11
-10.8786845754
21
21.4322617964
31
0.0000000000
11
-10.8362033615
21
21.4876169664
31
0.0000000000
11
-10.7890612783
21
21.5390612783
31
0.0000000000
11
-10.7376169664
21
21.5862033615
31
0.0000000000
11
-10.6822617964
21
21.6286845754
31
0.0000000000
11
-10.6234168913
21
21.6661817376
31
0.0000000000
11
-10.5615299228
21
21.6984095825
31
0.0000000000
11
-10.4970717055
21
21.7251229319
31
0.0000000000
11
-10.4305326154
21
21.7461185599
31
0.0000000000
11
-10.3624188588
21
21.7612367390
31
0.0000000000
11
-10.2932486217
21
21.7703624552
31
0.0000000000
11
-10.2235481273
21
21.7734262834
31
0.0000000000
0
SPLINE
5
342
100
AcDbEntity
8
0
100
AcDbSpline
62
7
6
CONTINUOUS
70
0
71
3
72
21
73
17
74
15
42
0.0000001000
43
0.0000001000
44
0.0000000001
12
0.0000000000
22
0.3140184166
32
0.0000000000
13
0.3140184166
23
0.0000000000
33
0.0000000000
40
0.0000000000
40
0.0000000000
40
0.0000000000
40
0.0000000000
40
0.0711780177
40
0.1427414178
40
0.2141761142
40
0.2853462629
40
0.3569369110
40
0.4286197696
40
0.4999353718
40
0.5712574665
40
0.6429533333
40
0.7145514826
40
0.7857325669
40
0.8572005985
40
0.9287960473
40
1.0000000000
40
1.0000000000
40
1.0000000000
40
1.0000000000
10
-11.1000000000
20
-0.3500000000
30
0.0000000000
10
-11.1000000000
20
-0.3425495972
30
0.0000000000
10
-11.0991632575
20
-0.3275950292
30
0.0000000000
10
-11.0954056509
20
-0.3054480471
30
0.0000000000
10
-11.0891891075
20
-0.2838599806
30
0.0000000000
10
-11.0805974162
20
-0.2631006842
30
0.0000000000
10
-11.0697237098
20
-0.2434096605
30
0.0000000000
10
-11.0566985526
20
-0.2250518537
30
0.0000000000
10
-11.0417170573
20
-0.2082909906
30
0.0000000000
10
-11.0249547161
20
-0.1933090954
30
0.0000000000
10
-11.0065941474
20
-0.1802829295
30
0.0000000000
10
-10.9868999425
20
-0.1694081892
30
0.0000000000
10
-10.9661355556
20
-0.1608146447
30
0.0000000000
10
-10.9445397557
20
-0.1545959914
30
0.0000000000
10
-10.9223832918
20
-0.1508370028
30
0.0000000000
10
-10.9074226519
20
-0.1500000000
30
0.0000000000
10
-10.8999695344
20
-0.1500000000
30
0.0000000000
11
-11.1000000000
21
-0.3500000000
31
0.0000000000
11
-11.0987508696
21
-0.3276837236
31
0.0000000000
11
-11.0949921784
21
-0.3055280661
31
0.0000000000
11
-11.0887847673
21
-0.2839722279
31
0.0000000000
11
-11.0802383646
21
-0.2633221658
31
0.0000000000
11
-11.0693709653
21
-0.2436426031
31
0.0000000000
11
-11.0563455237
21
-0.2252843307
31
0.0000000000
11
-11.0414214038
21
-0.2085876137
31
0.0000000000
11
-11.0247227390
21
-0.1936626138
31
0.0000000000
11
-11.0063607104
21
-0.1806354072
31
0.0000000000
11
-10.9866787980
21
-0.1697673902
31
0.0000000000
11
-10.9660254852
21
-0.1612198623
31
0.0000000000
11
-10.9444595631
21
-0.1550096407
31
0.0000000000
11
-10.9222939484
21
-0.1512494721
31
0.0000000000
11
-10.8999695344
21
-0.1500000000
31
0.0000000000
0
SPLINE
5
343
100
AcDbEntity
8
0
100
AcDbSpline
62
7
6
CONTINUOUS
70
0
71
3
72
21
73
17
74
15
42
0.0000001000
43
0.0000001000
44
0.0000000001
12
0.3140184166
22
0.0000000000
32
0.0000000000
13
0.0000000000
23
-0.3140184166
33
0.0000000000
40
0.0000000000
40
0.0000000000
40
0.0000000000
40
0.0000000000
40
0.0712039527
40
0.1427994015
40
0.2142674331
40
0.2854485174
40
0.3570466667
40
0.4287425335
40
0.5000646282
40
0.5713802304
40
0.6430630890
40
0.7146537371
40
0.7858238858
40
0.8572585822
40
0.9288219823
40
1.0000000000
40
1.0000000000
40
1.0000000000
40
1.0000000000
10
10.8999695344
20
-0.1500000000
30
0.0000000000
10
10.9074226519
20
-0.1500000000
30
0.0000000000
10
10.9223832918
20
-0.1508370028
30
0.0000000000
10
10.9445397557
20
-0.1545959914
30
0.0000000000
10
10.9661355556
20
-0.1608146447
30
0.0000000000
10
10.9868999425
20
-0.1694081892
30
0.0000000000
10
11.0065941474
20
-0.1802829295
30
0.0000000000
10
11.0249547161
20
-0.1933090954
30
0.0000000000
10
11.0417170573
20
-0.2082909906
30
0.0000000000
10
11.0566985526
20
-0.2250518537
30
0.0000000000
10
11.0697237098
20
-0.2434096605
30
0.0000000000
10
11.0805974162
20
-0.2631006842
30
0.0000000000
10
11.0891891075
20
-0.2838599806
30
0.0000000000
10
11.0954056509
20
-0.3054480471
30
0.0000000000
10
11.0991632575
20
-0.3275950292
30
0.0000000000
10
11.1000000000
20
-0.3425495972
30
0.0000000000
10
11.1000000000
20
-0.3500000000
30
0.0000000000
11
10.8999695344
21
-0.1500000000
31
0.0000000000
11
10.9222939484
21
-0.1512494721
31
0.0000000000
11
10.9444595631
21
-0.1550096407
31
0.0000000000
11
10.9660254852
21
-0.1612198623
31
0.0000000000
11
10.9866787980
21
-0.1697673902
31
0.0000000000
11
11.0063607104
21
-0.1806354072
31
0.0000000000
11
11.0247227391
21
-0.1936626138
31
0.0000000000
11
11.0414214038
21
-0.2085876137
31
0.0000000000
11
11.0563455237
21
-0.2252843307
31
0.0000000000
11
11.0693709653
21
-0.2436426031
31
0.0000000000
11
11.0802383646
21
-0.2633221658
31
0.0000000000
11
11.0887847673
21
-0.2839722279
31
0.0000000000
11
11.0949921784
21
-0.3055280661
31
0.0000000000
11
11.0987508696
21
-0.3276837236
31
0.0000000000
11
11.1000000000
21
-0.3500000000
31
0.0000000000
0
SPLINE
5
344
100
AcDbEntity
8
0
100
AcDbSpline
62
7
6
CONTINUOUS
70
0
71
3
72
21
73
17
74
15
42
0.0000001000
43
0.0000001000
44
0.0000000001
12
-0.3140184166
22
0.0000000000
32
0.0000000000
13
0.0000000000
23
0.3140184166
33
0.0000000000
40
0.0000000000
40
0.0000000000
40
0.0000000000
40
0.0000000000
40
0.0712039527
40
0.1427994015
40
0.2142674331
40
0.2854485174
40
0.3570466667
40
0.4287425335
40
0.5000646282
40
0.5713802304
40
0.6430630890
40
0.7146537371
40
0.7858238858
40
0.8572585822
40
0.9288219823
40
1.0000000000
40
1.0000000000
40
1.0000000000
40
1.0000000000
10
-10.8999695344
20
0.1500000000
30
0.0000000000
10
-10.9074226519
20
0.1500000000
30
0.0000000000
10
-10.9223832918
20
0.1508370028
30
0.0000000000
10
-10.9445397557
20
0.1545959914
30
0.0000000000
10
-10.9661355556
20
0.1608146447
30
0.0000000000
10
-10.9868999425
20
0.1694081892
30
0.0000000000
10
-11.0065941474
20
0.1802829295
30
0.0000000000
10
-11.0249547161
20
0.1933090954
30
0.0000000000
10
-11.0417170573
20
0.2082909906
30
0.0000000000
10
-11.0566985526
20
0.2250518537
30
0.0000000000
10
-11.0697237098
20
0.2434096605
30
0.0000000000
10
-11.0805974162
20
0.2631006842
30
0.0000000000
10
-11.0891891075
20
0.2838599806
30
0.0000000000
10
-11.0954056509
20
0.3054480471
30
0.0000000000
10
-11.0991632575
20
0.3275950292
30
0.0000000000
10
-11.1000000000
20
0.3425495972
30
0.0000000000
10
-11.1000000000
20
0.3500000000
30
0.0000000000
11
-10.8999695344
21
0.1500000000
31
0.0000000000
11
-10.9222939484
21
0.1512494721
31
0.0000000000
11
-10.9444595631
21
0.1550096407
31
0.0000000000
11
-10.9660254852
21
0.1612198623
31
0.0000000000
11
-10.9866787980
21
0.1697673902
31
0.0000000000
11
-11.0063607104
21
0.1806354072
31
0.0000000000
11
-11.0247227390
21
0.1936626138
31
0.0000000000
11
-11.0414214038
21
0.2085876137
31
0.0000000000
11
-11.0563455237
21
0.2252843307
31
0.0000000000
11
-11.0693709653
21
0.2436426031
31
0.0000000000
11
-11.0802383646
21
0.2633221658
31
0.0000000000
11
-11.0887847673
21
0.2839722279
31
0.0000000000
11
-11.0949921784
21
0.3055280661
31
0.0000000000
11
-11.0987508696
21
0.3276837236
31
0.0000000000
11
-11.1000000000
21
0.3500000000
31
0.0000000000
0
SPLINE
5
345
100
AcDbEntity
8
0
100
AcDbSpline
62
7
6
CONTINUOUS
70
0
71
3
72
21
73
17
74
15
42
0.0000001000
43
0.0000001000
44
0.0000000001
12
0.0000000000
22
-0.3140184166
32
0.0000000000
13
-0.3140184166
23
0.0000000000
33
0.0000000000
40
0.0000000000
40
0.0000000000
40
0.0000000000
40
0.0000000000
40
0.0711780177
40
0.1427414178
40
0.2141761142
40
0.2853462629
40
0.3569369110
40
0.4286197696
40
0.4999353718
40
0.5712574665
40
0.6429533333
40
0.7145514826
40
0.7857325669
40
0.8572005985
40
0.9287960473
40
1.0000000000
40
1.0000000000
40
1.0000000000
40
1.0000000000
10
11.1000000000
20
0.3500000000
30
0.0000000000
10
11.1000000000
20
0.3425495972
30
0.0000000000
10
11.0991632575
20
0.3275950292
30
0.0000000000
10
11.0954056509
20
0.3054480471
30
0.0000000000
10
11.0891891075
20
0.2838599806
30
0.0000000000
10
11.0805974162
20
0.2631006842
30
0.0000000000
10
11.0697237098
20
0.2434096605
30
0.0000000000
10
11.0566985526
20
0.2250518537
30
0.0000000000
10
11.0417170573
20
0.2082909906
30
0.0000000000
10
11.0249547161
20
0.1933090954
30
0.0000000000
10
11.0065941474
20
0.1802829295
30
0.0000000000
10
10.9868999425
20
0.1694081892
30
0.0000000000
10
10.9661355556
20
0.1608146447
30
0.0000000000
10
10.9445397557
20
0.1545959914
30
0.0000000000
10
10.9223832918
20
0.1508370028
30
0.0000000000
10
10.9074226519
20
0.1500000000
30
0.0000000000
10
10.8999695344
20
0.1500000000
30
0.0000000000
11
11.1000000000
21
0.3500000000
31
0.0000000000
11
11.0987508696
21
0.3276837236
31
0.0000000000
11
11.0949921784
21
0.3055280661
31
0.0000000000
11
11.0887847673
21
0.2839722279
31
0.0000000000
11
11.0802383646
21
0.2633221658
31
0.0000000000
11
11.0693709653
21
0.2436426031
31
0.0000000000
11
11.0563455237
21
0.2252843307
31
0.0000000000
11
11.0414214038
21
0.2085876137
31
0.0000000000
11
11.0247227391
21
0.1936626138
31
0.0000000000
11
11.0063607104
21
0.1806354072
31
0.0000000000
11
10.9866787980
21
0.1697673902
31
0.0000000000
11
10.9660254852
21
0.1612198623
31
0.0000000000
11
10.9444595631
21
0.1550096407
31
0.0000000000
11
10.9222939484
21
0.1512494721
31
0.0000000000
11
10.8999695344
21
0.1500000000
31
0.0000000000
0
SPLINE
5
346
100
AcDbEntity
8
0
100
AcDbSpline
62
7
6
CONTINUOUS
70
0
71
3
72
26
73
22
74
20
42
0.0000001000
43
0.0000001000
44
0.0000000001
12
0.0000000000
22
1.2561051181
32
0.0000000000
13
1.2561051181
23
0.0000000000
33
0.0000000000
40
0.0000000000
40
0.0000000000
40
0.0000000000
40
0.0000000000
40
0.0525433977
40
0.1052619171
40
0.1579537660
40
0.2104691993
40
0.2630825541
40
0.3158194650
40
0.3684931638
40
0.4209854985
40
0.4736299366
40
0.5263657599
40
0.5790092527
40
0.6315016187
40
0.6841764472
40
0.7369131777
40
0.7895255701
40
0.8420413369
40
0.8947352403
40
0.9474549596
40
1.0000000000
40
1.0000000000
40
1.0000000000
40
1.0000000000
10
-11.1000000000
20
21.0501218439
30
0.0000000000
10
-11.1000000000
20
21.0721218541
30
0.0000000000
10
-11.0981801928
20
21.1162167994
30
0.0000000000
10
-11.0899969462
20
21.1819166309
30
0.0000000000
10
-11.0764115657
20
21.2467079906
30
0.0000000000
10
-11.0575381577
20
21.3101130715
30
0.0000000000
10
-11.0334928187
20
21.3717638585
30
0.0000000000
10
-11.0044049284
20
21.4312761839
30
0.0000000000
10
-10.9705209095
20
21.4881352924
30
0.0000000000
10
-10.9320836666
20
21.5419725514
30
0.0000000000
10
-10.8893190712
20
21.5924758039
30
0.0000000000
10
-10.8424800691
20
21.6393151229
30
0.0000000000
10
-10.7919774323
20
21.6820798478
30
0.0000000000
10
-10.7381404160
20
21.7205175862
30
0.0000000000
10
-10.6812811991
20
21.7544022333
30
0.0000000000
10
-10.6217690701
20
21.7834905116
30
0.0000000000
10
-10.5601187815
20
21.8075361865
30
0.0000000000
10
-10.4967132773
20
21.8264102699
30
0.0000000000
10
-10.4319205218
20
21.8399963544
30
0.0000000000
10
-10.3662186795
20
21.8481800866
30
0.0000000000
10
-10.3221225419
20
21.8500000000
30
0.0000000000
10
-10.3001218439
20
21.8500000000
30
0.0000000000
11
-11.1000000000
21
21.0501218439
31
0.0000000000
11
-11.0972778435
21
21.1160657134
31
0.0000000000
11
-11.0890934289
21
21.1817779956
31
0.0000000000
11
-11.0755106353
21
21.2465557745
31
0.0000000000
11
-11.0566913202
21
21.3097792038
31
0.0000000000
11
-11.0326771838
21
21.3713497514
31
0.0000000000
11
-11.0035881774
21
21.4308642748
31
0.0000000000
11
-10.9697174797
21
21.4877009828
31
0.0000000000
11
-10.9314048483
21
21.5413636692
31
0.0000000000
11
-10.8886725496
21
21.5918287454
31
0.0000000000
11
-10.8418327262
21
21.6386688856
31
0.0000000000
11
-10.7913688770
21
21.6814007960
31
0.0000000000
11
-10.7377064738
21
21.7197138916
31
0.0000000000
11
-10.6808687944
21
21.7535857314
31
0.0000000000
11
-10.6213546658
21
21.7826750291
31
0.0000000000
11
-10.5597854235
21
21.8066891858
31
0.0000000000
11
-10.4965617425
21
21.8255091237
31
0.0000000000
11
-10.4317815205
21
21.8390928409
31
0.0000000000
11
-10.3660677715
21
21.8472776733
31
0.0000000000
11
-10.3001218439
21
21.8500000000
31
0.0000000000
0
SPLINE
5
347
100
AcDbEntity
8
0
100
AcDbSpline
62
7
6
CONTINUOUS
70
0
71
3
72
26
73
22
74
20
42
0.0000001000
43
0.0000001000
44
0.0000000001
12
-1.2561051181
22
0.0000000000
32
0.0000000000
13
0.0000000000
23
1.2561051181
33
0.0000000000
40
0.0000000000
40
0.0000000000
40
0.0000000000
40
0.0000000000
40
0.0525450404
40
0.1052647597
40
0.1579586631
40
0.2104744299
40
0.2630868223
40
0.3158235528
40
0.3684983813
40
0.4209907473
40
0.4736342401
40
0.5263700634
40
0.5790145015
40
0.6315068362
40
0.6841805350
40
0.7369174459
40
0.7895308007
40
0.8420462340
40
0.8947380829
40
0.9474566023
40
1.0000000000
40
1.0000000000
40
1.0000000000
40
1.0000000000
10
-10.3001218439
20
-21.8500000000
30
0.0000000000
10
-10.3221225419
20
-21.8500000000
30
0.0000000000
10
-10.3662186795
20
-21.8481800866
30
0.0000000000
10
-10.4319205218
20
-21.8399963544
30
0.0000000000
10
-10.4967132773
20
-21.8264102699
30
0.0000000000
10
-10.5601187815
20
-21.8075361865
30
0.0000000000
10
-10.6217690701
20
-21.7834905116
30
0.0000000000
10
-10.6812811991
20
-21.7544022333
30
0.0000000000
10
-10.7381404160
20
-21.7205175862
30
0.0000000000
10
-10.7919774323
20
-21.6820798478
30
0.0000000000
10
-10.8424800691
20
-21.6393151229
30
0.0000000000
10
-10.8893190712
20
-21.5924758039
30
0.0000000000
10
-10.9320836666
20
-21.5419725514
30
0.0000000000
10
-10.9705209095
20
-21.4881352924
30
0.0000000000
10
-11.0044049284
20
-21.4312761839
30
0.0000000000
10
-11.0334928187
20
-21.3717638585
30
0.0000000000
10
-11.0575381577
20
-21.3101130715
30
0.0000000000
10
-11.0764115657
20
-21.2467079906
30
0.0000000000
10
-11.0899969462
20
-21.1819166309
30
0.0000000000
10
-11.0981801928
20
-21.1162167994
30
0.0000000000
10
-11.1000000000
20
-21.0721218541
30
0.0000000000
10
-11.1000000000
20
-21.0501218439
30
0.0000000000
11
-10.3001218439
21
-21.8500000000
31
0.0000000000
11
-10.3660677715
21
-21.8472776733
31
0.0000000000
11
-10.4317815205
21
-21.8390928409
31
0.0000000000
11
-10.4965617425
21
-21.8255091237
31
0.0000000000
11
-10.5597854235
21
-21.8066891858
31
0.0000000000
11
-10.6213546658
21
-21.7826750291
31
0.0000000000
11
-10.6808687944
21
-21.7535857314
31
0.0000000000
11
-10.7377064738
21
-21.7197138916
31
0.0000000000
11
-10.7913688770
21
-21.6814007960
31
0.0000000000
11
-10.8418327262
21
-21.6386688856
31
0.0000000000
11
-10.8886725496
21
-21.5918287454
31
0.0000000000
11
-10.9314048483
21
-21.5413636692
31
0.0000000000
11
-10.9697174797
21
-21.4877009828
31
0.0000000000
11
-11.0035881774
21
-21.4308642748
31
0.0000000000
11
-11.0326771838
21
-21.3713497514
31
0.0000000000
11
-11.0566913202
21
-21.3097792038
31
0.0000000000
11
-11.0755106353
21
-21.2465557745
31
0.0000000000
11
-11.0890934289
21
-21.1817779956
31
0.0000000000
11
-11.0972778435
21
-21.1160657134
31
0.0000000000
11
-11.1000000000
21
-21.0501218439
31
0.0000000000
0
SPLINE
5
348
100
AcDbEntity
8
0
100
AcDbSpline
62
7
6
CONTINUOUS
70
0
71
3
72
26
73
22
74
20
42
0.0000001000
43
0.0000001000
44
0.0000000001
12
1.2561051181
22
0.0000000000
32
0.0000000000
13
0.0000000000
23
-1.2561051181
33
0.0000000000
40
0.0000000000
40
0.0000000000
40
0.0000000000
40
0.0000000000
40
0.0525450404
40
0.1052647597
40
0.1579586631
40
0.2104744299
40
0.2630868223
40
0.3158235528
40
0.3684983813
40
0.4209907473
40
0.4736342401
40
0.5263700634
40
0.5790145015
40
0.6315068362
40
0.6841805350
40
0.7369174459
40
0.7895308007
40
0.8420462340
40
0.8947380829
40
0.9474566023
40
1.0000000000
40
1.0000000000
40
1.0000000000
40
1.0000000000
10
10.3001218439
20
21.8500000000
30
0.0000000000
10
10.3221225419
20
21.8500000000
30
0.0000000000
10
10.3662186795
20
21.8481800866
30
0.0000000000
10
10.4319205218
20
21.8399963544
30
0.0000000000
10
10.4967132773
20
21.8264102699
30
0.0000000000
10
10.5601187815
20
21.8075361865
30
0.0000000000
10
10.6217690701
20
21.7834905116
30
0.0000000000
10
10.6812811991
20
21.7544022333
30
0.0000000000
10
10.7381404160
20
21.7205175862
30
0.0000000000
10
10.7919774323
20
21.6820798478
30
0.0000000000
10
10.8424800691
20
21.6393151229
30
0.0000000000
10
10.8893190712
20
21.5924758039
30
0.0000000000
10
10.9320836666
20
21.5419725514
30
0.0000000000
10
10.9705209095
20
21.4881352924
30
0.0000000000
10
11.0044049284
20
21.4312761839
30
0.0000000000
10
11.0334928187
20
21.3717638585
30
0.0000000000
10
11.0575381577
20
21.3101130715
30
0.0000000000
10
11.0764115657
20
21.2467079906
30
0.0000000000
10
11.0899969462
20
21.1819166309
30
0.0000000000
10
11.0981801928
20
21.1162167994
30
0.0000000000
10
11.1000000000
20
21.0721218541
30
0.0000000000
10
11.1000000000
20
21.0501218439
30
0.0000000000
11
10.3001218439
21
21.8500000000
31
0.0000000000
11
10.3660677715
21
21.8472776733
31
0.0000000000
11
10.4317815205
21
21.8390928409
31
0.0000000000
11
10.4965617425
21
21.8255091237
31
0.0000000000
11
10.5597854235
21
21.8066891858
31
0.0000000000
11
10.6213546658
21
21.7826750291
31
0.0000000000
11
10.6808687944
21
21.7535857314
31
0.0000000000
11
10.7377064738
21
21.7197138916
31
0.0000000000
11
10.7913688770
21
21.6814007960
31
0.0000000000
11
10.8418327262
21
21.6386688856
31
0.0000000000
11
10.8886725496
21
21.5918287454
31
0.0000000000
11
10.9314048483
21
21.5413636692
31
0.0000000000
11
10.9697174797
21
21.4877009828
31
0.0000000000
11
11.0035881774
21
21.4308642748
31
0.0000000000
11
11.0326771838
21
21.3713497514
31
0.0000000000
11
11.0566913202
21
21.3097792038
31
0.0000000000
11
11.0755106353
21
21.2465557745
31
0.0000000000
11
11.0890934289
21
21.1817779956
31
0.0000000000
11
11.0972778435
21
21.1160657134
31
0.0000000000
11
11.1000000000
21
21.0501218439
31
0.0000000000
0
SPLINE
5
349
100
AcDbEntity
8
0
100
AcDbSpline
62
7
6
CONTINUOUS
70
0
71
3
72
26
73
22
74
20
42
0.0000001000
43
0.0000001000
44
0.0000000001
12
0.0000000000
22
-1.2561051181
32
0.0000000000
13
-1.2561051181
23
0.0000000000
33
0.0000000000
40
0.0000000000
40
0.0000000000
40
0.0000000000
40
0.0000000000
40
0.0525433977
40
0.1052619171
40
0.1579537660
40
0.2104691993
40
0.2630825541
40
0.3158194650
40
0.3684931638
40
0.4209854985
40
0.4736299366
40
0.5263657599
40
0.5790092527
40
0.6315016187
40
0.6841764472
40
0.7369131777
40
0.7895255701
40
0.8420413369
40
0.8947352403
40
0.9474549596
40
1.0000000000
40
1.0000000000
40
1.0000000000
40
1.0000000000
10
11.1000000000
20
-21.0501218439
30
0.0000000000
10
11.1000000000
20
-21.0721218541
30
0.0000000000
10
11.0981801928
20
-21.1162167994
30
0.0000000000
10
11.0899969462
20
-21.1819166309
30
0.0000000000
10
11.0764115657
20
-21.2467079906
30
0.0000000000
10
11.0575381577
20
-21.3101130715
30
0.0000000000
10
11.0334928187
20
-21.3717638585
30
0.0000000000
10
11.0044049284
20
-21.4312761839
30
0.0000000000
10
10.9705209095
20
-21.4881352924
30
0.0000000000
10
10.9320836666
20
-21.5419725514
30
0.0000000000
10
10.8893190712
20
-21.5924758039
30
0.0000000000
10
10.8424800691
20
-21.6393151229
30
0.0000000000
10
10.7919774323
20
-21.6820798478
30
0.0000000000
10
10.7381404160
20
-21.7205175862
30
0.0000000000
10
10.6812811991
20
-21.7544022333
30
0.0000000000
10
10.6217690701
20
-21.7834905116
30
0.0000000000
10
10.5601187815
20
-21.8075361865
30
0.0000000000
10
10.4967132773
20
-21.8264102699
30
0.0000000000
10
10.4319205218
20
-21.8399963544
30
0.0000000000
10
10.3662186795
20
-21.8481800866
30
0.0000000000
10
10.3221225419
20
-21.8500000000
30
0.0000000000
10
10.3001218439
20
-21.8500000000
30
0.0000000000
11
11.1000000000
21
-21.0501218439
31
0.0000000000
11
11.0972778435
21
-21.1160657134
31
0.0000000000
11
11.0890934289
21
-21.1817779956
31
0.0000000000
11
11.0755106353
21
-21.2465557745
31
0.0000000000
11
11.0566913202
21
-21.3097792038
31
0.0000000000
11
11.0326771838
21
-21.3713497514
31
0.0000000000
11
11.0035881774
21
-21.4308642748
31
0.0000000000
11
10.9697174797
21
-21.4877009828
31
0.0000000000
11
10.9314048483
21
-21.5413636692
31
0.0000000000
11
10.8886725496
21
-21.5918287454
31
0.0000000000
11
10.8418327262
21
-21.6386688856
31
0.0000000000
11
10.7913688770
21
-21.6814007960
31
0.0000000000
11
10.7377064738
21
-21.7197138916
31
0.0000000000
11
10.6808687944
21
-21.7535857314
31
0.0000000000
11
10.6213546658
21
-21.7826750291
31
0.0000000000
11
10.5597854235
21
-21.8066891858
31
0.0000000000
11
10.4965617425
21
-21.8255091237
31
0.0000000000
11
10.4317815205
21
-21.8390928409
31
0.0000000000
11
10.3660677715
21
-21.8472776733
31
0.0000000000
11
10.3001218439
21
-21.8500000000
31
0.0000000000
0
SPLINE
5
34A
100
AcDbEntity
8
0
100
AcDbSpline
62
9
6
CONTINUOUS
70
0
71
3
72
19
73
15
74
13
42
0.0000001000
43
0.0000001000
44
0.0000000001
12
0.0000000000
22
-0.2736984432
32
0.0000000000
13
-0.2683146953
23
-0.0547845415
33
0.0000000000
40
0.0000000000
40
0.0000000000
40
0.0000000000
40
0.0000000000
40
0.0882408584
40
0.1764813291
40
0.2647210470
40
0.3529596908
40
0.4411970014
40
0.5294327974
40
0.6176669853
40
0.7058995650
40
0.7941306300
40
0.8823603617
40
0.9705890191
40
1.0000000000
40
1.0000000000
40
1.0000000000
40
1.0000000000
10
10.9993932438
20
0.3500000000
30
0.0000000000
10
10.9993932438
20
0.3419495381
30
0.0000000000
10
10.9984188787
20
0.3258317158
30
0.0000000000
10
10.9940555443
20
0.3020209672
30
0.0000000000
10
10.9868540492
20
0.2789062139
30
0.0000000000
10
10.9769194036
20
0.2568291315
30
0.0000000000
10
10.9643964723
20
0.2361104161
30
0.0000000000
10
10.9494678648
20
0.2170525247
30
0.0000000000
10
10.9323512632
20
0.1999332775
30
0.0000000000
10
10.9132962866
20
0.1850023386
30
0.0000000000
10
10.8925807087
20
0.1724774328
30
0.0000000000
10
10.8705069404
20
0.1625412076
30
0.0000000000
10
10.8525312813
20
0.1569390868
30
0.0000000000
10
10.8420532169
20
0.1545789573
30
0.0000000000
10
10.8394227508
20
0.1540418683
30
0.0000000000
11
10.9993932438
21
0.3500000000
31
0.0000000000
11
10.9979352407
21
0.3258926639
31
0.0000000000
11
10.9935824924
21
0.3021368671
31
0.0000000000
11
10.9863984718
21
0.2790790226
31
0.0000000000
11
10.9764879380
21
0.2570553656
31
0.0000000000
11
10.9639954090
21
0.2363870507
31
0.0000000000
11
10.9491030540
21
0.2173754684
31
0.0000000000
11
10.9320280370
21
0.2002978504
31
0.0000000000
11
10.9130193503
21
0.1854032268
31
0.0000000000
11
10.8923541832
21
0.1729087949
31
0.0000000000
11
10.8703338805
21
0.1629967515
31
0.0000000000
11
10.8472795478
21
0.1558116365
31
0.0000000000
11
10.8394227508
21
0.1540418683
31
0.0000000000
0
SPLINE
5
34B
100
AcDbEntity
8
0
100
AcDbSpline
62
9
6
CONTINUOUS
70
0
71
3
72
9
73
5
74
3
42
0.0000001000
43
0.0000001000
44
0.0000000001
12
-0.0394541843
22
-0.0080557623
32
0.0000000000
13
-0.0402458344
23
0.0000000000
33
0.0000000000
40
0.0000000000
40
0.0000000000
40
0.0000000000
40
0.0000000000
40
0.3999942022
40
1.0000000000
40
1.0000000000
40
1.0000000000
40
1.0000000000
10
10.8394227508
20
0.1540418683
30
0.0000000000
10
10.8341622691
20
0.1529677822
30
0.0000000000
10
10.8209023454
20
0.1508120934
30
0.0000000000
10
10.8074729494
20
0.1500000000
30
0.0000000000
10
10.7994237047
20
0.1500000000
30
0.0000000000
11
10.8394227508
21
0.1540418683
31
0.0000000000
11
10.8235273691
21
0.1514582252
31
0.0000000000
11
10.7994237047
21
0.1500000000
31
0.0000000000
0
SPLINE
5
34C
100
AcDbEntity
8
0
100
AcDbSpline
62
9
6
CONTINUOUS
70
0
71
3
72
25
73
21
74
19
42
0.0000001000
43
0.0000001000
44
0.0000000001
12
0.0003825380
22
1.2559255494
32
0.0000000000
13
1.2559255494
23
0.0003825380
33
0.0000000000
40
0.0000000000
40
0.0000000000
40
0.0000000000
40
0.0000000000
40
0.0555509020
40
0.1111032559
40
0.1666569950
40
0.2222120107
40
0.2777681556
40
0.3333252480
40
0.3888830773
40
0.4444414107
40
0.5000000000
40
0.5555585893
40
0.6111169227
40
0.6666747520
40
0.7222318444
40
0.7777879893
40
0.8333430050
40
0.8888967441
40
0.9444490980
40
1.0000000000
40
1.0000000000
40
1.0000000000
40
1.0000000000
10
-11.0234262834
20
20.9735481273
30
0.0000000000
10
-11.0234192000
20
20.9968040596
30
0.0000000000
10
-11.0213739710
20
21.0433414421
30
0.0000000000
10
-11.0122365982
20
21.1125951051
30
0.0000000000
10
-10.9970991684
20
21.1807964151
30
0.0000000000
10
-10.9760768500
20
21.2474195599
30
0.0000000000
10
-10.9493295774
20
21.3119595659
30
0.0000000000
10
-10.9170608375
20
21.3739249415
30
0.0000000000
10
-10.8795161207
20
21.4328444171
30
0.0000000000
10
-10.8369810533
20
21.4882697248
30
0.0000000000
10
-10.7897792246
20
21.5397792246
30
0.0000000000
10
-10.7382697248
20
21.5869810533
30
0.0000000000
10
-10.6828444170
20
21.6295161207
30
0.0000000000
10
-10.6239249415
20
21.6670608375
30
0.0000000000
10
-10.5619595659
20
21.6993295774
30
0.0000000000
10
-10.4974195599
20
21.7260768500
30
0.0000000000
10
-10.4307964151
20
21.7470991684
30
0.0000000000
10
-10.3625951051
20
21.7622365982
30
0.0000000000
10
-10.2933414421
20
21.7713739710
30
0.0000000000
10
-10.2468040596
20
21.7734192000
30
0.0000000000
10
-10.2235481273
20
21.7734262834
30
0.0000000000
11
-11.0234262834
21
20.9735481273
31
0.0000000000
11
-11.0203624552
21
21.0432486217
31
0.0000000000
11
-11.0112367390
21
21.1124188588
31
0.0000000000
11
-10.9961185599
21
21.1805326154
31
0.0000000000
11
-10.9751229319
21
21.2470717055
31
0.0000000000
11
-10.9484095825
21
21.3115299228
31
0.0000000000
11
-10.9161817376
21
21.3734168913
31
0.0000000000
11
-10.8786845754
21
21.4322617964
31
0.0000000000
11
-10.8362033615
21
21.4876169664
31
0.0000000000
11
-10.7890612783
21
21.5390612783
31
0.0000000000
11
-10.7376169664
21
21.5862033615
31
0.0000000000
11
-10.6822617964
21
21.6286845754
31
0.0000000000
11
-10.6234168913
21
21.6661817376
31
0.0000000000
11
-10.5615299228
21
21.6984095825
31
0.0000000000
11
-10.4970717055
21
21.7251229319
31
0.0000000000
11
-10.4305326154
21
21.7461185599
31
0.0000000000
11
-10.3624188588
21
21.7612367390
31
0.0000000000
11
-10.2932486217
21
21.7703624552
31
0.0000000000
11
-10.2235481273
21
21.7734262834
31
0.0000000000
0
SPLINE
5
34D
100
AcDbEntity
8
0
100
AcDbSpline
62
9
6
CONTINUOUS
70
0
71
3
72
26
73
22
74
20
42
0.0000001000
43
0.0000001000
44
0.0000000001
12
-0.7998782513
22
0.0000039891
32
0.0000000000
13
-0.7997659699
23
0.0134018756
33
0.0000000000
40
0.0000000000
40
0.0000000000
40
0.0000000000
40
0.0000000000
40
0.0816788662
40
0.1628077147
40
0.2428510113
40
0.3212715576
40
0.3975457005
40
0.4711648504
40
0.5416363808
40
0.6084897106
40
0.6712780538
40
0.7295824491
40
0.7830129038
40
0.8312129114
40
0.8738603086
40
0.9106702857
40
0.9413965928
40
0.9658344118
40
0.9838204277
40
0.9952342192
40
1.0000000000
40
1.0000000000
40
1.0000000000
40
1.0000000000
10
-10.1995150734
20
-0.3502334883
30
0.0000000000
10
-10.2212927896
20
-0.3502333797
30
0.0000000000
10
-10.2647015730
20
-0.3502326400
30
0.0000000000
10
-10.3294519870
20
-0.3502299953
30
0.0000000000
10
-10.3933336479
20
-0.3502258263
30
0.0000000000
10
-10.4559209175
20
-0.3502201629
30
0.0000000000
10
-10.5167953419
20
-0.3502130431
30
0.0000000000
10
-10.5755503511
20
-0.3502045150
30
0.0000000000
10
-10.6317935255
20
-0.3501946368
30
0.0000000000
10
-10.6851489241
20
-0.3501834755
30
0.0000000000
10
-10.7352602467
20
-0.3501711108
30
0.0000000000
10
-10.7817926803
20
-0.3501576201
30
0.0000000000
10
-10.8244354828
20
-0.3501431295
30
0.0000000000
10
-10.8629037196
20
-0.3501276483
30
0.0000000000
10
-10.8969405061
20
-0.3501116010
30
0.0000000000
10
-10.9263183373
20
-0.3500941922
30
0.0000000000
10
-10.9508410474
20
-0.3500783007
30
0.0000000000
10
-10.9703447192
20
-0.3500566907
30
0.0000000000
10
-10.9846993573
20
-0.3500484512
30
0.0000000000
10
-10.9938085274
20
-0.3500141358
30
0.0000000000
10
-10.9981227050
20
-0.3500212901
30
0.0000000000
10
-10.9993932081
20
-0.3500000000
30
0.0000000000
11
-10.1995150734
21
-0.3502334883
31
0.0000000000
11
-10.2648482221
21
-0.3502323774
31
0.0000000000
11
-10.3297414234
21
-0.3502297177
31
0.0000000000
11
-10.3937663154
21
-0.3502255261
31
0.0000000000
11
-10.4564932046
21
-0.3502198306
31
0.0000000000
11
-10.5175032322
21
-0.3502126686
31
0.0000000000
11
-10.5763895885
21
-0.3502040874
31
0.0000000000
11
-10.6327582321
21
-0.3501941438
31
0.0000000000
11
-10.6862327554
21
-0.3501829036
31
0.0000000000
11
-10.7364557841
21
-0.3501704410
31
0.0000000000
11
-10.7830921998
21
-0.3501568386
31
0.0000000000
11
-10.8258300560
21
-0.3501421866
31
0.0000000000
11
-10.8643841907
21
-0.3501265818
31
0.0000000000
11
-10.8984969122
21
-0.3501101280
31
0.0000000000
11
-10.9279404072
21
-0.3500929344
31
0.0000000000
11
-10.9525177056
21
-0.3500751153
31
0.0000000000
11
-10.9720649769
21
-0.3500567890
31
0.0000000000
11
-10.9864515877
21
-0.3500380778
31
0.0000000000
11
-10.9955812116
21
-0.3500191061
31
0.0000000000
11
-10.9993932081
21
-0.3500000000
31
0.0000000000
0
SPLINE
5
34E
100
AcDbEntity
8
0
100
AcDbSpline
62
9
6
CONTINUOUS
70
0
71
3
72
28
73
24
74
22
42
0.0000001000
43
0.0000001000
44
0.0000000001
12
-0.0007756460
22
0.6527122468
32
0.0000000000
13
-0.4614703312
23
0.4616048226
33
0.0000000000
40
0.0000000000
40
0.0000000000
40
0.0000000000
40
0.0000000000
40
0.0754258857
40
0.1501200790
40
0.2237001797
40
0.2957978137
40
0.3660525974
40
0.4341136131
40
0.4996404191
40
0.5623055280
40
0.6217956789
40
0.6778137076
40
0.7300795900
40
0.7783323500
40
0.8223309806
40
0.8618561130
40
0.8967108183
40
0.9267219729
40
0.9517412794
40
0.9716470533
40
0.9863465458
40
0.9957844110
40
1.0000000000
40
1.0000000000
40
1.0000000000
40
1.0000000000
10
-11.0114491951
20
20.3211976496
30
0.0000000000
10
-11.0114686964
20
20.3376081161
30
0.0000000000
10
-11.0115276666
20
20.3702698339
30
0.0000000000
10
-11.0116766667
20
20.4189402683
30
0.0000000000
10
-11.0118851709
20
20.4668863480
30
0.0000000000
10
-11.0121521157
20
20.5138662370
30
0.0000000000
10
-11.0124761409
20
20.5596449467
30
0.0000000000
10
-11.0128555941
20
20.6039935602
30
0.0000000000
10
-11.0132885347
20
20.6466903119
30
0.0000000000
10
-11.0137727405
20
20.6875216188
30
0.0000000000
10
-11.0143057101
20
20.7262833058
30
0.0000000000
10
-11.0148846856
20
20.7627814913
30
0.0000000000
10
-11.0155065888
20
20.7968336996
30
0.0000000000
10
-11.0161682379
20
20.8282694575
30
0.0000000000
10
-11.0168655958
20
20.8569320355
30
0.0000000000
10
-11.0175961144
20
20.8826766418
30
0.0000000000
10
-11.0183510811
20
20.9053791938
30
0.0000000000
10
-11.0191386879
20
20.9249123880
30
0.0000000000
10
-11.0199144496
20
20.9412193624
30
0.0000000000
10
-11.0207752051
20
20.9541086304
30
0.0000000000
10
-11.0214412144
20
20.9637987078
30
0.0000000000
10
-11.0224567558
20
20.9696526489
30
0.0000000000
10
-11.0227778270
20
20.9728994819
30
0.0000000000
10
-11.0234262834
20
20.9735481273
30
0.0000000000
11
-11.0114491951
21
20.3211976496
31
0.0000000000
11
-11.0115383093
21
20.3704290031
31
0.0000000000
11
-11.0116879474
21
20.4191826225
31
0.0000000000
11
-11.0118973547
21
20.4672088328
31
0.0000000000
11
-11.0121654838
21
20.5142671108
31
0.0000000000
11
-11.0124909937
21
20.5601221456
31
0.0000000000
11
-11.0128722586
21
20.6045447993
31
0.0000000000
11
-11.0133073711
21
20.6473127650
31
0.0000000000
11
-11.0137941560
21
20.6882121811
31
0.0000000000
11
-11.0143301788
21
20.7270384587
31
0.0000000000
11
-11.0149127603
21
20.7635974964
31
0.0000000000
11
-11.0155389863
21
20.7977063538
31
0.0000000000
11
-11.0162057261
21
20.8291944854
31
0.0000000000
11
-11.0169096441
21
20.8579043226
31
0.0000000000
11
-11.0176472218
21
20.8836923330
31
0.0000000000
11
-11.0184147699
21
20.9064294905
31
0.0000000000
11
-11.0192084502
21
20.9260020670
31
0.0000000000
11
-11.0200242905
21
20.9423120945
31
0.0000000000
11
-11.0208582134
21
20.9552780563
31
0.0000000000
11
-11.0217060486
21
20.9648350684
31
0.0000000000
11
-11.0225635492
21
20.9709353090
31
0.0000000000
11
-11.0234262834
21
20.9735481273
31
0.0000000000
0
SPLINE
5
34F
100
AcDbEntity
8
0
100
AcDbSpline
62
9
6
CONTINUOUS
70
0
71
3
72
28
73
24
74
22
42
0.0000001000
43
0.0000001000
44
0.0000000001
12
-0.0007751169
22
1.3980641876
32
0.0000000000
13
-0.5910541296
23
1.2669803035
33
0.0000000000
40
0.0000000000
40
0.0000000000
40
0.0000000000
40
0.0000000000
40
0.0754674358
40
0.1501925268
40
0.2238027434
40
0.2959294803
40
0.3662121112
40
0.4342994783
40
0.4998508945
40
0.5625386204
40
0.6220491347
40
0.6780850136
40
0.7303659306
40
0.7786305619
40
0.8226374917
40
0.8621668452
40
0.8970210272
40
0.9270259685
40
0.9520319052
40
0.9719145871
40
0.9865760410
40
0.9959468575
40
1.0000000000
40
1.0000000000
40
1.0000000000
40
1.0000000000
10
-10.2115710390
20
20.3755324027
30
0.0000000000
10
-10.2115905377
20
20.4107018425
30
0.0000000000
10
-10.2116495247
20
20.4806947640
30
0.0000000000
10
-10.2117985214
20
20.5849915463
30
0.0000000000
10
-10.2120070375
20
20.6877313867
30
0.0000000000
10
-10.2122739770
20
20.7884008032
30
0.0000000000
10
-10.2125980034
20
20.8864962727
30
0.0000000000
10
-10.2129774521
20
20.9815272799
30
0.0000000000
10
-10.2134103876
20
21.0730186326
30
0.0000000000
10
-10.2138945865
20
21.1605126730
30
0.0000000000
10
-10.2144275449
20
21.2435719026
30
0.0000000000
10
-10.2150065160
20
21.3217808973
30
0.0000000000
10
-10.2156283821
20
21.3947485912
30
0.0000000000
10
-10.2162900922
20
21.4621098560
30
0.0000000000
10
-10.2169871773
20
21.5235281962
30
0.0000000000
10
-10.2177184689
20
21.5786952189
30
0.0000000000
10
-10.2184709251
20
21.6273387799
30
0.0000000000
10
-10.2192658329
20
21.6692042982
30
0.0000000000
10
-10.2200205750
20
21.7041153774
30
0.0000000000
10
-10.2209363489
20
21.7318078568
30
0.0000000000
10
-10.2214708732
20
21.7523711872
30
0.0000000000
10
-10.2227312025
20
21.7652219505
30
0.0000000000
10
-10.2227495851
20
21.7717145328
30
0.0000000000
10
-10.2235481273
20
21.7734262834
30
0.0000000000
11
-10.2115710390
21
20.3755324027
31
0.0000000000
11
-10.2116601688
21
20.4810407006
31
0.0000000000
11
-10.2118098062
21
20.5855110831
31
0.0000000000
11
-10.2120192192
21
20.6884226935
31
0.0000000000
11
-10.2122873473
21
20.7892601604
31
0.0000000000
11
-10.2126128569
21
20.8875192655
31
0.0000000000
11
-10.2129941188
21
20.9827090263
31
0.0000000000
11
-10.2134292270
21
21.0743530948
31
0.0000000000
11
-10.2139160059
21
21.1619932211
31
0.0000000000
11
-10.2144520212
21
21.2451910261
31
0.0000000000
11
-10.2150345941
21
21.3235306274
31
0.0000000000
11
-10.2156608102
21
21.3966200338
31
0.0000000000
11
-10.2163275393
21
21.4640938028
31
0.0000000000
11
-10.2170314458
21
21.5256142980
31
0.0000000000
11
-10.2177690113
21
21.5808739579
31
0.0000000000
11
-10.2185365470
21
21.6295963038
31
0.0000000000
11
-10.2193302139
21
21.6715376354
31
0.0000000000
11
-10.2201460431
21
21.7064880250
31
0.0000000000
11
-10.2209799481
21
21.7342727835
31
0.0000000000
11
-10.2218277845
21
21.7547528985
31
0.0000000000
11
-10.2226852433
21
21.7678258131
31
0.0000000000
11
-10.2235481273
21
21.7734262834
31
0.0000000000
0
SPLINE
5
350
100
AcDbEntity
8
0
100
AcDbSpline
62
9
6
CONTINUOUS
70
0
71
3
72
25
73
21
74
19
42
0.0000001000
43
0.0000001000
44
0.0000000001
12
0.2000155516
22
0.7803078693
32
0.0000000000
13
0.8055344089
23
0.0009527725
33
0.0000000000
40
0.0000000000
40
0.0000000000
40
0.0000000000
40
0.0000000000
40
0.0077912125
40
0.0215936212
40
0.0421903468
40
0.0696660384
40
0.1039114061
40
0.1447195364
40
0.1918146686
40
0.2448643298
40
0.3034862411
40
0.3672533640
40
0.4356982775
40
0.5083173578
40
0.5845749620
40
0.6639077001
40
0.7457288228
40
0.8294327294
40
0.9143995812
40
1.0000000000
40
1.0000000000
40
1.0000000000
40
1.0000000000
10
-11.0114491951
20
20.3211976496
30
0.0000000000
10
-11.0109297405
20
20.3232241644
30
0.0000000000
10
-11.0059047667
20
20.3272604083
30
0.0000000000
10
-10.9956102472
20
20.3313160910
30
0.0000000000
10
-10.9794414390
20
20.3357856998
30
0.0000000000
10
-10.9578032714
20
20.3400666353
30
0.0000000000
10
-10.9305783328
20
20.3443234054
30
0.0000000000
10
-10.8980396226
20
20.3484141345
30
0.0000000000
10
-10.8603908262
20
20.3523306171
30
0.0000000000
10
-10.8179197439
20
20.3560265409
30
0.0000000000
10
-10.7709373436
20
20.3594743663
30
0.0000000000
10
-10.7197935198
20
20.3626449276
30
0.0000000000
10
-10.6648680524
20
20.3655134119
30
0.0000000000
10
-10.6065695129
20
20.3680572824
30
0.0000000000
10
-10.5453315594
20
20.3702568776
30
0.0000000000
10
-10.4816098356
20
20.3720952761
30
0.0000000000
10
-10.4158785051
20
20.3735584131
30
0.0000000000
10
-10.3486267086
20
20.3746351298
30
0.0000000000
10
-10.2803549583
20
20.3753172359
30
0.0000000000
10
-10.2345557332
20
20.3755052159
30
0.0000000000
10
-10.2115710390
20
20.3755324018
30
0.0000000000
11
-11.0114491951
21
20.3211976496
31
0.0000000000
11
-11.0072718575
21
20.3258815804
31
0.0000000000
11
-10.9971721910
21
20.3305306492
31
0.0000000000
11
-10.9812253665
21
20.3351102533
31
0.0000000000
11
-10.9595500748
21
20.3395863071
31
0.0000000000
11
-10.9323076430
21
20.3439254958
31
0.0000000000
11
-10.8997008343
21
20.3480955232
31
0.0000000000
11
-10.8619723379
21
20.3520653522
31
0.0000000000
11
-10.8194029639
21
20.3558054356
31
0.0000000000
11
-10.7723095520
21
20.3592879365
31
0.0000000000
11
-10.7210426143
21
20.3624869348
31
0.0000000000
11
-10.6659837260
21
20.3653786207
31
0.0000000000
11
-10.6075426854
21
20.3679414716
31
0.0000000000
11
-10.5461544637
21
20.3701564125
31
0.0000000000
11
-10.4822759681
21
20.3720069578
31
0.0000000000
11
-10.4163826402
21
20.3734793340
31
0.0000000000
11
-10.3489649182
21
20.3745625824
31
0.0000000000
11
-10.2805245861
21
20.3752486404
31
0.0000000000
11
-10.2115710390
21
20.3755324018
31
0.0000000000
0
SPLINE
5
351
100
AcDbEntity
8
0
100
AcDbSpline
62
9
6
CONTINUOUS
70
0
71
3
72
14
73
10
74
8
42
0.0000001000
43
0.0000001000
44
0.0000000001
12
-0.0004077843
22
19.9712023956
32
0.0000000000
13
-0.0237310545
23
19.9711883004
33
0.0000000000
40
0.0000000000
40
0.0000000000
40
0.0000000000
40
0.0000000000
40
0.1429655687
40
0.2859169389
40
0.4288407123
40
0.5717238953
40
0.7145534968
40
0.8573164812
40
1.0000000000
40
1.0000000000
40
1.0000000000
40
1.0000000000
10
-10.9993932438
20
0.3500000000
30
0.0000000000
10
-10.9994126768
20
1.3017314358
30
0.0000000000
10
-10.9996100596
20
3.2050997879
30
0.0000000000
10
-11.0003816832
20
6.0599212502
30
0.0000000000
10
-11.0016287820
20
8.9141940984
30
0.0000000000
10
-11.0033512425
20
11.7676560767
30
0.0000000000
10
-11.0055489077
20
14.6200473449
30
0.0000000000
10
-11.0082215795
20
17.4711090282
30
0.0000000000
10
-11.0103205183
20
19.3713445091
30
0.0000000000
10
-11.0114491951
20
20.3211976496
30
0.0000000000
11
-10.9993932438
21
0.3500000000
31
0.0000000000
11
-10.9996893459
21
3.2051942925
31
0.0000000000
11
-11.0004610288
21
6.0601049362
31
0.0000000000
11
-11.0017082222
21
8.9144642701
31
0.0000000000
11
-11.0034308133
21
11.7680127175
31
0.0000000000
11
-11.0056286457
21
14.6204907520
31
0.0000000000
11
-11.0083015196
21
17.4716379549
31
0.0000000000
11
-11.0114491951
21
20.3211976496
31
0.0000000000
0
SPLINE
5
352
100
AcDbEntity
8
0
100
AcDbSpline
62
9
6
CONTINUOUS
70
0
71
3
72
14
73
10
74
8
42
0.0000001000
43
0.0000001000
44
0.0000000001
12
-0.0004069825
22
20.0253036598
32
0.0000000000
13
-0.0237318869
23
20.0252896017
33
0.0000000000
40
0.0000000000
40
0.0000000000
40
0.0000000000
40
0.0000000000
40
0.1429660145
40
0.2859174215
40
0.4288412086
40
0.5717243652
40
0.7145538839
40
0.8573167609
40
1.0000000000
40
1.0000000000
40
1.0000000000
40
1.0000000000
10
-10.1994123651
20
0.3502334887
30
0.0000000000
10
-10.1994317600
20
1.3045461067
30
0.0000000000
10
-10.1997794489
20
3.2130738183
30
0.0000000000
10
-10.2004905800
20
6.0756322094
30
0.0000000000
10
-10.2017538371
20
8.9376373393
30
0.0000000000
10
-10.2034719647
20
11.7988286082
30
0.0000000000
10
-10.2056708283
20
14.6589454597
30
0.0000000000
10
-10.2083432501
20
17.5177274357
30
0.0000000000
10
-10.2104423248
20
19.4231080079
30
0.0000000000
10
-10.2115710390
20
20.3755324027
30
0.0000000000
11
-10.1994123651
21
0.3502334887
31
0.0000000000
11
-10.1998110792
21
3.2131713158
31
0.0000000000
11
-10.2005826992
21
6.0758165458
31
0.0000000000
11
-10.2018298631
21
8.9379085106
31
0.0000000000
11
-10.2035524575
21
11.7991865923
31
0.0000000000
11
-10.2057503254
21
14.6593902323
31
0.0000000000
11
-10.2084232671
21
17.5182589458
31
0.0000000000
11
-10.2115710390
21
20.3755324027
31
0.0000000000
0
SPLINE
5
353
100
AcDbEntity
8
0
100
AcDbSpline
62
9
6
CONTINUOUS
70
0
71
3
72
14
73
10
74
8
42
0.0000001000
43
0.0000001000
44
0.0000000001
12
0.0237318868
22
20.0252896016
32
0.0000000000
13
0.0004069825
23
20.0253036597
33
0.0000000000
40
0.0000000000
40
0.0000000000
40
0.0000000000
40
0.0000000000
40
0.1426832391
40
0.2854461161
40
0.4282756348
40
0.5711587914
40
0.7140825785
40
0.8570339855
40
1.0000000000
40
1.0000000000
40
1.0000000000
40
1.0000000000
10
-10.2115710390
20
-20.3755324027
30
0.0000000000
10
-10.2104423248
20
-19.4231080079
30
0.0000000000
10
-10.2083432506
20
-17.5177274356
30
0.0000000000
10
-10.2056708266
20
-14.6589454596
30
0.0000000000
10
-10.2034719710
20
-11.7988286082
30
0.0000000000
10
-10.2017538137
20
-8.9376373393
30
0.0000000000
10
-10.2004906673
20
-6.0756322093
30
0.0000000000
10
-10.1997791231
20
-3.2130738184
30
0.0000000000
10
-10.1994324621
20
-1.3045461067
30
0.0000000000
10
-10.1994130672
20
-0.3502334887
30
0.0000000000
11
-10.2115710390
21
-20.3755324027
31
0.0000000000
11
-10.2084232671
21
-17.5182589458
31
0.0000000000
11
-10.2057503254
21
-14.6593902322
31
0.0000000000
11
-10.2035524575
21
-11.7991865922
31
0.0000000000
11
-10.2018298631
21
-8.9379085106
31
0.0000000000
11
-10.2005826992
21
-6.0758165458
31
0.0000000000
11
-10.1998110792
21
-3.2131713158
31
0.0000000000
11
-10.1994130672
21
-0.3502334887
31
0.0000000000
0
SPLINE
5
354
100
AcDbEntity
8
0
100
AcDbSpline
62
9
6
CONTINUOUS
70
0
71
3
72
25
73
21
74
19
42
0.0000001000
43
0.0000001000
44
0.0000000001
12
0.2000154147
22
-0.7803079049
32
0.0000000000
13
0.8055344094
23
-0.0009527726
33
0.0000000000
40
0.0000000000
40
0.0000000000
40
0.0000000000
40
0.0000000000
40
0.0077912118
40
0.0215936197
40
0.0421903447
40
0.0696660356
40
0.1039114029
40
0.1447195327
40
0.1918146647
40
0.2448643259
40
0.3034862371
40
0.3672533602
40
0.4356982739
40
0.5083173545
40
0.5845749592
40
0.6639076977
40
0.7457288209
40
0.8294327281
40
0.9143995806
40
1.0000000000
40
1.0000000000
40
1.0000000000
40
1.0000000000
10
-11.0114491951
20
-20.3211976496
30
0.0000000000
10
-11.0109297409
20
-20.3232241643
30
0.0000000000
10
-11.0059047676
20
-20.3272604085
30
0.0000000000
10
-10.9956102487
20
-20.3313160910
30
0.0000000000
10
-10.9794414411
20
-20.3357857000
30
0.0000000000
10
-10.9578032740
20
-20.3400666356
30
0.0000000000
10
-10.9305783358
20
-20.3443234057
30
0.0000000000
10
-10.8980396259
20
-20.3484141348
30
0.0000000000
10
-10.8603908297
20
-20.3523306175
30
0.0000000000
10
-10.8179197474
20
-20.3560265413
30
0.0000000000
10
-10.7709373471
20
-20.3594743668
30
0.0000000000
10
-10.7197935232
20
-20.3626449281
30
0.0000000000
10
-10.6648680555
20
-20.3655134125
30
0.0000000000
10
-10.6065695157
20
-20.3680572831
30
0.0000000000
10
-10.5453315619
20
-20.3702568782
30
0.0000000000
10
-10.4816098377
20
-20.3720952768
30
0.0000000000
10
-10.4158785067
20
-20.3735584138
30
0.0000000000
10
-10.3486267097
20
-20.3746351306
30
0.0000000000
10
-10.2803549589
20
-20.3753172368
30
0.0000000000
10
-10.2345557334
20
-20.3755052168
30
0.0000000000
10
-10.2115710390
20
-20.3755324027
30
0.0000000000
11
-11.0114491951
21
-20.3211976496
31
0.0000000000
11
-11.0072718583
21
-20.3258815805
31
0.0000000000
11
-10.9971721925
21
-20.3305306493
31
0.0000000000
11
-10.9812253686
21
-20.3351102534
31
0.0000000000
11
-10.9595500774
21
-20.3395863073
31
0.0000000000
11
-10.9323076461
21
-20.3439254960
31
0.0000000000
11
-10.8997008376
21
-20.3480955235
31
0.0000000000
11
-10.8619723414
21
-20.3520653525
31
0.0000000000
11
-10.8194029674
21
-20.3558054361
31
0.0000000000
11
-10.7723095555
21
-20.3592879370
31
0.0000000000
11
-10.7210426177
21
-20.3624869353
31
0.0000000000
11
-10.6659837292
21
-20.3653786213
31
0.0000000000
11
-10.6075426882
21
-20.3679414723
31
0.0000000000
11
-10.5461544662
21
-20.3701564132
31
0.0000000000
11
-10.4822759702
21
-20.3720069586
31
0.0000000000
11
-10.4163826418
21
-20.3734793348
31
0.0000000000
11
-10.3489649193
21
-20.3745625832
31
0.0000000000
11
-10.2805245867
21
-20.3752486413
31
0.0000000000
11
-10.2115710390
21
-20.3755324027
31
0.0000000000
0
SPLINE
5
355
100
AcDbEntity
8
0
100
AcDbSpline
62
9
6
CONTINUOUS
70
0
71
3
72
14
73
10
74
8
42
0.0000001000
43
0.0000001000
44
0.0000000001
12
0.0237310544
22
19.9711883004
32
0.0000000000
13
0.0004077843
23
19.9712023956
33
0.0000000000
40
0.0000000000
40
0.0000000000
40
0.0000000000
40
0.0000000000
40
0.1426835130
40
0.2854464979
40
0.4282761006
40
0.5711592846
40
0.7140830591
40
0.8570344303
40
1.0000000000
40
1.0000000000
40
1.0000000000
40
1.0000000000
10
-11.0114491951
20
-20.3211976496
30
0.0000000000
10
-11.0103205184
20
-19.3713445479
30
0.0000000000
10
-11.0082215796
20
-17.4711091017
30
0.0000000000
10
-11.0055489077
20
-14.6200474458
30
0.0000000000
10
-11.0033512425
20
-11.7676561594
30
0.0000000000
10
-11.0016287820
20
-8.9141941601
30
0.0000000000
10
-11.0003816832
20
-6.0599212914
30
0.0000000000
10
-10.9996100596
20
-3.2050998085
30
0.0000000000
10
-10.9994126768
20
-1.3017314426
30
0.0000000000
10
-10.9993932438
20
-0.3500000000
30
0.0000000000
11
-11.0114491951
21
-20.3211976496
31
0.0000000000
11
-11.0083015197
21
-17.4716380712
31
0.0000000000
11
-11.0056286458
21
-14.6204908562
31
0.0000000000
11
-11.0034308134
21
-11.7680127998
31
0.0000000000
11
-11.0017082223
21
-8.9144643318
31
0.0000000000
11
-11.0004610288
21
-6.0601049774
31
0.0000000000
11
-10.9996893459
21
-3.2051943131
31
0.0000000000
11
-10.9993932438
21
-0.3500000000
31
0.0000000000
0
SPLINE
5
356
100
AcDbEntity
8
0
100
AcDbSpline
62
9
6
CONTINUOUS
70
0
71
3
72
28
73
24
74
22
42
0.0000001000
43
0.0000001000
44
0.0000000001
12
0.4614786011
22
0.4615965528
32
0.0000000000
13
0.0007756531
23
0.6527122453
33
0.0000000000
40
0.0000000000
40
0.0000000000
40
0.0000000000
40
0.0000000000
40
0.0042159116
40
0.0136540271
40
0.0283537886
40
0.0482598321
40
0.0732794116
40
0.1032908402
40
0.1381458205
40
0.1776712268
40
0.2216701262
40
0.2699231316
40
0.3221892247
40
0.3782074231
40
0.4376977031
40
0.5003629173
40
0.5658898087
40
0.6339508908
40
0.7042057217
40
0.7763033781
40
0.8498834884
40
0.9245776685
40
1.0000000000
40
1.0000000000
40
1.0000000000
40
1.0000000000
10
-11.0234262834
20
-20.9735481273
30
0.0000000000
10
-11.0227777657
20
-20.9728994438
30
0.0000000000
10
-11.0224567548
20
-20.9696524316
30
0.0000000000
10
-11.0214411602
20
-20.9637983413
30
0.0000000000
10
-11.0207751724
20
-20.9541080761
30
0.0000000000
10
-11.0199144070
20
-20.9412186376
30
0.0000000000
10
-11.0191386489
20
-20.9249114830
30
0.0000000000
10
-11.0183510413
20
-20.9053781106
30
0.0000000000
10
-11.0175960757
20
-20.8826753793
30
0.0000000000
10
-11.0168655579
20
-20.8569305951
30
0.0000000000
10
-11.0161682014
20
-20.8282678456
30
0.0000000000
10
-11.0155065541
20
-20.7968319300
30
0.0000000000
10
-11.0148846532
20
-20.7627795856
30
0.0000000000
10
-11.0143056803
20
-20.7262812893
30
0.0000000000
10
-11.0137727136
20
-20.6875195144
30
0.0000000000
10
-11.0132885109
20
-20.6466881380
30
0.0000000000
10
-11.0128555734
20
-20.6039913303
30
0.0000000000
10
-11.0124761232
20
-20.5596426736
30
0.0000000000
10
-11.0121521011
20
-20.5138639344
30
0.0000000000
10
-11.0118851593
20
-20.4668840283
30
0.0000000000
10
-11.0116766582
20
-20.4189379445
30
0.0000000000
10
-11.0115276631
20
-20.3702682843
30
0.0000000000
10
-11.0114686956
20
-20.3376073427
30
0.0000000000
10
-11.0114491951
20
-20.3211976496
30
0.0000000000
11
-11.0234262834
21
-20.9735481273
31
0.0000000000
11
-11.0225635085
21
-20.9709351008
31
0.0000000000
11
-11.0217060076
21
-20.9648346952
31
0.0000000000
11
-11.0208581723
21
-20.9552775069
31
0.0000000000
11
-11.0200242495
21
-20.9423113688
31
0.0000000000
11
-11.0192084096
21
-20.9260011628
31
0.0000000000
11
-11.0184147299
21
-20.9064284074
31
0.0000000000
11
-11.0176471826
21
-20.8836910703
31
0.0000000000
11
-11.0169096060
21
-20.8579028810
31
0.0000000000
11
-11.0162056893
21
-20.8291928684
31
0.0000000000
11
-11.0155389512
21
-20.7977045767
31
0.0000000000
11
-11.0149127276
21
-20.7635955817
31
0.0000000000
11
-11.0143301487
21
-20.7270364333
31
0.0000000000
11
-11.0137941290
21
-20.6882100715
31
0.0000000000
11
-11.0133073471
21
-20.6473105867
31
0.0000000000
11
-11.0128722377
21
-20.6045425653
31
0.0000000000
11
-11.0124909759
21
-20.5601198683
31
0.0000000000
11
-11.0121654691
21
-20.5142648028
31
0.0000000000
11
-11.0118973431
21
-20.4672065103
31
0.0000000000
11
-11.0116879388
21
-20.4191802938
31
0.0000000000
11
-11.0115383036
21
-20.3704266831
31
0.0000000000
11
-11.0114491951
21
-20.3211976496
31
0.0000000000
0
SPLINE
5
357
100
AcDbEntity
8
0
100
AcDbSpline
62
9
6
CONTINUOUS
70
0
71
3
72
28
73
24
74
22
42
0.0000001000
43
0.0000001000
44
0.0000000001
12
0.5910385244
22
1.2669875840
32
0.0000000000
13
0.0007751838
23
1.3980641882
33
0.0000000000
40
0.0000000000
40
0.0000000000
40
0.0000000000
40
0.0000000000
40
0.0040531448
40
0.0134239625
40
0.0280854172
40
0.0479681010
40
0.0729740383
40
0.1029789800
40
0.1378331633
40
0.1773625184
40
0.2213694488
40
0.2696340806
40
0.3219149984
40
0.3779508782
40
0.4374613936
40
0.5001491190
40
0.5657005351
40
0.6337879038
40
0.7040705370
40
0.7761972715
40
0.8498074910
40
0.9245325829
40
1.0000000000
40
1.0000000000
40
1.0000000000
40
1.0000000000
10
-10.2235481273
20
-21.7734262834
30
0.0000000000
10
-10.2227496057
20
-21.7717145220
30
0.0000000000
10
-10.2227311695
20
-21.7652219600
30
0.0000000000
10
-10.2214708872
20
-21.7523711764
30
0.0000000000
10
-10.2209363364
20
-21.7318078537
30
0.0000000000
10
-10.2200205742
20
-21.7041153688
30
0.0000000000
10
-10.2192658273
20
-21.6692042898
30
0.0000000000
10
-10.2184709212
20
-21.6273387700
30
0.0000000000
10
-10.2177184644
20
-21.5786952075
30
0.0000000000
10
-10.2169871730
20
-21.5235281831
30
0.0000000000
10
-10.2162900878
20
-21.4621098416
30
0.0000000000
10
-10.2156283779
20
-21.3947485759
30
0.0000000000
10
-10.2150065122
20
-21.3217808809
30
0.0000000000
10
-10.2144275414
20
-21.2435718848
30
0.0000000000
10
-10.2138945835
20
-21.1605126545
30
0.0000000000
10
-10.2134103850
20
-21.0730186139
30
0.0000000000
10
-10.2129774499
20
-20.9815272606
30
0.0000000000
10
-10.2125980015
20
-20.8864962517
30
0.0000000000
10
-10.2122739758
20
-20.7884007814
30
0.0000000000
10
-10.2120070359
20
-20.6877313635
30
0.0000000000
10
-10.2117985216
20
-20.5849915224
30
0.0000000000
10
-10.2116495227
20
-20.4806947470
30
0.0000000000
10
-10.2115905393
20
-20.4107018337
30
0.0000000000
10
-10.2115710390
20
-20.3755324027
30
0.0000000000
11
-10.2235481273
21
-21.7734262834
31
0.0000000000
11
-10.2226852385
21
-21.7678258106
31
0.0000000000
11
-10.2218277813
21
-21.7547528941
31
0.0000000000
11
-10.2209799438
21
-21.7342727781
31
0.0000000000
11
-10.2201460390
21
-21.7064880168
31
0.0000000000
11
-10.2193302096
21
-21.6715376266
31
0.0000000000
11
-10.2185365427
21
-21.6295962943
31
0.0000000000
11
-10.2177690069
21
-21.5808739466
31
0.0000000000
11
-10.2170314414
21
-21.5256142844
31
0.0000000000
11
-10.2163275349
21
-21.4640937884
31
0.0000000000
11
-10.2156608060
21
-21.3966200186
31
0.0000000000
11
-10.2150345902
21
-21.3235306112
31
0.0000000000
11
-10.2144520177
21
-21.2451910083
31
0.0000000000
11
-10.2139160028
21
-21.1619932019
31
0.0000000000
11
-10.2134292244
21
-21.0743530763
31
0.0000000000
11
-10.2129941166
21
-20.9827090079
31
0.0000000000
11
-10.2126128551
21
-20.8875192448
31
0.0000000000
11
-10.2122873459
21
-20.7892601364
31
0.0000000000
11
-10.2120192180
21
-20.6884226729
31
0.0000000000
11
-10.2118098057
21
-20.5855110583
31
0.0000000000
11
-10.2116601680
21
-20.4810406744
31
0.0000000000
11
-10.2115710390
21
-20.3755324027
31
0.0000000000
0
SPLINE
5
358
100
AcDbEntity
8
0
100
AcDbSpline
62
9
6
CONTINUOUS
70
0
71
3
72
25
73
21
74
19
42
0.0000001000
43
0.0000001000
44
0.0000000001
12
0.0003825380
22
-1.2559255494
32
0.0000000000
13
1.2559255494
23
-0.0003825380
33
0.0000000000
40
0.0000000000
40
0.0000000000
40
0.0000000000
40
0.0000000000
40
0.0555509015
40
0.1111032549
40
0.1666569937
40
0.2222120092
40
0.2777681538
40
0.3333252460
40
0.3888830752
40
0.4444414086
40
0.4999999980
40
0.5555585874
40
0.6111169209
40
0.6666747504
40
0.7222318429
40
0.7777879881
40
0.8333430041
40
0.8888967435
40
0.9444490977
40
1.0000000000
40
1.0000000000
40
1.0000000000
40
1.0000000000
10
-11.0234262834
20
-20.9735481273
30
0.0000000000
10
-11.0234192000
20
-20.9968040594
30
0.0000000000
10
-11.0213739711
20
-21.0433414415
30
0.0000000000
10
-11.0122365984
20
-21.1125951040
30
0.0000000000
10
-10.9970991688
20
-21.1807964136
30
0.0000000000
10
-10.9760768507
20
-21.2474195581
30
0.0000000000
10
-10.9493295783
20
-21.3119595639
30
0.0000000000
10
-10.9170608387
20
-21.3739249394
30
0.0000000000
10
-10.8795161221
20
-21.4328444150
30
0.0000000000
10
-10.8369810549
20
-21.4882697228
30
0.0000000000
10
-10.7897792264
20
-21.5397792228
30
0.0000000000
10
-10.7382697267
20
-21.5869810517
30
0.0000000000
10
-10.6828444189
20
-21.6295161194
30
0.0000000000
10
-10.6239249433
20
-21.6670608364
30
0.0000000000
10
-10.5619595675
20
-21.6993295766
30
0.0000000000
10
-10.4974195614
20
-21.7260768495
30
0.0000000000
10
-10.4307964162
20
-21.7470991681
30
0.0000000000
10
-10.3625951059
20
-21.7622365981
30
0.0000000000
10
-10.2933414425
20
-21.7713739710
30
0.0000000000
10
-10.2468040598
20
-21.7734192000
30
0.0000000000
10
-10.2235481273
20
-21.7734262834
30
0.0000000000
11
-11.0234262834
21
-20.9735481273
31
0.0000000000
11
-11.0203624553
21
-21.0432486211
31
0.0000000000
11
-11.0112367392
21
-21.1124188577
31
0.0000000000
11
-10.9961185603
21
-21.1805326139
31
0.0000000000
11
-10.9751229326
21
-21.2470717037
31
0.0000000000
11
-10.9484095834
21
-21.3115299208
31
0.0000000000
11
-10.9161817388
21
-21.3734168892
31
0.0000000000
11
-10.8786845769
21
-21.4322617943
31
0.0000000000
11
-10.8362033632
21
-21.4876169644
31
0.0000000000
11
-10.7890612801
21
-21.5390612765
31
0.0000000000
11
-10.7376169683
21
-21.5862033600
31
0.0000000000
11
-10.6822617983
21
-21.6286845741
31
0.0000000000
11
-10.6234168931
21
-21.6661817365
31
0.0000000000
11
-10.5615299244
21
-21.6984095817
31
0.0000000000
11
-10.4970717070
21
-21.7251229314
31
0.0000000000
11
-10.4305326166
21
-21.7461185596
31
0.0000000000
11
-10.3624188596
21
-21.7612367388
31
0.0000000000
11
-10.2932486221
21
-21.7703624552
31
0.0000000000
11
-10.2235481273
21
-21.7734262834
31
0.0000000000
0
SPLINE
5
359
100
AcDbEntity
8
0
100
AcDbSpline
62
9
6
CONTINUOUS
70
0
71
3
72
28
73
24
74
22
42
0.0000001000
43
0.0000001000
44
0.0000000001
12
-0.4614703308
22
-0.4616048229
32
0.0000000000
13
-0.0007756460
23
-0.6527122468
33
0.0000000000
40
0.0000000000
40
0.0000000000
40
0.0000000000
40
0.0000000000
40
0.0042155890
40
0.0136534542
40
0.0283529467
40
0.0482587206
40
0.0732780271
40
0.1032891817
40
0.1381438870
40
0.1776690194
40
0.2216676500
40
0.2699204100
40
0.3221862924
40
0.3782043212
40
0.4376944720
40
0.5003595809
40
0.5658863869
40
0.6339474026
40
0.7042021863
40
0.7762998203
40
0.8498799210
40
0.9245741143
40
1.0000000000
40
1.0000000000
40
1.0000000000
40
1.0000000000
10
11.0234262834
20
20.9735481273
30
0.0000000000
10
11.0227778270
20
20.9728994819
30
0.0000000000
10
11.0224567558
20
20.9696526489
30
0.0000000000
10
11.0214412144
20
20.9637987078
30
0.0000000000
10
11.0207752051
20
20.9541086304
30
0.0000000000
10
11.0199144496
20
20.9412193624
30
0.0000000000
10
11.0191386879
20
20.9249123880
30
0.0000000000
10
11.0183510811
20
20.9053791938
30
0.0000000000
10
11.0175961144
20
20.8826766418
30
0.0000000000
10
11.0168655958
20
20.8569320355
30
0.0000000000
10
11.0161682379
20
20.8282694575
30
0.0000000000
10
11.0155065888
20
20.7968336996
30
0.0000000000
10
11.0148846856
20
20.7627814913
30
0.0000000000
10
11.0143057101
20
20.7262833058
30
0.0000000000
10
11.0137727405
20
20.6875216188
30
0.0000000000
10
11.0132885347
20
20.6466903119
30
0.0000000000
10
11.0128555941
20
20.6039935602
30
0.0000000000
10
11.0124761409
20
20.5596449467
30
0.0000000000
10
11.0121521157
20
20.5138662370
30
0.0000000000
10
11.0118851709
20
20.4668863480
30
0.0000000000
10
11.0116766667
20
20.4189402683
30
0.0000000000
10
11.0115276666
20
20.3702698339
30
0.0000000000
10
11.0114686964
20
20.3376081161
30
0.0000000000
10
11.0114491951
20
20.3211976496
30
0.0000000000
11
11.0234262834
21
20.9735481273
31
0.0000000000
11
11.0225635492
21
20.9709353090
31
0.0000000000
11
11.0217060486
21
20.9648350684
31
0.0000000000
11
11.0208582134
21
20.9552780563
31
0.0000000000
11
11.0200242905
21
20.9423120945
31
0.0000000000
11
11.0192084502
21
20.9260020670
31
0.0000000000
11
11.0184147699
21
20.9064294905
31
0.0000000000
11
11.0176472218
21
20.8836923330
31
0.0000000000
11
11.0169096441
21
20.8579043226
31
0.0000000000
11
11.0162057261
21
20.8291944854
31
0.0000000000
11
11.0155389863
21
20.7977063538
31
0.0000000000
11
11.0149127603
21
20.7635974964
31
0.0000000000
11
11.0143301788
21
20.7270384587
31
0.0000000000
11
11.0137941560
21
20.6882121811
31
0.0000000000
11
11.0133073711
21
20.6473127650
31
0.0000000000
11
11.0128722586
21
20.6045447993
31
0.0000000000
11
11.0124909937
21
20.5601221456
31
0.0000000000
11
11.0121654838
21
20.5142671108
31
0.0000000000
11
11.0118973547
21
20.4672088328
31
0.0000000000
11
11.0116879474
21
20.4191826225
31
0.0000000000
11
11.0115383093
21
20.3704290031
31
0.0000000000
11
11.0114491951
21
20.3211976496
31
0.0000000000
0
SPLINE
5
35A
100
AcDbEntity
8
0
100
AcDbSpline
62
9
6
CONTINUOUS
70
0
71
3
72
28
73
24
74
22
42
0.0000001000
43
0.0000001000
44
0.0000000001
12
-0.5910541300
22
-1.2669803033
32
0.0000000000
13
-0.0007751169
23
-1.3980641876
33
0.0000000000
40
0.0000000000
40
0.0000000000
40
0.0000000000
40
0.0000000000
40
0.0040531425
40
0.0134239590
40
0.0280854129
40
0.0479680948
40
0.0729740315
40
0.1029789728
40
0.1378331548
40
0.1773625083
40
0.2213694381
40
0.2696340694
40
0.3219149864
40
0.3779508653
40
0.4374613796
40
0.5001491055
40
0.5657005217
40
0.6337878888
40
0.7040705197
40
0.7761972566
40
0.8498074732
40
0.9245325642
40
1.0000000000
40
1.0000000000
40
1.0000000000
40
1.0000000000
10
10.2235481273
20
21.7734262834
30
0.0000000000
10
10.2227495851
20
21.7717145328
30
0.0000000000
10
10.2227312025
20
21.7652219505
30
0.0000000000
10
10.2214708732
20
21.7523711872
30
0.0000000000
10
10.2209363489
20
21.7318078568
30
0.0000000000
10
10.2200205750
20
21.7041153774
30
0.0000000000
10
10.2192658329
20
21.6692042982
30
0.0000000000
10
10.2184709251
20
21.6273387799
30
0.0000000000
10
10.2177184689
20
21.5786952189
30
0.0000000000
10
10.2169871773
20
21.5235281962
30
0.0000000000
10
10.2162900922
20
21.4621098560
30
0.0000000000
10
10.2156283821
20
21.3947485912
30
0.0000000000
10
10.2150065160
20
21.3217808973
30
0.0000000000
10
10.2144275449
20
21.2435719026
30
0.0000000000
10
10.2138945865
20
21.1605126730
30
0.0000000000
10
10.2134103876
20
21.0730186326
30
0.0000000000
10
10.2129774521
20
20.9815272799
30
0.0000000000
10
10.2125980034
20
20.8864962727
30
0.0000000000
10
10.2122739770
20
20.7884008032
30
0.0000000000
10
10.2120070375
20
20.6877313867
30
0.0000000000
10
10.2117985214
20
20.5849915463
30
0.0000000000
10
10.2116495247
20
20.4806947640
30
0.0000000000
10
10.2115905377
20
20.4107018425
30
0.0000000000
10
10.2115710390
20
20.3755324027
30
0.0000000000
11
10.2235481273
21
21.7734262834
31
0.0000000000
11
10.2226852433
21
21.7678258131
31
0.0000000000
11
10.2218277845
21
21.7547528985
31
0.0000000000
11
10.2209799481
21
21.7342727835
31
0.0000000000
11
10.2201460431
21
21.7064880250
31
0.0000000000
11
10.2193302139
21
21.6715376354
31
0.0000000000
11
10.2185365470
21
21.6295963038
31
0.0000000000
11
10.2177690113
21
21.5808739579
31
0.0000000000
11
10.2170314458
21
21.5256142980
31
0.0000000000
11
10.2163275393
21
21.4640938028
31
0.0000000000
11
10.2156608102
21
21.3966200338
31
0.0000000000
11
10.2150345941
21
21.3235306274
31
0.0000000000
11
10.2144520212
21
21.2451910261
31
0.0000000000
11
10.2139160059
21
21.1619932211
31
0.0000000000
11
10.2134292270
21
21.0743530948
31
0.0000000000
11
10.2129941188
21
20.9827090263
31
0.0000000000
11
10.2126128569
21
20.8875192655
31
0.0000000000
11
10.2122873473
21
20.7892601604
31
0.0000000000
11
10.2120192192
21
20.6884226935
31
0.0000000000
11
10.2118098062
21
20.5855110831
31
0.0000000000
11
10.2116601688
21
20.4810407006
31
0.0000000000
11
10.2115710390
21
20.3755324027
31
0.0000000000
0
SPLINE
5
35B
100
AcDbEntity
8
0
100
AcDbSpline
62
9
6
CONTINUOUS
70
0
71
3
72
25
73
21
74
19
42
0.0000001000
43
0.0000001000
44
0.0000000001
12
-0.0003825380
22
1.2559255494
32
0.0000000000
13
-1.2559255494
23
0.0003825380
33
0.0000000000
40
0.0000000000
40
0.0000000000
40
0.0000000000
40
0.0000000000
40
0.0555509011
40
0.1111032543
40
0.1666569928
40
0.2222120080
40
0.2777681525
40
0.3333252446
40
0.3888830737
40
0.4444414071
40
0.4999999964
40
0.5555585859
40
0.6111169195
40
0.6666747491
40
0.7222318418
40
0.7777879871
40
0.8333430033
40
0.8888967430
40
0.9444490974
40
1.0000000000
40
1.0000000000
40
1.0000000000
40
1.0000000000
10
11.0234262834
20
20.9735481273
30
0.0000000000
10
11.0234192000
20
20.9968040593
30
0.0000000000
10
11.0213739711
20
21.0433414411
30
0.0000000000
10
11.0122365985
20
21.1125951032
30
0.0000000000
10
10.9970991691
20
21.1807964124
30
0.0000000000
10
10.9760768511
20
21.2474195568
30
0.0000000000
10
10.9493295790
20
21.3119595624
30
0.0000000000
10
10.9170608396
20
21.3739249379
30
0.0000000000
10
10.8795161232
20
21.4328444134
30
0.0000000000
10
10.8369810561
20
21.4882697214
30
0.0000000000
10
10.7897792278
20
21.5397792215
30
0.0000000000
10
10.7382697281
20
21.5869810505
30
0.0000000000
10
10.6828444204
20
21.6295161184
30
0.0000000000
10
10.6239249447
20
21.6670608357
30
0.0000000000
10
10.5619595688
20
21.6993295760
30
0.0000000000
10
10.4974195625
20
21.7260768491
30
0.0000000000
10
10.4307964171
20
21.7470991679
30
0.0000000000
10
10.3625951065
20
21.7622365980
30
0.0000000000
10
10.2933414428
20
21.7713739710
30
0.0000000000
10
10.2468040599
20
21.7734192000
30
0.0000000000
10
10.2235481273
20
21.7734262834
30
0.0000000000
11
11.0234262834
21
20.9735481273
31
0.0000000000
11
11.0203624553
21
21.0432486206
31
0.0000000000
11
11.0112367393
21
21.1124188569
31
0.0000000000
11
10.9961185606
21
21.1805326128
31
0.0000000000
11
10.9751229331
21
21.2470717024
31
0.0000000000
11
10.9484095841
21
21.3115299193
31
0.0000000000
11
10.9161817397
21
21.3734168876
31
0.0000000000
11
10.8786845780
21
21.4322617928
31
0.0000000000
11
10.8362033645
21
21.4876169630
31
0.0000000000
11
10.7890612815
21
21.5390612751
31
0.0000000000
11
10.7376169697
21
21.5862033588
31
0.0000000000
11
10.6822617997
21
21.6286845731
31
0.0000000000
11
10.6234168945
21
21.6661817357
31
0.0000000000
11
10.5615299257
21
21.6984095811
31
0.0000000000
11
10.4970717081
21
21.7251229310
31
0.0000000000
11
10.4305326175
21
21.7461185594
31
0.0000000000
11
10.3624188603
21
21.7612367387
31
0.0000000000
11
10.2932486224
21
21.7703624552
31
0.0000000000
11
10.2235481273
21
21.7734262834
31
0.0000000000
0
SPLINE
5
35C
100
AcDbEntity
8
0
100
AcDbSpline
62
9
6
CONTINUOUS
70
0
71
3
72
14
73
10
74
8
42
0.0000001000
43
0.0000001000
44
0.0000000001
12
-0.0237318869
22
-20.0252896017
32
0.0000000000
13
-0.0004069825
23
-20.0253036598
33
0.0000000000
40
0.0000000000
40
0.0000000000
40
0.0000000000
40
0.0000000000
40
0.1426832391
40
0.2854461161
40
0.4282756348
40
0.5711587914
40
0.7140825785
40
0.8570339855
40
1.0000000000
40
1.0000000000
40
1.0000000000
40
1.0000000000
10
10.2115710390
20
20.3755324027
30
0.0000000000
10
10.2104423248
20
19.4231080079
30
0.0000000000
10
10.2083432501
20
17.5177274357
30
0.0000000000
10
10.2056708283
20
14.6589454597
30
0.0000000000
10
10.2034719647
20
11.7988286082
30
0.0000000000
10
10.2017538371
20
8.9376373393
30
0.0000000000
10
10.2004905800
20
6.0756322094
30
0.0000000000
10
10.1997794489
20
3.2130738183
30
0.0000000000
10
10.1994317600
20
1.3045461067
30
0.0000000000
10
10.1994123651
20
0.3502334887
30
0.0000000000
11
10.2115710390
21
20.3755324027
31
0.0000000000
11
10.2084232671
21
17.5182589458
31
0.0000000000
11
10.2057503254
21
14.6593902323
31
0.0000000000
11
10.2035524575
21
11.7991865923
31
0.0000000000
11
10.2018298631
21
8.9379085106
31
0.0000000000
11
10.2005826992
21
6.0758165458
31
0.0000000000
11
10.1998110792
21
3.2131713158
31
0.0000000000
11
10.1994123651
21
0.3502334887
31
0.0000000000
0
SPLINE
5
35D
100
AcDbEntity
8
0
100
AcDbSpline
62
9
6
CONTINUOUS
70
0
71
3
72
25
73
21
74
19
42
0.0000001000
43
0.0000001000
44
0.0000000001
12
-0.2000154144
22
0.7803079050
32
0.0000000000
13
-0.8055344094
23
0.0009527726
33
0.0000000000
40
0.0000000000
40
0.0000000000
40
0.0000000000
40
0.0000000000
40
0.0077912118
40
0.0215936197
40
0.0421903447
40
0.0696660356
40
0.1039114029
40
0.1447195327
40
0.1918146647
40
0.2448643258
40
0.3034862371
40
0.3672533602
40
0.4356982739
40
0.5083173545
40
0.5845749592
40
0.6639076977
40
0.7457288209
40
0.8294327281
40
0.9143995806
40
1.0000000000
40
1.0000000000
40
1.0000000000
40
1.0000000000
10
11.0114491951
20
20.3211976496
30
0.0000000000
10
11.0109297409
20
20.3232241643
30
0.0000000000
10
11.0059047676
20
20.3272604085
30
0.0000000000
10
10.9956102487
20
20.3313160910
30
0.0000000000
10
10.9794414411
20
20.3357857000
30
0.0000000000
10
10.9578032740
20
20.3400666356
30
0.0000000000
10
10.9305783358
20
20.3443234057
30
0.0000000000
10
10.8980396259
20
20.3484141348
30
0.0000000000
10
10.8603908297
20
20.3523306175
30
0.0000000000
10
10.8179197474
20
20.3560265413
30
0.0000000000
10
10.7709373471
20
20.3594743668
30
0.0000000000
10
10.7197935232
20
20.3626449281
30
0.0000000000
10
10.6648680555
20
20.3655134125
30
0.0000000000
10
10.6065695157
20
20.3680572831
30
0.0000000000
10
10.5453315619
20
20.3702568783
30
0.0000000000
10
10.4816098377
20
20.3720952768
30
0.0000000000
10
10.4158785067
20
20.3735584138
30
0.0000000000
10
10.3486267097
20
20.3746351306
30
0.0000000000
10
10.2803549589
20
20.3753172368
30
0.0000000000
10
10.2345557334
20
20.3755052168
30
0.0000000000
10
10.2115710390
20
20.3755324027
30
0.0000000000
11
11.0114491951
21
20.3211976496
31
0.0000000000
11
11.0072718583
21
20.3258815805
31
0.0000000000
11
10.9971721925
21
20.3305306493
31
0.0000000000
11
10.9812253686
21
20.3351102534
31
0.0000000000
11
10.9595500774
21
20.3395863073
31
0.0000000000
11
10.9323076461
21
20.3439254960
31
0.0000000000
11
10.8997008376
21
20.3480955235
31
0.0000000000
11
10.8619723414
21
20.3520653526
31
0.0000000000
11
10.8194029674
21
20.3558054361
31
0.0000000000
11
10.7723095555
21
20.3592879370
31
0.0000000000
11
10.7210426177
21
20.3624869353
31
0.0000000000
11
10.6659837292
21
20.3653786213
31
0.0000000000
11
10.6075426882
21
20.3679414723
31
0.0000000000
11
10.5461544662
21
20.3701564132
31
0.0000000000
11
10.4822759702
21
20.3720069586
31
0.0000000000
11
10.4163826418
21
20.3734793348
31
0.0000000000
11
10.3489649193
21
20.3745625832
31
0.0000000000
11
10.2805245867
21
20.3752486413
31
0.0000000000
11
10.2115710390
21
20.3755324027
31
0.0000000000
0
SPLINE
5
35E
100
AcDbEntity
8
0
100
AcDbSpline
62
9
6
CONTINUOUS
70
0
71
3
72
14
73
10
74
8
42
0.0000001000
43
0.0000001000
44
0.0000000001
12
-0.0237310545
22
-19.9711883004
32
0.0000000000
13
-0.0004077843
23
-19.9712023956
33
0.0000000000
40
0.0000000000
40
0.0000000000
40
0.0000000000
40
0.0000000000
40
0.1426835188
40
0.2854465032
40
0.4282761047
40
0.5711592877
40
0.7140830611
40
0.8570344313
40
1.0000000000
40
1.0000000000
40
1.0000000000
40
1.0000000000
10
11.0114491951
20
20.3211976496
30
0.0000000000
10
11.0103205183
20
19.3713445091
30
0.0000000000
10
11.0082215795
20
17.4711090282
30
0.0000000000
10
11.0055489077
20
14.6200473449
30
0.0000000000
10
11.0033512425
20
11.7676560767
30
0.0000000000
10
11.0016287820
20
8.9141940984
30
0.0000000000
10
11.0003816832
20
6.0599212502
30
0.0000000000
10
10.9996100596
20
3.2050997879
30
0.0000000000
10
10.9994126768
20
1.3017314358
30
0.0000000000
10
10.9993932438
20
0.3500000000
30
0.0000000000
11
11.0114491951
21
20.3211976496
31
0.0000000000
11
11.0083015196
21
17.4716379549
31
0.0000000000
11
11.0056286457
21
14.6204907520
31
0.0000000000
11
11.0034308133
21
11.7680127175
31
0.0000000000
11
11.0017082222
21
8.9144642701
31
0.0000000000
11
11.0004610288
21
6.0601049362
31
0.0000000000
11
10.9996893459
21
3.2051942925
31
0.0000000000
11
10.9993932438
21
0.3500000000
31
0.0000000000
0
SPLINE
5
35F
100
AcDbEntity
8
0
100
AcDbSpline
62
9
6
CONTINUOUS
70
0
71
3
72
14
73
10
74
8
42
0.0000001000
43
0.0000001000
44
0.0000000001
12
0.0004077843
22
-19.9712023956
32
0.0000000000
13
0.0237310544
23
-19.9711883004
33
0.0000000000
40
0.0000000000
40
0.0000000000
40
0.0000000000
40
0.0000000000
40
0.1429655697
40
0.2859169409
40
0.4288407154
40
0.5717238994
40
0.7145535021
40
0.8573164870
40
1.0000000000
40
1.0000000000
40
1.0000000000
40
1.0000000000
10
10.9993932438
20
-0.3500000000
30
0.0000000000
10
10.9994126768
20
-1.3017314426
30
0.0000000000
10
10.9996100596
20
-3.2050998085
30
0.0000000000
10
11.0003816832
20
-6.0599212914
30
0.0000000000
10
11.0016287820
20
-8.9141941601
30
0.0000000000
10
11.0033512425
20
-11.7676561594
30
0.0000000000
10
11.0055489077
20
-14.6200474458
30
0.0000000000
10
11.0082215796
20
-17.4711091017
30
0.0000000000
10
11.0103205184
20
-19.3713445479
30
0.0000000000
10
11.0114491951
20
-20.3211976496
30
0.0000000000
11
10.9993932438
21
-0.3500000000
31
0.0000000000
11
10.9996893459
21
-3.2051943131
31
0.0000000000
11
11.0004610288
21
-6.0601049774
31
0.0000000000
11
11.0017082223
21
-8.9144643318
31
0.0000000000
11
11.0034308134
21
-11.7680127998
31
0.0000000000
11
11.0056286458
21
-14.6204908562
31
0.0000000000
11
11.0083015197
21
-17.4716380712
31
0.0000000000
11
11.0114491951
21
-20.3211976496
31
0.0000000000
0
SPLINE
5
360
100
AcDbEntity
8
0
100
AcDbSpline
62
9
6
CONTINUOUS
70
0
71
3
72
14
73
10
74
8
42
0.0000001000
43
0.0000001000
44
0.0000000001
12
0.0004069825
22
-20.0253036597
32
0.0000000000
13
0.0237318868
23
-20.0252896016
33
0.0000000000
40
0.0000000000
40
0.0000000000
40
0.0000000000
40
0.0000000000
40
0.1429660145
40
0.2859174215
40
0.4288412086
40
0.5717243652
40
0.7145538839
40
0.8573167609
40
1.0000000000
40
1.0000000000
40
1.0000000000
40
1.0000000000
10
10.1994130672
20
-0.3502334887
30
0.0000000000
10
10.1994324621
20
-1.3045461067
30
0.0000000000
10
10.1997791231
20
-3.2130738184
30
0.0000000000
10
10.2004906673
20
-6.0756322093
30
0.0000000000
10
10.2017538137
20
-8.9376373393
30
0.0000000000
10
10.2034719710
20
-11.7988286082
30
0.0000000000
10
10.2056708266
20
-14.6589454596
30
0.0000000000
10
10.2083432506
20
-17.5177274356
30
0.0000000000
10
10.2104423248
20
-19.4231080079
30
0.0000000000
10
10.2115710390
20
-20.3755324027
30
0.0000000000
11
10.1994130672
21
-0.3502334887
31
0.0000000000
11
10.1998110792
21
-3.2131713158
31
0.0000000000
11
10.2005826992
21
-6.0758165458
31
0.0000000000
11
10.2018298631
21
-8.9379085106
31
0.0000000000
11
10.2035524575
21
-11.7991865922
31
0.0000000000
11
10.2057503254
21
-14.6593902322
31
0.0000000000
11
10.2084232671
21
-17.5182589458
31
0.0000000000
11
10.2115710390
21
-20.3755324027
31
0.0000000000
0
SPLINE
5
361
100
AcDbEntity
8
0
100
AcDbSpline
62
9
6
CONTINUOUS
70
0
71
3
72
28
73
24
74
22
42
0.0000001000
43
0.0000001000
44
0.0000000001
12
0.0007756531
22
-0.6527122453
32
0.0000000000
13
0.4614786015
23
-0.4615965524
33
0.0000000000
40
0.0000000000
40
0.0000000000
40
0.0000000000
40
0.0000000000
40
0.0754223315
40
0.1501165116
40
0.2236966219
40
0.2957942783
40
0.3660491092
40
0.4341101913
40
0.4996370827
40
0.5623022969
40
0.6217925769
40
0.6778107753
40
0.7300768684
40
0.7783298738
40
0.8223287732
40
0.8618541795
40
0.8967091598
40
0.9267205884
40
0.9517401679
40
0.9716462114
40
0.9863459729
40
0.9957840884
40
1.0000000000
40
1.0000000000
40
1.0000000000
40
1.0000000000
10
11.0114491951
20
-20.3211976496
30
0.0000000000
10
11.0114686956
20
-20.3376073427
30
0.0000000000
10
11.0115276631
20
-20.3702682843
30
0.0000000000
10
11.0116766582
20
-20.4189379445
30
0.0000000000
10
11.0118851593
20
-20.4668840283
30
0.0000000000
10
11.0121521011
20
-20.5138639344
30
0.0000000000
10
11.0124761232
20
-20.5596426736
30
0.0000000000
10
11.0128555734
20
-20.6039913303
30
0.0000000000
10
11.0132885109
20
-20.6466881380
30
0.0000000000
10
11.0137727136
20
-20.6875195144
30
0.0000000000
10
11.0143056803
20
-20.7262812893
30
0.0000000000
10
11.0148846532
20
-20.7627795856
30
0.0000000000
10
11.0155065541
20
-20.7968319300
30
0.0000000000
10
11.0161682014
20
-20.8282678456
30
0.0000000000
10
11.0168655579
20
-20.8569305951
30
0.0000000000
10
11.0175960757
20
-20.8826753793
30
0.0000000000
10
11.0183510413
20
-20.9053781106
30
0.0000000000
10
11.0191386489
20
-20.9249114830
30
0.0000000000
10
11.0199144070
20
-20.9412186376
30
0.0000000000
10
11.0207751724
20
-20.9541080761
30
0.0000000000
10
11.0214411602
20
-20.9637983413
30
0.0000000000
10
11.0224567548
20
-20.9696524316
30
0.0000000000
10
11.0227777657
20
-20.9728994439
30
0.0000000000
10
11.0234262834
20
-20.9735481273
30
0.0000000000
11
11.0114491951
21
-20.3211976496
31
0.0000000000
11
11.0115383036
21
-20.3704266831
31
0.0000000000
11
11.0116879388
21
-20.4191802938
31
0.0000000000
11
11.0118973431
21
-20.4672065103
31
0.0000000000
11
11.0121654691
21
-20.5142648028
31
0.0000000000
11
11.0124909759
21
-20.5601198683
31
0.0000000000
11
11.0128722377
21
-20.6045425653
31
0.0000000000
11
11.0133073471
21
-20.6473105867
31
0.0000000000
11
11.0137941290
21
-20.6882100715
31
0.0000000000
11
11.0143301487
21
-20.7270364333
31
0.0000000000
11
11.0149127276
21
-20.7635955817
31
0.0000000000
11
11.0155389512
21
-20.7977045767
31
0.0000000000
11
11.0162056893
21
-20.8291928684
31
0.0000000000
11
11.0169096060
21
-20.8579028810
31
0.0000000000
11
11.0176471826
21
-20.8836910703
31
0.0000000000
11
11.0184147299
21
-20.9064284074
31
0.0000000000
11
11.0192084096
21
-20.9260011628
31
0.0000000000
11
11.0200242495
21
-20.9423113688
31
0.0000000000
11
11.0208581723
21
-20.9552775069
31
0.0000000000
11
11.0217060076
21
-20.9648346952
31
0.0000000000
11
11.0225635085
21
-20.9709351008
31
0.0000000000
11
11.0234262834
21
-20.9735481273
31
0.0000000000
0
SPLINE
5
362
100
AcDbEntity
8
0
100
AcDbSpline
62
9
6
CONTINUOUS
70
0
71
3
72
28
73
24
74
22
42
0.0000001000
43
0.0000001000
44
0.0000000001
12
0.0007751838
22
-1.3980641882
32
0.0000000000
13
0.5910385239
23
-1.2669875842
33
0.0000000000
40
0.0000000000
40
0.0000000000
40
0.0000000000
40
0.0000000000
40
0.0754674171
40
0.1501925090
40
0.2238027285
40
0.2959294630
40
0.3662120962
40
0.4342994649
40
0.4998508810
40
0.5625386064
40
0.6220491218
40
0.6780850016
40
0.7303659194
40
0.7786305512
40
0.8226374816
40
0.8621668367
40
0.8970210200
40
0.9270259617
40
0.9520318990
40
0.9719145828
40
0.9865760375
40
0.9959468552
40
1.0000000000
40
1.0000000000
40
1.0000000000
40
1.0000000000
10
10.2115710390
20
-20.3755324027
30
0.0000000000
10
10.2115905393
20
-20.4107018337
30
0.0000000000
10
10.2116495227
20
-20.4806947470
30
0.0000000000
10
10.2117985216
20
-20.5849915224
30
0.0000000000
10
10.2120070359
20
-20.6877313635
30
0.0000000000
10
10.2122739758
20
-20.7884007814
30
0.0000000000
10
10.2125980015
20
-20.8864962517
30
0.0000000000
10
10.2129774499
20
-20.9815272606
30
0.0000000000
10
10.2134103850
20
-21.0730186139
30
0.0000000000
10
10.2138945835
20
-21.1605126545
30
0.0000000000
10
10.2144275414
20
-21.2435718848
30
0.0000000000
10
10.2150065122
20
-21.3217808809
30
0.0000000000
10
10.2156283779
20
-21.3947485759
30
0.0000000000
10
10.2162900878
20
-21.4621098416
30
0.0000000000
10
10.2169871730
20
-21.5235281831
30
0.0000000000
10
10.2177184644
20
-21.5786952075
30
0.0000000000
10
10.2184709212
20
-21.6273387700
30
0.0000000000
10
10.2192658273
20
-21.6692042898
30
0.0000000000
10
10.2200205742
20
-21.7041153688
30
0.0000000000
10
10.2209363364
20
-21.7318078537
30
0.0000000000
10
10.2214708872
20
-21.7523711764
30
0.0000000000
10
10.2227311695
20
-21.7652219600
30
0.0000000000
10
10.2227496057
20
-21.7717145220
30
0.0000000000
10
10.2235481273
20
-21.7734262834
30
0.0000000000
11
10.2115710390
21
-20.3755324027
31
0.0000000000
11
10.2116601680
21
-20.4810406744
31
0.0000000000
11
10.2118098057
21
-20.5855110583
31
0.0000000000
11
10.2120192180
21
-20.6884226729
31
0.0000000000
11
10.2122873459
21
-20.7892601364
31
0.0000000000
11
10.2126128551
21
-20.8875192448
31
0.0000000000
11
10.2129941166
21
-20.9827090079
31
0.0000000000
11
10.2134292244
21
-21.0743530763
31
0.0000000000
11
10.2139160028
21
-21.1619932019
31
0.0000000000
11
10.2144520177
21
-21.2451910083
31
0.0000000000
11
10.2150345902
21
-21.3235306112
31
0.0000000000
11
10.2156608060
21
-21.3966200186
31
0.0000000000
11
10.2163275349
21
-21.4640937884
31
0.0000000000
11
10.2170314414
21
-21.5256142844
31
0.0000000000
11
10.2177690069
21
-21.5808739466
31
0.0000000000
11
10.2185365427
21
-21.6295962943
31
0.0000000000
11
10.2193302096
21
-21.6715376266
31
0.0000000000
11
10.2201460390
21
-21.7064880168
31
0.0000000000
11
10.2209799438
21
-21.7342727781
31
0.0000000000
11
10.2218277813
21
-21.7547528941
31
0.0000000000
11
10.2226852385
21
-21.7678258106
31
0.0000000000
11
10.2235481273
21
-21.7734262834
31
0.0000000000
0
SPLINE
5
363
100
AcDbEntity
8
0
100
AcDbSpline
62
9
6
CONTINUOUS
70
0
71
3
72
25
73
21
74
19
42
0.0000001000
43
0.0000001000
44
0.0000000001
12
-0.2000156316
22
-0.7803078485
32
0.0000000000
13
-0.8055344086
23
-0.0009527724
33
0.0000000000
40
0.0000000000
40
0.0000000000
40
0.0000000000
40
0.0000000000
40
0.0077912128
40
0.0215936220
40
0.0421903481
40
0.0696660399
40
0.1039114080
40
0.1447195384
40
0.1918146708
40
0.2448643321
40
0.3034862433
40
0.3672533662
40
0.4356982796
40
0.5083173596
40
0.5845749637
40
0.6639077015
40
0.7457288238
40
0.8294327301
40
0.9143995816
40
1.0000000000
40
1.0000000000
40
1.0000000000
40
1.0000000000
10
11.0114491951
20
-20.3211976496
30
0.0000000000
10
11.0109297403
20
-20.3232241644
30
0.0000000000
10
11.0059047661
20
-20.3272604081
30
0.0000000000
10
10.9956102463
20
-20.3313160909
30
0.0000000000
10
10.9794414378
20
-20.3357856997
30
0.0000000000
10
10.9578032699
20
-20.3400666352
30
0.0000000000
10
10.9305783310
20
-20.3443234052
30
0.0000000000
10
10.8980396207
20
-20.3484141342
30
0.0000000000
10
10.8603908242
20
-20.3523306168
30
0.0000000000
10
10.8179197418
20
-20.3560265405
30
0.0000000000
10
10.7709373416
20
-20.3594743659
30
0.0000000000
10
10.7197935179
20
-20.3626449271
30
0.0000000000
10
10.6648680505
20
-20.3655134114
30
0.0000000000
10
10.6065695112
20
-20.3680572819
30
0.0000000000
10
10.5453315580
20
-20.3702568770
30
0.0000000000
10
10.4816098344
20
-20.3720952755
30
0.0000000000
10
10.4158785042
20
-20.3735584125
30
0.0000000000
10
10.3486267080
20
-20.3746351292
30
0.0000000000
10
10.2803549580
20
-20.3753172353
30
0.0000000000
10
10.2345557331
20
-20.3755052153
30
0.0000000000
10
10.2115710390
20
-20.3755324012
30
0.0000000000
11
11.0114491951
21
-20.3211976496
31
0.0000000000
11
11.0072718570
21
-20.3258815804
31
0.0000000000
11
10.9971721901
21
-20.3305306491
31
0.0000000000
11
10.9812253652
21
-20.3351102531
31
0.0000000000
11
10.9595500732
21
-20.3395863069
31
0.0000000000
11
10.9323076413
21
-20.3439254956
31
0.0000000000
11
10.8997008323
21
-20.3480955229
31
0.0000000000
11
10.8619723359
21
-20.3520653519
31
0.0000000000
11
10.8194029618
21
-20.3558054353
31
0.0000000000
11
10.7723095500
21
-20.3592879361
31
0.0000000000
11
10.7210426124
21
-20.3624869344
31
0.0000000000
11
10.6659837242
21
-20.3653786202
31
0.0000000000
11
10.6075426837
21
-20.3679414711
31
0.0000000000
11
10.5461544623
21
-20.3701564120
31
0.0000000000
11
10.4822759669
21
-20.3720069572
31
0.0000000000
11
10.4163826393
21
-20.3734793334
31
0.0000000000
11
10.3489649176
21
-20.3745625818
31
0.0000000000
11
10.2805245858
21
-20.3752486398
31
0.0000000000
11
10.2115710390
21
-20.3755324012
31
0.0000000000
0
SPLINE
5
364
100
AcDbEntity
8
0
100
AcDbSpline
62
9
6
CONTINUOUS
70
0
71
3
72
25
73
21
74
19
42
0.0000001000
43
0.0000001000
44
0.0000000001
12
-0.0003825380
22
-1.2559255494
32
0.0000000000
13
-1.2559255494
23
-0.0003825380
33
0.0000000000
40
0.0000000000
40
0.0000000000
40
0.0000000000
40
0.0000000000
40
0.0555509020
40
0.1111032559
40
0.1666569950
40
0.2222120107
40
0.2777681556
40
0.3333252480
40
0.3888830773
40
0.4444414107
40
0.5000000000
40
0.5555585893
40
0.6111169227
40
0.6666747520
40
0.7222318444
40
0.7777879893
40
0.8333430050
40
0.8888967441
40
0.9444490980
40
1.0000000000
40
1.0000000000
40
1.0000000000
40
1.0000000000
10
11.0234262834
20
-20.9735481273
30
0.0000000000
10
11.0234192000
20
-20.9968040596
30
0.0000000000
10
11.0213739710
20
-21.0433414421
30
0.0000000000
10
11.0122365982
20
-21.1125951051
30
0.0000000000
10
10.9970991684
20
-21.1807964151
30
0.0000000000
10
10.9760768500
20
-21.2474195599
30
0.0000000000
10
10.9493295774
20
-21.3119595659
30
0.0000000000
10
10.9170608375
20
-21.3739249415
30
0.0000000000
10
10.8795161207
20
-21.4328444170
30
0.0000000000
10
10.8369810533
20
-21.4882697248
30
0.0000000000
10
10.7897792246
20
-21.5397792246
30
0.0000000000
10
10.7382697248
20
-21.5869810533
30
0.0000000000
10
10.6828444171
20
-21.6295161207
30
0.0000000000
10
10.6239249415
20
-21.6670608375
30
0.0000000000
10
10.5619595659
20
-21.6993295774
30
0.0000000000
10
10.4974195599
20
-21.7260768500
30
0.0000000000
10
10.4307964151
20
-21.7470991684
30
0.0000000000
10
10.3625951051
20
-21.7622365982
30
0.0000000000
10
10.2933414421
20
-21.7713739710
30
0.0000000000
10
10.2468040596
20
-21.7734192000
30
0.0000000000
10
10.2235481273
20
-21.7734262834
30
0.0000000000
11
11.0234262834
21
-20.9735481273
31
0.0000000000
11
11.0203624552
21
-21.0432486217
31
0.0000000000
11
11.0112367390
21
-21.1124188588
31
0.0000000000
11
10.9961185599
21
-21.1805326154
31
0.0000000000
11
10.9751229319
21
-21.2470717055
31
0.0000000000
11
10.9484095825
21
-21.3115299228
31
0.0000000000
11
10.9161817376
21
-21.3734168913
31
0.0000000000
11
10.8786845754
21
-21.4322617964
31
0.0000000000
11
10.8362033615
21
-21.4876169664
31
0.0000000000
11
10.7890612783
21
-21.5390612783
31
0.0000000000
11
10.7376169664
21
-21.5862033615
31
0.0000000000
11
10.6822617964
21
-21.6286845754
31
0.0000000000
11
10.6234168913
21
-21.6661817376
31
0.0000000000
11
10.5615299228
21
-21.6984095825
31
0.0000000000
11
10.4970717055
21
-21.7251229319
31
0.0000000000
11
10.4305326154
21
-21.7461185599
31
0.0000000000
11
10.3624188588
21
-21.7612367390
31
0.0000000000
11
10.2932486217
21
-21.7703624552
31
0.0000000000
11
10.2235481273
21
-21.7734262834
31
0.0000000000
0
SPLINE
5
365
100
AcDbEntity
8
0
100
AcDbSpline
62
9
6
CONTINUOUS
70
0
71
3
72
45
73
41
74
39
42
0.0000001000
43
0.0000001000
44
0.0000000001
12
-0.9446380137
22
-4.2166284796
32
0.0000000000
13
-0.9446379949
23
4.2166284838
33
0.0000000000
40
0.0000000000
40
0.0000000000
40
0.0000000000
40
0.0000000000
40
0.0263361000
40
0.0526706590
40
0.0790034287
40
0.1053340861
40
0.1316623926
40
0.1579881975
40
0.1843112788
40
0.2106316435
40
0.2369491466
40
0.2632639103
40
0.2895759243
40
0.3158853819
40
0.3421924383
40
0.3684973294
40
0.3948003659
40
0.4211018217
40
0.4474021132
40
0.4737015618
40
0.5000006213
40
0.5262996627
40
0.5525991146
40
0.5788993788
40
0.6052008177
40
0.6315038218
40
0.6578086731
40
0.6841156926
40
0.7104250885
40
0.7367370580
40
0.7630517424
40
0.7893691876
40
0.8156894611
40
0.8420124656
40
0.8683381720
40
0.8946663790
40
0.9209969325
40
0.9473295802
40
0.9736640285
40
1.0000000000
40
1.0000000000
40
1.0000000000
40
1.0000000000
10
1.5612490537
20
-0.3502334888
30
0.0000000000
10
1.5529563600
20
-0.3872500052
30
0.0000000000
10
1.5337338509
20
-0.4607183064
30
0.0000000000
10
1.4971554124
20
-0.5685704910
30
0.0000000000
10
1.4530136089
20
-0.6735520736
30
0.0000000000
10
1.4015339823
20
-0.7751250688
30
0.0000000000
10
1.3429774532
20
-0.8727783646
30
0.0000000000
10
1.2776412012
20
-0.9660183643
30
0.0000000000
10
1.2058564012
20
-1.0543748401
30
0.0000000000
10
1.1279868577
20
-1.1374021477
30
0.0000000000
10
1.0444267673
20
-1.2146820490
30
0.0000000000
10
0.9555990438
20
-1.2858253461
30
0.0000000000
10
0.8619527644
20
-1.3504741598
30
0.0000000000
10
0.7639612042
20
-1.4083034065
30
0.0000000000
10
0.6621191696
20
-1.4590225566
30
0.0000000000
10
0.5569406363
20
-1.5023769480
30
0.0000000000
10
0.4489561452
20
-1.5381490153
30
0.0000000000
10
0.3387100408
20
-1.5661593662
30
0.0000000000
10
0.2267579629
20
-1.5862675623
30
0.0000000000
10
0.1136638256
20
-1.5983728457
30
0.0000000000
10
-0.0000026895
20
-1.6024145604
30
0.0000000000
10
-0.1136691954
20
-1.5983724622
30
0.0000000000
10
-0.2267632318
20
-1.5862668061
30
0.0000000000
10
-0.3387151847
20
-1.5661582489
30
0.0000000000
10
-0.4489610907
20
-1.5381475657
30
0.0000000000
10
-0.5569453456
20
-1.5023751940
30
0.0000000000
10
-0.6621235989
20
-1.4590205371
30
0.0000000000
10
-0.7639653031
20
-1.4083011714
30
0.0000000000
10
-0.8619565198
20
-1.3504717499
30
0.0000000000
10
-0.9556024035
20
-1.2858228341
30
0.0000000000
10
-1.0444297409
20
-1.2146794750
30
0.0000000000
10
-1.1279894070
20
-1.1373996003
30
0.0000000000
10
-1.2058585480
20
-1.0543723626
30
0.0000000000
10
-1.2776429349
20
-0.9660160469
30
0.0000000000
10
-1.3429788006
20
-0.8727762612
30
0.0000000000
10
-1.4015349686
20
-0.7751232565
30
0.0000000000
10
-1.4530142567
20
-0.6735506187
30
0.0000000000
10
-1.4971558170
20
-0.5685694560
30
0.0000000000
10
-1.5337339027
20
-0.4607177122
30
0.0000000000
10
-1.5529566273
20
-0.3872498247
30
0.0000000000
10
-1.5612492804
20
-0.3502334888
30
0.0000000000
11
1.5612490537
21
-0.3502334888
31
0.0000000000
11
1.5324422363
21
-0.4603293042
31
0.0000000000
11
1.4958934695
21
-0.5680956877
31
0.0000000000
11
1.4517887249
21
-0.6729880978
31
0.0000000000
11
1.4003520495
21
-0.7744762128
31
0.0000000000
11
1.3418445444
21
-0.8720473624
31
0.0000000000
11
1.2765629280
21
-0.9652090959
31
0.0000000000
11
1.2048383911
21
-1.0534910940
31
0.0000000000
11
1.1270340905
21
-1.1364485589
31
0.0000000000
11
1.0435443188
21
-1.2136631656
31
0.0000000000
11
0.9547912243
21
-1.2847464517
31
0.0000000000
11
0.8612238897
21
-1.3493405478
31
0.0000000000
11
0.7633149175
21
-1.4071208608
31
0.0000000000
11
0.6615588447
21
-1.4577970294
31
0.0000000000
11
0.5564692129
21
-1.5011146297
31
0.0000000000
11
0.4485759653
21
-1.5368563503
31
0.0000000000
11
0.3384232318
21
-1.5648428840
31
0.0000000000
11
0.2265658490
21
-1.5849340037
31
0.0000000000
11
0.1135675710
21
-1.5970289858
31
0.0000000000
11
-0.0000027132
21
-1.6010672651
31
0.0000000000
11
-0.1135729060
21
-1.5970286055
31
0.0000000000
11
-0.2265711570
21
-1.5849332431
31
0.0000000000
11
-0.3384283573
21
-1.5648417729
31
0.0000000000
11
-0.4485809288
21
-1.5368548981
31
0.0000000000
11
-0.5564739293
21
-1.5011128771
31
0.0000000000
11
-0.6615632682
21
-1.4577950170
31
0.0000000000
11
-0.7633190465
21
-1.4071186152
31
0.0000000000
11
-0.8612276243
21
-1.3493381577
31
0.0000000000
11
-0.9547946249
21
-1.2847439172
31
0.0000000000
11
-1.0435472712
21
-1.2136606192
31
0.0000000000
11
-1.1270366771
21
-1.1364459852
31
0.0000000000
11
-1.2048405289
21
-1.0534886399
31
0.0000000000
11
-1.2765646861
21
-0.9652067608
31
0.0000000000
11
-1.3418459004
21
-0.8720452654
31
0.0000000000
11
-1.4003530454
21
-0.7744744008
31
0.0000000000
11
-1.4517894008
21
-0.6729866271
31
0.0000000000
11
-1.4958938522
21
-0.5680946658
31
0.0000000000
11
-1.5324424079
21
-0.4603287161
31
0.0000000000
11
-1.5612492804
21
-0.3502334888
31
0.0000000000
0
SPLINE
5
366
100
AcDbEntity
8
0
100
AcDbSpline
62
7
6
CONTINUOUS
70
0
71
3
72
22
73
18
74
16
42
0.0000001000
43
0.0000001000
44
0.0000000001
12
0.4706511784
22
0.0000000000
32
0.0000000000
13
0.0002293551
23
-0.4706511226
33
0.0000000000
40
0.0000000000
40
0.0000000000
40
0.0000000000
40
0.0000000000
40
0.0665278074
40
0.1333752295
40
0.2001583664
40
0.2666086355
40
0.3333045663
40
0.4002271938
40
0.4669882844
40
0.5333895096
40
0.6001293334
40
0.6670200235
40
0.7336744367
40
0.8000668711
40
0.8667741763
40
0.9335454647
40
1.0000000000
40
1.0000000000
40
1.0000000000
40
1.0000000000
10
8.6689866067
20
17.0256554556
30
0.0000000000
10
8.6794237370
20
17.0256554556
30
0.0000000000
10
8.7003644912
20
17.0245631238
30
0.0000000000
10
8.7314356386
20
17.0196552194
30
0.0000000000
10
8.7618151614
20
17.0115290909
30
0.0000000000
10
8.7911583115
20
17.0002892687
30
0.0000000000
10
8.8191908283
20
16.9860428973
30
0.0000000000
10
8.8456206535
20
16.9689155895
30
0.0000000000
10
8.8700759237
20
16.9491446141
30
0.0000000000
10
8.8923141964
20
16.9269509098
30
0.0000000000
10
8.9121282441
20
16.9025412120
30
0.0000000000
10
8.9292971988
20
16.8761560093
30
0.0000000000
10
8.9435823846
20
16.8481661746
30
0.0000000000
10
8.9548563719
20
16.8188653565
30
0.0000000000
10
8.9630118706
20
16.7885275467
30
0.0000000000
10
8.9679441558
20
16.7574957827
30
0.0000000000
10
8.9690488433
20
16.7365789222
30
0.0000000000
10
8.9690539238
20
16.7261532883
30
0.0000000000
11
8.6689866067
21
17.0256554556
31
0.0000000000
11
8.7002554574
21
17.0240238372
31
0.0000000000
11
8.7313320373
21
17.0191154591
31
0.0000000000
11
8.7616960299
21
17.0109932030
31
0.0000000000
11
8.7909016093
21
16.9998060075
31
0.0000000000
11
8.8188855556
21
16.9855840737
31
0.0000000000
11
8.8453178537
21
16.9684549151
31
0.0000000000
11
8.8697524445
21
16.9487003790
31
0.0000000000
11
8.8918728002
21
16.9266240161
31
0.0000000000
11
8.9116689191
21
16.9022359924
31
0.0000000000
11
8.9288391960
21
16.8758483175
31
0.0000000000
11
8.9430999119
21
16.8479060512
31
0.0000000000
11
8.9543207890
21
16.8187425592
31
0.0000000000
11
8.9624713856
21
16.7884231175
31
0.0000000000
11
8.9674038855
21
16.7573866388
31
0.0000000000
11
8.9690539238
21
16.7261532883
31
0.0000000000
0
SPLINE
5
367
100
AcDbEntity
8
0
100
AcDbSpline
62
7
6
CONTINUOUS
70
0
71
3
72
22
73
18
74
16
42
0.0000001000
43
0.0000001000
44
0.0000000001
12
-0.0001722619
22
0.4707495569
32
0.0000000000
13
-0.4707495884
23
0.0000000000
33
0.0000000000
40
0.0000000000
40
0.0000000000
40
0.0000000000
40
0.0000000000
40
0.0664176055
40
0.1332025626
40
0.1999241827
40
0.2663299748
40
0.3329954556
40
0.3998955145
40
0.4666430691
40
0.5330500973
40
0.5998150474
40
0.6667399362
40
0.7334369077
40
0.7998873526
40
0.8666708062
40
0.9335189440
40
1.0000000000
40
1.0000000000
40
1.0000000000
40
1.0000000000
10
8.9550610611
20
16.6701605147
30
0.0000000000
10
8.9550572474
20
16.6805825341
30
0.0000000000
10
8.9539565202
20
16.7015002003
30
0.0000000000
10
8.9490322970
20
16.7325384301
30
0.0000000000
10
8.9408834996
20
16.7628915208
30
0.0000000000
10
8.9296157661
20
16.7922082678
30
0.0000000000
10
8.9153361899
20
16.8202142797
30
0.0000000000
10
8.8981719419
20
16.8466156702
30
0.0000000000
10
8.8783613482
20
16.8710412850
30
0.0000000000
10
8.8561250956
20
16.8932502159
30
0.0000000000
10
8.8316703161
20
16.9130352993
30
0.0000000000
10
8.8052393809
20
16.9301751706
30
0.0000000000
10
8.7772041696
20
16.9444321025
30
0.0000000000
10
8.7478567895
20
16.9556801320
30
0.0000000000
10
8.7174716515
20
16.9638117656
30
0.0000000000
10
8.6864012294
20
16.9687209672
30
0.0000000000
10
8.6654633309
20
16.9698131806
30
0.0000000000
10
8.6550313543
20
16.9698131806
30
0.0000000000
11
8.9550610611
21
16.6701605147
31
0.0000000000
11
8.9534175298
21
16.7013833483
31
0.0000000000
11
8.9484918142
21
16.7324340727
31
0.0000000000
11
8.9403477848
21
16.7627690537
31
0.0000000000
11
8.9291329742
21
16.7919486157
31
0.0000000000
11
8.9148778190
21
16.8199069311
31
0.0000000000
11
8.8977121814
21
16.8463107371
31
0.0000000000
11
8.8779194226
21
16.8707146315
31
0.0000000000
11
8.8558010233
21
16.8928060690
31
0.0000000000
11
8.8313669448
21
16.9125745756
31
0.0000000000
11
8.8049335931
21
16.9297161730
31
0.0000000000
11
8.7769470380
21
16.9439485395
31
0.0000000000
11
8.7477374493
21
16.9551437793
31
0.0000000000
11
8.7173679556
21
16.9632714796
31
0.0000000000
11
8.6862847618
21
16.9681823083
31
0.0000000000
11
8.6550313543
21
16.9698131806
31
0.0000000000
0
SPLINE
5
368
100
AcDbEntity
8
0
100
AcDbSpline
62
7
6
CONTINUOUS
70
0
71
3
72
22
73
18
74
16
42
0.0000001000
43
0.0000001000
44
0.0000000001
12
-0.4707495884
22
0.0000000000
32
0.0000000000
13
-0.0001722619
23
-0.4707495569
33
0.0000000000
40
0.0000000000
40
0.0000000000
40
0.0000000000
40
0.0000000000
40
0.0664810560
40
0.1333291938
40
0.2001126474
40
0.2665630923
40
0.3332600638
40
0.4001849526
40
0.4669499027
40
0.5333569309
40
0.6001044855
40
0.6670045444
40
0.7336700252
40
0.8000758173
40
0.8667974374
40
0.9335823945
40
1.0000000000
40
1.0000000000
40
1.0000000000
40
1.0000000000
10
-8.6550313543
20
16.9698131806
30
0.0000000000
10
-8.6654633309
20
16.9698131806
30
0.0000000000
10
-8.6864012294
20
16.9687209672
30
0.0000000000
10
-8.7174716515
20
16.9638117656
30
0.0000000000
10
-8.7478567895
20
16.9556801320
30
0.0000000000
10
-8.7772041696
20
16.9444321025
30
0.0000000000
10
-8.8052393809
20
16.9301751706
30
0.0000000000
10
-8.8316703161
20
16.9130352993
30
0.0000000000
10
-8.8561250956
20
16.8932502159
30
0.0000000000
10
-8.8783613482
20
16.8710412850
30
0.0000000000
10
-8.8981719419
20
16.8466156702
30
0.0000000000
10
-8.9153361899
20
16.8202142797
30
0.0000000000
10
-8.9296157661
20
16.7922082678
30
0.0000000000
10
-8.9408834996
20
16.7628915208
30
0.0000000000
10
-8.9490322970
20
16.7325384301
30
0.0000000000
10
-8.9539565202
20
16.7015002003
30
0.0000000000
10
-8.9550572474
20
16.6805825341
30
0.0000000000
10
-8.9550610611
20
16.6701605147
30
0.0000000000
11
-8.6550313543
21
16.9698131806
31
0.0000000000
11
-8.6862847618
21
16.9681823083
31
0.0000000000
11
-8.7173679556
21
16.9632714796
31
0.0000000000
11
-8.7477374493
21
16.9551437793
31
0.0000000000
11
-8.7769470380
21
16.9439485395
31
0.0000000000
11
-8.8049335931
21
16.9297161730
31
0.0000000000
11
-8.8313669448
21
16.9125745756
31
0.0000000000
11
-8.8558010233
21
16.8928060690
31
0.0000000000
11
-8.8779194226
21
16.8707146315
31
0.0000000000
11
-8.8977121814
21
16.8463107371
31
0.0000000000
11
-8.9148778190
21
16.8199069311
31
0.0000000000
11
-8.9291329742
21
16.7919486157
31
0.0000000000
11
-8.9403477848
21
16.7627690537
31
0.0000000000
11
-8.9484918142
21
16.7324340727
31
0.0000000000
11
-8.9534175298
21
16.7013833483
31
0.0000000000
11
-8.9550610611
21
16.6701605147
31
0.0000000000
0
SPLINE
5
369
100
AcDbEntity
8
0
100
AcDbSpline
62
7
6
CONTINUOUS
70
0
71
3
72
22
73
18
74
16
42
0.0000001000
43
0.0000001000
44
0.0000000001
12
0.0002293551
22
0.4706511226
32
0.0000000000
13
0.4706511785
23
-0.0000000000
33
0.0000000000
40
0.0000000000
40
0.0000000000
40
0.0000000000
40
0.0000000000
40
0.0664509472
40
0.1332191635
40
0.1999252485
40
0.2663180316
40
0.3329731018
40
0.3998644759
40
0.4666050141
40
0.5330069221
40
0.5997686754
40
0.6666919930
40
0.7333886306
40
0.7998395766
40
0.8666233950
40
0.9334715064
40
1.0000000000
40
1.0000000000
40
1.0000000000
40
1.0000000000
10
-8.9690539238
20
16.7261532883
30
0.0000000000
10
-8.9690488435
20
16.7365783593
30
0.0000000000
10
-8.9679442707
20
16.7574941724
30
0.0000000000
10
-8.9630124312
20
16.7885247479
30
0.0000000000
10
-8.9548574413
20
16.8188620505
30
0.0000000000
10
-8.9435838213
20
16.8481629746
30
0.0000000000
10
-8.9292988316
20
16.8761532088
30
0.0000000000
10
-8.9121299711
20
16.9025388596
30
0.0000000000
10
-8.8923159404
20
16.9269489941
30
0.0000000000
10
-8.8700776168
20
16.9491431074
30
0.0000000000
10
-8.8456222355
20
16.9689144561
30
0.0000000000
10
-8.8191922394
20
16.9860420977
30
0.0000000000
10
-8.7911595000
20
17.0002887532
30
0.0000000000
10
-8.7618160880
20
17.0115288022
30
0.0000000000
10
-8.7314362751
20
17.0196550960
30
0.0000000000
10
-8.7003648152
20
17.0245631012
30
0.0000000000
10
-8.6794238447
20
17.0256554556
30
0.0000000000
10
-8.6689866067
20
17.0256554556
30
0.0000000000
11
-8.9690539238
21
16.7261532883
31
0.0000000000
11
-8.9674040629
21
16.7573849570
31
0.0000000000
11
-8.9624720403
21
16.7884200476
31
0.0000000000
11
-8.9543219399
21
16.8187390280
31
0.0000000000
11
-8.9431013577
21
16.8479028093
31
0.0000000000
11
-8.9288408179
21
16.8758455127
31
0.0000000000
11
-8.9116706366
21
16.9022336338
31
0.0000000000
11
-8.8918745295
21
16.9266221001
31
0.0000000000
11
-8.8697541245
21
16.9486988686
31
0.0000000000
11
-8.8453194297
21
16.9684537721
31
0.0000000000
11
-8.8188869608
21
16.9855832644
31
0.0000000000
11
-8.7909027869
21
16.9998054846
31
0.0000000000
11
-8.7616969521
21
17.0109929038
31
0.0000000000
11
-8.7313326714
21
17.0191153245
31
0.0000000000
11
-8.7002557791
21
17.0240238036
31
0.0000000000
11
-8.6689866067
21
17.0256554556
31
0.0000000000
0
SPLINE
5
36A
100
AcDbEntity
8
0
100
AcDbSpline
62
7
6
CONTINUOUS
70
0
71
3
72
22
73
18
74
16
42
0.0000001000
43
0.0000001000
44
0.0000000001
12
-0.4710279729
22
0.0000000000
32
0.0000000000
13
0.0001141524
23
0.4710279591
33
0.0000000000
40
0.0000000000
40
0.0000000000
40
0.0000000000
40
0.0000000000
40
0.0664780853
40
0.1332723819
40
0.2000018523
40
0.2664006817
40
0.3330504543
40
0.3999359463
40
0.4666715026
40
0.5330601023
40
0.5998023600
40
0.6667121118
40
0.7334019348
40
0.7998439064
40
0.8666141256
40
0.9334601601
40
1.0000000000
40
1.0000000000
40
1.0000000000
40
1.0000000000
10
-8.6722001056
20
8.0278113175
30
0.0000000000
10
-8.6826377848
20
8.0278113175
30
0.0000000000
10
-8.7035792043
20
8.0289055543
30
0.0000000000
10
-8.7346497477
20
8.0338221579
30
0.0000000000
10
-8.7650260030
20
8.0419623636
30
0.0000000000
10
-8.7943635016
20
8.0532212242
30
0.0000000000
10
-8.8223885465
20
8.0674914068
30
0.0000000000
10
-8.8488096228
20
8.0846473147
30
0.0000000000
10
-8.8732552196
20
8.1044515912
30
0.0000000000
10
-8.8954831618
20
8.1266833591
30
0.0000000000
10
-8.9152863482
20
8.1511360981
30
0.0000000000
10
-8.9324438075
20
8.1775694961
30
0.0000000000
10
-8.9467164622
20
8.2056122745
30
0.0000000000
10
-8.9579763734
20
8.2349702673
30
0.0000000000
10
-8.9661157464
20
8.2653688312
30
0.0000000000
10
-8.9710294796
20
8.2964644007
30
0.0000000000
10
-8.9721198066
20
8.3174239272
30
0.0000000000
10
-8.9721172747
20
8.3278713022
30
0.0000000000
11
-8.6722001056
21
8.0278113175
31
0.0000000000
11
-8.7034704523
21
8.0294458651
31
0.0000000000
11
-8.7345458389
21
8.0343628426
31
0.0000000000
11
-8.7649060045
21
8.0424989485
31
0.0000000000
11
-8.7941053288
21
8.0537047169
31
0.0000000000
11
-8.8220812374
21
8.0679499249
31
0.0000000000
11
-8.8485044890
21
8.0851072230
31
0.0000000000
11
-8.8729293524
21
8.1048946465
31
0.0000000000
11
-8.8950393341
21
8.1270083779
31
0.0000000000
11
-8.9148246571
21
8.1514390050
31
0.0000000000
11
-8.9319837025
21
8.1778747461
31
0.0000000000
11
-8.9462323296
21
8.2058700828
31
0.0000000000
11
-8.9574395175
21
8.2350906280
31
0.0000000000
11
-8.9655742815
21
8.2654710235
31
0.0000000000
11
-8.9704884291
21
8.2965715303
31
0.0000000000
11
-8.9721172747
21
8.3278713022
31
0.0000000000
0
SPLINE
5
36B
100
AcDbEntity
8
0
100
AcDbSpline
62
7
6
CONTINUOUS
70
0
71
3
72
10
73
6
74
4
42
0.0000001000
43
0.0000001000
44
0.0000000001
12
0.0040926037
22
-8.3982815663
32
0.0000000000
13
0.0020353027
23
-8.3982823168
33
0.0000000000
40
0.0000000000
40
0.0000000000
40
0.0000000000
40
0.0000000000
40
0.3331978551
40
0.6665419177
40
1.0000000000
40
1.0000000000
40
1.0000000000
40
1.0000000000
10
8.9690539238
20
16.7261532883
30
0.0000000000
10
8.9695084728
20
15.7933901534
30
0.0000000000
10
8.9703414718
20
13.9274545485
30
0.0000000000
10
8.9713625441
20
11.1280272108
30
0.0000000000
10
8.9718910454
20
9.2613630076
30
0.0000000000
10
8.9721172747
20
8.3278713022
30
0.0000000000
11
8.9690539238
21
16.7261532883
31
0.0000000000
11
8.9703032029
21
13.9278638303
31
0.0000000000
11
8.9713243527
21
11.1283463884
31
0.0000000000
11
8.9721172747
21
8.3278713022
31
0.0000000000
0
SPLINE
5
36C
100
AcDbEntity
8
0
100
AcDbSpline
62
7
6
CONTINUOUS
70
0
71
3
72
10
73
6
74
4
42
0.0000001000
43
0.0000001000
44
0.0000000001
12
-0.0040926037
22
-8.3982815663
32
0.0000000000
13
-0.0020353027
23
-8.3982823168
33
0.0000000000
40
0.0000000000
40
0.0000000000
40
0.0000000000
40
0.0000000000
40
0.3331978551
40
0.6665419177
40
1.0000000000
40
1.0000000000
40
1.0000000000
40
1.0000000000
10
-8.9690539238
20
16.7261532883
30
0.0000000000
10
-8.9695084728
20
15.7933901534
30
0.0000000000
10
-8.9703414718
20
13.9274545485
30
0.0000000000
10
-8.9713625441
20
11.1280272108
30
0.0000000000
10
-8.9718910454
20
9.2613630076
30
0.0000000000
10
-8.9721172747
20
8.3278713022
30
0.0000000000
11
-8.9690539238
21
16.7261532883
31
0.0000000000
11
-8.9703032029
21
13.9278638303
31
0.0000000000
11
-8.9713243527
21
11.1283463884
31
0.0000000000
11
-8.9721172747
21
8.3278713022
31
0.0000000000
0
SPLINE
5
36D
100
AcDbEntity
8
0
100
AcDbSpline
62
9
6
CONTINUOUS
70
0
71
3
72
19
73
15
74
13
42
0.0000001000
43
0.0000001000
44
0.0000000001
12
-0.0000000000
22
0.2736984469
32
0.0000000000
13
-0.2683147000
23
0.0547845372
33
0.0000000000
40
0.0000000000
40
0.0000000000
40
0.0000000000
40
0.0000000000
40
0.0882408630
40
0.1764813380
40
0.2647210598
40
0.3529597066
40
0.4411970194
40
0.5294328164
40
0.6176670040
40
0.7058995821
40
0.7941306439
40
0.8823603708
40
0.9705890217
40
1.0000000000
40
1.0000000000
40
1.0000000000
40
1.0000000000
10
10.9993932438
20
-0.3500000000
30
0.0000000000
10
10.9993932438
20
-0.3419495376
30
0.0000000000
10
10.9984188785
20
-0.3258317142
30
0.0000000000
10
10.9940555436
20
-0.3020209642
30
0.0000000000
10
10.9868540476
20
-0.2789062097
30
0.0000000000
10
10.9769194011
20
-0.2568291265
30
0.0000000000
10
10.9643964687
20
-0.2361104107
30
0.0000000000
10
10.9494678601
20
-0.2170525194
30
0.0000000000
10
10.9323512577
20
-0.1999332726
30
0.0000000000
10
10.9132962806
20
-0.1850023345
30
0.0000000000
10
10.8925807028
20
-0.1724774297
30
0.0000000000
10
10.8705069351
20
-0.1625412056
30
0.0000000000
10
10.8525312768
20
-0.1569390856
30
0.0000000000
10
10.8420532130
20
-0.1545789565
30
0.0000000000
10
10.8394227471
20
-0.1540418675
30
0.0000000000
11
10.9993932438
21
-0.3500000000
31
0.0000000000
11
10.9979352405
21
-0.3258926624
31
0.0000000000
11
10.9935824917
21
-0.3021368641
31
0.0000000000
11
10.9863984702
21
-0.2790790184
31
0.0000000000
11
10.9764879354
21
-0.2570553606
31
0.0000000000
11
10.9639954053
21
-0.2363870452
31
0.0000000000
11
10.9491030492
21
-0.2173754630
31
0.0000000000
11
10.9320280314
21
-0.2002978454
31
0.0000000000
11
10.9130193442
21
-0.1854032226
31
0.0000000000
11
10.8923541772
21
-0.1729087917
31
0.0000000000
11
10.8703338751
21
-0.1629967494
31
0.0000000000
11
10.8472795436
21
-0.1558116355
31
0.0000000000
11
10.8394227471
21
-0.1540418675
31
0.0000000000
0
SPLINE
5
36E
100
AcDbEntity
8
0
100
AcDbSpline
62
9
6
CONTINUOUS
70
0
71
3
72
9
73
5
74
3
42
0.0000001000
43
0.0000001000
44
0.0000000001
12
-0.0394541807
22
0.0080557607
32
0.0000000000
13
-0.0402458307
23
0.0000000000
33
0.0000000000
40
0.0000000000
40
0.0000000000
40
0.0000000000
40
0.0000000000
40
0.3999942063
40
1.0000000000
40
1.0000000000
40
1.0000000000
40
1.0000000000
10
10.8394227471
20
-0.1540418675
30
0.0000000000
10
10.8341622659
20
-0.1529677816
30
0.0000000000
10
10.8209023433
20
-0.1508120932
30
0.0000000000
10
10.8074729486
20
-0.1500000000
30
0.0000000000
10
10.7994237047
20
-0.1500000000
30
0.0000000000
11
10.8394227471
21
-0.1540418675
31
0.0000000000
11
10.8235273667
21
-0.1514582249
31
0.0000000000
11
10.7994237047
21
-0.1500000000
31
0.0000000000
0
SPLINE
5
36F
100
AcDbEntity
8
0
100
AcDbSpline
62
7
6
CONTINUOUS
70
0
71
3
72
22
73
18
74
16
42
0.0000001000
43
0.0000001000
44
0.0000000001
12
-0.0001723677
22
-0.4710385046
32
0.0000000000
13
0.4710385362
23
-0.0000000000
33
0.0000000000
40
0.0000000000
40
0.0000000000
40
0.0000000000
40
0.0000000000
40
0.0665270197
40
0.1334077753
40
0.2002089449
40
0.2666774526
40
0.3333898024
40
0.4003163915
40
0.4670693144
40
0.5334633586
40
0.6001990635
40
0.6670784605
40
0.7337167596
40
0.8001016938
40
0.8668152045
40
0.9335909648
40
1.0000000000
40
1.0000000000
40
1.0000000000
40
1.0000000000
10
-8.9581086388
20
8.3418799381
30
0.0000000000
10
-8.9581124612
20
8.3314343421
30
0.0000000000
10
-8.9570249923
20
8.3104707895
30
0.0000000000
10
-8.9521144812
20
8.2793655295
30
0.0000000000
10
-8.9439745942
20
8.2489513188
30
0.0000000000
10
-8.9327121811
20
8.2195800092
30
0.0000000000
10
-8.9184356826
20
8.1915267212
30
0.0000000000
10
-8.9012737883
20
8.1650859356
30
0.0000000000
10
-8.8814663909
20
8.1406289913
30
0.0000000000
10
-8.8592351098
20
8.1183959114
30
0.0000000000
10
-8.8347876726
20
8.0985928768
30
0.0000000000
10
-8.8083668502
20
8.0814402861
30
0.0000000000
10
-8.7803442462
20
8.0671746494
30
0.0000000000
10
-8.7510110500
20
8.0559207447
30
0.0000000000
10
-8.7206406644
20
8.0477853365
30
0.0000000000
10
-8.6895850400
20
8.0428741171
30
0.0000000000
10
-8.6686569489
20
8.0417815458
30
0.0000000000
10
-8.6582298773
20
8.0417815458
30
0.0000000000
11
-8.9581086388
21
8.3418799381
31
0.0000000000
11
-8.9564846146
21
8.3105852588
31
0.0000000000
11
-8.9515724162
21
8.2794671716
31
0.0000000000
11
-8.9434370988
21
8.2490711018
31
0.0000000000
11
-8.9322274156
21
8.2198373748
31
0.0000000000
11
-8.9179748217
21
8.1918313604
31
0.0000000000
11
-8.9008113016
21
8.1653882258
31
0.0000000000
11
-8.8810218660
21
8.1409535577
31
0.0000000000
11
-8.8589085505
21
8.1188385413
31
0.0000000000
11
-8.8344817378
21
8.0990522928
31
0.0000000000
11
-8.8080588551
21
8.0818984015
31
0.0000000000
11
-8.7800857993
21
8.0676579499
31
0.0000000000
11
-8.7508908312
21
8.0564571412
31
0.0000000000
11
-8.7205364423
21
8.0483257989
31
0.0000000000
11
-8.6894685187
21
8.0434130099
31
0.0000000000
11
-8.6582298773
21
8.0417815458
31
0.0000000000
0
SPLINE
5
370
100
AcDbEntity
8
0
100
AcDbSpline
62
7
6
CONTINUOUS
70
0
71
3
72
22
73
18
74
16
42
0.0000001000
43
0.0000001000
44
0.0000000001
12
0.4710385362
22
0.0000000000
32
0.0000000000
13
-0.0001723677
23
0.4710385046
33
0.0000000000
40
0.0000000000
40
0.0000000000
40
0.0000000000
40
0.0000000000
40
0.0664090352
40
0.1331847955
40
0.1998983062
40
0.2662832404
40
0.3329215395
40
0.3998009365
40
0.4665366414
40
0.5329306856
40
0.5996836085
40
0.6666101976
40
0.7333225474
40
0.7997910551
40
0.8665922247
40
0.9334729803
40
1.0000000000
40
1.0000000000
40
1.0000000000
40
1.0000000000
10
8.6582298773
20
8.0417815458
30
0.0000000000
10
8.6686569489
20
8.0417815458
30
0.0000000000
10
8.6895850400
20
8.0428741171
30
0.0000000000
10
8.7206406644
20
8.0477853365
30
0.0000000000
10
8.7510110500
20
8.0559207447
30
0.0000000000
10
8.7803442462
20
8.0671746494
30
0.0000000000
10
8.8083668502
20
8.0814402861
30
0.0000000000
10
8.8347876726
20
8.0985928768
30
0.0000000000
10
8.8592351098
20
8.1183959114
30
0.0000000000
10
8.8814663909
20
8.1406289913
30
0.0000000000
10
8.9012737883
20
8.1650859356
30
0.0000000000
10
8.9184356826
20
8.1915267212
30
0.0000000000
10
8.9327121811
20
8.2195800092
30
0.0000000000
10
8.9439745942
20
8.2489513188
30
0.0000000000
10
8.9521144812
20
8.2793655295
30
0.0000000000
10
8.9570249923
20
8.3104707895
30
0.0000000000
10
8.9581124612
20
8.3314343421
30
0.0000000000
10
8.9581086388
20
8.3418799381
30
0.0000000000
11
8.6582298773
21
8.0417815458
31
0.0000000000
11
8.6894685187
21
8.0434130099
31
0.0000000000
11
8.7205364423
21
8.0483257989
31
0.0000000000
11
8.7508908312
21
8.0564571412
31
0.0000000000
11
8.7800857993
21
8.0676579499
31
0.0000000000
11
8.8080588551
21
8.0818984015
31
0.0000000000
11
8.8344817378
21
8.0990522928
31
0.0000000000
11
8.8589085505
21
8.1188385413
31
0.0000000000
11
8.8810218660
21
8.1409535577
31
0.0000000000
11
8.9008113016
21
8.1653882258
31
0.0000000000
11
8.9179748217
21
8.1918313604
31
0.0000000000
11
8.9322274156
21
8.2198373748
31
0.0000000000
11
8.9434370988
21
8.2490711018
31
0.0000000000
11
8.9515724162
21
8.2794671716
31
0.0000000000
11
8.9564846146
21
8.3105852588
31
0.0000000000
11
8.9581086388
21
8.3418799381
31
0.0000000000
0
SPLINE
5
371
100
AcDbEntity
8
0
100
AcDbSpline
62
7
6
CONTINUOUS
70
0
71
3
72
22
73
18
74
16
42
0.0000001000
43
0.0000001000
44
0.0000000001
12
0.0001141524
22
-0.4710279591
32
0.0000000000
13
-0.4710279729
23
0.0000000000
33
0.0000000000
40
0.0000000000
40
0.0000000000
40
0.0000000000
40
0.0000000000
40
0.0665398399
40
0.1333858744
40
0.2001560936
40
0.2665980652
40
0.3332878882
40
0.4001976400
40
0.4669398977
40
0.5333284974
40
0.6000640537
40
0.6669495457
40
0.7335993183
40
0.7999981477
40
0.8667276181
40
0.9335219147
40
1.0000000000
40
1.0000000000
40
1.0000000000
40
1.0000000000
10
8.9721172747
20
8.3278713022
30
0.0000000000
10
8.9721198066
20
8.3174239272
30
0.0000000000
10
8.9710294796
20
8.2964644007
30
0.0000000000
10
8.9661157464
20
8.2653688312
30
0.0000000000
10
8.9579763734
20
8.2349702673
30
0.0000000000
10
8.9467164622
20
8.2056122745
30
0.0000000000
10
8.9324438075
20
8.1775694961
30
0.0000000000
10
8.9152863482
20
8.1511360981
30
0.0000000000
10
8.8954831618
20
8.1266833591
30
0.0000000000
10
8.8732552196
20
8.1044515912
30
0.0000000000
10
8.8488096228
20
8.0846473147
30
0.0000000000
10
8.8223885465
20
8.0674914068
30
0.0000000000
10
8.7943635016
20
8.0532212242
30
0.0000000000
10
8.7650260030
20
8.0419623636
30
0.0000000000
10
8.7346497477
20
8.0338221579
30
0.0000000000
10
8.7035792043
20
8.0289055543
30
0.0000000000
10
8.6826377848
20
8.0278113175
30
0.0000000000
10
8.6722001056
20
8.0278113175
30
0.0000000000
11
8.9721172747
21
8.3278713022
31
0.0000000000
11
8.9704884291
21
8.2965715303
31
0.0000000000
11
8.9655742815
21
8.2654710235
31
0.0000000000
11
8.9574395175
21
8.2350906280
31
0.0000000000
11
8.9462323296
21
8.2058700828
31
0.0000000000
11
8.9319837025
21
8.1778747461
31
0.0000000000
11
8.9148246571
21
8.1514390050
31
0.0000000000
11
8.8950393341
21
8.1270083779
31
0.0000000000
11
8.8729293524
21
8.1048946465
31
0.0000000000
11
8.8485044890
21
8.0851072230
31
0.0000000000
11
8.8220812374
21
8.0679499249
31
0.0000000000
11
8.7941053288
21
8.0537047169
31
0.0000000000
11
8.7649060045
21
8.0424989485
31
0.0000000000
11
8.7345458389
21
8.0343628426
31
0.0000000000
11
8.7034704523
21
8.0294458651
31
0.0000000000
11
8.6722001056
21
8.0278113175
31
0.0000000000
0
SPLINE
5
372
100
AcDbEntity
8
0
100
AcDbSpline
62
7
6
CONTINUOUS
70
0
71
3
72
22
73
18
74
16
42
0.0000001000
43
0.0000001000
44
0.0000000001
12
-0.4710385362
22
0.0000000000
32
0.0000000000
13
0.0001723677
23
-0.4710385046
33
0.0000000000
40
0.0000000000
40
0.0000000000
40
0.0000000000
40
0.0000000000
40
0.0664090352
40
0.1331847955
40
0.1998983062
40
0.2662832404
40
0.3329215395
40
0.3998009365
40
0.4665366414
40
0.5329306856
40
0.5996836085
40
0.6666101976
40
0.7333225474
40
0.7997910551
40
0.8665922247
40
0.9334729803
40
1.0000000000
40
1.0000000000
40
1.0000000000
40
1.0000000000
10
-8.6582298773
20
-8.0417815458
30
0.0000000000
10
-8.6686569489
20
-8.0417815458
30
0.0000000000
10
-8.6895850400
20
-8.0428741171
30
0.0000000000
10
-8.7206406644
20
-8.0477853365
30
0.0000000000
10
-8.7510110500
20
-8.0559207447
30
0.0000000000
10
-8.7803442462
20
-8.0671746494
30
0.0000000000
10
-8.8083668502
20
-8.0814402861
30
0.0000000000
10
-8.8347876726
20
-8.0985928768
30
0.0000000000
10
-8.8592351098
20
-8.1183959114
30
0.0000000000
10
-8.8814663909
20
-8.1406289913
30
0.0000000000
10
-8.9012737883
20
-8.1650859356
30
0.0000000000
10
-8.9184356826
20
-8.1915267212
30
0.0000000000
10
-8.9327121811
20
-8.2195800092
30
0.0000000000
10
-8.9439745942
20
-8.2489513188
30
0.0000000000
10
-8.9521144812
20
-8.2793655295
30
0.0000000000
10
-8.9570249923
20
-8.3104707895
30
0.0000000000
10
-8.9581124612
20
-8.3314343421
30
0.0000000000
10
-8.9581086388
20
-8.3418799381
30
0.0000000000
11
-8.6582298773
21
-8.0417815458
31
0.0000000000
11
-8.6894685187
21
-8.0434130099
31
0.0000000000
11
-8.7205364423
21
-8.0483257989
31
0.0000000000
11
-8.7508908312
21
-8.0564571412
31
0.0000000000
11
-8.7800857993
21
-8.0676579499
31
0.0000000000
11
-8.8080588551
21
-8.0818984015
31
0.0000000000
11
-8.8344817378
21
-8.0990522928
31
0.0000000000
11
-8.8589085505
21
-8.1188385413
31
0.0000000000
11
-8.8810218660
21
-8.1409535577
31
0.0000000000
11
-8.9008113016
21
-8.1653882258
31
0.0000000000
11
-8.9179748217
21
-8.1918313604
31
0.0000000000
11
-8.9322274156
21
-8.2198373748
31
0.0000000000
11
-8.9434370988
21
-8.2490711018
31
0.0000000000
11
-8.9515724162
21
-8.2794671716
31
0.0000000000
11
-8.9564846146
21
-8.3105852588
31
0.0000000000
11
-8.9581086388
21
-8.3418799381
31
0.0000000000
0
SPLINE
5
373
100
AcDbEntity
8
0
100
AcDbSpline
62
7
6
CONTINUOUS
70
0
71
3
72
22
73
18
74
16
42
0.0000001000
43
0.0000001000
44
0.0000000001
12
-0.0001141524
22
0.4710279591
32
0.0000000000
13
0.4710279729
23
-0.0000000000
33
0.0000000000
40
0.0000000000
40
0.0000000000
40
0.0000000000
40
0.0000000000
40
0.0665398399
40
0.1333858744
40
0.2001560936
40
0.2665980652
40
0.3332878882
40
0.4001976400
40
0.4669398977
40
0.5333284974
40
0.6000640537
40
0.6669495457
40
0.7335993183
40
0.7999981477
40
0.8667276181
40
0.9335219147
40
1.0000000000
40
1.0000000000
40
1.0000000000
40
1.0000000000
10
-8.9721172747
20
-8.3278713022
30
0.0000000000
10
-8.9721198066
20
-8.3174239272
30
0.0000000000
10
-8.9710294796
20
-8.2964644007
30
0.0000000000
10
-8.9661157464
20
-8.2653688312
30
0.0000000000
10
-8.9579763734
20
-8.2349702673
30
0.0000000000
10
-8.9467164622
20
-8.2056122745
30
0.0000000000
10
-8.9324438075
20
-8.1775694961
30
0.0000000000
10
-8.9152863482
20
-8.1511360981
30
0.0000000000
10
-8.8954831618
20
-8.1266833591
30
0.0000000000
10
-8.8732552196
20
-8.1044515912
30
0.0000000000
10
-8.8488096228
20
-8.0846473147
30
0.0000000000
10
-8.8223885465
20
-8.0674914068
30
0.0000000000
10
-8.7943635016
20
-8.0532212242
30
0.0000000000
10
-8.7650260030
20
-8.0419623636
30
0.0000000000
10
-8.7346497477
20
-8.0338221579
30
0.0000000000
10
-8.7035792043
20
-8.0289055543
30
0.0000000000
10
-8.6826377848
20
-8.0278113175
30
0.0000000000
10
-8.6722001056
20
-8.0278113175
30
0.0000000000
11
-8.9721172747
21
-8.3278713022
31
0.0000000000
11
-8.9704884291
21
-8.2965715303
31
0.0000000000
11
-8.9655742815
21
-8.2654710235
31
0.0000000000
11
-8.9574395175
21
-8.2350906280
31
0.0000000000
11
-8.9462323296
21
-8.2058700828
31
0.0000000000
11
-8.9319837025
21
-8.1778747461
31
0.0000000000
11
-8.9148246571
21
-8.1514390050
31
0.0000000000
11
-8.8950393341
21
-8.1270083779
31
0.0000000000
11
-8.8729293524
21
-8.1048946465
31
0.0000000000
11
-8.8485044890
21
-8.0851072230
31
0.0000000000
11
-8.8220812374
21
-8.0679499249
31
0.0000000000
11
-8.7941053288
21
-8.0537047169
31
0.0000000000
11
-8.7649060045
21
-8.0424989485
31
0.0000000000
11
-8.7345458389
21
-8.0343628426
31
0.0000000000
11
-8.7034704523
21
-8.0294458651
31
0.0000000000
11
-8.6722001056
21
-8.0278113175
31
0.0000000000
0
SPLINE
5
374
100
AcDbEntity
8
0
100
AcDbSpline
62
7
6
CONTINUOUS
70
0
71
3
72
22
73
18
74
16
42
0.0000001000
43
0.0000001000
44
0.0000000001
12
-0.4706511784
22
0.0000000000
32
0.0000000000
13
-0.0002293551
23
0.4706511226
33
0.0000000000
40
0.0000000000
40
0.0000000000
40
0.0000000000
40
0.0000000000
40
0.0665278074
40
0.1333752295
40
0.2001583664
40
0.2666086355
40
0.3333045663
40
0.4002271938
40
0.4669882844
40
0.5333895096
40
0.6001293334
40
0.6670200235
40
0.7336744367
40
0.8000668711
40
0.8667741763
40
0.9335454647
40
1.0000000000
40
1.0000000000
40
1.0000000000
40
1.0000000000
10
-8.6689866067
20
-17.0256554556
30
0.0000000000
10
-8.6794237370
20
-17.0256554556
30
0.0000000000
10
-8.7003644912
20
-17.0245631238
30
0.0000000000
10
-8.7314356386
20
-17.0196552194
30
0.0000000000
10
-8.7618151614
20
-17.0115290909
30
0.0000000000
10
-8.7911583115
20
-17.0002892687
30
0.0000000000
10
-8.8191908283
20
-16.9860428973
30
0.0000000000
10
-8.8456206535
20
-16.9689155895
30
0.0000000000
10
-8.8700759237
20
-16.9491446141
30
0.0000000000
10
-8.8923141964
20
-16.9269509098
30
0.0000000000
10
-8.9121282441
20
-16.9025412120
30
0.0000000000
10
-8.9292971988
20
-16.8761560093
30
0.0000000000
10
-8.9435823846
20
-16.8481661746
30
0.0000000000
10
-8.9548563719
20
-16.8188653565
30
0.0000000000
10
-8.9630118706
20
-16.7885275467
30
0.0000000000
10
-8.9679441558
20
-16.7574957827
30
0.0000000000
10
-8.9690488433
20
-16.7365789222
30
0.0000000000
10
-8.9690539238
20
-16.7261532883
30
0.0000000000
11
-8.6689866067
21
-17.0256554556
31
0.0000000000
11
-8.7002554574
21
-17.0240238372
31
0.0000000000
11
-8.7313320373
21
-17.0191154591
31
0.0000000000
11
-8.7616960299
21
-17.0109932030
31
0.0000000000
11
-8.7909016093
21
-16.9998060075
31
0.0000000000
11
-8.8188855556
21
-16.9855840737
31
0.0000000000
11
-8.8453178537
21
-16.9684549151
31
0.0000000000
11
-8.8697524445
21
-16.9487003790
31
0.0000000000
11
-8.8918728002
21
-16.9266240161
31
0.0000000000
11
-8.9116689191
21
-16.9022359924
31
0.0000000000
11
-8.9288391960
21
-16.8758483175
31
0.0000000000
11
-8.9430999119
21
-16.8479060512
31
0.0000000000
11
-8.9543207890
21
-16.8187425592
31
0.0000000000
11
-8.9624713856
21
-16.7884231175
31
0.0000000000
11
-8.9674038855
21
-16.7573866388
31
0.0000000000
11
-8.9690539238
21
-16.7261532883
31
0.0000000000
0
SPLINE
5
375
100
AcDbEntity
8
0
100
AcDbSpline
62
7
6
CONTINUOUS
70
0
71
3
72
22
73
18
74
16
42
0.0000001000
43
0.0000001000
44
0.0000000001
12
0.0001722619
22
-0.4707495569
32
0.0000000000
13
0.4707495884
23
0.0000000000
33
0.0000000000
40
0.0000000000
40
0.0000000000
40
0.0000000000
40
0.0000000000
40
0.0664176055
40
0.1332025626
40
0.1999241827
40
0.2663299748
40
0.3329954556
40
0.3998955145
40
0.4666430691
40
0.5330500973
40
0.5998150474
40
0.6667399362
40
0.7334369077
40
0.7998873526
40
0.8666708062
40
0.9335189440
40
1.0000000000
40
1.0000000000
40
1.0000000000
40
1.0000000000
10
-8.9550610611
20
-16.6701605147
30
0.0000000000
10
-8.9550572474
20
-16.6805825341
30
0.0000000000
10
-8.9539565202
20
-16.7015002003
30
0.0000000000
10
-8.9490322970
20
-16.7325384301
30
0.0000000000
10
-8.9408834996
20
-16.7628915208
30
0.0000000000
10
-8.9296157661
20
-16.7922082678
30
0.0000000000
10
-8.9153361899
20
-16.8202142797
30
0.0000000000
10
-8.8981719419
20
-16.8466156702
30
0.0000000000
10
-8.8783613482
20
-16.8710412850
30
0.0000000000
10
-8.8561250956
20
-16.8932502159
30
0.0000000000
10
-8.8316703161
20
-16.9130352993
30
0.0000000000
10
-8.8052393809
20
-16.9301751706
30
0.0000000000
10
-8.7772041696
20
-16.9444321025
30
0.0000000000
10
-8.7478567895
20
-16.9556801320
30
0.0000000000
10
-8.7174716515
20
-16.9638117656
30
0.0000000000
10
-8.6864012294
20
-16.9687209672
30
0.0000000000
10
-8.6654633309
20
-16.9698131806
30
0.0000000000
10
-8.6550313543
20
-16.9698131806
30
0.0000000000
11
-8.9550610611
21
-16.6701605147
31
0.0000000000
11
-8.9534175298
21
-16.7013833483
31
0.0000000000
11
-8.9484918142
21
-16.7324340727
31
0.0000000000
11
-8.9403477848
21
-16.7627690537
31
0.0000000000
11
-8.9291329742
21
-16.7919486157
31
0.0000000000
11
-8.9148778190
21
-16.8199069311
31
0.0000000000
11
-8.8977121814
21
-16.8463107371
31
0.0000000000
11
-8.8779194226
21
-16.8707146315
31
0.0000000000
11
-8.8558010233
21
-16.8928060690
31
0.0000000000
11
-8.8313669448
21
-16.9125745756
31
0.0000000000
11
-8.8049335931
21
-16.9297161730
31
0.0000000000
11
-8.7769470380
21
-16.9439485395
31
0.0000000000
11
-8.7477374493
21
-16.9551437793
31
0.0000000000
11
-8.7173679556
21
-16.9632714796
31
0.0000000000
11
-8.6862847618
21
-16.9681823083
31
0.0000000000
11
-8.6550313543
21
-16.9698131806
31
0.0000000000
0
SPLINE
5
376
100
AcDbEntity
8
0
100
AcDbSpline
62
7
6
CONTINUOUS
70
0
71
3
72
22
73
18
74
16
42
0.0000001000
43
0.0000001000
44
0.0000000001
12
0.4707495884
22
0.0000000000
32
0.0000000000
13
0.0001722619
23
0.4707495569
33
0.0000000000
40
0.0000000000
40
0.0000000000
40
0.0000000000
40
0.0000000000
40
0.0664810560
40
0.1333291938
40
0.2001126474
40
0.2665630923
40
0.3332600638
40
0.4001849526
40
0.4669499027
40
0.5333569309
40
0.6001044855
40
0.6670045444
40
0.7336700252
40
0.8000758173
40
0.8667974374
40
0.9335823945
40
1.0000000000
40
1.0000000000
40
1.0000000000
40
1.0000000000
10
8.6550313543
20
-16.9698131806
30
0.0000000000
10
8.6654633309
20
-16.9698131806
30
0.0000000000
10
8.6864012294
20
-16.9687209672
30
0.0000000000
10
8.7174716515
20
-16.9638117656
30
0.0000000000
10
8.7478567895
20
-16.9556801320
30
0.0000000000
10
8.7772041696
20
-16.9444321025
30
0.0000000000
10
8.8052393809
20
-16.9301751706
30
0.0000000000
10
8.8316703161
20
-16.9130352993
30
0.0000000000
10
8.8561250956
20
-16.8932502159
30
0.0000000000
10
8.8783613482
20
-16.8710412850
30
0.0000000000
10
8.8981719419
20
-16.8466156702
30
0.0000000000
10
8.9153361899
20
-16.8202142797
30
0.0000000000
10
8.9296157661
20
-16.7922082678
30
0.0000000000
10
8.9408834996
20
-16.7628915208
30
0.0000000000
10
8.9490322970
20
-16.7325384301
30
0.0000000000
10
8.9539565202
20
-16.7015002003
30
0.0000000000
10
8.9550572474
20
-16.6805825341
30
0.0000000000
10
8.9550610611
20
-16.6701605147
30
0.0000000000
11
8.6550313543
21
-16.9698131806
31
0.0000000000
11
8.6862847618
21
-16.9681823083
31
0.0000000000
11
8.7173679556
21
-16.9632714796
31
0.0000000000
11
8.7477374493
21
-16.9551437793
31
0.0000000000
11
8.7769470380
21
-16.9439485395
31
0.0000000000
11
8.8049335931
21
-16.9297161730
31
0.0000000000
11
8.8313669448
21
-16.9125745756
31
0.0000000000
11
8.8558010233
21
-16.8928060690
31
0.0000000000
11
8.8779194226
21
-16.8707146315
31
0.0000000000
11
8.8977121814
21
-16.8463107371
31
0.0000000000
11
8.9148778190
21
-16.8199069311
31
0.0000000000
11
8.9291329742
21
-16.7919486157
31
0.0000000000
11
8.9403477848
21
-16.7627690537
31
0.0000000000
11
8.9484918142
21
-16.7324340727
31
0.0000000000
11
8.9534175298
21
-16.7013833483
31
0.0000000000
11
8.9550610611
21
-16.6701605147
31
0.0000000000
0
SPLINE
5
377
100
AcDbEntity
8
0
100
AcDbSpline
62
9
6
CONTINUOUS
70
0
71
3
72
26
73
22
74
20
42
0.0000001000
43
0.0000001000
44
0.0000000001
12
-0.7997659699
22
-0.0134018755
32
0.0000000000
13
-0.7998782513
23
-0.0000039891
33
0.0000000000
40
0.0000000000
40
0.0000000000
40
0.0000000000
40
0.0000000000
40
0.0047657808
40
0.0161795723
40
0.0341655882
40
0.0586034072
40
0.0893297143
40
0.1261396914
40
0.1687870886
40
0.2169870962
40
0.2704175509
40
0.3287219462
40
0.3915102894
40
0.4583636192
40
0.5288351496
40
0.6024542995
40
0.6787284423
40
0.7571489887
40
0.8371922853
40
0.9183211337
40
1.0000000000
40
1.0000000000
40
1.0000000000
40
1.0000000000
10
10.9993932081
20
-0.3500000000
30
0.0000000000
10
10.9981227050
20
-0.3500212901
30
0.0000000000
10
10.9938085274
20
-0.3500141358
30
0.0000000000
10
10.9846993573
20
-0.3500484512
30
0.0000000000
10
10.9703447192
20
-0.3500566907
30
0.0000000000
10
10.9508410474
20
-0.3500783007
30
0.0000000000
10
10.9263183373
20
-0.3500941922
30
0.0000000000
10
10.8969405061
20
-0.3501116010
30
0.0000000000
10
10.8629037196
20
-0.3501276483
30
0.0000000000
10
10.8244354828
20
-0.3501431295
30
0.0000000000
10
10.7817926803
20
-0.3501576201
30
0.0000000000
10
10.7352602467
20
-0.3501711108
30
0.0000000000
10
10.6851489241
20
-0.3501834755
30
0.0000000000
10
10.6317935255
20
-0.3501946368
30
0.0000000000
10
10.5755503511
20
-0.3502045150
30
0.0000000000
10
10.5167953419
20
-0.3502130431
30
0.0000000000
10
10.4559209175
20
-0.3502201629
30
0.0000000000
10
10.3933336479
20
-0.3502258263
30
0.0000000000
10
10.3294519870
20
-0.3502299953
30
0.0000000000
10
10.2647015730
20
-0.3502326400
30
0.0000000000
10
10.2212927896
20
-0.3502333797
30
0.0000000000
10
10.1995150734
20
-0.3502334883
30
0.0000000000
11
10.9993932081
21
-0.3500000000
31
0.0000000000
11
10.9955812116
21
-0.3500191061
31
0.0000000000
11
10.9864515877
21
-0.3500380778
31
0.0000000000
11
10.9720649769
21
-0.3500567890
31
0.0000000000
11
10.9525177056
21
-0.3500751153
31
0.0000000000
11
10.9279404072
21
-0.3500929344
31
0.0000000000
11
10.8984969122
21
-0.3501101280
31
0.0000000000
11
10.8643841907
21
-0.3501265818
31
0.0000000000
11
10.8258300560
21
-0.3501421866
31
0.0000000000
11
10.7830921998
21
-0.3501568386
31
0.0000000000
11
10.7364557841
21
-0.3501704410
31
0.0000000000
11
10.6862327554
21
-0.3501829036
31
0.0000000000
11
10.6327582321
21
-0.3501941438
31
0.0000000000
11
10.5763895885
21
-0.3502040874
31
0.0000000000
11
10.5175032322
21
-0.3502126686
31
0.0000000000
11
10.4564932046
21
-0.3502198306
31
0.0000000000
11
10.3937663154
21
-0.3502255261
31
0.0000000000
11
10.3297414234
21
-0.3502297177
31
0.0000000000
11
10.2648482221
21
-0.3502323774
31
0.0000000000
11
10.1995150734
21
-0.3502334883
31
0.0000000000
0
SPLINE
5
378
100
AcDbEntity
8
0
100
AcDbSpline
62
7
6
CONTINUOUS
70
0
71
3
72
22
73
18
74
16
42
0.0000001000
43
0.0000001000
44
0.0000000001
12
-0.0002293551
22
-0.4706511226
32
0.0000000000
13
-0.4706511785
23
-0.0000000000
33
0.0000000000
40
0.0000000000
40
0.0000000000
40
0.0000000000
40
0.0000000000
40
0.0664509472
40
0.1332191635
40
0.1999252485
40
0.2663180316
40
0.3329731018
40
0.3998644759
40
0.4666050141
40
0.5330069221
40
0.5997686754
40
0.6666919930
40
0.7333886306
40
0.7998395766
40
0.8666233950
40
0.9334715064
40
1.0000000000
40
1.0000000000
40
1.0000000000
40
1.0000000000
10
8.9690539238
20
-16.7261532883
30
0.0000000000
10
8.9690488435
20
-16.7365783593
30
0.0000000000
10
8.9679442707
20
-16.7574941724
30
0.0000000000
10
8.9630124312
20
-16.7885247479
30
0.0000000000
10
8.9548574413
20
-16.8188620505
30
0.0000000000
10
8.9435838213
20
-16.8481629746
30
0.0000000000
10
8.9292988316
20
-16.8761532088
30
0.0000000000
10
8.9121299711
20
-16.9025388596
30
0.0000000000
10
8.8923159404
20
-16.9269489941
30
0.0000000000
10
8.8700776168
20
-16.9491431074
30
0.0000000000
10
8.8456222355
20
-16.9689144561
30
0.0000000000
10
8.8191922394
20
-16.9860420977
30
0.0000000000
10
8.7911595000
20
-17.0002887532
30
0.0000000000
10
8.7618160880
20
-17.0115288022
30
0.0000000000
10
8.7314362751
20
-17.0196550960
30
0.0000000000
10
8.7003648152
20
-17.0245631012
30
0.0000000000
10
8.6794238447
20
-17.0256554556
30
0.0000000000
10
8.6689866067
20
-17.0256554556
30
0.0000000000
11
8.9690539238
21
-16.7261532883
31
0.0000000000
11
8.9674040629
21
-16.7573849570
31
0.0000000000
11
8.9624720403
21
-16.7884200476
31
0.0000000000
11
8.9543219399
21
-16.8187390280
31
0.0000000000
11
8.9431013577
21
-16.8479028093
31
0.0000000000
11
8.9288408179
21
-16.8758455127
31
0.0000000000
11
8.9116706366
21
-16.9022336338
31
0.0000000000
11
8.8918745295
21
-16.9266221001
31
0.0000000000
11
8.8697541245
21
-16.9486988686
31
0.0000000000
11
8.8453194297
21
-16.9684537721
31
0.0000000000
11
8.8188869608
21
-16.9855832644
31
0.0000000000
11
8.7909027869
21
-16.9998054846
31
0.0000000000
11
8.7616969521
21
-17.0109929038
31
0.0000000000
11
8.7313326714
21
-17.0191153245
31
0.0000000000
11
8.7002557791
21
-17.0240238036
31
0.0000000000
11
8.6689866067
21
-17.0256554556
31
0.0000000000
0
SPLINE
5
379
100
AcDbEntity
8
0
100
AcDbSpline
62
7
6
CONTINUOUS
70
0
71
3
72
22
73
18
74
16
42
0.0000001000
43
0.0000001000
44
0.0000000001
12
0.4710279729
22
0.0000000000
32
0.0000000000
13
-0.0001141524
23
-0.4710279591
33
0.0000000000
40
0.0000000000
40
0.0000000000
40
0.0000000000
40
0.0000000000
40
0.0664780853
40
0.1332723819
40
0.2000018523
40
0.2664006817
40
0.3330504543
40
0.3999359463
40
0.4666715026
40
0.5330601023
40
0.5998023600
40
0.6667121118
40
0.7334019348
40
0.7998439064
40
0.8666141256
40
0.9334601601
40
1.0000000000
40
1.0000000000
40
1.0000000000
40
1.0000000000
10
8.6722001056
20
-8.0278113175
30
0.0000000000
10
8.6826377848
20
-8.0278113175
30
0.0000000000
10
8.7035792043
20
-8.0289055543
30
0.0000000000
10
8.7346497477
20
-8.0338221579
30
0.0000000000
10
8.7650260030
20
-8.0419623636
30
0.0000000000
10
8.7943635016
20
-8.0532212242
30
0.0000000000
10
8.8223885465
20
-8.0674914068
30
0.0000000000
10
8.8488096228
20
-8.0846473147
30
0.0000000000
10
8.8732552196
20
-8.1044515912
30
0.0000000000
10
8.8954831618
20
-8.1266833591
30
0.0000000000
10
8.9152863482
20
-8.1511360981
30
0.0000000000
10
8.9324438075
20
-8.1775694961
30
0.0000000000
10
8.9467164622
20
-8.2056122745
30
0.0000000000
10
8.9579763734
20
-8.2349702673
30
0.0000000000
10
8.9661157464
20
-8.2653688312
30
0.0000000000
10
8.9710294796
20
-8.2964644007
30
0.0000000000
10
8.9721198066
20
-8.3174239272
30
0.0000000000
10
8.9721172747
20
-8.3278713022
30
0.0000000000
11
8.6722001056
21
-8.0278113175
31
0.0000000000
11
8.7034704523
21
-8.0294458651
31
0.0000000000
11
8.7345458389
21
-8.0343628426
31
0.0000000000
11
8.7649060045
21
-8.0424989485
31
0.0000000000
11
8.7941053288
21
-8.0537047169
31
0.0000000000
11
8.8220812374
21
-8.0679499249
31
0.0000000000
11
8.8485044890
21
-8.0851072230
31
0.0000000000
11
8.8729293524
21
-8.1048946465
31
0.0000000000
11
8.8950393341
21
-8.1270083779
31
0.0000000000
11
8.9148246571
21
-8.1514390050
31
0.0000000000
11
8.9319837025
21
-8.1778747461
31
0.0000000000
11
8.9462323296
21
-8.2058700828
31
0.0000000000
11
8.9574395175
21
-8.2350906280
31
0.0000000000
11
8.9655742815
21
-8.2654710235
31
0.0000000000
11
8.9704884291
21
-8.2965715303
31
0.0000000000
11
8.9721172747
21
-8.3278713022
31
0.0000000000
0
SPLINE
5
37A
100
AcDbEntity
8
0
100
AcDbSpline
62
7
6
CONTINUOUS
70
0
71
3
72
22
73
18
74
16
42
0.0000001000
43
0.0000001000
44
0.0000000001
12
0.0001723677
22
0.4710385046
32
0.0000000000
13
-0.4710385362
23
0.0000000000
33
0.0000000000
40
0.0000000000
40
0.0000000000
40
0.0000000000
40
0.0000000000
40
0.0665270197
40
0.1334077753
40
0.2002089449
40
0.2666774526
40
0.3333898024
40
0.4003163915
40
0.4670693144
40
0.5334633586
40
0.6001990635
40
0.6670784605
40
0.7337167596
40
0.8001016938
40
0.8668152045
40
0.9335909648
40
1.0000000000
40
1.0000000000
40
1.0000000000
40
1.0000000000
10
8.9581086388
20
-8.3418799381
30
0.0000000000
10
8.9581124612
20
-8.3314343421
30
0.0000000000
10
8.9570249923
20
-8.3104707895
30
0.0000000000
10
8.9521144812
20
-8.2793655295
30
0.0000000000
10
8.9439745942
20
-8.2489513188
30
0.0000000000
10
8.9327121811
20
-8.2195800092
30
0.0000000000
10
8.9184356826
20
-8.1915267212
30
0.0000000000
10
8.9012737883
20
-8.1650859356
30
0.0000000000
10
8.8814663909
20
-8.1406289913
30
0.0000000000
10
8.8592351098
20
-8.1183959114
30
0.0000000000
10
8.8347876726
20
-8.0985928768
30
0.0000000000
10
8.8083668502
20
-8.0814402861
30
0.0000000000
10
8.7803442462
20
-8.0671746494
30
0.0000000000
10
8.7510110500
20
-8.0559207447
30
0.0000000000
10
8.7206406644
20
-8.0477853365
30
0.0000000000
10
8.6895850400
20
-8.0428741171
30
0.0000000000
10
8.6686569489
20
-8.0417815458
30
0.0000000000
10
8.6582298773
20
-8.0417815458
30
0.0000000000
11
8.9581086388
21
-8.3418799381
31
0.0000000000
11
8.9564846146
21
-8.3105852588
31
0.0000000000
11
8.9515724162
21
-8.2794671716
31
0.0000000000
11
8.9434370988
21
-8.2490711018
31
0.0000000000
11
8.9322274156
21
-8.2198373748
31
0.0000000000
11
8.9179748217
21
-8.1918313604
31
0.0000000000
11
8.9008113016
21
-8.1653882258
31
0.0000000000
11
8.8810218660
21
-8.1409535577
31
0.0000000000
11
8.8589085505
21
-8.1188385413
31
0.0000000000
11
8.8344817378
21
-8.0990522928
31
0.0000000000
11
8.8080588551
21
-8.0818984015
31
0.0000000000
11
8.7800857993
21
-8.0676579499
31
0.0000000000
11
8.7508908312
21
-8.0564571412
31
0.0000000000
11
8.7205364423
21
-8.0483257989
31
0.0000000000
11
8.6894685187
21
-8.0434130099
31
0.0000000000
11
8.6582298773
21
-8.0417815458
31
0.0000000000
0
SPLINE
5
37B
100
AcDbEntity
8
0
100
AcDbSpline
62
9
6
CONTINUOUS
70
0
71
3
72
19
73
15
74
13
42
0.0000001000
43
0.0000001000
44
0.0000000001
12
0.0000000000
22
-0.2736984469
32
0.0000000000
13
0.2683147000
23
-0.0547845372
33
0.0000000000
40
0.0000000000
40
0.0000000000
40
0.0000000000
40
0.0000000000
40
0.0882408630
40
0.1764813380
40
0.2647210598
40
0.3529597066
40
0.4411970194
40
0.5294328164
40
0.6176670040
40
0.7058995821
40
0.7941306439
40
0.8823603708
40
0.9705890217
40
1.0000000000
40
1.0000000000
40
1.0000000000
40
1.0000000000
10
-10.9993932438
20
0.3500000000
30
0.0000000000
10
-10.9993932438
20
0.3419495376
30
0.0000000000
10
-10.9984188785
20
0.3258317142
30
0.0000000000
10
-10.9940555436
20
0.3020209642
30
0.0000000000
10
-10.9868540476
20
0.2789062097
30
0.0000000000
10
-10.9769194011
20
0.2568291265
30
0.0000000000
10
-10.9643964687
20
0.2361104107
30
0.0000000000
10
-10.9494678601
20
0.2170525194
30
0.0000000000
10
-10.9323512577
20
0.1999332726
30
0.0000000000
10
-10.9132962806
20
0.1850023345
30
0.0000000000
10
-10.8925807028
20
0.1724774297
30
0.0000000000
10
-10.8705069351
20
0.1625412056
30
0.0000000000
10
-10.8525312768
20
0.1569390856
30
0.0000000000
10
-10.8420532130
20
0.1545789565
30
0.0000000000
10
-10.8394227471
20
0.1540418675
30
0.0000000000
11
-10.9993932438
21
0.3500000000
31
0.0000000000
11
-10.9979352405
21
0.3258926624
31
0.0000000000
11
-10.9935824917
21
0.3021368641
31
0.0000000000
11
-10.9863984702
21
0.2790790184
31
0.0000000000
11
-10.9764879354
21
0.2570553606
31
0.0000000000
11
-10.9639954053
21
0.2363870452
31
0.0000000000
11
-10.9491030492
21
0.2173754630
31
0.0000000000
11
-10.9320280314
21
0.2002978454
31
0.0000000000
11
-10.9130193442
21
0.1854032226
31
0.0000000000
11
-10.8923541772
21
0.1729087917
31
0.0000000000
11
-10.8703338751
21
0.1629967494
31
0.0000000000
11
-10.8472795436
21
0.1558116355
31
0.0000000000
11
-10.8394227471
21
0.1540418675
31
0.0000000000
0
SPLINE
5
37C
100
AcDbEntity
8
0
100
AcDbSpline
62
9
6
CONTINUOUS
70
0
71
3
72
9
73
5
74
3
42
0.0000001000
43
0.0000001000
44
0.0000000001
12
0.0394541807
22
-0.0080557607
32
0.0000000000
13
0.0402458307
23
0.0000000000
33
0.0000000000
40
0.0000000000
40
0.0000000000
40
0.0000000000
40
0.0000000000
40
0.3999942063
40
1.0000000000
40
1.0000000000
40
1.0000000000
40
1.0000000000
10
-10.8394227471
20
0.1540418675
30
0.0000000000
10
-10.8341622659
20
0.1529677816
30
0.0000000000
10
-10.8209023433
20
0.1508120932
30
0.0000000000
10
-10.8074729486
20
0.1500000000
30
0.0000000000
10
-10.7994237047
20
0.1500000000
30
0.0000000000
11
-10.8394227471
21
0.1540418675
31
0.0000000000
11
-10.8235273667
21
0.1514582249
31
0.0000000000
11
-10.7994237047
21
0.1500000000
31
0.0000000000
0
SPLINE
5
37D
100
AcDbEntity
8
0
100
AcDbSpline
62
9
6
CONTINUOUS
70
0
71
3
72
26
73
22
74
20
42
0.0000001000
43
0.0000001000
44
0.0000000001
12
0.7997659699
22
0.0134018751
32
0.0000000000
13
0.7998782513
23
0.0000039886
33
0.0000000000
40
0.0000000000
40
0.0000000000
40
0.0000000000
40
0.0000000000
40
0.0047657808
40
0.0161795723
40
0.0341655882
40
0.0586034072
40
0.0893297143
40
0.1261396914
40
0.1687870886
40
0.2169870962
40
0.2704175509
40
0.3287219462
40
0.3915102894
40
0.4583636192
40
0.5288351496
40
0.6024542995
40
0.6787284423
40
0.7571489887
40
0.8371922853
40
0.9183211337
40
1.0000000000
40
1.0000000000
40
1.0000000000
40
1.0000000000
10
-10.9993932081
20
0.3500000000
30
0.0000000000
10
-10.9981227050
20
0.3500212901
30
0.0000000000
10
-10.9938085274
20
0.3500141358
30
0.0000000000
10
-10.9846993573
20
0.3500484512
30
0.0000000000
10
-10.9703447192
20
0.3500566907
30
0.0000000000
10
-10.9508410474
20
0.3500783007
30
0.0000000000
10
-10.9263183373
20
0.3500941922
30
0.0000000000
10
-10.8969405061
20
0.3501116010
30
0.0000000000
10
-10.8629037196
20
0.3501276483
30
0.0000000000
10
-10.8244354828
20
0.3501431295
30
0.0000000000
10
-10.7817926803
20
0.3501576201
30
0.0000000000
10
-10.7352602467
20
0.3501711108
30
0.0000000000
10
-10.6851489241
20
0.3501834755
30
0.0000000000
10
-10.6317935255
20
0.3501946368
30
0.0000000000
10
-10.5755503511
20
0.3502045149
30
0.0000000000
10
-10.5167953419
20
0.3502130431
30
0.0000000000
10
-10.4559209175
20
0.3502201629
30
0.0000000000
10
-10.3933336479
20
0.3502258263
30
0.0000000000
10
-10.3294519870
20
0.3502299953
30
0.0000000000
10
-10.2647015730
20
0.3502326400
30
0.0000000000
10
-10.2212927896
20
0.3502333797
30
0.0000000000
10
-10.1995150734
20
0.3502334883
30
0.0000000000
11
-10.9993932081
21
0.3500000000
31
0.0000000000
11
-10.9955812116
21
0.3500191061
31
0.0000000000
11
-10.9864515877
21
0.3500380778
31
0.0000000000
11
-10.9720649769
21
0.3500567890
31
0.0000000000
11
-10.9525177056
21
0.3500751153
31
0.0000000000
11
-10.9279404072
21
0.3500929344
31
0.0000000000
11
-10.8984969122
21
0.3501101280
31
0.0000000000
11
-10.8643841907
21
0.3501265818
31
0.0000000000
11
-10.8258300560
21
0.3501421865
31
0.0000000000
11
-10.7830921998
21
0.3501568386
31
0.0000000000
11
-10.7364557841
21
0.3501704410
31
0.0000000000
11
-10.6862327554
21
0.3501829036
31
0.0000000000
11
-10.6327582321
21
0.3501941438
31
0.0000000000
11
-10.5763895885
21
0.3502040874
31
0.0000000000
11
-10.5175032322
21
0.3502126686
31
0.0000000000
11
-10.4564932046
21
0.3502198306
31
0.0000000000
11
-10.3937663154
21
0.3502255261
31
0.0000000000
11
-10.3297414234
21
0.3502297176
31
0.0000000000
11
-10.2648482221
21
0.3502323774
31
0.0000000000
11
-10.1995150734
21
0.3502334883
31
0.0000000000
0
SPLINE
5
37E
100
AcDbEntity
8
0
100
AcDbSpline
62
7
6
CONTINUOUS
70
0
71
3
72
10
73
6
74
4
42
0.0000001000
43
0.0000001000
44
0.0000000001
12
0.0020353027
22
-8.3982823168
32
0.0000000000
13
0.0040926037
23
-8.3982815663
33
0.0000000000
40
0.0000000000
40
0.0000000000
40
0.0000000000
40
0.0000000000
40
0.3334580823
40
0.6668021449
40
1.0000000000
40
1.0000000000
40
1.0000000000
40
1.0000000000
10
-8.9721172747
20
-8.3278713022
30
0.0000000000
10
-8.9718910454
20
-9.2613630076
30
0.0000000000
10
-8.9713625441
20
-11.1280272108
30
0.0000000000
10
-8.9703414718
20
-13.9274545485
30
0.0000000000
10
-8.9695084728
20
-15.7933901534
30
0.0000000000
10
-8.9690539238
20
-16.7261532883
30
0.0000000000
11
-8.9721172747
21
-8.3278713022
31
0.0000000000
11
-8.9713243527
21
-11.1283463884
31
0.0000000000
11
-8.9703032029
21
-13.9278638303
31
0.0000000000
11
-8.9690539238
21
-16.7261532883
31
0.0000000000
0
SPLINE
5
37F
100
AcDbEntity
8
0
100
AcDbSpline
62
9
6
CONTINUOUS
70
0
71
3
72
45
73
41
74
39
42
0.0000001000
43
0.0000001000
44
0.0000000001
12
0.9446380137
22
4.2166284796
32
0.0000000000
13
0.9446379949
23
-4.2166284838
33
0.0000000000
40
0.0000000000
40
0.0000000000
40
0.0000000000
40
0.0000000000
40
0.0263361000
40
0.0526706590
40
0.0790034287
40
0.1053340861
40
0.1316623926
40
0.1579881975
40
0.1843112788
40
0.2106316435
40
0.2369491466
40
0.2632639103
40
0.2895759243
40
0.3158853819
40
0.3421924383
40
0.3684973294
40
0.3948003659
40
0.4211018217
40
0.4474021132
40
0.4737015618
40
0.5000006213
40
0.5262996627
40
0.5525991146
40
0.5788993788
40
0.6052008177
40
0.6315038218
40
0.6578086731
40
0.6841156926
40
0.7104250885
40
0.7367370580
40
0.7630517424
40
0.7893691876
40
0.8156894611
40
0.8420124656
40
0.8683381720
40
0.8946663790
40
0.9209969325
40
0.9473295802
40
0.9736640285
40
1.0000000000
40
1.0000000000
40
1.0000000000
40
1.0000000000
10
-1.5612490537
20
0.3502334888
30
0.0000000000
10
-1.5529563600
20
0.3872500052
30
0.0000000000
10
-1.5337338509
20
0.4607183064
30
0.0000000000
10
-1.4971554124
20
0.5685704910
30
0.0000000000
10
-1.4530136089
20
0.6735520736
30
0.0000000000
10
-1.4015339823
20
0.7751250688
30
0.0000000000
10
-1.3429774532
20
0.8727783646
30
0.0000000000
10
-1.2776412012
20
0.9660183643
30
0.0000000000
10
-1.2058564012
20
1.0543748401
30
0.0000000000
10
-1.1279868577
20
1.1374021477
30
0.0000000000
10
-1.0444267673
20
1.2146820490
30
0.0000000000
10
-0.9555990438
20
1.2858253461
30
0.0000000000
10
-0.8619527644
20
1.3504741598
30
0.0000000000
10
-0.7639612042
20
1.4083034065
30
0.0000000000
10
-0.6621191696
20
1.4590225566
30
0.0000000000
10
-0.5569406363
20
1.5023769480
30
0.0000000000
10
-0.4489561452
20
1.5381490153
30
0.0000000000
10
-0.3387100408
20
1.5661593662
30
0.0000000000
10
-0.2267579629
20
1.5862675623
30
0.0000000000
10
-0.1136638256
20
1.5983728457
30
0.0000000000
10
0.0000026895
20
1.6024145604
30
0.0000000000
10
0.1136691954
20
1.5983724622
30
0.0000000000
10
0.2267632318
20
1.5862668061
30
0.0000000000
10
0.3387151847
20
1.5661582489
30
0.0000000000
10
0.4489610907
20
1.5381475657
30
0.0000000000
10
0.5569453456
20
1.5023751940
30
0.0000000000
10
0.6621235989
20
1.4590205371
30
0.0000000000
10
0.7639653031
20
1.4083011714
30
0.0000000000
10
0.8619565198
20
1.3504717499
30
0.0000000000
10
0.9556024035
20
1.2858228341
30
0.0000000000
10
1.0444297409
20
1.2146794750
30
0.0000000000
10
1.1279894070
20
1.1373996003
30
0.0000000000
10
1.2058585480
20
1.0543723626
30
0.0000000000
10
1.2776429349
20
0.9660160469
30
0.0000000000
10
1.3429788006
20
0.8727762612
30
0.0000000000
10
1.4015349686
20
0.7751232565
30
0.0000000000
10
1.4530142567
20
0.6735506187
30
0.0000000000
10
1.4971558170
20
0.5685694560
30
0.0000000000
10
1.5337339027
20
0.4607177122
30
0.0000000000
10
1.5529566273
20
0.3872498247
30
0.0000000000
10
1.5612492804
20
0.3502334888
30
0.0000000000
11
-1.5612490537
21
0.3502334888
31
0.0000000000
11
-1.5324422363
21
0.4603293042
31
0.0000000000
11
-1.4958934695
21
0.5680956877
31
0.0000000000
11
-1.4517887249
21
0.6729880978
31
0.0000000000
11
-1.4003520495
21
0.7744762128
31
0.0000000000
11
-1.3418445444
21
0.8720473624
31
0.0000000000
11
-1.2765629280
21
0.9652090959
31
0.0000000000
11
-1.2048383911
21
1.0534910940
31
0.0000000000
11
-1.1270340905
21
1.1364485589
31
0.0000000000
11
-1.0435443188
21
1.2136631656
31
0.0000000000
11
-0.9547912243
21
1.2847464517
31
0.0000000000
11
-0.8612238897
21
1.3493405478
31
0.0000000000
11
-0.7633149175
21
1.4071208608
31
0.0000000000
11
-0.6615588447
21
1.4577970294
31
0.0000000000
11
-0.5564692129
21
1.5011146297
31
0.0000000000
11
-0.4485759653
21
1.5368563503
31
0.0000000000
11
-0.3384232318
21
1.5648428839
31
0.0000000000
11
-0.2265658490
21
1.5849340037
31
0.0000000000
11
-0.1135675710
21
1.5970289858
31
0.0000000000
11
0.0000027132
21
1.6010672651
31
0.0000000000
11
0.1135729060
21
1.5970286055
31
0.0000000000
11
0.2265711570
21
1.5849332431
31
0.0000000000
11
0.3384283573
21
1.5648417729
31
0.0000000000
11
0.4485809288
21
1.5368548981
31
0.0000000000
11
0.5564739293
21
1.5011128771
31
0.0000000000
11
0.6615632682
21
1.4577950170
31
0.0000000000
11
0.7633190465
21
1.4071186152
31
0.0000000000
11
0.8612276243
21
1.3493381577
31
0.0000000000
11
0.9547946249
21
1.2847439172
31
0.0000000000
11
1.0435472712
21
1.2136606192
31
0.0000000000
11
1.1270366771
21
1.1364459852
31
0.0000000000
11
1.2048405289
21
1.0534886399
31
0.0000000000
11
1.2765646861
21
0.9652067608
31
0.0000000000
11
1.3418459004
21
0.8720452654
31
0.0000000000
11
1.4003530454
21
0.7744744008
31
0.0000000000
11
1.4517894008
21
0.6729866271
31
0.0000000000
11
1.4958938522
21
0.5680946658
31
0.0000000000
11
1.5324424079
21
0.4603287161
31
0.0000000000
11
1.5612492804
21
0.3502334888
31
0.0000000000
0
SPLINE
5
380
100
AcDbEntity
8
0
100
AcDbSpline
62
7
6
CONTINUOUS
70
0
71
3
72
10
73
6
74
4
42
0.0000001000
43
0.0000001000
44
0.0000000001
12
-0.0020353027
22
-8.3982823168
32
0.0000000000
13
-0.0040926037
23
-8.3982815663
33
0.0000000000
40
0.0000000000
40
0.0000000000
40
0.0000000000
40
0.0000000000
40
0.3334580823
40
0.6668021449
40
1.0000000000
40
1.0000000000
40
1.0000000000
40
1.0000000000
10
8.9721172747
20
-8.3278713022
30
0.0000000000
10
8.9718910454
20
-9.2613630076
30
0.0000000000
10
8.9713625441
20
-11.1280272108
30
0.0000000000
10
8.9703414718
20
-13.9274545485
30
0.0000000000
10
8.9695084728
20
-15.7933901534
30
0.0000000000
10
8.9690539238
20
-16.7261532883
30
0.0000000000
11
8.9721172747
21
-8.3278713022
31
0.0000000000
11
8.9713243527
21
-11.1283463884
31
0.0000000000
11
8.9703032029
21
-13.9278638303
31
0.0000000000
11
8.9690539238
21
-16.7261532883
31
0.0000000000
0
SPLINE
5
381
100
AcDbEntity
8
0
100
AcDbSpline
62
9
6
CONTINUOUS
70
0
71
3
72
19
73
15
74
13
42
0.0000001000
43
0.0000001000
44
0.0000000001
12
-0.0000000000
22
0.2736984432
32
0.0000000000
13
0.2683146953
23
0.0547845415
33
0.0000000000
40
0.0000000000
40
0.0000000000
40
0.0000000000
40
0.0000000000
40
0.0882408584
40
0.1764813291
40
0.2647210470
40
0.3529596908
40
0.4411970014
40
0.5294327974
40
0.6176669853
40
0.7058995650
40
0.7941306300
40
0.8823603617
40
0.9705890191
40
1.0000000000
40
1.0000000000
40
1.0000000000
40
1.0000000000
10
-10.9993932438
20
-0.3500000000
30
0.0000000000
10
-10.9993932438
20
-0.3419495381
30
0.0000000000
10
-10.9984188787
20
-0.3258317158
30
0.0000000000
10
-10.9940555443
20
-0.3020209672
30
0.0000000000
10
-10.9868540492
20
-0.2789062139
30
0.0000000000
10
-10.9769194036
20
-0.2568291315
30
0.0000000000
10
-10.9643964723
20
-0.2361104161
30
0.0000000000
10
-10.9494678648
20
-0.2170525247
30
0.0000000000
10
-10.9323512632
20
-0.1999332775
30
0.0000000000
10
-10.9132962866
20
-0.1850023386
30
0.0000000000
10
-10.8925807087
20
-0.1724774328
30
0.0000000000
10
-10.8705069404
20
-0.1625412076
30
0.0000000000
10
-10.8525312813
20
-0.1569390868
30
0.0000000000
10
-10.8420532169
20
-0.1545789573
30
0.0000000000
10
-10.8394227508
20
-0.1540418683
30
0.0000000000
11
-10.9993932438
21
-0.3500000000
31
0.0000000000
11
-10.9979352407
21
-0.3258926639
31
0.0000000000
11
-10.9935824924
21
-0.3021368671
31
0.0000000000
11
-10.9863984718
21
-0.2790790226
31
0.0000000000
11
-10.9764879380
21
-0.2570553656
31
0.0000000000
11
-10.9639954090
21
-0.2363870507
31
0.0000000000
11
-10.9491030540
21
-0.2173754684
31
0.0000000000
11
-10.9320280370
21
-0.2002978504
31
0.0000000000
11
-10.9130193503
21
-0.1854032268
31
0.0000000000
11
-10.8923541832
21
-0.1729087949
31
0.0000000000
11
-10.8703338805
21
-0.1629967515
31
0.0000000000
11
-10.8472795478
21
-0.1558116365
31
0.0000000000
11
-10.8394227508
21
-0.1540418683
31
0.0000000000
0
SPLINE
5
382
100
AcDbEntity
8
0
100
AcDbSpline
62
9
6
CONTINUOUS
70
0
71
3
72
9
73
5
74
3
42
0.0000001000
43
0.0000001000
44
0.0000000001
12
0.0394541843
22
0.0080557623
32
0.0000000000
13
0.0402458344
23
0.0000000000
33
0.0000000000
40
0.0000000000
40
0.0000000000
40
0.0000000000
40
0.0000000000
40
0.3999942022
40
1.0000000000
40
1.0000000000
40
1.0000000000
40
1.0000000000
10
-10.8394227508
20
-0.1540418683
30
0.0000000000
10
-10.8341622691
20
-0.1529677822
30
0.0000000000
10
-10.8209023454
20
-0.1508120934
30
0.0000000000
10
-10.8074729494
20
-0.1500000000
30
0.0000000000
10
-10.7994237047
20
-0.1500000000
30
0.0000000000
11
-10.8394227508
21
-0.1540418683
31
0.0000000000
11
-10.8235273691
21
-0.1514582252
31
0.0000000000
11
-10.7994237047
21
-0.1500000000
31
0.0000000000
0
SPLINE
5
383
100
AcDbEntity
8
0
100
AcDbSpline
62
9
6
CONTINUOUS
70
0
71
3
72
26
73
22
74
20
42
0.0000001000
43
0.0000001000
44
0.0000000001
12
0.7998782513
22
-0.0000039886
32
0.0000000000
13
0.7997659699
23
-0.0134018752
33
0.0000000000
40
0.0000000000
40
0.0000000000
40
0.0000000000
40
0.0000000000
40
0.0816788662
40
0.1628077147
40
0.2428510113
40
0.3212715576
40
0.3975457005
40
0.4711648504
40
0.5416363808
40
0.6084897106
40
0.6712780538
40
0.7295824491
40
0.7830129038
40
0.8312129114
40
0.8738603086
40
0.9106702857
40
0.9413965928
40
0.9658344118
40
0.9838204277
40
0.9952342192
40
1.0000000000
40
1.0000000000
40
1.0000000000
40
1.0000000000
10
10.1995150734
20
0.3502334883
30
0.0000000000
10
10.2212927896
20
0.3502333797
30
0.0000000000
10
10.2647015730
20
0.3502326400
30
0.0000000000
10
10.3294519870
20
0.3502299953
30
0.0000000000
10
10.3933336479
20
0.3502258263
30
0.0000000000
10
10.4559209175
20
0.3502201629
30
0.0000000000
10
10.5167953419
20
0.3502130431
30
0.0000000000
10
10.5755503511
20
0.3502045149
30
0.0000000000
10
10.6317935255
20
0.3501946368
30
0.0000000000
10
10.6851489241
20
0.3501834755
30
0.0000000000
10
10.7352602467
20
0.3501711108
30
0.0000000000
10
10.7817926803
20
0.3501576201
30
0.0000000000
10
10.8244354828
20
0.3501431295
30
0.0000000000
10
10.8629037196
20
0.3501276483
30
0.0000000000
10
10.8969405061
20
0.3501116010
30
0.0000000000
10
10.9263183373
20
0.3500941922
30
0.0000000000
10
10.9508410474
20
0.3500783007
30
0.0000000000
10
10.9703447192
20
0.3500566907
30
0.0000000000
10
10.9846993573
20
0.3500484512
30
0.0000000000
10
10.9938085274
20
0.3500141358
30
0.0000000000
10
10.9981227050
20
0.3500212901
30
0.0000000000
10
10.9993932081
20
0.3500000000
30
0.0000000000
11
10.1995150734
21
0.3502334883
31
0.0000000000
11
10.2648482220
21
0.3502323774
31
0.0000000000
11
10.3297414234
21
0.3502297176
31
0.0000000000
11
10.3937663154
21
0.3502255261
31
0.0000000000
11
10.4564932046
21
0.3502198306
31
0.0000000000
11
10.5175032322
21
0.3502126686
31
0.0000000000
11
10.5763895885
21
0.3502040874
31
0.0000000000
11
10.6327582321
21
0.3501941438
31
0.0000000000
11
10.6862327554
21
0.3501829036
31
0.0000000000
11
10.7364557841
21
0.3501704410
31
0.0000000000
11
10.7830921998
21
0.3501568386
31
0.0000000000
11
10.8258300560
21
0.3501421865
31
0.0000000000
11
10.8643841907
21
0.3501265818
31
0.0000000000
11
10.8984969122
21
0.3501101280
31
0.0000000000
11
10.9279404072
21
0.3500929344
31
0.0000000000
11
10.9525177056
21
0.3500751153
31
0.0000000000
11
10.9720649769
21
0.3500567890
31
0.0000000000
11
10.9864515877
21
0.3500380778
31
0.0000000000
11
10.9955812116
21
0.3500191061
31
0.0000000000
11
10.9993932081
21
0.3500000000
31
0.0000000000
0
SPLINE
5
384
100
AcDbEntity
8
0
100
AcDbSpline
62
9
6
CONTINUOUS
70
0
71
3
72
20
73
16
74
14
42
0.0000001000
43
0.0000001000
44
0.0000000001
12
-0.0000000001
22
0.2001134733
32
0.0000000000
13
0.2001134733
23
0.0000000000
33
0.0000000000
40
0.0000000000
40
0.0000000000
40
0.0000000000
40
0.0000000000
40
0.1204684056
40
0.2391806510
40
0.3544062093
40
0.4644654513
40
0.5677541767
40
0.6627670662
40
0.7481197308
40
0.8225690803
40
0.8850318246
40
0.9346011601
40
0.9705626272
40
0.9924157683
40
1.0000000000
40
1.0000000000
40
1.0000000000
40
1.0000000000
10
-28.5424274968
20
-0.3500000000
30
0.0000000000
10
-28.5424274968
20
-0.3419642163
30
0.0000000000
10
-28.5424107791
20
-0.3260097818
30
0.0000000000
10
-28.5423357225
20
-0.3023694226
30
0.0000000000
10
-28.5422119662
20
-0.2794235003
30
0.0000000000
10
-28.5420411539
20
-0.2575071173
30
0.0000000000
10
-28.5418268037
20
-0.2369381242
30
0.0000000000
10
-28.5415693868
20
-0.2180221999
30
0.0000000000
10
-28.5412824353
20
-0.2010165938
30
0.0000000000
10
-28.5409418245
20
-0.1862267167
30
0.0000000000
10
-28.5406393716
20
-0.1736986893
30
0.0000000000
10
-28.5401471867
20
-0.1640805429
30
0.0000000000
10
-28.5400622806
20
-0.1563562242
30
0.0000000000
10
-28.5391954927
20
-0.1530268341
30
0.0000000000
10
-28.5394429178
20
-0.1500000000
30
0.0000000000
10
-28.5389370155
20
-0.1500000000
30
0.0000000000
11
-28.5424274968
21
-0.3500000000
31
0.0000000000
11
-28.5424020473
21
-0.3258926624
31
0.0000000000
11
-28.5423260698
21
-0.3021368641
31
0.0000000000
11
-28.5422006722
21
-0.2790790184
31
0.0000000000
11
-28.5420276832
21
-0.2570553606
31
0.0000000000
11
-28.5418096253
21
-0.2363870452
31
0.0000000000
11
-28.5415496782
21
-0.2173754630
31
0.0000000000
11
-28.5412516327
21
-0.2002978454
31
0.0000000000
11
-28.5409198348
21
-0.1854032226
31
0.0000000000
11
-28.5405591230
21
-0.1729087917
31
0.0000000000
11
-28.5401747572
21
-0.1629967494
31
0.0000000000
11
-28.5397723423
21
-0.1558116355
31
0.0000000000
11
-28.5393577465
21
-0.1514582249
31
0.0000000000
11
-28.5389370155
21
-0.1500000000
31
0.0000000000
0
SPLINE
5
385
100
AcDbEntity
8
0
100
AcDbSpline
62
9
6
CONTINUOUS
70
0
71
3
72
14
73
10
74
8
42
0.0000001000
43
0.0000001000
44
0.0000000001
12
0.0233801530
22
-19.9867638994
32
0.0000000000
13
1.3574706252
23
-19.9406256498
33
0.0000000000
40
0.0000000000
40
0.0000000000
40
0.0000000000
40
0.0000000000
40
0.1428566809
40
0.2857137742
40
0.4285708961
40
0.5714280649
40
0.7142852977
40
0.8571425617
40
1.0000000000
40
1.0000000000
40
1.0000000000
40
1.0000000000
10
-28.5424274968
20
-0.3500000000
30
0.0000000000
10
-28.5413141598
20
-1.3017475842
30
0.0000000000
10
-28.5300048388
20
-3.2052473878
30
0.0000000000
10
-28.4857945287
20
-6.0601966920
30
0.0000000000
10
-28.4143417746
20
-8.9146001027
30
0.0000000000
10
-28.3156530988
20
-11.7681916918
30
0.0000000000
10
-28.1897374308
20
-14.6207134341
30
0.0000000000
10
-28.0366063493
20
-17.4719027450
30
0.0000000000
10
-27.9163840999
20
-19.3716420838
30
0.0000000000
10
-27.8517425079
20
-20.3211976496
30
0.0000000000
11
-28.5424274968
21
-0.3500000000
31
0.0000000000
11
-28.5254638175
21
-3.2051943131
31
0.0000000000
11
-28.4812541343
21
-6.0601049774
31
0.0000000000
11
-28.4098024685
21
-8.9144643318
31
0.0000000000
11
-28.3111152897
21
-11.7680127998
31
0.0000000000
11
-28.1852015539
21
-14.6204908562
31
0.0000000000
11
-28.0320727087
21
-17.4716380712
31
0.0000000000
11
-27.8517425079
21
-20.3211976496
31
0.0000000000
0
SPLINE
5
386
100
AcDbEntity
8
0
100
AcDbSpline
62
9
6
CONTINUOUS
70
0
71
3
72
14
73
10
74
8
42
0.0000001000
43
0.0000001000
44
0.0000000001
12
-1.3574706275
22
-19.9406256496
32
0.0000000000
13
-0.0233801523
23
-19.9867638994
33
0.0000000000
40
0.0000000000
40
0.0000000000
40
0.0000000000
40
0.0000000000
40
0.1428574441
40
0.2857147075
40
0.4285719393
40
0.5714291070
40
0.7142862279
40
0.8571433201
40
1.0000000000
40
1.0000000000
40
1.0000000000
40
1.0000000000
10
-27.8517425079
20
20.3211976496
30
0.0000000000
10
-27.9163841026
20
19.3716420450
30
0.0000000000
10
-28.0366063536
20
17.4719026715
30
0.0000000000
10
-28.1897374357
20
14.6207133332
30
0.0000000000
10
-28.3156531019
20
11.7681916091
30
0.0000000000
10
-28.4143417764
20
8.9146000410
30
0.0000000000
10
-28.4857945295
20
6.0601966509
30
0.0000000000
10
-28.5300048390
20
3.2052473672
30
0.0000000000
10
-28.5413141598
20
1.3017475773
30
0.0000000000
10
-28.5424274968
20
0.3500000000
30
0.0000000000
11
-27.8517425079
21
20.3211976496
31
0.0000000000
11
-28.0320727155
21
17.4716379549
31
0.0000000000
11
-28.1852015590
21
14.6204907520
31
0.0000000000
11
-28.3111152929
21
11.7680127175
31
0.0000000000
11
-28.4098024703
21
8.9144642701
31
0.0000000000
11
-28.4812541351
21
6.0601049362
31
0.0000000000
11
-28.5254638177
21
3.2051942925
31
0.0000000000
11
-28.5424274968
21
0.3500000000
31
0.0000000000
0
SPLINE
5
387
100
AcDbEntity
8
0
100
AcDbSpline
62
9
6
CONTINUOUS
70
0
71
3
72
20
73
16
74
14
42
0.0000001000
43
0.0000001000
44
0.0000000001
12
0.0000000000
22
-0.2001134733
32
0.0000000000
13
0.2001134733
23
0.0000000000
33
0.0000000000
40
0.0000000000
40
0.0000000000
40
0.0000000000
40
0.0000000000
40
0.1204683977
40
0.2391806358
40
0.3544061883
40
0.4644654263
40
0.5677541497
40
0.6627670393
40
0.7481197060
40
0.8225690595
40
0.8850318087
40
0.9346011498
40
0.9705626219
40
0.9924157668
40
1.0000000000
40
1.0000000000
40
1.0000000000
40
1.0000000000
10
-28.5424274968
20
0.3500000000
30
0.0000000000
10
-28.5424274968
20
0.3419642168
30
0.0000000000
10
-28.5424107791
20
0.3260097833
30
0.0000000000
10
-28.5423357225
20
0.3023694255
30
0.0000000000
10
-28.5422119662
20
0.2794235044
30
0.0000000000
10
-28.5420411539
20
0.2575071222
30
0.0000000000
10
-28.5418268038
20
0.2369381295
30
0.0000000000
10
-28.5415693868
20
0.2180222052
30
0.0000000000
10
-28.5412824353
20
0.2010165986
30
0.0000000000
10
-28.5409418246
20
0.1862267208
30
0.0000000000
10
-28.5406393717
20
0.1736986924
30
0.0000000000
10
-28.5401471868
20
0.1640805450
30
0.0000000000
10
-28.5400622808
20
0.1563562252
30
0.0000000000
10
-28.5391954927
20
0.1530268347
30
0.0000000000
10
-28.5394429179
20
0.1500000000
30
0.0000000000
10
-28.5389370155
20
0.1500000000
30
0.0000000000
11
-28.5424274968
21
0.3500000000
31
0.0000000000
11
-28.5424020473
21
0.3258926639
31
0.0000000000
11
-28.5423260698
21
0.3021368671
31
0.0000000000
11
-28.5422006722
21
0.2790790226
31
0.0000000000
11
-28.5420276832
21
0.2570553656
31
0.0000000000
11
-28.5418096253
21
0.2363870507
31
0.0000000000
11
-28.5415496783
21
0.2173754684
31
0.0000000000
11
-28.5412516327
21
0.2002978504
31
0.0000000000
11
-28.5409198349
21
0.1854032268
31
0.0000000000
11
-28.5405591231
21
0.1729087949
31
0.0000000000
11
-28.5401747572
21
0.1629967515
31
0.0000000000
11
-28.5397723424
21
0.1558116365
31
0.0000000000
11
-28.5393577465
21
0.1514582252
31
0.0000000000
11
-28.5389370155
21
0.1500000000
31
0.0000000000
0
SPLINE
5
388
100
AcDbEntity
8
0
100
AcDbSpline
62
9
6
CONTINUOUS
70
0
71
3
72
14
73
10
74
8
42
0.0000001000
43
0.0000001000
44
0.0000000001
12
0.0233801530
22
-19.9867638994
32
0.0000000000
13
1.3574706252
23
-19.9406256498
33
0.0000000000
40
0.0000000000
40
0.0000000000
40
0.0000000000
40
0.0000000000
40
0.1428566809
40
0.2857137742
40
0.4285708961
40
0.5714280649
40
0.7142852977
40
0.8571425617
40
1.0000000000
40
1.0000000000
40
1.0000000000
40
1.0000000000
10
-28.5424274968
20
-0.3500000000
30
0.0000000000
10
-28.5413141598
20
-1.3017475842
30
0.0000000000
10
-28.5300048388
20
-3.2052473878
30
0.0000000000
10
-28.4857945287
20
-6.0601966920
30
0.0000000000
10
-28.4143417746
20
-8.9146001027
30
0.0000000000
10
-28.3156530988
20
-11.7681916918
30
0.0000000000
10
-28.1897374308
20
-14.6207134341
30
0.0000000000
10
-28.0366063493
20
-17.4719027450
30
0.0000000000
10
-27.9163840999
20
-19.3716420838
30
0.0000000000
10
-27.8517425079
20
-20.3211976496
30
0.0000000000
11
-28.5424274968
21
-0.3500000000
31
0.0000000000
11
-28.5254638175
21
-3.2051943131
31
0.0000000000
11
-28.4812541343
21
-6.0601049774
31
0.0000000000
11
-28.4098024685
21
-8.9144643318
31
0.0000000000
11
-28.3111152897
21
-11.7680127998
31
0.0000000000
11
-28.1852015539
21
-14.6204908562
31
0.0000000000
11
-28.0320727087
21
-17.4716380712
31
0.0000000000
11
-27.8517425079
21
-20.3211976496
31
0.0000000000
0
SPLINE
5
389
100
AcDbEntity
8
0
100
AcDbSpline
62
9
6
CONTINUOUS
70
0
71
3
72
28
73
24
74
22
42
0.0000001000
43
0.0000001000
44
0.0000000001
12
0.0706094752
22
-1.0371430583
32
0.0000000000
13
1.0393854440
23
-0.0181471775
33
0.0000000000
40
0.0000000000
40
0.0000000000
40
0.0000000000
40
0.0000000000
40
0.0476103241
40
0.0952288586
40
0.1428477417
40
0.1904666363
40
0.2380855717
40
0.2857047447
40
0.3333240092
40
0.3809434027
40
0.4285628847
40
0.4761825807
40
0.5238023844
40
0.5714223742
40
0.6190424325
40
0.6666626594
40
0.7142829972
40
0.7619034620
40
0.8095238796
40
0.8571444201
40
0.9047650795
40
0.9523854986
40
1.0000000000
40
1.0000000000
40
1.0000000000
40
1.0000000000
10
-27.8517425079
20
-20.3211976496
30
0.0000000000
10
-27.8506219279
20
-20.3376572220
30
0.0000000000
10
-27.8472152432
20
-20.3705118060
30
0.0000000000
10
-27.8386360357
20
-20.4193013764
30
0.0000000000
10
-27.8266292859
20
-20.4673680865
30
0.0000000000
10
-27.8112555397
20
-20.5144654967
30
0.0000000000
10
-27.7925916848
20
-20.5603589166
30
0.0000000000
10
-27.7707310124
20
-20.6048186143
30
0.0000000000
10
-27.7457828092
20
-20.6476223265
30
0.0000000000
10
-27.7178718413
20
-20.6885559171
30
0.0000000000
10
-27.6871376468
20
-20.7274147022
30
0.0000000000
10
-27.6537339076
20
-20.7640043212
30
0.0000000000
10
-27.6178276300
20
-20.7981417890
30
0.0000000000
10
-27.5795983990
20
-20.8296563229
30
0.0000000000
10
-27.5392373691
20
-20.8583903061
30
0.0000000000
10
-27.4969463979
20
-20.8841999981
30
0.0000000000
10
-27.4529369535
20
-20.9069563057
30
0.0000000000
10
-27.4074292087
20
-20.9265453663
30
0.0000000000
10
-27.3606506857
20
-20.9428691958
30
0.0000000000
10
-27.3128355689
20
-20.9558461565
30
0.0000000000
10
-27.2642221777
20
-20.9654112803
30
0.0000000000
10
-27.2150589790
20
-20.9715165564
30
0.0000000000
10
-27.1820721853
20
-20.9732601043
30
0.0000000000
10
-27.1655755787
20
-20.9735481273
30
0.0000000000
11
-27.8517425079
21
-20.3211976496
31
0.0000000000
11
-27.8466374844
21
-20.3704266831
31
0.0000000000
11
-27.8380648903
21
-20.4191802938
31
0.0000000000
11
-27.8260681267
21
-20.4672065103
31
0.0000000000
11
-27.8107071993
21
-20.5142648028
31
0.0000000000
11
-27.7920589244
21
-20.5601198683
31
0.0000000000
11
-27.7702164512
21
-20.6045425653
31
0.0000000000
11
-27.7452890485
21
-20.6473105867
31
0.0000000000
11
-27.7174013366
21
-20.6882100715
31
0.0000000000
11
-27.6866927861
21
-20.7270364333
31
0.0000000000
11
-27.6533168645
21
-20.7635955817
31
0.0000000000
11
-27.6174405350
21
-20.7977045767
31
0.0000000000
11
-27.5792431374
21
-20.8291928684
31
0.0000000000
11
-27.5389157778
21
-20.8579028810
31
0.0000000000
11
-27.4966600396
21
-20.8836910703
31
0.0000000000
11
-27.4526872864
21
-20.9064284074
31
0.0000000000
11
-27.4072174080
21
-20.9260011628
31
0.0000000000
11
-27.3604779716
21
-20.9423113688
31
0.0000000000
11
-27.3127025632
21
-20.9552775069
31
0.0000000000
11
-27.2641301145
21
-20.9648346952
31
0.0000000000
11
-27.2150039204
21
-20.9709351008
31
0.0000000000
11
-27.1655755787
21
-20.9735481273
31
0.0000000000
0
SPLINE
5
38A
100
AcDbEntity
8
0
100
AcDbSpline
62
9
6
CONTINUOUS
70
0
71
3
72
25
73
21
74
19
42
0.0000001000
43
0.0000001000
44
0.0000000001
12
-0.0139619572
22
-0.8001236990
32
0.0000000000
13
0.8001236247
23
-0.0139662098
33
0.0000000000
40
0.0000000000
40
0.0000000000
40
0.0000000000
40
0.0000000000
40
0.0871110158
40
0.1735572083
40
0.2586811324
40
0.3418354123
40
0.4223876725
40
0.4997253562
40
0.5732603957
40
0.6424337003
40
0.7067194305
40
0.7656290310
40
0.8187150001
40
0.8655743867
40
0.9058520297
40
0.9392436234
40
0.9654989068
40
0.9844261647
40
0.9959047730
40
1.0000000000
40
1.0000000000
40
1.0000000000
40
1.0000000000
10
-27.1655755787
20
-20.9735481273
30
0.0000000000
10
-27.1659809922
20
-20.9967813233
30
0.0000000000
10
-27.1667535997
20
-21.0430710226
30
0.0000000000
10
-27.1677996359
20
-21.1120659243
30
0.0000000000
10
-27.1687233773
20
-21.1800070247
30
0.0000000000
10
-27.1695178469
20
-21.2463774555
30
0.0000000000
10
-27.1701770739
20
-21.3106722905
30
0.0000000000
10
-27.1706961630
20
-21.3724024309
30
0.0000000000
10
-27.1710712847
20
-21.4310981653
30
0.0000000000
10
-27.1712999277
20
-21.4863133054
30
0.0000000000
10
-27.1713802594
20
-21.5376266804
30
0.0000000000
10
-27.1713134953
20
-21.5846516875
30
0.0000000000
10
-27.1710964868
20
-21.6270185655
30
0.0000000000
10
-27.1707457883
20
-21.6644429757
30
0.0000000000
10
-27.1702244528
20
-21.6965257196
30
0.0000000000
10
-27.1696605729
20
-21.7233549977
30
0.0000000000
10
-27.1687401396
20
-21.7438291456
30
0.0000000000
10
-27.1682901333
20
-21.7600044477
30
0.0000000000
10
-27.1667154668
20
-21.7672354148
30
0.0000000000
10
-27.1666678080
20
-21.7734072185
30
0.0000000000
10
-27.1655755787
20
-21.7734262834
30
0.0000000000
11
-27.1655755787
21
-20.9735481273
31
0.0000000000
11
-27.1667387261
21
-21.0432486217
31
0.0000000000
11
-27.1677868071
21
-21.1124188588
31
0.0000000000
11
-27.1687118483
21
-21.1805326154
31
0.0000000000
11
-27.1695068124
21
-21.2470717055
31
0.0000000000
11
-27.1701656515
21
-21.3115299228
31
0.0000000000
11
-27.1706833535
21
-21.3734168913
31
0.0000000000
11
-27.1710559797
21
-21.4322617964
31
0.0000000000
11
-27.1712806954
21
-21.4876169664
31
0.0000000000
11
-27.1713557911
21
-21.5390612783
31
0.0000000000
11
-27.1712806954
21
-21.5862033615
31
0.0000000000
11
-27.1710559797
21
-21.6286845754
31
0.0000000000
11
-27.1706833535
21
-21.6661817376
31
0.0000000000
11
-27.1701656515
21
-21.6984095825
31
0.0000000000
11
-27.1695068124
21
-21.7251229319
31
0.0000000000
11
-27.1687118483
21
-21.7461185599
31
0.0000000000
11
-27.1677868071
21
-21.7612367390
31
0.0000000000
11
-27.1667387261
21
-21.7703624552
31
0.0000000000
11
-27.1655755787
21
-21.7734262834
31
0.0000000000
0
SPLINE
5
38B
100
AcDbEntity
8
0
100
AcDbSpline
62
9
6
CONTINUOUS
70
0
71
3
72
26
73
22
74
20
42
0.0000001000
43
0.0000001000
44
0.0000000001
12
0.7860382738
22
-0.0003535868
32
0.0000000000
13
0.7860383181
23
-0.0002299655
33
0.0000000000
40
0.0000000000
40
0.0000000000
40
0.0000000000
40
0.0000000000
40
0.0033995505
40
0.0135749945
40
0.0304586885
40
0.0539376120
40
0.0838548465
40
0.1200109723
40
0.1621641177
40
0.2100327740
40
0.2632969911
40
0.3216013745
40
0.3845559328
40
0.4517405939
40
0.5227063609
40
0.5969793536
40
0.6740625693
40
0.7534420108
40
0.8345876500
40
0.9169548224
40
1.0000000000
40
1.0000000000
40
1.0000000000
40
1.0000000000
10
-29.3284658133
20
0.3502334883
30
0.0000000000
10
-29.3275750877
20
0.3502330876
30
0.0000000000
10
-29.3240182659
20
0.3502316209
30
0.0000000000
10
-29.3160377004
20
0.3502292052
30
0.0000000000
10
-29.3027960830
20
0.3502249381
30
0.0000000000
10
-29.2843818641
20
0.3502193143
30
0.0000000000
10
-29.2609180221
20
0.3502121577
30
0.0000000000
10
-29.2325612953
20
0.3502036071
30
0.0000000000
10
-29.1995010667
20
0.3501936871
30
0.0000000000
10
-29.1619582997
20
0.3501824753
30
0.0000000000
10
-29.1201837020
20
0.3501700423
30
0.0000000000
10
-29.0744564053
20
0.3501564719
30
0.0000000000
10
-29.0250817745
20
0.3501418536
30
0.0000000000
10
-28.9723896995
20
0.3501262847
30
0.0000000000
10
-28.9167320501
20
0.3501098683
30
0.0000000000
10
-28.8584808529
20
0.3500927136
30
0.0000000000
10
-28.7980251655
20
0.3500749347
30
0.0000000000
10
-28.7357687569
20
0.3500566493
30
0.0000000000
10
-28.6721278843
20
0.3500379806
30
0.0000000000
10
-28.6075265419
20
0.3500190501
30
0.0000000000
10
-28.5641863934
20
0.3500063658
30
0.0000000000
10
-28.5424274962
20
0.3500000000
30
0.0000000000
11
-29.3284658133
21
0.3502334883
31
0.0000000000
11
-29.3257936364
21
0.3502323774
31
0.0000000000
11
-29.3177953477
21
0.3502297176
31
0.0000000000
11
-29.3045241173
21
0.3502255261
31
0.0000000000
11
-29.2860687839
21
0.3502198306
31
0.0000000000
11
-29.2625526913
21
0.3502126686
31
0.0000000000
11
-29.2341325910
21
0.3502040874
31
0.0000000000
11
-29.2009986035
21
0.3501941438
31
0.0000000000
11
-29.1633720055
21
0.3501829036
31
0.0000000000
11
-29.1215042900
21
0.3501704410
31
0.0000000000
11
-29.0756748105
21
0.3501568386
31
0.0000000000
11
-29.0261901155
21
0.3501421865
31
0.0000000000
11
-28.9733803975
21
0.3501265818
31
0.0000000000
11
-28.9175985854
21
0.3501101280
31
0.0000000000
11
-28.8592171672
21
0.3500929344
31
0.0000000000
11
-28.7986268060
21
0.3500751153
31
0.0000000000
11
-28.7362315233
21
0.3500567890
31
0.0000000000
11
-28.6724479416
21
0.3500380778
31
0.0000000000
11
-28.6077041879
21
0.3500191061
31
0.0000000000
11
-28.5424274962
21
0.3500000000
31
0.0000000000
0
SPLINE
5
38C
100
AcDbEntity
8
0
100
AcDbSpline
62
9
6
CONTINUOUS
70
0
71
3
72
20
73
16
74
14
42
0.0000001000
43
0.0000001000
44
0.0000000001
12
0.0000000000
22
-0.2001134733
32
0.0000000000
13
0.2001134733
23
0.0000000000
33
0.0000000000
40
0.0000000000
40
0.0000000000
40
0.0000000000
40
0.0000000000
40
0.1204683977
40
0.2391806358
40
0.3544061883
40
0.4644654263
40
0.5677541497
40
0.6627670393
40
0.7481197060
40
0.8225690595
40
0.8850318087
40
0.9346011498
40
0.9705626219
40
0.9924157668
40
1.0000000000
40
1.0000000000
40
1.0000000000
40
1.0000000000
10
-28.5424274968
20
0.3500000000
30
0.0000000000
10
-28.5424274968
20
0.3419642168
30
0.0000000000
10
-28.5424107791
20
0.3260097833
30
0.0000000000
10
-28.5423357225
20
0.3023694255
30
0.0000000000
10
-28.5422119662
20
0.2794235044
30
0.0000000000
10
-28.5420411539
20
0.2575071222
30
0.0000000000
10
-28.5418268038
20
0.2369381295
30
0.0000000000
10
-28.5415693868
20
0.2180222052
30
0.0000000000
10
-28.5412824353
20
0.2010165986
30
0.0000000000
10
-28.5409418246
20
0.1862267208
30
0.0000000000
10
-28.5406393717
20
0.1736986924
30
0.0000000000
10
-28.5401471868
20
0.1640805450
30
0.0000000000
10
-28.5400622808
20
0.1563562252
30
0.0000000000
10
-28.5391954927
20
0.1530268347
30
0.0000000000
10
-28.5394429179
20
0.1500000000
30
0.0000000000
10
-28.5389370155
20
0.1500000000
30
0.0000000000
11
-28.5424274968
21
0.3500000000
31
0.0000000000
11
-28.5424020473
21
0.3258926639
31
0.0000000000
11
-28.5423260698
21
0.3021368671
31
0.0000000000
11
-28.5422006722
21
0.2790790226
31
0.0000000000
11
-28.5420276832
21
0.2570553656
31
0.0000000000
11
-28.5418096253
21
0.2363870507
31
0.0000000000
11
-28.5415496783
21
0.2173754684
31
0.0000000000
11
-28.5412516327
21
0.2002978504
31
0.0000000000
11
-28.5409198349
21
0.1854032268
31
0.0000000000
11
-28.5405591231
21
0.1729087949
31
0.0000000000
11
-28.5401747572
21
0.1629967515
31
0.0000000000
11
-28.5397723424
21
0.1558116365
31
0.0000000000
11
-28.5393577465
21
0.1514582252
31
0.0000000000
11
-28.5389370155
21
0.1500000000
31
0.0000000000
0
SPLINE
5
38D
100
AcDbEntity
8
0
100
AcDbSpline
62
9
6
CONTINUOUS
70
0
71
3
72
20
73
16
74
14
42
0.0000001000
43
0.0000001000
44
0.0000000001
12
-0.0000000001
22
0.2001134733
32
0.0000000000
13
0.2001134733
23
0.0000000000
33
0.0000000000
40
0.0000000000
40
0.0000000000
40
0.0000000000
40
0.0000000000
40
0.1204684056
40
0.2391806510
40
0.3544062093
40
0.4644654513
40
0.5677541767
40
0.6627670662
40
0.7481197308
40
0.8225690803
40
0.8850318246
40
0.9346011601
40
0.9705626272
40
0.9924157683
40
1.0000000000
40
1.0000000000
40
1.0000000000
40
1.0000000000
10
-28.5424274968
20
-0.3500000000
30
0.0000000000
10
-28.5424274968
20
-0.3419642163
30
0.0000000000
10
-28.5424107791
20
-0.3260097818
30
0.0000000000
10
-28.5423357225
20
-0.3023694226
30
0.0000000000
10
-28.5422119662
20
-0.2794235003
30
0.0000000000
10
-28.5420411539
20
-0.2575071173
30
0.0000000000
10
-28.5418268037
20
-0.2369381242
30
0.0000000000
10
-28.5415693868
20
-0.2180221999
30
0.0000000000
10
-28.5412824353
20
-0.2010165938
30
0.0000000000
10
-28.5409418245
20
-0.1862267167
30
0.0000000000
10
-28.5406393716
20
-0.1736986893
30
0.0000000000
10
-28.5401471867
20
-0.1640805429
30
0.0000000000
10
-28.5400622806
20
-0.1563562242
30
0.0000000000
10
-28.5391954927
20
-0.1530268341
30
0.0000000000
10
-28.5394429178
20
-0.1500000000
30
0.0000000000
10
-28.5389370155
20
-0.1500000000
30
0.0000000000
11
-28.5424274968
21
-0.3500000000
31
0.0000000000
11
-28.5424020473
21
-0.3258926624
31
0.0000000000
11
-28.5423260698
21
-0.3021368641
31
0.0000000000
11
-28.5422006722
21
-0.2790790184
31
0.0000000000
11
-28.5420276832
21
-0.2570553606
31
0.0000000000
11
-28.5418096253
21
-0.2363870452
31
0.0000000000
11
-28.5415496782
21
-0.2173754630
31
0.0000000000
11
-28.5412516327
21
-0.2002978454
31
0.0000000000
11
-28.5409198348
21
-0.1854032226
31
0.0000000000
11
-28.5405591230
21
-0.1729087917
31
0.0000000000
11
-28.5401747572
21
-0.1629967494
31
0.0000000000
11
-28.5397723423
21
-0.1558116355
31
0.0000000000
11
-28.5393577465
21
-0.1514582249
31
0.0000000000
11
-28.5389370155
21
-0.1500000000
31
0.0000000000
0
SPLINE
5
38E
100
AcDbEntity
8
0
100
AcDbSpline
62
9
6
CONTINUOUS
70
0
71
3
72
28
73
24
74
22
42
0.0000001000
43
0.0000001000
44
0.0000000001
12
-1.0393854327
22
-0.0181478277
32
0.0000000000
13
-0.0706088259
23
-1.0371431025
33
0.0000000000
40
0.0000000000
40
0.0000000000
40
0.0000000000
40
0.0000000000
40
0.0476122483
40
0.0952326314
40
0.1428532556
40
0.1904737569
40
0.2380941380
40
0.2857145652
40
0.3333348636
40
0.3809550500
40
0.4285750698
40
0.4761950378
40
0.5238148416
40
0.5714345595
40
0.6190540803
40
0.6666735143
40
0.7142928183
40
0.7619120291
40
0.8095310013
40
0.8571499351
40
0.9047688534
40
0.9523874238
40
1.0000000000
40
1.0000000000
40
1.0000000000
40
1.0000000000
10
-27.1655755787
20
20.9735481273
30
0.0000000000
10
-27.1820714045
20
20.9732601076
30
0.0000000000
10
-27.2150574056
20
20.9715166773
30
0.0000000000
10
-27.2642198237
20
20.9654116483
30
0.0000000000
10
-27.3128332114
20
20.9558467081
30
0.0000000000
10
-27.3606483354
20
20.9428699201
30
0.0000000000
10
-27.4074268796
20
20.9265462709
30
0.0000000000
10
-27.4529346584
20
20.9069573890
30
0.0000000000
10
-27.4969441499
20
20.8842012612
30
0.0000000000
10
-27.5392351817
20
20.8583917476
30
0.0000000000
10
-27.5795962916
20
20.8296579371
30
0.0000000000
10
-27.6178256268
20
20.7981435624
30
0.0000000000
10
-27.6537320354
20
20.7640062323
30
0.0000000000
10
-27.6871359285
20
20.7274167253
30
0.0000000000
10
-27.7178702914
20
20.6885580286
30
0.0000000000
10
-27.7457814345
20
20.6476245075
30
0.0000000000
10
-27.7707298150
20
20.6048208511
30
0.0000000000
10
-27.7925906641
20
20.5603611964
30
0.0000000000
10
-27.8112546981
20
20.5144678064
30
0.0000000000
10
-27.8266286163
20
20.4673704121
30
0.0000000000
10
-27.8386355496
20
20.4193037077
30
0.0000000000
10
-27.8472150430
20
20.3705133706
30
0.0000000000
10
-27.8506218852
20
20.3376580013
30
0.0000000000
10
-27.8517425079
20
20.3211976496
30
0.0000000000
11
-27.1655755787
21
20.9735481273
31
0.0000000000
11
-27.2150015859
21
20.9709353090
31
0.0000000000
11
-27.2641277628
21
20.9648350684
31
0.0000000000
11
-27.3127002088
21
20.9552780563
31
0.0000000000
11
-27.3604756229
21
20.9423120945
31
0.0000000000
11
-27.4072150814
21
20.9260020670
31
0.0000000000
11
-27.4526849943
21
20.9064294905
31
0.0000000000
11
-27.4966577942
21
20.8836923330
31
0.0000000000
11
-27.5389135923
21
20.8579043226
31
0.0000000000
11
-27.5792410276
21
20.8291944854
31
0.0000000000
11
-27.6174385280
21
20.7977063538
31
0.0000000000
11
-27.6533149883
21
20.7635974964
31
0.0000000000
11
-27.6866910649
21
20.7270384587
31
0.0000000000
11
-27.7173997868
21
20.6882121811
31
0.0000000000
11
-27.7452876743
21
20.6473127650
31
0.0000000000
11
-27.7702152541
21
20.6045447993
31
0.0000000000
11
-27.7920579043
21
20.5601221456
31
0.0000000000
11
-27.8107063563
21
20.5142671108
31
0.0000000000
11
-27.8260674594
21
20.4672088328
31
0.0000000000
11
-27.8380643991
21
20.4191826225
31
0.0000000000
11
-27.8466371587
21
20.3704290031
31
0.0000000000
11
-27.8517425079
21
20.3211976496
31
0.0000000000
0
SPLINE
5
38F
100
AcDbEntity
8
0
100
AcDbSpline
62
9
6
CONTINUOUS
70
0
71
3
72
26
73
22
74
20
42
0.0000001000
43
0.0000001000
44
0.0000000001
12
-0.7860383181
22
-0.0002299655
32
0.0000000000
13
-0.7860382738
23
-0.0003535858
33
0.0000000000
40
0.0000000000
40
0.0000000000
40
0.0000000000
40
0.0000000000
40
0.0830451776
40
0.1654123500
40
0.2465579891
40
0.3259374307
40
0.4030206464
40
0.4772936391
40
0.5482594061
40
0.6154440672
40
0.6783986255
40
0.7367030089
40
0.7899672260
40
0.8378358823
40
0.8799890277
40
0.9161451535
40
0.9460623880
40
0.9695413115
40
0.9864250055
40
0.9966004495
40
1.0000000000
40
1.0000000000
40
1.0000000000
40
1.0000000000
10
-28.5424274962
20
-0.3500000000
30
0.0000000000
10
-28.5641863934
20
-0.3500063658
30
0.0000000000
10
-28.6075265419
20
-0.3500190501
30
0.0000000000
10
-28.6721278842
20
-0.3500379806
30
0.0000000000
10
-28.7357687569
20
-0.3500566493
30
0.0000000000
10
-28.7980251655
20
-0.3500749347
30
0.0000000000
10
-28.8584808529
20
-0.3500927136
30
0.0000000000
10
-28.9167320500
20
-0.3501098683
30
0.0000000000
10
-28.9723896995
20
-0.3501262847
30
0.0000000000
10
-29.0250817745
20
-0.3501418536
30
0.0000000000
10
-29.0744564053
20
-0.3501564719
30
0.0000000000
10
-29.1201837020
20
-0.3501700423
30
0.0000000000
10
-29.1619582997
20
-0.3501824753
30
0.0000000000
10
-29.1995010667
20
-0.3501936872
30
0.0000000000
10
-29.2325612953
20
-0.3502036071
30
0.0000000000
10
-29.2609180220
20
-0.3502121577
30
0.0000000000
10
-29.2843818641
20
-0.3502193143
30
0.0000000000
10
-29.3027960829
20
-0.3502249381
30
0.0000000000
10
-29.3160377004
20
-0.3502292052
30
0.0000000000
10
-29.3240182658
20
-0.3502316209
30
0.0000000000
10
-29.3275750876
20
-0.3502330876
30
0.0000000000
10
-29.3284658132
20
-0.3502334883
30
0.0000000000
11
-28.5424274962
21
-0.3500000000
31
0.0000000000
11
-28.6077041879
21
-0.3500191061
31
0.0000000000
11
-28.6724479415
21
-0.3500380778
31
0.0000000000
11
-28.7362315233
21
-0.3500567890
31
0.0000000000
11
-28.7986268060
21
-0.3500751153
31
0.0000000000
11
-28.8592171672
21
-0.3500929344
31
0.0000000000
11
-28.9175985854
21
-0.3501101280
31
0.0000000000
11
-28.9733803975
21
-0.3501265818
31
0.0000000000
11
-29.0261901155
21
-0.3501421866
31
0.0000000000
11
-29.0756748105
21
-0.3501568386
31
0.0000000000
11
-29.1215042899
21
-0.3501704410
31
0.0000000000
11
-29.1633720055
21
-0.3501829036
31
0.0000000000
11
-29.2009986035
21
-0.3501941438
31
0.0000000000
11
-29.2341325910
21
-0.3502040874
31
0.0000000000
11
-29.2625526912
21
-0.3502126686
31
0.0000000000
11
-29.2860687838
21
-0.3502198306
31
0.0000000000
11
-29.3045241173
21
-0.3502255261
31
0.0000000000
11
-29.3177953476
21
-0.3502297177
31
0.0000000000
11
-29.3257936364
21
-0.3502323774
31
0.0000000000
11
-29.3284658132
21
-0.3502334883
31
0.0000000000
0
SPLINE
5
390
100
AcDbEntity
8
0
100
AcDbSpline
62
9
6
CONTINUOUS
70
0
71
3
72
25
73
21
74
19
42
0.0000001000
43
0.0000001000
44
0.0000000001
12
-0.0139619574
22
0.8001236990
32
0.0000000000
13
0.8001236247
23
0.0139662098
33
0.0000000000
40
0.0000000000
40
0.0000000000
40
0.0000000000
40
0.0000000000
40
0.0871110145
40
0.1735572058
40
0.2586811291
40
0.3418354083
40
0.4223876681
40
0.4997253516
40
0.5732603912
40
0.6424336959
40
0.7067194265
40
0.7656290275
40
0.8187149972
40
0.8655743844
40
0.9058520280
40
0.9392436222
40
0.9654989062
40
0.9844261644
40
0.9959047729
40
1.0000000000
40
1.0000000000
40
1.0000000000
40
1.0000000000
10
-27.1655755787
20
20.9735481273
30
0.0000000000
10
-27.1659809922
20
20.9967813230
30
0.0000000000
10
-27.1667535997
20
21.0430710216
30
0.0000000000
10
-27.1677996359
20
21.1120659224
30
0.0000000000
10
-27.1687233773
20
21.1800070221
30
0.0000000000
10
-27.1695178469
20
21.2463774524
30
0.0000000000
10
-27.1701770740
20
21.3106722871
30
0.0000000000
10
-27.1706961630
20
21.3724024273
30
0.0000000000
10
-27.1710712848
20
21.4310981617
30
0.0000000000
10
-27.1712999278
20
21.4863133020
30
0.0000000000
10
-27.1713802594
20
21.5376266773
30
0.0000000000
10
-27.1713134954
20
21.5846516848
30
0.0000000000
10
-27.1710964868
20
21.6270185632
30
0.0000000000
10
-27.1707457884
20
21.6644429738
30
0.0000000000
10
-27.1702244529
20
21.6965257182
30
0.0000000000
10
-27.1696605730
20
21.7233549967
30
0.0000000000
10
-27.1687401396
20
21.7438291450
30
0.0000000000
10
-27.1682901334
20
21.7600044474
30
0.0000000000
10
-27.1667154668
20
21.7672354147
30
0.0000000000
10
-27.1666678081
20
21.7734072185
30
0.0000000000
10
-27.1655755787
20
21.7734262834
30
0.0000000000
11
-27.1655755787
21
20.9735481273
31
0.0000000000
11
-27.1667387261
21
21.0432486206
31
0.0000000000
11
-27.1677868071
21
21.1124188569
31
0.0000000000
11
-27.1687118483
21
21.1805326128
31
0.0000000000
11
-27.1695068124
21
21.2470717024
31
0.0000000000
11
-27.1701656516
21
21.3115299193
31
0.0000000000
11
-27.1706833535
21
21.3734168876
31
0.0000000000
11
-27.1710559798
21
21.4322617928
31
0.0000000000
11
-27.1712806955
21
21.4876169630
31
0.0000000000
11
-27.1713557912
21
21.5390612751
31
0.0000000000
11
-27.1712806955
21
21.5862033588
31
0.0000000000
11
-27.1710559798
21
21.6286845731
31
0.0000000000
11
-27.1706833536
21
21.6661817357
31
0.0000000000
11
-27.1701656516
21
21.6984095811
31
0.0000000000
11
-27.1695068125
21
21.7251229310
31
0.0000000000
11
-27.1687118484
21
21.7461185594
31
0.0000000000
11
-27.1677868071
21
21.7612367387
31
0.0000000000
11
-27.1667387261
21
21.7703624552
31
0.0000000000
11
-27.1655755787
21
21.7734262834
31
0.0000000000
0
SPLINE
5
391
100
AcDbEntity
8
0
100
AcDbSpline
62
9
6
CONTINUOUS
70
0
71
3
72
14
73
10
74
8
42
0.0000001000
43
0.0000001000
44
0.0000000001
12
-1.3574706275
22
-19.9406256496
32
0.0000000000
13
-0.0233801523
23
-19.9867638994
33
0.0000000000
40
0.0000000000
40
0.0000000000
40
0.0000000000
40
0.0000000000
40
0.1428574441
40
0.2857147075
40
0.4285719393
40
0.5714291070
40
0.7142862279
40
0.8571433201
40
1.0000000000
40
1.0000000000
40
1.0000000000
40
1.0000000000
10
-27.8517425079
20
20.3211976496
30
0.0000000000
10
-27.9163841026
20
19.3716420450
30
0.0000000000
10
-28.0366063536
20
17.4719026715
30
0.0000000000
10
-28.1897374357
20
14.6207133332
30
0.0000000000
10
-28.3156531019
20
11.7681916091
30
0.0000000000
10
-28.4143417764
20
8.9146000410
30
0.0000000000
10
-28.4857945295
20
6.0601966509
30
0.0000000000
10
-28.5300048390
20
3.2052473672
30
0.0000000000
10
-28.5413141598
20
1.3017475773
30
0.0000000000
10
-28.5424274968
20
0.3500000000
30
0.0000000000
11
-27.8517425079
21
20.3211976496
31
0.0000000000
11
-28.0320727155
21
17.4716379549
31
0.0000000000
11
-28.1852015590
21
14.6204907520
31
0.0000000000
11
-28.3111152929
21
11.7680127175
31
0.0000000000
11
-28.4098024703
21
8.9144642701
31
0.0000000000
11
-28.4812541351
21
6.0601049362
31
0.0000000000
11
-28.5254638177
21
3.2051942925
31
0.0000000000
11
-28.5424274968
21
0.3500000000
31
0.0000000000
0
ENDSEC
0
SECTION
2
OBJECTS
0
DICTIONARY
5
392
100
AcDbDictionary
3
ACAD_GROUP
350
393
3
ACAD_MLINESTYLE
350
394
0
DICTIONARY
5
393
102
{ACAD_REACTORS
330
392
102
}
100
AcDbDictionary
0
DICTIONARY
5
394
102
{ACAD_REACTORS
330
392
102
}
100
AcDbDictionary
3
STANDARD
350
395
0
MLINESTYLE
5
395
102
{ACAD_REACTORS
330
394
102
}
100
AcDbMlineStyle
2
STANDARD
70
0
3

62
256
51
90.0
52
90.0
71
2
49
0.5
62
256
6
BYLAYER
49
-0.5
62
256
6
BYLAYER
0
ENDSEC
0
EOF
