999
DXF file: zdi_di16971010.dxf
999
Pro/ENGINEER 2004090 by Parametric Technology Corporation
0
SECTION
2
HEADER
9
$ACADVER
1
AC1014
9
$HANDSEED
5
       2B3
9
$EXTMAX
10
297.0000000000
20
210.0000000000
9
$EXTMIN
10
0.0000000000
20
0.0000000000
9
$LIMMIN
10
0.0000000000
20
0.0000000000
9
$LIMMAX
10
297.0000000000
20
210.0000000000
9
$VIEWCTR
10
148.5000000000
20
105.0000000000
9
$VIEWSIZE
40
210.0000000000
9
$CLAYER
8
0
9
$LTSCALE
40
16.3350000000
9
$CELTYPE
6
BYLAYER
9
$DIMSCALE
40
1
9
$DIMASZ
40
3.0000000000
9
$DIMEXO
40
1.8562500000
9
$DIMDLI
40
11.2860000000
9
$DIMEXE
40
5.3460000000
9
$DIMCEN
40
2.6730000000
9
$DIMLFAC
40
1.0000000000
9
$DIMTXT
40
3.0000000000
9
$DIMTOL
70
1
9
$DIMLIM
70
0
9
$DIMTFAC
40
1.0000000000
9
$DIMTP
40
0.0100000000
9
$DIMTM
40
0.0100000000
9
$MEASUREMENT
70
1
0
ENDSEC
0
SECTION
2
CLASSES
0
ENDSEC
0
SECTION
2
TABLES
0
TABLE
2
VPORT
5
8
100
AcDbSymbolTable
70
2
0
VPORT
5
1F4
100
AcDbSymbolTableRecord
100
AcDbViewportTableRecord
2
*ACTIVE
70
0
10
0.0
20
0.0
11
1.0
21
1.0
12
148.5000000000
22
105.0000000000
13
0.0
23
0.0
14
1.0
24
1.0
15
0.0
25
0.0
16
0.0
26
0.0
36
1.0
17
0.0
27
0.0
37
0.0
40
210.0000000000
41
1.4142857143
42
50.0
43
0.0
44
0.0
50
0.0
51
0.0
71
0
72
100
73
1
74
1
75
0
76
0
77
0
78
0
0
ENDTAB
0
TABLE
2
LTYPE
5
5
100
AcDbSymbolTable
70
6
0
LTYPE
5
14
100
AcDbSymbolTableRecord
100
AcDbLinetypeTableRecord
2
BYBLOCK
70
0
3

72
65
73
0
40
0.0
0
LTYPE
5
15
100
AcDbSymbolTableRecord
100
AcDbLinetypeTableRecord
2
BYLAYER
70
0
3

72
65
73
0
40
0.0
0
LTYPE
5
16
100
AcDbSymbolTableRecord
100
AcDbLinetypeTableRecord
2
CONTINUOUS
70
64
3
Solid line
72
65
73
0
40
0
0
LTYPE
5
1F5
100
AcDbSymbolTableRecord
100
AcDbLinetypeTableRecord
2
CENTER
70
64
3
____ _ ____ _ ____ _ ____ _ ____ _ ____ _ ____
72
65
73
4
40
0.6
49
0.375
74
0
49
-0.075
74
0
49
0.075
74
0
49
-0.075
74
0
0
LTYPE
5
1F6
100
AcDbSymbolTableRecord
100
AcDbLinetypeTableRecord
2
HIDDEN
70
64
3
- - - - - - - - - - - - - - - - - - - -
72
65
73
2
40
0.2
49
0.1
74
0
49
-0.1
74
0
0
LTYPE
5
1F7
100
AcDbSymbolTableRecord
100
AcDbLinetypeTableRecord
2
PHANTOM
70
64
3
_____ _ _ _____ _ _ _____ _ _ _____
72
65
73
6
40
0.8
49
0.45
74
0
49
-0.05
74
0
49
0.1
74
0
49
-0.05
74
0
49
0.1
74
0
49
-0.05
74
0
0
LTYPE
5
1F8
100
AcDbSymbolTableRecord
100
AcDbLinetypeTableRecord
2
DOT
70
64
3
. . . . . . . . . . . . . . . . . . . .
72
65
73
2
40
0.2
49
0.1
74
0
49
-0.1
74
0
0
LTYPE
5
1F9
100
AcDbSymbolTableRecord
100
AcDbLinetypeTableRecord
2
DASHED
70
64
3
- - - - - - - - - - - - - - - - - - - -
72
65
73
2
40
0.2
49
0.1
74
0
49
-0.1
74
0
0
ENDTAB
0
TABLE
2
LAYER
5
2
100
AcDbSymbolTable
70
36
0
LAYER
5
10
100
AcDbSymbolTableRecord
100
AcDbLayerTableRecord
2
0
70
0
62
7
6
CONTINUOUS
0
LAYER
5
1FA
100
AcDbSymbolTableRecord
100
AcDbLayerTableRecord
2
DEFAULT_1
70
0
62
7
6
CENTER
0
LAYER
5
1FB
100
AcDbSymbolTableRecord
100
AcDbLayerTableRecord
2
DEFAULT_2
70
0
62
8
6
HIDDEN
0
LAYER
5
1FC
100
AcDbSymbolTableRecord
100
AcDbLayerTableRecord
2
DEFAULT_3
70
0
62
7
6
PHANTOM
0
LAYER
5
1FD
100
AcDbSymbolTableRecord
100
AcDbLayerTableRecord
2
ASSI
70
0
62
7
6
CONTINUOUS
0
LAYER
5
1FE
100
AcDbSymbolTableRecord
100
AcDbLayerTableRecord
2
COORDINATE
70
0
62
7
6
CONTINUOUS
0
LAYER
5
1FF
100
AcDbSymbolTableRecord
100
AcDbLayerTableRecord
2
COORD_ORIGINE
70
0
62
7
6
CONTINUOUS
0
LAYER
5
200
100
AcDbSymbolTableRecord
100
AcDbLayerTableRecord
2
CURVE
70
0
62
7
6
CONTINUOUS
0
LAYER
5
201
100
AcDbSymbolTableRecord
100
AcDbLayerTableRecord
2
CURVE_LED_TASTO
70
0
62
7
6
CONTINUOUS
0
LAYER
5
202
100
AcDbSymbolTableRecord
100
AcDbLayerTableRecord
2
DRAFT
70
0
62
7
6
CONTINUOUS
0
LAYER
5
203
100
AcDbSymbolTableRecord
100
AcDbLayerTableRecord
2
PIANI
70
0
62
7
6
CONTINUOUS
0
LAYER
5
204
100
AcDbSymbolTableRecord
100
AcDbLayerTableRecord
2
PIANI_ORIGINE
70
0
62
7
6
CONTINUOUS
0
LAYER
5
205
100
AcDbSymbolTableRecord
100
AcDbLayerTableRecord
2
PIANI_RIFERIMENTO
70
0
62
7
6
CONTINUOUS
0
LAYER
5
206
100
AcDbSymbolTableRecord
100
AcDbLayerTableRecord
2
PUNTI
70
0
62
7
6
CONTINUOUS
0
LAYER
5
207
100
AcDbSymbolTableRecord
100
AcDbLayerTableRecord
2
RACCORDO
70
0
62
7
6
CONTINUOUS
0
LAYER
5
208
100
AcDbSymbolTableRecord
100
AcDbLayerTableRecord
2
SCRITTE
70
0
62
7
6
CONTINUOUS
0
LAYER
5
209
100
AcDbSymbolTableRecord
100
AcDbLayerTableRecord
2
SNAPLINE
70
0
62
7
6
CONTINUOUS
0
LAYER
5
20A
100
AcDbSymbolTableRecord
100
AcDbLayerTableRecord
2
SUPERFICI
70
0
62
7
6
CONTINUOUS
0
LAYER
5
20B
100
AcDbSymbolTableRecord
100
AcDbLayerTableRecord
2
TRASH
70
0
62
7
6
CONTINUOUS
0
ENDTAB
0
TABLE
2
STYLE
5
3
100
AcDbSymbolTable
70
1
0
STYLE
5
11
100
AcDbSymbolTableRecord
100
AcDbTextStyleTableRecord
2
STANDARD
70
0
40
0.0
41
0.8000000000
50
0.0
71
0
42
0.2
3
txt
4

0
ENDTAB
0
TABLE
2
VIEW
5
6
100
AcDbSymbolTable
70
0
0
ENDTAB
0
TABLE
2
UCS
5
7
100
AcDbSymbolTable
70
0
0
ENDTAB
0
TABLE
2
APPID
5
9
100
AcDbSymbolTable
70
1
0
APPID
5
20C
100
AcDbSymbolTableRecord
100
AcDbRegAppTableRecord
2
ACAD
70
0
0
ENDTAB
0
TABLE
2
DIMSTYLE
5
A
100
AcDbSymbolTable
70
1
0
DIMSTYLE
105
20D
100
AcDbSymbolTableRecord
100
AcDbDimStyleTableRecord
2
STANDARD
70
0
3

4

5

6

7

40
1.0
41
3.0000000000
42
0.0625
43
0.38
44
0.18
45
0.0
46
0.0
47
0.0100000000
48
0.0100000000
140
3.0000000000
141
0.09
142
0.0
143
25.4
144
1.0000000000
145
0.0
146
1.0000000000
147
0.09
71
1
72
0
73
0
74
0
75
0
76
0
77
1
78
8
170
0
171
2
172
0
173
0
174
0
175
0
176
0
177
0
178
0
270
2
271
2
272
2
273
2
274
2
340
11
275
0
280
0
281
0
282
0
283
1
284
8
285
0
286
0
287
3
288
0
0
DIMSTYLE
105
20E
100
AcDbSymbolTableRecord
100
AcDbDimStyleTableRecord
2
DIMSTYLE_1
70
0
3

4

5

6

7

40
1.0
41
3.0000000000
42
0.0625
43
0.38
44
0.18
45
0.0
46
0.0
47
0.0000000000
48
0.0000000000
140
3.0000000000
141
0.09
142
0.0
143
25.4
144
1.0000000000
145
0.0
146
1.0000000000
147
0.09
71
0
72
0
73
0
74
0
75
0
76
0
77
1
78
8
170
0
171
2
172
0
173
0
174
0
175
0
176
0
177
0
178
0
270
2
271
2
272
2
273
2
274
2
340
11
275
0
280
0
281
0
282
0
283
1
284
8
285
0
286
0
287
3
288
0
0
ENDTAB
0
TABLE
2
BLOCK_RECORD
5
1
100
AcDbSymbolTable
70
0
0
BLOCK_RECORD
5
1B
100
AcDbSymbolTableRecord
100
AcDbBlockTableRecord
2
*MODEL_SPACE
0
BLOCK_RECORD
5
1C
100
AcDbSymbolTableRecord
100
AcDbBlockTableRecord
2
*PAPER_SPACE
0
BLOCK_RECORD
5
20F
100
AcDbSymbolTableRecord
100
AcDbBlockTableRecord
2
*D0
0
BLOCK_RECORD
5
210
100
AcDbSymbolTableRecord
100
AcDbBlockTableRecord
2
*D1
0
BLOCK_RECORD
5
211
100
AcDbSymbolTableRecord
100
AcDbBlockTableRecord
2
*D2
0
ENDTAB
0
ENDSEC
0
SECTION
2
BLOCKS
0
BLOCK
5
1E
100
AcDbEntity
8
0
100
AcDbBlockBegin
2
*MODEL_SPACE
70
0
10
0.0
20
0.0
30
0.0
3
*MODEL_SPACE
1

0
ENDBLK
5
1F
100
AcDbEntity
8
0
100
AcDbBlockEnd
0
BLOCK
5
20
100
AcDbEntity
8
0
100
AcDbBlockBegin
2
*PAPER_SPACE
70
0
10
0.0
20
0.0
30
0.0
3
*PAPER_SPACE
1

0
ENDBLK
5
21
100
AcDbEntity
8
0
100
AcDbBlockEnd
0
BLOCK
5
212
100
AcDbEntity
8
0
100
AcDbBlockBegin
62
7
6
CONTINUOUS
2
*D0
70
65
10
0.0000000000
20
0.0000000000
3
*D0
1

0
TEXT
5
213
100
AcDbEntity
8
0
100
AcDbText
62
7
6
CONTINUOUS
10
-26.1969055424
20
27.1500000000
7
STANDARD
40
3.0000000000
1
12
41
0.6785714286
72
0
100
AcDbText
0
LINE
5
214
100
AcDbEntity
8
0
100
AcDbLine
62
7
6
CONTINUOUS
10
-18.6352175065
20
1.7500000000
11
-18.6352175065
21
27.9000000000
0
LINE
5
215
100
AcDbEntity
8
0
100
AcDbLine
62
7
6
CONTINUOUS
10
-30.6352175065
20
0.5000000000
11
-30.6352175065
21
27.9000000000
0
LINE
5
216
100
AcDbEntity
8
0
100
AcDbLine
62
7
6
CONTINUOUS
10
-18.6352175065
20
26.4000000000
11
-24.6352175065
21
26.4000000000
0
LINE
5
217
100
AcDbEntity
8
0
100
AcDbLine
62
7
6
CONTINUOUS
10
-30.6352175065
20
26.4000000000
11
-24.6352175065
21
26.4000000000
0
SOLID
5
218
100
AcDbEntity
8
0
100
AcDbTrace
62
7
6
CONTINUOUS
10
-21.6352175065
20
25.4500000000
11
-18.6352175065
21
26.4000000000
12
-21.6352175065
22
27.3500000000
13
-21.6352175065
23
27.3500000000
0
SOLID
5
219
100
AcDbEntity
8
0
100
AcDbTrace
62
7
6
CONTINUOUS
10
-27.6352175065
20
27.3500000000
11
-30.6352175065
21
26.4000000000
12
-27.6352175065
22
25.4500000000
13
-27.6352175065
23
25.4500000000
0
ENDBLK
5
21A
100
AcDbEntity
8
0
100
AcDbBlockEnd
0
BLOCK
5
21B
100
AcDbEntity
8
0
100
AcDbBlockBegin
62
7
6
CONTINUOUS
2
*D1
70
65
10
0.0000000000
20
0.0000000000
3
*D1
1

0
TEXT
5
21C
100
AcDbEntity
8
0
100
AcDbText
62
7
6
CONTINUOUS
10
-4.1394877169
20
27.1500000000
7
STANDARD
40
3.0000000000
1
24,8
41
0.7321428571
72
0
100
AcDbText
0
LINE
5
21D
100
AcDbEntity
8
0
100
AcDbLine
62
7
6
CONTINUOUS
10
-12.4000000000
20
18.5962952155
11
-12.4000000000
21
27.9000000000
0
LINE
5
21E
100
AcDbEntity
8
0
100
AcDbLine
62
7
6
CONTINUOUS
10
12.4000000000
20
18.5962952155
11
12.4000000000
21
27.9000000000
0
LINE
5
21F
100
AcDbEntity
8
0
100
AcDbLine
62
7
6
CONTINUOUS
10
-12.4000000000
20
26.4000000000
11
0.0000000000
21
26.4000000000
0
LINE
5
220
100
AcDbEntity
8
0
100
AcDbLine
62
7
6
CONTINUOUS
10
12.4000000000
20
26.4000000000
11
0.0000000000
21
26.4000000000
0
SOLID
5
221
100
AcDbEntity
8
0
100
AcDbTrace
62
7
6
CONTINUOUS
10
-9.4000000000
20
27.3500000000
11
-12.4000000000
21
26.4000000000
12
-9.4000000000
22
25.4500000000
13
-9.4000000000
23
25.4500000000
0
SOLID
5
222
100
AcDbEntity
8
0
100
AcDbTrace
62
7
6
CONTINUOUS
10
9.4000000000
20
25.4500000000
11
12.4000000000
21
26.4000000000
12
9.4000000000
22
27.3500000000
13
9.4000000000
23
27.3500000000
0
ENDBLK
5
223
100
AcDbEntity
8
0
100
AcDbBlockEnd
0
BLOCK
5
224
100
AcDbEntity
8
0
100
AcDbBlockBegin
62
7
6
CONTINUOUS
2
*D2
70
65
10
0.0000000000
20
0.0000000000
3
*D2
1

0
TEXT
5
225
100
AcDbEntity
8
0
100
AcDbText
62
7
6
CONTINUOUS
10
19.6500000000
20
-3.0562169565
7
STANDARD
40
3.0000000000
1
36,8
50
90.0000000000
41
0.7142857143
72
0
100
AcDbText
0
LINE
5
226
100
AcDbEntity
8
0
100
AcDbLine
62
7
6
CONTINUOUS
10
12.6008636137
20
18.4000000000
11
21.9000000000
21
18.4000000000
0
LINE
5
227
100
AcDbEntity
8
0
100
AcDbLine
62
7
6
CONTINUOUS
10
12.6008636137
20
-18.4000000000
11
21.9000000000
21
-18.4000000000
0
LINE
5
228
100
AcDbEntity
8
0
100
AcDbLine
62
7
6
CONTINUOUS
10
20.4000000000
20
18.4000000000
11
20.4000000000
21
0.0000000000
0
LINE
5
229
100
AcDbEntity
8
0
100
AcDbLine
62
7
6
CONTINUOUS
10
20.4000000000
20
-18.4000000000
11
20.4000000000
21
0.0000000000
0
SOLID
5
22A
100
AcDbEntity
8
0
100
AcDbTrace
62
7
6
CONTINUOUS
10
21.3500000000
20
15.4000000000
11
20.4000000000
21
18.4000000000
12
19.4500000000
22
15.4000000000
13
19.4500000000
23
15.4000000000
0
SOLID
5
22B
100
AcDbEntity
8
0
100
AcDbTrace
62
7
6
CONTINUOUS
10
19.4500000000
20
-15.4000000000
11
20.4000000000
21
-18.4000000000
12
21.3500000000
22
-15.4000000000
13
21.3500000000
23
-15.4000000000
0
ENDBLK
5
22C
100
AcDbEntity
8
0
100
AcDbBlockEnd
0
ENDSEC
0
SECTION
2
ENTITIES
0
DIMENSION
5
22D
100
AcDbEntity
8
0
100
AcDbDimension
62
7
6
CONTINUOUS
2
*D0
10
-30.6352175065
20
26.4000000000
11
-24.1611912567
21
28.6500000000
70
160
3
DIMSTYLE_1
100
AcDbAlignedDimension
13
-18.6352175065
23
1.7500000000
14
-30.6352175065
24
0.5000000000
50
180.000000
100
AcDbRotatedDimension
0
DIMENSION
5
22E
100
AcDbEntity
8
0
100
AcDbDimension
62
7
6
CONTINUOUS
2
*D1
10
12.4000000000
20
26.4000000000
11
0.2533694259
21
28.6500000000
70
160
3
DIMSTYLE_1
100
AcDbAlignedDimension
13
-12.4000000000
23
18.5962952155
14
12.4000000000
24
18.5962952155
100
AcDbRotatedDimension
0
DIMENSION
5
22F
100
AcDbEntity
8
0
100
AcDbDimension
62
7
6
CONTINUOUS
2
*D2
10
20.4000000000
20
-18.4000000000
11
18.1500000000
21
1.2294973292
70
160
3
DIMSTYLE_1
100
AcDbAlignedDimension
13
12.6008636137
23
18.4000000000
14
12.6008636137
24
-18.4000000000
50
270.000000
100
AcDbRotatedDimension
0
LINE
5
230
100
AcDbEntity
8
0
100
AcDbLine
62
7
6
CONTINUOUS
10
12.1008636137
20
-18.4000000000
11
-12.1008636137
21
-18.4000000000
0
LINE
5
231
100
AcDbEntity
8
0
100
AcDbLine
62
9
6
CONTINUOUS
10
-11.9951136646
20
-17.3317387640
11
11.9951136646
21
-17.3317387640
0
LINE
5
232
100
AcDbEntity
8
0
100
AcDbLine
62
9
6
CONTINUOUS
10
-11.9850259316
20
-16.3854850935
11
11.9850259316
21
-16.3854850935
0
LINE
5
233
100
AcDbEntity
8
0
100
AcDbLine
62
7
6
CONTINUOUS
10
-12.4000000000
20
18.0962952155
11
-12.4000000000
21
-18.0962952155
0
LINE
5
234
100
AcDbEntity
8
0
100
AcDbLine
62
9
6
CONTINUOUS
10
-11.9850259316
20
-16.3854850935
11
-11.9850259316
21
16.3854850935
0
LINE
5
235
100
AcDbEntity
8
0
100
AcDbLine
62
9
6
CONTINUOUS
10
-12.2950679731
20
17.0362964381
11
-12.4000000000
21
18.0962952155
0
LINE
5
236
100
AcDbEntity
8
0
100
AcDbLine
62
9
6
CONTINUOUS
10
-11.9951136646
20
17.3317387640
11
-12.1008636137
21
18.4000000000
0
LINE
5
237
100
AcDbEntity
8
0
100
AcDbLine
62
9
6
CONTINUOUS
10
-12.4000000000
20
-18.0962952155
11
-12.2950679731
21
-17.0362964381
0
LINE
5
238
100
AcDbEntity
8
0
100
AcDbLine
62
9
6
CONTINUOUS
10
-12.1008636137
20
-18.4000000000
11
-11.9951136646
21
-17.3317387640
0
LINE
5
239
100
AcDbEntity
8
0
100
AcDbLine
62
9
6
CONTINUOUS
10
11.9951136646
20
-17.3317387640
11
12.1008636137
21
-18.4000000000
0
LINE
5
23A
100
AcDbEntity
8
0
100
AcDbLine
62
9
6
CONTINUOUS
10
12.1008636137
20
18.4000000000
11
11.9951136646
21
17.3317387640
0
LINE
5
23B
100
AcDbEntity
8
0
100
AcDbLine
62
9
6
CONTINUOUS
10
12.2950679731
20
-17.0362964381
11
12.4000000000
21
-18.0962952155
0
LINE
5
23C
100
AcDbEntity
8
0
100
AcDbLine
62
9
6
CONTINUOUS
10
11.9850259316
20
16.3854850935
11
11.9850259316
21
-16.3854850935
0
LINE
5
23D
100
AcDbEntity
8
0
100
AcDbLine
62
9
6
CONTINUOUS
10
12.4000000000
20
18.0962952155
11
12.2950679731
21
17.0362964381
0
LINE
5
23E
100
AcDbEntity
8
0
100
AcDbLine
62
7
6
CONTINUOUS
10
12.4000000000
20
18.0962952155
11
12.4000000000
21
-18.0962952155
0
LINE
5
23F
100
AcDbEntity
8
0
100
AcDbLine
62
9
6
CONTINUOUS
10
-11.9850259316
20
16.3854850935
11
11.9850259316
21
16.3854850935
0
LINE
5
240
100
AcDbEntity
8
0
100
AcDbLine
62
9
6
CONTINUOUS
10
-11.9951136646
20
17.3317387640
11
11.9951136646
21
17.3317387640
0
LINE
5
241
100
AcDbEntity
8
0
100
AcDbLine
62
7
6
CONTINUOUS
10
12.1008636137
20
18.4000000000
11
-12.1008636137
21
18.4000000000
0
LINE
5
242
100
AcDbEntity
8
0
100
AcDbLine
62
7
6
CONTINUOUS
10
-29.4936280329
20
-17.3317387640
11
-23.4352175065
21
-18.4000000000
0
LINE
5
243
100
AcDbEntity
8
0
100
AcDbLine
62
9
6
CONTINUOUS
10
-29.4467693015
20
-17.0362964381
11
-23.4352175065
21
-18.0962952155
0
LINE
5
244
100
AcDbEntity
8
0
100
AcDbLine
62
9
6
CONTINUOUS
10
-30.0246951377
20
-16.3739188688
11
-30.3192363497
21
-16.3854850928
0
LINE
5
245
100
AcDbEntity
8
0
100
AcDbLine
62
7
6
CONTINUOUS
10
-23.4352175065
20
-1.2500000000
11
-18.6352175065
21
-1.2500000000
0
LINE
5
246
100
AcDbEntity
8
0
100
AcDbLine
62
7
6
CONTINUOUS
10
-23.4352175065
20
18.4000000000
11
-23.4352175065
21
-18.4000000000
0
LINE
5
247
100
AcDbEntity
8
0
100
AcDbLine
62
7
6
CONTINUOUS
10
-23.4352175065
20
1.2500000000
11
-18.6352175065
21
1.2500000000
0
LINE
5
248
100
AcDbEntity
8
0
100
AcDbLine
62
7
6
CONTINUOUS
10
-18.6352175065
20
-1.2500000000
11
-18.6352175065
21
1.2500000000
0
LINE
5
249
100
AcDbEntity
8
0
100
AcDbLine
62
9
6
CONTINUOUS
10
-30.0246951377
20
16.3739188688
11
-30.3192363702
21
16.3854850935
0
LINE
5
24A
100
AcDbEntity
8
0
100
AcDbLine
62
9
6
CONTINUOUS
10
-23.4352175065
20
18.0962952155
11
-29.4467693015
21
17.0362964381
0
LINE
5
24B
100
AcDbEntity
8
0
100
AcDbLine
62
7
6
CONTINUOUS
10
-23.4352175065
20
18.4000000000
11
-29.4936280329
21
17.3317387640
0
CIRCLE
5
24C
100
AcDbEntity
8
0
100
AcDbCircle
62
7
6
CONTINUOUS
10
-0.0000000000
20
0.0000000000
40
1.2500000000
0
CIRCLE
5
24D
100
AcDbEntity
8
0
100
AcDbCircle
62
9
6
CONTINUOUS
10
-0.0000000000
20
0.0000000000
40
1.1616160628
0
ARC
5
24E
100
AcDbEntity
8
0
100
AcDbCircle
62
7
6
CONTINUOUS
10
-29.3199798552
20
-16.3469310110
40
1.0000000000
100
AcDbArc
50
182.2095338267
51
260.0000000000
0
ARC
5
24F
100
AcDbEntity
8
0
100
AcDbCircle
62
7
6
CONTINUOUS
10
394.3647824935
20
0.0000000000
40
425.0000000000
100
AcDbArc
50
177.7904661733
51
182.2095338267
0
ARC
5
250
100
AcDbEntity
8
0
100
AcDbCircle
62
7
6
CONTINUOUS
10
-29.3199798552
20
16.3469310110
40
1.0000000000
100
AcDbArc
50
100.0000000000
51
177.7904661733
0
SPLINE
5
251
100
AcDbEntity
8
0
100
AcDbSpline
62
7
6
CONTINUOUS
70
0
71
3
72
22
73
18
74
16
42
0.0000001000
43
0.0000001000
44
0.0000000001
12
-0.4733254049
22
0.0000000000
32
0.0000000000
13
0.0000000000
23
0.4733254049
33
0.0000000000
40
0.0000000000
40
0.0000000000
40
0.0000000000
40
0.0000000000
40
0.0654809971
40
0.1313652903
40
0.1972591280
40
0.2629096833
40
0.3289121847
40
0.3953241338
40
0.4617927791
40
0.5281157275
40
0.5949961533
40
0.6622740259
40
0.7295492765
40
0.7967420414
40
0.8644268450
40
0.9323328147
40
1.0000000000
40
1.0000000000
40
1.0000000000
40
1.0000000000
10
-12.1008636137
20
-18.4000000000
30
0.0000000000
10
-12.1111948868
20
-18.4000000000
30
0.0000000000
10
-12.1319374816
20
-18.3989110886
30
0.0000000000
10
-12.1627279798
20
-18.3940121733
30
0.0000000000
10
-12.1928600946
20
-18.3858886379
30
0.0000000000
10
-12.2219881351
20
-18.3746389715
30
0.0000000000
10
-12.2498494891
20
-18.3603595750
30
0.0000000000
10
-12.2761639596
20
-18.3431597337
30
0.0000000000
10
-12.3005646315
20
-18.3232585541
30
0.0000000000
10
-12.3228029304
20
-18.3008639511
30
0.0000000000
10
-12.3426632963
20
-18.2761708290
30
0.0000000000
10
-12.3599135769
20
-18.2494092599
30
0.0000000000
10
-12.3742975698
20
-18.2209493025
30
0.0000000000
10
-12.3856699991
20
-18.1910899367
30
0.0000000000
10
-12.3939076019
20
-18.1601136643
30
0.0000000000
10
-12.3988905424
20
-18.1283780465
30
0.0000000000
10
-12.4000000000
20
-18.1069714148
30
0.0000000000
10
-12.4000000000
20
-18.0962952155
30
0.0000000000
11
-12.1008636137
21
-18.4000000000
31
0.0000000000
11
-12.1318147720
21
-18.3983743790
31
0.0000000000
11
-12.1626122270
21
-18.3934751049
31
0.0000000000
11
-12.1927264411
21
-18.3853570992
31
0.0000000000
11
-12.2217142475
21
-18.3741631161
31
0.0000000000
11
-12.2495169715
21
-18.3599157509
31
0.0000000000
11
-12.2758305114
21
-18.3427191506
31
0.0000000000
11
-12.3002126062
21
-18.3228363249
31
0.0000000000
11
-12.3223343101
21
-18.3005628205
31
0.0000000000
11
-12.3421762894
21
-18.2758968287
31
0.0000000000
11
-12.3594314097
21
-18.2491326374
31
0.0000000000
11
-12.3737971976
21
-18.2207142241
31
0.0000000000
11
-12.3851189905
21
-18.1909936229
31
0.0000000000
11
-12.3933543974
21
-18.1600332706
31
0.0000000000
11
-12.3983409031
21
-18.1282808135
31
0.0000000000
11
-12.4000000000
21
-18.0962952155
31
0.0000000000
0
SPLINE
5
252
100
AcDbEntity
8
0
100
AcDbSpline
62
7
6
CONTINUOUS
70
0
71
3
72
22
73
18
74
16
42
0.0000001000
43
0.0000001000
44
0.0000000001
12
0.0000000000
22
0.4733254049
32
0.0000000000
13
0.4733254049
23
0.0000000000
33
0.0000000000
40
0.0000000000
40
0.0000000000
40
0.0000000000
40
0.0000000000
40
0.0676671853
40
0.1355731550
40
0.2032579586
40
0.2704507235
40
0.3377259741
40
0.4050038467
40
0.4718842725
40
0.5382072209
40
0.6046758662
40
0.6710878153
40
0.7370903167
40
0.8027408720
40
0.8686347097
40
0.9345190029
40
1.0000000000
40
1.0000000000
40
1.0000000000
40
1.0000000000
10
-12.4000000000
20
18.0962952155
30
0.0000000000
10
-12.4000000000
20
18.1069714148
30
0.0000000000
10
-12.3988905424
20
18.1283780465
30
0.0000000000
10
-12.3939076019
20
18.1601136643
30
0.0000000000
10
-12.3856699991
20
18.1910899367
30
0.0000000000
10
-12.3742975698
20
18.2209493025
30
0.0000000000
10
-12.3599135769
20
18.2494092599
30
0.0000000000
10
-12.3426632963
20
18.2761708290
30
0.0000000000
10
-12.3228029304
20
18.3008639511
30
0.0000000000
10
-12.3005646315
20
18.3232585541
30
0.0000000000
10
-12.2761639596
20
18.3431597337
30
0.0000000000
10
-12.2498494891
20
18.3603595750
30
0.0000000000
10
-12.2219881351
20
18.3746389715
30
0.0000000000
10
-12.1928600946
20
18.3858886379
30
0.0000000000
10
-12.1627279798
20
18.3940121733
30
0.0000000000
10
-12.1319374816
20
18.3989110886
30
0.0000000000
10
-12.1111948868
20
18.4000000000
30
0.0000000000
10
-12.1008636137
20
18.4000000000
30
0.0000000000
11
-12.4000000000
21
18.0962952155
31
0.0000000000
11
-12.3983409031
21
18.1282808135
31
0.0000000000
11
-12.3933543974
21
18.1600332706
31
0.0000000000
11
-12.3851189905
21
18.1909936229
31
0.0000000000
11
-12.3737971976
21
18.2207142241
31
0.0000000000
11
-12.3594314097
21
18.2491326374
31
0.0000000000
11
-12.3421762894
21
18.2758968287
31
0.0000000000
11
-12.3223343101
21
18.3005628205
31
0.0000000000
11
-12.3002126062
21
18.3228363249
31
0.0000000000
11
-12.2758305114
21
18.3427191506
31
0.0000000000
11
-12.2495169715
21
18.3599157509
31
0.0000000000
11
-12.2217142475
21
18.3741631161
31
0.0000000000
11
-12.1927264411
21
18.3853570992
31
0.0000000000
11
-12.1626122270
21
18.3934751049
31
0.0000000000
11
-12.1318147720
21
18.3983743790
31
0.0000000000
11
-12.1008636137
21
18.4000000000
31
0.0000000000
0
SPLINE
5
253
100
AcDbEntity
8
0
100
AcDbSpline
62
7
6
CONTINUOUS
70
0
71
3
72
22
73
18
74
16
42
0.0000001000
43
0.0000001000
44
0.0000000001
12
0.4733254049
22
0.0000000000
32
0.0000000000
13
-0.0000000000
23
-0.4733254049
33
0.0000000000
40
0.0000000000
40
0.0000000000
40
0.0000000000
40
0.0000000000
40
0.0654809971
40
0.1313652903
40
0.1972591280
40
0.2629096833
40
0.3289121847
40
0.3953241338
40
0.4617927791
40
0.5281157275
40
0.5949961533
40
0.6622740259
40
0.7295492765
40
0.7967420414
40
0.8644268450
40
0.9323328147
40
1.0000000000
40
1.0000000000
40
1.0000000000
40
1.0000000000
10
12.1008636137
20
18.4000000000
30
0.0000000000
10
12.1111948868
20
18.4000000000
30
0.0000000000
10
12.1319374816
20
18.3989110886
30
0.0000000000
10
12.1627279798
20
18.3940121733
30
0.0000000000
10
12.1928600946
20
18.3858886379
30
0.0000000000
10
12.2219881351
20
18.3746389715
30
0.0000000000
10
12.2498494891
20
18.3603595750
30
0.0000000000
10
12.2761639596
20
18.3431597337
30
0.0000000000
10
12.3005646315
20
18.3232585541
30
0.0000000000
10
12.3228029304
20
18.3008639511
30
0.0000000000
10
12.3426632963
20
18.2761708290
30
0.0000000000
10
12.3599135769
20
18.2494092599
30
0.0000000000
10
12.3742975698
20
18.2209493025
30
0.0000000000
10
12.3856699991
20
18.1910899367
30
0.0000000000
10
12.3939076019
20
18.1601136643
30
0.0000000000
10
12.3988905424
20
18.1283780465
30
0.0000000000
10
12.4000000000
20
18.1069714148
30
0.0000000000
10
12.4000000000
20
18.0962952155
30
0.0000000000
11
12.1008636137
21
18.4000000000
31
0.0000000000
11
12.1318147720
21
18.3983743790
31
0.0000000000
11
12.1626122270
21
18.3934751049
31
0.0000000000
11
12.1927264411
21
18.3853570992
31
0.0000000000
11
12.2217142475
21
18.3741631161
31
0.0000000000
11
12.2495169715
21
18.3599157509
31
0.0000000000
11
12.2758305114
21
18.3427191506
31
0.0000000000
11
12.3002126062
21
18.3228363249
31
0.0000000000
11
12.3223343101
21
18.3005628205
31
0.0000000000
11
12.3421762894
21
18.2758968287
31
0.0000000000
11
12.3594314097
21
18.2491326374
31
0.0000000000
11
12.3737971976
21
18.2207142241
31
0.0000000000
11
12.3851189905
21
18.1909936229
31
0.0000000000
11
12.3933543974
21
18.1600332706
31
0.0000000000
11
12.3983409031
21
18.1282808135
31
0.0000000000
11
12.4000000000
21
18.0962952155
31
0.0000000000
0
SPLINE
5
254
100
AcDbEntity
8
0
100
AcDbSpline
62
7
6
CONTINUOUS
70
0
71
3
72
22
73
18
74
16
42
0.0000001000
43
0.0000001000
44
0.0000000001
12
0.0000000000
22
-0.4733254049
32
0.0000000000
13
-0.4733254049
23
0.0000000000
33
0.0000000000
40
0.0000000000
40
0.0000000000
40
0.0000000000
40
0.0000000000
40
0.0676671853
40
0.1355731550
40
0.2032579586
40
0.2704507235
40
0.3377259741
40
0.4050038467
40
0.4718842725
40
0.5382072209
40
0.6046758662
40
0.6710878153
40
0.7370903167
40
0.8027408720
40
0.8686347097
40
0.9345190029
40
1.0000000000
40
1.0000000000
40
1.0000000000
40
1.0000000000
10
12.4000000000
20
-18.0962952155
30
0.0000000000
10
12.4000000000
20
-18.1069714148
30
0.0000000000
10
12.3988905424
20
-18.1283780465
30
0.0000000000
10
12.3939076019
20
-18.1601136643
30
0.0000000000
10
12.3856699991
20
-18.1910899367
30
0.0000000000
10
12.3742975698
20
-18.2209493025
30
0.0000000000
10
12.3599135769
20
-18.2494092599
30
0.0000000000
10
12.3426632963
20
-18.2761708290
30
0.0000000000
10
12.3228029304
20
-18.3008639511
30
0.0000000000
10
12.3005646315
20
-18.3232585541
30
0.0000000000
10
12.2761639596
20
-18.3431597337
30
0.0000000000
10
12.2498494891
20
-18.3603595750
30
0.0000000000
10
12.2219881351
20
-18.3746389715
30
0.0000000000
10
12.1928600946
20
-18.3858886379
30
0.0000000000
10
12.1627279798
20
-18.3940121733
30
0.0000000000
10
12.1319374816
20
-18.3989110886
30
0.0000000000
10
12.1111948868
20
-18.4000000000
30
0.0000000000
10
12.1008636137
20
-18.4000000000
30
0.0000000000
11
12.4000000000
21
-18.0962952155
31
0.0000000000
11
12.3983409031
21
-18.1282808135
31
0.0000000000
11
12.3933543974
21
-18.1600332706
31
0.0000000000
11
12.3851189905
21
-18.1909936229
31
0.0000000000
11
12.3737971976
21
-18.2207142241
31
0.0000000000
11
12.3594314097
21
-18.2491326374
31
0.0000000000
11
12.3421762894
21
-18.2758968287
31
0.0000000000
11
12.3223343101
21
-18.3005628205
31
0.0000000000
11
12.3002126062
21
-18.3228363249
31
0.0000000000
11
12.2758305114
21
-18.3427191506
31
0.0000000000
11
12.2495169715
21
-18.3599157509
31
0.0000000000
11
12.2217142475
21
-18.3741631161
31
0.0000000000
11
12.1927264411
21
-18.3853570992
31
0.0000000000
11
12.1626122270
21
-18.3934751049
31
0.0000000000
11
12.1318147720
21
-18.3983743790
31
0.0000000000
11
12.1008636137
21
-18.4000000000
31
0.0000000000
0
SPLINE
5
255
100
AcDbEntity
8
0
100
AcDbSpline
62
7
6
CONTINUOUS
70
0
71
3
72
57
73
53
74
51
42
0.0000001000
43
0.0000001000
44
0.0000000001
12
0.0000000000
22
-7.8355163596
32
0.0000000000
13
0.0000000000
23
7.8355163596
33
0.0000000000
40
0.0000000000
40
0.0000000000
40
0.0000000000
40
0.0000000000
40
0.0199000596
40
0.0398086625
40
0.0597095877
40
0.0796281906
40
0.0995384065
40
0.1194692821
40
0.1393981664
40
0.1593428421
40
0.1792977335
40
0.1992575249
40
0.2192391103
40
0.2392195101
40
0.2592263127
40
0.2792319768
40
0.2992609953
40
0.3192948134
40
0.3393417715
40
0.3594027551
40
0.3794642209
40
0.3995459777
40
0.4196212316
40
0.4397163253
40
0.4598035523
40
0.4799037188
40
0.5000003544
40
0.5200969400
40
0.5401971510
40
0.5602843589
40
0.5803794513
40
0.6004547208
40
0.6205364320
40
0.6405979427
40
0.6606588493
40
0.6807058663
40
0.7007396384
40
0.7207686750
40
0.7407743510
40
0.7607811080
40
0.7807615675
40
0.8007430622
40
0.8207029339
40
0.8406577295
40
0.8606024639
40
0.8805313359
40
0.9004621810
40
0.9203724631
40
0.9402909634
40
0.9601919945
40
0.9801004703
40
1.0000000000
40
1.0000000000
40
1.0000000000
40
1.0000000000
10
2.5000000000
20
-0.0000000000
30
0.0000000000
10
2.5000000000
20
-0.0519757476
30
0.0000000000
10
2.4967267974
20
-0.1559792484
30
0.0000000000
10
2.4820160518
20
-0.3113341635
30
0.0000000000
10
2.4575560703
20
-0.4655104404
30
0.0000000000
10
2.4234473125
20
-0.6178457733
30
0.0000000000
10
2.3798048122
20
-0.7678101184
30
0.0000000000
10
2.3268104254
20
-0.9147590220
30
0.0000000000
10
2.2646461837
20
-1.0581678434
30
0.0000000000
10
2.1935622218
20
-1.1974416551
30
0.0000000000
10
2.1138236177
20
-1.3320415661
30
0.0000000000
10
2.0257310094
20
-1.4614449097
30
0.0000000000
10
1.9296414261
20
-1.5851107358
30
0.0000000000
10
1.8258930426
20
-1.7025889943
30
0.0000000000
10
1.7149274490
20
-1.8133648432
30
0.0000000000
10
1.5971305134
20
-1.9170389482
30
0.0000000000
10
1.4730024844
20
-2.0131580092
30
0.0000000000
10
1.3429973479
20
-2.1013575464
30
0.0000000000
10
1.2076426203
20
-2.1812690238
30
0.0000000000
10
1.0674765785
20
-2.2525638583
30
0.0000000000
10
0.9230315979
20
-2.3149632209
30
0.0000000000
10
0.7749224138
20
-2.3681937281
30
0.0000000000
10
0.6236828159
20
-2.4120571574
30
0.0000000000
10
0.4699765944
20
-2.4463554881
30
0.0000000000
10
0.3143583963
20
-2.4709604224
30
0.0000000000
10
0.1574997626
20
-2.4857627092
30
0.0000000000
10
-0.0000026494
20
-2.4907034668
30
0.0000000000
10
-0.1575051664
20
-2.4857623694
30
0.0000000000
10
-0.3143637054
20
-2.4709597550
30
0.0000000000
10
-0.4699819122
20
-2.4463544737
30
0.0000000000
10
-0.6236880483
20
-2.4120558175
30
0.0000000000
10
-0.7749274732
20
-2.3681920845
30
0.0000000000
10
-0.9230365810
20
-2.3149612513
30
0.0000000000
10
-1.0674812438
20
-2.2525616638
30
0.0000000000
10
-1.2076472000
20
-2.1812665087
30
0.0000000000
10
-1.3430016213
20
-2.1013548404
30
0.0000000000
10
-1.4730066426
20
-2.0131549905
30
0.0000000000
10
-1.5971344447
20
-1.9170357048
30
0.0000000000
10
-1.7149311357
20
-1.8133613833
30
0.0000000000
10
-1.8258965539
20
-1.7025852634
30
0.0000000000
10
-1.9296445662
20
-1.5851069427
30
0.0000000000
10
-2.0257339817
20
-1.4614408243
30
0.0000000000
10
-2.1138261789
20
-1.3320375349
30
0.0000000000
10
-2.1935645769
20
-1.1974373722
30
0.0000000000
10
-2.2646482164
20
-1.0581635401
30
0.0000000000
10
-2.3268121920
20
-0.9147545582
30
0.0000000000
10
-2.3798063194
20
-0.7678054969
30
0.0000000000
10
-2.4234484771
20
-0.6178412331
30
0.0000000000
10
-2.4575569841
20
-0.4655056595
30
0.0000000000
10
-2.4820166208
20
-0.3113296539
30
0.0000000000
10
-2.4967269387
20
-0.1559761460
30
0.0000000000
10
-2.5000000000
20
-0.0519743635
30
0.0000000000
10
-2.5000000000
20
-0.0000000000
30
0.0000000000
11
2.5000000000
21
-0.0000000000
31
0.0000000000
11
2.4950945708
21
-0.1558500620
31
0.0000000000
11
2.4803897990
21
-0.3111496273
31
0.0000000000
11
2.4559567300
21
-0.4651575664
31
0.0000000000
11
2.4218561858
21
-0.6174592084
31
0.0000000000
11
2.3782643354
21
-0.7672519963
31
0.0000000000
11
2.3252856676
21
-0.9141598729
31
0.0000000000
11
2.2631817612
21
-1.0574319745
31
0.0000000000
11
2.1921390148
21
-1.1966274363
31
0.0000000000
11
2.1124469054
21
-1.3311511931
31
0.0000000000
11
2.0244381485
21
-1.4604335966
31
0.0000000000
11
1.9283760917
21
-1.5840661398
31
0.0000000000
11
1.8247446140
21
-1.7014140525
31
0.0000000000
11
1.7138021364
21
-1.8121687459
31
0.0000000000
11
1.5961314918
21
-1.9157334981
31
0.0000000000
11
1.4720475872
21
-2.0118200586
31
0.0000000000
11
1.3421465688
21
-2.0999504918
31
0.0000000000
11
1.2068833232
21
-2.1798093459
31
0.0000000000
11
1.0667783113
21
-2.2510743799
31
0.0000000000
11
0.9224759348
21
-2.3134132218
31
0.0000000000
11
0.7743984443
21
-2.3666332665
31
0.0000000000
11
0.6233242183
21
-2.4104494965
31
0.0000000000
11
0.4696483818
21
-2.4447416446
31
0.0000000000
11
0.3141858660
21
-2.4693223931
31
0.0000000000
11
0.1573873163
21
-2.4841192667
31
0.0000000000
11
-0.0000027782
21
-2.4890565887
31
0.0000000000
11
-0.1573924703
21
-2.4841189430
31
0.0000000000
11
-0.3141913362
21
-2.4693217032
31
0.0000000000
11
-0.4696536510
21
-2.4447406412
31
0.0000000000
11
-0.6233294039
21
-2.4104481672
31
0.0000000000
11
-0.7744036530
21
-2.3666315770
31
0.0000000000
11
-0.9224806950
21
-2.3134113403
31
0.0000000000
11
-1.0667832628
21
-2.2510720539
31
0.0000000000
11
-1.2068875893
21
-2.1798070045
31
0.0000000000
11
-1.3421510703
21
-2.0999476399
31
0.0000000000
11
-1.4720516086
21
-2.0118171418
31
0.0000000000
11
-1.5961354311
21
-1.9157302446
31
0.0000000000
11
-1.7138059322
21
-1.8121651876
31
0.0000000000
11
-1.8247479338
21
-1.7014105231
31
0.0000000000
11
-1.9283794819
21
-1.5840620488
31
0.0000000000
11
-2.0244408570
21
-1.4604298749
31
0.0000000000
11
-2.1124497125
21
-1.3311467773
31
0.0000000000
11
-2.1921411764
21
-1.1966235109
31
0.0000000000
11
-2.2631838680
21
-1.0574275046
31
0.0000000000
11
-2.3252874536
21
-0.9141553695
31
0.0000000000
11
-2.3782657608
21
-0.7672476165
31
0.0000000000
11
-2.4218574621
21
-0.6174542458
31
0.0000000000
11
-2.4559575408
21
-0.4651533228
31
0.0000000000
11
-2.4803904456
21
-0.3111445176
31
0.0000000000
11
-2.4950948321
21
-0.1558459159
31
0.0000000000
11
-2.5000000000
21
-0.0000000000
31
0.0000000000
0
SPLINE
5
256
100
AcDbEntity
8
0
100
AcDbSpline
62
9
6
CONTINUOUS
70
0
71
3
72
22
73
18
74
16
42
0.0000001000
43
0.0000001000
44
0.0000000001
12
0.0014367926
22
-0.4669669341
32
0.0000000000
13
0.4669670641
23
-0.0013938929
33
0.0000000000
40
0.0000000000
40
0.0000000000
40
0.0000000000
40
0.0000000000
40
0.0661103930
40
0.1322638428
40
0.1984799513
40
0.2647755418
40
0.3311639233
40
0.3976543190
40
0.4642514785
40
0.5309554922
40
0.5977618086
40
0.6646614531
40
0.7316414334
40
0.7986853115
40
0.8657739179
40
0.9328861755
40
1.0000000000
40
1.0000000000
40
1.0000000000
40
1.0000000000
10
-12.2950679731
20
-17.0362964381
30
0.0000000000
10
-12.2950363108
20
-17.0465868939
30
0.0000000000
10
-12.2938787457
20
-17.0671878067
30
0.0000000000
10
-12.2888811198
20
-17.0977313591
30
0.0000000000
10
-12.2806765585
20
-17.1276071707
30
0.0000000000
10
-12.2693549185
20
-17.1564844311
30
0.0000000000
10
-12.2550401006
20
-17.1840491135
30
0.0000000000
10
-12.2378886848
20
-17.2100000750
30
0.0000000000
10
-12.2180881797
20
-17.2340543068
30
0.0000000000
10
-12.1958549501
20
-17.2559494796
30
0.0000000000
10
-12.1714318214
20
-17.2754469249
30
0.0000000000
10
-12.1450854501
20
-17.2923341731
30
0.0000000000
10
-12.1171032737
20
-17.3064272510
30
0.0000000000
10
-12.0877908790
20
-17.3175726546
30
0.0000000000
10
-12.0574668067
20
-17.3256490025
30
0.0000000000
10
-12.0264660900
20
-17.3305683171
30
0.0000000000
10
-12.0055603131
20
-17.3317075808
30
0.0000000000
10
-11.9951136646
20
-17.3317387640
30
0.0000000000
11
-12.2950679731
21
-17.0362964381
31
0.0000000000
11
-12.2933362830
21
-17.0671193452
31
0.0000000000
11
-12.2883497880
21
-17.0976058512
31
0.0000000000
11
-12.2801629107
21
-17.1274232259
31
0.0000000000
11
-12.2688650026
21
-17.1562460421
31
0.0000000000
11
-12.2545793690
21
-17.1837597273
31
0.0000000000
11
-12.2374619236
21
-17.2096639967
31
0.0000000000
11
-12.2176994861
21
-17.2336761308
31
0.0000000000
11
-12.1955077440
21
-17.2555340608
31
0.0000000000
11
-12.1711288982
21
-17.2749992288
31
0.0000000000
11
-12.1448290196
21
-17.2918591917
31
0.0000000000
11
-12.1168951455
21
-17.3059299395
31
0.0000000000
11
-12.0876321466
21
-17.3170579038
31
0.0000000000
11
-12.0573593996
21
-17.3251216339
31
0.0000000000
11
-12.0264073017
21
-17.3300331220
31
0.0000000000
11
-11.9951136646
21
-17.3317387640
31
0.0000000000
0
SPLINE
5
257
100
AcDbEntity
8
0
100
AcDbSpline
62
9
6
CONTINUOUS
70
0
71
3
72
25
73
21
74
19
42
0.0000001000
43
0.0000001000
44
0.0000000001
12
0.0654172135
22
0.9440976861
32
0.0000000000
13
0.0004462007
23
0.9463612701
33
0.0000000000
40
0.0000000000
40
0.0000000000
40
0.0000000000
40
0.0000000000
40
0.0168139800
40
0.0394426574
40
0.0677609164
40
0.1016088282
40
0.1407948368
40
0.1850966849
40
0.2342625483
40
0.2880129895
40
0.3460425649
40
0.4080213419
40
0.4735969130
40
0.5423965836
40
0.6140292037
40
0.6880872429
40
0.7641498830
40
0.8417850915
40
0.9205504175
40
1.0000000000
40
1.0000000000
40
1.0000000000
40
1.0000000000
10
-11.9951136646
20
-17.3317387640
30
0.0000000000
10
-11.9947470233
20
-17.3264474175
30
0.0000000000
10
-11.9940857197
20
-17.3140215134
30
0.0000000000
10
-11.9932302470
20
-17.2926631475
30
0.0000000000
10
-11.9923896915
20
-17.2659271668
30
0.0000000000
10
-11.9915694064
20
-17.2339656815
30
0.0000000000
10
-11.9907778155
20
-17.1969600342
30
0.0000000000
10
-11.9900201793
20
-17.1551207205
30
0.0000000000
10
-11.9893017131
20
-17.1086857086
30
0.0000000000
10
-11.9886269209
20
-17.0579191717
30
0.0000000000
10
-11.9879999649
20
-17.0031098600
30
0.0000000000
10
-11.9874246177
20
-16.9445695126
30
0.0000000000
10
-11.9869043019
20
-16.8826310595
30
0.0000000000
10
-11.9864420834
20
-16.8176467258
30
0.0000000000
10
-11.9860406707
20
-16.7499861141
30
0.0000000000
10
-11.9857024030
20
-16.6800339996
30
0.0000000000
10
-11.9854292482
20
-16.6081880483
30
0.0000000000
10
-11.9852227875
20
-16.5348569375
30
0.0000000000
10
-11.9850842187
20
-16.4604572424
30
0.0000000000
10
-11.9850377484
20
-16.4105477628
30
0.0000000000
10
-11.9850259316
20
-16.3854850935
30
0.0000000000
11
-11.9951136646
21
-17.3317387640
31
0.0000000000
11
-11.9942128936
21
-17.3158521792
31
0.0000000000
11
-11.9933293355
21
-17.2944555080
31
0.0000000000
11
-11.9924679756
21
-17.2676700476
31
0.0000000000
11
-11.9916337408
21
-17.2356485563
31
0.0000000000
11
-11.9908313648
21
-17.1985731126
31
0.0000000000
11
-11.9900654111
21
-17.1566545521
31
0.0000000000
11
-11.9893402378
21
-17.1101315295
31
0.0000000000
11
-11.9886599683
21
-17.0592687369
31
0.0000000000
11
-11.9880284688
21
-17.0043554192
31
0.0000000000
11
-11.9874493299
21
-16.9457039577
31
0.0000000000
11
-11.9869258440
21
-16.8836479780
31
0.0000000000
11
-11.9864609857
21
-16.8185402866
31
0.0000000000
11
-11.9860573976
21
-16.7507511431
31
0.0000000000
11
-11.9857173745
21
-16.6806663001
31
0.0000000000
11
-11.9854428480
21
-16.6086840789
31
0.0000000000
11
-11.9852353760
21
-16.5352134091
31
0.0000000000
11
-11.9850961418
21
-16.4606730769
31
0.0000000000
11
-11.9850259316
21
-16.3854850935
31
0.0000000000
0
SPLINE
5
258
100
AcDbEntity
8
0
100
AcDbSpline
62
9
6
CONTINUOUS
70
0
71
3
72
25
73
21
74
19
42
0.0000001000
43
0.0000001000
44
0.0000000001
12
0.0652641256
22
0.6593090502
32
0.0000000000
13
0.0004462608
23
0.6625312299
33
0.0000000000
40
0.0000000000
40
0.0000000000
40
0.0000000000
40
0.0000000000
40
0.0168354648
40
0.0394807871
40
0.0678104358
40
0.1016661312
40
0.1408571863
40
0.1851619255
40
0.2343289174
40
0.2880790161
40
0.3461070037
40
0.4080831309
40
0.4736551368
40
0.5424503962
40
0.6140778564
40
0.6881300891
40
0.7641863711
40
0.8418147683
40
0.9205729123
40
1.0000000000
40
1.0000000000
40
1.0000000000
40
1.0000000000
10
-12.2950679731
20
-17.0362964381
30
0.0000000000
10
-12.2947017225
20
-17.0325965133
30
0.0000000000
10
-12.2940404212
20
-17.0239008999
30
0.0000000000
10
-12.2931848666
20
-17.0089497645
30
0.0000000000
10
-12.2923442160
20
-16.9902338333
30
0.0000000000
10
-12.2915238812
20
-16.9678604031
30
0.0000000000
10
-12.2907322519
20
-16.9419560059
30
0.0000000000
10
-12.2899745842
20
-16.9126679746
30
0.0000000000
10
-12.2892560915
20
-16.8801628222
30
0.0000000000
10
-12.2885812757
20
-16.8446254595
30
0.0000000000
10
-12.2879542993
20
-16.8062580036
30
0.0000000000
10
-12.2873789345
20
-16.7652786764
30
0.0000000000
10
-12.2868586044
20
-16.7219205519
30
0.0000000000
10
-12.2863963751
20
-16.6764302202
30
0.0000000000
10
-12.2859949548
20
-16.6290664385
30
0.0000000000
10
-12.2856566840
20
-16.5800985742
30
0.0000000000
10
-12.2853835280
20
-16.5298050151
30
0.0000000000
10
-12.2851770727
20
-16.4784718589
30
0.0000000000
10
-12.2850385174
20
-16.4263940519
30
0.0000000000
10
-12.2849920552
20
-16.3914598441
30
0.0000000000
10
-12.2849802401
20
-16.3739188688
30
0.0000000000
11
-12.2950679731
21
-17.0362964381
31
0.0000000000
11
-12.2941674075
21
-17.0251788292
31
0.0000000000
11
-12.2932838185
21
-17.0102016339
31
0.0000000000
11
-12.2924224381
21
-16.9914521288
31
0.0000000000
11
-12.2915881781
21
-16.9690371879
31
0.0000000000
11
-12.2907857790
21
-16.9430842852
31
0.0000000000
11
-12.2900198024
21
-16.9137410010
31
0.0000000000
11
-12.2892946073
21
-16.8811743994
31
0.0000000000
11
-12.2886143175
21
-16.8455697707
31
0.0000000000
11
-12.2879827996
21
-16.8071295952
31
0.0000000000
11
-12.2874036445
21
-16.7660725507
31
0.0000000000
11
-12.2868801450
21
-16.7226321934
31
0.0000000000
11
-12.2864152764
21
-16.6770555459
31
0.0000000000
11
-12.2860116814
21
-16.6296018221
31
0.0000000000
11
-12.2856716551
21
-16.5805410724
31
0.0000000000
11
-12.2853971284
21
-16.5301521468
31
0.0000000000
11
-12.2851896608
21
-16.4787213161
31
0.0000000000
11
-12.2850504328
21
-16.4265417600
31
0.0000000000
11
-12.2849802401
21
-16.3739188688
31
0.0000000000
0
SPLINE
5
259
100
AcDbEntity
8
0
100
AcDbSpline
62
9
6
CONTINUOUS
70
0
71
3
72
21
73
17
74
15
42
0.0000001000
43
0.0000001000
44
0.0000000001
12
0.1238971533
22
-0.2739463655
32
0.0000000000
13
0.3006610631
23
-0.0002021836
33
0.0000000000
40
0.0000000000
40
0.0000000000
40
0.0000000000
40
0.0000000000
40
0.0091178633
40
0.0297823121
40
0.0621959371
40
0.1060527834
40
0.1608483737
40
0.2259261895
40
0.3004961055
40
0.3836477779
40
0.4743634213
40
0.5715311043
40
0.6739588503
40
0.7803895492
40
0.8895165812
40
1.0000000000
40
1.0000000000
40
1.0000000000
40
1.0000000000
10
-12.2849802401
20
-16.3739188688
30
0.0000000000
10
-12.2846036810
20
-16.3747514706
30
0.0000000000
10
-12.2811445546
20
-16.3755054035
30
0.0000000000
10
-12.2754990300
20
-16.3767823588
30
0.0000000000
10
-12.2655937441
20
-16.3778537713
30
0.0000000000
10
-12.2526146656
20
-16.3790303964
30
0.0000000000
10
-12.2362009944
20
-16.3801125953
30
0.0000000000
10
-12.2167546050
20
-16.3811466325
30
0.0000000000
10
-12.1944407280
20
-16.3820922156
30
0.0000000000
10
-12.1695580414
20
-16.3829439171
30
0.0000000000
10
-12.1424043707
20
-16.3836874993
30
0.0000000000
10
-12.1133160157
20
-16.3843139288
30
0.0000000000
10
-12.0826498886
20
-16.3848148030
30
0.0000000000
10
-12.0507832974
20
-16.3851837436
30
0.0000000000
10
-12.0181080536
20
-16.3854160112
30
0.0000000000
10
-11.9960986189
20
-16.3854776476
30
0.0000000000
10
-11.9850259316
20
-16.3854850935
30
0.0000000000
11
-12.2849802401
21
-16.3739188688
31
0.0000000000
11
-12.2825564942
21
-16.3751997510
31
0.0000000000
11
-12.2764736682
21
-16.3764648807
31
0.0000000000
11
-12.2668065695
21
-16.3776986991
31
0.0000000000
11
-12.2536740858
21
-16.3788860326
31
0.0000000000
11
-12.2372377226
21
-16.3800122790
31
0.0000000000
11
-12.2176996169
21
-16.3810635877
31
0.0000000000
11
-12.1953000517
21
-16.3820270295
31
0.0000000000
11
-12.1703145004
21
-16.3828907557
31
0.0000000000
11
-12.1430502396
21
-16.3836441442
31
0.0000000000
11
-12.1138425696
21
-16.3842779296
31
0.0000000000
11
-12.0830506913
21
-16.3847843176
31
0.0000000000
11
-12.0510532882
21
-16.3851570805
31
0.0000000000
11
-12.0182438697
21
-16.3853916340
31
0.0000000000
11
-11.9850259316
21
-16.3854850935
31
0.0000000000
0
SPLINE
5
25A
100
AcDbEntity
8
0
100
AcDbSpline
62
9
6
CONTINUOUS
70
0
71
3
72
17
73
13
74
11
42
0.0000001000
43
0.0000001000
44
0.0000000001
12
0.0220545085
22
32.7709652134
32
0.0000000000
13
-0.0220545084
23
32.7709652134
33
0.0000000000
40
0.0000000000
40
0.0000000000
40
0.0000000000
40
0.0000000000
40
0.0999643191
40
0.1999524246
40
0.2999583713
40
0.3999762122
40
0.5000000000
40
0.6000237878
40
0.7000416287
40
0.8000475754
40
0.9000356809
40
1.0000000000
40
1.0000000000
40
1.0000000000
40
1.0000000000
10
-11.9850259316
20
-16.3854850935
30
0.0000000000
10
-11.9842910436
20
-15.2935093523
30
0.0000000000
10
-11.9829682517
20
-13.1092979330
30
0.0000000000
10
-11.9814250864
20
-9.8326557609
30
0.0000000000
10
-11.9803227599
20
-6.5554287567
30
0.0000000000
10
-11.9796613377
20
-3.2778118533
30
0.0000000000
10
-11.9794408593
20
-0.0000000000
30
0.0000000000
10
-11.9796613377
20
3.2778118532
30
0.0000000000
10
-11.9803227599
20
6.5554287567
30
0.0000000000
10
-11.9814250864
20
9.8326557608
30
0.0000000000
10
-11.9829682517
20
13.1092979329
30
0.0000000000
10
-11.9842910436
20
15.2935093523
30
0.0000000000
10
-11.9850259316
20
16.3854850935
30
0.0000000000
11
-11.9850259316
21
-16.3854850935
31
0.0000000000
11
-11.9830419208
21
-13.1095577287
31
0.0000000000
11
-11.9814986790
21
-9.8328506215
31
0.0000000000
11
-11.9803962978
21
-6.5555586650
31
0.0000000000
11
-11.9797348429
21
-3.2778768057
31
0.0000000000
11
-11.9795143536
21
-0.0000000000
31
0.0000000000
11
-11.9797348429
21
3.2778768057
31
0.0000000000
11
-11.9803962978
21
6.5555586650
31
0.0000000000
11
-11.9814986790
21
9.8328506215
31
0.0000000000
11
-11.9830419208
21
13.1095577287
31
0.0000000000
11
-11.9850259316
21
16.3854850935
31
0.0000000000
0
SPLINE
5
25B
100
AcDbEntity
8
0
100
AcDbSpline
62
9
6
CONTINUOUS
70
0
71
3
72
21
73
17
74
15
42
0.0000001000
43
0.0000001000
44
0.0000000001
12
0.1238977282
22
0.2739461049
32
0.0000000000
13
0.3006610626
23
0.0002021835
33
0.0000000000
40
0.0000000000
40
0.0000000000
40
0.0000000000
40
0.0000000000
40
0.0091178719
40
0.0297823287
40
0.0621959602
40
0.1060528113
40
0.1608484048
40
0.2259262220
40
0.3004961378
40
0.3836478087
40
0.4743634491
40
0.5715311281
40
0.6739588690
40
0.7803895621
40
0.8895165878
40
1.0000000000
40
1.0000000000
40
1.0000000000
40
1.0000000000
10
-12.2849802401
20
16.3739188688
30
0.0000000000
10
-12.2846036789
20
16.3747514706
30
0.0000000000
10
-12.2811445527
20
16.3755054030
30
0.0000000000
10
-12.2754990240
20
16.3767823586
30
0.0000000000
10
-12.2655937371
20
16.3778537709
30
0.0000000000
10
-12.2526146568
20
16.3790303959
30
0.0000000000
10
-12.2362009849
20
16.3801125947
30
0.0000000000
10
-12.2167545950
20
16.3811466318
30
0.0000000000
10
-12.1944407181
20
16.3820922148
30
0.0000000000
10
-12.1695580320
20
16.3829439162
30
0.0000000000
10
-12.1424043621
20
16.3836874982
30
0.0000000000
10
-12.1133160085
20
16.3843139277
30
0.0000000000
10
-12.0826498829
20
16.3848148018
30
0.0000000000
10
-12.0507832935
20
16.3851837424
30
0.0000000000
10
-12.0181080515
20
16.3854160100
30
0.0000000000
10
-11.9960986183
20
16.3854776463
30
0.0000000000
10
-11.9850259316
20
16.3854850922
30
0.0000000000
11
-12.2849802401
21
16.3739188688
31
0.0000000000
11
-12.2825564913
21
16.3751997509
31
0.0000000000
11
-12.2764736627
21
16.3764648805
31
0.0000000000
11
-12.2668065621
21
16.3776986988
31
0.0000000000
11
-12.2536740770
21
16.3788860322
31
0.0000000000
11
-12.2372377128
21
16.3800122785
31
0.0000000000
11
-12.2176996067
21
16.3810635870
31
0.0000000000
11
-12.1953000416
21
16.3820270287
31
0.0000000000
11
-12.1703144908
21
16.3828907548
31
0.0000000000
11
-12.1430502310
21
16.3836441432
31
0.0000000000
11
-12.1138425623
21
16.3842779285
31
0.0000000000
11
-12.0830506855
21
16.3847843164
31
0.0000000000
11
-12.0510532842
21
16.3851570793
31
0.0000000000
11
-12.0182438677
21
16.3853916327
31
0.0000000000
11
-11.9850259316
21
16.3854850922
31
0.0000000000
0
SPLINE
5
25C
100
AcDbEntity
8
0
100
AcDbSpline
62
9
6
CONTINUOUS
70
0
71
3
72
25
73
21
74
19
42
0.0000001000
43
0.0000001000
44
0.0000000001
12
-0.0004462263
22
0.9463612702
32
0.0000000000
13
-0.0654163801
23
0.9440977439
33
0.0000000000
40
0.0000000000
40
0.0000000000
40
0.0000000000
40
0.0000000000
40
0.0794495423
40
0.1582148743
40
0.2358500854
40
0.3119127222
40
0.3859707669
40
0.4576033897
40
0.5264030587
40
0.5919786305
40
0.6539574094
40
0.7119869856
40
0.7657374290
40
0.8149032960
40
0.8592051448
40
0.8983911530
40
0.9322390689
40
0.9605573298
40
0.9831860090
40
1.0000000000
40
1.0000000000
40
1.0000000000
40
1.0000000000
10
-11.9850259316
20
16.3854850935
30
0.0000000000
10
-11.9850377490
20
16.4105477501
30
0.0000000000
10
-11.9850842179
20
16.4604572189
30
0.0000000000
10
-11.9852227878
20
16.5348569041
30
0.0000000000
10
-11.9854292477
20
16.6081880166
30
0.0000000000
10
-11.9857024026
20
16.6800339694
30
0.0000000000
10
-11.9860406700
20
16.7499860854
30
0.0000000000
10
-11.9864420826
20
16.8176466992
30
0.0000000000
10
-11.9869043008
20
16.8826310334
30
0.0000000000
10
-11.9874246164
20
16.9445694869
30
0.0000000000
10
-11.9879999635
20
17.0031098353
30
0.0000000000
10
-11.9886269194
20
17.0579191486
30
0.0000000000
10
-11.9893017116
20
17.1086856876
30
0.0000000000
10
-11.9900201777
20
17.1551207016
30
0.0000000000
10
-11.9907778138
20
17.1969600165
30
0.0000000000
10
-11.9915694051
20
17.2339656652
30
0.0000000000
10
-11.9923896890
20
17.2659271523
30
0.0000000000
10
-11.9932302475
20
17.2926631353
30
0.0000000000
10
-11.9940857140
20
17.3140215062
30
0.0000000000
10
-11.9947470277
20
17.3264474136
30
0.0000000000
10
-11.9951136646
20
17.3317387640
30
0.0000000000
11
-11.9850259316
21
16.3854850935
31
0.0000000000
11
-11.9850961415
21
16.4606730389
31
0.0000000000
11
-11.9852353760
21
16.5352133767
31
0.0000000000
11
-11.9854428477
21
16.6086840490
31
0.0000000000
11
-11.9857173740
21
16.6806662671
31
0.0000000000
11
-11.9860573970
21
16.7507511153
31
0.0000000000
11
-11.9864609849
21
16.8185402613
31
0.0000000000
11
-11.9869258429
21
16.8836479513
31
0.0000000000
11
-11.9874493286
21
16.9457039316
31
0.0000000000
11
-11.9880284674
21
17.0043553948
31
0.0000000000
11
-11.9886599667
21
17.0592687135
31
0.0000000000
11
-11.9893402362
21
17.1101315081
31
0.0000000000
11
-11.9900654096
21
17.1566545341
31
0.0000000000
11
-11.9908313632
21
17.1985730953
31
0.0000000000
11
-11.9916337392
21
17.2356485385
31
0.0000000000
11
-11.9924679739
21
17.2676700337
31
0.0000000000
11
-11.9933293342
21
17.2944554960
31
0.0000000000
11
-11.9942128917
21
17.3158521688
31
0.0000000000
11
-11.9951136646
21
17.3317387640
31
0.0000000000
0
SPLINE
5
25D
100
AcDbEntity
8
0
100
AcDbSpline
62
9
6
CONTINUOUS
70
0
71
3
72
25
73
21
74
19
42
0.0000001000
43
0.0000001000
44
0.0000000001
12
-0.0004462700
22
0.6625312298
32
0.0000000000
13
-0.0652644253
23
0.6593090205
33
0.0000000000
40
0.0000000000
40
0.0000000000
40
0.0000000000
40
0.0000000000
40
0.0794220638
40
0.1581801434
40
0.2358085054
40
0.3118647759
40
0.3859170398
40
0.4575445624
40
0.5263399164
40
0.5919120683
40
0.6538884451
40
0.7119167771
40
0.7656672946
40
0.8148347204
40
0.8591398904
40
0.8983313732
40
0.9321874924
40
0.9605175627
40
0.9831632770
40
1.0000000000
40
1.0000000000
40
1.0000000000
40
1.0000000000
10
-12.2849802401
20
16.3739188688
30
0.0000000000
10
-12.2849920547
20
16.3914587346
30
0.0000000000
10
-12.2850385135
20
16.4263918187
30
0.0000000000
10
-12.2851770618
20
16.4784684942
30
0.0000000000
10
-12.2853835120
20
16.5298016259
30
0.0000000000
10
-12.2856566633
20
16.5800951815
30
0.0000000000
10
-12.2859949289
20
16.6290630640
30
0.0000000000
10
-12.2863963442
20
16.6764268874
30
0.0000000000
10
-12.2868585683
20
16.7219172860
30
0.0000000000
10
-12.2873788935
20
16.7652755188
30
0.0000000000
10
-12.2879542539
20
16.8062550096
30
0.0000000000
10
-12.2885812269
20
16.8446226892
30
0.0000000000
10
-12.2892560401
20
16.8801603164
30
0.0000000000
10
-12.2899745310
20
16.9126657523
30
0.0000000000
10
-12.2907321974
20
16.9419540692
30
0.0000000000
10
-12.2915238256
20
16.9678587497
30
0.0000000000
10
-12.2923441607
20
16.9902324612
30
0.0000000000
10
-12.2931848097
20
17.0089486661
30
0.0000000000
10
-12.2940403796
20
17.0239002587
30
0.0000000000
10
-12.2947016934
20
17.0325962370
30
0.0000000000
10
-12.2950679731
20
17.0362964381
30
0.0000000000
11
-12.2849802401
21
16.3739188688
31
0.0000000000
11
-12.2850504261
21
16.4265384315
31
0.0000000000
11
-12.2851896496
21
16.4787179449
31
0.0000000000
11
-12.2853971124
21
16.5301487524
31
0.0000000000
11
-12.2856716341
21
16.5805376704
31
0.0000000000
11
-12.2860116554
21
16.6295984407
31
0.0000000000
11
-12.2864152453
21
16.6770522060
31
0.0000000000
11
-12.2868801086
21
16.7226289161
31
0.0000000000
11
-12.2874036030
21
16.7660693702
31
0.0000000000
11
-12.2879827537
21
16.8071265802
31
0.0000000000
11
-12.2886142681
21
16.8455669840
31
0.0000000000
11
-12.2892945555
21
16.8811718902
31
0.0000000000
11
-12.2900197488
21
16.9137387794
31
0.0000000000
11
-12.2907857241
21
16.9430823491
31
0.0000000000
11
-12.2915881221
21
16.9690355354
31
0.0000000000
11
-12.2924223815
21
16.9914507572
31
0.0000000000
11
-12.2932837617
21
17.0102005420
31
0.0000000000
11
-12.2941673508
21
17.0251779975
31
0.0000000000
11
-12.2950679731
21
17.0362964381
31
0.0000000000
0
SPLINE
5
25E
100
AcDbEntity
8
0
100
AcDbSpline
62
9
6
CONTINUOUS
70
0
71
3
72
22
73
18
74
16
42
0.0000001000
43
0.0000001000
44
0.0000000001
12
0.0014367926
22
0.4669669341
32
0.0000000000
13
0.4669670641
23
0.0013938929
33
0.0000000000
40
0.0000000000
40
0.0000000000
40
0.0000000000
40
0.0000000000
40
0.0661103978
40
0.1322638517
40
0.1984799636
40
0.2647755566
40
0.3311639400
40
0.3976543367
40
0.4642514965
40
0.5309555097
40
0.5977618250
40
0.6646614679
40
0.7316414458
40
0.7986853212
40
0.8657739246
40
0.9328861790
40
1.0000000000
40
1.0000000000
40
1.0000000000
40
1.0000000000
10
-12.2950679731
20
17.0362964381
30
0.0000000000
10
-12.2950363108
20
17.0465868947
30
0.0000000000
10
-12.2938787455
20
17.0671878088
30
0.0000000000
10
-12.2888811190
20
17.0977313631
30
0.0000000000
10
-12.2806765568
20
17.1276071760
30
0.0000000000
10
-12.2693549157
20
17.1564844374
30
0.0000000000
10
-12.2550400968
20
17.1840491202
30
0.0000000000
10
-12.2378886799
20
17.2100000816
30
0.0000000000
10
-12.2180881741
20
17.2340543129
30
0.0000000000
10
-12.1958549440
20
17.2559494849
30
0.0000000000
10
-12.1714318152
20
17.2754469293
30
0.0000000000
10
-12.1450854441
20
17.2923341765
30
0.0000000000
10
-12.1171032684
20
17.3064272533
30
0.0000000000
10
-12.0877908746
20
17.3175726560
30
0.0000000000
10
-12.0574668037
20
17.3256490031
30
0.0000000000
10
-12.0264660885
20
17.3305683173
30
0.0000000000
10
-12.0055603125
20
17.3317075808
30
0.0000000000
10
-11.9951136646
20
17.3317387640
30
0.0000000000
11
-12.2950679731
21
17.0362964381
31
0.0000000000
11
-12.2933362828
21
17.0671193475
31
0.0000000000
11
-12.2883497872
21
17.0976058552
31
0.0000000000
11
-12.2801629089
21
17.1274232313
31
0.0000000000
11
-12.2688649997
21
17.1562460484
31
0.0000000000
11
-12.2545793651
21
17.1837597340
31
0.0000000000
11
-12.2374619187
21
17.2096640034
31
0.0000000000
11
-12.2176994804
21
17.2336761370
31
0.0000000000
11
-12.1955077379
21
17.2555340662
31
0.0000000000
11
-12.1711288919
21
17.2749992333
31
0.0000000000
11
-12.1448290136
21
17.2918591951
31
0.0000000000
11
-12.1168951402
21
17.3059299418
31
0.0000000000
11
-12.0876321423
21
17.3170579052
31
0.0000000000
11
-12.0573593965
21
17.3251216346
31
0.0000000000
11
-12.0264073001
21
17.3300331222
31
0.0000000000
11
-11.9951136646
21
17.3317387640
31
0.0000000000
0
SPLINE
5
25F
100
AcDbEntity
8
0
100
AcDbSpline
62
9
6
CONTINUOUS
70
0
71
3
72
22
73
18
74
16
42
0.0000001000
43
0.0000001000
44
0.0000000001
12
-0.0014367926
22
0.4669669341
32
0.0000000000
13
-0.4669670641
23
0.0013938929
33
0.0000000000
40
0.0000000000
40
0.0000000000
40
0.0000000000
40
0.0000000000
40
0.0661103950
40
0.1322638465
40
0.1984799564
40
0.2647755480
40
0.3311639304
40
0.3976543265
40
0.4642514862
40
0.5309554997
40
0.5977618156
40
0.6646614594
40
0.7316414387
40
0.7986853157
40
0.8657739208
40
0.9328861770
40
1.0000000000
40
1.0000000000
40
1.0000000000
40
1.0000000000
10
12.2950679731
20
17.0362964381
30
0.0000000000
10
12.2950363108
20
17.0465868942
30
0.0000000000
10
12.2938787456
20
17.0671878076
30
0.0000000000
10
12.2888811195
20
17.0977313608
30
0.0000000000
10
12.2806765578
20
17.1276071729
30
0.0000000000
10
12.2693549173
20
17.1564844337
30
0.0000000000
10
12.2550400990
20
17.1840491163
30
0.0000000000
10
12.2378886827
20
17.2100000778
30
0.0000000000
10
12.2180881773
20
17.2340543094
30
0.0000000000
10
12.1958549475
20
17.2559494819
30
0.0000000000
10
12.1714318188
20
17.2754469268
30
0.0000000000
10
12.1450854475
20
17.2923341746
30
0.0000000000
10
12.1171032714
20
17.3064272520
30
0.0000000000
10
12.0877908771
20
17.3175726552
30
0.0000000000
10
12.0574668054
20
17.3256490027
30
0.0000000000
10
12.0264660894
20
17.3305683172
30
0.0000000000
10
12.0055603128
20
17.3317075808
30
0.0000000000
10
11.9951136646
20
17.3317387640
30
0.0000000000
11
12.2950679731
21
17.0362964381
31
0.0000000000
11
12.2933362829
21
17.0671193462
31
0.0000000000
11
12.2883497877
21
17.0976058529
31
0.0000000000
11
12.2801629100
21
17.1274232281
31
0.0000000000
11
12.2688650014
21
17.1562460447
31
0.0000000000
11
12.2545793674
21
17.1837597301
31
0.0000000000
11
12.2374619215
21
17.2096639995
31
0.0000000000
11
12.2176994837
21
17.2336761334
31
0.0000000000
11
12.1955077414
21
17.2555340631
31
0.0000000000
11
12.1711288955
21
17.2749992307
31
0.0000000000
11
12.1448290171
21
17.2918591931
31
0.0000000000
11
12.1168951432
21
17.3059299405
31
0.0000000000
11
12.0876321447
21
17.3170579044
31
0.0000000000
11
12.0573593983
21
17.3251216342
31
0.0000000000
11
12.0264073010
21
17.3300331221
31
0.0000000000
11
11.9951136646
21
17.3317387640
31
0.0000000000
0
SPLINE
5
260
100
AcDbEntity
8
0
100
AcDbSpline
62
9
6
CONTINUOUS
70
0
71
3
72
25
73
21
74
19
42
0.0000001000
43
0.0000001000
44
0.0000000001
12
-0.0654163802
22
-0.9440977439
32
0.0000000000
13
-0.0004462263
23
-0.9463612702
33
0.0000000000
40
0.0000000000
40
0.0000000000
40
0.0000000000
40
0.0000000000
40
0.0168139910
40
0.0394426702
40
0.0677609311
40
0.1016088470
40
0.1407948552
40
0.1850967040
40
0.2342625710
40
0.2880130144
40
0.3460425906
40
0.4080213695
40
0.4735969413
40
0.5423966103
40
0.6140292331
40
0.6880872778
40
0.7641499146
40
0.8417851257
40
0.9205504577
40
1.0000000000
40
1.0000000000
40
1.0000000000
40
1.0000000000
10
11.9951136646
20
17.3317387640
30
0.0000000000
10
11.9947470277
20
17.3264474136
30
0.0000000000
10
11.9940857140
20
17.3140215062
30
0.0000000000
10
11.9932302475
20
17.2926631353
30
0.0000000000
10
11.9923896890
20
17.2659271523
30
0.0000000000
10
11.9915694051
20
17.2339656652
30
0.0000000000
10
11.9907778138
20
17.1969600165
30
0.0000000000
10
11.9900201777
20
17.1551207016
30
0.0000000000
10
11.9893017116
20
17.1086856876
30
0.0000000000
10
11.9886269194
20
17.0579191486
30
0.0000000000
10
11.9879999635
20
17.0031098353
30
0.0000000000
10
11.9874246164
20
16.9445694869
30
0.0000000000
10
11.9869043008
20
16.8826310334
30
0.0000000000
10
11.9864420826
20
16.8176466992
30
0.0000000000
10
11.9860406700
20
16.7499860854
30
0.0000000000
10
11.9857024026
20
16.6800339694
30
0.0000000000
10
11.9854292477
20
16.6081880166
30
0.0000000000
10
11.9852227878
20
16.5348569041
30
0.0000000000
10
11.9850842179
20
16.4604572189
30
0.0000000000
10
11.9850377490
20
16.4105477501
30
0.0000000000
10
11.9850259316
20
16.3854850935
30
0.0000000000
11
11.9951136646
21
17.3317387640
31
0.0000000000
11
11.9942128917
21
17.3158521688
31
0.0000000000
11
11.9933293342
21
17.2944554960
31
0.0000000000
11
11.9924679739
21
17.2676700337
31
0.0000000000
11
11.9916337392
21
17.2356485385
31
0.0000000000
11
11.9908313632
21
17.1985730953
31
0.0000000000
11
11.9900654096
21
17.1566545341
31
0.0000000000
11
11.9893402362
21
17.1101315081
31
0.0000000000
11
11.9886599667
21
17.0592687135
31
0.0000000000
11
11.9880284674
21
17.0043553948
31
0.0000000000
11
11.9874493286
21
16.9457039316
31
0.0000000000
11
11.9869258429
21
16.8836479513
31
0.0000000000
11
11.9864609849
21
16.8185402613
31
0.0000000000
11
11.9860573970
21
16.7507511153
31
0.0000000000
11
11.9857173740
21
16.6806662671
31
0.0000000000
11
11.9854428477
21
16.6086840490
31
0.0000000000
11
11.9852353760
21
16.5352133767
31
0.0000000000
11
11.9850961415
21
16.4606730389
31
0.0000000000
11
11.9850259316
21
16.3854850935
31
0.0000000000
0
SPLINE
5
261
100
AcDbEntity
8
0
100
AcDbSpline
62
9
6
CONTINUOUS
70
0
71
3
72
25
73
21
74
19
42
0.0000001000
43
0.0000001000
44
0.0000000001
12
-0.0652644252
22
-0.6593090205
32
0.0000000000
13
-0.0004462700
23
-0.6625312298
33
0.0000000000
40
0.0000000000
40
0.0000000000
40
0.0000000000
40
0.0000000000
40
0.0168367230
40
0.0394824373
40
0.0678125076
40
0.1016686268
40
0.1408601096
40
0.1851652796
40
0.2343327054
40
0.2880832229
40
0.3461115549
40
0.4080879317
40
0.4736600836
40
0.5424554376
40
0.6140829602
40
0.6881352241
40
0.7641914946
40
0.8418198566
40
0.9205779362
40
1.0000000000
40
1.0000000000
40
1.0000000000
40
1.0000000000
10
12.2950679731
20
17.0362964381
30
0.0000000000
10
12.2947016934
20
17.0325962370
30
0.0000000000
10
12.2940403796
20
17.0239002587
30
0.0000000000
10
12.2931848097
20
17.0089486661
30
0.0000000000
10
12.2923441607
20
16.9902324612
30
0.0000000000
10
12.2915238256
20
16.9678587497
30
0.0000000000
10
12.2907321974
20
16.9419540692
30
0.0000000000
10
12.2899745310
20
16.9126657523
30
0.0000000000
10
12.2892560401
20
16.8801603164
30
0.0000000000
10
12.2885812269
20
16.8446226892
30
0.0000000000
10
12.2879542539
20
16.8062550096
30
0.0000000000
10
12.2873788935
20
16.7652755188
30
0.0000000000
10
12.2868585683
20
16.7219172860
30
0.0000000000
10
12.2863963442
20
16.6764268874
30
0.0000000000
10
12.2859949289
20
16.6290630640
30
0.0000000000
10
12.2856566633
20
16.5800951815
30
0.0000000000
10
12.2853835120
20
16.5298016259
30
0.0000000000
10
12.2851770618
20
16.4784684942
30
0.0000000000
10
12.2850385135
20
16.4263918187
30
0.0000000000
10
12.2849920547
20
16.3914587346
30
0.0000000000
10
12.2849802401
20
16.3739188688
30
0.0000000000
11
12.2950679731
21
17.0362964381
31
0.0000000000
11
12.2941673508
21
17.0251779975
31
0.0000000000
11
12.2932837617
21
17.0102005420
31
0.0000000000
11
12.2924223815
21
16.9914507572
31
0.0000000000
11
12.2915881221
21
16.9690355354
31
0.0000000000
11
12.2907857241
21
16.9430823491
31
0.0000000000
11
12.2900197488
21
16.9137387794
31
0.0000000000
11
12.2892945555
21
16.8811718902
31
0.0000000000
11
12.2886142681
21
16.8455669840
31
0.0000000000
11
12.2879827537
21
16.8071265802
31
0.0000000000
11
12.2874036030
21
16.7660693702
31
0.0000000000
11
12.2868801086
21
16.7226289161
31
0.0000000000
11
12.2864152453
21
16.6770522060
31
0.0000000000
11
12.2860116554
21
16.6295984407
31
0.0000000000
11
12.2856716341
21
16.5805376704
31
0.0000000000
11
12.2853971124
21
16.5301487524
31
0.0000000000
11
12.2851896496
21
16.4787179449
31
0.0000000000
11
12.2850504261
21
16.4265384315
31
0.0000000000
11
12.2849802401
21
16.3739188688
31
0.0000000000
0
SPLINE
5
262
100
AcDbEntity
8
0
100
AcDbSpline
62
9
6
CONTINUOUS
70
0
71
3
72
21
73
17
74
15
42
0.0000001000
43
0.0000001000
44
0.0000000001
12
-0.1238971534
22
0.2739463654
32
0.0000000000
13
-0.3006610631
23
0.0002021836
33
0.0000000000
40
0.0000000000
40
0.0000000000
40
0.0000000000
40
0.0000000000
40
0.0091178633
40
0.0297823121
40
0.0621959371
40
0.1060527834
40
0.1608483737
40
0.2259261895
40
0.3004961055
40
0.3836477779
40
0.4743634213
40
0.5715311044
40
0.6739588503
40
0.7803895492
40
0.8895165812
40
1.0000000000
40
1.0000000000
40
1.0000000000
40
1.0000000000
10
12.2849802401
20
16.3739188688
30
0.0000000000
10
12.2846036810
20
16.3747514706
30
0.0000000000
10
12.2811445546
20
16.3755054035
30
0.0000000000
10
12.2754990300
20
16.3767823588
30
0.0000000000
10
12.2655937441
20
16.3778537713
30
0.0000000000
10
12.2526146656
20
16.3790303964
30
0.0000000000
10
12.2362009944
20
16.3801125953
30
0.0000000000
10
12.2167546050
20
16.3811466325
30
0.0000000000
10
12.1944407280
20
16.3820922156
30
0.0000000000
10
12.1695580414
20
16.3829439171
30
0.0000000000
10
12.1424043707
20
16.3836874993
30
0.0000000000
10
12.1133160157
20
16.3843139288
30
0.0000000000
10
12.0826498886
20
16.3848148030
30
0.0000000000
10
12.0507832974
20
16.3851837436
30
0.0000000000
10
12.0181080536
20
16.3854160112
30
0.0000000000
10
11.9960986189
20
16.3854776476
30
0.0000000000
10
11.9850259316
20
16.3854850935
30
0.0000000000
11
12.2849802401
21
16.3739188688
31
0.0000000000
11
12.2825564942
21
16.3751997510
31
0.0000000000
11
12.2764736682
21
16.3764648807
31
0.0000000000
11
12.2668065695
21
16.3776986991
31
0.0000000000
11
12.2536740858
21
16.3788860326
31
0.0000000000
11
12.2372377226
21
16.3800122790
31
0.0000000000
11
12.2176996169
21
16.3810635877
31
0.0000000000
11
12.1953000517
21
16.3820270295
31
0.0000000000
11
12.1703145004
21
16.3828907557
31
0.0000000000
11
12.1430502396
21
16.3836441442
31
0.0000000000
11
12.1138425696
21
16.3842779296
31
0.0000000000
11
12.0830506913
21
16.3847843176
31
0.0000000000
11
12.0510532882
21
16.3851570805
31
0.0000000000
11
12.0182438697
21
16.3853916340
31
0.0000000000
11
11.9850259316
21
16.3854850935
31
0.0000000000
0
SPLINE
5
263
100
AcDbEntity
8
0
100
AcDbSpline
62
9
6
CONTINUOUS
70
0
71
3
72
17
73
13
74
11
42
0.0000001000
43
0.0000001000
44
0.0000000001
12
-0.0220545084
22
-32.7709652134
32
0.0000000000
13
0.0220545085
23
-32.7709652134
33
0.0000000000
40
0.0000000000
40
0.0000000000
40
0.0000000000
40
0.0000000000
40
0.0999643191
40
0.1999524246
40
0.2999583713
40
0.3999762122
40
0.5000000000
40
0.6000237878
40
0.7000416287
40
0.8000475754
40
0.9000356809
40
1.0000000000
40
1.0000000000
40
1.0000000000
40
1.0000000000
10
11.9850259316
20
16.3854850935
30
0.0000000000
10
11.9842910436
20
15.2935093523
30
0.0000000000
10
11.9829682517
20
13.1092979329
30
0.0000000000
10
11.9814250864
20
9.8326557608
30
0.0000000000
10
11.9803227599
20
6.5554287567
30
0.0000000000
10
11.9796613377
20
3.2778118532
30
0.0000000000
10
11.9794408593
20
-0.0000000000
30
0.0000000000
10
11.9796613377
20
-3.2778118533
30
0.0000000000
10
11.9803227599
20
-6.5554287567
30
0.0000000000
10
11.9814250864
20
-9.8326557609
30
0.0000000000
10
11.9829682517
20
-13.1092979330
30
0.0000000000
10
11.9842910436
20
-15.2935093523
30
0.0000000000
10
11.9850259316
20
-16.3854850935
30
0.0000000000
11
11.9850259316
21
16.3854850935
31
0.0000000000
11
11.9830419208
21
13.1095577287
31
0.0000000000
11
11.9814986790
21
9.8328506215
31
0.0000000000
11
11.9803962978
21
6.5555586650
31
0.0000000000
11
11.9797348429
21
3.2778768057
31
0.0000000000
11
11.9795143536
21
-0.0000000000
31
0.0000000000
11
11.9797348429
21
-3.2778768057
31
0.0000000000
11
11.9803962978
21
-6.5555586650
31
0.0000000000
11
11.9814986790
21
-9.8328506215
31
0.0000000000
11
11.9830419208
21
-13.1095577287
31
0.0000000000
11
11.9850259316
21
-16.3854850935
31
0.0000000000
0
SPLINE
5
264
100
AcDbEntity
8
0
100
AcDbSpline
62
9
6
CONTINUOUS
70
0
71
3
72
21
73
17
74
15
42
0.0000001000
43
0.0000001000
44
0.0000000001
12
-0.1238975147
22
-0.2739462016
32
0.0000000000
13
-0.3006610628
23
-0.0002021835
33
0.0000000000
40
0.0000000000
40
0.0000000000
40
0.0000000000
40
0.0000000000
40
0.0091178687
40
0.0297823226
40
0.0621959516
40
0.1060528010
40
0.1608483933
40
0.2259262100
40
0.3004961259
40
0.3836477973
40
0.4743634388
40
0.5715311193
40
0.6739588621
40
0.7803895573
40
0.8895165853
40
1.0000000000
40
1.0000000000
40
1.0000000000
40
1.0000000000
10
12.2849802401
20
-16.3739188688
30
0.0000000000
10
12.2846036797
20
-16.3747514706
30
0.0000000000
10
12.2811445534
20
-16.3755054032
30
0.0000000000
10
12.2754990262
20
-16.3767823587
30
0.0000000000
10
12.2655937397
20
-16.3778537711
30
0.0000000000
10
12.2526146600
20
-16.3790303961
30
0.0000000000
10
12.2362009884
20
-16.3801125949
30
0.0000000000
10
12.2167545987
20
-16.3811466321
30
0.0000000000
10
12.1944407218
20
-16.3820922152
30
0.0000000000
10
12.1695580355
20
-16.3829439166
30
0.0000000000
10
12.1424043653
20
-16.3836874987
30
0.0000000000
10
12.1133160112
20
-16.3843139281
30
0.0000000000
10
12.0826498850
20
-16.3848148023
30
0.0000000000
10
12.0507832949
20
-16.3851837429
30
0.0000000000
10
12.0181080523
20
-16.3854160105
30
0.0000000000
10
11.9960986185
20
-16.3854776468
30
0.0000000000
10
11.9850259316
20
-16.3854850928
30
0.0000000000
11
12.2849802401
21
-16.3739188688
31
0.0000000000
11
12.2825564924
21
-16.3751997509
31
0.0000000000
11
12.2764736648
21
-16.3764648806
31
0.0000000000
11
12.2668065649
21
-16.3776986990
31
0.0000000000
11
12.2536740803
21
-16.3788860323
31
0.0000000000
11
12.2372377165
21
-16.3800122787
31
0.0000000000
11
12.2176996105
21
-16.3810635873
31
0.0000000000
11
12.1953000453
21
-16.3820270290
31
0.0000000000
11
12.1703144944
21
-16.3828907552
31
0.0000000000
11
12.1430502342
21
-16.3836441436
31
0.0000000000
11
12.1138425650
21
-16.3842779290
31
0.0000000000
11
12.0830506877
21
-16.3847843169
31
0.0000000000
11
12.0510532857
21
-16.3851570798
31
0.0000000000
11
12.0182438685
21
-16.3853916332
31
0.0000000000
11
11.9850259316
21
-16.3854850928
31
0.0000000000
0
SPLINE
5
265
100
AcDbEntity
8
0
100
AcDbSpline
62
9
6
CONTINUOUS
70
0
71
3
72
25
73
21
74
19
42
0.0000001000
43
0.0000001000
44
0.0000000001
12
0.0004462007
22
-0.9463612701
32
0.0000000000
13
0.0654172135
23
-0.9440976861
33
0.0000000000
40
0.0000000000
40
0.0000000000
40
0.0000000000
40
0.0000000000
40
0.0794495825
40
0.1582149085
40
0.2358501170
40
0.3119127571
40
0.3859707963
40
0.4576034164
40
0.5264030870
40
0.5919786581
40
0.6539574351
40
0.7119870105
40
0.7657374517
40
0.8149033151
40
0.8592051632
40
0.8983911718
40
0.9322390836
40
0.9605573426
40
0.9831860200
40
1.0000000000
40
1.0000000000
40
1.0000000000
40
1.0000000000
10
11.9850259316
20
-16.3854850935
30
0.0000000000
10
11.9850377484
20
-16.4105477628
30
0.0000000000
10
11.9850842187
20
-16.4604572424
30
0.0000000000
10
11.9852227875
20
-16.5348569375
30
0.0000000000
10
11.9854292482
20
-16.6081880483
30
0.0000000000
10
11.9857024030
20
-16.6800339996
30
0.0000000000
10
11.9860406707
20
-16.7499861141
30
0.0000000000
10
11.9864420834
20
-16.8176467258
30
0.0000000000
10
11.9869043019
20
-16.8826310595
30
0.0000000000
10
11.9874246177
20
-16.9445695126
30
0.0000000000
10
11.9879999649
20
-17.0031098600
30
0.0000000000
10
11.9886269209
20
-17.0579191717
30
0.0000000000
10
11.9893017131
20
-17.1086857086
30
0.0000000000
10
11.9900201793
20
-17.1551207205
30
0.0000000000
10
11.9907778155
20
-17.1969600342
30
0.0000000000
10
11.9915694064
20
-17.2339656815
30
0.0000000000
10
11.9923896915
20
-17.2659271668
30
0.0000000000
10
11.9932302470
20
-17.2926631475
30
0.0000000000
10
11.9940857197
20
-17.3140215134
30
0.0000000000
10
11.9947470233
20
-17.3264474175
30
0.0000000000
10
11.9951136646
20
-17.3317387640
30
0.0000000000
11
11.9850259316
21
-16.3854850935
31
0.0000000000
11
11.9850961418
21
-16.4606730769
31
0.0000000000
11
11.9852353760
21
-16.5352134091
31
0.0000000000
11
11.9854428480
21
-16.6086840789
31
0.0000000000
11
11.9857173745
21
-16.6806663001
31
0.0000000000
11
11.9860573976
21
-16.7507511431
31
0.0000000000
11
11.9864609857
21
-16.8185402866
31
0.0000000000
11
11.9869258440
21
-16.8836479780
31
0.0000000000
11
11.9874493299
21
-16.9457039577
31
0.0000000000
11
11.9880284688
21
-17.0043554192
31
0.0000000000
11
11.9886599683
21
-17.0592687369
31
0.0000000000
11
11.9893402378
21
-17.1101315295
31
0.0000000000
11
11.9900654111
21
-17.1566545521
31
0.0000000000
11
11.9908313648
21
-17.1985731126
31
0.0000000000
11
11.9916337408
21
-17.2356485563
31
0.0000000000
11
11.9924679756
21
-17.2676700476
31
0.0000000000
11
11.9933293355
21
-17.2944555080
31
0.0000000000
11
11.9942128936
21
-17.3158521792
31
0.0000000000
11
11.9951136646
21
-17.3317387640
31
0.0000000000
0
SPLINE
5
266
100
AcDbEntity
8
0
100
AcDbSpline
62
9
6
CONTINUOUS
70
0
71
3
72
25
73
21
74
19
42
0.0000001000
43
0.0000001000
44
0.0000000001
12
0.0004462608
22
-0.6625312299
32
0.0000000000
13
0.0652641256
23
-0.6593090502
33
0.0000000000
40
0.0000000000
40
0.0000000000
40
0.0000000000
40
0.0000000000
40
0.0794270877
40
0.1581852317
40
0.2358136289
40
0.3118699109
40
0.3859221436
40
0.4575496038
40
0.5263448632
40
0.5919168691
40
0.6538929963
40
0.7119209839
40
0.7656710826
40
0.8148380745
40
0.8591428137
40
0.8983338688
40
0.9321895642
40
0.9605192129
40
0.9831645352
40
1.0000000000
40
1.0000000000
40
1.0000000000
40
1.0000000000
10
12.2849802401
20
-16.3739188688
30
0.0000000000
10
12.2849920552
20
-16.3914598441
30
0.0000000000
10
12.2850385174
20
-16.4263940519
30
0.0000000000
10
12.2851770727
20
-16.4784718589
30
0.0000000000
10
12.2853835280
20
-16.5298050151
30
0.0000000000
10
12.2856566840
20
-16.5800985742
30
0.0000000000
10
12.2859949548
20
-16.6290664385
30
0.0000000000
10
12.2863963751
20
-16.6764302202
30
0.0000000000
10
12.2868586044
20
-16.7219205519
30
0.0000000000
10
12.2873789345
20
-16.7652786764
30
0.0000000000
10
12.2879542993
20
-16.8062580036
30
0.0000000000
10
12.2885812757
20
-16.8446254595
30
0.0000000000
10
12.2892560915
20
-16.8801628222
30
0.0000000000
10
12.2899745842
20
-16.9126679746
30
0.0000000000
10
12.2907322519
20
-16.9419560059
30
0.0000000000
10
12.2915238812
20
-16.9678604031
30
0.0000000000
10
12.2923442160
20
-16.9902338333
30
0.0000000000
10
12.2931848666
20
-17.0089497645
30
0.0000000000
10
12.2940404212
20
-17.0239008999
30
0.0000000000
10
12.2947017225
20
-17.0325965133
30
0.0000000000
10
12.2950679731
20
-17.0362964381
30
0.0000000000
11
12.2849802401
21
-16.3739188688
31
0.0000000000
11
12.2850504328
21
-16.4265417600
31
0.0000000000
11
12.2851896608
21
-16.4787213161
31
0.0000000000
11
12.2853971284
21
-16.5301521468
31
0.0000000000
11
12.2856716551
21
-16.5805410724
31
0.0000000000
11
12.2860116814
21
-16.6296018221
31
0.0000000000
11
12.2864152764
21
-16.6770555459
31
0.0000000000
11
12.2868801450
21
-16.7226321934
31
0.0000000000
11
12.2874036445
21
-16.7660725507
31
0.0000000000
11
12.2879827996
21
-16.8071295952
31
0.0000000000
11
12.2886143175
21
-16.8455697707
31
0.0000000000
11
12.2892946073
21
-16.8811743994
31
0.0000000000
11
12.2900198024
21
-16.9137410010
31
0.0000000000
11
12.2907857790
21
-16.9430842852
31
0.0000000000
11
12.2915881781
21
-16.9690371879
31
0.0000000000
11
12.2924224381
21
-16.9914521288
31
0.0000000000
11
12.2932838185
21
-17.0102016339
31
0.0000000000
11
12.2941674075
21
-17.0251788292
31
0.0000000000
11
12.2950679731
21
-17.0362964381
31
0.0000000000
0
SPLINE
5
267
100
AcDbEntity
8
0
100
AcDbSpline
62
9
6
CONTINUOUS
70
0
71
3
72
22
73
18
74
16
42
0.0000001000
43
0.0000001000
44
0.0000000001
12
-0.0014367926
22
-0.4669669341
32
0.0000000000
13
-0.4669670641
23
-0.0013938929
33
0.0000000000
40
0.0000000000
40
0.0000000000
40
0.0000000000
40
0.0000000000
40
0.0661103978
40
0.1322638517
40
0.1984799636
40
0.2647755566
40
0.3311639400
40
0.3976543367
40
0.4642514965
40
0.5309555097
40
0.5977618250
40
0.6646614679
40
0.7316414458
40
0.7986853212
40
0.8657739246
40
0.9328861790
40
1.0000000000
40
1.0000000000
40
1.0000000000
40
1.0000000000
10
12.2950679731
20
-17.0362964381
30
0.0000000000
10
12.2950363108
20
-17.0465868947
30
0.0000000000
10
12.2938787455
20
-17.0671878088
30
0.0000000000
10
12.2888811190
20
-17.0977313631
30
0.0000000000
10
12.2806765568
20
-17.1276071760
30
0.0000000000
10
12.2693549157
20
-17.1564844374
30
0.0000000000
10
12.2550400968
20
-17.1840491202
30
0.0000000000
10
12.2378886799
20
-17.2100000816
30
0.0000000000
10
12.2180881741
20
-17.2340543129
30
0.0000000000
10
12.1958549440
20
-17.2559494849
30
0.0000000000
10
12.1714318152
20
-17.2754469293
30
0.0000000000
10
12.1450854441
20
-17.2923341765
30
0.0000000000
10
12.1171032684
20
-17.3064272533
30
0.0000000000
10
12.0877908746
20
-17.3175726560
30
0.0000000000
10
12.0574668037
20
-17.3256490031
30
0.0000000000
10
12.0264660885
20
-17.3305683173
30
0.0000000000
10
12.0055603125
20
-17.3317075808
30
0.0000000000
10
11.9951136646
20
-17.3317387640
30
0.0000000000
11
12.2950679731
21
-17.0362964381
31
0.0000000000
11
12.2933362828
21
-17.0671193475
31
0.0000000000
11
12.2883497872
21
-17.0976058552
31
0.0000000000
11
12.2801629089
21
-17.1274232313
31
0.0000000000
11
12.2688649997
21
-17.1562460484
31
0.0000000000
11
12.2545793651
21
-17.1837597340
31
0.0000000000
11
12.2374619187
21
-17.2096640034
31
0.0000000000
11
12.2176994804
21
-17.2336761370
31
0.0000000000
11
12.1955077379
21
-17.2555340662
31
0.0000000000
11
12.1711288919
21
-17.2749992333
31
0.0000000000
11
12.1448290136
21
-17.2918591951
31
0.0000000000
11
12.1168951402
21
-17.3059299418
31
0.0000000000
11
12.0876321423
21
-17.3170579052
31
0.0000000000
11
12.0573593965
21
-17.3251216346
31
0.0000000000
11
12.0264073001
21
-17.3300331222
31
0.0000000000
11
11.9951136646
21
-17.3317387640
31
0.0000000000
0
SPLINE
5
268
100
AcDbEntity
8
0
100
AcDbSpline
62
7
6
CONTINUOUS
70
0
71
3
72
57
73
53
74
51
42
0.0000001000
43
0.0000001000
44
0.0000000001
12
0.0000000000
22
7.8355163596
32
0.0000000000
13
0.0000000000
23
-7.8355163596
33
0.0000000000
40
0.0000000000
40
0.0000000000
40
0.0000000000
40
0.0000000000
40
0.0199000596
40
0.0398086625
40
0.0597095877
40
0.0796281906
40
0.0995384065
40
0.1194692821
40
0.1393981664
40
0.1593428421
40
0.1792977335
40
0.1992575249
40
0.2192391103
40
0.2392195101
40
0.2592263127
40
0.2792319768
40
0.2992609953
40
0.3192948134
40
0.3393417715
40
0.3594027551
40
0.3794642209
40
0.3995459777
40
0.4196212316
40
0.4397163253
40
0.4598035523
40
0.4799037188
40
0.5000003544
40
0.5200969400
40
0.5401971510
40
0.5602843589
40
0.5803794513
40
0.6004547208
40
0.6205364320
40
0.6405979427
40
0.6606588493
40
0.6807058663
40
0.7007396384
40
0.7207686750
40
0.7407743510
40
0.7607811080
40
0.7807615675
40
0.8007430622
40
0.8207029339
40
0.8406577295
40
0.8606024639
40
0.8805313359
40
0.9004621810
40
0.9203724631
40
0.9402909634
40
0.9601919945
40
0.9801004703
40
1.0000000000
40
1.0000000000
40
1.0000000000
40
1.0000000000
10
-2.5000000000
20
-0.0000000000
30
0.0000000000
10
-2.5000000000
20
0.0519757476
30
0.0000000000
10
-2.4967267974
20
0.1559792484
30
0.0000000000
10
-2.4820160518
20
0.3113341635
30
0.0000000000
10
-2.4575560703
20
0.4655104404
30
0.0000000000
10
-2.4234473125
20
0.6178457733
30
0.0000000000
10
-2.3798048122
20
0.7678101184
30
0.0000000000
10
-2.3268104254
20
0.9147590220
30
0.0000000000
10
-2.2646461837
20
1.0581678434
30
0.0000000000
10
-2.1935622218
20
1.1974416551
30
0.0000000000
10
-2.1138236177
20
1.3320415661
30
0.0000000000
10
-2.0257310094
20
1.4614449097
30
0.0000000000
10
-1.9296414261
20
1.5851107358
30
0.0000000000
10
-1.8258930426
20
1.7025889943
30
0.0000000000
10
-1.7149274490
20
1.8133648432
30
0.0000000000
10
-1.5971305134
20
1.9170389482
30
0.0000000000
10
-1.4730024844
20
2.0131580092
30
0.0000000000
10
-1.3429973479
20
2.1013575464
30
0.0000000000
10
-1.2076426203
20
2.1812690238
30
0.0000000000
10
-1.0674765785
20
2.2525638583
30
0.0000000000
10
-0.9230315979
20
2.3149632209
30
0.0000000000
10
-0.7749224138
20
2.3681937281
30
0.0000000000
10
-0.6236828159
20
2.4120571574
30
0.0000000000
10
-0.4699765944
20
2.4463554881
30
0.0000000000
10
-0.3143583963
20
2.4709604224
30
0.0000000000
10
-0.1574997626
20
2.4857627092
30
0.0000000000
10
0.0000026494
20
2.4907034668
30
0.0000000000
10
0.1575051664
20
2.4857623694
30
0.0000000000
10
0.3143637054
20
2.4709597550
30
0.0000000000
10
0.4699819122
20
2.4463544737
30
0.0000000000
10
0.6236880483
20
2.4120558175
30
0.0000000000
10
0.7749274732
20
2.3681920845
30
0.0000000000
10
0.9230365810
20
2.3149612513
30
0.0000000000
10
1.0674812438
20
2.2525616638
30
0.0000000000
10
1.2076472000
20
2.1812665087
30
0.0000000000
10
1.3430016213
20
2.1013548404
30
0.0000000000
10
1.4730066426
20
2.0131549905
30
0.0000000000
10
1.5971344447
20
1.9170357048
30
0.0000000000
10
1.7149311357
20
1.8133613833
30
0.0000000000
10
1.8258965539
20
1.7025852634
30
0.0000000000
10
1.9296445662
20
1.5851069427
30
0.0000000000
10
2.0257339817
20
1.4614408243
30
0.0000000000
10
2.1138261789
20
1.3320375349
30
0.0000000000
10
2.1935645769
20
1.1974373722
30
0.0000000000
10
2.2646482164
20
1.0581635401
30
0.0000000000
10
2.3268121920
20
0.9147545582
30
0.0000000000
10
2.3798063194
20
0.7678054969
30
0.0000000000
10
2.4234484771
20
0.6178412331
30
0.0000000000
10
2.4575569841
20
0.4655056595
30
0.0000000000
10
2.4820166208
20
0.3113296539
30
0.0000000000
10
2.4967269387
20
0.1559761460
30
0.0000000000
10
2.5000000000
20
0.0519743635
30
0.0000000000
10
2.5000000000
20
-0.0000000000
30
0.0000000000
11
-2.5000000000
21
-0.0000000000
31
0.0000000000
11
-2.4950945708
21
0.1558500620
31
0.0000000000
11
-2.4803897990
21
0.3111496273
31
0.0000000000
11
-2.4559567300
21
0.4651575664
31
0.0000000000
11
-2.4218561858
21
0.6174592084
31
0.0000000000
11
-2.3782643354
21
0.7672519963
31
0.0000000000
11
-2.3252856676
21
0.9141598729
31
0.0000000000
11
-2.2631817612
21
1.0574319745
31
0.0000000000
11
-2.1921390148
21
1.1966274363
31
0.0000000000
11
-2.1124469054
21
1.3311511931
31
0.0000000000
11
-2.0244381485
21
1.4604335966
31
0.0000000000
11
-1.9283760917
21
1.5840661398
31
0.0000000000
11
-1.8247446140
21
1.7014140525
31
0.0000000000
11
-1.7138021364
21
1.8121687459
31
0.0000000000
11
-1.5961314918
21
1.9157334981
31
0.0000000000
11
-1.4720475872
21
2.0118200586
31
0.0000000000
11
-1.3421465688
21
2.0999504918
31
0.0000000000
11
-1.2068833232
21
2.1798093459
31
0.0000000000
11
-1.0667783113
21
2.2510743799
31
0.0000000000
11
-0.9224759348
21
2.3134132218
31
0.0000000000
11
-0.7743984443
21
2.3666332665
31
0.0000000000
11
-0.6233242183
21
2.4104494965
31
0.0000000000
11
-0.4696483818
21
2.4447416446
31
0.0000000000
11
-0.3141858660
21
2.4693223931
31
0.0000000000
11
-0.1573873163
21
2.4841192667
31
0.0000000000
11
0.0000027782
21
2.4890565887
31
0.0000000000
11
0.1573924703
21
2.4841189430
31
0.0000000000
11
0.3141913362
21
2.4693217032
31
0.0000000000
11
0.4696536510
21
2.4447406412
31
0.0000000000
11
0.6233294039
21
2.4104481672
31
0.0000000000
11
0.7744036530
21
2.3666315770
31
0.0000000000
11
0.9224806950
21
2.3134113403
31
0.0000000000
11
1.0667832628
21
2.2510720539
31
0.0000000000
11
1.2068875893
21
2.1798070045
31
0.0000000000
11
1.3421510703
21
2.0999476399
31
0.0000000000
11
1.4720516086
21
2.0118171418
31
0.0000000000
11
1.5961354311
21
1.9157302446
31
0.0000000000
11
1.7138059322
21
1.8121651876
31
0.0000000000
11
1.8247479338
21
1.7014105231
31
0.0000000000
11
1.9283794819
21
1.5840620488
31
0.0000000000
11
2.0244408570
21
1.4604298749
31
0.0000000000
11
2.1124497125
21
1.3311467773
31
0.0000000000
11
2.1921411764
21
1.1966235109
31
0.0000000000
11
2.2631838680
21
1.0574275046
31
0.0000000000
11
2.3252874536
21
0.9141553695
31
0.0000000000
11
2.3782657608
21
0.7672476165
31
0.0000000000
11
2.4218574621
21
0.6174542458
31
0.0000000000
11
2.4559575408
21
0.4651533228
31
0.0000000000
11
2.4803904456
21
0.3111445176
31
0.0000000000
11
2.4950948321
21
0.1558459159
31
0.0000000000
11
2.5000000000
21
-0.0000000000
31
0.0000000000
0
SPLINE
5
269
100
AcDbEntity
8
0
100
AcDbSpline
62
9
6
CONTINUOUS
70
0
71
3
72
23
73
19
74
17
42
0.0000001000
43
0.0000001000
44
0.0000000001
12
0.0000000000
22
6.3424069591
32
0.1433003433
13
0.0000000000
23
-6.3372890761
33
-0.1431847099
40
0.0000000000
40
0.0000000000
40
0.0000000000
40
0.0000000000
40
0.0625000000
40
0.1250000000
40
0.1875000000
40
0.2500000000
40
0.3125000000
40
0.3750000000
40
0.4375000000
40
0.5000000000
40
0.5625000000
40
0.6250000000
40
0.6875000000
40
0.7500000000
40
0.8125000000
40
0.8750000000
40
0.9375000000
40
1.0000000000
40
1.0000000000
40
1.0000000000
40
1.0000000000
10
2.0000000000
20
-9.6000000000
30
5.8915626369
10
2.0000000000
20
-9.4678665217
30
5.8945480607
10
1.9744109770
20
-9.2090931195
30
5.9002731004
10
1.8599340137
20
-8.8300667880
30
5.9083133519
10
1.6739708300
20
-8.4822149135
30
5.9153890219
10
1.4236224419
20
-8.1769320707
30
5.9213618295
10
1.1185384609
20
-7.9264934619
30
5.9260953965
10
0.7704354529
20
-7.7403735682
30
5.9295164779
10
0.3926717242
20
-7.6257689001
30
5.9315819174
10
-0.0001922448
20
-7.5870968829
30
5.9322718135
10
-0.3930401810
20
-7.6258436222
30
5.9315805806
10
-0.7707548549
20
-7.7405080348
30
5.9295140350
10
-1.1188029871
20
-7.9266726103
30
5.9260920603
10
-1.4238272555
20
-8.1771387784
30
5.9213578589
10
-1.6741170978
20
-8.4824396588
30
5.9153845307
10
-1.8600233097
20
-8.8302778451
30
5.9083089800
10
-1.9744587439
20
-9.2093564150
30
5.9002673767
10
-2.0000000000
20
-9.4679731442
30
5.8945456517
10
-2.0000000000
20
-9.6000000000
30
5.8915626369
11
2.0000000000
21
-9.6000000000
31
5.8915626369
11
1.9617287388
21
-9.2106154148
31
5.9001818824
11
1.8480196436
21
-8.8352625308
31
5.9081525883
11
1.6632399626
21
-8.4893097521
31
5.9152052115
11
1.4144998431
21
-8.1860727763
31
5.9211552894
11
1.1113686231
21
-7.9372132477
31
5.9258766489
11
0.7654919995
21
-7.7522927724
31
5.9292905376
11
0.3901550175
21
-7.6384243419
31
5.9313526601
11
-0.0001895727
21
-7.6000000090
31
5.9320416253
11
-0.3905179706
21
-7.6384965678
31
5.9313513618
11
-0.7658104313
21
-7.7524247286
31
5.9292881302
11
-1.1116323431
21
-7.9373895424
31
5.9258733559
11
-1.4147048512
21
-8.1862778971
31
5.9211513377
11
-1.6633864927
21
-8.4895292098
31
5.9152008269
11
-1.8481115134
21
-8.8354845757
31
5.9081479712
11
-1.9617714855
21
-9.2108308356
31
5.9001772126
11
-2.0000000000
21
-9.6000000000
31
5.8915626369
0
SPLINE
5
26A
100
AcDbEntity
8
0
100
AcDbSpline
62
9
6
CONTINUOUS
70
0
71
3
72
23
73
19
74
17
42
0.0000001000
43
0.0000001000
44
0.0000000001
12
0.0000000000
22
-6.3429700345
32
-0.1433130655
13
0.0000000000
23
6.3378533272
33
0.1431974586
40
0.0000000000
40
0.0000000000
40
0.0000000000
40
0.0000000000
40
0.0625000000
40
0.1250000000
40
0.1875000000
40
0.2500000000
40
0.3125000000
40
0.3750000000
40
0.4375000000
40
0.5000000000
40
0.5625000000
40
0.6250000000
40
0.6875000000
40
0.7500000000
40
0.8125000000
40
0.8750000000
40
0.9375000000
40
1.0000000000
40
1.0000000000
40
1.0000000000
40
1.0000000000
10
-2.0000000000
20
-9.6000000000
30
5.8915626369
10
-2.0000000000
20
-9.7321452091
30
5.8885769480
10
-1.9744066934
20
-9.9909378244
30
5.8826080804
10
-1.8599134388
20
-10.3699864950
30
5.8735202695
10
-1.6739327009
20
-10.7178423717
30
5.8648769426
10
-1.4235790310
20
-11.0231097025
30
5.8570548001
10
-1.1185081508
20
-11.2735243344
30
5.8504719300
10
-0.7704294176
20
-11.4596275548
30
5.8454828471
10
-0.3926731551
20
-11.5742307778
30
5.8423694088
10
0.0001917065
20
-11.6129032376
30
5.8413117222
10
0.3930413591
20
-11.5741562182
30
5.8423714443
10
0.7707507777
20
-11.4594924638
30
5.8454864978
10
1.1187762259
20
-11.2733429187
30
5.8504767497
10
1.4237868664
20
-11.0228999066
30
5.8570602505
10
1.6740804798
20
-10.7176151579
30
5.8648826693
10
1.8600030488
20
-10.3697744425
30
5.8735254588
10
1.9744544556
20
-9.9906744037
30
5.8826142573
10
2.0000000000
20
-9.7320386110
30
5.8885793565
10
2.0000000000
20
-9.6000000000
30
5.8915626369
11
-2.0000000000
21
-9.6000000000
31
5.8915626369
11
-1.9617228109
21
-9.9894144490
31
5.8825856622
11
-1.8479988582
21
-10.3647876960
31
5.8735943502
11
-1.6632038789
21
-10.7107442808
31
5.8650138067
11
-1.4144594959
21
-11.0139675860
31
5.8572613455
11
-1.1113401753
21
-11.2628057658
31
5.8507375612
11
-0.7654831627
21
-11.4477108885
31
5.8457954546
11
-0.3901550552
21
-11.5615756506
31
5.8427120341
11
0.0001891717
21
-11.5999999911
31
5.8416646237
11
0.3905179868
21
-11.5615034290
31
5.8427139995
11
0.7658034493
21
-11.4475781653
31
5.8457990308
11
1.1116070913
21
-11.2626273408
31
5.8507422912
11
1.4146673619
21
-11.0137596172
31
5.8572667368
11
1.6633519724
21
-10.7105224968
31
5.8650193977
11
1.8480911885
21
-10.3645645552
31
5.8735997936
11
1.9617656072
21
-9.9891987953
31
5.8825907323
11
2.0000000000
21
-9.6000000000
31
5.8915626369
0
SPLINE
5
26B
100
AcDbEntity
8
0
100
AcDbSpline
62
9
6
CONTINUOUS
70
0
71
3
72
24
73
20
74
18
42
0.0000001000
43
0.0000001000
44
0.0000000001
12
-0.0000000000
22
-12.6728299839
32
-0.2863299217
13
0.0000000000
23
12.6799497085
33
0.2864907847
40
0.0000000000
40
0.0000000000
40
0.0000000000
40
0.0000000000
40
0.0588235294
40
0.1176470588
40
0.1764705882
40
0.2352941176
40
0.2941176471
40
0.3529411765
40
0.4117647059
40
0.4705882353
40
0.5294117647
40
0.5882352941
40
0.6470588235
40
0.7058823529
40
0.7647058824
40
0.8235294118
40
0.8823529412
40
0.9411764706
40
1.0000000000
40
1.0000000000
40
1.0000000000
40
1.0000000000
10
4.0000000000
20
-9.6000000000
30
5.8915626369
10
4.0000000000
20
-9.8484868624
30
5.8859483247
10
3.9547490924
20
-10.3361961891
30
5.8744989314
10
3.7509714209
20
-11.0539390384
30
5.8564127142
10
3.4214327717
20
-11.7159526270
30
5.8386390520
10
2.9717831722
20
-12.3113324570
30
5.8217644965
10
2.4264642328
20
-12.8087120342
30
5.8070184161
10
1.7911518604
20
-13.2020323546
30
5.7949416970
10
1.1039279559
20
-13.4684321762
30
5.7865510293
10
0.3685801004
20
-13.6059100032
30
5.7821557534
10
-0.3681679268
20
-13.6059516725
30
5.7821544185
10
-1.1035733563
20
-13.4685304268
30
5.7865478950
10
-1.7907609164
20
-13.2022304267
30
5.7949355393
10
-2.4262114220
20
-12.8089021376
30
5.8070126502
10
-2.9714913570
20
-12.3116538772
30
5.8217551782
10
-3.4212902275
20
-11.7161905320
30
5.8386324940
10
-3.7508280002
20
-11.0542905917
30
5.8564035047
10
-3.9546966032
20
-10.3365365937
30
5.8744907367
10
-4.0000000000
20
-9.8486264649
30
5.8859451705
10
-4.0000000000
20
-9.6000000000
30
5.8915626369
11
4.0000000000
21
-9.6000000000
31
5.8915626369
11
3.9320988741
21
-10.3338926656
31
5.8743469102
11
3.7300112579
21
-11.0446508283
31
5.8564648067
11
3.4014142800
21
-11.7048470006
31
5.8387889031
11
2.9558382822
21
-12.2949990815
31
5.8221192424
11
2.4114653273
21
-12.7913688247
31
5.8074633097
11
1.7824999384
21
-13.1808789381
31
5.7955560389
11
1.0959072974
21
-13.4469451771
31
5.7872169280
11
0.3683467384
21
-13.5830039769
31
5.7828880769
11
-0.3679441605
21
-13.5830411867
31
5.7828868871
11
-1.0955370448
21
-13.4470506344
31
5.7872135896
11
-1.7821380740
21
-13.1810590452
31
5.7955504504
11
-2.4111829936
21
-12.7915821424
31
5.8074568864
11
-2.9555778462
21
-12.2952846964
31
5.8221109762
11
-3.4012467112
21
-11.7051177662
31
5.8387814431
11
-3.7298831386
21
-11.0449815821
31
5.8564562083
11
-3.9320443519
21
-10.3341847278
31
5.8743398065
11
-4.0000000000
21
-9.6000000000
31
5.8915626369
0
SPLINE
5
26C
100
AcDbEntity
8
0
100
AcDbSpline
62
9
6
CONTINUOUS
70
0
71
3
72
24
73
20
74
18
42
0.0000001000
43
0.0000001000
44
0.0000000001
12
-0.0000000000
22
12.6706516087
32
0.2862807035
13
-0.0000000000
23
-12.6777846179
33
-0.2864418667
40
0.0000000000
40
0.0000000000
40
0.0000000000
40
0.0000000000
40
0.0588235294
40
0.1176470588
40
0.1764705882
40
0.2352941176
40
0.2941176471
40
0.3529411765
40
0.4117647059
40
0.4705882353
40
0.5294117647
40
0.5882352941
40
0.6470588235
40
0.7058823529
40
0.7647058824
40
0.8235294118
40
0.8823529412
40
0.9411764706
40
1.0000000000
40
1.0000000000
40
1.0000000000
40
1.0000000000
10
-4.0000000000
20
-9.6000000000
30
5.8915626369
10
-4.0000000000
20
-9.3515558508
30
5.8971759840
10
-3.9547637036
20
-8.8639196057
30
5.9077636889
10
-3.7510474763
20
-8.1462731563
30
5.9221095010
10
-3.4215825503
20
-7.4842928263
30
5.9342514799
10
-2.9719727275
20
-6.8888710300
30
5.9442833142
10
-2.4266243009
20
-6.3914000846
30
5.9520161008
10
-1.7912205126
20
-5.9979946269
30
5.9577157721
10
-1.1039368891
20
-5.7315686061
30
5.9613649635
10
-0.3685822140
20
-5.5940902256
30
5.9631828612
10
0.3681678570
20
-5.5940482444
30
5.9631834136
10
1.1035834733
20
-5.7314703904
30
5.9613662692
10
1.7908352734
20
-5.9977990672
30
5.9577185311
10
2.4263787638
20
-6.3912154068
30
5.9520188452
10
2.9716860235
20
-6.8885554249
30
5.9442884265
10
3.4214420730
20
-7.4840586741
30
5.9342556052
10
3.7509042592
20
-8.1459224763
30
5.9221161600
10
3.9547111352
20
-8.8635788700
30
5.9077708832
10
4.0000000000
20
-9.3514159879
30
5.8971791441
10
4.0000000000
20
-9.6000000000
30
5.8915626369
11
-4.0000000000
21
-9.6000000000
31
5.8915626369
11
-3.9321200731
21
-8.8662209254
31
5.9075077314
11
-3.7300893598
21
-8.1555508429
31
5.9217421955
11
-3.4015584008
21
-7.4953859153
31
5.9338997891
11
-2.9560162935
21
-6.9051961718
31
5.9439001396
11
-2.4116150740
21
-6.4087443325
31
5.9516772482
11
-1.7825738734
21
-6.0191578664
31
5.9573740254
11
-1.0959250472
21
-5.7530598795
31
5.9610597479
11
-0.3683496480
21
-5.6169962921
31
5.9628799703
11
0.3679454479
21
-5.6169589322
31
5.9628804641
11
1.0955561706
21
-5.7529548122
31
5.9610611702
11
1.7822172218
21
-6.0189803443
31
5.9573765398
11
2.4113393920
21
-6.4085360199
31
5.9516803898
11
2.9557608218
21
-6.9049159634
31
5.9439046928
11
3.4013930958
21
-7.4951187663
31
5.9339045013
11
3.7299617075
21
-8.1552212416
31
5.9217485214
11
3.9320655387
21
-8.8659287505
31
5.9075138279
11
4.0000000000
21
-9.6000000000
31
5.8915626369
0
SPLINE
5
26D
100
AcDbEntity
8
0
100
AcDbSpline
62
7
6
CONTINUOUS
70
0
71
3
72
22
73
18
74
16
42
0.0000001000
43
0.0000001000
44
0.0000000001
12
0.0000000000
22
0.4733254049
32
0.0000000000
13
0.4733254049
23
0.0000000000
33
0.0000000000
40
0.0000000000
40
0.0000000000
40
0.0000000000
40
0.0000000000
40
0.0676671853
40
0.1355731550
40
0.2032579586
40
0.2704507235
40
0.3377259741
40
0.4050038467
40
0.4718842725
40
0.5382072209
40
0.6046758662
40
0.6710878153
40
0.7370903167
40
0.8027408720
40
0.8686347097
40
0.9345190029
40
1.0000000000
40
1.0000000000
40
1.0000000000
40
1.0000000000
10
-12.4000000000
20
18.0962952155
30
0.0000000000
10
-12.4000000000
20
18.1069714148
30
0.0000000000
10
-12.3988905424
20
18.1283780465
30
0.0000000000
10
-12.3939076019
20
18.1601136643
30
0.0000000000
10
-12.3856699991
20
18.1910899367
30
0.0000000000
10
-12.3742975698
20
18.2209493025
30
0.0000000000
10
-12.3599135769
20
18.2494092599
30
0.0000000000
10
-12.3426632963
20
18.2761708290
30
0.0000000000
10
-12.3228029304
20
18.3008639511
30
0.0000000000
10
-12.3005646315
20
18.3232585541
30
0.0000000000
10
-12.2761639596
20
18.3431597337
30
0.0000000000
10
-12.2498494891
20
18.3603595750
30
0.0000000000
10
-12.2219881351
20
18.3746389715
30
0.0000000000
10
-12.1928600946
20
18.3858886379
30
0.0000000000
10
-12.1627279798
20
18.3940121733
30
0.0000000000
10
-12.1319374816
20
18.3989110886
30
0.0000000000
10
-12.1111948868
20
18.4000000000
30
0.0000000000
10
-12.1008636137
20
18.4000000000
30
0.0000000000
11
-12.4000000000
21
18.0962952155
31
0.0000000000
11
-12.3983409031
21
18.1282808135
31
0.0000000000
11
-12.3933543974
21
18.1600332706
31
0.0000000000
11
-12.3851189905
21
18.1909936229
31
0.0000000000
11
-12.3737971976
21
18.2207142241
31
0.0000000000
11
-12.3594314097
21
18.2491326374
31
0.0000000000
11
-12.3421762894
21
18.2758968287
31
0.0000000000
11
-12.3223343101
21
18.3005628205
31
0.0000000000
11
-12.3002126062
21
18.3228363249
31
0.0000000000
11
-12.2758305114
21
18.3427191506
31
0.0000000000
11
-12.2495169715
21
18.3599157509
31
0.0000000000
11
-12.2217142475
21
18.3741631161
31
0.0000000000
11
-12.1927264411
21
18.3853570992
31
0.0000000000
11
-12.1626122270
21
18.3934751049
31
0.0000000000
11
-12.1318147720
21
18.3983743790
31
0.0000000000
11
-12.1008636137
21
18.4000000000
31
0.0000000000
0
SPLINE
5
26E
100
AcDbEntity
8
0
100
AcDbSpline
62
7
6
CONTINUOUS
70
0
71
3
72
22
73
18
74
16
42
0.0000001000
43
0.0000001000
44
0.0000000001
12
0.0000000000
22
-0.4733254049
32
0.0000000000
13
-0.4733254049
23
0.0000000000
33
0.0000000000
40
0.0000000000
40
0.0000000000
40
0.0000000000
40
0.0000000000
40
0.0676671853
40
0.1355731550
40
0.2032579586
40
0.2704507235
40
0.3377259741
40
0.4050038467
40
0.4718842725
40
0.5382072209
40
0.6046758662
40
0.6710878153
40
0.7370903167
40
0.8027408720
40
0.8686347097
40
0.9345190029
40
1.0000000000
40
1.0000000000
40
1.0000000000
40
1.0000000000
10
12.4000000000
20
-18.0962952155
30
0.0000000000
10
12.4000000000
20
-18.1069714148
30
0.0000000000
10
12.3988905424
20
-18.1283780465
30
0.0000000000
10
12.3939076019
20
-18.1601136643
30
0.0000000000
10
12.3856699991
20
-18.1910899367
30
0.0000000000
10
12.3742975698
20
-18.2209493025
30
0.0000000000
10
12.3599135769
20
-18.2494092599
30
0.0000000000
10
12.3426632963
20
-18.2761708290
30
0.0000000000
10
12.3228029304
20
-18.3008639511
30
0.0000000000
10
12.3005646315
20
-18.3232585541
30
0.0000000000
10
12.2761639596
20
-18.3431597337
30
0.0000000000
10
12.2498494891
20
-18.3603595750
30
0.0000000000
10
12.2219881351
20
-18.3746389715
30
0.0000000000
10
12.1928600946
20
-18.3858886379
30
0.0000000000
10
12.1627279798
20
-18.3940121733
30
0.0000000000
10
12.1319374816
20
-18.3989110886
30
0.0000000000
10
12.1111948868
20
-18.4000000000
30
0.0000000000
10
12.1008636137
20
-18.4000000000
30
0.0000000000
11
12.4000000000
21
-18.0962952155
31
0.0000000000
11
12.3983409031
21
-18.1282808135
31
0.0000000000
11
12.3933543974
21
-18.1600332706
31
0.0000000000
11
12.3851189905
21
-18.1909936229
31
0.0000000000
11
12.3737971976
21
-18.2207142241
31
0.0000000000
11
12.3594314097
21
-18.2491326374
31
0.0000000000
11
12.3421762894
21
-18.2758968287
31
0.0000000000
11
12.3223343101
21
-18.3005628205
31
0.0000000000
11
12.3002126062
21
-18.3228363249
31
0.0000000000
11
12.2758305114
21
-18.3427191506
31
0.0000000000
11
12.2495169715
21
-18.3599157509
31
0.0000000000
11
12.2217142475
21
-18.3741631161
31
0.0000000000
11
12.1927264411
21
-18.3853570992
31
0.0000000000
11
12.1626122270
21
-18.3934751049
31
0.0000000000
11
12.1318147720
21
-18.3983743790
31
0.0000000000
11
12.1008636137
21
-18.4000000000
31
0.0000000000
0
SPLINE
5
26F
100
AcDbEntity
8
0
100
AcDbSpline
62
7
6
CONTINUOUS
70
0
71
3
72
22
73
18
74
16
42
0.0000001000
43
0.0000001000
44
0.0000000001
12
0.4733254049
22
0.0000000000
32
0.0000000000
13
-0.0000000000
23
-0.4733254049
33
0.0000000000
40
0.0000000000
40
0.0000000000
40
0.0000000000
40
0.0000000000
40
0.0654809971
40
0.1313652903
40
0.1972591280
40
0.2629096833
40
0.3289121847
40
0.3953241338
40
0.4617927791
40
0.5281157275
40
0.5949961533
40
0.6622740259
40
0.7295492765
40
0.7967420414
40
0.8644268450
40
0.9323328147
40
1.0000000000
40
1.0000000000
40
1.0000000000
40
1.0000000000
10
12.1008636137
20
18.4000000000
30
0.0000000000
10
12.1111948868
20
18.4000000000
30
0.0000000000
10
12.1319374816
20
18.3989110886
30
0.0000000000
10
12.1627279798
20
18.3940121733
30
0.0000000000
10
12.1928600946
20
18.3858886379
30
0.0000000000
10
12.2219881351
20
18.3746389715
30
0.0000000000
10
12.2498494891
20
18.3603595750
30
0.0000000000
10
12.2761639596
20
18.3431597337
30
0.0000000000
10
12.3005646315
20
18.3232585541
30
0.0000000000
10
12.3228029304
20
18.3008639511
30
0.0000000000
10
12.3426632963
20
18.2761708290
30
0.0000000000
10
12.3599135769
20
18.2494092599
30
0.0000000000
10
12.3742975698
20
18.2209493025
30
0.0000000000
10
12.3856699991
20
18.1910899367
30
0.0000000000
10
12.3939076019
20
18.1601136643
30
0.0000000000
10
12.3988905424
20
18.1283780465
30
0.0000000000
10
12.4000000000
20
18.1069714148
30
0.0000000000
10
12.4000000000
20
18.0962952155
30
0.0000000000
11
12.1008636137
21
18.4000000000
31
0.0000000000
11
12.1318147720
21
18.3983743790
31
0.0000000000
11
12.1626122270
21
18.3934751049
31
0.0000000000
11
12.1927264411
21
18.3853570992
31
0.0000000000
11
12.2217142475
21
18.3741631161
31
0.0000000000
11
12.2495169715
21
18.3599157509
31
0.0000000000
11
12.2758305114
21
18.3427191506
31
0.0000000000
11
12.3002126062
21
18.3228363249
31
0.0000000000
11
12.3223343101
21
18.3005628205
31
0.0000000000
11
12.3421762894
21
18.2758968287
31
0.0000000000
11
12.3594314097
21
18.2491326374
31
0.0000000000
11
12.3737971976
21
18.2207142241
31
0.0000000000
11
12.3851189905
21
18.1909936229
31
0.0000000000
11
12.3933543974
21
18.1600332706
31
0.0000000000
11
12.3983409031
21
18.1282808135
31
0.0000000000
11
12.4000000000
21
18.0962952155
31
0.0000000000
0
SPLINE
5
270
100
AcDbEntity
8
0
100
AcDbSpline
62
7
6
CONTINUOUS
70
0
71
3
72
22
73
18
74
16
42
0.0000001000
43
0.0000001000
44
0.0000000001
12
-0.4733254049
22
0.0000000000
32
0.0000000000
13
0.0000000000
23
0.4733254049
33
0.0000000000
40
0.0000000000
40
0.0000000000
40
0.0000000000
40
0.0000000000
40
0.0654809971
40
0.1313652903
40
0.1972591280
40
0.2629096833
40
0.3289121847
40
0.3953241338
40
0.4617927791
40
0.5281157275
40
0.5949961533
40
0.6622740259
40
0.7295492765
40
0.7967420414
40
0.8644268450
40
0.9323328147
40
1.0000000000
40
1.0000000000
40
1.0000000000
40
1.0000000000
10
-12.1008636137
20
-18.4000000000
30
0.0000000000
10
-12.1111948868
20
-18.4000000000
30
0.0000000000
10
-12.1319374816
20
-18.3989110886
30
0.0000000000
10
-12.1627279798
20
-18.3940121733
30
0.0000000000
10
-12.1928600946
20
-18.3858886379
30
0.0000000000
10
-12.2219881351
20
-18.3746389715
30
0.0000000000
10
-12.2498494891
20
-18.3603595750
30
0.0000000000
10
-12.2761639596
20
-18.3431597337
30
0.0000000000
10
-12.3005646315
20
-18.3232585541
30
0.0000000000
10
-12.3228029304
20
-18.3008639511
30
0.0000000000
10
-12.3426632963
20
-18.2761708290
30
0.0000000000
10
-12.3599135769
20
-18.2494092599
30
0.0000000000
10
-12.3742975698
20
-18.2209493025
30
0.0000000000
10
-12.3856699991
20
-18.1910899367
30
0.0000000000
10
-12.3939076019
20
-18.1601136643
30
0.0000000000
10
-12.3988905424
20
-18.1283780465
30
0.0000000000
10
-12.4000000000
20
-18.1069714148
30
0.0000000000
10
-12.4000000000
20
-18.0962952155
30
0.0000000000
11
-12.1008636137
21
-18.4000000000
31
0.0000000000
11
-12.1318147720
21
-18.3983743790
31
0.0000000000
11
-12.1626122270
21
-18.3934751049
31
0.0000000000
11
-12.1927264411
21
-18.3853570992
31
0.0000000000
11
-12.2217142475
21
-18.3741631161
31
0.0000000000
11
-12.2495169715
21
-18.3599157509
31
0.0000000000
11
-12.2758305114
21
-18.3427191506
31
0.0000000000
11
-12.3002126062
21
-18.3228363249
31
0.0000000000
11
-12.3223343101
21
-18.3005628205
31
0.0000000000
11
-12.3421762894
21
-18.2758968287
31
0.0000000000
11
-12.3594314097
21
-18.2491326374
31
0.0000000000
11
-12.3737971976
21
-18.2207142241
31
0.0000000000
11
-12.3851189905
21
-18.1909936229
31
0.0000000000
11
-12.3933543974
21
-18.1600332706
31
0.0000000000
11
-12.3983409031
21
-18.1282808135
31
0.0000000000
11
-12.4000000000
21
-18.0962952155
31
0.0000000000
0
SPLINE
5
271
100
AcDbEntity
8
0
100
AcDbSpline
62
7
6
CONTINUOUS
70
0
71
3
72
57
73
53
74
51
42
0.0000001000
43
0.0000001000
44
0.0000000001
12
0.0000000000
22
-7.8355163596
32
0.0000000000
13
-0.0000000000
23
7.8355163596
33
0.0000000000
40
0.0000000000
40
0.0000000000
40
0.0000000000
40
0.0000000000
40
0.0199000596
40
0.0398086625
40
0.0597095877
40
0.0796281906
40
0.0995384065
40
0.1194692821
40
0.1393981664
40
0.1593428421
40
0.1792977335
40
0.1992575249
40
0.2192391103
40
0.2392195101
40
0.2592263127
40
0.2792319768
40
0.2992609953
40
0.3192948134
40
0.3393417715
40
0.3594027551
40
0.3794642209
40
0.3995459777
40
0.4196212316
40
0.4397163253
40
0.4598035523
40
0.4799037188
40
0.5000003544
40
0.5200969400
40
0.5401971510
40
0.5602843589
40
0.5803794513
40
0.6004547208
40
0.6205364320
40
0.6405979427
40
0.6606588493
40
0.6807058663
40
0.7007396384
40
0.7207686750
40
0.7407743510
40
0.7607811080
40
0.7807615675
40
0.8007430622
40
0.8207029339
40
0.8406577295
40
0.8606024639
40
0.8805313359
40
0.9004621810
40
0.9203724631
40
0.9402909634
40
0.9601919945
40
0.9801004703
40
1.0000000000
40
1.0000000000
40
1.0000000000
40
1.0000000000
10
2.5000000000
20
-0.0000000000
30
0.0000000000
10
2.5000000000
20
-0.0519757476
30
0.0000000000
10
2.4967267974
20
-0.1559792484
30
0.0000000000
10
2.4820160518
20
-0.3113341635
30
0.0000000000
10
2.4575560703
20
-0.4655104404
30
0.0000000000
10
2.4234473125
20
-0.6178457733
30
0.0000000000
10
2.3798048122
20
-0.7678101184
30
0.0000000000
10
2.3268104254
20
-0.9147590220
30
0.0000000000
10
2.2646461837
20
-1.0581678434
30
0.0000000000
10
2.1935622218
20
-1.1974416551
30
0.0000000000
10
2.1138236177
20
-1.3320415661
30
0.0000000000
10
2.0257310094
20
-1.4614449097
30
0.0000000000
10
1.9296414261
20
-1.5851107358
30
0.0000000000
10
1.8258930426
20
-1.7025889943
30
0.0000000000
10
1.7149274490
20
-1.8133648432
30
0.0000000000
10
1.5971305134
20
-1.9170389482
30
0.0000000000
10
1.4730024844
20
-2.0131580092
30
0.0000000000
10
1.3429973479
20
-2.1013575464
30
0.0000000000
10
1.2076426203
20
-2.1812690238
30
0.0000000000
10
1.0674765785
20
-2.2525638583
30
0.0000000000
10
0.9230315979
20
-2.3149632209
30
0.0000000000
10
0.7749224138
20
-2.3681937281
30
0.0000000000
10
0.6236828159
20
-2.4120571574
30
0.0000000000
10
0.4699765944
20
-2.4463554881
30
0.0000000000
10
0.3143583963
20
-2.4709604224
30
0.0000000000
10
0.1574997626
20
-2.4857627092
30
0.0000000000
10
-0.0000026494
20
-2.4907034668
30
0.0000000000
10
-0.1575051664
20
-2.4857623694
30
0.0000000000
10
-0.3143637054
20
-2.4709597550
30
0.0000000000
10
-0.4699819122
20
-2.4463544737
30
0.0000000000
10
-0.6236880483
20
-2.4120558175
30
0.0000000000
10
-0.7749274732
20
-2.3681920845
30
0.0000000000
10
-0.9230365810
20
-2.3149612513
30
0.0000000000
10
-1.0674812438
20
-2.2525616638
30
0.0000000000
10
-1.2076472000
20
-2.1812665087
30
0.0000000000
10
-1.3430016213
20
-2.1013548404
30
0.0000000000
10
-1.4730066426
20
-2.0131549905
30
0.0000000000
10
-1.5971344447
20
-1.9170357048
30
0.0000000000
10
-1.7149311357
20
-1.8133613833
30
0.0000000000
10
-1.8258965539
20
-1.7025852634
30
0.0000000000
10
-1.9296445662
20
-1.5851069427
30
0.0000000000
10
-2.0257339817
20
-1.4614408243
30
0.0000000000
10
-2.1138261789
20
-1.3320375349
30
0.0000000000
10
-2.1935645769
20
-1.1974373722
30
0.0000000000
10
-2.2646482164
20
-1.0581635401
30
0.0000000000
10
-2.3268121920
20
-0.9147545582
30
0.0000000000
10
-2.3798063194
20
-0.7678054969
30
0.0000000000
10
-2.4234484771
20
-0.6178412331
30
0.0000000000
10
-2.4575569841
20
-0.4655056595
30
0.0000000000
10
-2.4820166208
20
-0.3113296539
30
0.0000000000
10
-2.4967269387
20
-0.1559761460
30
0.0000000000
10
-2.5000000000
20
-0.0519743635
30
0.0000000000
10
-2.5000000000
20
-0.0000000000
30
0.0000000000
11
2.5000000000
21
-0.0000000000
31
0.0000000000
11
2.4950945708
21
-0.1558500620
31
0.0000000000
11
2.4803897990
21
-0.3111496273
31
0.0000000000
11
2.4559567300
21
-0.4651575664
31
0.0000000000
11
2.4218561858
21
-0.6174592084
31
0.0000000000
11
2.3782643354
21
-0.7672519963
31
0.0000000000
11
2.3252856676
21
-0.9141598729
31
0.0000000000
11
2.2631817612
21
-1.0574319745
31
0.0000000000
11
2.1921390148
21
-1.1966274363
31
0.0000000000
11
2.1124469054
21
-1.3311511931
31
0.0000000000
11
2.0244381485
21
-1.4604335966
31
0.0000000000
11
1.9283760917
21
-1.5840661398
31
0.0000000000
11
1.8247446140
21
-1.7014140525
31
0.0000000000
11
1.7138021364
21
-1.8121687459
31
0.0000000000
11
1.5961314918
21
-1.9157334981
31
0.0000000000
11
1.4720475872
21
-2.0118200586
31
0.0000000000
11
1.3421465688
21
-2.0999504918
31
0.0000000000
11
1.2068833232
21
-2.1798093459
31
0.0000000000
11
1.0667783113
21
-2.2510743799
31
0.0000000000
11
0.9224759348
21
-2.3134132218
31
0.0000000000
11
0.7743984443
21
-2.3666332665
31
0.0000000000
11
0.6233242183
21
-2.4104494965
31
0.0000000000
11
0.4696483818
21
-2.4447416446
31
0.0000000000
11
0.3141858660
21
-2.4693223931
31
0.0000000000
11
0.1573873163
21
-2.4841192667
31
0.0000000000
11
-0.0000027782
21
-2.4890565887
31
0.0000000000
11
-0.1573924703
21
-2.4841189430
31
0.0000000000
11
-0.3141913362
21
-2.4693217032
31
0.0000000000
11
-0.4696536510
21
-2.4447406412
31
0.0000000000
11
-0.6233294039
21
-2.4104481672
31
0.0000000000
11
-0.7744036530
21
-2.3666315770
31
0.0000000000
11
-0.9224806950
21
-2.3134113403
31
0.0000000000
11
-1.0667832628
21
-2.2510720539
31
0.0000000000
11
-1.2068875893
21
-2.1798070045
31
0.0000000000
11
-1.3421510703
21
-2.0999476399
31
0.0000000000
11
-1.4720516086
21
-2.0118171418
31
0.0000000000
11
-1.5961354311
21
-1.9157302446
31
0.0000000000
11
-1.7138059322
21
-1.8121651876
31
0.0000000000
11
-1.8247479338
21
-1.7014105231
31
0.0000000000
11
-1.9283794819
21
-1.5840620488
31
0.0000000000
11
-2.0244408570
21
-1.4604298749
31
0.0000000000
11
-2.1124497125
21
-1.3311467773
31
0.0000000000
11
-2.1921411764
21
-1.1966235109
31
0.0000000000
11
-2.2631838680
21
-1.0574275046
31
0.0000000000
11
-2.3252874536
21
-0.9141553695
31
0.0000000000
11
-2.3782657608
21
-0.7672476165
31
0.0000000000
11
-2.4218574621
21
-0.6174542458
31
0.0000000000
11
-2.4559575408
21
-0.4651533228
31
0.0000000000
11
-2.4803904456
21
-0.3111445176
31
0.0000000000
11
-2.4950948321
21
-0.1558459159
31
0.0000000000
11
-2.5000000000
21
-0.0000000000
31
0.0000000000
0
SPLINE
5
272
100
AcDbEntity
8
0
100
AcDbSpline
62
7
6
CONTINUOUS
70
0
71
3
72
57
73
53
74
51
42
0.0000001000
43
0.0000001000
44
0.0000000001
12
0.0000000000
22
7.8355163596
32
0.0000000000
13
-0.0000000000
23
-7.8355163596
33
0.0000000000
40
0.0000000000
40
0.0000000000
40
0.0000000000
40
0.0000000000
40
0.0199000596
40
0.0398086625
40
0.0597095877
40
0.0796281906
40
0.0995384065
40
0.1194692821
40
0.1393981664
40
0.1593428421
40
0.1792977335
40
0.1992575249
40
0.2192391103
40
0.2392195101
40
0.2592263127
40
0.2792319768
40
0.2992609953
40
0.3192948134
40
0.3393417715
40
0.3594027551
40
0.3794642209
40
0.3995459777
40
0.4196212316
40
0.4397163253
40
0.4598035523
40
0.4799037188
40
0.5000003544
40
0.5200969400
40
0.5401971510
40
0.5602843589
40
0.5803794513
40
0.6004547208
40
0.6205364320
40
0.6405979427
40
0.6606588493
40
0.6807058663
40
0.7007396384
40
0.7207686750
40
0.7407743510
40
0.7607811080
40
0.7807615675
40
0.8007430622
40
0.8207029339
40
0.8406577295
40
0.8606024639
40
0.8805313359
40
0.9004621810
40
0.9203724631
40
0.9402909634
40
0.9601919945
40
0.9801004703
40
1.0000000000
40
1.0000000000
40
1.0000000000
40
1.0000000000
10
-2.5000000000
20
-0.0000000000
30
0.0000000000
10
-2.5000000000
20
0.0519757476
30
0.0000000000
10
-2.4967267974
20
0.1559792484
30
0.0000000000
10
-2.4820160518
20
0.3113341635
30
0.0000000000
10
-2.4575560703
20
0.4655104404
30
0.0000000000
10
-2.4234473125
20
0.6178457733
30
0.0000000000
10
-2.3798048122
20
0.7678101184
30
0.0000000000
10
-2.3268104254
20
0.9147590220
30
0.0000000000
10
-2.2646461837
20
1.0581678434
30
0.0000000000
10
-2.1935622218
20
1.1974416551
30
0.0000000000
10
-2.1138236177
20
1.3320415661
30
0.0000000000
10
-2.0257310094
20
1.4614449097
30
0.0000000000
10
-1.9296414261
20
1.5851107358
30
0.0000000000
10
-1.8258930426
20
1.7025889943
30
0.0000000000
10
-1.7149274490
20
1.8133648432
30
0.0000000000
10
-1.5971305134
20
1.9170389482
30
0.0000000000
10
-1.4730024844
20
2.0131580092
30
0.0000000000
10
-1.3429973479
20
2.1013575464
30
0.0000000000
10
-1.2076426203
20
2.1812690238
30
0.0000000000
10
-1.0674765785
20
2.2525638583
30
0.0000000000
10
-0.9230315979
20
2.3149632209
30
0.0000000000
10
-0.7749224138
20
2.3681937281
30
0.0000000000
10
-0.6236828159
20
2.4120571574
30
0.0000000000
10
-0.4699765944
20
2.4463554881
30
0.0000000000
10
-0.3143583963
20
2.4709604224
30
0.0000000000
10
-0.1574997626
20
2.4857627092
30
0.0000000000
10
0.0000026494
20
2.4907034668
30
0.0000000000
10
0.1575051664
20
2.4857623694
30
0.0000000000
10
0.3143637054
20
2.4709597550
30
0.0000000000
10
0.4699819122
20
2.4463544737
30
0.0000000000
10
0.6236880483
20
2.4120558175
30
0.0000000000
10
0.7749274732
20
2.3681920845
30
0.0000000000
10
0.9230365810
20
2.3149612513
30
0.0000000000
10
1.0674812438
20
2.2525616638
30
0.0000000000
10
1.2076472000
20
2.1812665087
30
0.0000000000
10
1.3430016213
20
2.1013548404
30
0.0000000000
10
1.4730066426
20
2.0131549905
30
0.0000000000
10
1.5971344447
20
1.9170357048
30
0.0000000000
10
1.7149311357
20
1.8133613833
30
0.0000000000
10
1.8258965539
20
1.7025852634
30
0.0000000000
10
1.9296445662
20
1.5851069427
30
0.0000000000
10
2.0257339817
20
1.4614408243
30
0.0000000000
10
2.1138261789
20
1.3320375349
30
0.0000000000
10
2.1935645769
20
1.1974373722
30
0.0000000000
10
2.2646482164
20
1.0581635401
30
0.0000000000
10
2.3268121920
20
0.9147545582
30
0.0000000000
10
2.3798063194
20
0.7678054969
30
0.0000000000
10
2.4234484771
20
0.6178412331
30
0.0000000000
10
2.4575569841
20
0.4655056595
30
0.0000000000
10
2.4820166208
20
0.3113296539
30
0.0000000000
10
2.4967269387
20
0.1559761460
30
0.0000000000
10
2.5000000000
20
0.0519743635
30
0.0000000000
10
2.5000000000
20
-0.0000000000
30
0.0000000000
11
-2.5000000000
21
-0.0000000000
31
0.0000000000
11
-2.4950945708
21
0.1558500620
31
0.0000000000
11
-2.4803897990
21
0.3111496273
31
0.0000000000
11
-2.4559567300
21
0.4651575664
31
0.0000000000
11
-2.4218561858
21
0.6174592084
31
0.0000000000
11
-2.3782643354
21
0.7672519963
31
0.0000000000
11
-2.3252856676
21
0.9141598729
31
0.0000000000
11
-2.2631817612
21
1.0574319745
31
0.0000000000
11
-2.1921390148
21
1.1966274363
31
0.0000000000
11
-2.1124469054
21
1.3311511931
31
0.0000000000
11
-2.0244381485
21
1.4604335966
31
0.0000000000
11
-1.9283760917
21
1.5840661398
31
0.0000000000
11
-1.8247446140
21
1.7014140525
31
0.0000000000
11
-1.7138021364
21
1.8121687459
31
0.0000000000
11
-1.5961314918
21
1.9157334981
31
0.0000000000
11
-1.4720475872
21
2.0118200586
31
0.0000000000
11
-1.3421465688
21
2.0999504918
31
0.0000000000
11
-1.2068833232
21
2.1798093459
31
0.0000000000
11
-1.0667783113
21
2.2510743799
31
0.0000000000
11
-0.9224759348
21
2.3134132218
31
0.0000000000
11
-0.7743984443
21
2.3666332665
31
0.0000000000
11
-0.6233242183
21
2.4104494965
31
0.0000000000
11
-0.4696483818
21
2.4447416446
31
0.0000000000
11
-0.3141858660
21
2.4693223931
31
0.0000000000
11
-0.1573873163
21
2.4841192667
31
0.0000000000
11
0.0000027782
21
2.4890565887
31
0.0000000000
11
0.1573924703
21
2.4841189430
31
0.0000000000
11
0.3141913362
21
2.4693217032
31
0.0000000000
11
0.4696536510
21
2.4447406412
31
0.0000000000
11
0.6233294039
21
2.4104481672
31
0.0000000000
11
0.7744036530
21
2.3666315770
31
0.0000000000
11
0.9224806950
21
2.3134113403
31
0.0000000000
11
1.0667832628
21
2.2510720539
31
0.0000000000
11
1.2068875893
21
2.1798070045
31
0.0000000000
11
1.3421510703
21
2.0999476399
31
0.0000000000
11
1.4720516086
21
2.0118171418
31
0.0000000000
11
1.5961354311
21
1.9157302446
31
0.0000000000
11
1.7138059322
21
1.8121651876
31
0.0000000000
11
1.8247479338
21
1.7014105231
31
0.0000000000
11
1.9283794819
21
1.5840620488
31
0.0000000000
11
2.0244408570
21
1.4604298749
31
0.0000000000
11
2.1124497125
21
1.3311467773
31
0.0000000000
11
2.1921411764
21
1.1966235109
31
0.0000000000
11
2.2631838680
21
1.0574275046
31
0.0000000000
11
2.3252874536
21
0.9141553695
31
0.0000000000
11
2.3782657608
21
0.7672476165
31
0.0000000000
11
2.4218574621
21
0.6174542458
31
0.0000000000
11
2.4559575408
21
0.4651533228
31
0.0000000000
11
2.4803904456
21
0.3111445176
31
0.0000000000
11
2.4950948321
21
0.1558459159
31
0.0000000000
11
2.5000000000
21
-0.0000000000
31
0.0000000000
0
SPLINE
5
273
100
AcDbEntity
8
0
100
AcDbSpline
62
9
6
CONTINUOUS
70
0
71
3
72
22
73
18
74
16
42
0.0000001000
43
0.0000001000
44
0.0000000001
12
0.0014367926
22
0.4669669341
32
0.0000000000
13
0.4669670641
23
0.0013938929
33
0.0000000000
40
0.0000000000
40
0.0000000000
40
0.0000000000
40
0.0000000000
40
0.0661103978
40
0.1322638517
40
0.1984799636
40
0.2647755566
40
0.3311639400
40
0.3976543367
40
0.4642514965
40
0.5309555097
40
0.5977618250
40
0.6646614679
40
0.7316414458
40
0.7986853212
40
0.8657739246
40
0.9328861790
40
1.0000000000
40
1.0000000000
40
1.0000000000
40
1.0000000000
10
-12.2950679731
20
17.0362964381
30
0.0000000000
10
-12.2950363108
20
17.0465868947
30
0.0000000000
10
-12.2938787455
20
17.0671878088
30
0.0000000000
10
-12.2888811190
20
17.0977313631
30
0.0000000000
10
-12.2806765568
20
17.1276071760
30
0.0000000000
10
-12.2693549157
20
17.1564844374
30
0.0000000000
10
-12.2550400968
20
17.1840491202
30
0.0000000000
10
-12.2378886799
20
17.2100000816
30
0.0000000000
10
-12.2180881741
20
17.2340543129
30
0.0000000000
10
-12.1958549440
20
17.2559494849
30
0.0000000000
10
-12.1714318152
20
17.2754469293
30
0.0000000000
10
-12.1450854441
20
17.2923341765
30
0.0000000000
10
-12.1171032684
20
17.3064272533
30
0.0000000000
10
-12.0877908746
20
17.3175726560
30
0.0000000000
10
-12.0574668037
20
17.3256490031
30
0.0000000000
10
-12.0264660885
20
17.3305683173
30
0.0000000000
10
-12.0055603125
20
17.3317075808
30
0.0000000000
10
-11.9951136646
20
17.3317387640
30
0.0000000000
11
-12.2950679731
21
17.0362964381
31
0.0000000000
11
-12.2933362828
21
17.0671193475
31
0.0000000000
11
-12.2883497872
21
17.0976058552
31
0.0000000000
11
-12.2801629089
21
17.1274232313
31
0.0000000000
11
-12.2688649997
21
17.1562460484
31
0.0000000000
11
-12.2545793651
21
17.1837597340
31
0.0000000000
11
-12.2374619187
21
17.2096640034
31
0.0000000000
11
-12.2176994804
21
17.2336761370
31
0.0000000000
11
-12.1955077379
21
17.2555340662
31
0.0000000000
11
-12.1711288919
21
17.2749992333
31
0.0000000000
11
-12.1448290136
21
17.2918591951
31
0.0000000000
11
-12.1168951402
21
17.3059299418
31
0.0000000000
11
-12.0876321423
21
17.3170579052
31
0.0000000000
11
-12.0573593965
21
17.3251216346
31
0.0000000000
11
-12.0264073001
21
17.3300331222
31
0.0000000000
11
-11.9951136646
21
17.3317387640
31
0.0000000000
0
SPLINE
5
274
100
AcDbEntity
8
0
100
AcDbSpline
62
9
6
CONTINUOUS
70
0
71
3
72
21
73
17
74
15
42
0.0000001000
43
0.0000001000
44
0.0000000001
12
0.1238977282
22
0.2739461049
32
0.0000000000
13
0.3006610626
23
0.0002021835
33
0.0000000000
40
0.0000000000
40
0.0000000000
40
0.0000000000
40
0.0000000000
40
0.0091178719
40
0.0297823287
40
0.0621959602
40
0.1060528113
40
0.1608484048
40
0.2259262220
40
0.3004961378
40
0.3836478087
40
0.4743634491
40
0.5715311281
40
0.6739588690
40
0.7803895621
40
0.8895165878
40
1.0000000000
40
1.0000000000
40
1.0000000000
40
1.0000000000
10
-12.2849802401
20
16.3739188688
30
0.0000000000
10
-12.2846036789
20
16.3747514706
30
0.0000000000
10
-12.2811445527
20
16.3755054030
30
0.0000000000
10
-12.2754990240
20
16.3767823586
30
0.0000000000
10
-12.2655937371
20
16.3778537709
30
0.0000000000
10
-12.2526146568
20
16.3790303959
30
0.0000000000
10
-12.2362009849
20
16.3801125947
30
0.0000000000
10
-12.2167545950
20
16.3811466318
30
0.0000000000
10
-12.1944407181
20
16.3820922148
30
0.0000000000
10
-12.1695580320
20
16.3829439162
30
0.0000000000
10
-12.1424043621
20
16.3836874982
30
0.0000000000
10
-12.1133160085
20
16.3843139277
30
0.0000000000
10
-12.0826498829
20
16.3848148018
30
0.0000000000
10
-12.0507832935
20
16.3851837424
30
0.0000000000
10
-12.0181080515
20
16.3854160100
30
0.0000000000
10
-11.9960986183
20
16.3854776463
30
0.0000000000
10
-11.9850259316
20
16.3854850922
30
0.0000000000
11
-12.2849802401
21
16.3739188688
31
0.0000000000
11
-12.2825564913
21
16.3751997509
31
0.0000000000
11
-12.2764736627
21
16.3764648805
31
0.0000000000
11
-12.2668065621
21
16.3776986988
31
0.0000000000
11
-12.2536740770
21
16.3788860322
31
0.0000000000
11
-12.2372377128
21
16.3800122785
31
0.0000000000
11
-12.2176996067
21
16.3810635870
31
0.0000000000
11
-12.1953000416
21
16.3820270287
31
0.0000000000
11
-12.1703144908
21
16.3828907548
31
0.0000000000
11
-12.1430502310
21
16.3836441432
31
0.0000000000
11
-12.1138425623
21
16.3842779285
31
0.0000000000
11
-12.0830506855
21
16.3847843164
31
0.0000000000
11
-12.0510532842
21
16.3851570793
31
0.0000000000
11
-12.0182438677
21
16.3853916327
31
0.0000000000
11
-11.9850259316
21
16.3854850922
31
0.0000000000
0
SPLINE
5
275
100
AcDbEntity
8
0
100
AcDbSpline
62
9
6
CONTINUOUS
70
0
71
3
72
25
73
21
74
19
42
0.0000001000
43
0.0000001000
44
0.0000000001
12
-0.0004462263
22
0.9463612702
32
0.0000000000
13
-0.0654163801
23
0.9440977439
33
0.0000000000
40
0.0000000000
40
0.0000000000
40
0.0000000000
40
0.0000000000
40
0.0794495423
40
0.1582148743
40
0.2358500854
40
0.3119127222
40
0.3859707669
40
0.4576033897
40
0.5264030587
40
0.5919786305
40
0.6539574094
40
0.7119869856
40
0.7657374290
40
0.8149032960
40
0.8592051448
40
0.8983911530
40
0.9322390689
40
0.9605573298
40
0.9831860090
40
1.0000000000
40
1.0000000000
40
1.0000000000
40
1.0000000000
10
-11.9850259316
20
16.3854850935
30
0.0000000000
10
-11.9850377490
20
16.4105477501
30
0.0000000000
10
-11.9850842179
20
16.4604572189
30
0.0000000000
10
-11.9852227878
20
16.5348569041
30
0.0000000000
10
-11.9854292477
20
16.6081880166
30
0.0000000000
10
-11.9857024026
20
16.6800339694
30
0.0000000000
10
-11.9860406700
20
16.7499860854
30
0.0000000000
10
-11.9864420826
20
16.8176466992
30
0.0000000000
10
-11.9869043008
20
16.8826310334
30
0.0000000000
10
-11.9874246164
20
16.9445694869
30
0.0000000000
10
-11.9879999635
20
17.0031098353
30
0.0000000000
10
-11.9886269194
20
17.0579191486
30
0.0000000000
10
-11.9893017116
20
17.1086856876
30
0.0000000000
10
-11.9900201777
20
17.1551207016
30
0.0000000000
10
-11.9907778138
20
17.1969600165
30
0.0000000000
10
-11.9915694051
20
17.2339656652
30
0.0000000000
10
-11.9923896890
20
17.2659271523
30
0.0000000000
10
-11.9932302475
20
17.2926631353
30
0.0000000000
10
-11.9940857140
20
17.3140215062
30
0.0000000000
10
-11.9947470277
20
17.3264474136
30
0.0000000000
10
-11.9951136646
20
17.3317387640
30
0.0000000000
11
-11.9850259316
21
16.3854850935
31
0.0000000000
11
-11.9850961415
21
16.4606730389
31
0.0000000000
11
-11.9852353760
21
16.5352133767
31
0.0000000000
11
-11.9854428477
21
16.6086840490
31
0.0000000000
11
-11.9857173740
21
16.6806662671
31
0.0000000000
11
-11.9860573970
21
16.7507511153
31
0.0000000000
11
-11.9864609849
21
16.8185402613
31
0.0000000000
11
-11.9869258429
21
16.8836479513
31
0.0000000000
11
-11.9874493286
21
16.9457039316
31
0.0000000000
11
-11.9880284674
21
17.0043553948
31
0.0000000000
11
-11.9886599667
21
17.0592687135
31
0.0000000000
11
-11.9893402362
21
17.1101315081
31
0.0000000000
11
-11.9900654096
21
17.1566545341
31
0.0000000000
11
-11.9908313632
21
17.1985730953
31
0.0000000000
11
-11.9916337392
21
17.2356485385
31
0.0000000000
11
-11.9924679739
21
17.2676700337
31
0.0000000000
11
-11.9933293342
21
17.2944554960
31
0.0000000000
11
-11.9942128917
21
17.3158521688
31
0.0000000000
11
-11.9951136646
21
17.3317387640
31
0.0000000000
0
SPLINE
5
276
100
AcDbEntity
8
0
100
AcDbSpline
62
9
6
CONTINUOUS
70
0
71
3
72
25
73
21
74
19
42
0.0000001000
43
0.0000001000
44
0.0000000001
12
-0.0004462700
22
0.6625312298
32
0.0000000000
13
-0.0652644253
23
0.6593090205
33
0.0000000000
40
0.0000000000
40
0.0000000000
40
0.0000000000
40
0.0000000000
40
0.0794220638
40
0.1581801434
40
0.2358085054
40
0.3118647759
40
0.3859170398
40
0.4575445624
40
0.5263399164
40
0.5919120683
40
0.6538884451
40
0.7119167771
40
0.7656672946
40
0.8148347204
40
0.8591398904
40
0.8983313732
40
0.9321874924
40
0.9605175627
40
0.9831632770
40
1.0000000000
40
1.0000000000
40
1.0000000000
40
1.0000000000
10
-12.2849802401
20
16.3739188688
30
0.0000000000
10
-12.2849920547
20
16.3914587346
30
0.0000000000
10
-12.2850385135
20
16.4263918187
30
0.0000000000
10
-12.2851770618
20
16.4784684942
30
0.0000000000
10
-12.2853835120
20
16.5298016259
30
0.0000000000
10
-12.2856566633
20
16.5800951815
30
0.0000000000
10
-12.2859949289
20
16.6290630640
30
0.0000000000
10
-12.2863963442
20
16.6764268874
30
0.0000000000
10
-12.2868585683
20
16.7219172860
30
0.0000000000
10
-12.2873788935
20
16.7652755188
30
0.0000000000
10
-12.2879542539
20
16.8062550096
30
0.0000000000
10
-12.2885812269
20
16.8446226892
30
0.0000000000
10
-12.2892560401
20
16.8801603164
30
0.0000000000
10
-12.2899745310
20
16.9126657523
30
0.0000000000
10
-12.2907321974
20
16.9419540692
30
0.0000000000
10
-12.2915238256
20
16.9678587497
30
0.0000000000
10
-12.2923441607
20
16.9902324612
30
0.0000000000
10
-12.2931848097
20
17.0089486661
30
0.0000000000
10
-12.2940403796
20
17.0239002587
30
0.0000000000
10
-12.2947016934
20
17.0325962370
30
0.0000000000
10
-12.2950679731
20
17.0362964381
30
0.0000000000
11
-12.2849802401
21
16.3739188688
31
0.0000000000
11
-12.2850504261
21
16.4265384315
31
0.0000000000
11
-12.2851896496
21
16.4787179449
31
0.0000000000
11
-12.2853971124
21
16.5301487524
31
0.0000000000
11
-12.2856716341
21
16.5805376704
31
0.0000000000
11
-12.2860116554
21
16.6295984407
31
0.0000000000
11
-12.2864152453
21
16.6770522060
31
0.0000000000
11
-12.2868801086
21
16.7226289161
31
0.0000000000
11
-12.2874036030
21
16.7660693702
31
0.0000000000
11
-12.2879827537
21
16.8071265802
31
0.0000000000
11
-12.2886142681
21
16.8455669840
31
0.0000000000
11
-12.2892945555
21
16.8811718902
31
0.0000000000
11
-12.2900197488
21
16.9137387794
31
0.0000000000
11
-12.2907857241
21
16.9430823491
31
0.0000000000
11
-12.2915881221
21
16.9690355354
31
0.0000000000
11
-12.2924223815
21
16.9914507572
31
0.0000000000
11
-12.2932837617
21
17.0102005420
31
0.0000000000
11
-12.2941673508
21
17.0251779975
31
0.0000000000
11
-12.2950679731
21
17.0362964381
31
0.0000000000
0
SPLINE
5
277
100
AcDbEntity
8
0
100
AcDbSpline
62
9
6
CONTINUOUS
70
0
71
3
72
21
73
17
74
15
42
0.0000001000
43
0.0000001000
44
0.0000000001
12
0.1238971533
22
-0.2739463655
32
0.0000000000
13
0.3006610631
23
-0.0002021836
33
0.0000000000
40
0.0000000000
40
0.0000000000
40
0.0000000000
40
0.0000000000
40
0.0091178633
40
0.0297823121
40
0.0621959371
40
0.1060527834
40
0.1608483737
40
0.2259261895
40
0.3004961055
40
0.3836477779
40
0.4743634213
40
0.5715311043
40
0.6739588503
40
0.7803895492
40
0.8895165812
40
1.0000000000
40
1.0000000000
40
1.0000000000
40
1.0000000000
10
-12.2849802401
20
-16.3739188688
30
0.0000000000
10
-12.2846036810
20
-16.3747514706
30
0.0000000000
10
-12.2811445546
20
-16.3755054035
30
0.0000000000
10
-12.2754990300
20
-16.3767823588
30
0.0000000000
10
-12.2655937441
20
-16.3778537713
30
0.0000000000
10
-12.2526146656
20
-16.3790303964
30
0.0000000000
10
-12.2362009944
20
-16.3801125953
30
0.0000000000
10
-12.2167546050
20
-16.3811466325
30
0.0000000000
10
-12.1944407280
20
-16.3820922156
30
0.0000000000
10
-12.1695580414
20
-16.3829439171
30
0.0000000000
10
-12.1424043707
20
-16.3836874993
30
0.0000000000
10
-12.1133160157
20
-16.3843139288
30
0.0000000000
10
-12.0826498886
20
-16.3848148030
30
0.0000000000
10
-12.0507832974
20
-16.3851837436
30
0.0000000000
10
-12.0181080536
20
-16.3854160112
30
0.0000000000
10
-11.9960986189
20
-16.3854776476
30
0.0000000000
10
-11.9850259316
20
-16.3854850935
30
0.0000000000
11
-12.2849802401
21
-16.3739188688
31
0.0000000000
11
-12.2825564942
21
-16.3751997510
31
0.0000000000
11
-12.2764736682
21
-16.3764648807
31
0.0000000000
11
-12.2668065695
21
-16.3776986991
31
0.0000000000
11
-12.2536740858
21
-16.3788860326
31
0.0000000000
11
-12.2372377226
21
-16.3800122790
31
0.0000000000
11
-12.2176996169
21
-16.3810635877
31
0.0000000000
11
-12.1953000517
21
-16.3820270295
31
0.0000000000
11
-12.1703145004
21
-16.3828907557
31
0.0000000000
11
-12.1430502396
21
-16.3836441442
31
0.0000000000
11
-12.1138425696
21
-16.3842779296
31
0.0000000000
11
-12.0830506913
21
-16.3847843176
31
0.0000000000
11
-12.0510532882
21
-16.3851570805
31
0.0000000000
11
-12.0182438697
21
-16.3853916340
31
0.0000000000
11
-11.9850259316
21
-16.3854850935
31
0.0000000000
0
SPLINE
5
278
100
AcDbEntity
8
0
100
AcDbSpline
62
9
6
CONTINUOUS
70
0
71
3
72
17
73
13
74
11
42
0.0000001000
43
0.0000001000
44
0.0000000001
12
0.0220545084
22
32.7478327603
32
0.0000000000
13
-0.0220545084
23
32.7478327603
33
0.0000000000
40
0.0000000000
40
0.0000000000
40
0.0000000000
40
0.0000000000
40
0.0999643152
40
0.1999524220
40
0.2999583699
40
0.3999762120
40
0.5000000011
40
0.6000237902
40
0.7000416323
40
0.8000475802
40
0.9000356870
40
1.0000000000
40
1.0000000000
40
1.0000000000
40
1.0000000000
10
-12.2849802401
20
-16.3739188688
30
0.0000000000
10
-12.2842453522
20
-15.2827139771
30
0.0000000000
10
-12.2829225603
20
-13.1000443836
30
0.0000000000
10
-12.2813793949
20
-9.8257151510
30
0.0000000000
10
-12.2802770684
20
-6.5508014422
30
0.0000000000
10
-12.2796156463
20
-3.2754981093
30
0.0000000000
10
-12.2793951679
20
0.0000000358
30
0.0000000000
10
-12.2796156463
20
3.2754981809
30
0.0000000000
10
-12.2802770684
20
6.5508015138
30
0.0000000000
10
-12.2813793950
20
9.8257152225
30
0.0000000000
10
-12.2829225603
20
13.1000444312
30
0.0000000000
10
-12.2842453522
20
15.2827140010
30
0.0000000000
10
-12.2849802401
20
16.3739188688
30
0.0000000000
11
-12.2849802401
21
-16.3739188688
31
0.0000000000
11
-12.2829962294
21
-13.1003040527
31
0.0000000000
11
-12.2814529875
21
-9.8259098740
31
0.0000000000
11
-12.2803506064
21
-6.5509312587
31
0.0000000000
11
-12.2796891515
21
-3.2755630158
31
0.0000000000
11
-12.2794686621
21
0.0000000358
31
0.0000000000
11
-12.2796891515
21
3.2755630875
31
0.0000000000
11
-12.2803506064
21
6.5509313303
31
0.0000000000
11
-12.2814529876
21
9.8259099455
31
0.0000000000
11
-12.2829962294
21
13.1003041242
31
0.0000000000
11
-12.2849802401
21
16.3739188688
31
0.0000000000
0
SPLINE
5
279
100
AcDbEntity
8
0
100
AcDbSpline
62
9
6
CONTINUOUS
70
0
71
3
72
22
73
18
74
16
42
0.0000001000
43
0.0000001000
44
0.0000000001
12
-0.0014367926
22
-0.4669669341
32
0.0000000000
13
-0.4669670641
23
-0.0013938929
33
0.0000000000
40
0.0000000000
40
0.0000000000
40
0.0000000000
40
0.0000000000
40
0.0661103978
40
0.1322638517
40
0.1984799636
40
0.2647755566
40
0.3311639400
40
0.3976543367
40
0.4642514965
40
0.5309555097
40
0.5977618250
40
0.6646614679
40
0.7316414458
40
0.7986853212
40
0.8657739246
40
0.9328861790
40
1.0000000000
40
1.0000000000
40
1.0000000000
40
1.0000000000
10
12.2950679731
20
-17.0362964381
30
0.0000000000
10
12.2950363108
20
-17.0465868947
30
0.0000000000
10
12.2938787455
20
-17.0671878088
30
0.0000000000
10
12.2888811190
20
-17.0977313631
30
0.0000000000
10
12.2806765568
20
-17.1276071760
30
0.0000000000
10
12.2693549157
20
-17.1564844374
30
0.0000000000
10
12.2550400968
20
-17.1840491202
30
0.0000000000
10
12.2378886799
20
-17.2100000816
30
0.0000000000
10
12.2180881741
20
-17.2340543129
30
0.0000000000
10
12.1958549440
20
-17.2559494849
30
0.0000000000
10
12.1714318152
20
-17.2754469293
30
0.0000000000
10
12.1450854441
20
-17.2923341765
30
0.0000000000
10
12.1171032684
20
-17.3064272533
30
0.0000000000
10
12.0877908746
20
-17.3175726560
30
0.0000000000
10
12.0574668037
20
-17.3256490031
30
0.0000000000
10
12.0264660885
20
-17.3305683173
30
0.0000000000
10
12.0055603125
20
-17.3317075808
30
0.0000000000
10
11.9951136646
20
-17.3317387640
30
0.0000000000
11
12.2950679731
21
-17.0362964381
31
0.0000000000
11
12.2933362828
21
-17.0671193475
31
0.0000000000
11
12.2883497872
21
-17.0976058552
31
0.0000000000
11
12.2801629089
21
-17.1274232313
31
0.0000000000
11
12.2688649997
21
-17.1562460484
31
0.0000000000
11
12.2545793651
21
-17.1837597340
31
0.0000000000
11
12.2374619187
21
-17.2096640034
31
0.0000000000
11
12.2176994804
21
-17.2336761370
31
0.0000000000
11
12.1955077379
21
-17.2555340662
31
0.0000000000
11
12.1711288919
21
-17.2749992333
31
0.0000000000
11
12.1448290136
21
-17.2918591951
31
0.0000000000
11
12.1168951402
21
-17.3059299418
31
0.0000000000
11
12.0876321423
21
-17.3170579052
31
0.0000000000
11
12.0573593965
21
-17.3251216346
31
0.0000000000
11
12.0264073001
21
-17.3300331222
31
0.0000000000
11
11.9951136646
21
-17.3317387640
31
0.0000000000
0
SPLINE
5
27A
100
AcDbEntity
8
0
100
AcDbSpline
62
9
6
CONTINUOUS
70
0
71
3
72
25
73
21
74
19
42
0.0000001000
43
0.0000001000
44
0.0000000001
12
0.0004462608
22
-0.6625312299
32
0.0000000000
13
0.0652641256
23
-0.6593090502
33
0.0000000000
40
0.0000000000
40
0.0000000000
40
0.0000000000
40
0.0000000000
40
0.0794270877
40
0.1581852317
40
0.2358136289
40
0.3118699109
40
0.3859221436
40
0.4575496038
40
0.5263448632
40
0.5919168691
40
0.6538929963
40
0.7119209839
40
0.7656710826
40
0.8148380745
40
0.8591428137
40
0.8983338688
40
0.9321895642
40
0.9605192129
40
0.9831645352
40
1.0000000000
40
1.0000000000
40
1.0000000000
40
1.0000000000
10
12.2849802401
20
-16.3739188688
30
0.0000000000
10
12.2849920552
20
-16.3914598441
30
0.0000000000
10
12.2850385174
20
-16.4263940519
30
0.0000000000
10
12.2851770727
20
-16.4784718589
30
0.0000000000
10
12.2853835280
20
-16.5298050151
30
0.0000000000
10
12.2856566840
20
-16.5800985742
30
0.0000000000
10
12.2859949548
20
-16.6290664385
30
0.0000000000
10
12.2863963751
20
-16.6764302202
30
0.0000000000
10
12.2868586044
20
-16.7219205519
30
0.0000000000
10
12.2873789345
20
-16.7652786764
30
0.0000000000
10
12.2879542993
20
-16.8062580036
30
0.0000000000
10
12.2885812757
20
-16.8446254595
30
0.0000000000
10
12.2892560915
20
-16.8801628222
30
0.0000000000
10
12.2899745842
20
-16.9126679746
30
0.0000000000
10
12.2907322519
20
-16.9419560059
30
0.0000000000
10
12.2915238812
20
-16.9678604031
30
0.0000000000
10
12.2923442160
20
-16.9902338333
30
0.0000000000
10
12.2931848666
20
-17.0089497645
30
0.0000000000
10
12.2940404212
20
-17.0239008999
30
0.0000000000
10
12.2947017225
20
-17.0325965133
30
0.0000000000
10
12.2950679731
20
-17.0362964381
30
0.0000000000
11
12.2849802401
21
-16.3739188688
31
0.0000000000
11
12.2850504328
21
-16.4265417600
31
0.0000000000
11
12.2851896608
21
-16.4787213161
31
0.0000000000
11
12.2853971284
21
-16.5301521468
31
0.0000000000
11
12.2856716551
21
-16.5805410724
31
0.0000000000
11
12.2860116814
21
-16.6296018221
31
0.0000000000
11
12.2864152764
21
-16.6770555459
31
0.0000000000
11
12.2868801450
21
-16.7226321934
31
0.0000000000
11
12.2874036445
21
-16.7660725507
31
0.0000000000
11
12.2879827996
21
-16.8071295952
31
0.0000000000
11
12.2886143175
21
-16.8455697707
31
0.0000000000
11
12.2892946073
21
-16.8811743994
31
0.0000000000
11
12.2900198024
21
-16.9137410010
31
0.0000000000
11
12.2907857790
21
-16.9430842852
31
0.0000000000
11
12.2915881781
21
-16.9690371879
31
0.0000000000
11
12.2924224381
21
-16.9914521288
31
0.0000000000
11
12.2932838185
21
-17.0102016339
31
0.0000000000
11
12.2941674075
21
-17.0251788292
31
0.0000000000
11
12.2950679731
21
-17.0362964381
31
0.0000000000
0
SPLINE
5
27B
100
AcDbEntity
8
0
100
AcDbSpline
62
9
6
CONTINUOUS
70
0
71
3
72
25
73
21
74
19
42
0.0000001000
43
0.0000001000
44
0.0000000001
12
0.0004462007
22
-0.9463612701
32
0.0000000000
13
0.0654172135
23
-0.9440976861
33
0.0000000000
40
0.0000000000
40
0.0000000000
40
0.0000000000
40
0.0000000000
40
0.0794495825
40
0.1582149085
40
0.2358501170
40
0.3119127571
40
0.3859707963
40
0.4576034164
40
0.5264030870
40
0.5919786581
40
0.6539574351
40
0.7119870105
40
0.7657374517
40
0.8149033151
40
0.8592051632
40
0.8983911718
40
0.9322390836
40
0.9605573426
40
0.9831860200
40
1.0000000000
40
1.0000000000
40
1.0000000000
40
1.0000000000
10
11.9850259316
20
-16.3854850935
30
0.0000000000
10
11.9850377484
20
-16.4105477628
30
0.0000000000
10
11.9850842187
20
-16.4604572424
30
0.0000000000
10
11.9852227875
20
-16.5348569375
30
0.0000000000
10
11.9854292482
20
-16.6081880483
30
0.0000000000
10
11.9857024030
20
-16.6800339996
30
0.0000000000
10
11.9860406707
20
-16.7499861141
30
0.0000000000
10
11.9864420834
20
-16.8176467258
30
0.0000000000
10
11.9869043019
20
-16.8826310595
30
0.0000000000
10
11.9874246177
20
-16.9445695126
30
0.0000000000
10
11.9879999649
20
-17.0031098600
30
0.0000000000
10
11.9886269209
20
-17.0579191717
30
0.0000000000
10
11.9893017131
20
-17.1086857086
30
0.0000000000
10
11.9900201793
20
-17.1551207205
30
0.0000000000
10
11.9907778155
20
-17.1969600342
30
0.0000000000
10
11.9915694064
20
-17.2339656815
30
0.0000000000
10
11.9923896915
20
-17.2659271668
30
0.0000000000
10
11.9932302470
20
-17.2926631475
30
0.0000000000
10
11.9940857197
20
-17.3140215134
30
0.0000000000
10
11.9947470233
20
-17.3264474175
30
0.0000000000
10
11.9951136646
20
-17.3317387640
30
0.0000000000
11
11.9850259316
21
-16.3854850935
31
0.0000000000
11
11.9850961418
21
-16.4606730769
31
0.0000000000
11
11.9852353760
21
-16.5352134091
31
0.0000000000
11
11.9854428480
21
-16.6086840789
31
0.0000000000
11
11.9857173745
21
-16.6806663001
31
0.0000000000
11
11.9860573976
21
-16.7507511431
31
0.0000000000
11
11.9864609857
21
-16.8185402866
31
0.0000000000
11
11.9869258440
21
-16.8836479780
31
0.0000000000
11
11.9874493299
21
-16.9457039577
31
0.0000000000
11
11.9880284688
21
-17.0043554192
31
0.0000000000
11
11.9886599683
21
-17.0592687369
31
0.0000000000
11
11.9893402378
21
-17.1101315295
31
0.0000000000
11
11.9900654111
21
-17.1566545521
31
0.0000000000
11
11.9908313648
21
-17.1985731126
31
0.0000000000
11
11.9916337408
21
-17.2356485563
31
0.0000000000
11
11.9924679756
21
-17.2676700476
31
0.0000000000
11
11.9933293355
21
-17.2944555080
31
0.0000000000
11
11.9942128936
21
-17.3158521792
31
0.0000000000
11
11.9951136646
21
-17.3317387640
31
0.0000000000
0
SPLINE
5
27C
100
AcDbEntity
8
0
100
AcDbSpline
62
9
6
CONTINUOUS
70
0
71
3
72
21
73
17
74
15
42
0.0000001000
43
0.0000001000
44
0.0000000001
12
-0.1238975147
22
-0.2739462016
32
0.0000000000
13
-0.3006610628
23
-0.0002021835
33
0.0000000000
40
0.0000000000
40
0.0000000000
40
0.0000000000
40
0.0000000000
40
0.0091178687
40
0.0297823226
40
0.0621959516
40
0.1060528010
40
0.1608483933
40
0.2259262100
40
0.3004961259
40
0.3836477973
40
0.4743634388
40
0.5715311193
40
0.6739588621
40
0.7803895573
40
0.8895165853
40
1.0000000000
40
1.0000000000
40
1.0000000000
40
1.0000000000
10
12.2849802401
20
-16.3739188688
30
0.0000000000
10
12.2846036797
20
-16.3747514706
30
0.0000000000
10
12.2811445534
20
-16.3755054032
30
0.0000000000
10
12.2754990262
20
-16.3767823587
30
0.0000000000
10
12.2655937397
20
-16.3778537711
30
0.0000000000
10
12.2526146600
20
-16.3790303961
30
0.0000000000
10
12.2362009884
20
-16.3801125949
30
0.0000000000
10
12.2167545987
20
-16.3811466321
30
0.0000000000
10
12.1944407218
20
-16.3820922152
30
0.0000000000
10
12.1695580355
20
-16.3829439166
30
0.0000000000
10
12.1424043653
20
-16.3836874987
30
0.0000000000
10
12.1133160112
20
-16.3843139281
30
0.0000000000
10
12.0826498850
20
-16.3848148023
30
0.0000000000
10
12.0507832949
20
-16.3851837429
30
0.0000000000
10
12.0181080523
20
-16.3854160105
30
0.0000000000
10
11.9960986185
20
-16.3854776468
30
0.0000000000
10
11.9850259316
20
-16.3854850928
30
0.0000000000
11
12.2849802401
21
-16.3739188688
31
0.0000000000
11
12.2825564924
21
-16.3751997509
31
0.0000000000
11
12.2764736648
21
-16.3764648806
31
0.0000000000
11
12.2668065649
21
-16.3776986990
31
0.0000000000
11
12.2536740803
21
-16.3788860323
31
0.0000000000
11
12.2372377165
21
-16.3800122787
31
0.0000000000
11
12.2176996105
21
-16.3810635873
31
0.0000000000
11
12.1953000453
21
-16.3820270290
31
0.0000000000
11
12.1703144944
21
-16.3828907552
31
0.0000000000
11
12.1430502342
21
-16.3836441436
31
0.0000000000
11
12.1138425650
21
-16.3842779290
31
0.0000000000
11
12.0830506877
21
-16.3847843169
31
0.0000000000
11
12.0510532857
21
-16.3851570798
31
0.0000000000
11
12.0182438685
21
-16.3853916332
31
0.0000000000
11
11.9850259316
21
-16.3854850928
31
0.0000000000
0
SPLINE
5
27D
100
AcDbEntity
8
0
100
AcDbSpline
62
9
6
CONTINUOUS
70
0
71
3
72
17
73
13
74
11
42
0.0000001000
43
0.0000001000
44
0.0000000001
12
-0.0220545084
22
-32.7478327603
32
0.0000000000
13
0.0220545084
23
-32.7478327603
33
0.0000000000
40
0.0000000000
40
0.0000000000
40
0.0000000000
40
0.0000000000
40
0.0999643130
40
0.1999524198
40
0.2999583677
40
0.3999762098
40
0.4999999989
40
0.6000237880
40
0.7000416301
40
0.8000475780
40
0.9000356848
40
1.0000000000
40
1.0000000000
40
1.0000000000
40
1.0000000000
10
12.2849802401
20
16.3739188688
30
0.0000000000
10
12.2842453522
20
15.2827140010
30
0.0000000000
10
12.2829225603
20
13.1000444312
30
0.0000000000
10
12.2813793950
20
9.8257152225
30
0.0000000000
10
12.2802770684
20
6.5508015138
30
0.0000000000
10
12.2796156463
20
3.2754981809
30
0.0000000000
10
12.2793951679
20
0.0000000358
30
0.0000000000
10
12.2796156463
20
-3.2754981093
30
0.0000000000
10
12.2802770684
20
-6.5508014422
30
0.0000000000
10
12.2813793949
20
-9.8257151510
30
0.0000000000
10
12.2829225603
20
-13.1000443836
30
0.0000000000
10
12.2842453522
20
-15.2827139771
30
0.0000000000
10
12.2849802401
20
-16.3739188688
30
0.0000000000
11
12.2849802401
21
16.3739188688
31
0.0000000000
11
12.2829962294
21
13.1003041242
31
0.0000000000
11
12.2814529876
21
9.8259099455
31
0.0000000000
11
12.2803506064
21
6.5509313303
31
0.0000000000
11
12.2796891515
21
3.2755630875
31
0.0000000000
11
12.2794686621
21
0.0000000358
31
0.0000000000
11
12.2796891515
21
-3.2755630158
31
0.0000000000
11
12.2803506064
21
-6.5509312587
31
0.0000000000
11
12.2814529875
21
-9.8259098740
31
0.0000000000
11
12.2829962294
21
-13.1003040527
31
0.0000000000
11
12.2849802401
21
-16.3739188688
31
0.0000000000
0
SPLINE
5
27E
100
AcDbEntity
8
0
100
AcDbSpline
62
9
6
CONTINUOUS
70
0
71
3
72
21
73
17
74
15
42
0.0000001000
43
0.0000001000
44
0.0000000001
12
-0.1238971534
22
0.2739463654
32
0.0000000000
13
-0.3006610631
23
0.0002021836
33
0.0000000000
40
0.0000000000
40
0.0000000000
40
0.0000000000
40
0.0000000000
40
0.0091178633
40
0.0297823121
40
0.0621959371
40
0.1060527834
40
0.1608483737
40
0.2259261895
40
0.3004961055
40
0.3836477779
40
0.4743634213
40
0.5715311044
40
0.6739588503
40
0.7803895492
40
0.8895165812
40
1.0000000000
40
1.0000000000
40
1.0000000000
40
1.0000000000
10
12.2849802401
20
16.3739188688
30
0.0000000000
10
12.2846036810
20
16.3747514706
30
0.0000000000
10
12.2811445546
20
16.3755054035
30
0.0000000000
10
12.2754990300
20
16.3767823588
30
0.0000000000
10
12.2655937441
20
16.3778537713
30
0.0000000000
10
12.2526146656
20
16.3790303964
30
0.0000000000
10
12.2362009944
20
16.3801125953
30
0.0000000000
10
12.2167546050
20
16.3811466325
30
0.0000000000
10
12.1944407280
20
16.3820922156
30
0.0000000000
10
12.1695580414
20
16.3829439171
30
0.0000000000
10
12.1424043707
20
16.3836874993
30
0.0000000000
10
12.1133160157
20
16.3843139288
30
0.0000000000
10
12.0826498886
20
16.3848148030
30
0.0000000000
10
12.0507832974
20
16.3851837436
30
0.0000000000
10
12.0181080536
20
16.3854160112
30
0.0000000000
10
11.9960986189
20
16.3854776476
30
0.0000000000
10
11.9850259316
20
16.3854850935
30
0.0000000000
11
12.2849802401
21
16.3739188688
31
0.0000000000
11
12.2825564942
21
16.3751997510
31
0.0000000000
11
12.2764736682
21
16.3764648807
31
0.0000000000
11
12.2668065695
21
16.3776986991
31
0.0000000000
11
12.2536740858
21
16.3788860326
31
0.0000000000
11
12.2372377226
21
16.3800122790
31
0.0000000000
11
12.2176996169
21
16.3810635877
31
0.0000000000
11
12.1953000517
21
16.3820270295
31
0.0000000000
11
12.1703145004
21
16.3828907557
31
0.0000000000
11
12.1430502396
21
16.3836441442
31
0.0000000000
11
12.1138425696
21
16.3842779296
31
0.0000000000
11
12.0830506913
21
16.3847843176
31
0.0000000000
11
12.0510532882
21
16.3851570805
31
0.0000000000
11
12.0182438697
21
16.3853916340
31
0.0000000000
11
11.9850259316
21
16.3854850935
31
0.0000000000
0
SPLINE
5
27F
100
AcDbEntity
8
0
100
AcDbSpline
62
9
6
CONTINUOUS
70
0
71
3
72
25
73
21
74
19
42
0.0000001000
43
0.0000001000
44
0.0000000001
12
-0.0652644252
22
-0.6593090205
32
0.0000000000
13
-0.0004462700
23
-0.6625312298
33
0.0000000000
40
0.0000000000
40
0.0000000000
40
0.0000000000
40
0.0000000000
40
0.0168367230
40
0.0394824373
40
0.0678125076
40
0.1016686268
40
0.1408601096
40
0.1851652796
40
0.2343327054
40
0.2880832229
40
0.3461115549
40
0.4080879317
40
0.4736600836
40
0.5424554376
40
0.6140829602
40
0.6881352241
40
0.7641914946
40
0.8418198566
40
0.9205779362
40
1.0000000000
40
1.0000000000
40
1.0000000000
40
1.0000000000
10
12.2950679731
20
17.0362964381
30
0.0000000000
10
12.2947016934
20
17.0325962370
30
0.0000000000
10
12.2940403796
20
17.0239002587
30
0.0000000000
10
12.2931848097
20
17.0089486661
30
0.0000000000
10
12.2923441607
20
16.9902324612
30
0.0000000000
10
12.2915238256
20
16.9678587497
30
0.0000000000
10
12.2907321974
20
16.9419540692
30
0.0000000000
10
12.2899745310
20
16.9126657523
30
0.0000000000
10
12.2892560401
20
16.8801603164
30
0.0000000000
10
12.2885812269
20
16.8446226892
30
0.0000000000
10
12.2879542539
20
16.8062550096
30
0.0000000000
10
12.2873788935
20
16.7652755188
30
0.0000000000
10
12.2868585683
20
16.7219172860
30
0.0000000000
10
12.2863963442
20
16.6764268874
30
0.0000000000
10
12.2859949289
20
16.6290630640
30
0.0000000000
10
12.2856566633
20
16.5800951815
30
0.0000000000
10
12.2853835120
20
16.5298016259
30
0.0000000000
10
12.2851770618
20
16.4784684942
30
0.0000000000
10
12.2850385135
20
16.4263918187
30
0.0000000000
10
12.2849920547
20
16.3914587346
30
0.0000000000
10
12.2849802401
20
16.3739188688
30
0.0000000000
11
12.2950679731
21
17.0362964381
31
0.0000000000
11
12.2941673508
21
17.0251779975
31
0.0000000000
11
12.2932837617
21
17.0102005420
31
0.0000000000
11
12.2924223815
21
16.9914507572
31
0.0000000000
11
12.2915881221
21
16.9690355354
31
0.0000000000
11
12.2907857241
21
16.9430823491
31
0.0000000000
11
12.2900197488
21
16.9137387794
31
0.0000000000
11
12.2892945555
21
16.8811718902
31
0.0000000000
11
12.2886142681
21
16.8455669840
31
0.0000000000
11
12.2879827537
21
16.8071265802
31
0.0000000000
11
12.2874036030
21
16.7660693702
31
0.0000000000
11
12.2868801086
21
16.7226289161
31
0.0000000000
11
12.2864152453
21
16.6770522060
31
0.0000000000
11
12.2860116554
21
16.6295984407
31
0.0000000000
11
12.2856716341
21
16.5805376704
31
0.0000000000
11
12.2853971124
21
16.5301487524
31
0.0000000000
11
12.2851896496
21
16.4787179449
31
0.0000000000
11
12.2850504261
21
16.4265384315
31
0.0000000000
11
12.2849802401
21
16.3739188688
31
0.0000000000
0
SPLINE
5
280
100
AcDbEntity
8
0
100
AcDbSpline
62
9
6
CONTINUOUS
70
0
71
3
72
25
73
21
74
19
42
0.0000001000
43
0.0000001000
44
0.0000000001
12
-0.0654163802
22
-0.9440977439
32
0.0000000000
13
-0.0004462263
23
-0.9463612702
33
0.0000000000
40
0.0000000000
40
0.0000000000
40
0.0000000000
40
0.0000000000
40
0.0168139910
40
0.0394426702
40
0.0677609311
40
0.1016088470
40
0.1407948552
40
0.1850967040
40
0.2342625710
40
0.2880130144
40
0.3460425906
40
0.4080213695
40
0.4735969413
40
0.5423966103
40
0.6140292331
40
0.6880872778
40
0.7641499146
40
0.8417851257
40
0.9205504577
40
1.0000000000
40
1.0000000000
40
1.0000000000
40
1.0000000000
10
11.9951136646
20
17.3317387640
30
0.0000000000
10
11.9947470277
20
17.3264474136
30
0.0000000000
10
11.9940857140
20
17.3140215062
30
0.0000000000
10
11.9932302475
20
17.2926631353
30
0.0000000000
10
11.9923896890
20
17.2659271523
30
0.0000000000
10
11.9915694051
20
17.2339656652
30
0.0000000000
10
11.9907778138
20
17.1969600165
30
0.0000000000
10
11.9900201777
20
17.1551207016
30
0.0000000000
10
11.9893017116
20
17.1086856876
30
0.0000000000
10
11.9886269194
20
17.0579191486
30
0.0000000000
10
11.9879999635
20
17.0031098353
30
0.0000000000
10
11.9874246164
20
16.9445694869
30
0.0000000000
10
11.9869043008
20
16.8826310334
30
0.0000000000
10
11.9864420826
20
16.8176466992
30
0.0000000000
10
11.9860406700
20
16.7499860854
30
0.0000000000
10
11.9857024026
20
16.6800339694
30
0.0000000000
10
11.9854292477
20
16.6081880166
30
0.0000000000
10
11.9852227878
20
16.5348569041
30
0.0000000000
10
11.9850842179
20
16.4604572189
30
0.0000000000
10
11.9850377490
20
16.4105477501
30
0.0000000000
10
11.9850259316
20
16.3854850935
30
0.0000000000
11
11.9951136646
21
17.3317387640
31
0.0000000000
11
11.9942128917
21
17.3158521688
31
0.0000000000
11
11.9933293342
21
17.2944554960
31
0.0000000000
11
11.9924679739
21
17.2676700337
31
0.0000000000
11
11.9916337392
21
17.2356485385
31
0.0000000000
11
11.9908313632
21
17.1985730953
31
0.0000000000
11
11.9900654096
21
17.1566545341
31
0.0000000000
11
11.9893402362
21
17.1101315081
31
0.0000000000
11
11.9886599667
21
17.0592687135
31
0.0000000000
11
11.9880284674
21
17.0043553948
31
0.0000000000
11
11.9874493286
21
16.9457039316
31
0.0000000000
11
11.9869258429
21
16.8836479513
31
0.0000000000
11
11.9864609849
21
16.8185402613
31
0.0000000000
11
11.9860573970
21
16.7507511153
31
0.0000000000
11
11.9857173740
21
16.6806662671
31
0.0000000000
11
11.9854428477
21
16.6086840490
31
0.0000000000
11
11.9852353760
21
16.5352133767
31
0.0000000000
11
11.9850961415
21
16.4606730389
31
0.0000000000
11
11.9850259316
21
16.3854850935
31
0.0000000000
0
SPLINE
5
281
100
AcDbEntity
8
0
100
AcDbSpline
62
9
6
CONTINUOUS
70
0
71
3
72
22
73
18
74
16
42
0.0000001000
43
0.0000001000
44
0.0000000001
12
-0.0014367926
22
0.4669669341
32
0.0000000000
13
-0.4669670641
23
0.0013938929
33
0.0000000000
40
0.0000000000
40
0.0000000000
40
0.0000000000
40
0.0000000000
40
0.0661103950
40
0.1322638465
40
0.1984799564
40
0.2647755480
40
0.3311639304
40
0.3976543265
40
0.4642514862
40
0.5309554997
40
0.5977618156
40
0.6646614594
40
0.7316414387
40
0.7986853157
40
0.8657739208
40
0.9328861770
40
1.0000000000
40
1.0000000000
40
1.0000000000
40
1.0000000000
10
12.2950679731
20
17.0362964381
30
0.0000000000
10
12.2950363108
20
17.0465868942
30
0.0000000000
10
12.2938787456
20
17.0671878076
30
0.0000000000
10
12.2888811195
20
17.0977313608
30
0.0000000000
10
12.2806765578
20
17.1276071729
30
0.0000000000
10
12.2693549173
20
17.1564844337
30
0.0000000000
10
12.2550400990
20
17.1840491163
30
0.0000000000
10
12.2378886827
20
17.2100000778
30
0.0000000000
10
12.2180881773
20
17.2340543094
30
0.0000000000
10
12.1958549475
20
17.2559494819
30
0.0000000000
10
12.1714318188
20
17.2754469268
30
0.0000000000
10
12.1450854475
20
17.2923341746
30
0.0000000000
10
12.1171032714
20
17.3064272520
30
0.0000000000
10
12.0877908771
20
17.3175726552
30
0.0000000000
10
12.0574668054
20
17.3256490027
30
0.0000000000
10
12.0264660894
20
17.3305683172
30
0.0000000000
10
12.0055603128
20
17.3317075808
30
0.0000000000
10
11.9951136646
20
17.3317387640
30
0.0000000000
11
12.2950679731
21
17.0362964381
31
0.0000000000
11
12.2933362829
21
17.0671193462
31
0.0000000000
11
12.2883497877
21
17.0976058529
31
0.0000000000
11
12.2801629100
21
17.1274232281
31
0.0000000000
11
12.2688650014
21
17.1562460447
31
0.0000000000
11
12.2545793674
21
17.1837597301
31
0.0000000000
11
12.2374619215
21
17.2096639995
31
0.0000000000
11
12.2176994837
21
17.2336761334
31
0.0000000000
11
12.1955077414
21
17.2555340631
31
0.0000000000
11
12.1711288955
21
17.2749992307
31
0.0000000000
11
12.1448290171
21
17.2918591931
31
0.0000000000
11
12.1168951432
21
17.3059299405
31
0.0000000000
11
12.0876321447
21
17.3170579044
31
0.0000000000
11
12.0573593983
21
17.3251216342
31
0.0000000000
11
12.0264073010
21
17.3300331221
31
0.0000000000
11
11.9951136646
21
17.3317387640
31
0.0000000000
0
SPLINE
5
282
100
AcDbEntity
8
0
100
AcDbSpline
62
9
6
CONTINUOUS
70
0
71
3
72
25
73
21
74
19
42
0.0000001000
43
0.0000001000
44
0.0000000001
12
0.0652641256
22
0.6593090502
32
0.0000000000
13
0.0004462608
23
0.6625312299
33
0.0000000000
40
0.0000000000
40
0.0000000000
40
0.0000000000
40
0.0000000000
40
0.0168354648
40
0.0394807871
40
0.0678104358
40
0.1016661312
40
0.1408571863
40
0.1851619255
40
0.2343289174
40
0.2880790161
40
0.3461070037
40
0.4080831309
40
0.4736551368
40
0.5424503962
40
0.6140778564
40
0.6881300891
40
0.7641863711
40
0.8418147683
40
0.9205729123
40
1.0000000000
40
1.0000000000
40
1.0000000000
40
1.0000000000
10
-12.2950679731
20
-17.0362964381
30
0.0000000000
10
-12.2947017225
20
-17.0325965133
30
0.0000000000
10
-12.2940404212
20
-17.0239008999
30
0.0000000000
10
-12.2931848666
20
-17.0089497645
30
0.0000000000
10
-12.2923442160
20
-16.9902338333
30
0.0000000000
10
-12.2915238812
20
-16.9678604031
30
0.0000000000
10
-12.2907322519
20
-16.9419560059
30
0.0000000000
10
-12.2899745842
20
-16.9126679746
30
0.0000000000
10
-12.2892560915
20
-16.8801628222
30
0.0000000000
10
-12.2885812757
20
-16.8446254595
30
0.0000000000
10
-12.2879542993
20
-16.8062580036
30
0.0000000000
10
-12.2873789345
20
-16.7652786764
30
0.0000000000
10
-12.2868586044
20
-16.7219205519
30
0.0000000000
10
-12.2863963751
20
-16.6764302202
30
0.0000000000
10
-12.2859949548
20
-16.6290664385
30
0.0000000000
10
-12.2856566840
20
-16.5800985742
30
0.0000000000
10
-12.2853835280
20
-16.5298050151
30
0.0000000000
10
-12.2851770727
20
-16.4784718589
30
0.0000000000
10
-12.2850385174
20
-16.4263940519
30
0.0000000000
10
-12.2849920552
20
-16.3914598441
30
0.0000000000
10
-12.2849802401
20
-16.3739188688
30
0.0000000000
11
-12.2950679731
21
-17.0362964381
31
0.0000000000
11
-12.2941674075
21
-17.0251788292
31
0.0000000000
11
-12.2932838185
21
-17.0102016339
31
0.0000000000
11
-12.2924224381
21
-16.9914521288
31
0.0000000000
11
-12.2915881781
21
-16.9690371879
31
0.0000000000
11
-12.2907857790
21
-16.9430842852
31
0.0000000000
11
-12.2900198024
21
-16.9137410010
31
0.0000000000
11
-12.2892946073
21
-16.8811743994
31
0.0000000000
11
-12.2886143175
21
-16.8455697707
31
0.0000000000
11
-12.2879827996
21
-16.8071295952
31
0.0000000000
11
-12.2874036445
21
-16.7660725507
31
0.0000000000
11
-12.2868801450
21
-16.7226321934
31
0.0000000000
11
-12.2864152764
21
-16.6770555459
31
0.0000000000
11
-12.2860116814
21
-16.6296018221
31
0.0000000000
11
-12.2856716551
21
-16.5805410724
31
0.0000000000
11
-12.2853971284
21
-16.5301521468
31
0.0000000000
11
-12.2851896608
21
-16.4787213161
31
0.0000000000
11
-12.2850504328
21
-16.4265417600
31
0.0000000000
11
-12.2849802401
21
-16.3739188688
31
0.0000000000
0
SPLINE
5
283
100
AcDbEntity
8
0
100
AcDbSpline
62
9
6
CONTINUOUS
70
0
71
3
72
25
73
21
74
19
42
0.0000001000
43
0.0000001000
44
0.0000000001
12
0.0654172135
22
0.9440976861
32
0.0000000000
13
0.0004462007
23
0.9463612701
33
0.0000000000
40
0.0000000000
40
0.0000000000
40
0.0000000000
40
0.0000000000
40
0.0168139800
40
0.0394426574
40
0.0677609164
40
0.1016088282
40
0.1407948368
40
0.1850966849
40
0.2342625483
40
0.2880129895
40
0.3460425649
40
0.4080213419
40
0.4735969130
40
0.5423965836
40
0.6140292037
40
0.6880872429
40
0.7641498830
40
0.8417850915
40
0.9205504175
40
1.0000000000
40
1.0000000000
40
1.0000000000
40
1.0000000000
10
-11.9951136646
20
-17.3317387640
30
0.0000000000
10
-11.9947470233
20
-17.3264474175
30
0.0000000000
10
-11.9940857197
20
-17.3140215134
30
0.0000000000
10
-11.9932302470
20
-17.2926631475
30
0.0000000000
10
-11.9923896915
20
-17.2659271668
30
0.0000000000
10
-11.9915694064
20
-17.2339656815
30
0.0000000000
10
-11.9907778155
20
-17.1969600342
30
0.0000000000
10
-11.9900201793
20
-17.1551207205
30
0.0000000000
10
-11.9893017131
20
-17.1086857086
30
0.0000000000
10
-11.9886269209
20
-17.0579191717
30
0.0000000000
10
-11.9879999649
20
-17.0031098600
30
0.0000000000
10
-11.9874246177
20
-16.9445695126
30
0.0000000000
10
-11.9869043019
20
-16.8826310595
30
0.0000000000
10
-11.9864420834
20
-16.8176467258
30
0.0000000000
10
-11.9860406707
20
-16.7499861141
30
0.0000000000
10
-11.9857024030
20
-16.6800339996
30
0.0000000000
10
-11.9854292482
20
-16.6081880483
30
0.0000000000
10
-11.9852227875
20
-16.5348569375
30
0.0000000000
10
-11.9850842187
20
-16.4604572424
30
0.0000000000
10
-11.9850377484
20
-16.4105477628
30
0.0000000000
10
-11.9850259316
20
-16.3854850935
30
0.0000000000
11
-11.9951136646
21
-17.3317387640
31
0.0000000000
11
-11.9942128936
21
-17.3158521792
31
0.0000000000
11
-11.9933293355
21
-17.2944555080
31
0.0000000000
11
-11.9924679756
21
-17.2676700476
31
0.0000000000
11
-11.9916337408
21
-17.2356485563
31
0.0000000000
11
-11.9908313648
21
-17.1985731126
31
0.0000000000
11
-11.9900654111
21
-17.1566545521
31
0.0000000000
11
-11.9893402378
21
-17.1101315295
31
0.0000000000
11
-11.9886599683
21
-17.0592687369
31
0.0000000000
11
-11.9880284688
21
-17.0043554192
31
0.0000000000
11
-11.9874493299
21
-16.9457039577
31
0.0000000000
11
-11.9869258440
21
-16.8836479780
31
0.0000000000
11
-11.9864609857
21
-16.8185402866
31
0.0000000000
11
-11.9860573976
21
-16.7507511431
31
0.0000000000
11
-11.9857173745
21
-16.6806663001
31
0.0000000000
11
-11.9854428480
21
-16.6086840789
31
0.0000000000
11
-11.9852353760
21
-16.5352134091
31
0.0000000000
11
-11.9850961418
21
-16.4606730769
31
0.0000000000
11
-11.9850259316
21
-16.3854850935
31
0.0000000000
0
SPLINE
5
284
100
AcDbEntity
8
0
100
AcDbSpline
62
9
6
CONTINUOUS
70
0
71
3
72
22
73
18
74
16
42
0.0000001000
43
0.0000001000
44
0.0000000001
12
0.0014367926
22
-0.4669669341
32
0.0000000000
13
0.4669670641
23
-0.0013938929
33
0.0000000000
40
0.0000000000
40
0.0000000000
40
0.0000000000
40
0.0000000000
40
0.0661103930
40
0.1322638428
40
0.1984799513
40
0.2647755418
40
0.3311639233
40
0.3976543190
40
0.4642514785
40
0.5309554922
40
0.5977618086
40
0.6646614531
40
0.7316414334
40
0.7986853115
40
0.8657739179
40
0.9328861755
40
1.0000000000
40
1.0000000000
40
1.0000000000
40
1.0000000000
10
-12.2950679731
20
-17.0362964381
30
0.0000000000
10
-12.2950363108
20
-17.0465868939
30
0.0000000000
10
-12.2938787457
20
-17.0671878067
30
0.0000000000
10
-12.2888811198
20
-17.0977313591
30
0.0000000000
10
-12.2806765585
20
-17.1276071707
30
0.0000000000
10
-12.2693549185
20
-17.1564844311
30
0.0000000000
10
-12.2550401006
20
-17.1840491135
30
0.0000000000
10
-12.2378886848
20
-17.2100000750
30
0.0000000000
10
-12.2180881797
20
-17.2340543068
30
0.0000000000
10
-12.1958549501
20
-17.2559494796
30
0.0000000000
10
-12.1714318214
20
-17.2754469249
30
0.0000000000
10
-12.1450854501
20
-17.2923341731
30
0.0000000000
10
-12.1171032737
20
-17.3064272510
30
0.0000000000
10
-12.0877908790
20
-17.3175726546
30
0.0000000000
10
-12.0574668067
20
-17.3256490025
30
0.0000000000
10
-12.0264660900
20
-17.3305683171
30
0.0000000000
10
-12.0055603131
20
-17.3317075808
30
0.0000000000
10
-11.9951136646
20
-17.3317387640
30
0.0000000000
11
-12.2950679731
21
-17.0362964381
31
0.0000000000
11
-12.2933362830
21
-17.0671193452
31
0.0000000000
11
-12.2883497880
21
-17.0976058512
31
0.0000000000
11
-12.2801629107
21
-17.1274232259
31
0.0000000000
11
-12.2688650026
21
-17.1562460421
31
0.0000000000
11
-12.2545793690
21
-17.1837597273
31
0.0000000000
11
-12.2374619236
21
-17.2096639967
31
0.0000000000
11
-12.2176994861
21
-17.2336761308
31
0.0000000000
11
-12.1955077440
21
-17.2555340608
31
0.0000000000
11
-12.1711288982
21
-17.2749992288
31
0.0000000000
11
-12.1448290196
21
-17.2918591917
31
0.0000000000
11
-12.1168951455
21
-17.3059299395
31
0.0000000000
11
-12.0876321466
21
-17.3170579038
31
0.0000000000
11
-12.0573593996
21
-17.3251216339
31
0.0000000000
11
-12.0264073017
21
-17.3300331220
31
0.0000000000
11
-11.9951136646
21
-17.3317387640
31
0.0000000000
0
SPLINE
5
285
100
AcDbEntity
8
0
100
AcDbSpline
62
9
6
CONTINUOUS
70
0
71
3
72
22
73
18
74
16
42
0.0000001000
43
0.0000001000
44
0.0000000001
12
-0.0519509207
22
-0.2947180794
32
0.0000000000
13
0.2947153729
23
-0.0519662719
33
0.0000000000
40
0.0000000000
40
0.0000000000
40
0.0000000000
40
0.0000000000
40
0.1045678545
40
0.2079616468
40
0.3090532877
40
0.4067398384
40
0.4999555648
40
0.5876835907
40
0.6689670302
40
0.7429194841
40
0.8087348069
40
0.8656960768
40
0.9131837786
40
0.9506834234
40
0.9777937091
40
0.9942417763
40
1.0000000000
40
1.0000000000
40
1.0000000000
40
1.0000000000
10
-29.4467693015
20
-17.0362964381
30
0.0000000000
10
-29.4485801003
20
-17.0465691172
30
0.0000000000
10
-29.4521631037
20
-17.0670023610
30
0.0000000000
10
-29.4574328933
20
-17.0973779262
30
0.0000000000
10
-29.4625298094
20
-17.1270867520
30
0.0000000000
10
-29.4673982501
20
-17.1558045440
30
0.0000000000
10
-29.4719852784
20
-17.1832180262
30
0.0000000000
10
-29.4762405982
20
-17.2090274461
30
0.0000000000
10
-29.4801192146
20
-17.2329529367
30
0.0000000000
10
-29.4835750560
20
-17.2547273239
30
0.0000000000
10
-29.4865838392
20
-17.2741320485
30
0.0000000000
10
-29.4890741039
20
-17.2908966914
30
0.0000000000
10
-29.4911356815
20
-17.3050090777
30
0.0000000000
10
-29.4924350563
20
-17.3158489525
30
0.0000000000
10
-29.4937427182
20
-17.3244481478
30
0.0000000000
10
-29.4934657475
20
-17.3283424250
30
0.0000000000
10
-29.4941937119
20
-17.3316390195
30
0.0000000000
10
-29.4936280329
20
-17.3317387640
30
0.0000000000
11
-29.4467693015
21
-17.0362964381
31
0.0000000000
11
-29.4521739853
21
-17.0671193475
31
0.0000000000
11
-29.4574625396
21
-17.0976058552
31
0.0000000000
11
-29.4625772450
21
-17.1274232313
31
0.0000000000
11
-29.4674622796
21
-17.1562460484
31
0.0000000000
11
-29.4720643280
21
-17.1837597340
31
0.0000000000
11
-29.4763331635
21
-17.2096640034
31
0.0000000000
11
-29.4802221958
21
-17.2336761370
31
0.0000000000
11
-29.4836889802
21
-17.2555340662
31
0.0000000000
11
-29.4866956800
21
-17.2749992333
31
0.0000000000
11
-29.4892094801
21
-17.2918591951
31
0.0000000000
11
-29.4912029448
21
-17.3059299418
31
0.0000000000
11
-29.4926543174
21
-17.3170579052
31
0.0000000000
11
-29.4935477578
21
-17.3251216346
31
0.0000000000
11
-29.4938735147
21
-17.3300331222
31
0.0000000000
11
-29.4936280329
21
-17.3317387640
31
0.0000000000
0
SPLINE
5
286
100
AcDbEntity
8
0
100
AcDbSpline
62
9
6
CONTINUOUS
70
0
71
3
72
25
73
21
74
19
42
0.0000001000
43
0.0000001000
44
0.0000000001
12
0.0366384083
22
-0.9494578996
32
0.0000000000
13
0.9357282993
23
-0.1650006846
33
0.0000000000
40
0.0000000000
40
0.0000000000
40
0.0000000000
40
0.0000000000
40
0.0555443987
40
0.1110986549
40
0.1666536522
40
0.2222086395
40
0.2777639197
40
0.3333196874
40
0.3888757554
40
0.4444321265
40
0.4999888728
40
0.5555459668
40
0.6111033777
40
0.6666612040
40
0.7222194242
40
0.7777777838
40
0.8333363898
40
0.8888954828
40
0.9444542362
40
1.0000000000
40
1.0000000000
40
1.0000000000
40
1.0000000000
10
-30.0246951377
20
-16.3739188688
30
0.0000000000
10
-30.0240167849
20
-16.3914978915
30
0.0000000000
10
-30.0213330505
20
-16.4266223050
30
0.0000000000
10
-30.0133495597
20
-16.4788460486
30
0.0000000000
10
-30.0014525343
20
-16.5303260975
30
0.0000000000
10
-29.9857099589
20
-16.5807627386
30
0.0000000000
10
-29.9662113638
20
-16.6298701358
30
0.0000000000
10
-29.9430675104
20
-16.6773688118
30
0.0000000000
10
-29.9164099428
20
-16.7229887017
30
0.0000000000
10
-29.8863902109
20
-16.7664702888
30
0.0000000000
10
-29.8531789641
20
-16.8075662783
30
0.0000000000
10
-29.8169650093
20
-16.8460429159
30
0.0000000000
10
-29.7779542328
20
-16.8816813451
30
0.0000000000
10
-29.7363684200
20
-16.9142788400
30
0.0000000000
10
-29.6924440919
20
-16.9436499192
30
0.0000000000
10
-29.6464309854
20
-16.9696274638
30
0.0000000000
10
-29.5985910281
20
-16.9920636906
30
0.0000000000
10
-29.5491953404
20
-17.0108309626
30
0.0000000000
10
-29.4985328137
20
-17.0258209079
30
0.0000000000
10
-29.4640945492
20
-17.0332414084
30
0.0000000000
10
-29.4467693015
20
-17.0362964381
30
0.0000000000
11
-30.0246951377
21
-16.3739188688
31
0.0000000000
11
-30.0206738027
21
-16.4265417600
31
0.0000000000
11
-30.0126974341
21
-16.4787213161
31
0.0000000000
11
-30.0008116217
21
-16.5301521468
31
0.0000000000
11
-29.9850840011
21
-16.5805410724
31
0.0000000000
11
-29.9656039062
21
-16.6296018221
31
0.0000000000
11
-29.9424819630
21
-16.6770555459
31
0.0000000000
11
-29.9158496615
21
-16.7226321934
31
0.0000000000
11
-29.8858583954
21
-16.7660725507
31
0.0000000000
11
-29.8526786211
21
-16.8071295952
31
0.0000000000
11
-29.8164989846
21
-16.8455697707
31
0.0000000000
11
-29.7775252060
21
-16.8811743994
31
0.0000000000
11
-29.7359788088
21
-16.9137410010
31
0.0000000000
11
-29.6920960347
21
-16.9430842852
31
0.0000000000
11
-29.6461266209
21
-16.9690371879
31
0.0000000000
11
-29.5983319004
21
-16.9914521288
31
0.0000000000
11
-29.5489834476
21
-17.0102016339
31
0.0000000000
11
-29.4983626683
21
-17.0251788292
31
0.0000000000
11
-29.4467693015
21
-17.0362964381
31
0.0000000000
0
SPLINE
5
287
100
AcDbEntity
8
0
100
AcDbSpline
62
9
6
CONTINUOUS
70
0
71
3
72
17
73
13
74
11
42
0.0000001000
43
0.0000001000
44
0.0000000001
12
-1.2628726004
22
-32.7315213072
32
0.0000000000
13
1.2628726018
23
-32.7315213071
33
0.0000000000
40
0.0000000000
40
0.0000000000
40
0.0000000000
40
0.0000000000
40
0.0999999983
40
0.2000000012
40
0.3000000021
40
0.4000000011
40
0.4999999989
40
0.5999999967
40
0.6999999957
40
0.7999999966
40
0.8999999995
40
1.0000000000
40
1.0000000000
40
1.0000000000
40
1.0000000000
10
-30.0246951377
20
16.3739188688
30
0.0000000000
10
-30.0667908903
20
15.2828681771
30
0.0000000000
10
-30.1425677308
20
13.1004327007
30
0.0000000000
10
-30.2309808099
20
9.8260077219
30
0.0000000000
10
-30.2941368282
20
6.5509962094
30
0.0000000000
10
-30.3320319263
20
3.2755955988
30
0.0000000000
10
-30.3446638793
20
0.0000000358
30
0.0000000000
10
-30.3320319269
20
-3.2755955272
30
0.0000000000
10
-30.2941368293
20
-6.5509961378
30
0.0000000000
10
-30.2309808115
20
-9.8260076504
30
0.0000000000
10
-30.1425677323
20
-13.1004326530
30
0.0000000000
10
-30.0667908912
20
-15.2828681533
30
0.0000000000
10
-30.0246951377
20
-16.3739188688
30
0.0000000000
11
-30.0246951377
21
16.3739188688
31
0.0000000000
11
-30.1383590323
21
13.1003041242
31
0.0000000000
11
-30.2267713002
21
9.8259099455
31
0.0000000000
11
-30.2899266753
21
6.5509313303
31
0.0000000000
11
-30.3278214023
21
3.2755630875
31
0.0000000000
11
-30.3404532284
21
0.0000000358
31
0.0000000000
11
-30.3278214029
21
-3.2755630158
31
0.0000000000
11
-30.2899266764
21
-6.5509312587
31
0.0000000000
11
-30.2267713018
21
-9.8259098740
31
0.0000000000
11
-30.1383590345
21
-13.1003040527
31
0.0000000000
11
-30.0246951377
21
-16.3739188688
31
0.0000000000
0
SPLINE
5
288
100
AcDbEntity
8
0
100
AcDbSpline
62
9
6
CONTINUOUS
70
0
71
3
72
25
73
21
74
19
42
0.0000001000
43
0.0000001000
44
0.0000000001
12
-0.9357284301
22
-0.1649999427
32
0.0000000000
13
-0.0366391620
23
-0.9494578705
33
0.0000000000
40
0.0000000000
40
0.0000000000
40
0.0000000000
40
0.0000000000
40
0.0555492904
40
0.1111081296
40
0.1666673125
40
0.2222260141
40
0.2777844650
40
0.3333427811
40
0.3889007088
40
0.4444582109
40
0.5000153365
40
0.5555720505
40
0.6111283298
40
0.6666842960
40
0.7222399673
40
0.7777951555
40
0.8333500465
40
0.8889049539
40
0.9444591250
40
1.0000000000
40
1.0000000000
40
1.0000000000
40
1.0000000000
10
-29.4467693015
20
17.0362964381
30
0.0000000000
10
-29.4640956516
20
17.0332412282
30
0.0000000000
10
-29.4985350181
20
17.0258203755
30
0.0000000000
10
-29.5491986038
20
17.0108298781
30
0.0000000000
10
-29.5985942743
20
16.9920623157
30
0.0000000000
10
-29.6464341992
20
16.9696258138
30
0.0000000000
10
-29.6924472469
20
16.9436479819
30
0.0000000000
10
-29.7363714944
20
16.9142766175
30
0.0000000000
10
-29.7779572000
20
16.8816788373
30
0.0000000000
10
-29.8169678288
20
16.8460401408
30
0.0000000000
10
-29.8531815837
20
16.8075632756
30
0.0000000000
10
-29.8863925776
20
16.7664671196
30
0.0000000000
10
-29.9164120245
20
16.7229854228
30
0.0000000000
10
-29.9430692948
20
16.6773654659
30
0.0000000000
10
-29.9662128546
20
16.6298667492
30
0.0000000000
10
-29.9857111571
20
16.5807593334
30
0.0000000000
10
-30.0014534555
20
16.5303226979
30
0.0000000000
10
-30.0133501912
20
16.4788426715
30
0.0000000000
10
-30.0213332790
20
16.4266200509
30
0.0000000000
10
-30.0240168139
20
16.3914967758
30
0.0000000000
10
-30.0246951377
20
16.3739188688
30
0.0000000000
11
-29.4467693015
21
17.0362964381
31
0.0000000000
11
-29.4983659169
21
17.0251779975
31
0.0000000000
11
-29.5489867042
21
17.0102005420
31
0.0000000000
11
-29.5983351421
21
16.9914507572
31
0.0000000000
11
-29.6461298312
21
16.9690355354
31
0.0000000000
11
-29.6920991846
21
16.9430823491
31
0.0000000000
11
-29.7359818773
21
16.9137387794
31
0.0000000000
11
-29.7775281714
21
16.8811718902
31
0.0000000000
11
-29.8165018138
21
16.8455669840
31
0.0000000000
11
-29.8526812516
21
16.8071265802
31
0.0000000000
11
-29.8858607724
21
16.7660693702
31
0.0000000000
11
-29.9158517447
21
16.7226289161
31
0.0000000000
11
-29.9424837473
21
16.6770522060
31
0.0000000000
11
-29.9656053964
21
16.6295984407
31
0.0000000000
11
-29.9850852022
21
16.5805376704
31
0.0000000000
11
-30.0008125403
21
16.5301487524
31
0.0000000000
11
-30.0126980737
21
16.4787179449
31
0.0000000000
11
-30.0206741861
21
16.4265384315
31
0.0000000000
11
-30.0246951377
21
16.3739188688
31
0.0000000000
0
SPLINE
5
289
100
AcDbEntity
8
0
100
AcDbSpline
62
9
6
CONTINUOUS
70
0
71
3
72
22
73
18
74
16
42
0.0000001000
43
0.0000001000
44
0.0000000001
12
-0.0519509208
22
0.2947180793
32
0.0000000000
13
0.2947153729
23
0.0519662719
33
0.0000000000
40
0.0000000000
40
0.0000000000
40
0.0000000000
40
0.0000000000
40
0.1045678501
40
0.2079616388
40
0.3090532770
40
0.4067398260
40
0.4999555517
40
0.5876835778
40
0.6689670181
40
0.7429194735
40
0.8087347982
40
0.8656960702
40
0.9131837740
40
0.9506834207
40
0.9777937079
40
0.9942417760
40
1.0000000000
40
1.0000000000
40
1.0000000000
40
1.0000000000
10
-29.4467693015
20
17.0362964381
30
0.0000000000
10
-29.4485801002
20
17.0465691167
30
0.0000000000
10
-29.4521631035
20
17.0670023598
30
0.0000000000
10
-29.4574328929
20
17.0973779239
30
0.0000000000
10
-29.4625298089
20
17.1270867490
30
0.0000000000
10
-29.4673982495
20
17.1558045404
30
0.0000000000
10
-29.4719852777
20
17.1832180224
30
0.0000000000
10
-29.4762405976
20
17.2090274424
30
0.0000000000
10
-29.4801192141
20
17.2329529332
30
0.0000000000
10
-29.4835750556
20
17.2547273208
30
0.0000000000
10
-29.4865838389
20
17.2741320459
30
0.0000000000
10
-29.4890741037
20
17.2908966894
30
0.0000000000
10
-29.4911356813
20
17.3050090763
30
0.0000000000
10
-29.4924350563
20
17.3158489517
30
0.0000000000
10
-29.4937427182
20
17.3244481473
30
0.0000000000
10
-29.4934657475
20
17.3283424248
30
0.0000000000
10
-29.4941937120
20
17.3316390195
30
0.0000000000
10
-29.4936280329
20
17.3317387640
30
0.0000000000
11
-29.4467693015
21
17.0362964381
31
0.0000000000
11
-29.4521739851
21
17.0671193462
31
0.0000000000
11
-29.4574625392
21
17.0976058529
31
0.0000000000
11
-29.4625772445
21
17.1274232281
31
0.0000000000
11
-29.4674622790
21
17.1562460447
31
0.0000000000
11
-29.4720643274
21
17.1837597301
31
0.0000000000
11
-29.4763331629
21
17.2096639995
31
0.0000000000
11
-29.4802221953
21
17.2336761334
31
0.0000000000
11
-29.4836889797
21
17.2555340631
31
0.0000000000
11
-29.4866956796
21
17.2749992307
31
0.0000000000
11
-29.4892094798
21
17.2918591931
31
0.0000000000
11
-29.4912029446
21
17.3059299405
31
0.0000000000
11
-29.4926543174
21
17.3170579044
31
0.0000000000
11
-29.4935477577
21
17.3251216342
31
0.0000000000
11
-29.4938735147
21
17.3300331221
31
0.0000000000
11
-29.4936280329
21
17.3317387640
31
0.0000000000
0
SPLINE
5
28A
100
AcDbEntity
8
0
100
AcDbSpline
62
9
6
CONTINUOUS
70
0
71
3
72
9
73
5
74
3
42
0.0000001000
43
0.0000001000
44
0.0000000001
12
-0.0196952754
22
0.8717037843
32
-0.0000000000
13
-0.0173604488
23
0.8439564014
33
0.1855788369
40
0.0000000000
40
0.0000000000
40
0.0000000000
40
0.0000000000
40
0.8550294962
40
1.0000000000
40
1.0000000000
40
1.0000000000
40
1.0000000000
10
-30.5267801434
20
-9.6000000000
30
-4.0000000000
10
-30.5323934905
20
-9.3515558508
30
-4.0000000000
10
-30.5385849172
20
-9.0663982935
30
-3.9735469381
10
-30.5444262329
20
-8.7843885915
30
-3.9161208340
10
-30.5452651506
20
-8.7436056633
30
-3.9071530148
11
-30.5267801434
21
-9.6000000000
31
-4.0000000000
11
-30.5427252379
21
-8.8662209254
31
-3.9321200731
11
-30.5452651506
21
-8.7436056633
31
-3.9071530148
0
SPLINE
5
28B
100
AcDbEntity
8
0
100
AcDbSpline
62
9
6
CONTINUOUS
70
0
71
3
72
8
73
4
74
2
42
0.0000001000
43
0.0000001000
44
0.0000000001
12
-0.0001195517
22
0.0058118566
32
0.0012779778
13
-0.0001194446
23
0.0058104896
33
0.0012866770
40
0.0000000000
40
0.0000000000
40
0.0000000000
40
0.0000000000
40
1.0000000000
40
1.0000000000
40
1.0000000000
40
1.0000000000
10
-30.5452651506
20
-8.7436056633
30
-3.9071530148
10
-30.5453050012
20
-8.7416683778
30
-3.9067270222
10
-30.5453448339
20
-8.7397313182
30
-3.9062995793
10
-30.5453846488
20
-8.7377944884
30
-3.9058706869
11
-30.5452651506
21
-8.7436056633
31
-3.9071530148
11
-30.5453846488
21
-8.7377944884
31
-3.9058706869
0
SPLINE
5
28C
100
AcDbEntity
8
0
100
AcDbSpline
62
9
6
CONTINUOUS
70
0
71
3
72
9
73
5
74
3
42
0.0000001000
43
0.0000001000
44
0.0000000001
12
-0.0235189571
22
1.1441009622
32
0.2533501473
13
-0.0183779963
23
1.0215166807
33
0.5724364171
40
0.0000000000
40
0.0000000000
40
0.0000000000
40
0.0000000000
40
0.5185795766
40
1.0000000000
40
1.0000000000
40
1.0000000000
40
1.0000000000
10
-30.5453846488
20
-8.7377944884
30
-3.9058706869
10
-30.5494501324
20
-8.5400253575
30
-3.8620766162
10
-30.5569301715
20
-8.1632757196
30
-3.7484850270
10
-30.5634864525
20
-7.8098590776
30
-3.5821846467
10
-30.5664356334
20
-7.6459327466
30
-3.4903237859
11
-30.5453846488
21
-8.7377944884
31
-3.9058706869
11
-30.5569597020
21
-8.1555508429
31
-3.7300893598
11
-30.5664356334
21
-7.6459327466
31
-3.4903237859
0
SPLINE
5
28D
100
AcDbEntity
8
0
100
AcDbSpline
62
9
6
CONTINUOUS
70
0
71
3
72
10
73
6
74
4
42
0.0000001000
43
0.0000001000
44
0.0000000001
12
-0.0222876160
22
1.2388277362
32
0.6942129523
13
-0.0141670130
23
0.9188076633
33
1.0806280998
40
0.0000000000
40
0.0000000000
40
0.0000000000
40
0.0000000000
40
0.1229877987
40
0.6429468457
40
1.0000000000
40
1.0000000000
40
1.0000000000
40
1.0000000000
10
-30.5664356334
20
-7.6459327466
30
-3.4903237859
10
-30.5673493350
20
-7.5951458478
30
-3.4618638783
10
-30.5720219757
20
-7.3327646530
30
-3.3071618899
10
-30.5784531453
20
-6.9510539525
30
-3.0189277650
10
-30.5830032509
20
-6.6627330470
30
-2.7207478357
10
-30.5846893765
20
-6.5533786555
30
-2.5921339452
11
-30.5664356334
21
-7.6459327466
31
-3.4903237859
11
-30.5691172956
21
-7.4953859153
31
-3.4015584008
11
-30.5791176461
21
-6.9051961718
31
-2.9560162935
11
-30.5846893765
21
-6.5533786555
31
-2.5921339452
0
SPLINE
5
28E
100
AcDbEntity
8
0
100
AcDbSpline
62
9
6
CONTINUOUS
70
0
71
3
72
16
73
12
74
10
42
0.0000001000
43
0.0000001000
44
0.0000000001
12
-0.0561834901
22
3.6438041765
32
4.2855510903
13
0.0561793920
23
-3.6435465455
33
4.2852667111
40
0.0000000000
40
0.0000000000
40
0.0000000000
40
0.0000000000
40
0.0410777241
40
0.1721886000
40
0.3032994758
40
0.4344103517
40
0.5655212275
40
0.6966321034
40
0.8277429792
40
0.9588538551
40
1.0000000000
40
1.0000000000
40
1.0000000000
40
1.0000000000
10
-30.5846893765
20
-6.5533786555
30
-2.5921339452
10
-30.5854586731
20
-6.5034855946
30
-2.5334537167
10
-30.5885382521
20
-6.3013502621
30
-2.2811814831
10
-30.5929332786
20
-5.9979946269
30
-1.7912205126
10
-30.5965824700
20
-5.7315686061
30
-1.1039368891
10
-30.5984003677
20
-5.5940902256
30
-0.3685822140
10
-30.5984009201
20
-5.5940482444
30
0.3681678570
10
-30.5965837757
20
-5.7314703904
30
1.1035834733
10
-30.5929360376
20
-5.9977990672
30
1.7908352734
10
-30.5885400084
20
-6.3012315289
30
2.2810145222
10
-30.5854596524
20
-6.5034230420
30
2.5333858552
10
-30.5846891306
20
-6.5533956734
30
2.5921599235
11
-30.5846893765
21
-6.5533786555
31
-2.5921339452
11
-30.5868947547
21
-6.4087443325
31
-2.4116150740
11
-30.5925915319
21
-6.0191578664
31
-1.7825738734
11
-30.5962772543
21
-5.7530598795
31
-1.0959250472
11
-30.5980974768
21
-5.6169962921
31
-0.3683496480
11
-30.5980979706
21
-5.6169589322
31
0.3679454479
11
-30.5962786767
21
-5.7529548122
31
1.0955561706
11
-30.5925940463
21
-6.0189803443
31
1.7822172218
11
-30.5868978962
21
-6.4085360199
31
2.4113393920
11
-30.5846891306
21
-6.5533956734
31
2.5921599235
0
SPLINE
5
28F
100
AcDbEntity
8
0
100
AcDbSpline
62
9
6
CONTINUOUS
70
0
71
3
72
10
73
6
74
4
42
0.0000001000
43
0.0000001000
44
0.0000000001
12
0.0141651706
22
-0.9186902281
32
1.0804946783
13
0.0222852391
23
-1.2387012523
33
0.6941602303
40
0.0000000000
40
0.0000000000
40
0.0000000000
40
0.0000000000
40
0.3568021892
40
0.8767909342
40
1.0000000000
40
1.0000000000
40
1.0000000000
40
1.0000000000
10
-30.5846891306
20
-6.5533956734
30
2.5921599235
10
-30.5830044093
20
-6.6626592349
30
2.7206675457
10
-30.5784564093
20
-6.9508504426
30
3.0187345679
10
-30.5720249744
20
-7.3325915571
30
3.3070459681
10
-30.5673510883
20
-7.5950489290
30
3.4618116024
10
-30.5664358405
20
-7.6459220037
30
3.4903205469
11
-30.5846891306
21
-6.5533956734
31
2.5921599235
11
-30.5791221993
21
-6.9049159634
31
2.9557608218
11
-30.5691220077
21
-7.4951187663
31
3.4013930958
11
-30.5664358405
21
-7.6459220037
31
3.4903205469
0
SPLINE
5
290
100
AcDbEntity
8
0
100
AcDbSpline
62
9
6
CONTINUOUS
70
0
71
3
72
9
73
5
74
3
42
0.0000001000
43
0.0000001000
44
0.0000000001
12
0.0183769175
22
-1.0214613639
32
0.5724203913
13
0.0235224214
23
-1.1442728899
33
0.2533984143
40
0.0000000000
40
0.0000000000
40
0.0000000000
40
0.0000000000
40
0.4811650278
40
1.0000000000
40
1.0000000000
40
1.0000000000
40
1.0000000000
10
-30.5664358405
20
-7.6459220037
30
3.4903205469
10
-30.5634883972
20
-7.8097524989
30
3.5821301047
10
-30.5569331504
20
-8.1631182869
30
3.7484196678
10
-30.5494533248
20
-8.5398696541
30
3.8620405496
10
-30.5453852399
20
-8.7377659185
30
3.9058645360
11
-30.5664358405
21
-7.6459220037
31
3.4903205469
11
-30.5569660279
21
-8.1552212416
31
3.7299617075
11
-30.5453852399
21
-8.7377659185
31
3.9058645360
0
SPLINE
5
291
100
AcDbEntity
8
0
100
AcDbSpline
62
9
6
CONTINUOUS
70
0
71
3
72
8
73
4
74
2
42
0.0000001000
43
0.0000001000
44
0.0000000001
12
0.0001206098
22
-0.0058671911
32
0.0012992853
13
0.0001207194
23
-0.0058686006
33
0.0012904185
40
0.0000000000
40
0.0000000000
40
0.0000000000
40
0.0000000000
40
1.0000000000
40
1.0000000000
40
1.0000000000
40
1.0000000000
10
-30.5453852399
20
-8.7377659185
30
3.9058645360
10
-30.5453450366
20
-8.7397216488
30
3.9062976311
10
-30.5453048150
20
-8.7416776160
30
3.9067292488
10
-30.5452645753
20
-8.7436338162
30
3.9071593883
11
-30.5453852399
21
-8.7377659185
31
3.9058645360
11
-30.5452645753
21
-8.7436338162
31
3.9071593883
0
SPLINE
5
292
100
AcDbEntity
8
0
100
AcDbSpline
62
9
6
CONTINUOUS
70
0
71
3
72
9
73
5
74
3
42
0.0000001000
43
0.0000001000
44
0.0000000001
12
0.0173563156
22
-0.8437524959
32
0.1855286941
13
0.0196983631
23
-0.8718404448
33
-0.0000000000
40
0.0000000000
40
0.0000000000
40
0.0000000000
40
0.0000000000
40
0.1446232613
40
1.0000000000
40
1.0000000000
40
1.0000000000
40
1.0000000000
10
-30.5452645753
20
-8.7436338162
30
3.9071593883
10
-30.5444278663
20
-8.7843092287
30
3.9161033099
10
-30.5385879220
20
-9.0662567733
30
3.9735269485
10
-30.5323966505
20
-9.3514159879
30
4.0000000000
10
-30.5267801434
20
-9.6000000000
30
4.0000000000
11
-30.5452645753
21
-8.7436338162
31
3.9071593883
11
-30.5427313344
21
-8.8659287505
31
3.9320655387
11
-30.5267801434
21
-9.6000000000
31
4.0000000000
0
SPLINE
5
293
100
AcDbEntity
8
0
100
AcDbSpline
62
9
6
CONTINUOUS
70
0
71
3
72
11
73
7
74
5
42
0.0000001000
43
0.0000001000
44
0.0000000001
12
0.0330306635
22
-1.4619218978
32
0.0000000000
13
0.0279126069
23
-1.0855571356
33
0.9593506150
40
0.0000000000
40
0.0000000000
40
0.0000000000
40
0.0000000000
40
0.2711742862
40
0.5423485725
40
0.8135228587
40
1.0000000000
40
1.0000000000
40
1.0000000000
40
1.0000000000
10
-30.5267801434
20
-9.6000000000
30
-2.0000000000
10
-30.5237944545
20
-9.7321452091
30
-2.0000000000
10
-30.5178255869
20
-9.9909378244
30
-1.9744066934
10
-30.5087377759
20
-10.3699864950
30
-1.8599134388
10
-30.5009943195
20
-10.6816265490
30
-1.6932954482
10
-30.4965217901
20
-10.8570977614
30
-1.5581130548
10
-30.4947867690
20
-10.9245749585
30
-1.4984807347
11
-30.5267801434
21
-9.6000000000
31
-2.0000000000
11
-30.5178031686
21
-9.9894144490
31
-1.9617228109
11
-30.5088118566
21
-10.3647876960
31
-1.8479988582
11
-30.5002313132
21
-10.7107442808
31
-1.6632038789
11
-30.4947867690
21
-10.9245749585
31
-1.4984807347
0
SPLINE
5
294
100
AcDbEntity
8
0
100
AcDbSpline
62
9
6
CONTINUOUS
70
0
71
3
72
17
73
13
74
11
42
0.0000001000
43
0.0000001000
44
0.0000000001
12
0.0652762264
22
-2.5386762923
32
2.2435306099
13
-0.0652720948
23
2.5385178441
33
2.2433722157
40
0.0000000000
40
0.0000000000
40
0.0000000000
40
0.0000000000
40
0.0362171382
40
0.1521733088
40
0.2681294795
40
0.3840856502
40
0.5000418208
40
0.6159979915
40
0.7319541621
40
0.8479103328
40
0.9638665035
40
1.0000000000
40
1.0000000000
40
1.0000000000
40
1.0000000000
10
-30.4947867690
20
-10.9245749585
30
-1.4984807347
10
-30.4939987297
20
-10.9552228218
30
-1.4713959820
10
-30.4907633695
20
-11.0805101851
30
-1.3536501469
10
-30.4856894364
20
-11.2735243344
30
-1.1185081508
10
-30.4807003536
20
-11.4596275548
30
-0.7704294176
10
-30.4775869153
20
-11.5742307778
30
-0.3926731551
10
-30.4765292287
20
-11.6129032376
30
0.0001917065
10
-30.4775889507
20
-11.5741562182
30
0.3930413591
10
-30.4807040042
20
-11.4594924638
30
0.7707507777
10
-30.4856942562
20
-11.2733429187
30
1.1187762259
10
-30.4907670924
20
-11.0803671112
30
1.3537984538
10
-30.4940006529
20
-10.9551479962
30
1.4714619136
10
-30.4947868226
20
-10.9245728210
30
1.4984822077
11
-30.4947867690
21
-10.9245749585
31
-1.4984807347
11
-30.4924788520
21
-11.0139675860
31
-1.4144594959
11
-30.4859550677
21
-11.2628057658
31
-1.1113401753
11
-30.4810129610
21
-11.4477108885
31
-0.7654831627
11
-30.4779295406
21
-11.5615756506
31
-0.3901550552
11
-30.4768821302
21
-11.5999999911
31
0.0001891717
11
-30.4779315060
21
-11.5615034290
31
0.3905179868
11
-30.4810165373
21
-11.4475781653
31
0.7658034493
11
-30.4859597977
21
-11.2626273408
31
1.1116070913
11
-30.4924842433
21
-11.0137596172
31
1.4146673619
11
-30.4947868226
21
-10.9245728210
31
1.4984822077
0
SPLINE
5
295
100
AcDbEntity
8
0
100
AcDbSpline
62
9
6
CONTINUOUS
70
0
71
3
72
11
73
7
74
5
42
0.0000001000
43
0.0000001000
44
0.0000000001
12
-0.0279162996
22
1.0857017077
32
0.9594705238
13
-0.0330104742
23
1.4610283305
33
0.0000000000
40
0.0000000000
40
0.0000000000
40
0.0000000000
40
0.0000000000
40
0.1866362383
40
0.4577574922
40
0.7288787461
40
1.0000000000
40
1.0000000000
40
1.0000000000
40
1.0000000000
10
-30.4947868226
20
-10.9245728210
30
1.4984822077
10
-30.4965235537
20
-10.8570290601
30
1.5581728641
10
-30.5009979121
20
-10.6814845486
30
1.6933924677
10
-30.5087429652
20
-10.3697744425
30
1.8600030488
10
-30.5178317638
20
-9.9906744037
30
1.9744544556
10
-30.5237968630
20
-9.7320386110
30
2.0000000000
10
-30.5267801434
20
-9.6000000000
30
2.0000000000
11
-30.4947868226
21
-10.9245728210
31
1.4984822077
11
-30.5002369042
21
-10.7105224968
31
1.6633519724
11
-30.5088173001
21
-10.3645645552
31
1.8480911885
11
-30.5178082388
21
-9.9891987953
31
1.9617656072
11
-30.5267801434
21
-9.6000000000
31
2.0000000000
0
SPLINE
5
296
100
AcDbEntity
8
0
100
AcDbSpline
62
9
6
CONTINUOUS
70
0
71
3
72
10
73
6
74
4
42
0.0000001000
43
0.0000001000
44
0.0000000001
12
-0.0203040593
22
0.8986482803
32
0.0000000000
13
-0.0165389802
23
0.8041320783
33
-0.3832519274
40
0.0000000000
40
0.0000000000
40
0.0000000000
40
0.0000000000
40
0.4411074317
40
0.8822148634
40
1.0000000000
40
1.0000000000
40
1.0000000000
40
1.0000000000
10
-30.5267801434
20
-9.6000000000
30
2.0000000000
10
-30.5297655672
20
-9.4678665217
30
2.0000000000
10
-30.5354906069
20
-9.2090931195
30
1.9744109770
10
-30.5415664144
20
-8.9226728477
30
1.8879037340
10
-30.5447040573
20
-8.7709356373
30
1.8204288247
10
-30.5453534059
20
-8.7393640350
30
1.8053816978
11
-30.5267801434
21
-9.6000000000
31
2.0000000000
11
-30.5353993889
21
-9.2106154148
31
1.9617287388
11
-30.5433700948
21
-8.8352625308
31
1.8480196436
11
-30.5453534059
21
-8.7393640350
31
1.8053816978
0
SPLINE
5
297
100
AcDbEntity
8
0
100
AcDbSpline
62
9
6
CONTINUOUS
70
0
71
3
72
12
73
8
74
6
42
0.0000001000
43
0.0000001000
44
0.0000000001
12
-0.0337001909
22
1.6385172611
32
-0.7809225813
13
-0.0070854278
23
0.3937484031
33
-1.7715314538
40
0.0000000000
40
0.0000000000
40
0.0000000000
40
0.0000000000
40
0.1586762833
40
0.3751577597
40
0.5916392362
40
0.8081207126
40
1.0000000000
40
1.0000000000
40
1.0000000000
40
1.0000000000
10
-30.5453534059
20
-8.7393640350
30
1.8053816978
10
-30.5471358796
20
-8.6526994253
30
1.7640770669
10
-30.5511381509
20
-8.4550425599
30
1.6516880353
10
-30.5565793360
20
-8.1769320707
30
1.4236224419
10
-30.5613129030
20
-7.9264934619
30
1.1185384609
10
-30.5646043873
20
-7.7474241434
30
0.7836222563
10
-30.5659515404
20
-7.6728072820
30
0.5471499364
10
-30.5664047227
20
-7.6476232276
30
0.4338432054
11
-30.5453534059
21
-8.7393640350
31
1.8053816978
11
-30.5504227180
21
-8.4893097521
31
1.6632399626
11
-30.5563727959
21
-8.1860727763
31
1.4144998431
11
-30.5610941554
21
-7.9372132477
31
1.1113686231
11
-30.5645080441
21
-7.7522927724
31
0.7654919995
11
-30.5664047227
21
-7.6476232276
31
0.4338432054
0
SPLINE
5
298
100
AcDbEntity
8
0
100
AcDbSpline
62
9
6
CONTINUOUS
70
0
71
3
72
11
73
7
74
5
42
0.0000001000
43
0.0000001000
44
0.0000000001
12
-0.0034149042
22
0.1897716173
32
-0.8538101653
13
0.0034146606
23
-0.1897579573
33
-0.8537652432
40
0.0000000000
40
0.0000000000
40
0.0000000000
40
0.0000000000
40
0.0510459508
40
0.5002134124
40
0.9493808741
40
1.0000000000
40
1.0000000000
40
1.0000000000
40
1.0000000000
10
-30.5664047227
20
-7.6476232276
30
0.4338432054
10
-30.5664628283
20
-7.6443942034
30
0.4193153549
10
-30.5670032546
20
-7.6143431972
30
0.2765995015
10
-30.5674893200
20
-7.5870968829
30
-0.0001922448
10
-30.5670025318
20
-7.6143835694
30
-0.2768482596
10
-30.5664623608
20
-7.6444201761
30
-0.4194322360
10
-30.5664047451
20
-7.6476219700
30
-0.4338378528
11
-30.5664047227
21
-7.6476232276
31
0.4338432054
11
-30.5665701666
21
-7.6384243419
31
0.3901550175
11
-30.5672591318
21
-7.6000000090
31
-0.0001895727
11
-30.5665688683
21
-7.6384965678
31
-0.3905179706
11
-30.5664047451
21
-7.6476219700
31
-0.4338378528
0
SPLINE
5
299
100
AcDbEntity
8
0
100
AcDbSpline
62
9
6
CONTINUOUS
70
0
71
3
72
12
73
8
74
6
42
0.0000001000
43
0.0000001000
44
0.0000000001
12
0.0070854240
22
-0.3937479450
32
-1.7715637061
13
0.0337010720
23
-1.6385584903
33
-0.7809338795
40
0.0000000000
40
0.0000000000
40
0.0000000000
40
0.0000000000
40
0.1920713975
40
0.4085375430
40
0.6250036886
40
0.8414698342
40
1.0000000000
40
1.0000000000
40
1.0000000000
40
1.0000000000
10
-30.5664047451
20
-7.6476219700
30
-0.4338378528
10
-30.5659511093
20
-7.6728312094
30
-0.5472600917
10
-30.5646029945
20
-7.7475013346
30
-0.7838293343
10
-30.5613095668
20
-7.9266726103
30
-1.1188029871
10
-30.5565753653
20
-8.1771387784
30
-1.4238272555
10
-30.5511349467
20
-8.4552022886
30
-1.6517875287
10
-30.5471343323
20
-8.6527749744
30
-1.7641147134
10
-30.5453534535
20
-8.7393619575
30
-1.8053819059
11
-30.5664047451
21
-7.6476219700
31
-0.4338378528
11
-30.5645056367
21
-7.7524247286
31
-0.7658104313
11
-30.5610908624
21
-7.9373895424
31
-1.1116323431
11
-30.5563688442
21
-8.1862778971
31
-1.4147048512
11
-30.5504183334
21
-8.4895292098
31
-1.6633864927
11
-30.5453534535
21
-8.7393619575
31
-1.8053819059
0
SPLINE
5
29A
100
AcDbEntity
8
0
100
AcDbSpline
62
9
6
CONTINUOUS
70
0
71
3
72
10
73
6
74
4
42
0.0000001000
43
0.0000001000
44
0.0000000001
12
0.0165427870
22
-0.8043163730
32
-0.3833356632
13
0.0202932515
23
-0.8981699318
33
0.0000000000
40
0.0000000000
40
0.0000000000
40
0.0000000000
40
0.0000000000
40
0.1180275508
40
0.5590137754
40
1.0000000000
40
1.0000000000
40
1.0000000000
40
1.0000000000
10
-30.5453534535
20
-8.7393619575
30
-1.8053819059
10
-30.5447026186
20
-8.7710057880
30
-1.8204632957
10
-30.5415633824
20
-8.9228179331
30
-1.8879591151
10
-30.5354848831
20
-9.2093564150
30
-1.9744587439
10
-30.5297631581
20
-9.4679731442
30
-2.0000000000
10
-30.5267801434
20
-9.6000000000
30
-2.0000000000
11
-30.5453534535
21
-8.7393619575
31
-1.8053819059
11
-30.5433654777
21
-8.8354845757
31
-1.8481115134
11
-30.5353947191
21
-9.2108308356
31
-1.9617714855
11
-30.5267801434
21
-9.6000000000
31
-2.0000000000
0
SPLINE
5
29B
100
AcDbEntity
8
0
100
AcDbSpline
62
9
6
CONTINUOUS
70
0
71
3
72
8
73
4
74
2
42
0.0000001000
43
0.0000001000
44
0.0000000001
12
0.0051885810
22
-0.2296441978
32
0.0000000000
13
0.0052550849
23
-0.2272108833
33
-0.0128849679
40
0.0000000000
40
0.0000000000
40
0.0000000000
40
0.0000000000
40
1.0000000000
40
1.0000000000
40
1.0000000000
40
1.0000000000
10
-30.5267801434
20
-9.6000000000
30
4.0000000000
10
-30.5250506163
20
-9.6765480659
30
4.0000000000
10
-30.5233106140
20
-9.7526565409
30
3.9978528673
10
-30.5215589190
20
-9.8283935020
30
3.9935578780
11
-30.5267801434
21
-9.6000000000
31
4.0000000000
11
-30.5215589190
21
-9.8283935020
31
3.9935578780
0
SPLINE
5
29C
100
AcDbEntity
8
0
100
AcDbSpline
62
9
6
CONTINUOUS
70
0
71
3
72
8
73
4
74
2
42
0.0000001000
43
0.0000001000
44
0.0000000001
12
0.0002070433
22
-0.0089518021
32
-0.0005076503
13
0.0002071524
23
-0.0089483545
33
-0.0005276546
40
0.0000000000
40
0.0000000000
40
0.0000000000
40
0.0000000000
40
1.0000000000
40
1.0000000000
40
1.0000000000
40
1.0000000000
10
-30.5215589190
20
-9.8283935020
30
3.9935578780
10
-30.5214899046
20
-9.8313774360
30
3.9933886613
10
-30.5214208720
20
-9.8343607934
30
3.9932161105
10
-30.5213518212
20
-9.8373435782
30
3.9930402256
11
-30.5215589190
21
-9.8283935020
31
3.9935578780
11
-30.5213518212
21
-9.8373435782
31
3.9930402256
0
SPLINE
5
29D
100
AcDbEntity
8
0
100
AcDbSpline
62
9
6
CONTINUOUS
70
0
71
3
72
9
73
5
74
3
42
0.0000001000
43
0.0000001000
44
0.0000000001
12
0.0256735617
22
-1.1090200195
32
-0.0653952074
13
0.0270245417
23
-1.0514695263
33
-0.3676568193
40
0.0000000000
40
0.0000000000
40
0.0000000000
40
0.0000000000
40
0.4519358294
40
1.0000000000
40
1.0000000000
40
1.0000000000
40
1.0000000000
10
-30.5213518212
20
-9.8373435782
30
3.9930402256
10
-30.5174842204
20
-10.0044122057
30
3.9831887465
10
-30.5087998579
20
-10.3701112503
30
3.9382461039
10
-30.4997715251
20
-10.7305982361
30
3.8420540277
10
-30.4948344641
20
-10.9226891608
30
3.7748875178
11
-30.5213518212
21
-9.8373435782
31
3.9930402256
11
-30.5095644167
21
-10.3338926656
31
3.9320988741
11
-30.4948344641
21
-10.9226891608
31
3.7748875178
0
SPLINE
5
29E
100
AcDbEntity
8
0
100
AcDbSpline
62
9
6
CONTINUOUS
70
0
71
3
72
8
73
4
74
2
42
0.0000001000
43
0.0000001000
44
0.0000000001
12
0.0001458850
22
-0.0056760880
32
-0.0019847008
13
0.0001458783
23
-0.0056728874
33
-0.0019931077
40
0.0000000000
40
0.0000000000
40
0.0000000000
40
0.0000000000
40
1.0000000000
40
1.0000000000
40
1.0000000000
40
1.0000000000
10
-30.4948344641
20
-10.9226891608
30
3.7748875178
10
-30.4947858357
20
-10.9245811901
30
3.7742259508
10
-30.4947372084
20
-10.9264726879
30
3.7735629823
10
-30.4946885823
20
-10.9283636503
30
3.7728986130
11
-30.4948344641
21
-10.9226891608
31
3.7748875178
11
-30.4946885823
21
-10.9283636503
31
3.7728986130
0
SPLINE
5
29F
100
AcDbEntity
8
0
100
AcDbSpline
62
9
6
CONTINUOUS
70
0
71
3
72
10
73
6
74
4
42
0.0000001000
43
0.0000001000
44
0.0000000001
12
0.0300672127
22
-1.1692481335
32
-0.4108026954
13
0.0279691543
23
-0.9890415057
33
-0.7485533972
40
0.0000000000
40
0.0000000000
40
0.0000000000
40
0.0000000000
40
0.1000669682
40
0.6975653228
40
1.0000000000
40
1.0000000000
40
1.0000000000
40
1.0000000000
10
-30.4946885823
20
-10.9283636503
30
3.7728986130
10
-30.4936856707
20
-10.9673646889
30
3.7591960196
10
-30.4866978906
20
-11.2376529821
30
3.6595218708
10
-30.4767822916
20
-11.6069781769
30
3.4756783246
10
-30.4681988602
20
-11.9141525314
30
3.2648186413
10
-30.4653792462
20
-12.0138593475
30
3.1893558063
11
-30.4946885823
21
-10.9283636503
31
3.7728986130
11
-30.4916823132
21
-11.0446508283
31
3.7300112579
11
-30.4740064096
21
-11.7048470006
31
3.4014142800
11
-30.4653792462
21
-12.0138593475
31
3.1893558063
0
SPLINE
5
2A0
100
AcDbEntity
8
0
100
AcDbSpline
62
9
6
CONTINUOUS
70
0
71
3
72
8
73
4
74
2
42
0.0000001000
43
0.0000001000
44
0.0000000001
12
0.0002201564
22
-0.0077851401
32
-0.0058921623
13
0.0002198909
23
-0.0077707843
33
-0.0059108327
40
0.0000000000
40
0.0000000000
40
0.0000000000
40
0.0000000000
40
1.0000000000
40
1.0000000000
40
1.0000000000
40
1.0000000000
10
-30.4653792462
20
-12.0138593475
30
3.1893558063
10
-30.4653058607
20
-12.0164543942
30
3.1873917522
10
-30.4652325193
20
-12.0190470542
30
3.1854245817
10
-30.4651592223
20
-12.0216373157
30
3.1834543042
11
-30.4653792462
21
-12.0138593475
31
3.1893558063
11
-30.4651592223
21
-12.0216373157
31
3.1834543042
0
SPLINE
5
2A1
100
AcDbEntity
8
0
100
AcDbSpline
62
9
6
CONTINUOUS
70
0
71
3
72
10
73
6
74
4
42
0.0000001000
43
0.0000001000
44
0.0000000001
12
0.0379207340
22
-1.3400909951
32
-1.0193377412
13
0.0249477326
23
-0.8084709541
33
-1.4758105968
40
0.0000000000
40
0.0000000000
40
0.0000000000
40
0.0000000000
40
0.2115686977
40
0.6517335564
40
1.0000000000
40
1.0000000000
40
1.0000000000
40
1.0000000000
10
-30.4651592223
20
-12.0216373157
30
3.1834543042
10
-30.4624849422
20
-12.1161444179
30
3.1115676513
10
-30.4544292493
20
-12.3974358488
30
2.8773808033
10
-30.4432621604
20
-12.7740974316
30
2.4644151242
10
-30.4358851022
20
-13.0154241749
30
2.0906966285
10
-30.4329889495
20
-13.1092786095
30
1.9193715259
11
-30.4651592223
21
-12.0216373157
31
3.1834543042
11
-30.4573367489
21
-12.2949990815
31
2.9558382822
11
-30.4426808161
21
-12.7913688247
31
2.4114653273
11
-30.4329889495
21
-13.1092786095
31
1.9193715259
0
SPLINE
5
2A2
100
AcDbEntity
8
0
100
AcDbSpline
62
9
6
CONTINUOUS
70
0
71
3
72
14
73
10
74
8
42
0.0000001000
43
0.0000001000
44
0.0000000001
12
0.0594970493
22
-1.9280965151
32
-3.5196134803
13
-0.0595034763
23
1.9283117927
33
-3.5198634348
40
0.0000000000
40
0.0000000000
40
0.0000000000
40
0.0000000000
40
0.0385339628
40
0.2230996733
40
0.4076653839
40
0.5922310944
40
0.7767968049
40
0.9613625155
40
1.0000000000
40
1.0000000000
40
1.0000000000
40
1.0000000000
10
-30.4329889495
20
-13.1092786095
30
1.9193715259
10
-30.4322247305
20
-13.1340443426
30
1.8741633076
10
-30.4279462539
20
-13.2722924830
30
1.6099038421
10
-30.4217685358
20
-13.4684321762
30
1.1039279559
10
-30.4173732599
20
-13.6059100032
30
0.3685801004
10
-30.4173719250
20
-13.6059516725
30
-0.3681679268
10
-30.4217654015
20
-13.4685304268
30
-1.1035733563
10
-30.4279424617
20
-13.2724144396
30
-1.6096509632
10
-30.4322229540
20
-13.1341017667
30
-1.8740550588
10
-30.4329893089
20
-13.1092667277
30
-1.9193879484
11
-30.4329889495
21
-13.1092786095
31
1.9193715259
11
-30.4307735454
21
-13.1808789381
31
1.7824999384
11
-30.4224344344
21
-13.4469451771
31
1.0959072974
11
-30.4181055834
21
-13.5830039769
31
0.3683467384
11
-30.4181043936
21
-13.5830411867
31
-0.3679441605
11
-30.4224310961
21
-13.4470506344
31
-1.0955370448
11
-30.4307679569
21
-13.1810590452
31
-1.7821380740
11
-30.4329893089
21
-13.1092667277
31
-1.9193879484
0
SPLINE
5
2A3
100
AcDbEntity
8
0
100
AcDbSpline
62
9
6
CONTINUOUS
70
0
71
3
72
10
73
6
74
4
42
0.0000001000
43
0.0000001000
44
0.0000000001
12
-0.0249490335
22
0.8085160483
32
-1.4758329464
13
-0.0379230481
23
1.3401700541
33
-1.0194169359
40
0.0000000000
40
0.0000000000
40
0.0000000000
40
0.0000000000
40
0.3480390027
40
0.7882284547
40
1.0000000000
40
1.0000000000
40
1.0000000000
40
1.0000000000
10
-30.4329893089
20
-13.1092667277
30
-1.9193879484
10
-30.4358837211
20
-13.0154683547
30
-2.0906037574
10
-30.4432589036
20
-12.7742037061
30
-2.4642615470
10
-30.4544226786
20
-12.3976626069
30
-2.8771746177
10
-30.4624815146
20
-12.1162645214
30
-3.1114694331
10
-30.4651585221
20
-12.0216612269
30
-3.1834305997
11
-30.4329893089
21
-13.1092667277
31
-1.9193879484
11
-30.4426743929
21
-12.7915821424
31
-2.4111829936
11
-30.4573284826
21
-12.2952846964
31
-2.9555778462
11
-30.4651585221
21
-12.0216612269
31
-3.1834305997
0
SPLINE
5
2A4
100
AcDbEntity
8
0
100
AcDbSpline
62
9
6
CONTINUOUS
70
0
71
3
72
8
73
4
74
2
42
0.0000001000
43
0.0000001000
44
0.0000000001
12
-0.0002211180
22
0.0078141320
32
-0.0059439162
13
-0.0002213863
23
0.0078286449
33
-0.0059250433
40
0.0000000000
40
0.0000000000
40
0.0000000000
40
0.0000000000
40
1.0000000000
40
1.0000000000
40
1.0000000000
40
1.0000000000
10
-30.4651585221
20
-12.0216612269
30
-3.1834305997
10
-30.4652322281
20
-12.0190565162
30
-3.1854119051
10
-30.4653059790
20
-12.0164493806
30
-3.1873900698
10
-30.4653797745
20
-12.0138398323
30
-3.1893650842
11
-30.4651585221
21
-12.0216612269
31
-3.1834305997
11
-30.4653797745
21
-12.0138398323
31
-3.1893650842
0
SPLINE
5
2A5
100
AcDbEntity
8
0
100
AcDbSpline
62
9
6
CONTINUOUS
70
0
71
3
72
10
73
6
74
4
42
0.0000001000
43
0.0000001000
44
0.0000000001
12
-0.0279729507
22
0.9891770929
32
-0.7486502644
13
-0.0300674085
23
1.1692587456
33
-0.4107941502
40
0.0000000000
40
0.0000000000
40
0.0000000000
40
0.0000000000
40
0.3021286456
40
0.8996196068
40
1.0000000000
40
1.0000000000
40
1.0000000000
40
1.0000000000
10
-30.4653797745
20
-12.0138398323
30
-3.1893650842
10
-30.4681969177
20
-11.9142202539
30
-3.2647613144
10
-30.4767782941
20
-11.6071231644
30
-3.4755912105
10
-30.4866925365
20
-11.2378568025
30
-3.6594365427
10
-30.4936833022
20
-10.9674567426
30
-3.7591632942
10
-30.4946893616
20
-10.9283331917
30
-3.7729085203
11
-30.4653797745
21
-12.0138398323
31
-3.1893650842
11
-30.4739989496
21
-11.7051177662
31
-3.4012467112
11
-30.4916737148
21
-11.0449815821
31
-3.7298831386
11
-30.4946893616
21
-10.9283331917
31
-3.7729085203
0
SPLINE
5
2A6
100
AcDbEntity
8
0
100
AcDbSpline
62
9
6
CONTINUOUS
70
0
71
3
72
8
73
4
74
2
42
0.0000001000
43
0.0000001000
44
0.0000000001
12
-0.0001444235
22
0.0056163279
32
-0.0019731772
13
-0.0001444303
23
0.0056194736
33
-0.0019649415
40
0.0000000000
40
0.0000000000
40
0.0000000000
40
0.0000000000
40
1.0000000000
40
1.0000000000
40
1.0000000000
40
1.0000000000
10
-30.4946893616
20
-10.9283331917
30
-3.7729085203
10
-30.4947375027
20
-10.9264610824
30
-3.7735662460
10
-30.4947856451
20
-10.9245884471
30
-3.7742225996
10
-30.4948337886
20
-10.9227152892
30
-3.7748775801
11
-30.4946893616
21
-10.9283331917
31
-3.7729085203
11
-30.4948337886
21
-10.9227152892
31
-3.7748775801
0
SPLINE
5
2A7
100
AcDbEntity
8
0
100
AcDbSpline
62
9
6
CONTINUOUS
70
0
71
3
72
9
73
5
74
3
42
0.0000001000
43
0.0000001000
44
0.0000000001
12
-0.0270191274
22
1.0512560686
32
-0.3675890041
13
-0.0256805592
23
1.1093207995
33
-0.0654160861
40
0.0000000000
40
0.0000000000
40
0.0000000000
40
0.0000000000
40
0.5478750392
40
1.0000000000
40
1.0000000000
40
1.0000000000
40
1.0000000000
10
-30.4948337886
20
-10.9227152892
30
-3.7748775801
10
-30.4997681570
20
-10.7307296359
30
-3.8420085268
10
-30.5087954194
20
-10.3702932376
30
-3.9382116492
10
-30.5174813136
20
-10.0045374803
30
-3.9831807892
10
-30.5213515875
20
-9.8373536059
30
-3.9930395376
11
-30.4948337886
21
-10.9227152892
31
-3.7748775801
11
-30.5095573130
21
-10.3341847278
31
-3.9320443519
11
-30.5213515875
21
-9.8373536059
31
-3.9930395376
0
SPLINE
5
2A8
100
AcDbEntity
8
0
100
AcDbSpline
62
9
6
CONTINUOUS
70
0
71
3
72
8
73
4
74
2
42
0.0000001000
43
0.0000001000
44
0.0000000001
12
-0.0002075204
22
0.0089642406
32
-0.0005286167
13
-0.0002074117
23
0.0089677348
33
-0.0005085436
40
0.0000000000
40
0.0000000000
40
0.0000000000
40
0.0000000000
40
1.0000000000
40
1.0000000000
40
1.0000000000
40
1.0000000000
10
-30.5213515875
20
-9.8373536059
30
-3.9930395376
10
-30.5214207610
20
-9.8343655257
30
-3.9932157432
10
-30.5214899163
20
-9.8313768652
30
-3.9933886033
10
-30.5215590536
20
-9.8283876203
30
-3.9935581178
11
-30.5213515875
21
-9.8373536059
31
-3.9930395376
11
-30.5215590536
21
-9.8283876203
31
-3.9935581178
0
SPLINE
5
2A9
100
AcDbEntity
8
0
100
AcDbSpline
62
9
6
CONTINUOUS
70
0
71
3
72
8
73
4
74
2
42
0.0000001000
43
0.0000001000
44
0.0000000001
12
-0.0052547053
22
0.2271945301
32
-0.0128837806
13
-0.0051886762
23
0.2296484100
33
0.0000000000
40
0.0000000000
40
0.0000000000
40
0.0000000000
40
0.0000000000
40
1.0000000000
40
1.0000000000
40
1.0000000000
40
1.0000000000
10
-30.5215590536
20
-9.8283876203
30
-3.9935581178
10
-30.5233106220
20
-9.7526561103
30
-3.9978527113
10
-30.5250505846
20
-9.6765494700
30
-4.0000000000
10
-30.5267801434
20
-9.6000000000
30
-4.0000000000
11
-30.5215590536
21
-9.8283876203
31
-3.9935581178
11
-30.5267801434
21
-9.6000000000
31
-4.0000000000
0
SPLINE
5
2AA
100
AcDbEntity
8
0
100
AcDbSpline
62
9
6
CONTINUOUS
70
0
71
3
72
22
73
18
74
16
42
0.0000001000
43
0.0000001000
44
0.0000000001
12
-0.0519509208
22
0.2947180793
32
0.0000000000
13
0.2947153729
23
0.0519662719
33
0.0000000000
40
0.0000000000
40
0.0000000000
40
0.0000000000
40
0.0000000000
40
0.1045678501
40
0.2079616388
40
0.3090532770
40
0.4067398260
40
0.4999555517
40
0.5876835778
40
0.6689670181
40
0.7429194735
40
0.8087347982
40
0.8656960702
40
0.9131837740
40
0.9506834207
40
0.9777937079
40
0.9942417760
40
1.0000000000
40
1.0000000000
40
1.0000000000
40
1.0000000000
10
-29.4467693015
20
17.0362964381
30
0.0000000000
10
-29.4485801002
20
17.0465691167
30
0.0000000000
10
-29.4521631035
20
17.0670023598
30
0.0000000000
10
-29.4574328929
20
17.0973779239
30
0.0000000000
10
-29.4625298089
20
17.1270867490
30
0.0000000000
10
-29.4673982495
20
17.1558045404
30
0.0000000000
10
-29.4719852777
20
17.1832180224
30
0.0000000000
10
-29.4762405976
20
17.2090274424
30
0.0000000000
10
-29.4801192141
20
17.2329529332
30
0.0000000000
10
-29.4835750556
20
17.2547273208
30
0.0000000000
10
-29.4865838389
20
17.2741320459
30
0.0000000000
10
-29.4890741037
20
17.2908966894
30
0.0000000000
10
-29.4911356813
20
17.3050090763
30
0.0000000000
10
-29.4924350563
20
17.3158489517
30
0.0000000000
10
-29.4937427182
20
17.3244481473
30
0.0000000000
10
-29.4934657475
20
17.3283424248
30
0.0000000000
10
-29.4941937120
20
17.3316390195
30
0.0000000000
10
-29.4936280329
20
17.3317387640
30
0.0000000000
11
-29.4467693015
21
17.0362964381
31
0.0000000000
11
-29.4521739851
21
17.0671193462
31
0.0000000000
11
-29.4574625392
21
17.0976058529
31
0.0000000000
11
-29.4625772445
21
17.1274232281
31
0.0000000000
11
-29.4674622790
21
17.1562460447
31
0.0000000000
11
-29.4720643274
21
17.1837597301
31
0.0000000000
11
-29.4763331629
21
17.2096639995
31
0.0000000000
11
-29.4802221953
21
17.2336761334
31
0.0000000000
11
-29.4836889797
21
17.2555340631
31
0.0000000000
11
-29.4866956796
21
17.2749992307
31
0.0000000000
11
-29.4892094798
21
17.2918591931
31
0.0000000000
11
-29.4912029446
21
17.3059299405
31
0.0000000000
11
-29.4926543174
21
17.3170579044
31
0.0000000000
11
-29.4935477577
21
17.3251216342
31
0.0000000000
11
-29.4938735147
21
17.3300331221
31
0.0000000000
11
-29.4936280329
21
17.3317387640
31
0.0000000000
0
SPLINE
5
2AB
100
AcDbEntity
8
0
100
AcDbSpline
62
9
6
CONTINUOUS
70
0
71
3
72
22
73
18
74
16
42
0.0000001000
43
0.0000001000
44
0.0000000001
12
-0.0519509207
22
-0.2947180794
32
0.0000000000
13
0.2947153729
23
-0.0519662719
33
0.0000000000
40
0.0000000000
40
0.0000000000
40
0.0000000000
40
0.0000000000
40
0.1045678545
40
0.2079616468
40
0.3090532877
40
0.4067398384
40
0.4999555648
40
0.5876835907
40
0.6689670302
40
0.7429194841
40
0.8087348069
40
0.8656960768
40
0.9131837786
40
0.9506834234
40
0.9777937091
40
0.9942417763
40
1.0000000000
40
1.0000000000
40
1.0000000000
40
1.0000000000
10
-29.4467693015
20
-17.0362964381
30
0.0000000000
10
-29.4485801003
20
-17.0465691172
30
0.0000000000
10
-29.4521631037
20
-17.0670023610
30
0.0000000000
10
-29.4574328933
20
-17.0973779262
30
0.0000000000
10
-29.4625298094
20
-17.1270867520
30
0.0000000000
10
-29.4673982501
20
-17.1558045440
30
0.0000000000
10
-29.4719852784
20
-17.1832180262
30
0.0000000000
10
-29.4762405982
20
-17.2090274461
30
0.0000000000
10
-29.4801192146
20
-17.2329529367
30
0.0000000000
10
-29.4835750560
20
-17.2547273239
30
0.0000000000
10
-29.4865838392
20
-17.2741320485
30
0.0000000000
10
-29.4890741039
20
-17.2908966914
30
0.0000000000
10
-29.4911356815
20
-17.3050090777
30
0.0000000000
10
-29.4924350563
20
-17.3158489525
30
0.0000000000
10
-29.4937427182
20
-17.3244481478
30
0.0000000000
10
-29.4934657475
20
-17.3283424250
30
0.0000000000
10
-29.4941937119
20
-17.3316390195
30
0.0000000000
10
-29.4936280329
20
-17.3317387640
30
0.0000000000
11
-29.4467693015
21
-17.0362964381
31
0.0000000000
11
-29.4521739853
21
-17.0671193475
31
0.0000000000
11
-29.4574625396
21
-17.0976058552
31
0.0000000000
11
-29.4625772450
21
-17.1274232313
31
0.0000000000
11
-29.4674622796
21
-17.1562460484
31
0.0000000000
11
-29.4720643280
21
-17.1837597340
31
0.0000000000
11
-29.4763331635
21
-17.2096640034
31
0.0000000000
11
-29.4802221958
21
-17.2336761370
31
0.0000000000
11
-29.4836889802
21
-17.2555340662
31
0.0000000000
11
-29.4866956800
21
-17.2749992333
31
0.0000000000
11
-29.4892094801
21
-17.2918591951
31
0.0000000000
11
-29.4912029448
21
-17.3059299418
31
0.0000000000
11
-29.4926543174
21
-17.3170579052
31
0.0000000000
11
-29.4935477578
21
-17.3251216346
31
0.0000000000
11
-29.4938735147
21
-17.3300331222
31
0.0000000000
11
-29.4936280329
21
-17.3317387640
31
0.0000000000
0
SPLINE
5
2AC
100
AcDbEntity
8
0
100
AcDbSpline
62
9
6
CONTINUOUS
70
0
71
3
72
25
73
21
74
19
42
0.0000001000
43
0.0000001000
44
0.0000000001
12
0.0366384083
22
-0.9494578996
32
0.0000000000
13
0.9357282993
23
-0.1650006846
33
0.0000000000
40
0.0000000000
40
0.0000000000
40
0.0000000000
40
0.0000000000
40
0.0555443987
40
0.1110986549
40
0.1666536522
40
0.2222086395
40
0.2777639197
40
0.3333196874
40
0.3888757554
40
0.4444321265
40
0.4999888728
40
0.5555459668
40
0.6111033777
40
0.6666612040
40
0.7222194242
40
0.7777777838
40
0.8333363898
40
0.8888954828
40
0.9444542362
40
1.0000000000
40
1.0000000000
40
1.0000000000
40
1.0000000000
10
-30.0246951377
20
-16.3739188688
30
0.0000000000
10
-30.0240167849
20
-16.3914978915
30
0.0000000000
10
-30.0213330505
20
-16.4266223050
30
0.0000000000
10
-30.0133495597
20
-16.4788460486
30
0.0000000000
10
-30.0014525343
20
-16.5303260975
30
0.0000000000
10
-29.9857099589
20
-16.5807627386
30
0.0000000000
10
-29.9662113638
20
-16.6298701358
30
0.0000000000
10
-29.9430675104
20
-16.6773688118
30
0.0000000000
10
-29.9164099428
20
-16.7229887017
30
0.0000000000
10
-29.8863902109
20
-16.7664702888
30
0.0000000000
10
-29.8531789641
20
-16.8075662783
30
0.0000000000
10
-29.8169650093
20
-16.8460429159
30
0.0000000000
10
-29.7779542328
20
-16.8816813451
30
0.0000000000
10
-29.7363684200
20
-16.9142788400
30
0.0000000000
10
-29.6924440919
20
-16.9436499192
30
0.0000000000
10
-29.6464309854
20
-16.9696274638
30
0.0000000000
10
-29.5985910281
20
-16.9920636906
30
0.0000000000
10
-29.5491953404
20
-17.0108309626
30
0.0000000000
10
-29.4985328137
20
-17.0258209079
30
0.0000000000
10
-29.4640945492
20
-17.0332414084
30
0.0000000000
10
-29.4467693015
20
-17.0362964381
30
0.0000000000
11
-30.0246951377
21
-16.3739188688
31
0.0000000000
11
-30.0206738027
21
-16.4265417600
31
0.0000000000
11
-30.0126974341
21
-16.4787213161
31
0.0000000000
11
-30.0008116217
21
-16.5301521468
31
0.0000000000
11
-29.9850840011
21
-16.5805410724
31
0.0000000000
11
-29.9656039062
21
-16.6296018221
31
0.0000000000
11
-29.9424819630
21
-16.6770555459
31
0.0000000000
11
-29.9158496615
21
-16.7226321934
31
0.0000000000
11
-29.8858583954
21
-16.7660725507
31
0.0000000000
11
-29.8526786211
21
-16.8071295952
31
0.0000000000
11
-29.8164989846
21
-16.8455697707
31
0.0000000000
11
-29.7775252060
21
-16.8811743994
31
0.0000000000
11
-29.7359788088
21
-16.9137410010
31
0.0000000000
11
-29.6920960347
21
-16.9430842852
31
0.0000000000
11
-29.6461266209
21
-16.9690371879
31
0.0000000000
11
-29.5983319004
21
-16.9914521288
31
0.0000000000
11
-29.5489834476
21
-17.0102016339
31
0.0000000000
11
-29.4983626683
21
-17.0251788292
31
0.0000000000
11
-29.4467693015
21
-17.0362964381
31
0.0000000000
0
SPLINE
5
2AD
100
AcDbEntity
8
0
100
AcDbSpline
62
9
6
CONTINUOUS
70
0
71
3
72
17
73
13
74
11
42
0.0000001000
43
0.0000001000
44
0.0000000001
12
-1.2628726004
22
-32.7315213072
32
0.0000000000
13
1.2628726018
23
-32.7315213071
33
0.0000000000
40
0.0000000000
40
0.0000000000
40
0.0000000000
40
0.0000000000
40
0.0999999983
40
0.2000000012
40
0.3000000021
40
0.4000000011
40
0.4999999989
40
0.5999999967
40
0.6999999957
40
0.7999999966
40
0.8999999995
40
1.0000000000
40
1.0000000000
40
1.0000000000
40
1.0000000000
10
-30.0246951377
20
16.3739188688
30
0.0000000000
10
-30.0667908903
20
15.2828681771
30
0.0000000000
10
-30.1425677308
20
13.1004327007
30
0.0000000000
10
-30.2309808099
20
9.8260077219
30
0.0000000000
10
-30.2941368282
20
6.5509962094
30
0.0000000000
10
-30.3320319263
20
3.2755955988
30
0.0000000000
10
-30.3446638793
20
0.0000000358
30
0.0000000000
10
-30.3320319269
20
-3.2755955272
30
0.0000000000
10
-30.2941368293
20
-6.5509961378
30
0.0000000000
10
-30.2309808115
20
-9.8260076504
30
0.0000000000
10
-30.1425677323
20
-13.1004326530
30
0.0000000000
10
-30.0667908912
20
-15.2828681533
30
0.0000000000
10
-30.0246951377
20
-16.3739188688
30
0.0000000000
11
-30.0246951377
21
16.3739188688
31
0.0000000000
11
-30.1383590323
21
13.1003041242
31
0.0000000000
11
-30.2267713002
21
9.8259099455
31
0.0000000000
11
-30.2899266753
21
6.5509313303
31
0.0000000000
11
-30.3278214023
21
3.2755630875
31
0.0000000000
11
-30.3404532284
21
0.0000000358
31
0.0000000000
11
-30.3278214029
21
-3.2755630158
31
0.0000000000
11
-30.2899266764
21
-6.5509312587
31
0.0000000000
11
-30.2267713018
21
-9.8259098740
31
0.0000000000
11
-30.1383590345
21
-13.1003040527
31
0.0000000000
11
-30.0246951377
21
-16.3739188688
31
0.0000000000
0
SPLINE
5
2AE
100
AcDbEntity
8
0
100
AcDbSpline
62
9
6
CONTINUOUS
70
0
71
3
72
25
73
21
74
19
42
0.0000001000
43
0.0000001000
44
0.0000000001
12
-0.9357284301
22
-0.1649999427
32
0.0000000000
13
-0.0366391620
23
-0.9494578705
33
0.0000000000
40
0.0000000000
40
0.0000000000
40
0.0000000000
40
0.0000000000
40
0.0555492904
40
0.1111081296
40
0.1666673125
40
0.2222260141
40
0.2777844650
40
0.3333427811
40
0.3889007088
40
0.4444582109
40
0.5000153365
40
0.5555720505
40
0.6111283298
40
0.6666842960
40
0.7222399673
40
0.7777951555
40
0.8333500465
40
0.8889049539
40
0.9444591250
40
1.0000000000
40
1.0000000000
40
1.0000000000
40
1.0000000000
10
-29.4467693015
20
17.0362964381
30
0.0000000000
10
-29.4640956516
20
17.0332412282
30
0.0000000000
10
-29.4985350181
20
17.0258203755
30
0.0000000000
10
-29.5491986038
20
17.0108298781
30
0.0000000000
10
-29.5985942743
20
16.9920623157
30
0.0000000000
10
-29.6464341992
20
16.9696258138
30
0.0000000000
10
-29.6924472469
20
16.9436479819
30
0.0000000000
10
-29.7363714944
20
16.9142766175
30
0.0000000000
10
-29.7779572000
20
16.8816788373
30
0.0000000000
10
-29.8169678288
20
16.8460401408
30
0.0000000000
10
-29.8531815837
20
16.8075632756
30
0.0000000000
10
-29.8863925776
20
16.7664671196
30
0.0000000000
10
-29.9164120245
20
16.7229854228
30
0.0000000000
10
-29.9430692948
20
16.6773654659
30
0.0000000000
10
-29.9662128546
20
16.6298667492
30
0.0000000000
10
-29.9857111571
20
16.5807593334
30
0.0000000000
10
-30.0014534555
20
16.5303226979
30
0.0000000000
10
-30.0133501912
20
16.4788426715
30
0.0000000000
10
-30.0213332790
20
16.4266200509
30
0.0000000000
10
-30.0240168139
20
16.3914967758
30
0.0000000000
10
-30.0246951377
20
16.3739188688
30
0.0000000000
11
-29.4467693015
21
17.0362964381
31
0.0000000000
11
-29.4983659169
21
17.0251779975
31
0.0000000000
11
-29.5489867042
21
17.0102005420
31
0.0000000000
11
-29.5983351421
21
16.9914507572
31
0.0000000000
11
-29.6461298312
21
16.9690355354
31
0.0000000000
11
-29.6920991846
21
16.9430823491
31
0.0000000000
11
-29.7359818773
21
16.9137387794
31
0.0000000000
11
-29.7775281714
21
16.8811718902
31
0.0000000000
11
-29.8165018138
21
16.8455669840
31
0.0000000000
11
-29.8526812516
21
16.8071265802
31
0.0000000000
11
-29.8858607724
21
16.7660693702
31
0.0000000000
11
-29.9158517447
21
16.7226289161
31
0.0000000000
11
-29.9424837473
21
16.6770522060
31
0.0000000000
11
-29.9656053964
21
16.6295984407
31
0.0000000000
11
-29.9850852022
21
16.5805376704
31
0.0000000000
11
-30.0008125403
21
16.5301487524
31
0.0000000000
11
-30.0126980737
21
16.4787179449
31
0.0000000000
11
-30.0206741861
21
16.4265384315
31
0.0000000000
11
-30.0246951377
21
16.3739188688
31
0.0000000000
0
ENDSEC
0
SECTION
2
OBJECTS
0
DICTIONARY
5
2AF
100
AcDbDictionary
3
ACAD_GROUP
350
2B0
3
ACAD_MLINESTYLE
350
2B1
0
DICTIONARY
5
2B0
102
{ACAD_REACTORS
330
2AF
102
}
100
AcDbDictionary
0
DICTIONARY
5
2B1
102
{ACAD_REACTORS
330
2AF
102
}
100
AcDbDictionary
3
STANDARD
350
2B2
0
MLINESTYLE
5
2B2
102
{ACAD_REACTORS
330
2B1
102
}
100
AcDbMlineStyle
2
STANDARD
70
0
3

62
256
51
90.0
52
90.0
71
2
49
0.5
62
256
6
BYLAYER
49
-0.5
62
256
6
BYLAYER
0
ENDSEC
0
EOF
