999
DXF file: zdi_di1697101T.dxf
999
Pro/ENGINEER 2004090 by Parametric Technology Corporation
0
SECTION
2
HEADER
9
$ACADVER
1
AC1014
9
$HANDSEED
5
       2C3
9
$EXTMAX
10
297.0000000000
20
210.0000000000
9
$EXTMIN
10
0.0000000000
20
0.0000000000
9
$LIMMIN
10
0.0000000000
20
0.0000000000
9
$LIMMAX
10
297.0000000000
20
210.0000000000
9
$VIEWCTR
10
148.5000000000
20
105.0000000000
9
$VIEWSIZE
40
210.0000000000
9
$CLAYER
8
0
9
$LTSCALE
40
16.3350000000
9
$CELTYPE
6
BYLAYER
9
$DIMSCALE
40
1
9
$DIMASZ
40
3.0000000000
9
$DIMEXO
40
1.8562500000
9
$DIMDLI
40
11.2860000000
9
$DIMEXE
40
5.3460000000
9
$DIMCEN
40
2.6730000000
9
$DIMLFAC
40
1.0000000000
9
$DIMTXT
40
3.0000000000
9
$DIMTOL
70
1
9
$DIMLIM
70
0
9
$DIMTFAC
40
1.0000000000
9
$DIMTP
40
0.0100000000
9
$DIMTM
40
0.0100000000
9
$MEASUREMENT
70
1
0
ENDSEC
0
SECTION
2
CLASSES
0
ENDSEC
0
SECTION
2
TABLES
0
TABLE
2
VPORT
5
8
100
AcDbSymbolTable
70
2
0
VPORT
5
1F4
100
AcDbSymbolTableRecord
100
AcDbViewportTableRecord
2
*ACTIVE
70
0
10
0.0
20
0.0
11
1.0
21
1.0
12
148.5000000000
22
105.0000000000
13
0.0
23
0.0
14
1.0
24
1.0
15
0.0
25
0.0
16
0.0
26
0.0
36
1.0
17
0.0
27
0.0
37
0.0
40
210.0000000000
41
1.4142857143
42
50.0
43
0.0
44
0.0
50
0.0
51
0.0
71
0
72
100
73
1
74
1
75
0
76
0
77
0
78
0
0
ENDTAB
0
TABLE
2
LTYPE
5
5
100
AcDbSymbolTable
70
6
0
LTYPE
5
14
100
AcDbSymbolTableRecord
100
AcDbLinetypeTableRecord
2
BYBLOCK
70
0
3

72
65
73
0
40
0.0
0
LTYPE
5
15
100
AcDbSymbolTableRecord
100
AcDbLinetypeTableRecord
2
BYLAYER
70
0
3

72
65
73
0
40
0.0
0
LTYPE
5
16
100
AcDbSymbolTableRecord
100
AcDbLinetypeTableRecord
2
CONTINUOUS
70
64
3
Solid line
72
65
73
0
40
0
0
LTYPE
5
1F5
100
AcDbSymbolTableRecord
100
AcDbLinetypeTableRecord
2
CENTER
70
64
3
____ _ ____ _ ____ _ ____ _ ____ _ ____ _ ____
72
65
73
4
40
0.6
49
0.375
74
0
49
-0.075
74
0
49
0.075
74
0
49
-0.075
74
0
0
LTYPE
5
1F6
100
AcDbSymbolTableRecord
100
AcDbLinetypeTableRecord
2
HIDDEN
70
64
3
- - - - - - - - - - - - - - - - - - - -
72
65
73
2
40
0.2
49
0.1
74
0
49
-0.1
74
0
0
LTYPE
5
1F7
100
AcDbSymbolTableRecord
100
AcDbLinetypeTableRecord
2
PHANTOM
70
64
3
_____ _ _ _____ _ _ _____ _ _ _____
72
65
73
6
40
0.8
49
0.45
74
0
49
-0.05
74
0
49
0.1
74
0
49
-0.05
74
0
49
0.1
74
0
49
-0.05
74
0
0
LTYPE
5
1F8
100
AcDbSymbolTableRecord
100
AcDbLinetypeTableRecord
2
DOT
70
64
3
. . . . . . . . . . . . . . . . . . . .
72
65
73
2
40
0.2
49
0.1
74
0
49
-0.1
74
0
0
LTYPE
5
1F9
100
AcDbSymbolTableRecord
100
AcDbLinetypeTableRecord
2
DASHED
70
64
3
- - - - - - - - - - - - - - - - - - - -
72
65
73
2
40
0.2
49
0.1
74
0
49
-0.1
74
0
0
ENDTAB
0
TABLE
2
LAYER
5
2
100
AcDbSymbolTable
70
36
0
LAYER
5
10
100
AcDbSymbolTableRecord
100
AcDbLayerTableRecord
2
0
70
0
62
7
6
CONTINUOUS
0
LAYER
5
1FA
100
AcDbSymbolTableRecord
100
AcDbLayerTableRecord
2
DEFAULT_1
70
0
62
7
6
CENTER
0
LAYER
5
1FB
100
AcDbSymbolTableRecord
100
AcDbLayerTableRecord
2
DEFAULT_2
70
0
62
8
6
HIDDEN
0
LAYER
5
1FC
100
AcDbSymbolTableRecord
100
AcDbLayerTableRecord
2
DEFAULT_3
70
0
62
7
6
PHANTOM
0
LAYER
5
1FD
100
AcDbSymbolTableRecord
100
AcDbLayerTableRecord
2
ASSI
70
0
62
7
6
CONTINUOUS
0
LAYER
5
1FE
100
AcDbSymbolTableRecord
100
AcDbLayerTableRecord
2
COORDINATE
70
0
62
7
6
CONTINUOUS
0
LAYER
5
1FF
100
AcDbSymbolTableRecord
100
AcDbLayerTableRecord
2
COORD_ORIGINE
70
0
62
7
6
CONTINUOUS
0
LAYER
5
200
100
AcDbSymbolTableRecord
100
AcDbLayerTableRecord
2
CURVE
70
0
62
7
6
CONTINUOUS
0
LAYER
5
201
100
AcDbSymbolTableRecord
100
AcDbLayerTableRecord
2
CURVE_LED_TASTO
70
0
62
7
6
CONTINUOUS
0
LAYER
5
202
100
AcDbSymbolTableRecord
100
AcDbLayerTableRecord
2
DRAFT
70
0
62
7
6
CONTINUOUS
0
LAYER
5
203
100
AcDbSymbolTableRecord
100
AcDbLayerTableRecord
2
PIANI
70
0
62
7
6
CONTINUOUS
0
LAYER
5
204
100
AcDbSymbolTableRecord
100
AcDbLayerTableRecord
2
PIANI_ORIGINE
70
0
62
7
6
CONTINUOUS
0
LAYER
5
205
100
AcDbSymbolTableRecord
100
AcDbLayerTableRecord
2
PIANI_RIFERIMENTO
70
0
62
7
6
CONTINUOUS
0
LAYER
5
206
100
AcDbSymbolTableRecord
100
AcDbLayerTableRecord
2
PUNTI
70
0
62
7
6
CONTINUOUS
0
LAYER
5
207
100
AcDbSymbolTableRecord
100
AcDbLayerTableRecord
2
RACCORDO
70
0
62
7
6
CONTINUOUS
0
LAYER
5
208
100
AcDbSymbolTableRecord
100
AcDbLayerTableRecord
2
SCRITTE
70
0
62
7
6
CONTINUOUS
0
LAYER
5
209
100
AcDbSymbolTableRecord
100
AcDbLayerTableRecord
2
SNAPLINE
70
0
62
7
6
CONTINUOUS
0
LAYER
5
20A
100
AcDbSymbolTableRecord
100
AcDbLayerTableRecord
2
SUPERFICI
70
0
62
7
6
CONTINUOUS
0
LAYER
5
20B
100
AcDbSymbolTableRecord
100
AcDbLayerTableRecord
2
TRASH
70
0
62
7
6
CONTINUOUS
0
ENDTAB
0
TABLE
2
STYLE
5
3
100
AcDbSymbolTable
70
1
0
STYLE
5
11
100
AcDbSymbolTableRecord
100
AcDbTextStyleTableRecord
2
STANDARD
70
0
40
0.0
41
0.8000000000
50
0.0
71
0
42
0.2
3
txt
4

0
ENDTAB
0
TABLE
2
VIEW
5
6
100
AcDbSymbolTable
70
0
0
ENDTAB
0
TABLE
2
UCS
5
7
100
AcDbSymbolTable
70
0
0
ENDTAB
0
TABLE
2
APPID
5
9
100
AcDbSymbolTable
70
1
0
APPID
5
20C
100
AcDbSymbolTableRecord
100
AcDbRegAppTableRecord
2
ACAD
70
0
0
ENDTAB
0
TABLE
2
DIMSTYLE
5
A
100
AcDbSymbolTable
70
1
0
DIMSTYLE
105
20D
100
AcDbSymbolTableRecord
100
AcDbDimStyleTableRecord
2
STANDARD
70
0
3

4

5

6

7

40
1.0
41
3.0000000000
42
0.0625
43
0.38
44
0.18
45
0.0
46
0.0
47
0.0100000000
48
0.0100000000
140
3.0000000000
141
0.09
142
0.0
143
25.4
144
1.0000000000
145
0.0
146
1.0000000000
147
0.09
71
1
72
0
73
0
74
0
75
0
76
0
77
1
78
8
170
0
171
2
172
0
173
0
174
0
175
0
176
0
177
0
178
0
270
2
271
2
272
2
273
2
274
2
340
11
275
0
280
0
281
0
282
0
283
1
284
8
285
0
286
0
287
3
288
0
0
DIMSTYLE
105
20E
100
AcDbSymbolTableRecord
100
AcDbDimStyleTableRecord
2
DIMSTYLE_1
70
0
3

4

5

6

7

40
1.0
41
3.0000000000
42
0.0625
43
0.38
44
0.18
45
0.0
46
0.0
47
0.0000000000
48
0.0000000000
140
3.0000000000
141
0.09
142
0.0
143
25.4
144
1.0000000000
145
0.0
146
1.0000000000
147
0.09
71
0
72
0
73
0
74
0
75
0
76
0
77
1
78
8
170
0
171
2
172
0
173
0
174
0
175
0
176
0
177
0
178
0
270
2
271
2
272
2
273
2
274
2
340
11
275
0
280
0
281
0
282
0
283
1
284
8
285
0
286
0
287
3
288
0
0
ENDTAB
0
TABLE
2
BLOCK_RECORD
5
1
100
AcDbSymbolTable
70
0
0
BLOCK_RECORD
5
1B
100
AcDbSymbolTableRecord
100
AcDbBlockTableRecord
2
*MODEL_SPACE
0
BLOCK_RECORD
5
1C
100
AcDbSymbolTableRecord
100
AcDbBlockTableRecord
2
*PAPER_SPACE
0
BLOCK_RECORD
5
20F
100
AcDbSymbolTableRecord
100
AcDbBlockTableRecord
2
*D0
0
BLOCK_RECORD
5
210
100
AcDbSymbolTableRecord
100
AcDbBlockTableRecord
2
*D1
0
BLOCK_RECORD
5
211
100
AcDbSymbolTableRecord
100
AcDbBlockTableRecord
2
*D2
0
ENDTAB
0
ENDSEC
0
SECTION
2
BLOCKS
0
BLOCK
5
1E
100
AcDbEntity
8
0
100
AcDbBlockBegin
2
*MODEL_SPACE
70
0
10
0.0
20
0.0
30
0.0
3
*MODEL_SPACE
1

0
ENDBLK
5
1F
100
AcDbEntity
8
0
100
AcDbBlockEnd
0
BLOCK
5
20
100
AcDbEntity
8
0
100
AcDbBlockBegin
2
*PAPER_SPACE
70
0
10
0.0
20
0.0
30
0.0
3
*PAPER_SPACE
1

0
ENDBLK
5
21
100
AcDbEntity
8
0
100
AcDbBlockEnd
0
BLOCK
5
212
100
AcDbEntity
8
0
100
AcDbBlockBegin
62
7
6
CONTINUOUS
2
*D0
70
65
10
0.0000000000
20
0.0000000000
3
*D0
1

0
TEXT
5
213
100
AcDbEntity
8
0
100
AcDbText
62
7
6
CONTINUOUS
10
-27.7557973171
20
27.1500000000
7
STANDARD
40
3.0000000000
1
12
41
0.6785714286
72
0
100
AcDbText
0
LINE
5
214
100
AcDbEntity
8
0
100
AcDbLine
62
7
6
CONTINUOUS
10
-20.0982016480
20
1.7500000000
11
-20.0982016480
21
27.9000000000
0
LINE
5
215
100
AcDbEntity
8
0
100
AcDbLine
62
7
6
CONTINUOUS
10
-32.0982016480
20
0.5000000000
11
-32.0982016480
21
27.9000000000
0
LINE
5
216
100
AcDbEntity
8
0
100
AcDbLine
62
7
6
CONTINUOUS
10
-20.0982016480
20
26.4000000000
11
-26.0982016480
21
26.4000000000
0
LINE
5
217
100
AcDbEntity
8
0
100
AcDbLine
62
7
6
CONTINUOUS
10
-32.0982016480
20
26.4000000000
11
-26.0982016480
21
26.4000000000
0
SOLID
5
218
100
AcDbEntity
8
0
100
AcDbTrace
62
7
6
CONTINUOUS
10
-23.0982016480
20
25.4500000000
11
-20.0982016480
21
26.4000000000
12
-23.0982016480
22
27.3500000000
13
-23.0982016480
23
27.3500000000
0
SOLID
5
219
100
AcDbEntity
8
0
100
AcDbTrace
62
7
6
CONTINUOUS
10
-29.0982016480
20
27.3500000000
11
-32.0982016480
21
26.4000000000
12
-29.0982016480
22
25.4500000000
13
-29.0982016480
23
25.4500000000
0
ENDBLK
5
21A
100
AcDbEntity
8
0
100
AcDbBlockEnd
0
BLOCK
5
21B
100
AcDbEntity
8
0
100
AcDbBlockBegin
62
7
6
CONTINUOUS
2
*D1
70
65
10
0.0000000000
20
0.0000000000
3
*D1
1

0
TEXT
5
21C
100
AcDbEntity
8
0
100
AcDbText
62
7
6
CONTINUOUS
10
-4.1587635630
20
27.1500000000
7
STANDARD
40
3.0000000000
1
24,8
41
0.7321428571
72
0
100
AcDbText
0
LINE
5
21D
100
AcDbEntity
8
0
100
AcDbLine
62
7
6
CONTINUOUS
10
-12.4000000000
20
18.5962952155
11
-12.4000000000
21
27.9000000000
0
LINE
5
21E
100
AcDbEntity
8
0
100
AcDbLine
62
7
6
CONTINUOUS
10
12.4000000000
20
18.5962952155
11
12.4000000000
21
27.9000000000
0
LINE
5
21F
100
AcDbEntity
8
0
100
AcDbLine
62
7
6
CONTINUOUS
10
-12.4000000000
20
26.4000000000
11
-0.0000000000
21
26.4000000000
0
LINE
5
220
100
AcDbEntity
8
0
100
AcDbLine
62
7
6
CONTINUOUS
10
12.4000000000
20
26.4000000000
11
-0.0000000000
21
26.4000000000
0
SOLID
5
221
100
AcDbEntity
8
0
100
AcDbTrace
62
7
6
CONTINUOUS
10
-9.4000000000
20
27.3500000000
11
-12.4000000000
21
26.4000000000
12
-9.4000000000
22
25.4500000000
13
-9.4000000000
23
25.4500000000
0
SOLID
5
222
100
AcDbEntity
8
0
100
AcDbTrace
62
7
6
CONTINUOUS
10
9.4000000000
20
25.4500000000
11
12.4000000000
21
26.4000000000
12
9.4000000000
22
27.3500000000
13
9.4000000000
23
27.3500000000
0
ENDBLK
5
223
100
AcDbEntity
8
0
100
AcDbBlockEnd
0
BLOCK
5
224
100
AcDbEntity
8
0
100
AcDbBlockBegin
62
7
6
CONTINUOUS
2
*D2
70
65
10
0.0000000000
20
0.0000000000
3
*D2
1

0
TEXT
5
225
100
AcDbEntity
8
0
100
AcDbText
62
7
6
CONTINUOUS
10
19.6500000000
20
-3.4315110516
7
STANDARD
40
3.0000000000
1
36,8
50
90.0000000000
41
0.7142857143
72
0
100
AcDbText
0
LINE
5
226
100
AcDbEntity
8
0
100
AcDbLine
62
7
6
CONTINUOUS
10
12.6008636137
20
18.4000000000
11
21.9000000000
21
18.4000000000
0
LINE
5
227
100
AcDbEntity
8
0
100
AcDbLine
62
7
6
CONTINUOUS
10
12.6008636137
20
-18.4000000000
11
21.9000000000
21
-18.4000000000
0
LINE
5
228
100
AcDbEntity
8
0
100
AcDbLine
62
7
6
CONTINUOUS
10
20.4000000000
20
18.4000000000
11
20.4000000000
21
0.0000000000
0
LINE
5
229
100
AcDbEntity
8
0
100
AcDbLine
62
7
6
CONTINUOUS
10
20.4000000000
20
-18.4000000000
11
20.4000000000
21
0.0000000000
0
SOLID
5
22A
100
AcDbEntity
8
0
100
AcDbTrace
62
7
6
CONTINUOUS
10
21.3500000000
20
15.4000000000
11
20.4000000000
21
18.4000000000
12
19.4500000000
22
15.4000000000
13
19.4500000000
23
15.4000000000
0
SOLID
5
22B
100
AcDbEntity
8
0
100
AcDbTrace
62
7
6
CONTINUOUS
10
19.4500000000
20
-15.4000000000
11
20.4000000000
21
-18.4000000000
12
21.3500000000
22
-15.4000000000
13
21.3500000000
23
-15.4000000000
0
ENDBLK
5
22C
100
AcDbEntity
8
0
100
AcDbBlockEnd
0
ENDSEC
0
SECTION
2
ENTITIES
0
DIMENSION
5
22D
100
AcDbEntity
8
0
100
AcDbDimension
62
7
6
CONTINUOUS
2
*D0
10
-32.0982016480
20
26.4000000000
11
-25.7200830314
21
28.6500000000
70
160
3
DIMSTYLE_1
100
AcDbAlignedDimension
13
-20.0982016480
23
1.7500000000
14
-32.0982016480
24
0.5000000000
50
180.000000
100
AcDbRotatedDimension
0
DIMENSION
5
22E
100
AcDbEntity
8
0
100
AcDbDimension
62
7
6
CONTINUOUS
2
*D1
10
12.4000000000
20
26.4000000000
11
0.2340935799
21
28.6500000000
70
160
3
DIMSTYLE_1
100
AcDbAlignedDimension
13
-12.4000000000
23
18.5962952155
14
12.4000000000
24
18.5962952155
100
AcDbRotatedDimension
0
DIMENSION
5
22F
100
AcDbEntity
8
0
100
AcDbDimension
62
7
6
CONTINUOUS
2
*D2
10
20.4000000000
20
-18.4000000000
11
18.1500000000
21
0.8542032341
70
160
3
DIMSTYLE_1
100
AcDbAlignedDimension
13
12.6008636137
23
18.4000000000
14
12.6008636137
24
-18.4000000000
50
270.000000
100
AcDbRotatedDimension
0
LINE
5
230
100
AcDbEntity
8
0
100
AcDbLine
62
7
6
CONTINUOUS
10
12.1008636137
20
-18.4000000000
11
-12.1008636137
21
-18.4000000000
0
LINE
5
231
100
AcDbEntity
8
0
100
AcDbLine
62
9
6
CONTINUOUS
10
-11.9951136646
20
-17.3317387640
11
11.9951136646
21
-17.3317387640
0
LINE
5
232
100
AcDbEntity
8
0
100
AcDbLine
62
9
6
CONTINUOUS
10
-11.9850259316
20
-16.3854850935
11
11.9850259316
21
-16.3854850935
0
LINE
5
233
100
AcDbEntity
8
0
100
AcDbLine
62
7
6
CONTINUOUS
10
7.9000000000
20
-14.6117703171
11
-7.9000000000
21
-14.6117703171
0
LINE
5
234
100
AcDbEntity
8
0
100
AcDbLine
62
7
6
CONTINUOUS
10
-7.9000000000
20
-14.6000000000
11
7.9000000000
21
-14.6000000000
0
LINE
5
235
100
AcDbEntity
8
0
100
AcDbLine
62
7
6
CONTINUOUS
10
-7.9500000000
20
-14.5500000000
11
7.9500000000
21
-14.5500000000
0
LINE
5
236
100
AcDbEntity
8
0
100
AcDbLine
62
7
6
CONTINUOUS
10
-10.0000000000
20
-9.6938911925
11
-10.0065451508
21
-9.6873460417
0
LINE
5
237
100
AcDbEntity
8
0
100
AcDbLine
62
7
6
CONTINUOUS
10
-12.4000000000
20
18.0962952155
11
-12.4000000000
21
-18.0962952155
0
LINE
5
238
100
AcDbEntity
8
0
100
AcDbLine
62
9
6
CONTINUOUS
10
-11.9850259316
20
-16.3854850935
11
-11.9850259316
21
16.3854850935
0
LINE
5
239
100
AcDbEntity
8
0
100
AcDbLine
62
9
6
CONTINUOUS
10
-10.0000000000
20
-12.5000000000
11
-10.0123584377
21
-12.5000000000
0
LINE
5
23A
100
AcDbEntity
8
0
100
AcDbLine
62
9
6
CONTINUOUS
10
10.0000000000
20
-12.5000000000
11
10.0123584377
21
-12.5000000000
0
LINE
5
23B
100
AcDbEntity
8
0
100
AcDbLine
62
9
6
CONTINUOUS
10
-12.2950679731
20
17.0362964381
11
-12.4000000000
21
18.0962952155
0
LINE
5
23C
100
AcDbEntity
8
0
100
AcDbLine
62
9
6
CONTINUOUS
10
-11.9951136646
20
17.3317387640
11
-12.1008636137
21
18.4000000000
0
LINE
5
23D
100
AcDbEntity
8
0
100
AcDbLine
62
9
6
CONTINUOUS
10
-12.4000000000
20
-18.0962952155
11
-12.2950679731
21
-17.0362964381
0
LINE
5
23E
100
AcDbEntity
8
0
100
AcDbLine
62
9
6
CONTINUOUS
10
-12.1008636137
20
-18.4000000000
11
-11.9951136646
21
-17.3317387640
0
LINE
5
23F
100
AcDbEntity
8
0
100
AcDbLine
62
7
6
CONTINUOUS
10
9.9500000000
20
-11.0000000000
11
10.0065451508
21
-11.0000000000
0
LINE
5
240
100
AcDbEntity
8
0
100
AcDbLine
62
7
6
CONTINUOUS
10
-10.0065451508
20
-6.7126539583
11
-10.0065451508
21
-6.9000000000
0
LINE
5
241
100
AcDbEntity
8
0
100
AcDbLine
62
7
6
CONTINUOUS
10
-10.0065451508
20
-9.5000000000
11
-10.0065451508
21
-9.6873460417
0
LINE
5
242
100
AcDbEntity
8
0
100
AcDbLine
62
7
6
CONTINUOUS
10
-10.0061088075
20
-6.7126539583
11
-10.0061088075
21
-6.9000000000
0
LINE
5
243
100
AcDbEntity
8
0
100
AcDbLine
62
7
6
CONTINUOUS
10
-10.0061088075
20
-9.5000000000
11
-10.0061088075
21
-9.6873460417
0
LINE
5
244
100
AcDbEntity
8
0
100
AcDbLine
62
7
6
CONTINUOUS
10
-10.0000000000
20
-6.5000000000
11
-10.0000000000
21
-6.7061088075
0
LINE
5
245
100
AcDbEntity
8
0
100
AcDbLine
62
7
6
CONTINUOUS
10
-10.0000000000
20
-9.6938911925
11
-10.0000000000
21
-12.5000000000
0
LINE
5
246
100
AcDbEntity
8
0
100
AcDbLine
62
7
6
CONTINUOUS
10
-9.9500000000
20
-6.4500000000
11
-9.9500000000
21
-12.5500000000
0
LINE
5
247
100
AcDbEntity
8
0
100
AcDbLine
62
7
6
CONTINUOUS
10
-10.0065451508
20
-9.5000000000
11
-9.9500000000
21
-9.5000000000
0
LINE
5
248
100
AcDbEntity
8
0
100
AcDbLine
62
9
6
CONTINUOUS
10
-7.9000000000
20
-14.6000000000
11
-7.9000000000
21
-14.6117703171
0
LINE
5
249
100
AcDbEntity
8
0
100
AcDbLine
62
9
6
CONTINUOUS
10
-7.9000000000
20
-4.4000000000
11
-7.9000000000
21
-4.3862345423
0
LINE
5
24A
100
AcDbEntity
8
0
100
AcDbLine
62
7
6
CONTINUOUS
10
-10.0065451508
20
-6.9000000000
11
-9.9500000000
21
-6.9000000000
0
LINE
5
24B
100
AcDbEntity
8
0
100
AcDbLine
62
7
6
CONTINUOUS
10
9.9500000000
20
-6.9000000000
11
10.0065451508
21
-6.9000000000
0
LINE
5
24C
100
AcDbEntity
8
0
100
AcDbLine
62
9
6
CONTINUOUS
10
-10.0000000000
20
-6.5000000000
11
-10.0135291864
21
-6.5000000000
0
LINE
5
24D
100
AcDbEntity
8
0
100
AcDbLine
62
9
6
CONTINUOUS
10
10.0000000000
20
-6.5000000000
11
10.0135291864
21
-6.5000000000
0
LINE
5
24E
100
AcDbEntity
8
0
100
AcDbLine
62
7
6
CONTINUOUS
10
-7.9500000000
20
-4.4500000000
11
7.9500000000
21
-4.4500000000
0
LINE
5
24F
100
AcDbEntity
8
0
100
AcDbLine
62
7
6
CONTINUOUS
10
-7.9000000000
20
-4.4000000000
11
7.9000000000
21
-4.4000000000
0
LINE
5
250
100
AcDbEntity
8
0
100
AcDbLine
62
7
6
CONTINUOUS
10
7.9000000000
20
-4.3862345423
11
-7.9000000000
21
-4.3862345423
0
LINE
5
251
100
AcDbEntity
8
0
100
AcDbLine
62
7
6
CONTINUOUS
10
-10.0000000000
20
-6.7061088075
11
-10.0065451508
21
-6.7126539583
0
LINE
5
252
100
AcDbEntity
8
0
100
AcDbLine
62
7
6
CONTINUOUS
10
10.0000000000
20
-6.7061088075
11
10.0065451508
21
-6.7126539583
0
LINE
5
253
100
AcDbEntity
8
0
100
AcDbLine
62
9
6
CONTINUOUS
10
7.9000000000
20
-14.6000000000
11
7.9000000000
21
-14.6117703171
0
LINE
5
254
100
AcDbEntity
8
0
100
AcDbLine
62
9
6
CONTINUOUS
10
7.9000000000
20
-4.4000000000
11
7.9000000000
21
-4.3862345423
0
LINE
5
255
100
AcDbEntity
8
0
100
AcDbLine
62
9
6
CONTINUOUS
10
11.9951136646
20
-17.3317387640
11
12.1008636137
21
-18.4000000000
0
LINE
5
256
100
AcDbEntity
8
0
100
AcDbLine
62
7
6
CONTINUOUS
10
9.9500000000
20
-6.4500000000
11
9.9500000000
21
-12.5500000000
0
LINE
5
257
100
AcDbEntity
8
0
100
AcDbLine
62
7
6
CONTINUOUS
10
10.0000000000
20
-12.5000000000
11
10.0000000000
21
-11.1938911925
0
LINE
5
258
100
AcDbEntity
8
0
100
AcDbLine
62
7
6
CONTINUOUS
10
10.0000000000
20
-6.7061088075
11
10.0000000000
21
-6.5000000000
0
LINE
5
259
100
AcDbEntity
8
0
100
AcDbLine
62
7
6
CONTINUOUS
10
10.0061088075
20
-11.1873460417
11
10.0061088075
21
-11.0000000000
0
LINE
5
25A
100
AcDbEntity
8
0
100
AcDbLine
62
7
6
CONTINUOUS
10
10.0061088075
20
-6.9000000000
11
10.0061088075
21
-6.7126539583
0
LINE
5
25B
100
AcDbEntity
8
0
100
AcDbLine
62
7
6
CONTINUOUS
10
10.0065451508
20
-6.7126539583
11
10.0065451508
21
-6.9000000000
0
LINE
5
25C
100
AcDbEntity
8
0
100
AcDbLine
62
7
6
CONTINUOUS
10
10.0065451508
20
-11.0000000000
11
10.0065451508
21
-11.1873460417
0
LINE
5
25D
100
AcDbEntity
8
0
100
AcDbLine
62
9
6
CONTINUOUS
10
12.1008636137
20
18.4000000000
11
11.9951136646
21
17.3317387640
0
LINE
5
25E
100
AcDbEntity
8
0
100
AcDbLine
62
9
6
CONTINUOUS
10
12.2950679731
20
-17.0362964381
11
12.4000000000
21
-18.0962952155
0
LINE
5
25F
100
AcDbEntity
8
0
100
AcDbLine
62
9
6
CONTINUOUS
10
11.9850259316
20
16.3854850935
11
11.9850259316
21
-16.3854850935
0
LINE
5
260
100
AcDbEntity
8
0
100
AcDbLine
62
9
6
CONTINUOUS
10
12.4000000000
20
18.0962952155
11
12.2950679731
21
17.0362964381
0
LINE
5
261
100
AcDbEntity
8
0
100
AcDbLine
62
7
6
CONTINUOUS
10
12.4000000000
20
18.0962952155
11
12.4000000000
21
-18.0962952155
0
LINE
5
262
100
AcDbEntity
8
0
100
AcDbLine
62
7
6
CONTINUOUS
10
10.0000000000
20
-11.1938911925
11
10.0065451508
21
-11.1873460417
0
LINE
5
263
100
AcDbEntity
8
0
100
AcDbLine
62
9
6
CONTINUOUS
10
-11.9850259316
20
16.3854850935
11
11.9850259316
21
16.3854850935
0
LINE
5
264
100
AcDbEntity
8
0
100
AcDbLine
62
9
6
CONTINUOUS
10
-11.9951136646
20
17.3317387640
11
11.9951136646
21
17.3317387640
0
LINE
5
265
100
AcDbEntity
8
0
100
AcDbLine
62
7
6
CONTINUOUS
10
12.1008636137
20
18.4000000000
11
-12.1008636137
21
18.4000000000
0
LINE
5
266
100
AcDbEntity
8
0
100
AcDbLine
62
7
6
CONTINUOUS
10
-30.9566121745
20
-17.3317387640
11
-24.8982016480
21
-18.4000000000
0
LINE
5
267
100
AcDbEntity
8
0
100
AcDbLine
62
9
6
CONTINUOUS
10
-30.9097534431
20
-17.0362964381
11
-24.8982016480
21
-18.0962952155
0
LINE
5
268
100
AcDbEntity
8
0
100
AcDbLine
62
9
6
CONTINUOUS
10
-31.4876792792
20
-16.3739188688
11
-31.7822204913
21
-16.3854850928
0
LINE
5
269
100
AcDbEntity
8
0
100
AcDbLine
62
7
6
CONTINUOUS
10
-24.8982016480
20
-1.2500000000
11
-20.0982016480
21
-1.2500000000
0
LINE
5
26A
100
AcDbEntity
8
0
100
AcDbLine
62
7
6
CONTINUOUS
10
-24.8982016480
20
18.4000000000
11
-24.8982016480
21
-18.4000000000
0
LINE
5
26B
100
AcDbEntity
8
0
100
AcDbLine
62
7
6
CONTINUOUS
10
-24.8982016480
20
1.2500000000
11
-20.0982016480
21
1.2500000000
0
LINE
5
26C
100
AcDbEntity
8
0
100
AcDbLine
62
7
6
CONTINUOUS
10
-20.0982016480
20
-1.2500000000
11
-20.0982016480
21
1.2500000000
0
LINE
5
26D
100
AcDbEntity
8
0
100
AcDbLine
62
9
6
CONTINUOUS
10
-31.4876792792
20
16.3739188688
11
-31.7822205117
21
16.3854850935
0
LINE
5
26E
100
AcDbEntity
8
0
100
AcDbLine
62
9
6
CONTINUOUS
10
-24.8982016480
20
18.0962952155
11
-30.9097534431
21
17.0362964381
0
LINE
5
26F
100
AcDbEntity
8
0
100
AcDbLine
62
7
6
CONTINUOUS
10
-24.8982016480
20
18.4000000000
11
-30.9566121745
21
17.3317387640
0
CIRCLE
5
270
100
AcDbEntity
8
0
100
AcDbCircle
62
7
6
CONTINUOUS
10
-0.0000000000
20
0.0000000000
40
1.2500000000
0
CIRCLE
5
271
100
AcDbEntity
8
0
100
AcDbCircle
62
9
6
CONTINUOUS
10
-0.0000000000
20
0.0000000000
40
1.1616160628
0
ARC
5
272
100
AcDbEntity
8
0
100
AcDbCircle
62
7
6
CONTINUOUS
10
-7.9000000000
20
-12.6000000000
40
2.0000000000
100
AcDbArc
50
224.7163345880
51
270.0000000000
0
ARC
5
273
100
AcDbEntity
8
0
100
AcDbCircle
62
7
6
CONTINUOUS
10
7.9000000000
20
-12.6000000000
40
2.0000000000
100
AcDbArc
50
270.0000000000
51
315.2843596918
0
ARC
5
274
100
AcDbEntity
8
0
100
AcDbCircle
62
7
6
CONTINUOUS
10
-7.9500000000
20
-12.5500000000
40
2.0000000000
100
AcDbArc
50
180.0000000000
51
270.0000000000
0
ARC
5
275
100
AcDbEntity
8
0
100
AcDbCircle
62
7
6
CONTINUOUS
10
-7.9500000000
20
-6.4500000000
40
2.0000000000
100
AcDbArc
50
90.0000000000
51
180.0000000000
0
ARC
5
276
100
AcDbEntity
8
0
100
AcDbCircle
62
7
6
CONTINUOUS
10
7.9500000000
20
-12.5500000000
40
2.0000000000
100
AcDbArc
50
270.0000000000
51
360.0000000000
0
ARC
5
277
100
AcDbEntity
8
0
100
AcDbCircle
62
7
6
CONTINUOUS
10
7.9500000000
20
-6.4500000000
40
2.0000000000
100
AcDbArc
50
0.0000000000
51
90.0000000000
0
ARC
5
278
100
AcDbEntity
8
0
100
AcDbCircle
62
7
6
CONTINUOUS
10
7.9000000000
20
-12.5000000000
40
2.1000000000
100
AcDbArc
50
273.1563918873
51
360.0000000000
0
ARC
5
279
100
AcDbEntity
8
0
100
AcDbCircle
62
7
6
CONTINUOUS
10
-7.9000000000
20
-12.5000000000
40
2.1000000000
100
AcDbArc
50
180.0000000000
51
266.8204591399
0
ARC
5
27A
100
AcDbEntity
8
0
100
AcDbCircle
62
7
6
CONTINUOUS
10
-7.9000000000
20
-6.5000000000
40
2.1000000000
100
AcDbArc
50
90.0000000000
51
180.0000000000
0
ARC
5
27B
100
AcDbEntity
8
0
100
AcDbCircle
62
7
6
CONTINUOUS
10
7.9000000000
20
-6.5000000000
40
2.1000000000
100
AcDbArc
50
0.0000000000
51
90.0000000000
0
ARC
5
27C
100
AcDbEntity
8
0
100
AcDbCircle
62
7
6
CONTINUOUS
10
-30.7829639968
20
-16.3469310110
40
1.0000000000
100
AcDbArc
50
182.2095338267
51
260.0000000000
0
ARC
5
27D
100
AcDbEntity
8
0
100
AcDbCircle
62
7
6
CONTINUOUS
10
392.9017983520
20
0.0000000000
40
425.0000000000
100
AcDbArc
50
177.7904661733
51
182.2095338267
0
ARC
5
27E
100
AcDbEntity
8
0
100
AcDbCircle
62
7
6
CONTINUOUS
10
-30.7829639968
20
16.3469310110
40
1.0000000000
100
AcDbArc
50
100.0000000000
51
177.7904661733
0
SPLINE
5
27F
100
AcDbEntity
8
0
100
AcDbSpline
62
7
6
CONTINUOUS
70
0
71
3
72
22
73
18
74
16
42
0.0000001000
43
0.0000001000
44
0.0000000001
12
-0.4733254049
22
0.0000000000
32
0.0000000000
13
0.0000000000
23
0.4733254049
33
0.0000000000
40
0.0000000000
40
0.0000000000
40
0.0000000000
40
0.0000000000
40
0.0654809971
40
0.1313652903
40
0.1972591280
40
0.2629096833
40
0.3289121847
40
0.3953241338
40
0.4617927791
40
0.5281157275
40
0.5949961533
40
0.6622740259
40
0.7295492765
40
0.7967420414
40
0.8644268450
40
0.9323328147
40
1.0000000000
40
1.0000000000
40
1.0000000000
40
1.0000000000
10
-12.1008636137
20
-18.4000000000
30
0.0000000000
10
-12.1111948868
20
-18.4000000000
30
0.0000000000
10
-12.1319374816
20
-18.3989110886
30
0.0000000000
10
-12.1627279798
20
-18.3940121733
30
0.0000000000
10
-12.1928600946
20
-18.3858886379
30
0.0000000000
10
-12.2219881351
20
-18.3746389715
30
0.0000000000
10
-12.2498494891
20
-18.3603595750
30
0.0000000000
10
-12.2761639596
20
-18.3431597337
30
0.0000000000
10
-12.3005646315
20
-18.3232585541
30
0.0000000000
10
-12.3228029304
20
-18.3008639511
30
0.0000000000
10
-12.3426632963
20
-18.2761708290
30
0.0000000000
10
-12.3599135769
20
-18.2494092599
30
0.0000000000
10
-12.3742975698
20
-18.2209493025
30
0.0000000000
10
-12.3856699991
20
-18.1910899367
30
0.0000000000
10
-12.3939076019
20
-18.1601136643
30
0.0000000000
10
-12.3988905424
20
-18.1283780465
30
0.0000000000
10
-12.4000000000
20
-18.1069714148
30
0.0000000000
10
-12.4000000000
20
-18.0962952155
30
0.0000000000
11
-12.1008636137
21
-18.4000000000
31
0.0000000000
11
-12.1318147720
21
-18.3983743790
31
0.0000000000
11
-12.1626122270
21
-18.3934751049
31
0.0000000000
11
-12.1927264411
21
-18.3853570992
31
0.0000000000
11
-12.2217142475
21
-18.3741631161
31
0.0000000000
11
-12.2495169715
21
-18.3599157509
31
0.0000000000
11
-12.2758305114
21
-18.3427191506
31
0.0000000000
11
-12.3002126062
21
-18.3228363249
31
0.0000000000
11
-12.3223343101
21
-18.3005628205
31
0.0000000000
11
-12.3421762894
21
-18.2758968287
31
0.0000000000
11
-12.3594314097
21
-18.2491326374
31
0.0000000000
11
-12.3737971976
21
-18.2207142241
31
0.0000000000
11
-12.3851189905
21
-18.1909936229
31
0.0000000000
11
-12.3933543974
21
-18.1600332706
31
0.0000000000
11
-12.3983409031
21
-18.1282808135
31
0.0000000000
11
-12.4000000000
21
-18.0962952155
31
0.0000000000
0
SPLINE
5
280
100
AcDbEntity
8
0
100
AcDbSpline
62
7
6
CONTINUOUS
70
0
71
3
72
22
73
18
74
16
42
0.0000001000
43
0.0000001000
44
0.0000000001
12
0.0000000000
22
0.4733254049
32
0.0000000000
13
0.4733254049
23
0.0000000000
33
0.0000000000
40
0.0000000000
40
0.0000000000
40
0.0000000000
40
0.0000000000
40
0.0676671853
40
0.1355731550
40
0.2032579586
40
0.2704507235
40
0.3377259741
40
0.4050038467
40
0.4718842725
40
0.5382072209
40
0.6046758662
40
0.6710878153
40
0.7370903167
40
0.8027408720
40
0.8686347097
40
0.9345190029
40
1.0000000000
40
1.0000000000
40
1.0000000000
40
1.0000000000
10
-12.4000000000
20
18.0962952155
30
0.0000000000
10
-12.4000000000
20
18.1069714148
30
0.0000000000
10
-12.3988905424
20
18.1283780465
30
0.0000000000
10
-12.3939076019
20
18.1601136643
30
0.0000000000
10
-12.3856699991
20
18.1910899367
30
0.0000000000
10
-12.3742975698
20
18.2209493025
30
0.0000000000
10
-12.3599135769
20
18.2494092599
30
0.0000000000
10
-12.3426632963
20
18.2761708290
30
0.0000000000
10
-12.3228029304
20
18.3008639511
30
0.0000000000
10
-12.3005646315
20
18.3232585541
30
0.0000000000
10
-12.2761639596
20
18.3431597337
30
0.0000000000
10
-12.2498494891
20
18.3603595750
30
0.0000000000
10
-12.2219881351
20
18.3746389715
30
0.0000000000
10
-12.1928600946
20
18.3858886379
30
0.0000000000
10
-12.1627279798
20
18.3940121733
30
0.0000000000
10
-12.1319374816
20
18.3989110886
30
0.0000000000
10
-12.1111948868
20
18.4000000000
30
0.0000000000
10
-12.1008636137
20
18.4000000000
30
0.0000000000
11
-12.4000000000
21
18.0962952155
31
0.0000000000
11
-12.3983409031
21
18.1282808135
31
0.0000000000
11
-12.3933543974
21
18.1600332706
31
0.0000000000
11
-12.3851189905
21
18.1909936229
31
0.0000000000
11
-12.3737971976
21
18.2207142241
31
0.0000000000
11
-12.3594314097
21
18.2491326374
31
0.0000000000
11
-12.3421762894
21
18.2758968287
31
0.0000000000
11
-12.3223343101
21
18.3005628205
31
0.0000000000
11
-12.3002126062
21
18.3228363249
31
0.0000000000
11
-12.2758305114
21
18.3427191506
31
0.0000000000
11
-12.2495169715
21
18.3599157509
31
0.0000000000
11
-12.2217142475
21
18.3741631161
31
0.0000000000
11
-12.1927264411
21
18.3853570992
31
0.0000000000
11
-12.1626122270
21
18.3934751049
31
0.0000000000
11
-12.1318147720
21
18.3983743790
31
0.0000000000
11
-12.1008636137
21
18.4000000000
31
0.0000000000
0
SPLINE
5
281
100
AcDbEntity
8
0
100
AcDbSpline
62
7
6
CONTINUOUS
70
0
71
3
72
22
73
18
74
16
42
0.0000001000
43
0.0000001000
44
0.0000000001
12
0.4733254049
22
0.0000000000
32
0.0000000000
13
-0.0000000000
23
-0.4733254049
33
0.0000000000
40
0.0000000000
40
0.0000000000
40
0.0000000000
40
0.0000000000
40
0.0654809971
40
0.1313652903
40
0.1972591280
40
0.2629096833
40
0.3289121847
40
0.3953241338
40
0.4617927791
40
0.5281157275
40
0.5949961533
40
0.6622740259
40
0.7295492765
40
0.7967420414
40
0.8644268450
40
0.9323328147
40
1.0000000000
40
1.0000000000
40
1.0000000000
40
1.0000000000
10
12.1008636137
20
18.4000000000
30
0.0000000000
10
12.1111948868
20
18.4000000000
30
0.0000000000
10
12.1319374816
20
18.3989110886
30
0.0000000000
10
12.1627279798
20
18.3940121733
30
0.0000000000
10
12.1928600946
20
18.3858886379
30
0.0000000000
10
12.2219881351
20
18.3746389715
30
0.0000000000
10
12.2498494891
20
18.3603595750
30
0.0000000000
10
12.2761639596
20
18.3431597337
30
0.0000000000
10
12.3005646315
20
18.3232585541
30
0.0000000000
10
12.3228029304
20
18.3008639511
30
0.0000000000
10
12.3426632963
20
18.2761708290
30
0.0000000000
10
12.3599135769
20
18.2494092599
30
0.0000000000
10
12.3742975698
20
18.2209493025
30
0.0000000000
10
12.3856699991
20
18.1910899367
30
0.0000000000
10
12.3939076019
20
18.1601136643
30
0.0000000000
10
12.3988905424
20
18.1283780465
30
0.0000000000
10
12.4000000000
20
18.1069714148
30
0.0000000000
10
12.4000000000
20
18.0962952155
30
0.0000000000
11
12.1008636137
21
18.4000000000
31
0.0000000000
11
12.1318147720
21
18.3983743790
31
0.0000000000
11
12.1626122270
21
18.3934751049
31
0.0000000000
11
12.1927264411
21
18.3853570992
31
0.0000000000
11
12.2217142475
21
18.3741631161
31
0.0000000000
11
12.2495169715
21
18.3599157509
31
0.0000000000
11
12.2758305114
21
18.3427191506
31
0.0000000000
11
12.3002126062
21
18.3228363249
31
0.0000000000
11
12.3223343101
21
18.3005628205
31
0.0000000000
11
12.3421762894
21
18.2758968287
31
0.0000000000
11
12.3594314097
21
18.2491326374
31
0.0000000000
11
12.3737971976
21
18.2207142241
31
0.0000000000
11
12.3851189905
21
18.1909936229
31
0.0000000000
11
12.3933543974
21
18.1600332706
31
0.0000000000
11
12.3983409031
21
18.1282808135
31
0.0000000000
11
12.4000000000
21
18.0962952155
31
0.0000000000
0
SPLINE
5
282
100
AcDbEntity
8
0
100
AcDbSpline
62
7
6
CONTINUOUS
70
0
71
3
72
22
73
18
74
16
42
0.0000001000
43
0.0000001000
44
0.0000000001
12
0.0000000000
22
-0.4733254049
32
0.0000000000
13
-0.4733254049
23
0.0000000000
33
0.0000000000
40
0.0000000000
40
0.0000000000
40
0.0000000000
40
0.0000000000
40
0.0676671853
40
0.1355731550
40
0.2032579586
40
0.2704507235
40
0.3377259741
40
0.4050038467
40
0.4718842725
40
0.5382072209
40
0.6046758662
40
0.6710878153
40
0.7370903167
40
0.8027408720
40
0.8686347097
40
0.9345190029
40
1.0000000000
40
1.0000000000
40
1.0000000000
40
1.0000000000
10
12.4000000000
20
-18.0962952155
30
0.0000000000
10
12.4000000000
20
-18.1069714148
30
0.0000000000
10
12.3988905424
20
-18.1283780465
30
0.0000000000
10
12.3939076019
20
-18.1601136643
30
0.0000000000
10
12.3856699991
20
-18.1910899367
30
0.0000000000
10
12.3742975698
20
-18.2209493025
30
0.0000000000
10
12.3599135769
20
-18.2494092599
30
0.0000000000
10
12.3426632963
20
-18.2761708290
30
0.0000000000
10
12.3228029304
20
-18.3008639511
30
0.0000000000
10
12.3005646315
20
-18.3232585541
30
0.0000000000
10
12.2761639596
20
-18.3431597337
30
0.0000000000
10
12.2498494891
20
-18.3603595750
30
0.0000000000
10
12.2219881351
20
-18.3746389715
30
0.0000000000
10
12.1928600946
20
-18.3858886379
30
0.0000000000
10
12.1627279798
20
-18.3940121733
30
0.0000000000
10
12.1319374816
20
-18.3989110886
30
0.0000000000
10
12.1111948868
20
-18.4000000000
30
0.0000000000
10
12.1008636137
20
-18.4000000000
30
0.0000000000
11
12.4000000000
21
-18.0962952155
31
0.0000000000
11
12.3983409031
21
-18.1282808135
31
0.0000000000
11
12.3933543974
21
-18.1600332706
31
0.0000000000
11
12.3851189905
21
-18.1909936229
31
0.0000000000
11
12.3737971976
21
-18.2207142241
31
0.0000000000
11
12.3594314097
21
-18.2491326374
31
0.0000000000
11
12.3421762894
21
-18.2758968287
31
0.0000000000
11
12.3223343101
21
-18.3005628205
31
0.0000000000
11
12.3002126062
21
-18.3228363249
31
0.0000000000
11
12.2758305114
21
-18.3427191506
31
0.0000000000
11
12.2495169715
21
-18.3599157509
31
0.0000000000
11
12.2217142475
21
-18.3741631161
31
0.0000000000
11
12.1927264411
21
-18.3853570992
31
0.0000000000
11
12.1626122270
21
-18.3934751049
31
0.0000000000
11
12.1318147720
21
-18.3983743790
31
0.0000000000
11
12.1008636137
21
-18.4000000000
31
0.0000000000
0
SPLINE
5
283
100
AcDbEntity
8
0
100
AcDbSpline
62
7
6
CONTINUOUS
70
0
71
3
72
57
73
53
74
51
42
0.0000001000
43
0.0000001000
44
0.0000000001
12
0.0000000000
22
-7.8355163596
32
0.0000000000
13
0.0000000000
23
7.8355163596
33
0.0000000000
40
0.0000000000
40
0.0000000000
40
0.0000000000
40
0.0000000000
40
0.0199000596
40
0.0398086625
40
0.0597095877
40
0.0796281906
40
0.0995384065
40
0.1194692821
40
0.1393981664
40
0.1593428421
40
0.1792977335
40
0.1992575249
40
0.2192391103
40
0.2392195101
40
0.2592263127
40
0.2792319768
40
0.2992609953
40
0.3192948134
40
0.3393417715
40
0.3594027551
40
0.3794642209
40
0.3995459777
40
0.4196212316
40
0.4397163253
40
0.4598035523
40
0.4799037188
40
0.5000003544
40
0.5200969400
40
0.5401971510
40
0.5602843589
40
0.5803794513
40
0.6004547208
40
0.6205364320
40
0.6405979427
40
0.6606588493
40
0.6807058663
40
0.7007396384
40
0.7207686750
40
0.7407743510
40
0.7607811080
40
0.7807615675
40
0.8007430622
40
0.8207029339
40
0.8406577295
40
0.8606024639
40
0.8805313359
40
0.9004621810
40
0.9203724631
40
0.9402909634
40
0.9601919945
40
0.9801004703
40
1.0000000000
40
1.0000000000
40
1.0000000000
40
1.0000000000
10
2.5000000000
20
0.0000000000
30
0.0000000000
10
2.5000000000
20
-0.0519757476
30
0.0000000000
10
2.4967267974
20
-0.1559792484
30
0.0000000000
10
2.4820160518
20
-0.3113341635
30
0.0000000000
10
2.4575560703
20
-0.4655104404
30
0.0000000000
10
2.4234473125
20
-0.6178457733
30
0.0000000000
10
2.3798048122
20
-0.7678101184
30
0.0000000000
10
2.3268104254
20
-0.9147590220
30
0.0000000000
10
2.2646461837
20
-1.0581678434
30
0.0000000000
10
2.1935622218
20
-1.1974416551
30
0.0000000000
10
2.1138236177
20
-1.3320415661
30
0.0000000000
10
2.0257310094
20
-1.4614449097
30
0.0000000000
10
1.9296414261
20
-1.5851107358
30
0.0000000000
10
1.8258930426
20
-1.7025889943
30
0.0000000000
10
1.7149274490
20
-1.8133648432
30
0.0000000000
10
1.5971305134
20
-1.9170389482
30
0.0000000000
10
1.4730024844
20
-2.0131580092
30
0.0000000000
10
1.3429973479
20
-2.1013575464
30
0.0000000000
10
1.2076426203
20
-2.1812690238
30
0.0000000000
10
1.0674765785
20
-2.2525638583
30
0.0000000000
10
0.9230315979
20
-2.3149632209
30
0.0000000000
10
0.7749224138
20
-2.3681937281
30
0.0000000000
10
0.6236828159
20
-2.4120571574
30
0.0000000000
10
0.4699765944
20
-2.4463554881
30
0.0000000000
10
0.3143583963
20
-2.4709604224
30
0.0000000000
10
0.1574997626
20
-2.4857627092
30
0.0000000000
10
-0.0000026494
20
-2.4907034668
30
0.0000000000
10
-0.1575051664
20
-2.4857623694
30
0.0000000000
10
-0.3143637054
20
-2.4709597550
30
0.0000000000
10
-0.4699819122
20
-2.4463544737
30
0.0000000000
10
-0.6236880483
20
-2.4120558175
30
0.0000000000
10
-0.7749274732
20
-2.3681920845
30
0.0000000000
10
-0.9230365810
20
-2.3149612513
30
0.0000000000
10
-1.0674812438
20
-2.2525616638
30
0.0000000000
10
-1.2076472000
20
-2.1812665087
30
0.0000000000
10
-1.3430016213
20
-2.1013548404
30
0.0000000000
10
-1.4730066426
20
-2.0131549905
30
0.0000000000
10
-1.5971344447
20
-1.9170357048
30
0.0000000000
10
-1.7149311357
20
-1.8133613833
30
0.0000000000
10
-1.8258965539
20
-1.7025852634
30
0.0000000000
10
-1.9296445662
20
-1.5851069427
30
0.0000000000
10
-2.0257339817
20
-1.4614408243
30
0.0000000000
10
-2.1138261789
20
-1.3320375349
30
0.0000000000
10
-2.1935645769
20
-1.1974373722
30
0.0000000000
10
-2.2646482164
20
-1.0581635401
30
0.0000000000
10
-2.3268121920
20
-0.9147545582
30
0.0000000000
10
-2.3798063194
20
-0.7678054969
30
0.0000000000
10
-2.4234484771
20
-0.6178412331
30
0.0000000000
10
-2.4575569841
20
-0.4655056595
30
0.0000000000
10
-2.4820166208
20
-0.3113296539
30
0.0000000000
10
-2.4967269387
20
-0.1559761460
30
0.0000000000
10
-2.5000000000
20
-0.0519743635
30
0.0000000000
10
-2.5000000000
20
0.0000000000
30
0.0000000000
11
2.5000000000
21
0.0000000000
31
0.0000000000
11
2.4950945708
21
-0.1558500620
31
0.0000000000
11
2.4803897990
21
-0.3111496273
31
0.0000000000
11
2.4559567300
21
-0.4651575664
31
0.0000000000
11
2.4218561858
21
-0.6174592084
31
0.0000000000
11
2.3782643354
21
-0.7672519963
31
0.0000000000
11
2.3252856676
21
-0.9141598729
31
0.0000000000
11
2.2631817612
21
-1.0574319745
31
0.0000000000
11
2.1921390148
21
-1.1966274363
31
0.0000000000
11
2.1124469054
21
-1.3311511931
31
0.0000000000
11
2.0244381485
21
-1.4604335966
31
0.0000000000
11
1.9283760917
21
-1.5840661398
31
0.0000000000
11
1.8247446140
21
-1.7014140525
31
0.0000000000
11
1.7138021364
21
-1.8121687459
31
0.0000000000
11
1.5961314918
21
-1.9157334981
31
0.0000000000
11
1.4720475872
21
-2.0118200586
31
0.0000000000
11
1.3421465688
21
-2.0999504918
31
0.0000000000
11
1.2068833232
21
-2.1798093459
31
0.0000000000
11
1.0667783113
21
-2.2510743799
31
0.0000000000
11
0.9224759348
21
-2.3134132218
31
0.0000000000
11
0.7743984443
21
-2.3666332665
31
0.0000000000
11
0.6233242183
21
-2.4104494965
31
0.0000000000
11
0.4696483818
21
-2.4447416446
31
0.0000000000
11
0.3141858660
21
-2.4693223931
31
0.0000000000
11
0.1573873163
21
-2.4841192667
31
0.0000000000
11
-0.0000027782
21
-2.4890565887
31
0.0000000000
11
-0.1573924703
21
-2.4841189430
31
0.0000000000
11
-0.3141913362
21
-2.4693217032
31
0.0000000000
11
-0.4696536510
21
-2.4447406412
31
0.0000000000
11
-0.6233294039
21
-2.4104481672
31
0.0000000000
11
-0.7744036530
21
-2.3666315770
31
0.0000000000
11
-0.9224806950
21
-2.3134113403
31
0.0000000000
11
-1.0667832628
21
-2.2510720539
31
0.0000000000
11
-1.2068875893
21
-2.1798070045
31
0.0000000000
11
-1.3421510703
21
-2.0999476399
31
0.0000000000
11
-1.4720516086
21
-2.0118171418
31
0.0000000000
11
-1.5961354311
21
-1.9157302446
31
0.0000000000
11
-1.7138059322
21
-1.8121651876
31
0.0000000000
11
-1.8247479338
21
-1.7014105231
31
0.0000000000
11
-1.9283794819
21
-1.5840620488
31
0.0000000000
11
-2.0244408570
21
-1.4604298749
31
0.0000000000
11
-2.1124497125
21
-1.3311467773
31
0.0000000000
11
-2.1921411764
21
-1.1966235109
31
0.0000000000
11
-2.2631838680
21
-1.0574275046
31
0.0000000000
11
-2.3252874536
21
-0.9141553695
31
0.0000000000
11
-2.3782657608
21
-0.7672476165
31
0.0000000000
11
-2.4218574621
21
-0.6174542458
31
0.0000000000
11
-2.4559575408
21
-0.4651533228
31
0.0000000000
11
-2.4803904456
21
-0.3111445176
31
0.0000000000
11
-2.4950948321
21
-0.1558459159
31
0.0000000000
11
-2.5000000000
21
0.0000000000
31
0.0000000000
0
SPLINE
5
284
100
AcDbEntity
8
0
100
AcDbSpline
62
7
6
CONTINUOUS
70
0
71
3
72
57
73
53
74
51
42
0.0000001000
43
0.0000001000
44
0.0000000001
12
0.0000000000
22
7.8355163596
32
0.0000000000
13
0.0000000000
23
-7.8355163596
33
0.0000000000
40
0.0000000000
40
0.0000000000
40
0.0000000000
40
0.0000000000
40
0.0199000596
40
0.0398086625
40
0.0597095877
40
0.0796281906
40
0.0995384065
40
0.1194692821
40
0.1393981664
40
0.1593428421
40
0.1792977335
40
0.1992575249
40
0.2192391103
40
0.2392195101
40
0.2592263127
40
0.2792319768
40
0.2992609953
40
0.3192948134
40
0.3393417715
40
0.3594027551
40
0.3794642209
40
0.3995459777
40
0.4196212316
40
0.4397163253
40
0.4598035523
40
0.4799037188
40
0.5000003544
40
0.5200969400
40
0.5401971510
40
0.5602843589
40
0.5803794513
40
0.6004547208
40
0.6205364320
40
0.6405979427
40
0.6606588493
40
0.6807058663
40
0.7007396384
40
0.7207686750
40
0.7407743510
40
0.7607811080
40
0.7807615675
40
0.8007430622
40
0.8207029339
40
0.8406577295
40
0.8606024639
40
0.8805313359
40
0.9004621810
40
0.9203724631
40
0.9402909634
40
0.9601919945
40
0.9801004703
40
1.0000000000
40
1.0000000000
40
1.0000000000
40
1.0000000000
10
-2.5000000000
20
0.0000000000
30
0.0000000000
10
-2.5000000000
20
0.0519757476
30
0.0000000000
10
-2.4967267974
20
0.1559792484
30
0.0000000000
10
-2.4820160518
20
0.3113341635
30
0.0000000000
10
-2.4575560703
20
0.4655104404
30
0.0000000000
10
-2.4234473125
20
0.6178457733
30
0.0000000000
10
-2.3798048122
20
0.7678101184
30
0.0000000000
10
-2.3268104254
20
0.9147590220
30
0.0000000000
10
-2.2646461837
20
1.0581678434
30
0.0000000000
10
-2.1935622218
20
1.1974416551
30
0.0000000000
10
-2.1138236177
20
1.3320415661
30
0.0000000000
10
-2.0257310094
20
1.4614449097
30
0.0000000000
10
-1.9296414261
20
1.5851107358
30
0.0000000000
10
-1.8258930426
20
1.7025889943
30
0.0000000000
10
-1.7149274490
20
1.8133648432
30
0.0000000000
10
-1.5971305134
20
1.9170389482
30
0.0000000000
10
-1.4730024844
20
2.0131580092
30
0.0000000000
10
-1.3429973479
20
2.1013575464
30
0.0000000000
10
-1.2076426203
20
2.1812690238
30
0.0000000000
10
-1.0674765785
20
2.2525638583
30
0.0000000000
10
-0.9230315979
20
2.3149632209
30
0.0000000000
10
-0.7749224138
20
2.3681937281
30
0.0000000000
10
-0.6236828159
20
2.4120571574
30
0.0000000000
10
-0.4699765944
20
2.4463554881
30
0.0000000000
10
-0.3143583963
20
2.4709604224
30
0.0000000000
10
-0.1574997626
20
2.4857627092
30
0.0000000000
10
0.0000026494
20
2.4907034668
30
0.0000000000
10
0.1575051664
20
2.4857623694
30
0.0000000000
10
0.3143637054
20
2.4709597550
30
0.0000000000
10
0.4699819122
20
2.4463544737
30
0.0000000000
10
0.6236880483
20
2.4120558175
30
0.0000000000
10
0.7749274732
20
2.3681920845
30
0.0000000000
10
0.9230365810
20
2.3149612513
30
0.0000000000
10
1.0674812438
20
2.2525616638
30
0.0000000000
10
1.2076472000
20
2.1812665087
30
0.0000000000
10
1.3430016213
20
2.1013548404
30
0.0000000000
10
1.4730066426
20
2.0131549905
30
0.0000000000
10
1.5971344447
20
1.9170357048
30
0.0000000000
10
1.7149311357
20
1.8133613833
30
0.0000000000
10
1.8258965539
20
1.7025852634
30
0.0000000000
10
1.9296445662
20
1.5851069427
30
0.0000000000
10
2.0257339817
20
1.4614408243
30
0.0000000000
10
2.1138261789
20
1.3320375349
30
0.0000000000
10
2.1935645769
20
1.1974373722
30
0.0000000000
10
2.2646482164
20
1.0581635401
30
0.0000000000
10
2.3268121920
20
0.9147545582
30
0.0000000000
10
2.3798063194
20
0.7678054969
30
0.0000000000
10
2.4234484771
20
0.6178412331
30
0.0000000000
10
2.4575569841
20
0.4655056595
30
0.0000000000
10
2.4820166208
20
0.3113296539
30
0.0000000000
10
2.4967269387
20
0.1559761460
30
0.0000000000
10
2.5000000000
20
0.0519743635
30
0.0000000000
10
2.5000000000
20
0.0000000000
30
0.0000000000
11
-2.5000000000
21
0.0000000000
31
0.0000000000
11
-2.4950945708
21
0.1558500620
31
0.0000000000
11
-2.4803897990
21
0.3111496273
31
0.0000000000
11
-2.4559567300
21
0.4651575664
31
0.0000000000
11
-2.4218561858
21
0.6174592084
31
0.0000000000
11
-2.3782643354
21
0.7672519963
31
0.0000000000
11
-2.3252856676
21
0.9141598729
31
0.0000000000
11
-2.2631817612
21
1.0574319745
31
0.0000000000
11
-2.1921390148
21
1.1966274363
31
0.0000000000
11
-2.1124469054
21
1.3311511931
31
0.0000000000
11
-2.0244381485
21
1.4604335966
31
0.0000000000
11
-1.9283760917
21
1.5840661398
31
0.0000000000
11
-1.8247446140
21
1.7014140525
31
0.0000000000
11
-1.7138021364
21
1.8121687459
31
0.0000000000
11
-1.5961314918
21
1.9157334981
31
0.0000000000
11
-1.4720475872
21
2.0118200586
31
0.0000000000
11
-1.3421465688
21
2.0999504918
31
0.0000000000
11
-1.2068833232
21
2.1798093459
31
0.0000000000
11
-1.0667783113
21
2.2510743799
31
0.0000000000
11
-0.9224759348
21
2.3134132218
31
0.0000000000
11
-0.7743984443
21
2.3666332665
31
0.0000000000
11
-0.6233242183
21
2.4104494965
31
0.0000000000
11
-0.4696483818
21
2.4447416446
31
0.0000000000
11
-0.3141858660
21
2.4693223931
31
0.0000000000
11
-0.1573873163
21
2.4841192667
31
0.0000000000
11
0.0000027782
21
2.4890565887
31
0.0000000000
11
0.1573924703
21
2.4841189430
31
0.0000000000
11
0.3141913362
21
2.4693217032
31
0.0000000000
11
0.4696536510
21
2.4447406412
31
0.0000000000
11
0.6233294039
21
2.4104481672
31
0.0000000000
11
0.7744036530
21
2.3666315770
31
0.0000000000
11
0.9224806950
21
2.3134113403
31
0.0000000000
11
1.0667832628
21
2.2510720539
31
0.0000000000
11
1.2068875893
21
2.1798070045
31
0.0000000000
11
1.3421510703
21
2.0999476399
31
0.0000000000
11
1.4720516086
21
2.0118171418
31
0.0000000000
11
1.5961354311
21
1.9157302446
31
0.0000000000
11
1.7138059322
21
1.8121651876
31
0.0000000000
11
1.8247479338
21
1.7014105231
31
0.0000000000
11
1.9283794819
21
1.5840620488
31
0.0000000000
11
2.0244408570
21
1.4604298749
31
0.0000000000
11
2.1124497125
21
1.3311467773
31
0.0000000000
11
2.1921411764
21
1.1966235109
31
0.0000000000
11
2.2631838680
21
1.0574275046
31
0.0000000000
11
2.3252874536
21
0.9141553695
31
0.0000000000
11
2.3782657608
21
0.7672476165
31
0.0000000000
11
2.4218574621
21
0.6174542458
31
0.0000000000
11
2.4559575408
21
0.4651533228
31
0.0000000000
11
2.4803904456
21
0.3111445176
31
0.0000000000
11
2.4950948321
21
0.1558459159
31
0.0000000000
11
2.5000000000
21
0.0000000000
31
0.0000000000
0
SPLINE
5
285
100
AcDbEntity
8
0
100
AcDbSpline
62
9
6
CONTINUOUS
70
0
71
3
72
22
73
18
74
16
42
0.0000001000
43
0.0000001000
44
0.0000000001
12
0.0014367926
22
-0.4669669341
32
0.0000000000
13
0.4669670641
23
-0.0013938929
33
0.0000000000
40
0.0000000000
40
0.0000000000
40
0.0000000000
40
0.0000000000
40
0.0661103930
40
0.1322638428
40
0.1984799513
40
0.2647755418
40
0.3311639233
40
0.3976543190
40
0.4642514785
40
0.5309554922
40
0.5977618086
40
0.6646614531
40
0.7316414334
40
0.7986853115
40
0.8657739179
40
0.9328861755
40
1.0000000000
40
1.0000000000
40
1.0000000000
40
1.0000000000
10
-12.2950679731
20
-17.0362964381
30
0.0000000000
10
-12.2950363108
20
-17.0465868939
30
0.0000000000
10
-12.2938787457
20
-17.0671878067
30
0.0000000000
10
-12.2888811198
20
-17.0977313591
30
0.0000000000
10
-12.2806765585
20
-17.1276071707
30
0.0000000000
10
-12.2693549185
20
-17.1564844311
30
0.0000000000
10
-12.2550401006
20
-17.1840491135
30
0.0000000000
10
-12.2378886848
20
-17.2100000750
30
0.0000000000
10
-12.2180881797
20
-17.2340543068
30
0.0000000000
10
-12.1958549501
20
-17.2559494796
30
0.0000000000
10
-12.1714318214
20
-17.2754469249
30
0.0000000000
10
-12.1450854501
20
-17.2923341731
30
0.0000000000
10
-12.1171032737
20
-17.3064272510
30
0.0000000000
10
-12.0877908790
20
-17.3175726546
30
0.0000000000
10
-12.0574668067
20
-17.3256490025
30
0.0000000000
10
-12.0264660900
20
-17.3305683171
30
0.0000000000
10
-12.0055603131
20
-17.3317075808
30
0.0000000000
10
-11.9951136646
20
-17.3317387640
30
0.0000000000
11
-12.2950679731
21
-17.0362964381
31
0.0000000000
11
-12.2933362830
21
-17.0671193452
31
0.0000000000
11
-12.2883497880
21
-17.0976058512
31
0.0000000000
11
-12.2801629107
21
-17.1274232259
31
0.0000000000
11
-12.2688650026
21
-17.1562460421
31
0.0000000000
11
-12.2545793690
21
-17.1837597273
31
0.0000000000
11
-12.2374619236
21
-17.2096639967
31
0.0000000000
11
-12.2176994861
21
-17.2336761308
31
0.0000000000
11
-12.1955077440
21
-17.2555340608
31
0.0000000000
11
-12.1711288982
21
-17.2749992288
31
0.0000000000
11
-12.1448290196
21
-17.2918591917
31
0.0000000000
11
-12.1168951455
21
-17.3059299395
31
0.0000000000
11
-12.0876321466
21
-17.3170579038
31
0.0000000000
11
-12.0573593996
21
-17.3251216339
31
0.0000000000
11
-12.0264073017
21
-17.3300331220
31
0.0000000000
11
-11.9951136646
21
-17.3317387640
31
0.0000000000
0
SPLINE
5
286
100
AcDbEntity
8
0
100
AcDbSpline
62
9
6
CONTINUOUS
70
0
71
3
72
25
73
21
74
19
42
0.0000001000
43
0.0000001000
44
0.0000000001
12
0.0654172135
22
0.9440976861
32
0.0000000000
13
0.0004462007
23
0.9463612701
33
0.0000000000
40
0.0000000000
40
0.0000000000
40
0.0000000000
40
0.0000000000
40
0.0168139800
40
0.0394426574
40
0.0677609164
40
0.1016088282
40
0.1407948368
40
0.1850966849
40
0.2342625483
40
0.2880129895
40
0.3460425649
40
0.4080213419
40
0.4735969130
40
0.5423965836
40
0.6140292037
40
0.6880872429
40
0.7641498830
40
0.8417850915
40
0.9205504175
40
1.0000000000
40
1.0000000000
40
1.0000000000
40
1.0000000000
10
-11.9951136646
20
-17.3317387640
30
0.0000000000
10
-11.9947470233
20
-17.3264474175
30
0.0000000000
10
-11.9940857197
20
-17.3140215134
30
0.0000000000
10
-11.9932302470
20
-17.2926631475
30
0.0000000000
10
-11.9923896915
20
-17.2659271668
30
0.0000000000
10
-11.9915694064
20
-17.2339656815
30
0.0000000000
10
-11.9907778155
20
-17.1969600342
30
0.0000000000
10
-11.9900201793
20
-17.1551207205
30
0.0000000000
10
-11.9893017131
20
-17.1086857086
30
0.0000000000
10
-11.9886269209
20
-17.0579191717
30
0.0000000000
10
-11.9879999649
20
-17.0031098600
30
0.0000000000
10
-11.9874246177
20
-16.9445695126
30
0.0000000000
10
-11.9869043019
20
-16.8826310595
30
0.0000000000
10
-11.9864420834
20
-16.8176467258
30
0.0000000000
10
-11.9860406707
20
-16.7499861141
30
0.0000000000
10
-11.9857024030
20
-16.6800339996
30
0.0000000000
10
-11.9854292482
20
-16.6081880483
30
0.0000000000
10
-11.9852227875
20
-16.5348569375
30
0.0000000000
10
-11.9850842187
20
-16.4604572424
30
0.0000000000
10
-11.9850377484
20
-16.4105477628
30
0.0000000000
10
-11.9850259316
20
-16.3854850935
30
0.0000000000
11
-11.9951136646
21
-17.3317387640
31
0.0000000000
11
-11.9942128936
21
-17.3158521792
31
0.0000000000
11
-11.9933293355
21
-17.2944555080
31
0.0000000000
11
-11.9924679756
21
-17.2676700476
31
0.0000000000
11
-11.9916337408
21
-17.2356485563
31
0.0000000000
11
-11.9908313648
21
-17.1985731126
31
0.0000000000
11
-11.9900654112
21
-17.1566545521
31
0.0000000000
11
-11.9893402378
21
-17.1101315295
31
0.0000000000
11
-11.9886599683
21
-17.0592687369
31
0.0000000000
11
-11.9880284688
21
-17.0043554192
31
0.0000000000
11
-11.9874493299
21
-16.9457039577
31
0.0000000000
11
-11.9869258440
21
-16.8836479780
31
0.0000000000
11
-11.9864609857
21
-16.8185402866
31
0.0000000000
11
-11.9860573976
21
-16.7507511431
31
0.0000000000
11
-11.9857173745
21
-16.6806663001
31
0.0000000000
11
-11.9854428480
21
-16.6086840789
31
0.0000000000
11
-11.9852353760
21
-16.5352134091
31
0.0000000000
11
-11.9850961418
21
-16.4606730769
31
0.0000000000
11
-11.9850259316
21
-16.3854850935
31
0.0000000000
0
SPLINE
5
287
100
AcDbEntity
8
0
100
AcDbSpline
62
9
6
CONTINUOUS
70
0
71
3
72
25
73
21
74
19
42
0.0000001000
43
0.0000001000
44
0.0000000001
12
0.0652641256
22
0.6593090502
32
0.0000000000
13
0.0004462608
23
0.6625312299
33
0.0000000000
40
0.0000000000
40
0.0000000000
40
0.0000000000
40
0.0000000000
40
0.0168354648
40
0.0394807871
40
0.0678104358
40
0.1016661312
40
0.1408571863
40
0.1851619255
40
0.2343289174
40
0.2880790161
40
0.3461070037
40
0.4080831309
40
0.4736551368
40
0.5424503962
40
0.6140778564
40
0.6881300891
40
0.7641863711
40
0.8418147683
40
0.9205729123
40
1.0000000000
40
1.0000000000
40
1.0000000000
40
1.0000000000
10
-12.2950679731
20
-17.0362964381
30
0.0000000000
10
-12.2947017225
20
-17.0325965133
30
0.0000000000
10
-12.2940404212
20
-17.0239008999
30
0.0000000000
10
-12.2931848666
20
-17.0089497645
30
0.0000000000
10
-12.2923442160
20
-16.9902338333
30
0.0000000000
10
-12.2915238812
20
-16.9678604031
30
0.0000000000
10
-12.2907322519
20
-16.9419560059
30
0.0000000000
10
-12.2899745842
20
-16.9126679746
30
0.0000000000
10
-12.2892560915
20
-16.8801628222
30
0.0000000000
10
-12.2885812757
20
-16.8446254595
30
0.0000000000
10
-12.2879542993
20
-16.8062580036
30
0.0000000000
10
-12.2873789345
20
-16.7652786764
30
0.0000000000
10
-12.2868586044
20
-16.7219205519
30
0.0000000000
10
-12.2863963751
20
-16.6764302202
30
0.0000000000
10
-12.2859949548
20
-16.6290664385
30
0.0000000000
10
-12.2856566840
20
-16.5800985742
30
0.0000000000
10
-12.2853835280
20
-16.5298050151
30
0.0000000000
10
-12.2851770727
20
-16.4784718589
30
0.0000000000
10
-12.2850385174
20
-16.4263940519
30
0.0000000000
10
-12.2849920552
20
-16.3914598441
30
0.0000000000
10
-12.2849802401
20
-16.3739188688
30
0.0000000000
11
-12.2950679731
21
-17.0362964381
31
0.0000000000
11
-12.2941674075
21
-17.0251788292
31
0.0000000000
11
-12.2932838185
21
-17.0102016339
31
0.0000000000
11
-12.2924224381
21
-16.9914521288
31
0.0000000000
11
-12.2915881781
21
-16.9690371879
31
0.0000000000
11
-12.2907857790
21
-16.9430842852
31
0.0000000000
11
-12.2900198024
21
-16.9137410010
31
0.0000000000
11
-12.2892946073
21
-16.8811743994
31
0.0000000000
11
-12.2886143175
21
-16.8455697707
31
0.0000000000
11
-12.2879827996
21
-16.8071295952
31
0.0000000000
11
-12.2874036445
21
-16.7660725507
31
0.0000000000
11
-12.2868801450
21
-16.7226321934
31
0.0000000000
11
-12.2864152764
21
-16.6770555459
31
0.0000000000
11
-12.2860116814
21
-16.6296018221
31
0.0000000000
11
-12.2856716551
21
-16.5805410724
31
0.0000000000
11
-12.2853971284
21
-16.5301521468
31
0.0000000000
11
-12.2851896608
21
-16.4787213161
31
0.0000000000
11
-12.2850504328
21
-16.4265417600
31
0.0000000000
11
-12.2849802401
21
-16.3739188688
31
0.0000000000
0
SPLINE
5
288
100
AcDbEntity
8
0
100
AcDbSpline
62
9
6
CONTINUOUS
70
0
71
3
72
21
73
17
74
15
42
0.0000001000
43
0.0000001000
44
0.0000000001
12
0.1238971533
22
-0.2739463655
32
0.0000000000
13
0.3006610631
23
-0.0002021836
33
0.0000000000
40
0.0000000000
40
0.0000000000
40
0.0000000000
40
0.0000000000
40
0.0091178633
40
0.0297823121
40
0.0621959371
40
0.1060527834
40
0.1608483737
40
0.2259261895
40
0.3004961055
40
0.3836477779
40
0.4743634213
40
0.5715311043
40
0.6739588503
40
0.7803895492
40
0.8895165812
40
1.0000000000
40
1.0000000000
40
1.0000000000
40
1.0000000000
10
-12.2849802401
20
-16.3739188688
30
0.0000000000
10
-12.2846036810
20
-16.3747514706
30
0.0000000000
10
-12.2811445546
20
-16.3755054035
30
0.0000000000
10
-12.2754990300
20
-16.3767823588
30
0.0000000000
10
-12.2655937441
20
-16.3778537713
30
0.0000000000
10
-12.2526146656
20
-16.3790303964
30
0.0000000000
10
-12.2362009944
20
-16.3801125953
30
0.0000000000
10
-12.2167546050
20
-16.3811466325
30
0.0000000000
10
-12.1944407280
20
-16.3820922156
30
0.0000000000
10
-12.1695580414
20
-16.3829439171
30
0.0000000000
10
-12.1424043707
20
-16.3836874993
30
0.0000000000
10
-12.1133160157
20
-16.3843139288
30
0.0000000000
10
-12.0826498886
20
-16.3848148030
30
0.0000000000
10
-12.0507832974
20
-16.3851837436
30
0.0000000000
10
-12.0181080536
20
-16.3854160112
30
0.0000000000
10
-11.9960986189
20
-16.3854776476
30
0.0000000000
10
-11.9850259316
20
-16.3854850935
30
0.0000000000
11
-12.2849802401
21
-16.3739188688
31
0.0000000000
11
-12.2825564943
21
-16.3751997510
31
0.0000000000
11
-12.2764736682
21
-16.3764648807
31
0.0000000000
11
-12.2668065695
21
-16.3776986991
31
0.0000000000
11
-12.2536740858
21
-16.3788860326
31
0.0000000000
11
-12.2372377226
21
-16.3800122790
31
0.0000000000
11
-12.2176996169
21
-16.3810635877
31
0.0000000000
11
-12.1953000517
21
-16.3820270295
31
0.0000000000
11
-12.1703145004
21
-16.3828907557
31
0.0000000000
11
-12.1430502396
21
-16.3836441442
31
0.0000000000
11
-12.1138425696
21
-16.3842779296
31
0.0000000000
11
-12.0830506913
21
-16.3847843176
31
0.0000000000
11
-12.0510532882
21
-16.3851570805
31
0.0000000000
11
-12.0182438697
21
-16.3853916340
31
0.0000000000
11
-11.9850259316
21
-16.3854850935
31
0.0000000000
0
SPLINE
5
289
100
AcDbEntity
8
0
100
AcDbSpline
62
9
6
CONTINUOUS
70
0
71
3
72
17
73
13
74
11
42
0.0000001000
43
0.0000001000
44
0.0000000001
12
0.0220545085
22
32.7709652134
32
0.0000000000
13
-0.0220545084
23
32.7709652134
33
0.0000000000
40
0.0000000000
40
0.0000000000
40
0.0000000000
40
0.0000000000
40
0.0999643191
40
0.1999524246
40
0.2999583713
40
0.3999762122
40
0.5000000000
40
0.6000237878
40
0.7000416287
40
0.8000475754
40
0.9000356809
40
1.0000000000
40
1.0000000000
40
1.0000000000
40
1.0000000000
10
-11.9850259316
20
-16.3854850935
30
0.0000000000
10
-11.9842910436
20
-15.2935093523
30
0.0000000000
10
-11.9829682517
20
-13.1092979330
30
0.0000000000
10
-11.9814250864
20
-9.8326557609
30
0.0000000000
10
-11.9803227599
20
-6.5554287567
30
0.0000000000
10
-11.9796613377
20
-3.2778118533
30
0.0000000000
10
-11.9794408593
20
-0.0000000000
30
0.0000000000
10
-11.9796613377
20
3.2778118532
30
0.0000000000
10
-11.9803227599
20
6.5554287567
30
0.0000000000
10
-11.9814250864
20
9.8326557608
30
0.0000000000
10
-11.9829682517
20
13.1092979329
30
0.0000000000
10
-11.9842910436
20
15.2935093523
30
0.0000000000
10
-11.9850259316
20
16.3854850935
30
0.0000000000
11
-11.9850259316
21
-16.3854850935
31
0.0000000000
11
-11.9830419208
21
-13.1095577287
31
0.0000000000
11
-11.9814986790
21
-9.8328506215
31
0.0000000000
11
-11.9803962978
21
-6.5555586650
31
0.0000000000
11
-11.9797348429
21
-3.2778768057
31
0.0000000000
11
-11.9795143536
21
-0.0000000000
31
0.0000000000
11
-11.9797348429
21
3.2778768057
31
0.0000000000
11
-11.9803962978
21
6.5555586650
31
0.0000000000
11
-11.9814986790
21
9.8328506215
31
0.0000000000
11
-11.9830419208
21
13.1095577287
31
0.0000000000
11
-11.9850259316
21
16.3854850935
31
0.0000000000
0
SPLINE
5
28A
100
AcDbEntity
8
0
100
AcDbSpline
62
9
6
CONTINUOUS
70
0
71
3
72
21
73
17
74
15
42
0.0000001000
43
0.0000001000
44
0.0000000001
12
0.1238977282
22
0.2739461049
32
0.0000000000
13
0.3006610626
23
0.0002021835
33
0.0000000000
40
0.0000000000
40
0.0000000000
40
0.0000000000
40
0.0000000000
40
0.0091178719
40
0.0297823287
40
0.0621959602
40
0.1060528113
40
0.1608484048
40
0.2259262220
40
0.3004961378
40
0.3836478087
40
0.4743634491
40
0.5715311281
40
0.6739588690
40
0.7803895621
40
0.8895165878
40
1.0000000000
40
1.0000000000
40
1.0000000000
40
1.0000000000
10
-12.2849802401
20
16.3739188688
30
0.0000000000
10
-12.2846036789
20
16.3747514706
30
0.0000000000
10
-12.2811445527
20
16.3755054030
30
0.0000000000
10
-12.2754990240
20
16.3767823586
30
0.0000000000
10
-12.2655937371
20
16.3778537709
30
0.0000000000
10
-12.2526146568
20
16.3790303959
30
0.0000000000
10
-12.2362009849
20
16.3801125947
30
0.0000000000
10
-12.2167545950
20
16.3811466318
30
0.0000000000
10
-12.1944407181
20
16.3820922148
30
0.0000000000
10
-12.1695580320
20
16.3829439162
30
0.0000000000
10
-12.1424043622
20
16.3836874982
30
0.0000000000
10
-12.1133160085
20
16.3843139277
30
0.0000000000
10
-12.0826498829
20
16.3848148018
30
0.0000000000
10
-12.0507832935
20
16.3851837424
30
0.0000000000
10
-12.0181080515
20
16.3854160100
30
0.0000000000
10
-11.9960986183
20
16.3854776463
30
0.0000000000
10
-11.9850259316
20
16.3854850922
30
0.0000000000
11
-12.2849802401
21
16.3739188688
31
0.0000000000
11
-12.2825564913
21
16.3751997509
31
0.0000000000
11
-12.2764736627
21
16.3764648805
31
0.0000000000
11
-12.2668065621
21
16.3776986988
31
0.0000000000
11
-12.2536740770
21
16.3788860322
31
0.0000000000
11
-12.2372377128
21
16.3800122785
31
0.0000000000
11
-12.2176996067
21
16.3810635870
31
0.0000000000
11
-12.1953000416
21
16.3820270287
31
0.0000000000
11
-12.1703144908
21
16.3828907548
31
0.0000000000
11
-12.1430502310
21
16.3836441432
31
0.0000000000
11
-12.1138425623
21
16.3842779285
31
0.0000000000
11
-12.0830506855
21
16.3847843164
31
0.0000000000
11
-12.0510532842
21
16.3851570793
31
0.0000000000
11
-12.0182438677
21
16.3853916327
31
0.0000000000
11
-11.9850259316
21
16.3854850922
31
0.0000000000
0
SPLINE
5
28B
100
AcDbEntity
8
0
100
AcDbSpline
62
9
6
CONTINUOUS
70
0
71
3
72
25
73
21
74
19
42
0.0000001000
43
0.0000001000
44
0.0000000001
12
-0.0004462263
22
0.9463612702
32
0.0000000000
13
-0.0654163801
23
0.9440977439
33
0.0000000000
40
0.0000000000
40
0.0000000000
40
0.0000000000
40
0.0000000000
40
0.0794495423
40
0.1582148743
40
0.2358500854
40
0.3119127222
40
0.3859707669
40
0.4576033897
40
0.5264030587
40
0.5919786305
40
0.6539574094
40
0.7119869856
40
0.7657374290
40
0.8149032960
40
0.8592051448
40
0.8983911530
40
0.9322390689
40
0.9605573298
40
0.9831860090
40
1.0000000000
40
1.0000000000
40
1.0000000000
40
1.0000000000
10
-11.9850259316
20
16.3854850935
30
0.0000000000
10
-11.9850377490
20
16.4105477501
30
0.0000000000
10
-11.9850842179
20
16.4604572189
30
0.0000000000
10
-11.9852227878
20
16.5348569041
30
0.0000000000
10
-11.9854292477
20
16.6081880166
30
0.0000000000
10
-11.9857024026
20
16.6800339694
30
0.0000000000
10
-11.9860406700
20
16.7499860854
30
0.0000000000
10
-11.9864420826
20
16.8176466992
30
0.0000000000
10
-11.9869043008
20
16.8826310334
30
0.0000000000
10
-11.9874246164
20
16.9445694869
30
0.0000000000
10
-11.9879999635
20
17.0031098353
30
0.0000000000
10
-11.9886269194
20
17.0579191486
30
0.0000000000
10
-11.9893017116
20
17.1086856876
30
0.0000000000
10
-11.9900201777
20
17.1551207016
30
0.0000000000
10
-11.9907778138
20
17.1969600165
30
0.0000000000
10
-11.9915694051
20
17.2339656652
30
0.0000000000
10
-11.9923896890
20
17.2659271523
30
0.0000000000
10
-11.9932302475
20
17.2926631353
30
0.0000000000
10
-11.9940857140
20
17.3140215062
30
0.0000000000
10
-11.9947470277
20
17.3264474136
30
0.0000000000
10
-11.9951136646
20
17.3317387640
30
0.0000000000
11
-11.9850259316
21
16.3854850935
31
0.0000000000
11
-11.9850961415
21
16.4606730389
31
0.0000000000
11
-11.9852353760
21
16.5352133767
31
0.0000000000
11
-11.9854428477
21
16.6086840490
31
0.0000000000
11
-11.9857173740
21
16.6806662671
31
0.0000000000
11
-11.9860573970
21
16.7507511153
31
0.0000000000
11
-11.9864609849
21
16.8185402613
31
0.0000000000
11
-11.9869258429
21
16.8836479513
31
0.0000000000
11
-11.9874493286
21
16.9457039316
31
0.0000000000
11
-11.9880284674
21
17.0043553948
31
0.0000000000
11
-11.9886599667
21
17.0592687135
31
0.0000000000
11
-11.9893402362
21
17.1101315081
31
0.0000000000
11
-11.9900654096
21
17.1566545341
31
0.0000000000
11
-11.9908313632
21
17.1985730953
31
0.0000000000
11
-11.9916337392
21
17.2356485385
31
0.0000000000
11
-11.9924679739
21
17.2676700337
31
0.0000000000
11
-11.9933293342
21
17.2944554960
31
0.0000000000
11
-11.9942128917
21
17.3158521688
31
0.0000000000
11
-11.9951136646
21
17.3317387640
31
0.0000000000
0
SPLINE
5
28C
100
AcDbEntity
8
0
100
AcDbSpline
62
9
6
CONTINUOUS
70
0
71
3
72
25
73
21
74
19
42
0.0000001000
43
0.0000001000
44
0.0000000001
12
-0.0004462700
22
0.6625312298
32
0.0000000000
13
-0.0652644253
23
0.6593090205
33
0.0000000000
40
0.0000000000
40
0.0000000000
40
0.0000000000
40
0.0000000000
40
0.0794220638
40
0.1581801434
40
0.2358085054
40
0.3118647759
40
0.3859170398
40
0.4575445624
40
0.5263399164
40
0.5919120683
40
0.6538884451
40
0.7119167771
40
0.7656672946
40
0.8148347204
40
0.8591398904
40
0.8983313732
40
0.9321874924
40
0.9605175627
40
0.9831632770
40
1.0000000000
40
1.0000000000
40
1.0000000000
40
1.0000000000
10
-12.2849802401
20
16.3739188688
30
0.0000000000
10
-12.2849920547
20
16.3914587346
30
0.0000000000
10
-12.2850385135
20
16.4263918187
30
0.0000000000
10
-12.2851770618
20
16.4784684942
30
0.0000000000
10
-12.2853835120
20
16.5298016259
30
0.0000000000
10
-12.2856566633
20
16.5800951815
30
0.0000000000
10
-12.2859949289
20
16.6290630640
30
0.0000000000
10
-12.2863963442
20
16.6764268874
30
0.0000000000
10
-12.2868585683
20
16.7219172860
30
0.0000000000
10
-12.2873788935
20
16.7652755188
30
0.0000000000
10
-12.2879542539
20
16.8062550096
30
0.0000000000
10
-12.2885812269
20
16.8446226892
30
0.0000000000
10
-12.2892560401
20
16.8801603164
30
0.0000000000
10
-12.2899745310
20
16.9126657523
30
0.0000000000
10
-12.2907321974
20
16.9419540692
30
0.0000000000
10
-12.2915238256
20
16.9678587497
30
0.0000000000
10
-12.2923441607
20
16.9902324612
30
0.0000000000
10
-12.2931848097
20
17.0089486661
30
0.0000000000
10
-12.2940403796
20
17.0239002587
30
0.0000000000
10
-12.2947016934
20
17.0325962370
30
0.0000000000
10
-12.2950679731
20
17.0362964381
30
0.0000000000
11
-12.2849802401
21
16.3739188688
31
0.0000000000
11
-12.2850504261
21
16.4265384315
31
0.0000000000
11
-12.2851896496
21
16.4787179449
31
0.0000000000
11
-12.2853971124
21
16.5301487524
31
0.0000000000
11
-12.2856716341
21
16.5805376704
31
0.0000000000
11
-12.2860116554
21
16.6295984407
31
0.0000000000
11
-12.2864152453
21
16.6770522060
31
0.0000000000
11
-12.2868801086
21
16.7226289161
31
0.0000000000
11
-12.2874036030
21
16.7660693702
31
0.0000000000
11
-12.2879827537
21
16.8071265802
31
0.0000000000
11
-12.2886142681
21
16.8455669840
31
0.0000000000
11
-12.2892945555
21
16.8811718902
31
0.0000000000
11
-12.2900197488
21
16.9137387794
31
0.0000000000
11
-12.2907857241
21
16.9430823491
31
0.0000000000
11
-12.2915881221
21
16.9690355354
31
0.0000000000
11
-12.2924223815
21
16.9914507572
31
0.0000000000
11
-12.2932837617
21
17.0102005420
31
0.0000000000
11
-12.2941673508
21
17.0251779975
31
0.0000000000
11
-12.2950679731
21
17.0362964381
31
0.0000000000
0
SPLINE
5
28D
100
AcDbEntity
8
0
100
AcDbSpline
62
9
6
CONTINUOUS
70
0
71
3
72
22
73
18
74
16
42
0.0000001000
43
0.0000001000
44
0.0000000001
12
0.0014367926
22
0.4669669341
32
0.0000000000
13
0.4669670641
23
0.0013938929
33
0.0000000000
40
0.0000000000
40
0.0000000000
40
0.0000000000
40
0.0000000000
40
0.0661103978
40
0.1322638517
40
0.1984799636
40
0.2647755566
40
0.3311639400
40
0.3976543367
40
0.4642514965
40
0.5309555097
40
0.5977618250
40
0.6646614679
40
0.7316414458
40
0.7986853212
40
0.8657739246
40
0.9328861790
40
1.0000000000
40
1.0000000000
40
1.0000000000
40
1.0000000000
10
-12.2950679731
20
17.0362964381
30
0.0000000000
10
-12.2950363108
20
17.0465868947
30
0.0000000000
10
-12.2938787455
20
17.0671878088
30
0.0000000000
10
-12.2888811190
20
17.0977313631
30
0.0000000000
10
-12.2806765568
20
17.1276071760
30
0.0000000000
10
-12.2693549157
20
17.1564844374
30
0.0000000000
10
-12.2550400968
20
17.1840491202
30
0.0000000000
10
-12.2378886799
20
17.2100000816
30
0.0000000000
10
-12.2180881741
20
17.2340543129
30
0.0000000000
10
-12.1958549440
20
17.2559494849
30
0.0000000000
10
-12.1714318152
20
17.2754469293
30
0.0000000000
10
-12.1450854441
20
17.2923341765
30
0.0000000000
10
-12.1171032684
20
17.3064272533
30
0.0000000000
10
-12.0877908746
20
17.3175726560
30
0.0000000000
10
-12.0574668037
20
17.3256490031
30
0.0000000000
10
-12.0264660885
20
17.3305683173
30
0.0000000000
10
-12.0055603125
20
17.3317075808
30
0.0000000000
10
-11.9951136646
20
17.3317387640
30
0.0000000000
11
-12.2950679731
21
17.0362964381
31
0.0000000000
11
-12.2933362828
21
17.0671193475
31
0.0000000000
11
-12.2883497872
21
17.0976058552
31
0.0000000000
11
-12.2801629089
21
17.1274232313
31
0.0000000000
11
-12.2688649997
21
17.1562460484
31
0.0000000000
11
-12.2545793651
21
17.1837597340
31
0.0000000000
11
-12.2374619187
21
17.2096640034
31
0.0000000000
11
-12.2176994804
21
17.2336761370
31
0.0000000000
11
-12.1955077379
21
17.2555340662
31
0.0000000000
11
-12.1711288919
21
17.2749992333
31
0.0000000000
11
-12.1448290136
21
17.2918591951
31
0.0000000000
11
-12.1168951402
21
17.3059299418
31
0.0000000000
11
-12.0876321423
21
17.3170579052
31
0.0000000000
11
-12.0573593965
21
17.3251216346
31
0.0000000000
11
-12.0264073001
21
17.3300331222
31
0.0000000000
11
-11.9951136646
21
17.3317387640
31
0.0000000000
0
SPLINE
5
28E
100
AcDbEntity
8
0
100
AcDbSpline
62
9
6
CONTINUOUS
70
0
71
3
72
22
73
18
74
16
42
0.0000001000
43
0.0000001000
44
0.0000000001
12
-0.0014367926
22
0.4669669341
32
0.0000000000
13
-0.4669670641
23
0.0013938929
33
0.0000000000
40
0.0000000000
40
0.0000000000
40
0.0000000000
40
0.0000000000
40
0.0661103950
40
0.1322638465
40
0.1984799564
40
0.2647755480
40
0.3311639304
40
0.3976543265
40
0.4642514862
40
0.5309554997
40
0.5977618156
40
0.6646614594
40
0.7316414387
40
0.7986853157
40
0.8657739208
40
0.9328861770
40
1.0000000000
40
1.0000000000
40
1.0000000000
40
1.0000000000
10
12.2950679731
20
17.0362964381
30
0.0000000000
10
12.2950363108
20
17.0465868942
30
0.0000000000
10
12.2938787456
20
17.0671878076
30
0.0000000000
10
12.2888811195
20
17.0977313608
30
0.0000000000
10
12.2806765578
20
17.1276071729
30
0.0000000000
10
12.2693549173
20
17.1564844337
30
0.0000000000
10
12.2550400990
20
17.1840491163
30
0.0000000000
10
12.2378886827
20
17.2100000778
30
0.0000000000
10
12.2180881773
20
17.2340543094
30
0.0000000000
10
12.1958549475
20
17.2559494819
30
0.0000000000
10
12.1714318188
20
17.2754469268
30
0.0000000000
10
12.1450854475
20
17.2923341746
30
0.0000000000
10
12.1171032714
20
17.3064272520
30
0.0000000000
10
12.0877908771
20
17.3175726552
30
0.0000000000
10
12.0574668054
20
17.3256490027
30
0.0000000000
10
12.0264660894
20
17.3305683172
30
0.0000000000
10
12.0055603128
20
17.3317075808
30
0.0000000000
10
11.9951136646
20
17.3317387640
30
0.0000000000
11
12.2950679731
21
17.0362964381
31
0.0000000000
11
12.2933362829
21
17.0671193462
31
0.0000000000
11
12.2883497877
21
17.0976058529
31
0.0000000000
11
12.2801629100
21
17.1274232281
31
0.0000000000
11
12.2688650014
21
17.1562460447
31
0.0000000000
11
12.2545793674
21
17.1837597301
31
0.0000000000
11
12.2374619215
21
17.2096639995
31
0.0000000000
11
12.2176994837
21
17.2336761334
31
0.0000000000
11
12.1955077414
21
17.2555340631
31
0.0000000000
11
12.1711288955
21
17.2749992307
31
0.0000000000
11
12.1448290171
21
17.2918591931
31
0.0000000000
11
12.1168951432
21
17.3059299405
31
0.0000000000
11
12.0876321447
21
17.3170579044
31
0.0000000000
11
12.0573593983
21
17.3251216342
31
0.0000000000
11
12.0264073010
21
17.3300331221
31
0.0000000000
11
11.9951136646
21
17.3317387640
31
0.0000000000
0
SPLINE
5
28F
100
AcDbEntity
8
0
100
AcDbSpline
62
9
6
CONTINUOUS
70
0
71
3
72
25
73
21
74
19
42
0.0000001000
43
0.0000001000
44
0.0000000001
12
-0.0654163802
22
-0.9440977439
32
0.0000000000
13
-0.0004462263
23
-0.9463612702
33
0.0000000000
40
0.0000000000
40
0.0000000000
40
0.0000000000
40
0.0000000000
40
0.0168139910
40
0.0394426702
40
0.0677609311
40
0.1016088470
40
0.1407948552
40
0.1850967040
40
0.2342625710
40
0.2880130144
40
0.3460425906
40
0.4080213695
40
0.4735969413
40
0.5423966103
40
0.6140292331
40
0.6880872778
40
0.7641499146
40
0.8417851257
40
0.9205504577
40
1.0000000000
40
1.0000000000
40
1.0000000000
40
1.0000000000
10
11.9951136646
20
17.3317387640
30
0.0000000000
10
11.9947470277
20
17.3264474136
30
0.0000000000
10
11.9940857140
20
17.3140215062
30
0.0000000000
10
11.9932302475
20
17.2926631353
30
0.0000000000
10
11.9923896890
20
17.2659271523
30
0.0000000000
10
11.9915694051
20
17.2339656652
30
0.0000000000
10
11.9907778138
20
17.1969600165
30
0.0000000000
10
11.9900201777
20
17.1551207016
30
0.0000000000
10
11.9893017116
20
17.1086856876
30
0.0000000000
10
11.9886269194
20
17.0579191486
30
0.0000000000
10
11.9879999635
20
17.0031098353
30
0.0000000000
10
11.9874246164
20
16.9445694869
30
0.0000000000
10
11.9869043008
20
16.8826310334
30
0.0000000000
10
11.9864420826
20
16.8176466992
30
0.0000000000
10
11.9860406700
20
16.7499860854
30
0.0000000000
10
11.9857024026
20
16.6800339694
30
0.0000000000
10
11.9854292477
20
16.6081880166
30
0.0000000000
10
11.9852227878
20
16.5348569041
30
0.0000000000
10
11.9850842179
20
16.4604572189
30
0.0000000000
10
11.9850377490
20
16.4105477501
30
0.0000000000
10
11.9850259316
20
16.3854850935
30
0.0000000000
11
11.9951136646
21
17.3317387640
31
0.0000000000
11
11.9942128917
21
17.3158521688
31
0.0000000000
11
11.9933293342
21
17.2944554960
31
0.0000000000
11
11.9924679739
21
17.2676700337
31
0.0000000000
11
11.9916337392
21
17.2356485385
31
0.0000000000
11
11.9908313632
21
17.1985730953
31
0.0000000000
11
11.9900654096
21
17.1566545341
31
0.0000000000
11
11.9893402362
21
17.1101315081
31
0.0000000000
11
11.9886599667
21
17.0592687135
31
0.0000000000
11
11.9880284674
21
17.0043553948
31
0.0000000000
11
11.9874493286
21
16.9457039316
31
0.0000000000
11
11.9869258429
21
16.8836479513
31
0.0000000000
11
11.9864609849
21
16.8185402613
31
0.0000000000
11
11.9860573970
21
16.7507511153
31
0.0000000000
11
11.9857173740
21
16.6806662671
31
0.0000000000
11
11.9854428477
21
16.6086840490
31
0.0000000000
11
11.9852353760
21
16.5352133767
31
0.0000000000
11
11.9850961415
21
16.4606730389
31
0.0000000000
11
11.9850259316
21
16.3854850935
31
0.0000000000
0
SPLINE
5
290
100
AcDbEntity
8
0
100
AcDbSpline
62
9
6
CONTINUOUS
70
0
71
3
72
25
73
21
74
19
42
0.0000001000
43
0.0000001000
44
0.0000000001
12
-0.0652644252
22
-0.6593090205
32
0.0000000000
13
-0.0004462700
23
-0.6625312298
33
0.0000000000
40
0.0000000000
40
0.0000000000
40
0.0000000000
40
0.0000000000
40
0.0168367230
40
0.0394824373
40
0.0678125076
40
0.1016686268
40
0.1408601096
40
0.1851652796
40
0.2343327054
40
0.2880832229
40
0.3461115549
40
0.4080879317
40
0.4736600836
40
0.5424554376
40
0.6140829602
40
0.6881352241
40
0.7641914946
40
0.8418198566
40
0.9205779362
40
1.0000000000
40
1.0000000000
40
1.0000000000
40
1.0000000000
10
12.2950679731
20
17.0362964381
30
0.0000000000
10
12.2947016934
20
17.0325962370
30
0.0000000000
10
12.2940403796
20
17.0239002587
30
0.0000000000
10
12.2931848097
20
17.0089486661
30
0.0000000000
10
12.2923441607
20
16.9902324612
30
0.0000000000
10
12.2915238256
20
16.9678587497
30
0.0000000000
10
12.2907321974
20
16.9419540692
30
0.0000000000
10
12.2899745310
20
16.9126657523
30
0.0000000000
10
12.2892560401
20
16.8801603164
30
0.0000000000
10
12.2885812269
20
16.8446226892
30
0.0000000000
10
12.2879542539
20
16.8062550096
30
0.0000000000
10
12.2873788935
20
16.7652755188
30
0.0000000000
10
12.2868585683
20
16.7219172860
30
0.0000000000
10
12.2863963442
20
16.6764268874
30
0.0000000000
10
12.2859949289
20
16.6290630640
30
0.0000000000
10
12.2856566633
20
16.5800951815
30
0.0000000000
10
12.2853835120
20
16.5298016259
30
0.0000000000
10
12.2851770618
20
16.4784684942
30
0.0000000000
10
12.2850385135
20
16.4263918187
30
0.0000000000
10
12.2849920547
20
16.3914587346
30
0.0000000000
10
12.2849802401
20
16.3739188688
30
0.0000000000
11
12.2950679731
21
17.0362964381
31
0.0000000000
11
12.2941673508
21
17.0251779975
31
0.0000000000
11
12.2932837617
21
17.0102005420
31
0.0000000000
11
12.2924223815
21
16.9914507572
31
0.0000000000
11
12.2915881221
21
16.9690355354
31
0.0000000000
11
12.2907857241
21
16.9430823491
31
0.0000000000
11
12.2900197488
21
16.9137387794
31
0.0000000000
11
12.2892945555
21
16.8811718902
31
0.0000000000
11
12.2886142681
21
16.8455669840
31
0.0000000000
11
12.2879827537
21
16.8071265802
31
0.0000000000
11
12.2874036030
21
16.7660693702
31
0.0000000000
11
12.2868801086
21
16.7226289161
31
0.0000000000
11
12.2864152453
21
16.6770522060
31
0.0000000000
11
12.2860116554
21
16.6295984407
31
0.0000000000
11
12.2856716341
21
16.5805376704
31
0.0000000000
11
12.2853971124
21
16.5301487524
31
0.0000000000
11
12.2851896496
21
16.4787179449
31
0.0000000000
11
12.2850504261
21
16.4265384315
31
0.0000000000
11
12.2849802401
21
16.3739188688
31
0.0000000000
0
SPLINE
5
291
100
AcDbEntity
8
0
100
AcDbSpline
62
9
6
CONTINUOUS
70
0
71
3
72
21
73
17
74
15
42
0.0000001000
43
0.0000001000
44
0.0000000001
12
-0.1238971534
22
0.2739463654
32
0.0000000000
13
-0.3006610631
23
0.0002021836
33
0.0000000000
40
0.0000000000
40
0.0000000000
40
0.0000000000
40
0.0000000000
40
0.0091178633
40
0.0297823121
40
0.0621959371
40
0.1060527834
40
0.1608483737
40
0.2259261895
40
0.3004961055
40
0.3836477779
40
0.4743634213
40
0.5715311044
40
0.6739588503
40
0.7803895492
40
0.8895165812
40
1.0000000000
40
1.0000000000
40
1.0000000000
40
1.0000000000
10
12.2849802401
20
16.3739188688
30
0.0000000000
10
12.2846036810
20
16.3747514706
30
0.0000000000
10
12.2811445546
20
16.3755054035
30
0.0000000000
10
12.2754990300
20
16.3767823588
30
0.0000000000
10
12.2655937441
20
16.3778537713
30
0.0000000000
10
12.2526146656
20
16.3790303964
30
0.0000000000
10
12.2362009944
20
16.3801125953
30
0.0000000000
10
12.2167546050
20
16.3811466325
30
0.0000000000
10
12.1944407280
20
16.3820922156
30
0.0000000000
10
12.1695580414
20
16.3829439171
30
0.0000000000
10
12.1424043707
20
16.3836874993
30
0.0000000000
10
12.1133160157
20
16.3843139288
30
0.0000000000
10
12.0826498886
20
16.3848148030
30
0.0000000000
10
12.0507832974
20
16.3851837436
30
0.0000000000
10
12.0181080536
20
16.3854160112
30
0.0000000000
10
11.9960986189
20
16.3854776476
30
0.0000000000
10
11.9850259316
20
16.3854850935
30
0.0000000000
11
12.2849802401
21
16.3739188688
31
0.0000000000
11
12.2825564942
21
16.3751997510
31
0.0000000000
11
12.2764736682
21
16.3764648807
31
0.0000000000
11
12.2668065695
21
16.3776986991
31
0.0000000000
11
12.2536740858
21
16.3788860326
31
0.0000000000
11
12.2372377226
21
16.3800122790
31
0.0000000000
11
12.2176996169
21
16.3810635877
31
0.0000000000
11
12.1953000517
21
16.3820270295
31
0.0000000000
11
12.1703145004
21
16.3828907557
31
0.0000000000
11
12.1430502396
21
16.3836441442
31
0.0000000000
11
12.1138425696
21
16.3842779296
31
0.0000000000
11
12.0830506913
21
16.3847843176
31
0.0000000000
11
12.0510532882
21
16.3851570805
31
0.0000000000
11
12.0182438697
21
16.3853916340
31
0.0000000000
11
11.9850259316
21
16.3854850935
31
0.0000000000
0
SPLINE
5
292
100
AcDbEntity
8
0
100
AcDbSpline
62
9
6
CONTINUOUS
70
0
71
3
72
17
73
13
74
11
42
0.0000001000
43
0.0000001000
44
0.0000000001
12
-0.0220545084
22
-32.7709652134
32
0.0000000000
13
0.0220545085
23
-32.7709652134
33
0.0000000000
40
0.0000000000
40
0.0000000000
40
0.0000000000
40
0.0000000000
40
0.0999643191
40
0.1999524246
40
0.2999583713
40
0.3999762122
40
0.5000000000
40
0.6000237878
40
0.7000416287
40
0.8000475754
40
0.9000356809
40
1.0000000000
40
1.0000000000
40
1.0000000000
40
1.0000000000
10
11.9850259316
20
16.3854850935
30
0.0000000000
10
11.9842910436
20
15.2935093523
30
0.0000000000
10
11.9829682517
20
13.1092979329
30
0.0000000000
10
11.9814250864
20
9.8326557608
30
0.0000000000
10
11.9803227599
20
6.5554287567
30
0.0000000000
10
11.9796613377
20
3.2778118532
30
0.0000000000
10
11.9794408593
20
-0.0000000000
30
0.0000000000
10
11.9796613377
20
-3.2778118533
30
0.0000000000
10
11.9803227599
20
-6.5554287567
30
0.0000000000
10
11.9814250864
20
-9.8326557609
30
0.0000000000
10
11.9829682517
20
-13.1092979330
30
0.0000000000
10
11.9842910436
20
-15.2935093523
30
0.0000000000
10
11.9850259316
20
-16.3854850935
30
0.0000000000
11
11.9850259316
21
16.3854850935
31
0.0000000000
11
11.9830419208
21
13.1095577287
31
0.0000000000
11
11.9814986790
21
9.8328506215
31
0.0000000000
11
11.9803962978
21
6.5555586650
31
0.0000000000
11
11.9797348429
21
3.2778768057
31
0.0000000000
11
11.9795143536
21
-0.0000000000
31
0.0000000000
11
11.9797348429
21
-3.2778768057
31
0.0000000000
11
11.9803962978
21
-6.5555586650
31
0.0000000000
11
11.9814986790
21
-9.8328506215
31
0.0000000000
11
11.9830419208
21
-13.1095577287
31
0.0000000000
11
11.9850259316
21
-16.3854850935
31
0.0000000000
0
SPLINE
5
293
100
AcDbEntity
8
0
100
AcDbSpline
62
9
6
CONTINUOUS
70
0
71
3
72
21
73
17
74
15
42
0.0000001000
43
0.0000001000
44
0.0000000001
12
-0.1238975147
22
-0.2739462016
32
0.0000000000
13
-0.3006610628
23
-0.0002021835
33
0.0000000000
40
0.0000000000
40
0.0000000000
40
0.0000000000
40
0.0000000000
40
0.0091178687
40
0.0297823226
40
0.0621959516
40
0.1060528010
40
0.1608483933
40
0.2259262100
40
0.3004961259
40
0.3836477973
40
0.4743634388
40
0.5715311193
40
0.6739588621
40
0.7803895573
40
0.8895165853
40
1.0000000000
40
1.0000000000
40
1.0000000000
40
1.0000000000
10
12.2849802401
20
-16.3739188688
30
0.0000000000
10
12.2846036797
20
-16.3747514706
30
0.0000000000
10
12.2811445534
20
-16.3755054032
30
0.0000000000
10
12.2754990262
20
-16.3767823587
30
0.0000000000
10
12.2655937397
20
-16.3778537711
30
0.0000000000
10
12.2526146600
20
-16.3790303961
30
0.0000000000
10
12.2362009884
20
-16.3801125949
30
0.0000000000
10
12.2167545987
20
-16.3811466321
30
0.0000000000
10
12.1944407218
20
-16.3820922152
30
0.0000000000
10
12.1695580355
20
-16.3829439166
30
0.0000000000
10
12.1424043653
20
-16.3836874987
30
0.0000000000
10
12.1133160112
20
-16.3843139281
30
0.0000000000
10
12.0826498850
20
-16.3848148023
30
0.0000000000
10
12.0507832949
20
-16.3851837429
30
0.0000000000
10
12.0181080523
20
-16.3854160105
30
0.0000000000
10
11.9960986185
20
-16.3854776468
30
0.0000000000
10
11.9850259316
20
-16.3854850928
30
0.0000000000
11
12.2849802401
21
-16.3739188688
31
0.0000000000
11
12.2825564924
21
-16.3751997509
31
0.0000000000
11
12.2764736648
21
-16.3764648806
31
0.0000000000
11
12.2668065649
21
-16.3776986990
31
0.0000000000
11
12.2536740803
21
-16.3788860323
31
0.0000000000
11
12.2372377165
21
-16.3800122787
31
0.0000000000
11
12.2176996105
21
-16.3810635873
31
0.0000000000
11
12.1953000453
21
-16.3820270290
31
0.0000000000
11
12.1703144944
21
-16.3828907552
31
0.0000000000
11
12.1430502342
21
-16.3836441436
31
0.0000000000
11
12.1138425650
21
-16.3842779290
31
0.0000000000
11
12.0830506877
21
-16.3847843169
31
0.0000000000
11
12.0510532857
21
-16.3851570798
31
0.0000000000
11
12.0182438685
21
-16.3853916332
31
0.0000000000
11
11.9850259316
21
-16.3854850928
31
0.0000000000
0
SPLINE
5
294
100
AcDbEntity
8
0
100
AcDbSpline
62
9
6
CONTINUOUS
70
0
71
3
72
25
73
21
74
19
42
0.0000001000
43
0.0000001000
44
0.0000000001
12
0.0004462007
22
-0.9463612701
32
0.0000000000
13
0.0654172135
23
-0.9440976861
33
0.0000000000
40
0.0000000000
40
0.0000000000
40
0.0000000000
40
0.0000000000
40
0.0794495825
40
0.1582149085
40
0.2358501170
40
0.3119127571
40
0.3859707963
40
0.4576034164
40
0.5264030870
40
0.5919786581
40
0.6539574351
40
0.7119870105
40
0.7657374517
40
0.8149033151
40
0.8592051632
40
0.8983911718
40
0.9322390836
40
0.9605573426
40
0.9831860200
40
1.0000000000
40
1.0000000000
40
1.0000000000
40
1.0000000000
10
11.9850259316
20
-16.3854850935
30
0.0000000000
10
11.9850377484
20
-16.4105477628
30
0.0000000000
10
11.9850842187
20
-16.4604572424
30
0.0000000000
10
11.9852227875
20
-16.5348569375
30
0.0000000000
10
11.9854292482
20
-16.6081880483
30
0.0000000000
10
11.9857024030
20
-16.6800339996
30
0.0000000000
10
11.9860406707
20
-16.7499861141
30
0.0000000000
10
11.9864420834
20
-16.8176467258
30
0.0000000000
10
11.9869043019
20
-16.8826310595
30
0.0000000000
10
11.9874246177
20
-16.9445695126
30
0.0000000000
10
11.9879999649
20
-17.0031098600
30
0.0000000000
10
11.9886269209
20
-17.0579191717
30
0.0000000000
10
11.9893017131
20
-17.1086857086
30
0.0000000000
10
11.9900201793
20
-17.1551207205
30
0.0000000000
10
11.9907778155
20
-17.1969600342
30
0.0000000000
10
11.9915694064
20
-17.2339656815
30
0.0000000000
10
11.9923896915
20
-17.2659271668
30
0.0000000000
10
11.9932302470
20
-17.2926631475
30
0.0000000000
10
11.9940857197
20
-17.3140215134
30
0.0000000000
10
11.9947470233
20
-17.3264474175
30
0.0000000000
10
11.9951136646
20
-17.3317387640
30
0.0000000000
11
11.9850259316
21
-16.3854850935
31
0.0000000000
11
11.9850961418
21
-16.4606730769
31
0.0000000000
11
11.9852353760
21
-16.5352134091
31
0.0000000000
11
11.9854428480
21
-16.6086840789
31
0.0000000000
11
11.9857173745
21
-16.6806663001
31
0.0000000000
11
11.9860573976
21
-16.7507511431
31
0.0000000000
11
11.9864609857
21
-16.8185402866
31
0.0000000000
11
11.9869258440
21
-16.8836479780
31
0.0000000000
11
11.9874493299
21
-16.9457039577
31
0.0000000000
11
11.9880284688
21
-17.0043554192
31
0.0000000000
11
11.9886599683
21
-17.0592687369
31
0.0000000000
11
11.9893402378
21
-17.1101315295
31
0.0000000000
11
11.9900654111
21
-17.1566545521
31
0.0000000000
11
11.9908313648
21
-17.1985731126
31
0.0000000000
11
11.9916337408
21
-17.2356485563
31
0.0000000000
11
11.9924679756
21
-17.2676700476
31
0.0000000000
11
11.9933293355
21
-17.2944555080
31
0.0000000000
11
11.9942128936
21
-17.3158521792
31
0.0000000000
11
11.9951136646
21
-17.3317387640
31
0.0000000000
0
SPLINE
5
295
100
AcDbEntity
8
0
100
AcDbSpline
62
9
6
CONTINUOUS
70
0
71
3
72
25
73
21
74
19
42
0.0000001000
43
0.0000001000
44
0.0000000001
12
0.0004462608
22
-0.6625312299
32
0.0000000000
13
0.0652641256
23
-0.6593090502
33
0.0000000000
40
0.0000000000
40
0.0000000000
40
0.0000000000
40
0.0000000000
40
0.0794270877
40
0.1581852317
40
0.2358136289
40
0.3118699109
40
0.3859221436
40
0.4575496038
40
0.5263448632
40
0.5919168691
40
0.6538929963
40
0.7119209839
40
0.7656710826
40
0.8148380745
40
0.8591428137
40
0.8983338688
40
0.9321895642
40
0.9605192129
40
0.9831645352
40
1.0000000000
40
1.0000000000
40
1.0000000000
40
1.0000000000
10
12.2849802401
20
-16.3739188688
30
0.0000000000
10
12.2849920552
20
-16.3914598441
30
0.0000000000
10
12.2850385174
20
-16.4263940519
30
0.0000000000
10
12.2851770727
20
-16.4784718589
30
0.0000000000
10
12.2853835280
20
-16.5298050151
30
0.0000000000
10
12.2856566840
20
-16.5800985742
30
0.0000000000
10
12.2859949548
20
-16.6290664385
30
0.0000000000
10
12.2863963751
20
-16.6764302202
30
0.0000000000
10
12.2868586044
20
-16.7219205519
30
0.0000000000
10
12.2873789345
20
-16.7652786764
30
0.0000000000
10
12.2879542993
20
-16.8062580036
30
0.0000000000
10
12.2885812757
20
-16.8446254595
30
0.0000000000
10
12.2892560915
20
-16.8801628222
30
0.0000000000
10
12.2899745842
20
-16.9126679746
30
0.0000000000
10
12.2907322519
20
-16.9419560059
30
0.0000000000
10
12.2915238812
20
-16.9678604031
30
0.0000000000
10
12.2923442160
20
-16.9902338333
30
0.0000000000
10
12.2931848666
20
-17.0089497645
30
0.0000000000
10
12.2940404212
20
-17.0239008999
30
0.0000000000
10
12.2947017225
20
-17.0325965133
30
0.0000000000
10
12.2950679731
20
-17.0362964381
30
0.0000000000
11
12.2849802401
21
-16.3739188688
31
0.0000000000
11
12.2850504328
21
-16.4265417600
31
0.0000000000
11
12.2851896608
21
-16.4787213161
31
0.0000000000
11
12.2853971284
21
-16.5301521468
31
0.0000000000
11
12.2856716551
21
-16.5805410724
31
0.0000000000
11
12.2860116814
21
-16.6296018221
31
0.0000000000
11
12.2864152764
21
-16.6770555459
31
0.0000000000
11
12.2868801450
21
-16.7226321934
31
0.0000000000
11
12.2874036445
21
-16.7660725507
31
0.0000000000
11
12.2879827996
21
-16.8071295952
31
0.0000000000
11
12.2886143175
21
-16.8455697707
31
0.0000000000
11
12.2892946073
21
-16.8811743994
31
0.0000000000
11
12.2900198024
21
-16.9137410010
31
0.0000000000
11
12.2907857790
21
-16.9430842852
31
0.0000000000
11
12.2915881781
21
-16.9690371879
31
0.0000000000
11
12.2924224381
21
-16.9914521288
31
0.0000000000
11
12.2932838185
21
-17.0102016339
31
0.0000000000
11
12.2941674075
21
-17.0251788292
31
0.0000000000
11
12.2950679731
21
-17.0362964381
31
0.0000000000
0
SPLINE
5
296
100
AcDbEntity
8
0
100
AcDbSpline
62
9
6
CONTINUOUS
70
0
71
3
72
22
73
18
74
16
42
0.0000001000
43
0.0000001000
44
0.0000000001
12
-0.0014367926
22
-0.4669669341
32
0.0000000000
13
-0.4669670641
23
-0.0013938929
33
0.0000000000
40
0.0000000000
40
0.0000000000
40
0.0000000000
40
0.0000000000
40
0.0661103978
40
0.1322638517
40
0.1984799636
40
0.2647755566
40
0.3311639400
40
0.3976543367
40
0.4642514965
40
0.5309555097
40
0.5977618250
40
0.6646614679
40
0.7316414458
40
0.7986853212
40
0.8657739246
40
0.9328861790
40
1.0000000000
40
1.0000000000
40
1.0000000000
40
1.0000000000
10
12.2950679731
20
-17.0362964381
30
0.0000000000
10
12.2950363108
20
-17.0465868947
30
0.0000000000
10
12.2938787455
20
-17.0671878088
30
0.0000000000
10
12.2888811190
20
-17.0977313631
30
0.0000000000
10
12.2806765568
20
-17.1276071760
30
0.0000000000
10
12.2693549157
20
-17.1564844374
30
0.0000000000
10
12.2550400968
20
-17.1840491202
30
0.0000000000
10
12.2378886799
20
-17.2100000816
30
0.0000000000
10
12.2180881741
20
-17.2340543129
30
0.0000000000
10
12.1958549440
20
-17.2559494849
30
0.0000000000
10
12.1714318152
20
-17.2754469293
30
0.0000000000
10
12.1450854441
20
-17.2923341765
30
0.0000000000
10
12.1171032684
20
-17.3064272533
30
0.0000000000
10
12.0877908746
20
-17.3175726560
30
0.0000000000
10
12.0574668037
20
-17.3256490031
30
0.0000000000
10
12.0264660885
20
-17.3305683173
30
0.0000000000
10
12.0055603125
20
-17.3317075808
30
0.0000000000
10
11.9951136646
20
-17.3317387640
30
0.0000000000
11
12.2950679731
21
-17.0362964381
31
0.0000000000
11
12.2933362828
21
-17.0671193475
31
0.0000000000
11
12.2883497872
21
-17.0976058552
31
0.0000000000
11
12.2801629089
21
-17.1274232313
31
0.0000000000
11
12.2688649997
21
-17.1562460484
31
0.0000000000
11
12.2545793651
21
-17.1837597340
31
0.0000000000
11
12.2374619187
21
-17.2096640034
31
0.0000000000
11
12.2176994804
21
-17.2336761370
31
0.0000000000
11
12.1955077379
21
-17.2555340662
31
0.0000000000
11
12.1711288919
21
-17.2749992333
31
0.0000000000
11
12.1448290136
21
-17.2918591951
31
0.0000000000
11
12.1168951402
21
-17.3059299418
31
0.0000000000
11
12.0876321423
21
-17.3170579052
31
0.0000000000
11
12.0573593965
21
-17.3251216346
31
0.0000000000
11
12.0264073001
21
-17.3300331222
31
0.0000000000
11
11.9951136646
21
-17.3317387640
31
0.0000000000
0
SPLINE
5
297
100
AcDbEntity
8
0
100
AcDbSpline
62
7
6
CONTINUOUS
70
0
71
3
72
22
73
18
74
16
42
0.0000001000
43
0.0000001000
44
0.0000000001
12
0.0000000000
22
-0.4733254049
32
0.0000000000
13
-0.4733254049
23
0.0000000000
33
0.0000000000
40
0.0000000000
40
0.0000000000
40
0.0000000000
40
0.0000000000
40
0.0676671853
40
0.1355731550
40
0.2032579586
40
0.2704507235
40
0.3377259741
40
0.4050038467
40
0.4718842725
40
0.5382072209
40
0.6046758662
40
0.6710878153
40
0.7370903167
40
0.8027408720
40
0.8686347097
40
0.9345190029
40
1.0000000000
40
1.0000000000
40
1.0000000000
40
1.0000000000
10
12.4000000000
20
-18.0962952155
30
0.0000000000
10
12.4000000000
20
-18.1069714148
30
0.0000000000
10
12.3988905424
20
-18.1283780465
30
0.0000000000
10
12.3939076019
20
-18.1601136643
30
0.0000000000
10
12.3856699991
20
-18.1910899367
30
0.0000000000
10
12.3742975698
20
-18.2209493025
30
0.0000000000
10
12.3599135769
20
-18.2494092599
30
0.0000000000
10
12.3426632963
20
-18.2761708290
30
0.0000000000
10
12.3228029304
20
-18.3008639511
30
0.0000000000
10
12.3005646315
20
-18.3232585541
30
0.0000000000
10
12.2761639596
20
-18.3431597337
30
0.0000000000
10
12.2498494891
20
-18.3603595750
30
0.0000000000
10
12.2219881351
20
-18.3746389715
30
0.0000000000
10
12.1928600946
20
-18.3858886379
30
0.0000000000
10
12.1627279798
20
-18.3940121733
30
0.0000000000
10
12.1319374816
20
-18.3989110886
30
0.0000000000
10
12.1111948868
20
-18.4000000000
30
0.0000000000
10
12.1008636137
20
-18.4000000000
30
0.0000000000
11
12.4000000000
21
-18.0962952155
31
0.0000000000
11
12.3983409031
21
-18.1282808135
31
0.0000000000
11
12.3933543974
21
-18.1600332706
31
0.0000000000
11
12.3851189905
21
-18.1909936229
31
0.0000000000
11
12.3737971976
21
-18.2207142241
31
0.0000000000
11
12.3594314097
21
-18.2491326374
31
0.0000000000
11
12.3421762894
21
-18.2758968287
31
0.0000000000
11
12.3223343101
21
-18.3005628205
31
0.0000000000
11
12.3002126062
21
-18.3228363249
31
0.0000000000
11
12.2758305114
21
-18.3427191506
31
0.0000000000
11
12.2495169715
21
-18.3599157509
31
0.0000000000
11
12.2217142475
21
-18.3741631161
31
0.0000000000
11
12.1927264411
21
-18.3853570992
31
0.0000000000
11
12.1626122270
21
-18.3934751049
31
0.0000000000
11
12.1318147720
21
-18.3983743790
31
0.0000000000
11
12.1008636137
21
-18.4000000000
31
0.0000000000
0
SPLINE
5
298
100
AcDbEntity
8
0
100
AcDbSpline
62
7
6
CONTINUOUS
70
0
71
3
72
22
73
18
74
16
42
0.0000001000
43
0.0000001000
44
0.0000000001
12
0.4733254049
22
0.0000000000
32
0.0000000000
13
-0.0000000000
23
-0.4733254049
33
0.0000000000
40
0.0000000000
40
0.0000000000
40
0.0000000000
40
0.0000000000
40
0.0654809971
40
0.1313652903
40
0.1972591280
40
0.2629096833
40
0.3289121847
40
0.3953241338
40
0.4617927791
40
0.5281157275
40
0.5949961533
40
0.6622740259
40
0.7295492765
40
0.7967420414
40
0.8644268450
40
0.9323328147
40
1.0000000000
40
1.0000000000
40
1.0000000000
40
1.0000000000
10
12.1008636137
20
18.4000000000
30
0.0000000000
10
12.1111948868
20
18.4000000000
30
0.0000000000
10
12.1319374816
20
18.3989110886
30
0.0000000000
10
12.1627279798
20
18.3940121733
30
0.0000000000
10
12.1928600946
20
18.3858886379
30
0.0000000000
10
12.2219881351
20
18.3746389715
30
0.0000000000
10
12.2498494891
20
18.3603595750
30
0.0000000000
10
12.2761639596
20
18.3431597337
30
0.0000000000
10
12.3005646315
20
18.3232585541
30
0.0000000000
10
12.3228029304
20
18.3008639511
30
0.0000000000
10
12.3426632963
20
18.2761708290
30
0.0000000000
10
12.3599135769
20
18.2494092599
30
0.0000000000
10
12.3742975698
20
18.2209493025
30
0.0000000000
10
12.3856699991
20
18.1910899367
30
0.0000000000
10
12.3939076019
20
18.1601136643
30
0.0000000000
10
12.3988905424
20
18.1283780465
30
0.0000000000
10
12.4000000000
20
18.1069714148
30
0.0000000000
10
12.4000000000
20
18.0962952155
30
0.0000000000
11
12.1008636137
21
18.4000000000
31
0.0000000000
11
12.1318147720
21
18.3983743790
31
0.0000000000
11
12.1626122270
21
18.3934751049
31
0.0000000000
11
12.1927264411
21
18.3853570992
31
0.0000000000
11
12.2217142475
21
18.3741631161
31
0.0000000000
11
12.2495169715
21
18.3599157509
31
0.0000000000
11
12.2758305114
21
18.3427191506
31
0.0000000000
11
12.3002126062
21
18.3228363249
31
0.0000000000
11
12.3223343101
21
18.3005628205
31
0.0000000000
11
12.3421762894
21
18.2758968287
31
0.0000000000
11
12.3594314097
21
18.2491326374
31
0.0000000000
11
12.3737971976
21
18.2207142241
31
0.0000000000
11
12.3851189905
21
18.1909936229
31
0.0000000000
11
12.3933543974
21
18.1600332706
31
0.0000000000
11
12.3983409031
21
18.1282808135
31
0.0000000000
11
12.4000000000
21
18.0962952155
31
0.0000000000
0
SPLINE
5
299
100
AcDbEntity
8
0
100
AcDbSpline
62
7
6
CONTINUOUS
70
0
71
3
72
22
73
18
74
16
42
0.0000001000
43
0.0000001000
44
0.0000000001
12
-0.4733254049
22
0.0000000000
32
0.0000000000
13
0.0000000000
23
0.4733254049
33
0.0000000000
40
0.0000000000
40
0.0000000000
40
0.0000000000
40
0.0000000000
40
0.0654809971
40
0.1313652903
40
0.1972591280
40
0.2629096833
40
0.3289121847
40
0.3953241338
40
0.4617927791
40
0.5281157275
40
0.5949961533
40
0.6622740259
40
0.7295492765
40
0.7967420414
40
0.8644268450
40
0.9323328147
40
1.0000000000
40
1.0000000000
40
1.0000000000
40
1.0000000000
10
-12.1008636137
20
-18.4000000000
30
0.0000000000
10
-12.1111948868
20
-18.4000000000
30
0.0000000000
10
-12.1319374816
20
-18.3989110886
30
0.0000000000
10
-12.1627279798
20
-18.3940121733
30
0.0000000000
10
-12.1928600946
20
-18.3858886379
30
0.0000000000
10
-12.2219881351
20
-18.3746389715
30
0.0000000000
10
-12.2498494891
20
-18.3603595750
30
0.0000000000
10
-12.2761639596
20
-18.3431597337
30
0.0000000000
10
-12.3005646315
20
-18.3232585541
30
0.0000000000
10
-12.3228029304
20
-18.3008639511
30
0.0000000000
10
-12.3426632963
20
-18.2761708290
30
0.0000000000
10
-12.3599135769
20
-18.2494092599
30
0.0000000000
10
-12.3742975698
20
-18.2209493025
30
0.0000000000
10
-12.3856699991
20
-18.1910899367
30
0.0000000000
10
-12.3939076019
20
-18.1601136643
30
0.0000000000
10
-12.3988905424
20
-18.1283780465
30
0.0000000000
10
-12.4000000000
20
-18.1069714148
30
0.0000000000
10
-12.4000000000
20
-18.0962952155
30
0.0000000000
11
-12.1008636137
21
-18.4000000000
31
0.0000000000
11
-12.1318147720
21
-18.3983743790
31
0.0000000000
11
-12.1626122270
21
-18.3934751049
31
0.0000000000
11
-12.1927264411
21
-18.3853570992
31
0.0000000000
11
-12.2217142475
21
-18.3741631161
31
0.0000000000
11
-12.2495169715
21
-18.3599157509
31
0.0000000000
11
-12.2758305114
21
-18.3427191506
31
0.0000000000
11
-12.3002126062
21
-18.3228363249
31
0.0000000000
11
-12.3223343101
21
-18.3005628205
31
0.0000000000
11
-12.3421762894
21
-18.2758968287
31
0.0000000000
11
-12.3594314097
21
-18.2491326374
31
0.0000000000
11
-12.3737971976
21
-18.2207142241
31
0.0000000000
11
-12.3851189905
21
-18.1909936229
31
0.0000000000
11
-12.3933543974
21
-18.1600332706
31
0.0000000000
11
-12.3983409031
21
-18.1282808135
31
0.0000000000
11
-12.4000000000
21
-18.0962952155
31
0.0000000000
0
SPLINE
5
29A
100
AcDbEntity
8
0
100
AcDbSpline
62
7
6
CONTINUOUS
70
0
71
3
72
22
73
18
74
16
42
0.0000001000
43
0.0000001000
44
0.0000000001
12
0.0000000000
22
0.4733254049
32
0.0000000000
13
0.4733254049
23
0.0000000000
33
0.0000000000
40
0.0000000000
40
0.0000000000
40
0.0000000000
40
0.0000000000
40
0.0676671853
40
0.1355731550
40
0.2032579586
40
0.2704507235
40
0.3377259741
40
0.4050038467
40
0.4718842725
40
0.5382072209
40
0.6046758662
40
0.6710878153
40
0.7370903167
40
0.8027408720
40
0.8686347097
40
0.9345190029
40
1.0000000000
40
1.0000000000
40
1.0000000000
40
1.0000000000
10
-12.4000000000
20
18.0962952155
30
0.0000000000
10
-12.4000000000
20
18.1069714148
30
0.0000000000
10
-12.3988905424
20
18.1283780465
30
0.0000000000
10
-12.3939076019
20
18.1601136643
30
0.0000000000
10
-12.3856699991
20
18.1910899367
30
0.0000000000
10
-12.3742975698
20
18.2209493025
30
0.0000000000
10
-12.3599135769
20
18.2494092599
30
0.0000000000
10
-12.3426632963
20
18.2761708290
30
0.0000000000
10
-12.3228029304
20
18.3008639511
30
0.0000000000
10
-12.3005646315
20
18.3232585541
30
0.0000000000
10
-12.2761639596
20
18.3431597337
30
0.0000000000
10
-12.2498494891
20
18.3603595750
30
0.0000000000
10
-12.2219881351
20
18.3746389715
30
0.0000000000
10
-12.1928600946
20
18.3858886379
30
0.0000000000
10
-12.1627279798
20
18.3940121733
30
0.0000000000
10
-12.1319374816
20
18.3989110886
30
0.0000000000
10
-12.1111948868
20
18.4000000000
30
0.0000000000
10
-12.1008636137
20
18.4000000000
30
0.0000000000
11
-12.4000000000
21
18.0962952155
31
0.0000000000
11
-12.3983409031
21
18.1282808135
31
0.0000000000
11
-12.3933543974
21
18.1600332706
31
0.0000000000
11
-12.3851189905
21
18.1909936229
31
0.0000000000
11
-12.3737971976
21
18.2207142241
31
0.0000000000
11
-12.3594314097
21
18.2491326374
31
0.0000000000
11
-12.3421762894
21
18.2758968287
31
0.0000000000
11
-12.3223343101
21
18.3005628205
31
0.0000000000
11
-12.3002126062
21
18.3228363249
31
0.0000000000
11
-12.2758305114
21
18.3427191506
31
0.0000000000
11
-12.2495169715
21
18.3599157509
31
0.0000000000
11
-12.2217142475
21
18.3741631161
31
0.0000000000
11
-12.1927264411
21
18.3853570992
31
0.0000000000
11
-12.1626122270
21
18.3934751049
31
0.0000000000
11
-12.1318147720
21
18.3983743790
31
0.0000000000
11
-12.1008636137
21
18.4000000000
31
0.0000000000
0
SPLINE
5
29B
100
AcDbEntity
8
0
100
AcDbSpline
62
7
6
CONTINUOUS
70
0
71
3
72
57
73
53
74
51
42
0.0000001000
43
0.0000001000
44
0.0000000001
12
0.0000000000
22
-7.8355163596
32
0.0000000000
13
-0.0000000000
23
7.8355163596
33
0.0000000000
40
0.0000000000
40
0.0000000000
40
0.0000000000
40
0.0000000000
40
0.0199000596
40
0.0398086625
40
0.0597095877
40
0.0796281906
40
0.0995384065
40
0.1194692821
40
0.1393981664
40
0.1593428421
40
0.1792977335
40
0.1992575249
40
0.2192391103
40
0.2392195101
40
0.2592263127
40
0.2792319768
40
0.2992609953
40
0.3192948134
40
0.3393417715
40
0.3594027551
40
0.3794642209
40
0.3995459777
40
0.4196212316
40
0.4397163253
40
0.4598035523
40
0.4799037188
40
0.5000003544
40
0.5200969400
40
0.5401971510
40
0.5602843589
40
0.5803794513
40
0.6004547208
40
0.6205364320
40
0.6405979427
40
0.6606588493
40
0.6807058663
40
0.7007396384
40
0.7207686750
40
0.7407743510
40
0.7607811080
40
0.7807615675
40
0.8007430622
40
0.8207029339
40
0.8406577295
40
0.8606024639
40
0.8805313359
40
0.9004621810
40
0.9203724631
40
0.9402909634
40
0.9601919945
40
0.9801004703
40
1.0000000000
40
1.0000000000
40
1.0000000000
40
1.0000000000
10
2.5000000000
20
0.0000000000
30
0.0000000000
10
2.5000000000
20
-0.0519757476
30
0.0000000000
10
2.4967267974
20
-0.1559792484
30
0.0000000000
10
2.4820160518
20
-0.3113341635
30
0.0000000000
10
2.4575560703
20
-0.4655104404
30
0.0000000000
10
2.4234473125
20
-0.6178457733
30
0.0000000000
10
2.3798048122
20
-0.7678101184
30
0.0000000000
10
2.3268104254
20
-0.9147590220
30
0.0000000000
10
2.2646461837
20
-1.0581678434
30
0.0000000000
10
2.1935622218
20
-1.1974416551
30
0.0000000000
10
2.1138236177
20
-1.3320415661
30
0.0000000000
10
2.0257310094
20
-1.4614449097
30
0.0000000000
10
1.9296414261
20
-1.5851107358
30
0.0000000000
10
1.8258930426
20
-1.7025889943
30
0.0000000000
10
1.7149274490
20
-1.8133648432
30
0.0000000000
10
1.5971305134
20
-1.9170389482
30
0.0000000000
10
1.4730024844
20
-2.0131580092
30
0.0000000000
10
1.3429973479
20
-2.1013575464
30
0.0000000000
10
1.2076426203
20
-2.1812690238
30
0.0000000000
10
1.0674765785
20
-2.2525638583
30
0.0000000000
10
0.9230315979
20
-2.3149632209
30
0.0000000000
10
0.7749224138
20
-2.3681937281
30
0.0000000000
10
0.6236828159
20
-2.4120571574
30
0.0000000000
10
0.4699765944
20
-2.4463554881
30
0.0000000000
10
0.3143583963
20
-2.4709604224
30
0.0000000000
10
0.1574997626
20
-2.4857627092
30
0.0000000000
10
-0.0000026494
20
-2.4907034668
30
0.0000000000
10
-0.1575051664
20
-2.4857623694
30
0.0000000000
10
-0.3143637054
20
-2.4709597550
30
0.0000000000
10
-0.4699819122
20
-2.4463544737
30
0.0000000000
10
-0.6236880483
20
-2.4120558175
30
0.0000000000
10
-0.7749274732
20
-2.3681920845
30
0.0000000000
10
-0.9230365810
20
-2.3149612513
30
0.0000000000
10
-1.0674812438
20
-2.2525616638
30
0.0000000000
10
-1.2076472000
20
-2.1812665087
30
0.0000000000
10
-1.3430016213
20
-2.1013548404
30
0.0000000000
10
-1.4730066426
20
-2.0131549905
30
0.0000000000
10
-1.5971344447
20
-1.9170357048
30
0.0000000000
10
-1.7149311357
20
-1.8133613833
30
0.0000000000
10
-1.8258965539
20
-1.7025852634
30
0.0000000000
10
-1.9296445662
20
-1.5851069427
30
0.0000000000
10
-2.0257339817
20
-1.4614408243
30
0.0000000000
10
-2.1138261789
20
-1.3320375349
30
0.0000000000
10
-2.1935645769
20
-1.1974373722
30
0.0000000000
10
-2.2646482164
20
-1.0581635401
30
0.0000000000
10
-2.3268121920
20
-0.9147545582
30
0.0000000000
10
-2.3798063194
20
-0.7678054969
30
0.0000000000
10
-2.4234484771
20
-0.6178412331
30
0.0000000000
10
-2.4575569841
20
-0.4655056595
30
0.0000000000
10
-2.4820166208
20
-0.3113296539
30
0.0000000000
10
-2.4967269387
20
-0.1559761460
30
0.0000000000
10
-2.5000000000
20
-0.0519743635
30
0.0000000000
10
-2.5000000000
20
0.0000000000
30
0.0000000000
11
2.5000000000
21
0.0000000000
31
0.0000000000
11
2.4950945708
21
-0.1558500620
31
0.0000000000
11
2.4803897990
21
-0.3111496273
31
0.0000000000
11
2.4559567300
21
-0.4651575664
31
0.0000000000
11
2.4218561858
21
-0.6174592084
31
0.0000000000
11
2.3782643354
21
-0.7672519963
31
0.0000000000
11
2.3252856676
21
-0.9141598729
31
0.0000000000
11
2.2631817612
21
-1.0574319745
31
0.0000000000
11
2.1921390148
21
-1.1966274363
31
0.0000000000
11
2.1124469054
21
-1.3311511931
31
0.0000000000
11
2.0244381485
21
-1.4604335966
31
0.0000000000
11
1.9283760917
21
-1.5840661398
31
0.0000000000
11
1.8247446140
21
-1.7014140525
31
0.0000000000
11
1.7138021364
21
-1.8121687459
31
0.0000000000
11
1.5961314918
21
-1.9157334981
31
0.0000000000
11
1.4720475872
21
-2.0118200586
31
0.0000000000
11
1.3421465688
21
-2.0999504918
31
0.0000000000
11
1.2068833232
21
-2.1798093459
31
0.0000000000
11
1.0667783113
21
-2.2510743799
31
0.0000000000
11
0.9224759348
21
-2.3134132218
31
0.0000000000
11
0.7743984443
21
-2.3666332665
31
0.0000000000
11
0.6233242183
21
-2.4104494965
31
0.0000000000
11
0.4696483818
21
-2.4447416446
31
0.0000000000
11
0.3141858660
21
-2.4693223931
31
0.0000000000
11
0.1573873163
21
-2.4841192667
31
0.0000000000
11
-0.0000027782
21
-2.4890565887
31
0.0000000000
11
-0.1573924703
21
-2.4841189430
31
0.0000000000
11
-0.3141913362
21
-2.4693217032
31
0.0000000000
11
-0.4696536510
21
-2.4447406412
31
0.0000000000
11
-0.6233294039
21
-2.4104481672
31
0.0000000000
11
-0.7744036530
21
-2.3666315770
31
0.0000000000
11
-0.9224806950
21
-2.3134113403
31
0.0000000000
11
-1.0667832628
21
-2.2510720539
31
0.0000000000
11
-1.2068875893
21
-2.1798070045
31
0.0000000000
11
-1.3421510703
21
-2.0999476399
31
0.0000000000
11
-1.4720516086
21
-2.0118171418
31
0.0000000000
11
-1.5961354311
21
-1.9157302446
31
0.0000000000
11
-1.7138059322
21
-1.8121651876
31
0.0000000000
11
-1.8247479338
21
-1.7014105231
31
0.0000000000
11
-1.9283794819
21
-1.5840620488
31
0.0000000000
11
-2.0244408570
21
-1.4604298749
31
0.0000000000
11
-2.1124497125
21
-1.3311467773
31
0.0000000000
11
-2.1921411764
21
-1.1966235109
31
0.0000000000
11
-2.2631838680
21
-1.0574275046
31
0.0000000000
11
-2.3252874536
21
-0.9141553695
31
0.0000000000
11
-2.3782657608
21
-0.7672476165
31
0.0000000000
11
-2.4218574621
21
-0.6174542458
31
0.0000000000
11
-2.4559575408
21
-0.4651533228
31
0.0000000000
11
-2.4803904456
21
-0.3111445176
31
0.0000000000
11
-2.4950948321
21
-0.1558459159
31
0.0000000000
11
-2.5000000000
21
0.0000000000
31
0.0000000000
0
SPLINE
5
29C
100
AcDbEntity
8
0
100
AcDbSpline
62
7
6
CONTINUOUS
70
0
71
3
72
10
73
6
74
4
42
0.0000001000
43
0.0000001000
44
0.0000000001
12
-0.0015407020
22
5.9999999198
32
0.0000000000
13
-0.0008009121
23
6.0000000641
33
0.0000000000
40
0.0000000000
40
0.0000000000
40
0.0000000000
40
0.0000000000
40
0.3332970243
40
0.6666328192
40
1.0000000000
40
1.0000000000
40
1.0000000000
40
1.0000000000
10
-10.0123584377
20
-12.5000000000
30
0.0000000000
10
-10.0125296082
20
-11.8334059603
30
0.0000000000
10
-10.0128445596
20
-10.5001403325
30
0.0000000000
10
-10.0132348049
20
-8.5001403309
30
0.0000000000
10
-10.0134401872
20
-7.1667343687
30
0.0000000000
10
-10.0135291864
20
-6.5000000000
30
0.0000000000
11
-10.0123584377
21
-12.5000000000
31
0.0000000000
11
-10.0128308426
21
-10.5002178709
31
0.0000000000
11
-10.0132210951
21
-8.5002031002
31
0.0000000000
11
-10.0135291864
21
-6.5000000000
31
0.0000000000
0
SPLINE
5
29D
100
AcDbEntity
8
0
100
AcDbSpline
62
7
6
CONTINUOUS
70
0
71
3
72
57
73
53
74
51
42
0.0000001000
43
0.0000001000
44
0.0000000001
12
0.0000000000
22
7.8355163596
32
0.0000000000
13
0.0000000000
23
-7.8355163596
33
0.0000000000
40
0.0000000000
40
0.0000000000
40
0.0000000000
40
0.0000000000
40
0.0199000596
40
0.0398086625
40
0.0597095877
40
0.0796281906
40
0.0995384065
40
0.1194692821
40
0.1393981664
40
0.1593428421
40
0.1792977335
40
0.1992575249
40
0.2192391103
40
0.2392195101
40
0.2592263127
40
0.2792319768
40
0.2992609953
40
0.3192948134
40
0.3393417715
40
0.3594027551
40
0.3794642209
40
0.3995459777
40
0.4196212316
40
0.4397163253
40
0.4598035523
40
0.4799037188
40
0.5000003544
40
0.5200969400
40
0.5401971510
40
0.5602843589
40
0.5803794513
40
0.6004547208
40
0.6205364320
40
0.6405979427
40
0.6606588493
40
0.6807058663
40
0.7007396384
40
0.7207686750
40
0.7407743510
40
0.7607811080
40
0.7807615675
40
0.8007430622
40
0.8207029339
40
0.8406577295
40
0.8606024639
40
0.8805313359
40
0.9004621810
40
0.9203724631
40
0.9402909634
40
0.9601919945
40
0.9801004703
40
1.0000000000
40
1.0000000000
40
1.0000000000
40
1.0000000000
10
-2.5000000000
20
0.0000000000
30
0.0000000000
10
-2.5000000000
20
0.0519757476
30
0.0000000000
10
-2.4967267974
20
0.1559792484
30
0.0000000000
10
-2.4820160518
20
0.3113341635
30
0.0000000000
10
-2.4575560703
20
0.4655104404
30
0.0000000000
10
-2.4234473125
20
0.6178457733
30
0.0000000000
10
-2.3798048122
20
0.7678101184
30
0.0000000000
10
-2.3268104254
20
0.9147590220
30
0.0000000000
10
-2.2646461837
20
1.0581678434
30
0.0000000000
10
-2.1935622218
20
1.1974416551
30
0.0000000000
10
-2.1138236177
20
1.3320415661
30
0.0000000000
10
-2.0257310094
20
1.4614449097
30
0.0000000000
10
-1.9296414261
20
1.5851107358
30
0.0000000000
10
-1.8258930426
20
1.7025889943
30
0.0000000000
10
-1.7149274490
20
1.8133648432
30
0.0000000000
10
-1.5971305134
20
1.9170389482
30
0.0000000000
10
-1.4730024844
20
2.0131580092
30
0.0000000000
10
-1.3429973479
20
2.1013575464
30
0.0000000000
10
-1.2076426203
20
2.1812690238
30
0.0000000000
10
-1.0674765785
20
2.2525638583
30
0.0000000000
10
-0.9230315979
20
2.3149632209
30
0.0000000000
10
-0.7749224138
20
2.3681937281
30
0.0000000000
10
-0.6236828159
20
2.4120571574
30
0.0000000000
10
-0.4699765944
20
2.4463554881
30
0.0000000000
10
-0.3143583963
20
2.4709604224
30
0.0000000000
10
-0.1574997626
20
2.4857627092
30
0.0000000000
10
0.0000026494
20
2.4907034668
30
0.0000000000
10
0.1575051664
20
2.4857623694
30
0.0000000000
10
0.3143637054
20
2.4709597550
30
0.0000000000
10
0.4699819122
20
2.4463544737
30
0.0000000000
10
0.6236880483
20
2.4120558175
30
0.0000000000
10
0.7749274732
20
2.3681920845
30
0.0000000000
10
0.9230365810
20
2.3149612513
30
0.0000000000
10
1.0674812438
20
2.2525616638
30
0.0000000000
10
1.2076472000
20
2.1812665087
30
0.0000000000
10
1.3430016213
20
2.1013548404
30
0.0000000000
10
1.4730066426
20
2.0131549905
30
0.0000000000
10
1.5971344447
20
1.9170357048
30
0.0000000000
10
1.7149311357
20
1.8133613833
30
0.0000000000
10
1.8258965539
20
1.7025852634
30
0.0000000000
10
1.9296445662
20
1.5851069427
30
0.0000000000
10
2.0257339817
20
1.4614408243
30
0.0000000000
10
2.1138261789
20
1.3320375349
30
0.0000000000
10
2.1935645769
20
1.1974373722
30
0.0000000000
10
2.2646482164
20
1.0581635401
30
0.0000000000
10
2.3268121920
20
0.9147545582
30
0.0000000000
10
2.3798063194
20
0.7678054969
30
0.0000000000
10
2.4234484771
20
0.6178412331
30
0.0000000000
10
2.4575569841
20
0.4655056595
30
0.0000000000
10
2.4820166208
20
0.3113296539
30
0.0000000000
10
2.4967269387
20
0.1559761460
30
0.0000000000
10
2.5000000000
20
0.0519743635
30
0.0000000000
10
2.5000000000
20
0.0000000000
30
0.0000000000
11
-2.5000000000
21
0.0000000000
31
0.0000000000
11
-2.4950945708
21
0.1558500620
31
0.0000000000
11
-2.4803897990
21
0.3111496273
31
0.0000000000
11
-2.4559567300
21
0.4651575664
31
0.0000000000
11
-2.4218561858
21
0.6174592084
31
0.0000000000
11
-2.3782643354
21
0.7672519963
31
0.0000000000
11
-2.3252856676
21
0.9141598729
31
0.0000000000
11
-2.2631817612
21
1.0574319745
31
0.0000000000
11
-2.1921390148
21
1.1966274363
31
0.0000000000
11
-2.1124469054
21
1.3311511931
31
0.0000000000
11
-2.0244381485
21
1.4604335966
31
0.0000000000
11
-1.9283760917
21
1.5840661398
31
0.0000000000
11
-1.8247446140
21
1.7014140525
31
0.0000000000
11
-1.7138021364
21
1.8121687459
31
0.0000000000
11
-1.5961314918
21
1.9157334981
31
0.0000000000
11
-1.4720475872
21
2.0118200586
31
0.0000000000
11
-1.3421465688
21
2.0999504918
31
0.0000000000
11
-1.2068833232
21
2.1798093459
31
0.0000000000
11
-1.0667783113
21
2.2510743799
31
0.0000000000
11
-0.9224759348
21
2.3134132218
31
0.0000000000
11
-0.7743984443
21
2.3666332665
31
0.0000000000
11
-0.6233242183
21
2.4104494965
31
0.0000000000
11
-0.4696483818
21
2.4447416446
31
0.0000000000
11
-0.3141858660
21
2.4693223931
31
0.0000000000
11
-0.1573873163
21
2.4841192667
31
0.0000000000
11
0.0000027782
21
2.4890565887
31
0.0000000000
11
0.1573924703
21
2.4841189430
31
0.0000000000
11
0.3141913362
21
2.4693217032
31
0.0000000000
11
0.4696536510
21
2.4447406412
31
0.0000000000
11
0.6233294039
21
2.4104481672
31
0.0000000000
11
0.7744036530
21
2.3666315770
31
0.0000000000
11
0.9224806950
21
2.3134113403
31
0.0000000000
11
1.0667832628
21
2.2510720539
31
0.0000000000
11
1.2068875893
21
2.1798070045
31
0.0000000000
11
1.3421510703
21
2.0999476399
31
0.0000000000
11
1.4720516086
21
2.0118171418
31
0.0000000000
11
1.5961354311
21
1.9157302446
31
0.0000000000
11
1.7138059322
21
1.8121651876
31
0.0000000000
11
1.8247479338
21
1.7014105231
31
0.0000000000
11
1.9283794819
21
1.5840620488
31
0.0000000000
11
2.0244408570
21
1.4604298749
31
0.0000000000
11
2.1124497125
21
1.3311467773
31
0.0000000000
11
2.1921411764
21
1.1966235109
31
0.0000000000
11
2.2631838680
21
1.0574275046
31
0.0000000000
11
2.3252874536
21
0.9141553695
31
0.0000000000
11
2.3782657608
21
0.7672476165
31
0.0000000000
11
2.4218574621
21
0.6174542458
31
0.0000000000
11
2.4559575408
21
0.4651533228
31
0.0000000000
11
2.4803904456
21
0.3111445176
31
0.0000000000
11
2.4950948321
21
0.1558459159
31
0.0000000000
11
2.5000000000
21
0.0000000000
31
0.0000000000
0
SPLINE
5
29E
100
AcDbEntity
8
0
100
AcDbSpline
62
7
6
CONTINUOUS
70
0
71
3
72
31
73
27
74
25
42
0.0000001000
43
0.0000001000
44
0.0000000001
12
3.3195773314
22
0.0000000000
32
0.0000000000
13
-0.0004431150
23
-3.3195773018
33
0.0000000000
40
0.0000000000
40
0.0000000000
40
0.0000000000
40
0.0000000000
40
0.0416665944
40
0.0833331303
40
0.1249997413
40
0.1666662145
40
0.2083327716
40
0.2499991865
40
0.2916656165
40
0.3333319787
40
0.3749982566
40
0.4166646078
40
0.4583307388
40
0.4999971379
40
0.5416631795
40
0.5833297115
40
0.6249957659
40
0.6666625361
40
0.7083286516
40
0.7499955136
40
0.7916620629
40
0.8333291253
40
0.8749964160
40
0.9166640559
40
0.9583318684
40
1.0000000000
40
1.0000000000
40
1.0000000000
40
1.0000000000
10
7.9000000000
20
-4.3862345423
30
0.0000000000
10
7.9461051608
20
-4.3862345423
30
0.0000000000
10
8.0383439144
20
-4.3892538851
30
0.0000000000
10
8.1760867350
20
-4.4028215331
30
0.0000000000
10
8.3126531912
20
-4.4253696961
30
0.0000000000
10
8.4474508015
20
-4.4568018332
30
0.0000000000
10
8.5799041332
20
-4.4969832775
30
0.0000000000
10
8.7094455421
20
-4.5457419939
30
0.0000000000
10
8.8355202465
20
-4.6028691031
30
0.0000000000
10
8.9575883312
20
-4.6681199757
30
0.0000000000
10
9.0751270871
20
-4.7412151942
30
0.0000000000
10
9.1876329820
20
-4.8218416360
30
0.0000000000
10
9.2946244938
20
-4.9096542370
30
0.0000000000
10
9.3956430211
20
-5.0042766418
30
0.0000000000
10
9.4902564700
20
-5.1053041631
30
0.0000000000
10
9.5780590277
20
-5.2123035612
30
0.0000000000
10
9.6586753443
20
-5.3248175263
30
0.0000000000
10
9.7317593464
20
-5.4423632006
30
0.0000000000
10
9.7969986685
20
-5.5644383154
30
0.0000000000
10
9.8541132851
20
-5.6905190806
30
0.0000000000
10
9.9028589834
20
-5.8200666673
30
0.0000000000
10
9.9430266431
20
-5.9525258800
30
0.0000000000
10
9.9744442273
20
-6.0873295727
30
0.0000000000
10
9.9969768730
20
-6.2239021126
30
0.0000000000
10
10.0105279005
20
-6.3616508625
30
0.0000000000
10
10.0135353410
20
-6.4538931387
30
0.0000000000
10
10.0135291864
20
-6.5000000000
30
0.0000000000
11
7.9000000000
21
-4.3862345423
31
0.0000000000
11
8.0382414190
21
-4.3907603275
31
0.0000000000
11
8.1758906140
21
-4.4043182782
31
0.0000000000
11
8.3123585293
21
-4.4268503874
31
0.0000000000
11
8.4470600337
21
-4.4582600364
31
0.0000000000
11
8.5794189692
21
-4.4984128764
31
0.0000000000
11
8.7088677759
21
-4.5471367330
31
0.0000000000
11
8.8348525663
21
-4.6042231086
31
0.0000000000
11
8.9568335369
21
-4.6694274198
31
0.0000000000
11
9.0742882445
21
-4.7424703773
31
0.0000000000
11
9.1867140945
21
-4.8230394630
31
0.0000000000
11
9.2936288158
21
-4.9107890470
31
0.0000000000
11
9.3945757364
21
-5.0053443877
31
0.0000000000
11
9.4891210051
21
-5.1062991162
31
0.0000000000
11
9.5768615618
21
-5.2132229675
31
0.0000000000
11
9.6574195603
21
-5.3256555503
31
0.0000000000
11
9.7304521876
21
-5.4431186057
31
0.0000000000
11
9.7956442055
21
-5.5651052185
31
0.0000000000
11
9.8527185297
21
-5.6910970431
31
0.0000000000
11
9.9014291055
21
-5.8205513245
31
0.0000000000
11
9.9415681788
21
-5.9529161886
31
0.0000000000
11
9.9729633015
21
-6.0876238658
31
0.0000000000
11
9.9954798913
21
-6.2240978045
31
0.0000000000
11
10.0090212270
21
-6.3617528932
31
0.0000000000
11
10.0135291864
21
-6.5000000000
31
0.0000000000
0
SPLINE
5
29F
100
AcDbEntity
8
0
100
AcDbSpline
62
9
6
CONTINUOUS
70
0
71
3
72
22
73
18
74
16
42
0.0000001000
43
0.0000001000
44
0.0000000001
12
-0.0014367926
22
-0.4669669341
32
0.0000000000
13
-0.4669670641
23
-0.0013938929
33
0.0000000000
40
0.0000000000
40
0.0000000000
40
0.0000000000
40
0.0000000000
40
0.0661103978
40
0.1322638517
40
0.1984799636
40
0.2647755566
40
0.3311639400
40
0.3976543367
40
0.4642514965
40
0.5309555097
40
0.5977618250
40
0.6646614679
40
0.7316414458
40
0.7986853212
40
0.8657739246
40
0.9328861790
40
1.0000000000
40
1.0000000000
40
1.0000000000
40
1.0000000000
10
12.2950679731
20
-17.0362964381
30
0.0000000000
10
12.2950363108
20
-17.0465868947
30
0.0000000000
10
12.2938787455
20
-17.0671878088
30
0.0000000000
10
12.2888811190
20
-17.0977313631
30
0.0000000000
10
12.2806765568
20
-17.1276071760
30
0.0000000000
10
12.2693549157
20
-17.1564844374
30
0.0000000000
10
12.2550400968
20
-17.1840491202
30
0.0000000000
10
12.2378886799
20
-17.2100000816
30
0.0000000000
10
12.2180881741
20
-17.2340543129
30
0.0000000000
10
12.1958549440
20
-17.2559494849
30
0.0000000000
10
12.1714318152
20
-17.2754469293
30
0.0000000000
10
12.1450854441
20
-17.2923341765
30
0.0000000000
10
12.1171032684
20
-17.3064272533
30
0.0000000000
10
12.0877908746
20
-17.3175726560
30
0.0000000000
10
12.0574668037
20
-17.3256490031
30
0.0000000000
10
12.0264660885
20
-17.3305683173
30
0.0000000000
10
12.0055603125
20
-17.3317075808
30
0.0000000000
10
11.9951136646
20
-17.3317387640
30
0.0000000000
11
12.2950679731
21
-17.0362964381
31
0.0000000000
11
12.2933362828
21
-17.0671193475
31
0.0000000000
11
12.2883497872
21
-17.0976058552
31
0.0000000000
11
12.2801629089
21
-17.1274232313
31
0.0000000000
11
12.2688649997
21
-17.1562460484
31
0.0000000000
11
12.2545793651
21
-17.1837597340
31
0.0000000000
11
12.2374619187
21
-17.2096640034
31
0.0000000000
11
12.2176994804
21
-17.2336761370
31
0.0000000000
11
12.1955077379
21
-17.2555340662
31
0.0000000000
11
12.1711288919
21
-17.2749992333
31
0.0000000000
11
12.1448290136
21
-17.2918591951
31
0.0000000000
11
12.1168951402
21
-17.3059299418
31
0.0000000000
11
12.0876321423
21
-17.3170579052
31
0.0000000000
11
12.0573593965
21
-17.3251216346
31
0.0000000000
11
12.0264073001
21
-17.3300331222
31
0.0000000000
11
11.9951136646
21
-17.3317387640
31
0.0000000000
0
SPLINE
5
2A0
100
AcDbEntity
8
0
100
AcDbSpline
62
7
6
CONTINUOUS
70
0
71
3
72
10
73
6
74
4
42
0.0000001000
43
0.0000001000
44
0.0000000001
12
-0.0008009121
22
-6.0000000641
32
0.0000000000
13
-0.0015407020
23
-5.9999999198
33
0.0000000000
40
0.0000000000
40
0.0000000000
40
0.0000000000
40
0.0000000000
40
0.3333671808
40
0.6667029757
40
1.0000000000
40
1.0000000000
40
1.0000000000
40
1.0000000000
10
10.0135291864
20
-6.5000000000
30
0.0000000000
10
10.0134401872
20
-7.1667343687
30
0.0000000000
10
10.0132348049
20
-8.5001403309
30
0.0000000000
10
10.0128445596
20
-10.5001403325
30
0.0000000000
10
10.0125296082
20
-11.8334059603
30
0.0000000000
10
10.0123584377
20
-12.5000000000
30
0.0000000000
11
10.0135291864
21
-6.5000000000
31
0.0000000000
11
10.0132210951
21
-8.5002031002
31
0.0000000000
11
10.0128308426
21
-10.5002178709
31
0.0000000000
11
10.0123584377
21
-12.5000000000
31
0.0000000000
0
SPLINE
5
2A1
100
AcDbEntity
8
0
100
AcDbSpline
62
9
6
CONTINUOUS
70
0
71
3
72
25
73
21
74
19
42
0.0000001000
43
0.0000001000
44
0.0000000001
12
0.0004462608
22
-0.6625312299
32
0.0000000000
13
0.0652641256
23
-0.6593090502
33
0.0000000000
40
0.0000000000
40
0.0000000000
40
0.0000000000
40
0.0000000000
40
0.0794270877
40
0.1581852317
40
0.2358136289
40
0.3118699109
40
0.3859221436
40
0.4575496038
40
0.5263448632
40
0.5919168691
40
0.6538929963
40
0.7119209839
40
0.7656710826
40
0.8148380745
40
0.8591428137
40
0.8983338688
40
0.9321895642
40
0.9605192129
40
0.9831645352
40
1.0000000000
40
1.0000000000
40
1.0000000000
40
1.0000000000
10
12.2849802401
20
-16.3739188688
30
0.0000000000
10
12.2849920552
20
-16.3914598441
30
0.0000000000
10
12.2850385174
20
-16.4263940519
30
0.0000000000
10
12.2851770727
20
-16.4784718589
30
0.0000000000
10
12.2853835280
20
-16.5298050151
30
0.0000000000
10
12.2856566840
20
-16.5800985742
30
0.0000000000
10
12.2859949548
20
-16.6290664385
30
0.0000000000
10
12.2863963751
20
-16.6764302202
30
0.0000000000
10
12.2868586044
20
-16.7219205519
30
0.0000000000
10
12.2873789345
20
-16.7652786764
30
0.0000000000
10
12.2879542993
20
-16.8062580036
30
0.0000000000
10
12.2885812757
20
-16.8446254595
30
0.0000000000
10
12.2892560915
20
-16.8801628222
30
0.0000000000
10
12.2899745842
20
-16.9126679746
30
0.0000000000
10
12.2907322519
20
-16.9419560059
30
0.0000000000
10
12.2915238812
20
-16.9678604031
30
0.0000000000
10
12.2923442160
20
-16.9902338333
30
0.0000000000
10
12.2931848666
20
-17.0089497645
30
0.0000000000
10
12.2940404212
20
-17.0239008999
30
0.0000000000
10
12.2947017225
20
-17.0325965133
30
0.0000000000
10
12.2950679731
20
-17.0362964381
30
0.0000000000
11
12.2849802401
21
-16.3739188688
31
0.0000000000
11
12.2850504328
21
-16.4265417600
31
0.0000000000
11
12.2851896608
21
-16.4787213161
31
0.0000000000
11
12.2853971284
21
-16.5301521468
31
0.0000000000
11
12.2856716551
21
-16.5805410724
31
0.0000000000
11
12.2860116814
21
-16.6296018221
31
0.0000000000
11
12.2864152764
21
-16.6770555459
31
0.0000000000
11
12.2868801450
21
-16.7226321934
31
0.0000000000
11
12.2874036445
21
-16.7660725507
31
0.0000000000
11
12.2879827996
21
-16.8071295952
31
0.0000000000
11
12.2886143175
21
-16.8455697707
31
0.0000000000
11
12.2892946073
21
-16.8811743994
31
0.0000000000
11
12.2900198024
21
-16.9137410010
31
0.0000000000
11
12.2907857790
21
-16.9430842852
31
0.0000000000
11
12.2915881781
21
-16.9690371879
31
0.0000000000
11
12.2924224381
21
-16.9914521288
31
0.0000000000
11
12.2932838185
21
-17.0102016339
31
0.0000000000
11
12.2941674075
21
-17.0251788292
31
0.0000000000
11
12.2950679731
21
-17.0362964381
31
0.0000000000
0
SPLINE
5
2A2
100
AcDbEntity
8
0
100
AcDbSpline
62
9
6
CONTINUOUS
70
0
71
3
72
25
73
21
74
19
42
0.0000001000
43
0.0000001000
44
0.0000000001
12
0.0004462007
22
-0.9463612701
32
0.0000000000
13
0.0654172135
23
-0.9440976861
33
0.0000000000
40
0.0000000000
40
0.0000000000
40
0.0000000000
40
0.0000000000
40
0.0794495825
40
0.1582149085
40
0.2358501170
40
0.3119127571
40
0.3859707963
40
0.4576034164
40
0.5264030870
40
0.5919786581
40
0.6539574351
40
0.7119870105
40
0.7657374517
40
0.8149033151
40
0.8592051632
40
0.8983911718
40
0.9322390836
40
0.9605573426
40
0.9831860200
40
1.0000000000
40
1.0000000000
40
1.0000000000
40
1.0000000000
10
11.9850259316
20
-16.3854850935
30
0.0000000000
10
11.9850377484
20
-16.4105477628
30
0.0000000000
10
11.9850842187
20
-16.4604572424
30
0.0000000000
10
11.9852227875
20
-16.5348569375
30
0.0000000000
10
11.9854292482
20
-16.6081880483
30
0.0000000000
10
11.9857024030
20
-16.6800339996
30
0.0000000000
10
11.9860406707
20
-16.7499861141
30
0.0000000000
10
11.9864420834
20
-16.8176467258
30
0.0000000000
10
11.9869043019
20
-16.8826310595
30
0.0000000000
10
11.9874246177
20
-16.9445695126
30
0.0000000000
10
11.9879999649
20
-17.0031098600
30
0.0000000000
10
11.9886269209
20
-17.0579191717
30
0.0000000000
10
11.9893017131
20
-17.1086857086
30
0.0000000000
10
11.9900201793
20
-17.1551207205
30
0.0000000000
10
11.9907778155
20
-17.1969600342
30
0.0000000000
10
11.9915694064
20
-17.2339656815
30
0.0000000000
10
11.9923896915
20
-17.2659271668
30
0.0000000000
10
11.9932302470
20
-17.2926631475
30
0.0000000000
10
11.9940857197
20
-17.3140215134
30
0.0000000000
10
11.9947470233
20
-17.3264474175
30
0.0000000000
10
11.9951136646
20
-17.3317387640
30
0.0000000000
11
11.9850259316
21
-16.3854850935
31
0.0000000000
11
11.9850961418
21
-16.4606730769
31
0.0000000000
11
11.9852353760
21
-16.5352134091
31
0.0000000000
11
11.9854428480
21
-16.6086840789
31
0.0000000000
11
11.9857173745
21
-16.6806663001
31
0.0000000000
11
11.9860573976
21
-16.7507511431
31
0.0000000000
11
11.9864609857
21
-16.8185402866
31
0.0000000000
11
11.9869258440
21
-16.8836479780
31
0.0000000000
11
11.9874493299
21
-16.9457039577
31
0.0000000000
11
11.9880284688
21
-17.0043554192
31
0.0000000000
11
11.9886599683
21
-17.0592687369
31
0.0000000000
11
11.9893402378
21
-17.1101315295
31
0.0000000000
11
11.9900654111
21
-17.1566545521
31
0.0000000000
11
11.9908313648
21
-17.1985731126
31
0.0000000000
11
11.9916337408
21
-17.2356485563
31
0.0000000000
11
11.9924679756
21
-17.2676700476
31
0.0000000000
11
11.9933293355
21
-17.2944555080
31
0.0000000000
11
11.9942128936
21
-17.3158521792
31
0.0000000000
11
11.9951136646
21
-17.3317387640
31
0.0000000000
0
SPLINE
5
2A3
100
AcDbEntity
8
0
100
AcDbSpline
62
9
6
CONTINUOUS
70
0
71
3
72
21
73
17
74
15
42
0.0000001000
43
0.0000001000
44
0.0000000001
12
-0.1238975147
22
-0.2739462016
32
0.0000000000
13
-0.3006610628
23
-0.0002021835
33
0.0000000000
40
0.0000000000
40
0.0000000000
40
0.0000000000
40
0.0000000000
40
0.0091178687
40
0.0297823226
40
0.0621959516
40
0.1060528010
40
0.1608483933
40
0.2259262100
40
0.3004961259
40
0.3836477973
40
0.4743634388
40
0.5715311193
40
0.6739588621
40
0.7803895573
40
0.8895165853
40
1.0000000000
40
1.0000000000
40
1.0000000000
40
1.0000000000
10
12.2849802401
20
-16.3739188688
30
0.0000000000
10
12.2846036797
20
-16.3747514706
30
0.0000000000
10
12.2811445534
20
-16.3755054032
30
0.0000000000
10
12.2754990262
20
-16.3767823587
30
0.0000000000
10
12.2655937397
20
-16.3778537711
30
0.0000000000
10
12.2526146600
20
-16.3790303961
30
0.0000000000
10
12.2362009884
20
-16.3801125949
30
0.0000000000
10
12.2167545987
20
-16.3811466321
30
0.0000000000
10
12.1944407218
20
-16.3820922152
30
0.0000000000
10
12.1695580355
20
-16.3829439166
30
0.0000000000
10
12.1424043653
20
-16.3836874987
30
0.0000000000
10
12.1133160112
20
-16.3843139281
30
0.0000000000
10
12.0826498850
20
-16.3848148023
30
0.0000000000
10
12.0507832949
20
-16.3851837429
30
0.0000000000
10
12.0181080523
20
-16.3854160105
30
0.0000000000
10
11.9960986185
20
-16.3854776468
30
0.0000000000
10
11.9850259316
20
-16.3854850928
30
0.0000000000
11
12.2849802401
21
-16.3739188688
31
0.0000000000
11
12.2825564924
21
-16.3751997509
31
0.0000000000
11
12.2764736648
21
-16.3764648806
31
0.0000000000
11
12.2668065649
21
-16.3776986990
31
0.0000000000
11
12.2536740803
21
-16.3788860323
31
0.0000000000
11
12.2372377165
21
-16.3800122787
31
0.0000000000
11
12.2176996105
21
-16.3810635873
31
0.0000000000
11
12.1953000453
21
-16.3820270290
31
0.0000000000
11
12.1703144944
21
-16.3828907552
31
0.0000000000
11
12.1430502342
21
-16.3836441436
31
0.0000000000
11
12.1138425650
21
-16.3842779290
31
0.0000000000
11
12.0830506877
21
-16.3847843169
31
0.0000000000
11
12.0510532857
21
-16.3851570798
31
0.0000000000
11
12.0182438685
21
-16.3853916332
31
0.0000000000
11
11.9850259316
21
-16.3854850928
31
0.0000000000
0
SPLINE
5
2A4
100
AcDbEntity
8
0
100
AcDbSpline
62
9
6
CONTINUOUS
70
0
71
3
72
17
73
13
74
11
42
0.0000001000
43
0.0000001000
44
0.0000000001
12
-0.0220545084
22
-32.7478327603
32
0.0000000000
13
0.0220545084
23
-32.7478327603
33
0.0000000000
40
0.0000000000
40
0.0000000000
40
0.0000000000
40
0.0000000000
40
0.0999643130
40
0.1999524198
40
0.2999583677
40
0.3999762098
40
0.4999999989
40
0.6000237880
40
0.7000416301
40
0.8000475780
40
0.9000356848
40
1.0000000000
40
1.0000000000
40
1.0000000000
40
1.0000000000
10
12.2849802401
20
16.3739188688
30
0.0000000000
10
12.2842453522
20
15.2827140010
30
0.0000000000
10
12.2829225603
20
13.1000444312
30
0.0000000000
10
12.2813793950
20
9.8257152225
30
0.0000000000
10
12.2802770684
20
6.5508015138
30
0.0000000000
10
12.2796156463
20
3.2754981809
30
0.0000000000
10
12.2793951679
20
0.0000000358
30
0.0000000000
10
12.2796156463
20
-3.2754981093
30
0.0000000000
10
12.2802770684
20
-6.5508014422
30
0.0000000000
10
12.2813793949
20
-9.8257151510
30
0.0000000000
10
12.2829225603
20
-13.1000443836
30
0.0000000000
10
12.2842453522
20
-15.2827139771
30
0.0000000000
10
12.2849802401
20
-16.3739188688
30
0.0000000000
11
12.2849802401
21
16.3739188688
31
0.0000000000
11
12.2829962294
21
13.1003041242
31
0.0000000000
11
12.2814529876
21
9.8259099455
31
0.0000000000
11
12.2803506064
21
6.5509313303
31
0.0000000000
11
12.2796891515
21
3.2755630875
31
0.0000000000
11
12.2794686621
21
0.0000000358
31
0.0000000000
11
12.2796891515
21
-3.2755630158
31
0.0000000000
11
12.2803506064
21
-6.5509312587
31
0.0000000000
11
12.2814529875
21
-9.8259098740
31
0.0000000000
11
12.2829962294
21
-13.1003040527
31
0.0000000000
11
12.2849802401
21
-16.3739188688
31
0.0000000000
0
SPLINE
5
2A5
100
AcDbEntity
8
0
100
AcDbSpline
62
9
6
CONTINUOUS
70
0
71
3
72
21
73
17
74
15
42
0.0000001000
43
0.0000001000
44
0.0000000001
12
-0.1238971534
22
0.2739463654
32
0.0000000000
13
-0.3006610631
23
0.0002021836
33
0.0000000000
40
0.0000000000
40
0.0000000000
40
0.0000000000
40
0.0000000000
40
0.0091178633
40
0.0297823121
40
0.0621959371
40
0.1060527834
40
0.1608483737
40
0.2259261895
40
0.3004961055
40
0.3836477779
40
0.4743634213
40
0.5715311044
40
0.6739588503
40
0.7803895492
40
0.8895165812
40
1.0000000000
40
1.0000000000
40
1.0000000000
40
1.0000000000
10
12.2849802401
20
16.3739188688
30
0.0000000000
10
12.2846036810
20
16.3747514706
30
0.0000000000
10
12.2811445546
20
16.3755054035
30
0.0000000000
10
12.2754990300
20
16.3767823588
30
0.0000000000
10
12.2655937441
20
16.3778537713
30
0.0000000000
10
12.2526146656
20
16.3790303964
30
0.0000000000
10
12.2362009944
20
16.3801125953
30
0.0000000000
10
12.2167546050
20
16.3811466325
30
0.0000000000
10
12.1944407280
20
16.3820922156
30
0.0000000000
10
12.1695580414
20
16.3829439171
30
0.0000000000
10
12.1424043707
20
16.3836874993
30
0.0000000000
10
12.1133160157
20
16.3843139288
30
0.0000000000
10
12.0826498886
20
16.3848148030
30
0.0000000000
10
12.0507832974
20
16.3851837436
30
0.0000000000
10
12.0181080536
20
16.3854160112
30
0.0000000000
10
11.9960986189
20
16.3854776476
30
0.0000000000
10
11.9850259316
20
16.3854850935
30
0.0000000000
11
12.2849802401
21
16.3739188688
31
0.0000000000
11
12.2825564942
21
16.3751997510
31
0.0000000000
11
12.2764736682
21
16.3764648807
31
0.0000000000
11
12.2668065695
21
16.3776986991
31
0.0000000000
11
12.2536740858
21
16.3788860326
31
0.0000000000
11
12.2372377226
21
16.3800122790
31
0.0000000000
11
12.2176996169
21
16.3810635877
31
0.0000000000
11
12.1953000517
21
16.3820270295
31
0.0000000000
11
12.1703145004
21
16.3828907557
31
0.0000000000
11
12.1430502396
21
16.3836441442
31
0.0000000000
11
12.1138425696
21
16.3842779296
31
0.0000000000
11
12.0830506913
21
16.3847843176
31
0.0000000000
11
12.0510532882
21
16.3851570805
31
0.0000000000
11
12.0182438697
21
16.3853916340
31
0.0000000000
11
11.9850259316
21
16.3854850935
31
0.0000000000
0
SPLINE
5
2A6
100
AcDbEntity
8
0
100
AcDbSpline
62
9
6
CONTINUOUS
70
0
71
3
72
25
73
21
74
19
42
0.0000001000
43
0.0000001000
44
0.0000000001
12
-0.0652644252
22
-0.6593090205
32
0.0000000000
13
-0.0004462700
23
-0.6625312298
33
0.0000000000
40
0.0000000000
40
0.0000000000
40
0.0000000000
40
0.0000000000
40
0.0168367230
40
0.0394824373
40
0.0678125076
40
0.1016686268
40
0.1408601096
40
0.1851652796
40
0.2343327054
40
0.2880832229
40
0.3461115549
40
0.4080879317
40
0.4736600836
40
0.5424554376
40
0.6140829602
40
0.6881352241
40
0.7641914946
40
0.8418198566
40
0.9205779362
40
1.0000000000
40
1.0000000000
40
1.0000000000
40
1.0000000000
10
12.2950679731
20
17.0362964381
30
0.0000000000
10
12.2947016934
20
17.0325962370
30
0.0000000000
10
12.2940403796
20
17.0239002587
30
0.0000000000
10
12.2931848097
20
17.0089486661
30
0.0000000000
10
12.2923441607
20
16.9902324612
30
0.0000000000
10
12.2915238256
20
16.9678587497
30
0.0000000000
10
12.2907321974
20
16.9419540692
30
0.0000000000
10
12.2899745310
20
16.9126657523
30
0.0000000000
10
12.2892560401
20
16.8801603164
30
0.0000000000
10
12.2885812269
20
16.8446226892
30
0.0000000000
10
12.2879542539
20
16.8062550096
30
0.0000000000
10
12.2873788935
20
16.7652755188
30
0.0000000000
10
12.2868585683
20
16.7219172860
30
0.0000000000
10
12.2863963442
20
16.6764268874
30
0.0000000000
10
12.2859949289
20
16.6290630640
30
0.0000000000
10
12.2856566633
20
16.5800951815
30
0.0000000000
10
12.2853835120
20
16.5298016259
30
0.0000000000
10
12.2851770618
20
16.4784684942
30
0.0000000000
10
12.2850385135
20
16.4263918187
30
0.0000000000
10
12.2849920547
20
16.3914587346
30
0.0000000000
10
12.2849802401
20
16.3739188688
30
0.0000000000
11
12.2950679731
21
17.0362964381
31
0.0000000000
11
12.2941673508
21
17.0251779975
31
0.0000000000
11
12.2932837617
21
17.0102005420
31
0.0000000000
11
12.2924223815
21
16.9914507572
31
0.0000000000
11
12.2915881221
21
16.9690355354
31
0.0000000000
11
12.2907857241
21
16.9430823491
31
0.0000000000
11
12.2900197488
21
16.9137387794
31
0.0000000000
11
12.2892945555
21
16.8811718902
31
0.0000000000
11
12.2886142681
21
16.8455669840
31
0.0000000000
11
12.2879827537
21
16.8071265802
31
0.0000000000
11
12.2874036030
21
16.7660693702
31
0.0000000000
11
12.2868801086
21
16.7226289161
31
0.0000000000
11
12.2864152453
21
16.6770522060
31
0.0000000000
11
12.2860116554
21
16.6295984407
31
0.0000000000
11
12.2856716341
21
16.5805376704
31
0.0000000000
11
12.2853971124
21
16.5301487524
31
0.0000000000
11
12.2851896496
21
16.4787179449
31
0.0000000000
11
12.2850504261
21
16.4265384315
31
0.0000000000
11
12.2849802401
21
16.3739188688
31
0.0000000000
0
SPLINE
5
2A7
100
AcDbEntity
8
0
100
AcDbSpline
62
9
6
CONTINUOUS
70
0
71
3
72
25
73
21
74
19
42
0.0000001000
43
0.0000001000
44
0.0000000001
12
-0.0654163802
22
-0.9440977439
32
0.0000000000
13
-0.0004462263
23
-0.9463612702
33
0.0000000000
40
0.0000000000
40
0.0000000000
40
0.0000000000
40
0.0000000000
40
0.0168139910
40
0.0394426702
40
0.0677609311
40
0.1016088470
40
0.1407948552
40
0.1850967040
40
0.2342625710
40
0.2880130144
40
0.3460425906
40
0.4080213695
40
0.4735969413
40
0.5423966103
40
0.6140292331
40
0.6880872778
40
0.7641499146
40
0.8417851257
40
0.9205504577
40
1.0000000000
40
1.0000000000
40
1.0000000000
40
1.0000000000
10
11.9951136646
20
17.3317387640
30
0.0000000000
10
11.9947470277
20
17.3264474136
30
0.0000000000
10
11.9940857140
20
17.3140215062
30
0.0000000000
10
11.9932302475
20
17.2926631353
30
0.0000000000
10
11.9923896890
20
17.2659271523
30
0.0000000000
10
11.9915694051
20
17.2339656652
30
0.0000000000
10
11.9907778138
20
17.1969600165
30
0.0000000000
10
11.9900201777
20
17.1551207016
30
0.0000000000
10
11.9893017116
20
17.1086856876
30
0.0000000000
10
11.9886269194
20
17.0579191486
30
0.0000000000
10
11.9879999635
20
17.0031098353
30
0.0000000000
10
11.9874246164
20
16.9445694869
30
0.0000000000
10
11.9869043008
20
16.8826310334
30
0.0000000000
10
11.9864420826
20
16.8176466992
30
0.0000000000
10
11.9860406700
20
16.7499860854
30
0.0000000000
10
11.9857024026
20
16.6800339694
30
0.0000000000
10
11.9854292477
20
16.6081880166
30
0.0000000000
10
11.9852227878
20
16.5348569041
30
0.0000000000
10
11.9850842179
20
16.4604572189
30
0.0000000000
10
11.9850377490
20
16.4105477501
30
0.0000000000
10
11.9850259316
20
16.3854850935
30
0.0000000000
11
11.9951136646
21
17.3317387640
31
0.0000000000
11
11.9942128917
21
17.3158521688
31
0.0000000000
11
11.9933293342
21
17.2944554960
31
0.0000000000
11
11.9924679739
21
17.2676700337
31
0.0000000000
11
11.9916337392
21
17.2356485385
31
0.0000000000
11
11.9908313632
21
17.1985730953
31
0.0000000000
11
11.9900654096
21
17.1566545341
31
0.0000000000
11
11.9893402362
21
17.1101315081
31
0.0000000000
11
11.9886599667
21
17.0592687135
31
0.0000000000
11
11.9880284674
21
17.0043553948
31
0.0000000000
11
11.9874493286
21
16.9457039316
31
0.0000000000
11
11.9869258429
21
16.8836479513
31
0.0000000000
11
11.9864609849
21
16.8185402613
31
0.0000000000
11
11.9860573970
21
16.7507511153
31
0.0000000000
11
11.9857173740
21
16.6806662671
31
0.0000000000
11
11.9854428477
21
16.6086840490
31
0.0000000000
11
11.9852353760
21
16.5352133767
31
0.0000000000
11
11.9850961415
21
16.4606730389
31
0.0000000000
11
11.9850259316
21
16.3854850935
31
0.0000000000
0
SPLINE
5
2A8
100
AcDbEntity
8
0
100
AcDbSpline
62
9
6
CONTINUOUS
70
0
71
3
72
22
73
18
74
16
42
0.0000001000
43
0.0000001000
44
0.0000000001
12
-0.0014367926
22
0.4669669341
32
0.0000000000
13
-0.4669670641
23
0.0013938929
33
0.0000000000
40
0.0000000000
40
0.0000000000
40
0.0000000000
40
0.0000000000
40
0.0661103950
40
0.1322638465
40
0.1984799564
40
0.2647755480
40
0.3311639304
40
0.3976543265
40
0.4642514862
40
0.5309554997
40
0.5977618156
40
0.6646614594
40
0.7316414387
40
0.7986853157
40
0.8657739208
40
0.9328861770
40
1.0000000000
40
1.0000000000
40
1.0000000000
40
1.0000000000
10
12.2950679731
20
17.0362964381
30
0.0000000000
10
12.2950363108
20
17.0465868942
30
0.0000000000
10
12.2938787456
20
17.0671878076
30
0.0000000000
10
12.2888811195
20
17.0977313608
30
0.0000000000
10
12.2806765578
20
17.1276071729
30
0.0000000000
10
12.2693549173
20
17.1564844337
30
0.0000000000
10
12.2550400990
20
17.1840491163
30
0.0000000000
10
12.2378886827
20
17.2100000778
30
0.0000000000
10
12.2180881773
20
17.2340543094
30
0.0000000000
10
12.1958549475
20
17.2559494819
30
0.0000000000
10
12.1714318188
20
17.2754469268
30
0.0000000000
10
12.1450854475
20
17.2923341746
30
0.0000000000
10
12.1171032714
20
17.3064272520
30
0.0000000000
10
12.0877908771
20
17.3175726552
30
0.0000000000
10
12.0574668054
20
17.3256490027
30
0.0000000000
10
12.0264660894
20
17.3305683172
30
0.0000000000
10
12.0055603128
20
17.3317075808
30
0.0000000000
10
11.9951136646
20
17.3317387640
30
0.0000000000
11
12.2950679731
21
17.0362964381
31
0.0000000000
11
12.2933362829
21
17.0671193462
31
0.0000000000
11
12.2883497877
21
17.0976058529
31
0.0000000000
11
12.2801629100
21
17.1274232281
31
0.0000000000
11
12.2688650014
21
17.1562460447
31
0.0000000000
11
12.2545793674
21
17.1837597301
31
0.0000000000
11
12.2374619215
21
17.2096639995
31
0.0000000000
11
12.2176994837
21
17.2336761334
31
0.0000000000
11
12.1955077414
21
17.2555340631
31
0.0000000000
11
12.1711288955
21
17.2749992307
31
0.0000000000
11
12.1448290171
21
17.2918591931
31
0.0000000000
11
12.1168951432
21
17.3059299405
31
0.0000000000
11
12.0876321447
21
17.3170579044
31
0.0000000000
11
12.0573593983
21
17.3251216342
31
0.0000000000
11
12.0264073010
21
17.3300331221
31
0.0000000000
11
11.9951136646
21
17.3317387640
31
0.0000000000
0
SPLINE
5
2A9
100
AcDbEntity
8
0
100
AcDbSpline
62
9
6
CONTINUOUS
70
0
71
3
72
25
73
21
74
19
42
0.0000001000
43
0.0000001000
44
0.0000000001
12
0.0652641256
22
0.6593090502
32
0.0000000000
13
0.0004462608
23
0.6625312299
33
0.0000000000
40
0.0000000000
40
0.0000000000
40
0.0000000000
40
0.0000000000
40
0.0168354648
40
0.0394807871
40
0.0678104358
40
0.1016661312
40
0.1408571863
40
0.1851619255
40
0.2343289174
40
0.2880790161
40
0.3461070037
40
0.4080831309
40
0.4736551368
40
0.5424503962
40
0.6140778564
40
0.6881300891
40
0.7641863711
40
0.8418147683
40
0.9205729123
40
1.0000000000
40
1.0000000000
40
1.0000000000
40
1.0000000000
10
-12.2950679731
20
-17.0362964381
30
0.0000000000
10
-12.2947017225
20
-17.0325965133
30
0.0000000000
10
-12.2940404212
20
-17.0239008999
30
0.0000000000
10
-12.2931848666
20
-17.0089497645
30
0.0000000000
10
-12.2923442160
20
-16.9902338333
30
0.0000000000
10
-12.2915238812
20
-16.9678604031
30
0.0000000000
10
-12.2907322519
20
-16.9419560059
30
0.0000000000
10
-12.2899745842
20
-16.9126679746
30
0.0000000000
10
-12.2892560915
20
-16.8801628222
30
0.0000000000
10
-12.2885812757
20
-16.8446254595
30
0.0000000000
10
-12.2879542993
20
-16.8062580036
30
0.0000000000
10
-12.2873789345
20
-16.7652786764
30
0.0000000000
10
-12.2868586044
20
-16.7219205519
30
0.0000000000
10
-12.2863963751
20
-16.6764302202
30
0.0000000000
10
-12.2859949548
20
-16.6290664385
30
0.0000000000
10
-12.2856566840
20
-16.5800985742
30
0.0000000000
10
-12.2853835280
20
-16.5298050151
30
0.0000000000
10
-12.2851770727
20
-16.4784718589
30
0.0000000000
10
-12.2850385174
20
-16.4263940519
30
0.0000000000
10
-12.2849920552
20
-16.3914598441
30
0.0000000000
10
-12.2849802401
20
-16.3739188688
30
0.0000000000
11
-12.2950679731
21
-17.0362964381
31
0.0000000000
11
-12.2941674075
21
-17.0251788292
31
0.0000000000
11
-12.2932838185
21
-17.0102016339
31
0.0000000000
11
-12.2924224381
21
-16.9914521288
31
0.0000000000
11
-12.2915881781
21
-16.9690371879
31
0.0000000000
11
-12.2907857790
21
-16.9430842852
31
0.0000000000
11
-12.2900198024
21
-16.9137410010
31
0.0000000000
11
-12.2892946073
21
-16.8811743994
31
0.0000000000
11
-12.2886143175
21
-16.8455697707
31
0.0000000000
11
-12.2879827996
21
-16.8071295952
31
0.0000000000
11
-12.2874036445
21
-16.7660725507
31
0.0000000000
11
-12.2868801450
21
-16.7226321934
31
0.0000000000
11
-12.2864152764
21
-16.6770555459
31
0.0000000000
11
-12.2860116814
21
-16.6296018221
31
0.0000000000
11
-12.2856716551
21
-16.5805410724
31
0.0000000000
11
-12.2853971284
21
-16.5301521468
31
0.0000000000
11
-12.2851896608
21
-16.4787213161
31
0.0000000000
11
-12.2850504328
21
-16.4265417600
31
0.0000000000
11
-12.2849802401
21
-16.3739188688
31
0.0000000000
0
SPLINE
5
2AA
100
AcDbEntity
8
0
100
AcDbSpline
62
9
6
CONTINUOUS
70
0
71
3
72
25
73
21
74
19
42
0.0000001000
43
0.0000001000
44
0.0000000001
12
0.0654172135
22
0.9440976861
32
0.0000000000
13
0.0004462007
23
0.9463612701
33
0.0000000000
40
0.0000000000
40
0.0000000000
40
0.0000000000
40
0.0000000000
40
0.0168139800
40
0.0394426574
40
0.0677609164
40
0.1016088282
40
0.1407948368
40
0.1850966849
40
0.2342625483
40
0.2880129895
40
0.3460425649
40
0.4080213419
40
0.4735969130
40
0.5423965836
40
0.6140292037
40
0.6880872429
40
0.7641498830
40
0.8417850915
40
0.9205504175
40
1.0000000000
40
1.0000000000
40
1.0000000000
40
1.0000000000
10
-11.9951136646
20
-17.3317387640
30
0.0000000000
10
-11.9947470233
20
-17.3264474175
30
0.0000000000
10
-11.9940857197
20
-17.3140215134
30
0.0000000000
10
-11.9932302470
20
-17.2926631475
30
0.0000000000
10
-11.9923896915
20
-17.2659271668
30
0.0000000000
10
-11.9915694064
20
-17.2339656815
30
0.0000000000
10
-11.9907778155
20
-17.1969600342
30
0.0000000000
10
-11.9900201793
20
-17.1551207205
30
0.0000000000
10
-11.9893017131
20
-17.1086857086
30
0.0000000000
10
-11.9886269209
20
-17.0579191717
30
0.0000000000
10
-11.9879999649
20
-17.0031098600
30
0.0000000000
10
-11.9874246177
20
-16.9445695126
30
0.0000000000
10
-11.9869043019
20
-16.8826310595
30
0.0000000000
10
-11.9864420834
20
-16.8176467258
30
0.0000000000
10
-11.9860406707
20
-16.7499861141
30
0.0000000000
10
-11.9857024030
20
-16.6800339996
30
0.0000000000
10
-11.9854292482
20
-16.6081880483
30
0.0000000000
10
-11.9852227875
20
-16.5348569375
30
0.0000000000
10
-11.9850842187
20
-16.4604572424
30
0.0000000000
10
-11.9850377484
20
-16.4105477628
30
0.0000000000
10
-11.9850259316
20
-16.3854850935
30
0.0000000000
11
-11.9951136646
21
-17.3317387640
31
0.0000000000
11
-11.9942128936
21
-17.3158521792
31
0.0000000000
11
-11.9933293355
21
-17.2944555080
31
0.0000000000
11
-11.9924679756
21
-17.2676700476
31
0.0000000000
11
-11.9916337408
21
-17.2356485563
31
0.0000000000
11
-11.9908313648
21
-17.1985731126
31
0.0000000000
11
-11.9900654112
21
-17.1566545521
31
0.0000000000
11
-11.9893402378
21
-17.1101315295
31
0.0000000000
11
-11.9886599683
21
-17.0592687369
31
0.0000000000
11
-11.9880284688
21
-17.0043554192
31
0.0000000000
11
-11.9874493299
21
-16.9457039577
31
0.0000000000
11
-11.9869258440
21
-16.8836479780
31
0.0000000000
11
-11.9864609857
21
-16.8185402866
31
0.0000000000
11
-11.9860573976
21
-16.7507511431
31
0.0000000000
11
-11.9857173745
21
-16.6806663001
31
0.0000000000
11
-11.9854428480
21
-16.6086840789
31
0.0000000000
11
-11.9852353760
21
-16.5352134091
31
0.0000000000
11
-11.9850961418
21
-16.4606730769
31
0.0000000000
11
-11.9850259316
21
-16.3854850935
31
0.0000000000
0
SPLINE
5
2AB
100
AcDbEntity
8
0
100
AcDbSpline
62
9
6
CONTINUOUS
70
0
71
3
72
22
73
18
74
16
42
0.0000001000
43
0.0000001000
44
0.0000000001
12
0.0014367926
22
-0.4669669341
32
0.0000000000
13
0.4669670641
23
-0.0013938929
33
0.0000000000
40
0.0000000000
40
0.0000000000
40
0.0000000000
40
0.0000000000
40
0.0661103930
40
0.1322638428
40
0.1984799513
40
0.2647755418
40
0.3311639233
40
0.3976543190
40
0.4642514785
40
0.5309554922
40
0.5977618086
40
0.6646614531
40
0.7316414334
40
0.7986853115
40
0.8657739179
40
0.9328861755
40
1.0000000000
40
1.0000000000
40
1.0000000000
40
1.0000000000
10
-12.2950679731
20
-17.0362964381
30
0.0000000000
10
-12.2950363108
20
-17.0465868939
30
0.0000000000
10
-12.2938787457
20
-17.0671878067
30
0.0000000000
10
-12.2888811198
20
-17.0977313591
30
0.0000000000
10
-12.2806765585
20
-17.1276071707
30
0.0000000000
10
-12.2693549185
20
-17.1564844311
30
0.0000000000
10
-12.2550401006
20
-17.1840491135
30
0.0000000000
10
-12.2378886848
20
-17.2100000750
30
0.0000000000
10
-12.2180881797
20
-17.2340543068
30
0.0000000000
10
-12.1958549501
20
-17.2559494796
30
0.0000000000
10
-12.1714318214
20
-17.2754469249
30
0.0000000000
10
-12.1450854501
20
-17.2923341731
30
0.0000000000
10
-12.1171032737
20
-17.3064272510
30
0.0000000000
10
-12.0877908790
20
-17.3175726546
30
0.0000000000
10
-12.0574668067
20
-17.3256490025
30
0.0000000000
10
-12.0264660900
20
-17.3305683171
30
0.0000000000
10
-12.0055603131
20
-17.3317075808
30
0.0000000000
10
-11.9951136646
20
-17.3317387640
30
0.0000000000
11
-12.2950679731
21
-17.0362964381
31
0.0000000000
11
-12.2933362830
21
-17.0671193452
31
0.0000000000
11
-12.2883497880
21
-17.0976058512
31
0.0000000000
11
-12.2801629107
21
-17.1274232259
31
0.0000000000
11
-12.2688650026
21
-17.1562460421
31
0.0000000000
11
-12.2545793690
21
-17.1837597273
31
0.0000000000
11
-12.2374619236
21
-17.2096639967
31
0.0000000000
11
-12.2176994861
21
-17.2336761308
31
0.0000000000
11
-12.1955077440
21
-17.2555340608
31
0.0000000000
11
-12.1711288982
21
-17.2749992288
31
0.0000000000
11
-12.1448290196
21
-17.2918591917
31
0.0000000000
11
-12.1168951455
21
-17.3059299395
31
0.0000000000
11
-12.0876321466
21
-17.3170579038
31
0.0000000000
11
-12.0573593996
21
-17.3251216339
31
0.0000000000
11
-12.0264073017
21
-17.3300331220
31
0.0000000000
11
-11.9951136646
21
-17.3317387640
31
0.0000000000
0
SPLINE
5
2AC
100
AcDbEntity
8
0
100
AcDbSpline
62
9
6
CONTINUOUS
70
0
71
3
72
17
73
13
74
11
42
0.0000001000
43
0.0000001000
44
0.0000000001
12
0.0220545084
22
32.7478327603
32
0.0000000000
13
-0.0220545084
23
32.7478327603
33
0.0000000000
40
0.0000000000
40
0.0000000000
40
0.0000000000
40
0.0000000000
40
0.0999643152
40
0.1999524220
40
0.2999583699
40
0.3999762120
40
0.5000000011
40
0.6000237902
40
0.7000416323
40
0.8000475802
40
0.9000356870
40
1.0000000000
40
1.0000000000
40
1.0000000000
40
1.0000000000
10
-12.2849802401
20
-16.3739188688
30
0.0000000000
10
-12.2842453522
20
-15.2827139771
30
0.0000000000
10
-12.2829225603
20
-13.1000443836
30
0.0000000000
10
-12.2813793949
20
-9.8257151510
30
0.0000000000
10
-12.2802770684
20
-6.5508014422
30
0.0000000000
10
-12.2796156463
20
-3.2754981093
30
0.0000000000
10
-12.2793951679
20
0.0000000358
30
0.0000000000
10
-12.2796156463
20
3.2754981809
30
0.0000000000
10
-12.2802770684
20
6.5508015138
30
0.0000000000
10
-12.2813793950
20
9.8257152225
30
0.0000000000
10
-12.2829225603
20
13.1000444312
30
0.0000000000
10
-12.2842453522
20
15.2827140010
30
0.0000000000
10
-12.2849802401
20
16.3739188688
30
0.0000000000
11
-12.2849802401
21
-16.3739188688
31
0.0000000000
11
-12.2829962294
21
-13.1003040527
31
0.0000000000
11
-12.2814529875
21
-9.8259098740
31
0.0000000000
11
-12.2803506064
21
-6.5509312587
31
0.0000000000
11
-12.2796891515
21
-3.2755630158
31
0.0000000000
11
-12.2794686621
21
0.0000000358
31
0.0000000000
11
-12.2796891515
21
3.2755630875
31
0.0000000000
11
-12.2803506064
21
6.5509313303
31
0.0000000000
11
-12.2814529876
21
9.8259099455
31
0.0000000000
11
-12.2829962294
21
13.1003041242
31
0.0000000000
11
-12.2849802401
21
16.3739188688
31
0.0000000000
0
SPLINE
5
2AD
100
AcDbEntity
8
0
100
AcDbSpline
62
9
6
CONTINUOUS
70
0
71
3
72
21
73
17
74
15
42
0.0000001000
43
0.0000001000
44
0.0000000001
12
0.1238971533
22
-0.2739463655
32
0.0000000000
13
0.3006610631
23
-0.0002021836
33
0.0000000000
40
0.0000000000
40
0.0000000000
40
0.0000000000
40
0.0000000000
40
0.0091178633
40
0.0297823121
40
0.0621959371
40
0.1060527834
40
0.1608483737
40
0.2259261895
40
0.3004961055
40
0.3836477779
40
0.4743634213
40
0.5715311043
40
0.6739588503
40
0.7803895492
40
0.8895165812
40
1.0000000000
40
1.0000000000
40
1.0000000000
40
1.0000000000
10
-12.2849802401
20
-16.3739188688
30
0.0000000000
10
-12.2846036810
20
-16.3747514706
30
0.0000000000
10
-12.2811445546
20
-16.3755054035
30
0.0000000000
10
-12.2754990300
20
-16.3767823588
30
0.0000000000
10
-12.2655937441
20
-16.3778537713
30
0.0000000000
10
-12.2526146656
20
-16.3790303964
30
0.0000000000
10
-12.2362009944
20
-16.3801125953
30
0.0000000000
10
-12.2167546050
20
-16.3811466325
30
0.0000000000
10
-12.1944407280
20
-16.3820922156
30
0.0000000000
10
-12.1695580414
20
-16.3829439171
30
0.0000000000
10
-12.1424043707
20
-16.3836874993
30
0.0000000000
10
-12.1133160157
20
-16.3843139288
30
0.0000000000
10
-12.0826498886
20
-16.3848148030
30
0.0000000000
10
-12.0507832974
20
-16.3851837436
30
0.0000000000
10
-12.0181080536
20
-16.3854160112
30
0.0000000000
10
-11.9960986189
20
-16.3854776476
30
0.0000000000
10
-11.9850259316
20
-16.3854850935
30
0.0000000000
11
-12.2849802401
21
-16.3739188688
31
0.0000000000
11
-12.2825564943
21
-16.3751997510
31
0.0000000000
11
-12.2764736682
21
-16.3764648807
31
0.0000000000
11
-12.2668065695
21
-16.3776986991
31
0.0000000000
11
-12.2536740858
21
-16.3788860326
31
0.0000000000
11
-12.2372377226
21
-16.3800122790
31
0.0000000000
11
-12.2176996169
21
-16.3810635877
31
0.0000000000
11
-12.1953000517
21
-16.3820270295
31
0.0000000000
11
-12.1703145004
21
-16.3828907557
31
0.0000000000
11
-12.1430502396
21
-16.3836441442
31
0.0000000000
11
-12.1138425696
21
-16.3842779296
31
0.0000000000
11
-12.0830506913
21
-16.3847843176
31
0.0000000000
11
-12.0510532882
21
-16.3851570805
31
0.0000000000
11
-12.0182438697
21
-16.3853916340
31
0.0000000000
11
-11.9850259316
21
-16.3854850935
31
0.0000000000
0
SPLINE
5
2AE
100
AcDbEntity
8
0
100
AcDbSpline
62
9
6
CONTINUOUS
70
0
71
3
72
25
73
21
74
19
42
0.0000001000
43
0.0000001000
44
0.0000000001
12
-0.0004462700
22
0.6625312298
32
0.0000000000
13
-0.0652644253
23
0.6593090205
33
0.0000000000
40
0.0000000000
40
0.0000000000
40
0.0000000000
40
0.0000000000
40
0.0794220638
40
0.1581801434
40
0.2358085054
40
0.3118647759
40
0.3859170398
40
0.4575445624
40
0.5263399164
40
0.5919120683
40
0.6538884451
40
0.7119167771
40
0.7656672946
40
0.8148347204
40
0.8591398904
40
0.8983313732
40
0.9321874924
40
0.9605175627
40
0.9831632770
40
1.0000000000
40
1.0000000000
40
1.0000000000
40
1.0000000000
10
-12.2849802401
20
16.3739188688
30
0.0000000000
10
-12.2849920547
20
16.3914587346
30
0.0000000000
10
-12.2850385135
20
16.4263918187
30
0.0000000000
10
-12.2851770618
20
16.4784684942
30
0.0000000000
10
-12.2853835120
20
16.5298016259
30
0.0000000000
10
-12.2856566633
20
16.5800951815
30
0.0000000000
10
-12.2859949289
20
16.6290630640
30
0.0000000000
10
-12.2863963442
20
16.6764268874
30
0.0000000000
10
-12.2868585683
20
16.7219172860
30
0.0000000000
10
-12.2873788935
20
16.7652755188
30
0.0000000000
10
-12.2879542539
20
16.8062550096
30
0.0000000000
10
-12.2885812269
20
16.8446226892
30
0.0000000000
10
-12.2892560401
20
16.8801603164
30
0.0000000000
10
-12.2899745310
20
16.9126657523
30
0.0000000000
10
-12.2907321974
20
16.9419540692
30
0.0000000000
10
-12.2915238256
20
16.9678587497
30
0.0000000000
10
-12.2923441607
20
16.9902324612
30
0.0000000000
10
-12.2931848097
20
17.0089486661
30
0.0000000000
10
-12.2940403796
20
17.0239002587
30
0.0000000000
10
-12.2947016934
20
17.0325962370
30
0.0000000000
10
-12.2950679731
20
17.0362964381
30
0.0000000000
11
-12.2849802401
21
16.3739188688
31
0.0000000000
11
-12.2850504261
21
16.4265384315
31
0.0000000000
11
-12.2851896496
21
16.4787179449
31
0.0000000000
11
-12.2853971124
21
16.5301487524
31
0.0000000000
11
-12.2856716341
21
16.5805376704
31
0.0000000000
11
-12.2860116554
21
16.6295984407
31
0.0000000000
11
-12.2864152453
21
16.6770522060
31
0.0000000000
11
-12.2868801086
21
16.7226289161
31
0.0000000000
11
-12.2874036030
21
16.7660693702
31
0.0000000000
11
-12.2879827537
21
16.8071265802
31
0.0000000000
11
-12.2886142681
21
16.8455669840
31
0.0000000000
11
-12.2892945555
21
16.8811718902
31
0.0000000000
11
-12.2900197488
21
16.9137387794
31
0.0000000000
11
-12.2907857241
21
16.9430823491
31
0.0000000000
11
-12.2915881221
21
16.9690355354
31
0.0000000000
11
-12.2924223815
21
16.9914507572
31
0.0000000000
11
-12.2932837617
21
17.0102005420
31
0.0000000000
11
-12.2941673508
21
17.0251779975
31
0.0000000000
11
-12.2950679731
21
17.0362964381
31
0.0000000000
0
SPLINE
5
2AF
100
AcDbEntity
8
0
100
AcDbSpline
62
9
6
CONTINUOUS
70
0
71
3
72
25
73
21
74
19
42
0.0000001000
43
0.0000001000
44
0.0000000001
12
-0.0004462263
22
0.9463612702
32
0.0000000000
13
-0.0654163801
23
0.9440977439
33
0.0000000000
40
0.0000000000
40
0.0000000000
40
0.0000000000
40
0.0000000000
40
0.0794495423
40
0.1582148743
40
0.2358500854
40
0.3119127222
40
0.3859707669
40
0.4576033897
40
0.5264030587
40
0.5919786305
40
0.6539574094
40
0.7119869856
40
0.7657374290
40
0.8149032960
40
0.8592051448
40
0.8983911530
40
0.9322390689
40
0.9605573298
40
0.9831860090
40
1.0000000000
40
1.0000000000
40
1.0000000000
40
1.0000000000
10
-11.9850259316
20
16.3854850935
30
0.0000000000
10
-11.9850377490
20
16.4105477501
30
0.0000000000
10
-11.9850842179
20
16.4604572189
30
0.0000000000
10
-11.9852227878
20
16.5348569041
30
0.0000000000
10
-11.9854292477
20
16.6081880166
30
0.0000000000
10
-11.9857024026
20
16.6800339694
30
0.0000000000
10
-11.9860406700
20
16.7499860854
30
0.0000000000
10
-11.9864420826
20
16.8176466992
30
0.0000000000
10
-11.9869043008
20
16.8826310334
30
0.0000000000
10
-11.9874246164
20
16.9445694869
30
0.0000000000
10
-11.9879999635
20
17.0031098353
30
0.0000000000
10
-11.9886269194
20
17.0579191486
30
0.0000000000
10
-11.9893017116
20
17.1086856876
30
0.0000000000
10
-11.9900201777
20
17.1551207016
30
0.0000000000
10
-11.9907778138
20
17.1969600165
30
0.0000000000
10
-11.9915694051
20
17.2339656652
30
0.0000000000
10
-11.9923896890
20
17.2659271523
30
0.0000000000
10
-11.9932302475
20
17.2926631353
30
0.0000000000
10
-11.9940857140
20
17.3140215062
30
0.0000000000
10
-11.9947470277
20
17.3264474136
30
0.0000000000
10
-11.9951136646
20
17.3317387640
30
0.0000000000
11
-11.9850259316
21
16.3854850935
31
0.0000000000
11
-11.9850961415
21
16.4606730389
31
0.0000000000
11
-11.9852353760
21
16.5352133767
31
0.0000000000
11
-11.9854428477
21
16.6086840490
31
0.0000000000
11
-11.9857173740
21
16.6806662671
31
0.0000000000
11
-11.9860573970
21
16.7507511153
31
0.0000000000
11
-11.9864609849
21
16.8185402613
31
0.0000000000
11
-11.9869258429
21
16.8836479513
31
0.0000000000
11
-11.9874493286
21
16.9457039316
31
0.0000000000
11
-11.9880284674
21
17.0043553948
31
0.0000000000
11
-11.9886599667
21
17.0592687135
31
0.0000000000
11
-11.9893402362
21
17.1101315081
31
0.0000000000
11
-11.9900654096
21
17.1566545341
31
0.0000000000
11
-11.9908313632
21
17.1985730953
31
0.0000000000
11
-11.9916337392
21
17.2356485385
31
0.0000000000
11
-11.9924679739
21
17.2676700337
31
0.0000000000
11
-11.9933293342
21
17.2944554960
31
0.0000000000
11
-11.9942128917
21
17.3158521688
31
0.0000000000
11
-11.9951136646
21
17.3317387640
31
0.0000000000
0
SPLINE
5
2B0
100
AcDbEntity
8
0
100
AcDbSpline
62
9
6
CONTINUOUS
70
0
71
3
72
21
73
17
74
15
42
0.0000001000
43
0.0000001000
44
0.0000000001
12
0.1238977282
22
0.2739461049
32
0.0000000000
13
0.3006610626
23
0.0002021835
33
0.0000000000
40
0.0000000000
40
0.0000000000
40
0.0000000000
40
0.0000000000
40
0.0091178719
40
0.0297823287
40
0.0621959602
40
0.1060528113
40
0.1608484048
40
0.2259262220
40
0.3004961378
40
0.3836478087
40
0.4743634491
40
0.5715311281
40
0.6739588690
40
0.7803895621
40
0.8895165878
40
1.0000000000
40
1.0000000000
40
1.0000000000
40
1.0000000000
10
-12.2849802401
20
16.3739188688
30
0.0000000000
10
-12.2846036789
20
16.3747514706
30
0.0000000000
10
-12.2811445527
20
16.3755054030
30
0.0000000000
10
-12.2754990240
20
16.3767823586
30
0.0000000000
10
-12.2655937371
20
16.3778537709
30
0.0000000000
10
-12.2526146568
20
16.3790303959
30
0.0000000000
10
-12.2362009849
20
16.3801125947
30
0.0000000000
10
-12.2167545950
20
16.3811466318
30
0.0000000000
10
-12.1944407181
20
16.3820922148
30
0.0000000000
10
-12.1695580320
20
16.3829439162
30
0.0000000000
10
-12.1424043622
20
16.3836874982
30
0.0000000000
10
-12.1133160085
20
16.3843139277
30
0.0000000000
10
-12.0826498829
20
16.3848148018
30
0.0000000000
10
-12.0507832935
20
16.3851837424
30
0.0000000000
10
-12.0181080515
20
16.3854160100
30
0.0000000000
10
-11.9960986183
20
16.3854776463
30
0.0000000000
10
-11.9850259316
20
16.3854850922
30
0.0000000000
11
-12.2849802401
21
16.3739188688
31
0.0000000000
11
-12.2825564913
21
16.3751997509
31
0.0000000000
11
-12.2764736627
21
16.3764648805
31
0.0000000000
11
-12.2668065621
21
16.3776986988
31
0.0000000000
11
-12.2536740770
21
16.3788860322
31
0.0000000000
11
-12.2372377128
21
16.3800122785
31
0.0000000000
11
-12.2176996067
21
16.3810635870
31
0.0000000000
11
-12.1953000416
21
16.3820270287
31
0.0000000000
11
-12.1703144908
21
16.3828907548
31
0.0000000000
11
-12.1430502310
21
16.3836441432
31
0.0000000000
11
-12.1138425623
21
16.3842779285
31
0.0000000000
11
-12.0830506855
21
16.3847843164
31
0.0000000000
11
-12.0510532842
21
16.3851570793
31
0.0000000000
11
-12.0182438677
21
16.3853916327
31
0.0000000000
11
-11.9850259316
21
16.3854850922
31
0.0000000000
0
SPLINE
5
2B1
100
AcDbEntity
8
0
100
AcDbSpline
62
9
6
CONTINUOUS
70
0
71
3
72
22
73
18
74
16
42
0.0000001000
43
0.0000001000
44
0.0000000001
12
0.0014367926
22
0.4669669341
32
0.0000000000
13
0.4669670641
23
0.0013938929
33
0.0000000000
40
0.0000000000
40
0.0000000000
40
0.0000000000
40
0.0000000000
40
0.0661103978
40
0.1322638517
40
0.1984799636
40
0.2647755566
40
0.3311639400
40
0.3976543367
40
0.4642514965
40
0.5309555097
40
0.5977618250
40
0.6646614679
40
0.7316414458
40
0.7986853212
40
0.8657739246
40
0.9328861790
40
1.0000000000
40
1.0000000000
40
1.0000000000
40
1.0000000000
10
-12.2950679731
20
17.0362964381
30
0.0000000000
10
-12.2950363108
20
17.0465868947
30
0.0000000000
10
-12.2938787455
20
17.0671878088
30
0.0000000000
10
-12.2888811190
20
17.0977313631
30
0.0000000000
10
-12.2806765568
20
17.1276071760
30
0.0000000000
10
-12.2693549157
20
17.1564844374
30
0.0000000000
10
-12.2550400968
20
17.1840491202
30
0.0000000000
10
-12.2378886799
20
17.2100000816
30
0.0000000000
10
-12.2180881741
20
17.2340543129
30
0.0000000000
10
-12.1958549440
20
17.2559494849
30
0.0000000000
10
-12.1714318152
20
17.2754469293
30
0.0000000000
10
-12.1450854441
20
17.2923341765
30
0.0000000000
10
-12.1171032684
20
17.3064272533
30
0.0000000000
10
-12.0877908746
20
17.3175726560
30
0.0000000000
10
-12.0574668037
20
17.3256490031
30
0.0000000000
10
-12.0264660885
20
17.3305683173
30
0.0000000000
10
-12.0055603125
20
17.3317075808
30
0.0000000000
10
-11.9951136646
20
17.3317387640
30
0.0000000000
11
-12.2950679731
21
17.0362964381
31
0.0000000000
11
-12.2933362828
21
17.0671193475
31
0.0000000000
11
-12.2883497872
21
17.0976058552
31
0.0000000000
11
-12.2801629089
21
17.1274232313
31
0.0000000000
11
-12.2688649997
21
17.1562460484
31
0.0000000000
11
-12.2545793651
21
17.1837597340
31
0.0000000000
11
-12.2374619187
21
17.2096640034
31
0.0000000000
11
-12.2176994804
21
17.2336761370
31
0.0000000000
11
-12.1955077379
21
17.2555340662
31
0.0000000000
11
-12.1711288919
21
17.2749992333
31
0.0000000000
11
-12.1448290136
21
17.2918591951
31
0.0000000000
11
-12.1168951402
21
17.3059299418
31
0.0000000000
11
-12.0876321423
21
17.3170579052
31
0.0000000000
11
-12.0573593965
21
17.3251216346
31
0.0000000000
11
-12.0264073001
21
17.3300331222
31
0.0000000000
11
-11.9951136646
21
17.3317387640
31
0.0000000000
0
SPLINE
5
2B2
100
AcDbEntity
8
0
100
AcDbSpline
62
7
6
CONTINUOUS
70
0
71
3
72
31
73
27
74
25
42
0.0000001000
43
0.0000001000
44
0.0000000001
12
-0.0004431150
22
3.3195773018
32
0.0000000000
13
3.3195773314
23
0.0000000000
33
0.0000000000
40
0.0000000000
40
0.0000000000
40
0.0000000000
40
0.0000000000
40
0.0416681309
40
0.0833359414
40
0.1250035839
40
0.1666708769
40
0.2083379380
40
0.2500044874
40
0.2916713496
40
0.3333374676
40
0.3750042348
40
0.4166702876
40
0.4583368209
40
0.5000028648
40
0.5416692615
40
0.5833353909
40
0.6250017437
40
0.6666680236
40
0.7083343836
40
0.7500008117
40
0.7916672284
40
0.8333337874
40
0.8750002586
40
0.9166668674
40
0.9583334050
40
1.0000000000
40
1.0000000000
40
1.0000000000
40
1.0000000000
10
-10.0135291864
20
-6.5000000000
30
0.0000000000
10
-10.0135353410
20
-6.4538931395
30
0.0000000000
10
-10.0105279007
20
-6.3616508662
30
0.0000000000
10
-9.9969768735
20
-6.2239021163
30
0.0000000000
10
-9.9744442275
20
-6.0873295732
30
0.0000000000
10
-9.9430266423
20
-5.9525258768
30
0.0000000000
10
-9.9028589819
20
-5.8200666631
30
0.0000000000
10
-9.8541132839
20
-5.6905190775
30
0.0000000000
10
-9.7969986657
20
-5.5644383096
30
0.0000000000
10
-9.7317593433
20
-5.4423631953
30
0.0000000000
10
-9.6586753420
20
-5.3248175233
30
0.0000000000
10
-9.5780590276
20
-5.2123035611
30
0.0000000000
10
-9.4902564685
20
-5.1053041613
30
0.0000000000
10
-9.3956430185
20
-5.0042766391
30
0.0000000000
10
-9.2946244923
20
-4.9096542359
30
0.0000000000
10
-9.1876329827
20
-4.8218416364
30
0.0000000000
10
-9.0751270861
20
-4.7412151933
30
0.0000000000
10
-8.9575883287
20
-4.6681199742
30
0.0000000000
10
-8.8355202459
20
-4.6028691030
30
0.0000000000
10
-8.7094455439
20
-4.5457419946
30
0.0000000000
10
-8.5799041331
20
-4.4969832773
30
0.0000000000
10
-8.4474507996
20
-4.4568018327
30
0.0000000000
10
-8.3126531918
20
-4.4253696964
30
0.0000000000
10
-8.1760867383
20
-4.4028215336
30
0.0000000000
10
-8.0383439176
20
-4.3892538853
30
0.0000000000
10
-7.9461051614
20
-4.3862345423
30
0.0000000000
10
-7.9000000000
20
-4.3862345423
30
0.0000000000
11
-10.0135291864
21
-6.5000000000
31
0.0000000000
11
-10.0090212271
21
-6.3617528954
31
0.0000000000
11
-9.9954798925
21
-6.2240978132
31
0.0000000000
11
-9.9729633016
21
-6.0876238661
31
0.0000000000
11
-9.9415681769
21
-5.9529161813
31
0.0000000000
11
-9.9014291046
21
-5.8205513220
31
0.0000000000
11
-9.8527185285
21
-5.6910970402
31
0.0000000000
11
-9.7956442038
21
-5.5651052150
31
0.0000000000
11
-9.7304521815
21
-5.4431185951
31
0.0000000000
11
-9.6574195590
21
-5.3256555484
31
0.0000000000
11
-9.5768615637
21
-5.2132229701
31
0.0000000000
11
-9.4891210041
21
-5.1062991151
31
0.0000000000
11
-9.3945757302
21
-5.0053443815
31
0.0000000000
11
-9.2936288149
21
-4.9107890463
31
0.0000000000
11
-9.1867140979
21
-4.8230394656
31
0.0000000000
11
-9.0742882438
21
-4.7424703769
31
0.0000000000
11
-8.9568335304
21
-4.6694274161
31
0.0000000000
11
-8.8348525660
21
-4.6042231085
31
0.0000000000
11
-8.7088677815
21
-4.5471367353
31
0.0000000000
11
-8.5794189691
21
-4.4984128764
31
0.0000000000
11
-8.4470600277
21
-4.4582600348
31
0.0000000000
11
-8.3123585297
21
-4.4268503875
31
0.0000000000
11
-8.1758906215
21
-4.4043182792
31
0.0000000000
11
-8.0382414209
21
-4.3907603276
31
0.0000000000
11
-7.9000000000
21
-4.3862345423
31
0.0000000000
0
SPLINE
5
2B3
100
AcDbEntity
8
0
100
AcDbSpline
62
7
6
CONTINUOUS
70
0
71
3
72
31
73
27
74
25
42
0.0000001000
43
0.0000001000
44
0.0000000001
12
-3.3169147152
22
0.0000000000
32
0.0000000000
13
-0.0008517295
23
3.3169146058
33
0.0000000000
40
0.0000000000
40
0.0000000000
40
0.0000000000
40
0.0000000000
40
0.0416521574
40
0.0833045821
40
0.1249577479
40
0.1666116300
40
0.2082668860
40
0.2499233104
40
0.2915815323
40
0.3332412755
40
0.3749030406
40
0.4165665503
40
0.4582320837
40
0.4998994326
40
0.5415686036
40
0.5832395019
40
0.6249118767
40
0.6665857468
40
0.7082606339
40
0.7499366649
40
0.7916132481
40
0.8332905402
40
0.8749679191
40
0.9166455354
40
0.9583229061
40
1.0000000000
40
1.0000000000
40
1.0000000000
40
1.0000000000
10
-7.9000000000
20
-14.6117703171
30
0.0000000000
10
-7.9460522179
20
-14.6117703171
30
0.0000000000
10
-8.0381853796
20
-14.6087562258
30
0.0000000000
10
-8.1757721583
20
-14.5952120274
30
0.0000000000
10
-8.3121872980
20
-14.5727023083
30
0.0000000000
10
-8.4468406180
20
-14.5413226662
30
0.0000000000
10
-8.5791584701
20
-14.5012065657
30
0.0000000000
10
-8.7085751141
20
-14.4525244734
30
0.0000000000
10
-8.8345368025
20
-14.3954836926
30
0.0000000000
10
-8.9565049301
20
-14.3303269002
30
0.0000000000
10
-9.0739569738
20
-14.2573318950
30
0.0000000000
10
-9.1863900937
20
-14.1768097178
30
0.0000000000
10
-9.2933221511
20
-14.0891041055
30
0.0000000000
10
-9.3942946880
20
-13.9945894439
30
0.0000000000
10
-9.4888743732
20
-13.8936696627
30
0.0000000000
10
-9.5766551697
20
-13.7867762970
30
0.0000000000
10
-9.6572601574
20
-13.6743666169
30
0.0000000000
10
-9.7303429245
20
-13.5569220225
30
0.0000000000
10
-9.7955895796
20
-13.4349453130
30
0.0000000000
10
-9.8527195646
20
-13.3089594293
30
0.0000000000
10
-9.9014875276
20
-13.1795040598
30
0.0000000000
10
-9.9416837777
20
-13.0471344511
30
0.0000000000
10
-9.9731357784
20
-12.9124183734
30
0.0000000000
10
-9.9957084461
20
-12.7759317559
30
0.0000000000
10
-10.0093050317
20
-12.6382673776
30
0.0000000000
10
-10.0123466052
20
-12.5460797871
30
0.0000000000
10
-10.0123584377
20
-12.5000000000
30
0.0000000000
11
-7.9000000000
21
-14.6117703171
31
0.0000000000
11
-8.0380827634
21
-14.6072524173
31
0.0000000000
11
-8.1755757578
21
-14.5937179250
31
0.0000000000
11
-8.3118923735
21
-14.5712242478
31
0.0000000000
11
-8.4464493262
21
-14.5398671409
31
0.0000000000
11
-8.5786729553
21
-14.4997795749
31
0.0000000000
11
-8.7079966882
21
-14.4511324373
31
0.0000000000
11
-8.8338688178
21
-14.3941322041
31
0.0000000000
11
-8.9557494695
21
-14.3290221371
31
0.0000000000
11
-9.0731179946
21
-14.2560790304
31
0.0000000000
11
-9.1854706578
21
-14.1756144670
31
0.0000000000
11
-9.2923266023
21
-14.0879712741
31
0.0000000000
11
-9.3932270878
21
-13.9935240469
31
0.0000000000
11
-9.4877393527
21
-13.8926761959
31
0.0000000000
11
-9.5754576786
21
-13.7858588924
31
0.0000000000
11
-9.6560051240
21
-13.6735294486
31
0.0000000000
11
-9.7290360042
21
-13.5561682263
31
0.0000000000
11
-9.7942360177
21
-13.4342786988
31
0.0000000000
11
-9.8513254883
21
-13.3083821542
31
0.0000000000
11
-9.9000585740
21
-13.1790193299
31
0.0000000000
11
-9.9402263259
21
-13.0467436488
31
0.0000000000
11
-9.9716558335
21
-12.9121235547
31
0.0000000000
11
-9.9942124717
21
-12.7757351408
31
0.0000000000
11
-10.0077993545
21
-12.6381641670
31
0.0000000000
11
-10.0123584377
21
-12.5000000000
31
0.0000000000
0
SPLINE
5
2B4
100
AcDbEntity
8
0
100
AcDbSpline
62
7
6
CONTINUOUS
70
0
71
3
72
31
73
27
74
25
42
0.0000001000
43
0.0000001000
44
0.0000000001
12
-0.0008517295
22
-3.3169146058
32
0.0000000000
13
-3.3169147152
23
0.0000000000
33
0.0000000000
40
0.0000000000
40
0.0000000000
40
0.0000000000
40
0.0000000000
40
0.0416770932
40
0.0833544621
40
0.1250320806
40
0.1667094613
40
0.2083867517
40
0.2500633328
40
0.2917393659
40
0.3334142548
40
0.3750881231
40
0.4167604959
40
0.4584313962
40
0.5001005690
40
0.5417679162
40
0.5834334475
40
0.6250969592
40
0.6667587261
40
0.7084184675
40
0.7500766873
40
0.7917331138
40
0.8333883716
40
0.8750422518
40
0.9166954154
40
0.9583478420
40
1.0000000000
40
1.0000000000
40
1.0000000000
40
1.0000000000
10
10.0123584377
20
-12.5000000000
30
0.0000000000
10
10.0123466052
20
-12.5460797864
30
0.0000000000
10
10.0093050318
20
-12.6382673742
30
0.0000000000
10
9.9957084466
20
-12.7759317523
30
0.0000000000
10
9.9731357788
20
-12.9124183721
30
0.0000000000
10
9.9416837774
20
-13.0471344523
30
0.0000000000
10
9.9014875278
20
-13.1795040587
30
0.0000000000
10
9.8527195658
20
-13.3089594266
30
0.0000000000
10
9.7955895802
20
-13.4349453122
30
0.0000000000
10
9.7303429238
20
-13.5569220237
30
0.0000000000
10
9.6572601577
20
-13.6743666162
30
0.0000000000
10
9.5766551713
20
-13.7867762949
30
0.0000000000
10
9.4888743737
20
-13.8936696623
30
0.0000000000
10
9.3942946869
20
-13.9945894450
30
0.0000000000
10
9.2933221515
20
-14.0891041049
30
0.0000000000
10
9.1863900959
20
-14.1768097161
30
0.0000000000
10
9.0739569745
20
-14.2573318947
30
0.0000000000
10
8.9565049289
20
-14.3303269009
30
0.0000000000
10
8.8345368034
20
-14.3954836921
30
0.0000000000
10
8.7085751169
20
-14.4525244723
30
0.0000000000
10
8.5791584712
20
-14.5012065655
30
0.0000000000
10
8.4468406168
20
-14.5413226666
30
0.0000000000
10
8.3121872993
20
-14.5727023079
30
0.0000000000
10
8.1757721620
20
-14.5952120269
30
0.0000000000
10
8.0381853831
20
-14.6087562256
30
0.0000000000
10
7.9460522186
20
-14.6117703171
30
0.0000000000
10
7.9000000000
20
-14.6117703171
30
0.0000000000
11
10.0123584377
21
-12.5000000000
31
0.0000000000
11
10.0077993546
21
-12.6381641650
31
0.0000000000
11
9.9942124728
21
-12.7757351327
31
0.0000000000
11
9.9716558337
21
-12.9121235539
31
0.0000000000
11
9.9402263246
21
-13.0467436537
31
0.0000000000
11
9.9000585742
21
-13.1790193292
31
0.0000000000
11
9.8513254912
21
-13.3083821471
31
0.0000000000
11
9.7942360179
21
-13.4342786983
31
0.0000000000
11
9.7290360016
21
-13.5561682309
31
0.0000000000
11
9.6560051242
21
-13.6735294483
31
0.0000000000
11
9.5754576829
21
-13.7858588868
31
0.0000000000
11
9.4877393529
21
-13.8926761956
31
0.0000000000
11
9.3932270839
21
-13.9935240507
31
0.0000000000
11
9.2923266026
21
-14.0879712738
31
0.0000000000
11
9.1854706635
21
-14.1756144627
31
0.0000000000
11
9.0731179950
21
-14.2560790302
31
0.0000000000
11
8.9557494649
21
-14.3290221397
31
0.0000000000
11
8.8338688183
21
-14.3941322039
31
0.0000000000
11
8.7079966954
21
-14.4511324344
31
0.0000000000
11
8.5786729560
21
-14.4997795747
31
0.0000000000
11
8.4464493213
21
-14.5398671422
31
0.0000000000
11
8.3118923743
21
-14.5712242476
31
0.0000000000
11
8.1755757661
21
-14.5937179240
31
0.0000000000
11
8.0380827656
21
-14.6072524172
31
0.0000000000
11
7.9000000000
21
-14.6117703171
31
0.0000000000
0
SPLINE
5
2B5
100
AcDbEntity
8
0
100
AcDbSpline
62
9
6
CONTINUOUS
70
0
71
3
72
22
73
18
74
16
42
0.0000001000
43
0.0000001000
44
0.0000000001
12
-0.0519509208
22
0.2947180793
32
0.0000000000
13
0.2947153729
23
0.0519662719
33
0.0000000000
40
0.0000000000
40
0.0000000000
40
0.0000000000
40
0.0000000000
40
0.1045678501
40
0.2079616388
40
0.3090532770
40
0.4067398260
40
0.4999555517
40
0.5876835778
40
0.6689670181
40
0.7429194735
40
0.8087347982
40
0.8656960702
40
0.9131837740
40
0.9506834207
40
0.9777937079
40
0.9942417760
40
1.0000000000
40
1.0000000000
40
1.0000000000
40
1.0000000000
10
-30.9097534431
20
17.0362964381
30
0.0000000000
10
-30.9115642418
20
17.0465691167
30
0.0000000000
10
-30.9151472450
20
17.0670023598
30
0.0000000000
10
-30.9204170345
20
17.0973779239
30
0.0000000000
10
-30.9255139504
20
17.1270867490
30
0.0000000000
10
-30.9303823910
20
17.1558045404
30
0.0000000000
10
-30.9349694193
20
17.1832180224
30
0.0000000000
10
-30.9392247391
20
17.2090274424
30
0.0000000000
10
-30.9431033556
20
17.2329529332
30
0.0000000000
10
-30.9465591971
20
17.2547273208
30
0.0000000000
10
-30.9495679804
20
17.2741320459
30
0.0000000000
10
-30.9520582452
20
17.2908966894
30
0.0000000000
10
-30.9541198229
20
17.3050090763
30
0.0000000000
10
-30.9554191978
20
17.3158489517
30
0.0000000000
10
-30.9567268598
20
17.3244481473
30
0.0000000000
10
-30.9564498890
20
17.3283424248
30
0.0000000000
10
-30.9571778535
20
17.3316390195
30
0.0000000000
10
-30.9566121745
20
17.3317387640
30
0.0000000000
11
-30.9097534431
21
17.0362964381
31
0.0000000000
11
-30.9151581266
21
17.0671193462
31
0.0000000000
11
-30.9204466807
21
17.0976058529
31
0.0000000000
11
-30.9255613860
21
17.1274232281
31
0.0000000000
11
-30.9304464205
21
17.1562460447
31
0.0000000000
11
-30.9350484689
21
17.1837597301
31
0.0000000000
11
-30.9393173044
21
17.2096639995
31
0.0000000000
11
-30.9432063368
21
17.2336761334
31
0.0000000000
11
-30.9466731213
21
17.2555340631
31
0.0000000000
11
-30.9496798212
21
17.2749992307
31
0.0000000000
11
-30.9521936214
21
17.2918591931
31
0.0000000000
11
-30.9541870862
21
17.3059299405
31
0.0000000000
11
-30.9556384589
21
17.3170579044
31
0.0000000000
11
-30.9565318993
21
17.3251216342
31
0.0000000000
11
-30.9568576562
21
17.3300331221
31
0.0000000000
11
-30.9566121745
21
17.3317387640
31
0.0000000000
0
SPLINE
5
2B6
100
AcDbEntity
8
0
100
AcDbSpline
62
9
6
CONTINUOUS
70
0
71
3
72
25
73
21
74
19
42
0.0000001000
43
0.0000001000
44
0.0000000001
12
-0.9357284301
22
-0.1649999427
32
0.0000000000
13
-0.0366391620
23
-0.9494578705
33
0.0000000000
40
0.0000000000
40
0.0000000000
40
0.0000000000
40
0.0000000000
40
0.0555492904
40
0.1111081296
40
0.1666673125
40
0.2222260141
40
0.2777844650
40
0.3333427811
40
0.3889007088
40
0.4444582109
40
0.5000153365
40
0.5555720505
40
0.6111283298
40
0.6666842960
40
0.7222399673
40
0.7777951555
40
0.8333500465
40
0.8889049539
40
0.9444591250
40
1.0000000000
40
1.0000000000
40
1.0000000000
40
1.0000000000
10
-30.9097534431
20
17.0362964381
30
0.0000000000
10
-30.9270797932
20
17.0332412282
30
0.0000000000
10
-30.9615191596
20
17.0258203755
30
0.0000000000
10
-31.0121827453
20
17.0108298781
30
0.0000000000
10
-31.0615784158
20
16.9920623157
30
0.0000000000
10
-31.1094183407
20
16.9696258138
30
0.0000000000
10
-31.1554313885
20
16.9436479819
30
0.0000000000
10
-31.1993556359
20
16.9142766175
30
0.0000000000
10
-31.2409413416
20
16.8816788373
30
0.0000000000
10
-31.2799519704
20
16.8460401408
30
0.0000000000
10
-31.3161657253
20
16.8075632756
30
0.0000000000
10
-31.3493767192
20
16.7664671196
30
0.0000000000
10
-31.3793961660
20
16.7229854228
30
0.0000000000
10
-31.4060534363
20
16.6773654659
30
0.0000000000
10
-31.4291969961
20
16.6298667492
30
0.0000000000
10
-31.4486952986
20
16.5807593334
30
0.0000000000
10
-31.4644375971
20
16.5303226979
30
0.0000000000
10
-31.4763343327
20
16.4788426715
30
0.0000000000
10
-31.4843174205
20
16.4266200509
30
0.0000000000
10
-31.4870009555
20
16.3914967758
30
0.0000000000
10
-31.4876792792
20
16.3739188688
30
0.0000000000
11
-30.9097534431
21
17.0362964381
31
0.0000000000
11
-30.9613500585
21
17.0251779975
31
0.0000000000
11
-31.0119708458
21
17.0102005420
31
0.0000000000
11
-31.0613192837
21
16.9914507572
31
0.0000000000
11
-31.1091139728
21
16.9690355354
31
0.0000000000
11
-31.1550833261
21
16.9430823491
31
0.0000000000
11
-31.1989660188
21
16.9137387794
31
0.0000000000
11
-31.2405123130
21
16.8811718902
31
0.0000000000
11
-31.2794859554
21
16.8455669840
31
0.0000000000
11
-31.3156653932
21
16.8071265802
31
0.0000000000
11
-31.3488449139
21
16.7660693702
31
0.0000000000
11
-31.3788358863
21
16.7226289161
31
0.0000000000
11
-31.4054678888
21
16.6770522060
31
0.0000000000
11
-31.4285895380
21
16.6295984407
31
0.0000000000
11
-31.4480693438
21
16.5805376704
31
0.0000000000
11
-31.4637966818
21
16.5301487524
31
0.0000000000
11
-31.4756822153
21
16.4787179449
31
0.0000000000
11
-31.4836583276
21
16.4265384315
31
0.0000000000
11
-31.4876792792
21
16.3739188688
31
0.0000000000
0
SPLINE
5
2B7
100
AcDbEntity
8
0
100
AcDbSpline
62
9
6
CONTINUOUS
70
0
71
3
72
17
73
13
74
11
42
0.0000001000
43
0.0000001000
44
0.0000000001
12
-1.2628726004
22
-32.7315213072
32
0.0000000000
13
1.2628726018
23
-32.7315213071
33
0.0000000000
40
0.0000000000
40
0.0000000000
40
0.0000000000
40
0.0000000000
40
0.0999999983
40
0.2000000012
40
0.3000000021
40
0.4000000011
40
0.4999999989
40
0.5999999967
40
0.6999999957
40
0.7999999966
40
0.8999999995
40
1.0000000000
40
1.0000000000
40
1.0000000000
40
1.0000000000
10
-31.4876792792
20
16.3739188688
30
0.0000000000
10
-31.5297750318
20
15.2828681771
30
0.0000000000
10
-31.6055518724
20
13.1004327007
30
0.0000000000
10
-31.6939649514
20
9.8260077219
30
0.0000000000
10
-31.7571209697
20
6.5509962094
30
0.0000000000
10
-31.7950160679
20
3.2755955988
30
0.0000000000
10
-31.8076480208
20
0.0000000358
30
0.0000000000
10
-31.7950160684
20
-3.2755955272
30
0.0000000000
10
-31.7571209708
20
-6.5509961378
30
0.0000000000
10
-31.6939649531
20
-9.8260076504
30
0.0000000000
10
-31.6055518739
20
-13.1004326530
30
0.0000000000
10
-31.5297750328
20
-15.2828681533
30
0.0000000000
10
-31.4876792792
20
-16.3739188688
30
0.0000000000
11
-31.4876792792
21
16.3739188688
31
0.0000000000
11
-31.6013431738
21
13.1003041242
31
0.0000000000
11
-31.6897554417
21
9.8259099455
31
0.0000000000
11
-31.7529108168
21
6.5509313303
31
0.0000000000
11
-31.7908055438
21
3.2755630875
31
0.0000000000
11
-31.8034373700
21
0.0000000358
31
0.0000000000
11
-31.7908055444
21
-3.2755630158
31
0.0000000000
11
-31.7529108179
21
-6.5509312587
31
0.0000000000
11
-31.6897554434
21
-9.8259098740
31
0.0000000000
11
-31.6013431760
21
-13.1003040527
31
0.0000000000
11
-31.4876792792
21
-16.3739188688
31
0.0000000000
0
SPLINE
5
2B8
100
AcDbEntity
8
0
100
AcDbSpline
62
9
6
CONTINUOUS
70
0
71
3
72
25
73
21
74
19
42
0.0000001000
43
0.0000001000
44
0.0000000001
12
0.0366384083
22
-0.9494578996
32
0.0000000000
13
0.9357282993
23
-0.1650006846
33
0.0000000000
40
0.0000000000
40
0.0000000000
40
0.0000000000
40
0.0000000000
40
0.0555443987
40
0.1110986549
40
0.1666536522
40
0.2222086395
40
0.2777639197
40
0.3333196874
40
0.3888757554
40
0.4444321265
40
0.4999888728
40
0.5555459668
40
0.6111033777
40
0.6666612040
40
0.7222194242
40
0.7777777838
40
0.8333363898
40
0.8888954828
40
0.9444542362
40
1.0000000000
40
1.0000000000
40
1.0000000000
40
1.0000000000
10
-31.4876792792
20
-16.3739188688
30
0.0000000000
10
-31.4870009264
20
-16.3914978915
30
0.0000000000
10
-31.4843171921
20
-16.4266223050
30
0.0000000000
10
-31.4763337012
20
-16.4788460486
30
0.0000000000
10
-31.4644366758
20
-16.5303260975
30
0.0000000000
10
-31.4486941005
20
-16.5807627386
30
0.0000000000
10
-31.4291955053
20
-16.6298701358
30
0.0000000000
10
-31.4060516519
20
-16.6773688118
30
0.0000000000
10
-31.3793940843
20
-16.7229887017
30
0.0000000000
10
-31.3493743524
20
-16.7664702888
30
0.0000000000
10
-31.3161631056
20
-16.8075662783
30
0.0000000000
10
-31.2799491508
20
-16.8460429159
30
0.0000000000
10
-31.2409383743
20
-16.8816813451
30
0.0000000000
10
-31.1993525616
20
-16.9142788400
30
0.0000000000
10
-31.1554282335
20
-16.9436499192
30
0.0000000000
10
-31.1094151270
20
-16.9696274638
30
0.0000000000
10
-31.0615751696
20
-16.9920636906
30
0.0000000000
10
-31.0121794819
20
-17.0108309626
30
0.0000000000
10
-30.9615169553
20
-17.0258209079
30
0.0000000000
10
-30.9270786908
20
-17.0332414084
30
0.0000000000
10
-30.9097534431
20
-17.0362964381
30
0.0000000000
11
-31.4876792792
21
-16.3739188688
31
0.0000000000
11
-31.4836579443
21
-16.4265417600
31
0.0000000000
11
-31.4756815756
21
-16.4787213161
31
0.0000000000
11
-31.4637957633
21
-16.5301521468
31
0.0000000000
11
-31.4480681427
21
-16.5805410724
31
0.0000000000
11
-31.4285880477
21
-16.6296018221
31
0.0000000000
11
-31.4054661046
21
-16.6770555459
31
0.0000000000
11
-31.3788338030
21
-16.7226321934
31
0.0000000000
11
-31.3488425370
21
-16.7660725507
31
0.0000000000
11
-31.3156627627
21
-16.8071295952
31
0.0000000000
11
-31.2794831261
21
-16.8455697707
31
0.0000000000
11
-31.2405093475
21
-16.8811743994
31
0.0000000000
11
-31.1989629503
21
-16.9137410010
31
0.0000000000
11
-31.1550801762
21
-16.9430842852
31
0.0000000000
11
-31.1091107625
21
-16.9690371879
31
0.0000000000
11
-31.0613160420
21
-16.9914521288
31
0.0000000000
11
-31.0119675891
21
-17.0102016339
31
0.0000000000
11
-30.9613468099
21
-17.0251788292
31
0.0000000000
11
-30.9097534431
21
-17.0362964381
31
0.0000000000
0
SPLINE
5
2B9
100
AcDbEntity
8
0
100
AcDbSpline
62
9
6
CONTINUOUS
70
0
71
3
72
22
73
18
74
16
42
0.0000001000
43
0.0000001000
44
0.0000000001
12
-0.0519509207
22
-0.2947180794
32
0.0000000000
13
0.2947153729
23
-0.0519662719
33
0.0000000000
40
0.0000000000
40
0.0000000000
40
0.0000000000
40
0.0000000000
40
0.1045678545
40
0.2079616468
40
0.3090532877
40
0.4067398384
40
0.4999555648
40
0.5876835907
40
0.6689670302
40
0.7429194841
40
0.8087348069
40
0.8656960768
40
0.9131837786
40
0.9506834234
40
0.9777937091
40
0.9942417763
40
1.0000000000
40
1.0000000000
40
1.0000000000
40
1.0000000000
10
-30.9097534431
20
-17.0362964381
30
0.0000000000
10
-30.9115642419
20
-17.0465691172
30
0.0000000000
10
-30.9151472452
20
-17.0670023610
30
0.0000000000
10
-30.9204170348
20
-17.0973779262
30
0.0000000000
10
-30.9255139509
20
-17.1270867520
30
0.0000000000
10
-30.9303823916
20
-17.1558045440
30
0.0000000000
10
-30.9349694199
20
-17.1832180262
30
0.0000000000
10
-30.9392247397
20
-17.2090274461
30
0.0000000000
10
-30.9431033561
20
-17.2329529367
30
0.0000000000
10
-30.9465591976
20
-17.2547273239
30
0.0000000000
10
-30.9495679808
20
-17.2741320485
30
0.0000000000
10
-30.9520582455
20
-17.2908966914
30
0.0000000000
10
-30.9541198230
20
-17.3050090777
30
0.0000000000
10
-30.9554191979
20
-17.3158489525
30
0.0000000000
10
-30.9567268598
20
-17.3244481478
30
0.0000000000
10
-30.9564498891
20
-17.3283424250
30
0.0000000000
10
-30.9571778535
20
-17.3316390195
30
0.0000000000
10
-30.9566121745
20
-17.3317387640
30
0.0000000000
11
-30.9097534431
21
-17.0362964381
31
0.0000000000
11
-30.9151581269
21
-17.0671193475
31
0.0000000000
11
-30.9204466811
21
-17.0976058552
31
0.0000000000
11
-30.9255613865
21
-17.1274232313
31
0.0000000000
11
-30.9304464211
21
-17.1562460484
31
0.0000000000
11
-30.9350484695
21
-17.1837597340
31
0.0000000000
11
-30.9393173050
21
-17.2096640034
31
0.0000000000
11
-30.9432063374
21
-17.2336761370
31
0.0000000000
11
-30.9466731217
21
-17.2555340662
31
0.0000000000
11
-30.9496798215
21
-17.2749992333
31
0.0000000000
11
-30.9521936216
21
-17.2918591951
31
0.0000000000
11
-30.9541870863
21
-17.3059299418
31
0.0000000000
11
-30.9556384590
21
-17.3170579052
31
0.0000000000
11
-30.9565318993
21
-17.3251216346
31
0.0000000000
11
-30.9568576562
21
-17.3300331222
31
0.0000000000
11
-30.9566121745
21
-17.3317387640
31
0.0000000000
0
SPLINE
5
2BA
100
AcDbEntity
8
0
100
AcDbSpline
62
9
6
CONTINUOUS
70
0
71
3
72
22
73
18
74
16
42
0.0000001000
43
0.0000001000
44
0.0000000001
12
-0.0519509207
22
-0.2947180794
32
0.0000000000
13
0.2947153729
23
-0.0519662719
33
0.0000000000
40
0.0000000000
40
0.0000000000
40
0.0000000000
40
0.0000000000
40
0.1045678545
40
0.2079616468
40
0.3090532877
40
0.4067398384
40
0.4999555648
40
0.5876835907
40
0.6689670302
40
0.7429194841
40
0.8087348069
40
0.8656960768
40
0.9131837786
40
0.9506834234
40
0.9777937091
40
0.9942417763
40
1.0000000000
40
1.0000000000
40
1.0000000000
40
1.0000000000
10
-30.9097534431
20
-17.0362964381
30
0.0000000000
10
-30.9115642419
20
-17.0465691172
30
0.0000000000
10
-30.9151472452
20
-17.0670023610
30
0.0000000000
10
-30.9204170348
20
-17.0973779262
30
0.0000000000
10
-30.9255139509
20
-17.1270867520
30
0.0000000000
10
-30.9303823916
20
-17.1558045440
30
0.0000000000
10
-30.9349694199
20
-17.1832180262
30
0.0000000000
10
-30.9392247397
20
-17.2090274461
30
0.0000000000
10
-30.9431033561
20
-17.2329529367
30
0.0000000000
10
-30.9465591976
20
-17.2547273239
30
0.0000000000
10
-30.9495679808
20
-17.2741320485
30
0.0000000000
10
-30.9520582455
20
-17.2908966914
30
0.0000000000
10
-30.9541198230
20
-17.3050090777
30
0.0000000000
10
-30.9554191979
20
-17.3158489525
30
0.0000000000
10
-30.9567268598
20
-17.3244481478
30
0.0000000000
10
-30.9564498891
20
-17.3283424250
30
0.0000000000
10
-30.9571778535
20
-17.3316390195
30
0.0000000000
10
-30.9566121745
20
-17.3317387640
30
0.0000000000
11
-30.9097534431
21
-17.0362964381
31
0.0000000000
11
-30.9151581269
21
-17.0671193475
31
0.0000000000
11
-30.9204466811
21
-17.0976058552
31
0.0000000000
11
-30.9255613865
21
-17.1274232313
31
0.0000000000
11
-30.9304464211
21
-17.1562460484
31
0.0000000000
11
-30.9350484695
21
-17.1837597340
31
0.0000000000
11
-30.9393173050
21
-17.2096640034
31
0.0000000000
11
-30.9432063374
21
-17.2336761370
31
0.0000000000
11
-30.9466731217
21
-17.2555340662
31
0.0000000000
11
-30.9496798215
21
-17.2749992333
31
0.0000000000
11
-30.9521936216
21
-17.2918591951
31
0.0000000000
11
-30.9541870863
21
-17.3059299418
31
0.0000000000
11
-30.9556384590
21
-17.3170579052
31
0.0000000000
11
-30.9565318993
21
-17.3251216346
31
0.0000000000
11
-30.9568576562
21
-17.3300331222
31
0.0000000000
11
-30.9566121745
21
-17.3317387640
31
0.0000000000
0
SPLINE
5
2BB
100
AcDbEntity
8
0
100
AcDbSpline
62
9
6
CONTINUOUS
70
0
71
3
72
25
73
21
74
19
42
0.0000001000
43
0.0000001000
44
0.0000000001
12
0.0366384083
22
-0.9494578996
32
0.0000000000
13
0.9357282993
23
-0.1650006846
33
0.0000000000
40
0.0000000000
40
0.0000000000
40
0.0000000000
40
0.0000000000
40
0.0555443987
40
0.1110986549
40
0.1666536522
40
0.2222086395
40
0.2777639197
40
0.3333196874
40
0.3888757554
40
0.4444321265
40
0.4999888728
40
0.5555459668
40
0.6111033777
40
0.6666612040
40
0.7222194242
40
0.7777777838
40
0.8333363898
40
0.8888954828
40
0.9444542362
40
1.0000000000
40
1.0000000000
40
1.0000000000
40
1.0000000000
10
-31.4876792792
20
-16.3739188688
30
0.0000000000
10
-31.4870009264
20
-16.3914978915
30
0.0000000000
10
-31.4843171921
20
-16.4266223050
30
0.0000000000
10
-31.4763337012
20
-16.4788460486
30
0.0000000000
10
-31.4644366758
20
-16.5303260975
30
0.0000000000
10
-31.4486941005
20
-16.5807627386
30
0.0000000000
10
-31.4291955053
20
-16.6298701358
30
0.0000000000
10
-31.4060516519
20
-16.6773688118
30
0.0000000000
10
-31.3793940843
20
-16.7229887017
30
0.0000000000
10
-31.3493743524
20
-16.7664702888
30
0.0000000000
10
-31.3161631056
20
-16.8075662783
30
0.0000000000
10
-31.2799491508
20
-16.8460429159
30
0.0000000000
10
-31.2409383743
20
-16.8816813451
30
0.0000000000
10
-31.1993525616
20
-16.9142788400
30
0.0000000000
10
-31.1554282335
20
-16.9436499192
30
0.0000000000
10
-31.1094151270
20
-16.9696274638
30
0.0000000000
10
-31.0615751696
20
-16.9920636906
30
0.0000000000
10
-31.0121794819
20
-17.0108309626
30
0.0000000000
10
-30.9615169553
20
-17.0258209079
30
0.0000000000
10
-30.9270786908
20
-17.0332414084
30
0.0000000000
10
-30.9097534431
20
-17.0362964381
30
0.0000000000
11
-31.4876792792
21
-16.3739188688
31
0.0000000000
11
-31.4836579443
21
-16.4265417600
31
0.0000000000
11
-31.4756815756
21
-16.4787213161
31
0.0000000000
11
-31.4637957633
21
-16.5301521468
31
0.0000000000
11
-31.4480681427
21
-16.5805410724
31
0.0000000000
11
-31.4285880477
21
-16.6296018221
31
0.0000000000
11
-31.4054661046
21
-16.6770555459
31
0.0000000000
11
-31.3788338030
21
-16.7226321934
31
0.0000000000
11
-31.3488425370
21
-16.7660725507
31
0.0000000000
11
-31.3156627627
21
-16.8071295952
31
0.0000000000
11
-31.2794831261
21
-16.8455697707
31
0.0000000000
11
-31.2405093475
21
-16.8811743994
31
0.0000000000
11
-31.1989629503
21
-16.9137410010
31
0.0000000000
11
-31.1550801762
21
-16.9430842852
31
0.0000000000
11
-31.1091107625
21
-16.9690371879
31
0.0000000000
11
-31.0613160420
21
-16.9914521288
31
0.0000000000
11
-31.0119675891
21
-17.0102016339
31
0.0000000000
11
-30.9613468099
21
-17.0251788292
31
0.0000000000
11
-30.9097534431
21
-17.0362964381
31
0.0000000000
0
SPLINE
5
2BC
100
AcDbEntity
8
0
100
AcDbSpline
62
9
6
CONTINUOUS
70
0
71
3
72
17
73
13
74
11
42
0.0000001000
43
0.0000001000
44
0.0000000001
12
-1.2628726004
22
-32.7315213072
32
0.0000000000
13
1.2628726018
23
-32.7315213071
33
0.0000000000
40
0.0000000000
40
0.0000000000
40
0.0000000000
40
0.0000000000
40
0.0999999983
40
0.2000000012
40
0.3000000021
40
0.4000000011
40
0.4999999989
40
0.5999999967
40
0.6999999957
40
0.7999999966
40
0.8999999995
40
1.0000000000
40
1.0000000000
40
1.0000000000
40
1.0000000000
10
-31.4876792792
20
16.3739188688
30
0.0000000000
10
-31.5297750318
20
15.2828681771
30
0.0000000000
10
-31.6055518724
20
13.1004327007
30
0.0000000000
10
-31.6939649514
20
9.8260077219
30
0.0000000000
10
-31.7571209697
20
6.5509962094
30
0.0000000000
10
-31.7950160679
20
3.2755955988
30
0.0000000000
10
-31.8076480208
20
0.0000000358
30
0.0000000000
10
-31.7950160684
20
-3.2755955272
30
0.0000000000
10
-31.7571209708
20
-6.5509961378
30
0.0000000000
10
-31.6939649531
20
-9.8260076504
30
0.0000000000
10
-31.6055518739
20
-13.1004326530
30
0.0000000000
10
-31.5297750328
20
-15.2828681533
30
0.0000000000
10
-31.4876792792
20
-16.3739188688
30
0.0000000000
11
-31.4876792792
21
16.3739188688
31
0.0000000000
11
-31.6013431738
21
13.1003041242
31
0.0000000000
11
-31.6897554417
21
9.8259099455
31
0.0000000000
11
-31.7529108168
21
6.5509313303
31
0.0000000000
11
-31.7908055438
21
3.2755630875
31
0.0000000000
11
-31.8034373700
21
0.0000000358
31
0.0000000000
11
-31.7908055444
21
-3.2755630158
31
0.0000000000
11
-31.7529108179
21
-6.5509312587
31
0.0000000000
11
-31.6897554434
21
-9.8259098740
31
0.0000000000
11
-31.6013431760
21
-13.1003040527
31
0.0000000000
11
-31.4876792792
21
-16.3739188688
31
0.0000000000
0
SPLINE
5
2BD
100
AcDbEntity
8
0
100
AcDbSpline
62
9
6
CONTINUOUS
70
0
71
3
72
25
73
21
74
19
42
0.0000001000
43
0.0000001000
44
0.0000000001
12
-0.9357284301
22
-0.1649999427
32
0.0000000000
13
-0.0366391620
23
-0.9494578705
33
0.0000000000
40
0.0000000000
40
0.0000000000
40
0.0000000000
40
0.0000000000
40
0.0555492904
40
0.1111081296
40
0.1666673125
40
0.2222260141
40
0.2777844650
40
0.3333427811
40
0.3889007088
40
0.4444582109
40
0.5000153365
40
0.5555720505
40
0.6111283298
40
0.6666842960
40
0.7222399673
40
0.7777951555
40
0.8333500465
40
0.8889049539
40
0.9444591250
40
1.0000000000
40
1.0000000000
40
1.0000000000
40
1.0000000000
10
-30.9097534431
20
17.0362964381
30
0.0000000000
10
-30.9270797932
20
17.0332412282
30
0.0000000000
10
-30.9615191596
20
17.0258203755
30
0.0000000000
10
-31.0121827453
20
17.0108298781
30
0.0000000000
10
-31.0615784158
20
16.9920623157
30
0.0000000000
10
-31.1094183407
20
16.9696258138
30
0.0000000000
10
-31.1554313885
20
16.9436479819
30
0.0000000000
10
-31.1993556359
20
16.9142766175
30
0.0000000000
10
-31.2409413416
20
16.8816788373
30
0.0000000000
10
-31.2799519704
20
16.8460401408
30
0.0000000000
10
-31.3161657253
20
16.8075632756
30
0.0000000000
10
-31.3493767192
20
16.7664671196
30
0.0000000000
10
-31.3793961660
20
16.7229854228
30
0.0000000000
10
-31.4060534363
20
16.6773654659
30
0.0000000000
10
-31.4291969961
20
16.6298667492
30
0.0000000000
10
-31.4486952986
20
16.5807593334
30
0.0000000000
10
-31.4644375971
20
16.5303226979
30
0.0000000000
10
-31.4763343327
20
16.4788426715
30
0.0000000000
10
-31.4843174205
20
16.4266200509
30
0.0000000000
10
-31.4870009555
20
16.3914967758
30
0.0000000000
10
-31.4876792792
20
16.3739188688
30
0.0000000000
11
-30.9097534431
21
17.0362964381
31
0.0000000000
11
-30.9613500585
21
17.0251779975
31
0.0000000000
11
-31.0119708458
21
17.0102005420
31
0.0000000000
11
-31.0613192837
21
16.9914507572
31
0.0000000000
11
-31.1091139728
21
16.9690355354
31
0.0000000000
11
-31.1550833261
21
16.9430823491
31
0.0000000000
11
-31.1989660188
21
16.9137387794
31
0.0000000000
11
-31.2405123130
21
16.8811718902
31
0.0000000000
11
-31.2794859554
21
16.8455669840
31
0.0000000000
11
-31.3156653932
21
16.8071265802
31
0.0000000000
11
-31.3488449139
21
16.7660693702
31
0.0000000000
11
-31.3788358863
21
16.7226289161
31
0.0000000000
11
-31.4054678888
21
16.6770522060
31
0.0000000000
11
-31.4285895380
21
16.6295984407
31
0.0000000000
11
-31.4480693438
21
16.5805376704
31
0.0000000000
11
-31.4637966818
21
16.5301487524
31
0.0000000000
11
-31.4756822153
21
16.4787179449
31
0.0000000000
11
-31.4836583276
21
16.4265384315
31
0.0000000000
11
-31.4876792792
21
16.3739188688
31
0.0000000000
0
SPLINE
5
2BE
100
AcDbEntity
8
0
100
AcDbSpline
62
9
6
CONTINUOUS
70
0
71
3
72
22
73
18
74
16
42
0.0000001000
43
0.0000001000
44
0.0000000001
12
-0.0519509208
22
0.2947180793
32
0.0000000000
13
0.2947153729
23
0.0519662719
33
0.0000000000
40
0.0000000000
40
0.0000000000
40
0.0000000000
40
0.0000000000
40
0.1045678501
40
0.2079616388
40
0.3090532770
40
0.4067398260
40
0.4999555517
40
0.5876835778
40
0.6689670181
40
0.7429194735
40
0.8087347982
40
0.8656960702
40
0.9131837740
40
0.9506834207
40
0.9777937079
40
0.9942417760
40
1.0000000000
40
1.0000000000
40
1.0000000000
40
1.0000000000
10
-30.9097534431
20
17.0362964381
30
0.0000000000
10
-30.9115642418
20
17.0465691167
30
0.0000000000
10
-30.9151472450
20
17.0670023598
30
0.0000000000
10
-30.9204170345
20
17.0973779239
30
0.0000000000
10
-30.9255139504
20
17.1270867490
30
0.0000000000
10
-30.9303823910
20
17.1558045404
30
0.0000000000
10
-30.9349694193
20
17.1832180224
30
0.0000000000
10
-30.9392247391
20
17.2090274424
30
0.0000000000
10
-30.9431033556
20
17.2329529332
30
0.0000000000
10
-30.9465591971
20
17.2547273208
30
0.0000000000
10
-30.9495679804
20
17.2741320459
30
0.0000000000
10
-30.9520582452
20
17.2908966894
30
0.0000000000
10
-30.9541198229
20
17.3050090763
30
0.0000000000
10
-30.9554191978
20
17.3158489517
30
0.0000000000
10
-30.9567268598
20
17.3244481473
30
0.0000000000
10
-30.9564498890
20
17.3283424248
30
0.0000000000
10
-30.9571778535
20
17.3316390195
30
0.0000000000
10
-30.9566121745
20
17.3317387640
30
0.0000000000
11
-30.9097534431
21
17.0362964381
31
0.0000000000
11
-30.9151581266
21
17.0671193462
31
0.0000000000
11
-30.9204466807
21
17.0976058529
31
0.0000000000
11
-30.9255613860
21
17.1274232281
31
0.0000000000
11
-30.9304464205
21
17.1562460447
31
0.0000000000
11
-30.9350484689
21
17.1837597301
31
0.0000000000
11
-30.9393173044
21
17.2096639995
31
0.0000000000
11
-30.9432063368
21
17.2336761334
31
0.0000000000
11
-30.9466731213
21
17.2555340631
31
0.0000000000
11
-30.9496798212
21
17.2749992307
31
0.0000000000
11
-30.9521936214
21
17.2918591931
31
0.0000000000
11
-30.9541870862
21
17.3059299405
31
0.0000000000
11
-30.9556384589
21
17.3170579044
31
0.0000000000
11
-30.9565318993
21
17.3251216342
31
0.0000000000
11
-30.9568576562
21
17.3300331221
31
0.0000000000
11
-30.9566121745
21
17.3317387640
31
0.0000000000
0
ENDSEC
0
SECTION
2
OBJECTS
0
DICTIONARY
5
2BF
100
AcDbDictionary
3
ACAD_GROUP
350
2C0
3
ACAD_MLINESTYLE
350
2C1
0
DICTIONARY
5
2C0
102
{ACAD_REACTORS
330
2BF
102
}
100
AcDbDictionary
0
DICTIONARY
5
2C1
102
{ACAD_REACTORS
330
2BF
102
}
100
AcDbDictionary
3
STANDARD
350
2C2
0
MLINESTYLE
5
2C2
102
{ACAD_REACTORS
330
2C1
102
}
100
AcDbMlineStyle
2
STANDARD
70
0
3

62
256
51
90.0
52
90.0
71
2
49
0.5
62
256
6
BYLAYER
49
-0.5
62
256
6
BYLAYER
0
ENDSEC
0
EOF
